  0
SECTION
  2
HEADER
  9
$ACADVER
  1
AC1009
  9
$INSBASE
 10
0.0
 20
0.0
 30
0.0
  9
$EXTMIN
 10
9589.9627576642524
 20
14246.004010979361
 30
0.0
  9
$EXTMAX
 10
20089.962757664249
 20
28996.004010979359
 30
0.0
  9
$LIMMIN
 10
0.0
 20
0.0
  9
$LIMMAX
 10
420.0
 20
297.0
  9
$ORTHOMODE
 70
     0
  9
$REGENMODE
 70
     1
  9
$FILLMODE
 70
     1
  9
$QTEXTMODE
 70
     0
  9
$MIRRTEXT
 70
     0
  9
$DRAGMODE
 70
     2
  9
$LTSCALE
 40
150.0
  9
$OSMODE
 70
    37
  9
$ATTMODE
 70
     1
  9
$TEXTSIZE
 40
90.0
  9
$TRACEWID
 40
0.05
  9
$TEXTSTYLE
  7
STANDARD
  9
$CLAYER
  8
FUTO
  9
$CELTYPE
  6
BYLAYER
  9
$CECOLOR
 62
   256
  9
$DIMSCALE
 40
30.0
  9
$DIMASZ
 40
2.0
  9
$DIMEXO
 40
1.0
  9
$DIMDLI
 40
10.0
  9
$DIMRND
 40
0.0
  9
$DIMDLE
 40
0.0
  9
$DIMEXE
 40
1.0
  9
$DIMTP
 40
0.0
  9
$DIMTM
 40
0.0
  9
$DIMTXT
 40
3.0
  9
$DIMCEN
 40
0.0
  9
$DIMTSZ
 40
0.0
  9
$DIMTOL
 70
     0
  9
$DIMLIM
 70
     0
  9
$DIMTIH
 70
     0
  9
$DIMTOH
 70
     0
  9
$DIMSE1
 70
     0
  9
$DIMSE2
 70
     0
  9
$DIMTAD
 70
     1
  9
$DIMZIN
 70
     8
  9
$DIMBLK
  1
OPEN30
  9
$DIMASO
 70
     1
  9
$DIMSHO
 70
     1
  9
$DIMPOST
  1

  9
$DIMAPOST
  1

  9
$DIMALT
 70
     0
  9
$DIMALTD
 70
     2
  9
$DIMALTF
 40
0.03937
  9
$DIMLFAC
 40
1.0
  9
$DIMTOFL
 70
     1
  9
$DIMTVP
 40
0.0
  9
$DIMTIX
 70
     0
  9
$DIMSOXD
 70
     0
  9
$DIMSAH
 70
     0
  9
$DIMBLK1
  1

  9
$DIMBLK2
  1

  9
$DIMSTYLE
  2
MATSU
  9
$DIMCLRD
 70
     2
  9
$DIMCLRE
 70
     2
  9
$DIMCLRT
 70
     2
  9
$DIMTFAC
 40
1.0
  9
$DIMGAP
 40
0.5
  9
$LUNITS
 70
     2
  9
$LUPREC
 70
     1
  9
$SKETCHINC
 40
0.1
  9
$FILLETRAD
 40
0.0
  9
$AUNITS
 70
     0
  9
$AUPREC
 70
     0
  9
$MENU
  1
SSMENU
  9
$ELEVATION
 40
0.0
  9
$PELEVATION
 40
0.0
  9
$THICKNESS
 40
0.0
  9
$LIMCHECK
 70
     0
  9
$BLIPMODE
 70
     0
  9
$CHAMFERA
 40
20.0
  9
$CHAMFERB
 40
20.0
  9
$SKPOLY
 70
     0
  9
$TDCREATE
 40
2450714.9573032409
  9
$TDUPDATE
 40
2454953.648551967
  9
$TDINDWG
 40
1.4161302894000001
  9
$TDUSRTIMER
 40
1.4161302894000001
  9
$USRTIMER
 70
     1
  9
$ANGBASE
 50
0.0
  9
$ANGDIR
 70
     0
  9
$PDMODE
 70
     0
  9
$PDSIZE
 40
1.0
  9
$PLINEWID
 40
0.0
  9
$COORDS
 70
     1
  9
$SPLFRAME
 70
     0
  9
$SPLINETYPE
 70
     6
  9
$SPLINESEGS
 70
     8
  9
$ATTDIA
 70
     0
  9
$ATTREQ
 70
     1
  9
$HANDLING
 70
 10241
  9
$HANDSEED
  5
5501
  9
$SURFTAB1
 70
     6
  9
$SURFTAB2
 70
     6
  9
$SURFTYPE
 70
     6
  9
$SURFU
 70
     6
  9
$SURFV
 70
     6
  9
$UCSNAME
  2

  9
$UCSORG
 10
0.0
 20
0.0
 30
0.0
  9
$UCSXDIR
 10
1.0
 20
0.0
 30
0.0
  9
$UCSYDIR
 10
0.0
 20
1.0
 30
0.0
  9
$PUCSNAME
  2

  9
$PUCSORG
 10
0.0
 20
0.0
 30
0.0
  9
$PUCSXDIR
 10
1.0
 20
0.0
 30
0.0
  9
$PUCSYDIR
 10
0.0
 20
1.0
 30
0.0
  9
$USERI1
 70
     0
  9
$USERI2
 70
     0
  9
$USERI3
 70
     0
  9
$USERI4
 70
     0
  9
$USERI5
 70
     0
  9
$USERR1
 40
0.0
  9
$USERR2
 40
0.0
  9
$USERR3
 40
0.0
  9
$USERR4
 40
0.0
  9
$USERR5
 40
0.0
  9
$WORLDVIEW
 70
     1
  9
$SHADEDGE
 70
     3
  9
$SHADEDIF
 70
    70
  9
$TILEMODE
 70
     1
  9
$MAXACTVP
 70
    16
  9
$PLIMCHECK
 70
     0
  9
$PEXTMIN
 10
0.0
 20
0.0
 30
0.0
  9
$PEXTMAX
 10
12.561051004636781
 20
9.0
 30
0.0
  9
$PLIMMIN
 10
0.0
 20
0.0
  9
$PLIMMAX
 10
12.0
 20
9.0
  9
$UNITMODE
 70
     0
  9
$VISRETAIN
 70
     0
  9
$PLINEGEN
 70
     0
  9
$PSLTSCALE
 70
     0
  0
ENDSEC
  0
SECTION
  2
TABLES
  0
TABLE
  2
VPORT
 70
     2
  0
VPORT
  2
*ACTIVE
 70
     0
 10
0.0
 20
0.0
 11
1.0
 21
1.0
 12
19583.79486328967
 22
16099.372656204851
 13
0.0
 23
0.0
 14
5.0
 24
5.0
 15
0.0
 25
0.0
 16
0.0
 26
0.0
 36
1.0
 17
0.0
 27
0.0
 37
0.0
 40
4586.1837771284954
 41
3.1666666666666661
 42
50.0
 43
0.0
 44
0.0
 50
0.0
 51
0.0
 71
     0
 72
   500
 73
     1
 74
     0
 75
     0
 76
     0
 77
     0
 78
     0
  0
ENDTAB
  0
TABLE
  2
LTYPE
 70
     4
  0
LTYPE
  2
CONTINUOUS
 70
     0
  3
実線
 72
    65
 73
     0
 40
0.0
  0
LTYPE
  2
CENTER
 70
     0
  3
____ _ ____ _ ____ _ ____ _ ____ _ ____ _ ____ 
 72
    65
 73
     4
 40
2.0
 49
1.25
 49
-0.25
 49
0.25
 49
-0.25
  0
LTYPE
  2
HIDDEN
 70
     0
  3
__ __ __ __ __ __ __ __ __ __ __ __ __ __ __ __
 72
    65
 73
     2
 40
0.375
 49
0.25
 49
-0.125
  0
LTYPE
  2
PHANTOM
 70
     0
  3
______  __  __  ______  __  __  ______  __  __ 
 72
    65
 73
     6
 40
2.5
 49
1.25
 49
-0.25
 49
0.25
 49
-0.25
 49
0.25
 49
-0.25
  0
ENDTAB
  0
TABLE
  2
LAYER
 70
     9
  0
LAYER
  2
0
 70
     0
 62
     7
  6
CONTINUOUS
  0
LAYER
  2
FUTO
 70
     0
 62
     4
  6
CONTINUOUS
  0
LAYER
  2
CT
 70
     0
 62
     3
  6
CENTER
  0
LAYER
  2
HOSO
 70
     0
 62
     7
  6
CONTINUOUS
  0
LAYER
  2
KL
 70
     0
 62
     7
  6
HIDDEN
  0
LAYER
  2
SL
 70
     0
 62
     1
  6
PHANTOM
  0
LAYER
  2
SP
 70
     0
 62
     2
  6
CONTINUOUS
  0
LAYER
  2
DEFPOINTS
 70
     0
 62
     7
  6
CONTINUOUS
  0
LAYER
  2
4
 70
     0
 62
     7
  6
CONTINUOUS
  0
ENDTAB
  0
TABLE
  2
STYLE
 70
     2
  0
STYLE
  2
STANDARD
 70
     0
 40
0.0
 41
1.0
 50
15.0
 71
     0
 42
90.0
  3
SIMPLEX
  4
EXTFONT
  0
STYLE
  2
SUNPOU
 70
     0
 40
0.0
 41
1.0
 50
15.0
 71
     0
 42
5.0
  3
simplex.shx
  4
extfont.shx
  0
ENDTAB
  0
TABLE
  2
VIEW
 70
     0
  0
ENDTAB
  0
TABLE
  2
UCS
 70
     0
  0
ENDTAB
  0
TABLE
  2
APPID
 70
     1
  0
APPID
  2
ACAD
 70
     0
  0
ENDTAB
  0
TABLE
  2
DIMSTYLE
 70
     1
  0
DIMSTYLE
  2
MATSU
 70
     0
  3

  4

  5
CLOSED
  6

  7

 40
10.0
 41
2.0
 42
1.0
 43
10.0
 44
1.0
 45
0.0
 46
0.0
 47
0.0
 48
0.0
140
3.0
141
0.0
142
0.0
143
0.03937
144
1.0
145
0.0
146
1.0
147
0.5
 71
     0
 72
     0
 73
     0
 74
     0
 75
     0
 76
     0
 77
     1
 78
     8
170
     0
171
     2
172
     1
173
     0
174
     0
175
     0
176
   256
177
   256
178
   256
  0
ENDTAB
  0
ENDSEC
  0
SECTION
  2
BLOCKS
  0
BLOCK
  8
0
  2
$MODEL_SPACE
 70
     0
 10
0.0
 20
0.0
 30
0.0
  3
$MODEL_SPACE
  1

  0
ENDBLK
  5
7
  8
0
  0
BLOCK
 67
     1
  8
0
  2
$PAPER_SPACE
 70
     0
 10
0.0
 20
0.0
 30
0.0
  3
$PAPER_SPACE
  1

  0
ENDBLK
  5
A
 67
     1
  8
0
  0
BLOCK
  8
0
  2
K150-75
 70
     0
 10
0.0
 20
0.0
 30
0.0
  3
K150-75
  1

  0
LINE
  5
3EA
  8
FUTO
 10
-75.000000000000455
 20
0.0
 30
0.0
 11
0.0000000000004547
 21
0.0
 31
0.0
  0
LINE
  5
3EB
  8
FUTO
 10
-64.848622970991073
 20
12.677032629465881
 30
0.0
 11
-3.651377029009836
 21
7.3229673705341147
 31
0.0
  0
LINE
  5
3EC
  8
FUTO
 10
-75.0
 20
150.0
 30
0.0
 11
0.0
 21
150.0000000000004
 31
0.0
  0
LINE
  5
3ED
  8
FUTO
 10
-64.848622970991073
 20
137.32296737053409
 30
0.0
 11
-3.651377029009836
 21
142.6770326294658
 31
0.0
  0
LINE
  5
3EE
  8
FUTO
 10
-68.500000000000455
 20
133.33818857816729
 30
0.0
 11
-68.5
 21
16.661811421832681
 31
0.0
  0
ARC
  5
3EF
  8
FUTO
 10
-64.500000000000455
 20
16.661811421832681
 30
0.0
 40
4.0
 50
180.0
 51
264.99999999999989
  0
LINE
  5
3F0
  8
FUTO
 10
-75.0
 20
150.0
 30
0.0
 11
-75.000000000000455
 21
0.0
 31
0.0
  0
ARC
  5
3F1
  8
FUTO
 10
-64.500000000000455
 20
133.33818857816729
 30
0.0
 40
4.0
 50
95.000000000000057
 51
180.0
  0
ARC
  5
3F2
  8
FUTO
 10
-4.0000000000004539
 20
3.3381885781673191
 30
0.0
 40
4.0
 50
0.0
 51
84.999999999999801
  0
LINE
  5
3F3
  8
FUTO
 10
0.0
 20
-0.0000000000004547
 30
0.0
 11
-0.0000000000004547
 21
3.3381885781673191
 31
0.0
  0
LINE
  5
3F4
  8
FUTO
 10
0.0
 20
150.0000000000004
 30
0.0
 11
-0.0000000000004547
 21
146.6618114218326
 31
0.0
  0
ARC
  5
3F5
  8
FUTO
 10
-4.0000000000004539
 20
146.6618114218326
 30
0.0
 40
4.0
 50
275.00000000000011
 51
0.0
  0
ENDBLK
  5
3F7
  8
0
  0
BLOCK
  8
0
  2
まっすぐの矢印
 70
     0
 10
0.0
 20
0.0
 30
0.0
  3
まっすぐの矢印
  1

  0
LINE
  5
599
  8
SP
 10
13.01863531255526
 20
-41.453946163708451
 30
0.0
 11
13.01863531255526
 21
-93.495696758840026
 31
0.0
  0
LINE
  5
59A
  8
SP
 10
13.01863531255526
 20
-93.495696758840026
 30
0.0
 11
-13.01863531255526
 21
-93.495696758840026
 31
0.0
  0
LINE
  5
59B
  8
SP
 10
-13.01863531255526
 20
-93.495696758840026
 30
0.0
 11
-13.01863531255526
 21
-41.453946163708451
 31
0.0
  0
LINE
  5
59C
  8
SP
 10
-13.01863531255526
 20
-41.453946163708451
 30
0.0
 11
-32.06015471115802
 21
-41.453946163708451
 31
0.0
  0
LINE
  5
59D
  8
SP
 10
-32.06015471115802
 20
-41.453946163708451
 30
0.0
 11
0.0
 21
0.0
 31
0.0
  0
LINE
  5
59E
  8
SP
 10
0.0
 20
0.0
 30
0.0
 11
32.06015471115802
 21
-41.453946163708451
 31
0.0
  0
LINE
  5
59F
  8
SP
 10
32.06015471115802
 20
-41.453946163708451
 30
0.0
 11
13.01863531255526
 21
-41.453946163708451
 31
0.0
  0
ENDBLK
  5
5A1
  8
0
  0
BLOCK
  8
0
  2
左回転矢印
 70
     0
 10
0.0
 20
0.0
 30
0.0
  3
左回転矢印
  1

  0
LINE
  5
57C
  8
SP
 10
43.930449171819873
 20
24.859487323637271
 30
0.0
 11
38.511878498580238
 21
44.478978865188871
 31
0.0
  0
LINE
  5
57D
  8
SP
 10
38.511878498580238
 20
44.478978865188871
 30
0.0
 11
0.0
 21
0.0
 31
0.0
  0
LINE
  5
57E
  8
SP
 10
0.0
 20
0.0
 30
0.0
 11
52.57968174421967
 21
-6.4575435924972453
 31
0.0
  0
LINE
  5
57F
  8
SP
 10
52.57968174421967
 20
-6.4575435924972453
 30
0.0
 11
48.189912989015284
 21
9.436875093862227
 31
0.0
  0
ARC
  5
580
  8
SP
 10
93.893649146691985
 20
-156.0466295121104
 30
0.0
 40
171.67883327727239
 50
67.881388989212894
 51
105.4392492786835
  0
LINE
  5
581
  8
SP
 10
158.53505643637521
 20
2.997736182040398
 30
0.0
 11
164.55945966006539
 21
17.820238190756751
 31
0.0
  0
ARC
  5
582
  8
SP
 10
93.893649146692198
 20
-156.04662951211091
 30
0.0
 40
187.67883327727299
 50
67.881388989212994
 51
105.4392492786836
  0
ENDBLK
  5
584
  8
0
  0
BLOCK
  8
0
  2
*D3
 70
     1
 10
0.0
 20
0.0
 30
0.0
  3
*D3
  1

  0
LINE
  5
5424
  8
FUTO
 62
     2
 10
12957.857485438661
 20
18666.376202547988
 30
0.0
 11
12957.857485438661
 21
18454.15849362671
 31
0.0
  0
LINE
  5
5425
  8
FUTO
 62
     2
 10
14507.857485438661
 20
18618.458353591741
 30
0.0
 11
14507.857485438661
 21
18454.15849362671
 31
0.0
  0
LINE
  5
5426
  8
FUTO
 62
     2
 10
13017.857485438661
 20
18484.15849362671
 30
0.0
 11
14447.857485438661
 21
18484.15849362671
 31
0.0
  0
INSERT
  5
5427
  8
FUTO
 62
     2
  2
_OPEN30
 10
12957.857485438661
 20
18484.15849362671
 30
0.0
 41
60.0
 42
60.0
 43
60.0
 50
180.0
  0
INSERT
  5
5428
  8
FUTO
 62
     2
  2
_OPEN30
 10
14507.857485438661
 20
18484.15849362671
 30
0.0
 41
60.0
 42
60.0
 43
60.0
  0
TEXT
  8
0
  40
90
  5
54E8
  62
2
  72
0
  71
0
 10
13552.9
 20
18384.9
 30
0.000000
  1
1550
  7
SUNPOU
  0
POINT
  5
542A
  8
DEFPOINTS
 62
     0
 10
12957.857485438661
 20
18696.376202547988
 30
0.0
  0
POINT
  5
542B
  8
DEFPOINTS
 62
     0
 10
14507.857485438661
 20
18648.458353591741
 30
0.0
  0
POINT
  5
542C
  8
DEFPOINTS
 62
     0
 10
14507.857485438661
 20
18484.15849362671
 30
0.0
  0
ENDBLK
  5
3643
  8
0
  0
BLOCK
  8
0
  2
*D4
 70
     1
 10
0.0
 20
0.0
 30
0.0
  3
*D4
  1

  0
LINE
  5
542D
  8
FUTO
 62
     2
 10
14507.857485438661
 20
18693.458353591741
 30
0.0
 11
14507.857485438661
 21
18271.24117664263
 31
0.0
  0
LINE
  5
542E
  8
FUTO
 62
     2
 10
12107.857485438661
 20
18693.458353591741
 30
0.0
 11
12107.857485438661
 21
18271.24117664263
 31
0.0
  0
LINE
  5
542F
  8
FUTO
 62
     2
 10
14447.857485438661
 20
18301.24117664263
 30
0.0
 11
12167.857485438661
 21
18301.24117664263
 31
0.0
  0
INSERT
  5
5430
  8
FUTO
 62
     2
  2
_OPEN30
 10
14507.857485438661
 20
18301.24117664263
 30
0.0
 41
60.0
 42
60.0
 43
60.0
  0
INSERT
  5
5431
  8
FUTO
 62
     2
  2
_OPEN30
 10
12107.857485438661
 20
18301.24117664263
 30
0.0
 41
60.0
 42
60.0
 43
60.0
 50
180.0
  0
TEXT
  8
0
  40
90
  5
54E9
  62
2
  72
0
  71
0
 10
13127.9
 20
18201.9
 30
0.000000
  1
2400
  7
SUNPOU
  0
POINT
  5
5433
  8
DEFPOINTS
 62
     0
 10
14507.857485438661
 20
18723.458353591741
 30
0.0
  0
POINT
  5
5434
  8
DEFPOINTS
 62
     0
 10
12107.857485438661
 20
18723.458353591741
 30
0.0
  0
POINT
  5
5435
  8
DEFPOINTS
 62
     0
 10
12107.857485438661
 20
18301.24117664263
 30
0.0
  0
ENDBLK
  5
3638
  8
0
  0
BLOCK
  8
0
  2
*D5
 70
     1
 10
0.0
 20
0.0
 30
0.0
  3
*D5
  1

  0
LINE
  5
5436
  8
FUTO
 62
     2
 10
12957.857485438661
 20
18666.376202547988
 30
0.0
 11
12957.857485438661
 21
18454.15849362671
 31
0.0
  0
LINE
  5
5437
  8
FUTO
 62
     2
 10
12107.857485438661
 20
18618.458353591741
 30
0.0
 11
12107.857485438661
 21
18454.15849362671
 31
0.0
  0
LINE
  5
5438
  8
FUTO
 62
     2
 10
12897.857485438661
 20
18484.15849362671
 30
0.0
 11
12167.857485438661
 21
18484.15849362671
 31
0.0
  0
INSERT
  5
5439
  8
FUTO
 62
     2
  2
_OPEN30
 10
12957.857485438661
 20
18484.15849362671
 30
0.0
 41
60.0
 42
60.0
 43
60.0
  0
INSERT
  5
543A
  8
FUTO
 62
     2
  2
_OPEN30
 10
12107.857485438661
 20
18484.15849362671
 30
0.0
 41
60.0
 42
60.0
 43
60.0
 50
180.0
  0
TEXT
  8
0
  40
90
  5
54EA
  62
2
  72
0
  71
0
 10
12352.9
 20
18384.9
 30
0.000000
  1
850
  7
SUNPOU
  0
POINT
  5
543C
  8
DEFPOINTS
 62
     0
 10
12957.857485438661
 20
18696.376202547988
 30
0.0
  0
POINT
  5
543D
  8
DEFPOINTS
 62
     0
 10
12107.857485438661
 20
18648.458353591741
 30
0.0
  0
POINT
  5
543E
  8
DEFPOINTS
 62
     0
 10
12107.857485438661
 20
18484.15849362671
 30
0.0
  0
ENDBLK
  5
3667
  8
0
  0
BLOCK
  8
0
  2
*D6
 70
     1
 10
0.0
 20
0.0
 30
0.0
  3
*D6
  1

  0
LINE
  5
546B
  8
FUTO
 62
     2
 10
15945.800897477289
 20
18693.458353591741
 30
0.0
 11
15945.800897477289
 21
18275.424431349791
 31
0.0
  0
LINE
  5
546C
  8
FUTO
 62
     2
 10
18145.8008974773
 20
18693.458353591741
 30
0.0
 11
18145.8008974773
 21
18275.424431349791
 31
0.0
  0
LINE
  5
546D
  8
FUTO
 62
     2
 10
16005.8008974773
 20
18305.424431349791
 30
0.0
 11
18085.8008974773
 21
18305.424431349791
 31
0.0
  0
INSERT
  5
546E
  8
FUTO
 62
     2
  2
_OPEN30
 10
15945.800897477289
 20
18305.424431349791
 30
0.0
 41
60.0
 42
60.0
 43
60.0
 50
180.0
  0
INSERT
  5
546F
  8
FUTO
 62
     2
  2
_OPEN30
 10
18145.8008974773
 20
18305.424431349791
 30
0.0
 41
60.0
 42
60.0
 43
60.0
  0
TEXT
  8
0
  40
90
  5
54EB
  62
2
  72
0
  71
0
 10
16865.8
 20
18206.1
 30
0.000000
  1
2200
  7
SUNPOU
  0
POINT
  5
5471
  8
DEFPOINTS
 62
     0
 10
15945.800897477289
 20
18723.458353591741
 30
0.0
  0
POINT
  5
5472
  8
DEFPOINTS
 62
     0
 10
18145.8008974773
 20
18723.458353591741
 30
0.0
  0
POINT
  5
5473
  8
DEFPOINTS
 62
     0
 10
18145.8008974773
 20
18305.424431349791
 30
0.0
  0
ENDBLK
  5
34E6
  8
0
  0
BLOCK
  8
0
  2
*D7
 70
     1
 10
0.0
 20
0.0
 30
0.0
  3
*D7
  1

  0
LINE
  5
5474
  8
FUTO
 62
     2
 10
17533.8008974773
 20
18693.458353591741
 30
0.0
 11
17533.8008974773
 21
18456.75487260738
 31
0.0
  0
LINE
  5
5475
  8
FUTO
 62
     2
 10
18145.8008974773
 20
18693.458353591741
 30
0.0
 11
18145.8008974773
 21
18456.75487260738
 31
0.0
  0
LINE
  5
5476
  8
FUTO
 62
     2
 10
17593.8008974773
 20
18486.75487260738
 30
0.0
 11
18085.8008974773
 21
18486.75487260738
 31
0.0
  0
INSERT
  5
5477
  8
FUTO
 62
     2
  2
_OPEN30
 10
17533.8008974773
 20
18486.75487260738
 30
0.0
 41
60.0
 42
60.0
 43
60.0
 50
180.0
  0
INSERT
  5
5478
  8
FUTO
 62
     2
  2
_OPEN30
 10
18145.8008974773
 20
18486.75487260738
 30
0.0
 41
60.0
 42
60.0
 43
60.0
  0
TEXT
  8
0
  40
90
  5
54EC
  62
2
  72
0
  71
0
 10
17659.8
 20
18387.5
 30
0.000000
  1
612
  7
SUNPOU
  0
POINT
  5
547A
  8
DEFPOINTS
 62
     0
 10
17533.8008974773
 20
18723.458353591741
 30
0.0
  0
POINT
  5
547B
  8
DEFPOINTS
 62
     0
 10
18145.8008974773
 20
18723.458353591741
 30
0.0
  0
POINT
  5
547C
  8
DEFPOINTS
 62
     0
 10
18145.8008974773
 20
18486.75487260738
 30
0.0
  0
ENDBLK
  5
393A
  8
0
  0
BLOCK
  8
0
  2
*D8
 70
     1
 10
0.0
 20
0.0
 30
0.0
  3
*D8
  1

  0
LINE
  5
547D
  8
FUTO
 62
     2
 10
17533.8008974773
 20
18693.458353591741
 30
0.0
 11
17533.8008974773
 21
18456.76011352997
 31
0.0
  0
LINE
  5
547E
  8
FUTO
 62
     2
 10
15945.800897477289
 20
18693.458353591741
 30
0.0
 11
15945.800897477289
 21
18456.76011352997
 31
0.0
  0
LINE
  5
547F
  8
FUTO
 62
     2
 10
17473.8008974773
 20
18486.76011352997
 30
0.0
 11
16005.8008974773
 21
18486.76011352997
 31
0.0
  0
INSERT
  5
5480
  8
FUTO
 62
     2
  2
_OPEN30
 10
17533.8008974773
 20
18486.76011352997
 30
0.0
 41
60.0
 42
60.0
 43
60.0
  0
INSERT
  5
5481
  8
FUTO
 62
     2
  2
_OPEN30
 10
15945.800897477289
 20
18486.76011352997
 30
0.0
 41
60.0
 42
60.0
 43
60.0
 50
180.0
  0
TEXT
  8
0
  40
90
  5
54ED
  62
2
  72
0
  71
0
 10
16559.8
 20
18387.5
 30
0.000000
  1
1588
  7
SUNPOU
  0
POINT
  5
5483
  8
DEFPOINTS
 62
     0
 10
17533.8008974773
 20
18723.458353591741
 30
0.0
  0
POINT
  5
5484
  8
DEFPOINTS
 62
     0
 10
15945.800897477289
 20
18723.458353591741
 30
0.0
  0
POINT
  5
5485
  8
DEFPOINTS
 62
     0
 10
15945.800897477289
 20
18486.76011352997
 30
0.0
  0
ENDBLK
  5
3947
  8
0
  0
BLOCK
  8
0
  2
_CLOSED
 70
     0
 10
0.0
 20
0.0
 30
0.0
  3
_CLOSED
  1

  0
LINE
  5
3BE3
  8
0
  6
BYBLOCK
 62
     0
 10
-1.0
 20
0.1666666666666666
 30
0.0
 11
0.0
 21
0.0
 31
0.0
  0
LINE
  5
3BE4
  8
0
  6
BYBLOCK
 62
     0
 10
0.0
 20
0.0
 30
0.0
 11
-1.0
 21
-0.1666666666666666
 31
0.0
  0
LINE
  5
3BE5
  8
0
  6
BYBLOCK
 62
     0
 10
-1.0
 20
0.1666666666666666
 30
0.0
 11
-1.0
 21
-0.1666666666666666
 31
0.0
  0
ENDBLK
  5
3BE6
  8
0
  0
BLOCK
  8
0
  2
*D10
 70
     1
 10
0.0
 20
0.0
 30
0.0
  3
*D10
  1

  0
LINE
  5
5489
  8
SP
 62
     2
 10
15713.8008974773
 20
20343.458353591741
 30
0.0
 11
15713.8008974773
 21
21786.004785875331
 31
0.0
  0
LINE
  5
548A
  8
SP
 62
     2
 10
17533.8008974773
 20
21661.617691534659
 30
0.0
 11
17533.8008974773
 21
21786.004785875331
 31
0.0
  0
LINE
  5
548B
  8
SP
 62
     2
 10
15773.8008974773
 20
21756.004785875331
 30
0.0
 11
17473.8008974773
 21
21756.004785875331
 31
0.0
  0
INSERT
  5
548C
  8
SP
 62
     2
  2
_OPEN30
 10
15713.8008974773
 20
21756.004785875331
 30
0.0
 41
60.0
 42
60.0
 43
60.0
 50
180.0
  0
INSERT
  5
548D
  8
SP
 62
     2
  2
_OPEN30
 10
17533.8008974773
 20
21756.004785875331
 30
0.0
 41
60.0
 42
60.0
 43
60.0
  0
TEXT
  8
0
  40
90
  5
54EE
  62
2
  72
0
  71
0
 10
16443.8
 20
21656.7
 30
0.000000
  1
1820
  7
SUNPOU
  0
POINT
  5
548F
  8
DEFPOINTS
 62
     0
 10
15713.8008974773
 20
20313.458353591741
 30
0.0
  0
POINT
  5
5490
  8
DEFPOINTS
 62
     0
 10
17533.8008974773
 20
21631.61769153467
 30
0.0
  0
POINT
  5
5491
  8
DEFPOINTS
 62
     0
 10
17533.8008974773
 20
21756.004785875331
 30
0.0
  0
ENDBLK
  5
3C57
  8
0
  0
BLOCK
  8
0
  2
*D11
 70
     1
 10
0.0
 20
0.0
 30
0.0
  3
*D11
  1

  0
LINE
  5
54A0
  8
FUTO
 62
     2
 10
11997.857485438661
 20
21478.458353591741
 30
0.0
 11
11449.96568638694
 21
21478.458353591741
 31
0.0
  0
LINE
  5
54A1
  8
FUTO
 62
     2
 10
11926.296091118689
 20
19933.458353591741
 30
0.0
 11
11449.96568638693
 21
19933.458353591741
 31
0.0
  0
LINE
  5
54A2
  8
FUTO
 62
     2
 10
11479.96568638694
 20
21418.458353591741
 30
0.0
 11
11479.96568638693
 21
19993.458353591741
 31
0.0
  0
INSERT
  5
54A3
  8
FUTO
 62
     2
  2
_OPEN30
 10
11479.96568638694
 20
21478.458353591741
 30
0.0
 41
60.0
 42
60.0
 43
60.0
 50
90.0
  0
INSERT
  5
54A4
  8
FUTO
 62
     2
  2
_OPEN30
 10
11479.96568638693
 20
19933.458353591741
 30
0.0
 41
60.0
 42
60.0
 43
60.0
 50
270.0
  0
TEXT
  8
0
  40
90
  5
54EF
  62
2
  72
0
  71
0
 10
11240.0
 20
20546.7
 30
0.000000
  1
1545
  7
SUNPOU
  0
POINT
  5
54A6
  8
DEFPOINTS
 62
     0
 10
12027.857485438661
 20
21478.458353591741
 30
0.0
  0
POINT
  5
54A7
  8
DEFPOINTS
 62
     0
 10
11956.296091118689
 20
19933.458353591741
 30
0.0
  0
POINT
  5
54A8
  8
DEFPOINTS
 62
     0
 10
11479.96568638693
 20
19933.458353591741
 30
0.0
  0
ENDBLK
  5
4374
  8
0
  0
BLOCK
  8
0
  2
*D12
 70
     1
 10
0.0
 20
0.0
 30
0.0
  3
*D12
  1

  0
LINE
  5
543F
  8
FUTO
 62
     2
 10
18197.8008974773
 20
20633.458353591741
 30
0.0
 11
18563.41075923352
 21
20633.458353591741
 31
0.0
  0
LINE
  5
5440
  8
FUTO
 62
     2
 10
18197.8008974773
 20
19233.458353591741
 30
0.0
 11
18563.41075923352
 21
19233.458353591741
 31
0.0
  0
LINE
  5
5441
  8
FUTO
 62
     2
 10
18533.41075923352
 20
20573.458353591741
 30
0.0
 11
18533.41075923352
 21
19293.458353591741
 31
0.0
  0
INSERT
  5
5442
  8
FUTO
 62
     2
  2
_OPEN30
 10
18533.41075923352
 20
20633.458353591741
 30
0.0
 41
60.0
 42
60.0
 43
60.0
 50
90.0
  0
INSERT
  5
5443
  8
FUTO
 62
     2
  2
_OPEN30
 10
18533.41075923352
 20
19233.458353591741
 30
0.0
 41
60.0
 42
60.0
 43
60.0
 50
270.0
  0
TEXT
  8
0
  40
90
  5
54F0
  62
2
  72
0
  71
0
 10
18293.4
 20
19774.2
 30
0.000000
  1
%%C1400
  7
SUNPOU
  0
POINT
  5
5445
  8
DEFPOINTS
 62
     0
 10
18167.8008974773
 20
20633.458353591741
 30
0.0
  0
POINT
  5
5446
  8
DEFPOINTS
 62
     0
 10
18167.8008974773
 20
19233.458353591741
 30
0.0
  0
POINT
  5
5447
  8
DEFPOINTS
 62
     0
 10
18533.41075923352
 20
19233.458353591741
 30
0.0
  0
ENDBLK
  5
4473
  8
0
  0
BLOCK
  8
0
  2
*D13
 70
     1
 10
0.0
 20
0.0
 30
0.0
  3
*D13
  1

  0
LINE
  5
5448
  8
FUTO
 62
     2
 10
17533.8008974773
 20
21631.61769153467
 30
0.0
 11
17533.8008974773
 21
21786.004785875331
 31
0.0
  0
LINE
  5
5449
  8
FUTO
 62
     2
 10
18167.8008974773
 20
20713.458353591741
 30
0.0
 11
18167.8008974773
 21
21786.004785875331
 31
0.0
  0
LINE
  5
544A
  8
FUTO
 62
     2
 10
17593.8008974773
 20
21756.004785875331
 30
0.0
 11
18107.8008974773
 21
21756.004785875331
 31
0.0
  0
INSERT
  5
544B
  8
FUTO
 62
     2
  2
_OPEN30
 10
17533.8008974773
 20
21756.004785875331
 30
0.0
 41
60.0
 42
60.0
 43
60.0
 50
180.0
  0
INSERT
  5
544C
  8
FUTO
 62
     2
  2
_OPEN30
 10
18167.8008974773
 20
21756.004785875331
 30
0.0
 41
60.0
 42
60.0
 43
60.0
  0
TEXT
  8
0
  40
90
  5
54F1
  62
2
  72
0
  71
0
 10
17670.8
 20
21656.7
 30
0.000000
  1
634
  7
SUNPOU
  0
POINT
  5
544E
  8
DEFPOINTS
 62
     0
 10
17533.8008974773
 20
21601.61769153467
 30
0.0
  0
POINT
  5
544F
  8
DEFPOINTS
 62
     0
 10
18167.8008974773
 20
20683.458353591741
 30
0.0
  0
POINT
  5
5450
  8
DEFPOINTS
 62
     0
 10
18167.8008974773
 20
21756.004785875331
 30
0.0
  0
ENDBLK
  5
447F
  8
0
  0
BLOCK
  8
0
  2
_OPEN30
 70
     0
 10
0.0
 20
0.0
 30
0.0
  3
_OPEN30
  1

  0
LINE
  5
44D6
  8
FUTO
 62
     0
 10
-1.0
 20
0.26794919
 30
0.0
 11
0.0
 21
0.0
 31
0.0
  0
LINE
  5
44D7
  8
FUTO
 62
     0
 10
0.0
 20
0.0
 30
0.0
 11
-1.0
 21
-0.26794919
 31
0.0
  0
LINE
  5
44D8
  8
FUTO
 62
     0
 10
0.0
 20
0.0
 30
0.0
 11
-1.0
 21
0.0
 31
0.0
  0
ENDBLK
  5
44DA
  8
0
  0
BLOCK
  8
0
  2
*D15
 70
     1
 10
0.0
 20
0.0
 30
0.0
  3
*D15
  1

  0
LINE
  5
54A9
  8
FUTO
 62
     2
 10
12077.857485438661
 20
18873.458353591741
 30
0.0
 11
11449.96568638693
 21
18873.458353591741
 31
0.0
  0
LINE
  5
54AA
  8
FUTO
 62
     2
 10
12077.857485438661
 20
18723.458353591741
 30
0.0
 11
11449.96568638693
 21
18723.458353591741
 31
0.0
  0
LINE
  5
54AB
  8
FUTO
 62
     2
 10
11479.96568638693
 20
18813.458353591741
 30
0.0
 11
11479.96568638693
 21
18783.458353591741
 31
0.0
  0
LINE
  5
54AC
  8
FUTO
 62
     2
 10
11479.96568638693
 20
18723.458353591741
 30
0.0
 11
11479.96568638693
 21
18423.458353591741
 31
0.0
  0
INSERT
  5
54AD
  8
FUTO
 62
     2
  2
_OPEN30
 10
11479.96568638693
 20
18873.458353591741
 30
0.0
 41
60.0
 42
60.0
 43
60.0
 50
90.0
  0
INSERT
  5
54AE
  8
FUTO
 62
     2
  2
_OPEN30
 10
11479.96568638693
 20
18723.458353591741
 30
0.0
 41
60.0
 42
60.0
 43
60.0
 50
270.0
  0
TEXT
  8
0
  40
90
  5
54F2
  62
2
  72
0
  71
0
 10
11240.0
 20
18384.2
 30
0.000000
  1
150
  7
SUNPOU
  0
POINT
  5
54B0
  8
DEFPOINTS
 62
     0
 10
12107.857485438661
 20
18873.458353591741
 30
0.0
  0
POINT
  5
54B1
  8
DEFPOINTS
 62
     0
 10
12107.857485438661
 20
18723.458353591741
 30
0.0
  0
POINT
  5
54B2
  8
DEFPOINTS
 62
     0
 10
11479.96568638693
 20
18723.458353591741
 30
0.0
  0
ENDBLK
  5
4591
  8
0
  0
BLOCK
  8
0
  2
*D16
 70
     1
 10
0.0
 20
0.0
 30
0.0
  3
*D16
  1

  0
LINE
  5
54B3
  8
FUTO
 62
     2
 10
12957.857485438661
 20
25077.031067962969
 30
0.0
 11
12957.857485438661
 21
25180.594313506259
 31
0.0
  0
LINE
  5
54B4
  8
FUTO
 62
     2
 10
14507.857485438661
 20
23551.15849031337
 30
0.0
 11
14507.857485438661
 21
25180.594313506259
 31
0.0
  0
LINE
  5
54B5
  8
FUTO
 62
     2
 10
13017.857485438661
 20
25150.594313506259
 30
0.0
 11
14447.857485438661
 21
25150.594313506259
 31
0.0
  0
INSERT
  5
54B6
  8
FUTO
 62
     2
  2
_OPEN30
 10
12957.857485438661
 20
25150.594313506259
 30
0.0
 41
60.0
 42
60.0
 43
60.0
 50
180.0
  0
INSERT
  5
54B7
  8
FUTO
 62
     2
  2
_OPEN30
 10
14507.857485438661
 20
25150.594313506259
 30
0.0
 41
60.0
 42
60.0
 43
60.0
  0
TEXT
  8
0
  40
90
  5
54F3
  62
2
  72
0
  71
0
 10
13552.9
 20
25051.3
 30
0.000000
  1
1550
  7
SUNPOU
  0
POINT
  5
54B9
  8
DEFPOINTS
 62
     0
 10
12957.857485438661
 20
25047.031067962969
 30
0.0
  0
POINT
  5
54BA
  8
DEFPOINTS
 62
     0
 10
14507.857485438661
 20
23521.15849031337
 30
0.0
  0
POINT
  5
54BB
  8
DEFPOINTS
 62
     0
 10
14507.857485438661
 20
25150.594313506259
 30
0.0
  0
ENDBLK
  5
45B4
  8
0
  0
BLOCK
  8
0
  2
*D17
 70
     1
 10
0.0
 20
0.0
 30
0.0
  3
*D17
  1

  0
LINE
  5
54BC
  8
FUTO
 62
     2
 10
11750.337484859139
 20
24132.15849031337
 30
0.0
 11
11517.55158259879
 21
24132.15849031337
 31
0.0
  0
LINE
  5
54BD
  8
FUTO
 62
     2
 10
12177.857485438661
 20
24766.15849031337
 30
0.0
 11
11517.55158259879
 21
24766.15849031337
 31
0.0
  0
LINE
  5
54BE
  8
FUTO
 62
     2
 10
11547.55158259878
 20
24192.158490313381
 30
0.0
 11
11547.55158259878
 21
24706.15849031337
 31
0.0
  0
INSERT
  5
54BF
  8
FUTO
 62
     2
  2
_OPEN30
 10
11547.55158259878
 20
24132.15849031337
 30
0.0
 41
60.0
 42
60.0
 43
60.0
 50
270.0
  0
INSERT
  5
54C0
  8
FUTO
 62
     2
  2
_OPEN30
 10
11547.55158259878
 20
24766.15849031337
 30
0.0
 41
60.0
 42
60.0
 43
60.0
 50
90.0
  0
TEXT
  8
0
  40
90
  5
54F4
  62
2
  72
0
  71
0
 10
11307.6
 20
24289.9
 30
0.000000
  1
634
  7
SUNPOU
  0
POINT
  5
54C2
  8
DEFPOINTS
 62
     0
 10
11780.337484859139
 20
24132.15849031337
 30
0.0
  0
POINT
  5
54C3
  8
DEFPOINTS
 62
     0
 10
12207.857485438661
 20
24766.15849031337
 30
0.0
  0
POINT
  5
54C4
  8
DEFPOINTS
 62
     0
 10
11547.55158259878
 20
24766.15849031337
 30
0.0
  0
ENDBLK
  5
45C1
  8
0
  0
BLOCK
  8
0
  2
*D18
 70
     1
 10
0.0
 20
0.0
 30
0.0
  3
*D18
  1

  0
LINE
  5
54C5
  8
FUTO
 62
     2
 10
12547.857485438661
 20
22312.15849031337
 30
0.0
 11
11517.55158259879
 21
22312.15849031337
 31
0.0
  0
LINE
  5
54C6
  8
FUTO
 62
     2
 10
11547.55158259878
 20
24072.158490313381
 30
0.0
 11
11547.55158259878
 21
22372.15849031337
 31
0.0
  0
INSERT
  5
54C7
  8
FUTO
 62
     2
  2
_OPEN30
 10
11547.55158259878
 20
24132.15849031337
 30
0.0
 41
60.0
 42
60.0
 43
60.0
 50
90.0
  0
INSERT
  5
54C8
  8
FUTO
 62
     2
  2
_OPEN30
 10
11547.55158259878
 20
22312.15849031337
 30
0.0
 41
60.0
 42
60.0
 43
60.0
 50
270.0
  0
TEXT
  8
0
  40
90
  5
54F5
  62
2
  72
0
  71
0
 10
11307.6
 20
23062.9
 30
0.000000
  1
1820
  7
SUNPOU
  0
POINT
  5
54CA
  8
DEFPOINTS
 62
     0
 10
11547.55158259878
 20
24132.15849031337
 30
0.0
  0
POINT
  5
54CB
  8
DEFPOINTS
 62
     0
 10
12577.857485438661
 20
22312.15849031337
 30
0.0
  0
POINT
  5
54CC
  8
DEFPOINTS
 62
     0
 10
11547.55158259878
 20
22312.15849031337
 30
0.0
  0
ENDBLK
  5
45CD
  8
0
  0
BLOCK
  8
0
  2
*D19
 70
     1
 10
0.0
 20
0.0
 30
0.0
  3
*D19
  1

  0
LINE
  5
54CD
  8
FUTO
 62
     2
 10
12957.857485438661
 20
21487.885098849179
 30
0.0
 11
12957.857485438661
 21
21786.004785875331
 31
0.0
  0
LINE
  5
54CE
  8
FUTO
 62
     2
 10
12027.857485438661
 20
21508.458353591741
 30
0.0
 11
12027.857485438661
 21
21786.004785875331
 31
0.0
  0
LINE
  5
54CF
  8
FUTO
 62
     2
 10
12897.857485438661
 20
21756.004785875331
 30
0.0
 11
12087.857485438661
 21
21756.004785875331
 31
0.0
  0
INSERT
  5
54D0
  8
FUTO
 62
     2
  2
_OPEN30
 10
12957.857485438661
 20
21756.004785875331
 30
0.0
 41
60.0
 42
60.0
 43
60.0
  0
INSERT
  5
54D1
  8
FUTO
 62
     2
  2
_OPEN30
 10
12027.857485438661
 20
21756.004785875331
 30
0.0
 41
60.0
 42
60.0
 43
60.0
 50
180.0
  0
TEXT
  8
0
  40
90
  5
54F6
  62
2
  72
0
  71
0
 10
12312.9
 20
21656.7
 30
0.000000
  1
930
  7
SUNPOU
  0
POINT
  5
54D3
  8
DEFPOINTS
 62
     0
 10
12957.857485438661
 20
21457.885098849179
 30
0.0
  0
POINT
  5
54D4
  8
DEFPOINTS
 62
     0
 10
12027.857485438661
 20
21478.458353591741
 30
0.0
  0
POINT
  5
54D5
  8
DEFPOINTS
 62
     0
 10
12027.857485438661
 20
21756.004785875331
 30
0.0
  0
ENDBLK
  5
46F2
  8
0
  0
BLOCK
  8
0
  2
*D20
 70
     1
 10
0.0
 20
0.0
 30
0.0
  3
*D20
  1

  0
LINE
  5
54D6
  8
FUTO
 62
     2
 10
11896.296091118689
 20
19933.458353591741
 30
0.0
 11
11449.96568638693
 21
19933.458353591741
 31
0.0
  0
LINE
  5
54D7
  8
FUTO
 62
     2
 10
12077.857485438661
 20
18893.458353591741
 30
0.0
 11
11449.96568638693
 21
18893.458353591741
 31
0.0
  0
LINE
  5
54D8
  8
FUTO
 62
     2
 10
11479.96568638693
 20
19873.458353591741
 30
0.0
 11
11479.96568638693
 21
18953.458353591741
 31
0.0
  0
INSERT
  5
54D9
  8
FUTO
 62
     2
  2
_OPEN30
 10
11479.96568638693
 20
19933.458353591741
 30
0.0
 41
60.0
 42
60.0
 43
60.0
 50
90.0
  0
INSERT
  5
54DA
  8
FUTO
 62
     2
  2
_OPEN30
 10
11479.96568638693
 20
18893.458353591741
 30
0.0
 41
60.0
 42
60.0
 43
60.0
 50
270.0
  0
TEXT
  8
0
  40
90
  5
54F7
  62
2
  72
0
  71
0
 10
11240.0
 20
19254.2
 30
0.000000
  1
1040
  7
SUNPOU
  0
POINT
  5
54DC
  8
DEFPOINTS
 62
     0
 10
11926.296091118689
 20
19933.458353591741
 30
0.0
  0
POINT
  5
54DD
  8
DEFPOINTS
 62
     0
 10
12107.857485438661
 20
18893.458353591741
 30
0.0
  0
POINT
  5
54DE
  8
DEFPOINTS
 62
     0
 10
11479.96568638693
 20
18893.458353591741
 30
0.0
  0
ENDBLK
  5
4700
  8
0
  0
BLOCK
  8
0
  2
*D21
 70
     1
 10
0.0
 20
0.0
 30
0.0
  3
*D21
  1

  0
LINE
  5
54DF
  8
FUTO
 62
     2
 10
12957.857485438661
 20
25077.031067962969
 30
0.0
 11
12957.857485438661
 21
25180.594313506259
 31
0.0
  0
LINE
  5
54E0
  8
FUTO
 62
     2
 10
12027.857485438661
 20
24746.15849031337
 30
0.0
 11
12027.857485438661
 21
25180.594313506259
 31
0.0
  0
LINE
  5
54E1
  8
FUTO
 62
     2
 10
12897.857485438661
 20
25150.594313506259
 30
0.0
 11
12087.857485438661
 21
25150.594313506259
 31
0.0
  0
INSERT
  5
54E2
  8
FUTO
 62
     2
  2
_OPEN30
 10
12957.857485438661
 20
25150.594313506259
 30
0.0
 41
60.0
 42
60.0
 43
60.0
  0
INSERT
  5
54E3
  8
FUTO
 62
     2
  2
_OPEN30
 10
12027.857485438661
 20
25150.594313506259
 30
0.0
 41
60.0
 42
60.0
 43
60.0
 50
180.0
  0
TEXT
  8
0
  40
90
  5
54F8
  62
2
  72
0
  71
0
 10
12312.9
 20
25051.3
 30
0.000000
  1
930
  7
SUNPOU
  0
POINT
  5
54E5
  8
DEFPOINTS
 62
     0
 10
12957.857485438661
 20
25047.031067962969
 30
0.0
  0
POINT
  5
54E6
  8
DEFPOINTS
 62
     0
 10
12027.857485438661
 20
24716.158490313381
 30
0.0
  0
POINT
  5
54E7
  8
DEFPOINTS
 62
     0
 10
12027.857485438661
 20
25150.594313506259
 30
0.0
  0
ENDBLK
  5
471E
  8
0
  0
BLOCK
  8
0
  2
*U22
 70
     1
 10
0.0
 20
0.0
 30
0.0
  3
*U22
  1

  0
SOLID
  5
5493
  8
FUTO
  6
CONTINUOUS
 10
-12310.58933478469
 20
18893.458353591741
 30
0.0
 11
-12350.58933478469
 21
18893.458353591741
 31
0.0
 12
-12310.58933478468
 22
18873.458353591741
 32
0.0
 13
-12310.58933478468
 23
18873.458353591741
 33
0.0
210
0.0
220
0.0
230
-1.0
  0
SOLID
  5
5494
  8
FUTO
  6
CONTINUOUS
 10
-12350.58933478468
 20
18873.458353591741
 30
0.0
 11
-12310.58933478468
 21
18873.458353591741
 31
0.0
 12
-12350.58933478469
 22
18893.458353591741
 32
0.0
 13
-12350.58933478469
 23
18893.458353591741
 33
0.0
210
0.0
220
0.0
230
-1.0
  0
SOLID
  5
5495
  8
FUTO
  6
CONTINUOUS
 10
-12270.58933478469
 20
18893.458353591741
 30
0.0
 11
-12310.58933478469
 21
18893.458353591741
 31
0.0
 12
-12270.58933478469
 22
18873.458353591741
 32
0.0
 13
-12270.58933478469
 23
18873.458353591741
 33
0.0
210
0.0
220
0.0
230
-1.0
  0
SOLID
  5
5496
  8
FUTO
  6
CONTINUOUS
 10
-12310.58933478469
 20
18873.458353591741
 30
0.0
 11
-12270.58933478469
 21
18873.458353591741
 31
0.0
 12
-12310.58933478469
 22
18893.458353591741
 32
0.0
 13
-12310.58933478469
 23
18893.458353591741
 33
0.0
210
0.0
220
0.0
230
-1.0
  0
ENDBLK
  5
5498
  8
0
  0
BLOCK
  8
0
  2
*U23
 70
     1
 10
0.0
 20
0.0
 30
0.0
  3
*U23
  1

  0
SOLID
  5
549A
  8
FUTO
  6
CONTINUOUS
 10
14457.857485438661
 20
18893.458353591741
 30
0.0
 11
14457.857485438661
 21
18873.458353591741
 31
0.0
 12
14497.857485438661
 22
18893.458353591741
 32
0.0
 13
14497.857485438661
 23
18893.458353591741
 33
0.0
210
0.0
220
0.0
230
1.0
  0
SOLID
  5
549B
  8
FUTO
  6
CONTINUOUS
 10
14497.857485438661
 20
18873.458353591741
 30
0.0
 11
14497.857485438661
 21
18893.458353591741
 31
0.0
 12
14457.857485438661
 22
18873.458353591741
 32
0.0
 13
14457.857485438661
 23
18873.458353591741
 33
0.0
210
0.0
220
0.0
230
1.0
  0
SOLID
  5
549C
  8
FUTO
  6
CONTINUOUS
 10
14417.857485438661
 20
18873.458353591741
 30
0.0
 11
14457.857485438661
 21
18873.458353591741
 31
0.0
 12
14417.857485438661
 22
18893.458353591741
 32
0.0
 13
14417.857485438661
 23
18893.458353591741
 33
0.0
210
0.0
220
0.0
230
1.0
  0
SOLID
  5
549D
  8
FUTO
  6
CONTINUOUS
 10
14457.857485438661
 20
18893.458353591741
 30
0.0
 11
14417.857485438661
 21
18893.458353591741
 31
0.0
 12
14457.857485438661
 22
18873.458353591741
 32
0.0
 13
14457.857485438661
 23
18873.458353591741
 33
0.0
210
0.0
220
0.0
230
1.0
  0
ENDBLK
  5
549F
  8
0
  0
ENDSEC
  0
SECTION
  2
ENTITIES
  0
LINE
  5
1F
  8
FUTO
 10
15940.8008974773
 20
18873.458353591752
 30
0.0
 11
18148.8008974773
 21
18873.458353591741
 31
0.0
1001
ACAD
1000
ASC_BOUNDS
1002
{
1070
    19
1005
3975
1002
}
  0
LINE
  5
41
  8
FUTO
 10
15945.800897477289
 20
18723.458353591741
 30
0.0
 11
18145.8008974773
 21
18723.458353591741
 31
0.0
  0
LINE
  5
42
  8
FUTO
 10
15940.8008974773
 20
18893.458353591741
 30
0.0
 11
18148.8008974773
 21
18893.458353591752
 31
0.0
1001
ACAD
1000
ASC_BOUNDS
1002
{
1070
    19
1005
3975
1002
}
  0
LINE
  5
116
  8
FUTO
 10
16862.8008974773
 20
19978.458353591741
 30
0.0
 11
16924.3008974773
 21
19978.458353591741
 31
0.0
  0
LINE
  5
117
  8
FUTO
 10
16862.8008974773
 20
19888.458353591741
 30
0.0
 11
16925.600897477289
 21
19888.458353591741
 31
0.0
  0
LINE
  5
118
  8
FUTO
 10
15946.8008974773
 20
19043.458353591741
 30
0.0
 11
18146.000897477301
 21
19043.458353591741
 31
0.0
  0
LINE
  5
119
  8
CT
 10
15662.950763991919
 20
19933.458353591741
 30
0.0
 11
18261.128375449302
 21
19933.458353591741
 31
0.0
  0
ARC
  5
11C
  8
FUTO
 10
13059.857485438661
 20
20035.458353591752
 30
0.0
 40
1125.0
 50
337.74343389962638
 51
354.79803891510841
  0
LINE
  5
14C
  8
SL
 10
15923.8008974773
 20
20013.458353591741
 30
0.0
 11
15923.8008974773
 21
19853.458353591741
 31
0.0
  0
LINE
  5
162
  8
CT
 10
16083.8008974773
 20
20051.961850551859
 30
0.0
 11
16083.8008974773
 21
19770.627721805031
 31
0.0
  0
LINE
  5
163
  8
CT
 10
12812.857485438661
 20
19823.458353591741
 30
0.0
 11
12812.857485438661
 21
19877.458353591741
 31
0.0
  0
ARC
  5
164
  8
FUTO
 10
12846.857485438661
 20
19883.458353591741
 30
0.0
 40
16.0
 50
270.0
 51
0.000000000000007
  0
ARC
  5
165
  8
FUTO
 10
12957.857485438661
 20
19933.458353591741
 30
0.0
 40
95.000000000000071
 50
209.9999999999994
 51
230.94387397238239
  0
ARC
  5
168
  8
FUTO
 10
12957.857485438661
 20
19933.458353591741
 30
0.0
 40
94.999999999997485
 50
309.05612602761818
 51
330.00000000000108
  0
LINE
  5
169
  8
CT
 10
13102.857485438661
 20
19823.458353591741
 30
0.0
 11
13102.857485438661
 21
19877.458353591741
 31
0.0
  0
ARC
  5
16A
  8
FUTO
 10
13068.857485438661
 20
19883.458353591741
 30
0.0
 40
16.0
 50
180.0
 51
270.0
  0
LINE
  5
16B
  8
CT
 10
12957.857485438661
 20
20057.961850551859
 30
0.0
 11
12957.857485438661
 21
19816.217014436141
 31
0.0
  0
ARC
  5
178
  8
KL
 10
13043.357485438661
 20
19847.958353591741
 30
0.0
 40
917.5
 50
180.0
 51
270.0
  0
LINE
  5
17D
  8
FUTO
 10
15713.8008974773
 20
20313.458353591741
 30
0.0
 11
15713.8008974773
 21
19083.458353591741
 31
0.0
  0
LINE
  5
17E
  8
SL
 10
15823.800897477289
 20
20183.458353591741
 30
0.0
 11
15823.800897477289
 21
19197.458353591741
 31
0.0
  0
LINE
  5
17F
  8
SL
 10
15901.700897477291
 20
20183.458353591741
 30
0.0
 11
15901.7008974773
 21
19197.458353591741
 31
0.0
  0
ARC
  5
180
  8
FUTO
 10
12855.857485438661
 20
20035.458353591741
 30
0.0
 40
1329.0
 50
355.59825262435089
 51
85.598252624351105
  0
ARC
  5
183
  8
FUTO
 10
12957.857485438661
 20
19933.458353591741
 30
0.0
 40
380.0
 50
55.52077512793651
 51
249.0802792559534
  0
LINE
  5
184
  8
CT
 10
12957.857485438661
 20
21457.885098849179
 30
0.0
 11
12957.857485438661
 21
18523.458353591741
 31
0.0
  0
LINE
  5
185
  8
FUTO
 10
13797.857485438661
 20
20972.94275346195
 30
0.0
 11
13797.857485438661
 21
19817.570273609301
 31
0.0
  0
LINE
  5
186
  8
FUTO
 10
13788.857485438661
 20
20981.900110912291
 30
0.0
 11
13788.857485438661
 21
19823.750998624299
 31
0.0
  0
LINE
  5
187
  8
FUTO
 10
12117.857485438661
 20
21436.421535260099
 30
0.0
 11
12117.857485438661
 21
19043.458353591741
 31
0.0
  0
LINE
  5
188
  8
FUTO
 10
12126.857485438661
 20
21435.6097338404
 30
0.0
 11
12126.857485438661
 21
19043.458353591741
 31
0.0
  0
CIRCLE
  5
18B
  8
SL
 10
12957.857485438661
 20
19933.458353591741
 30
0.0
 40
250.0
  0
ARC
  5
18C
  8
KL
 10
12855.857485438661
 20
20035.458353591741
 30
0.0
 40
1309.0
 50
0.000000000000007
 51
84.845859597543125
  0
LINE
  5
19A
  8
CT
 10
16793.8008974773
 20
20051.961850551859
 30
0.0
 11
16793.8008974773
 21
19748.29419037659
 31
0.0
  0
LINE
  5
19B
  8
FUTO
 10
12107.857485438661
 20
18893.458353591741
 30
0.0
 11
14507.857485438661
 21
18893.458353591741
 31
0.0
1001
ACAD
1000
ASC_BOUNDS
1002
{
1070
    19
1005
0
1005
0
1005
0
1005
0
1005
0
1005
0
1005
0
1005
0
1005
0
1005
0
1005
0
1005
0
1005
0
1005
0
1005
0
1005
0
1005
0
1005
0
1005
0
1005
0
1005
0
1002
}
  0
LINE
  5
19C
  8
FUTO
 10
12107.857485438661
 20
18873.458353591741
 30
0.0
 11
14507.857485438661
 21
18873.458353591741
 31
0.0
1001
ACAD
1000
ASC_BOUNDS
1002
{
1070
    19
1005
0
1005
0
1005
0
1005
0
1005
0
1005
0
1005
0
1005
0
1005
0
1005
0
1005
0
1005
0
1005
0
1005
0
1005
0
1005
0
1005
0
1005
0
1005
0
1005
0
1005
0
1002
}
  0
DIMENSION
  5
276
  8
FUTO
  2
*D3
 10
14507.857485438661
 20
18484.15849362671
 30
0.0
 11
13732.857485438661
 21
18544.15849362671
 31
0.0
 70
     0
 13
12957.857485438661
 23
18696.376202547988
 33
0.0
 14
14507.857485438661
 24
18648.458353591741
 34
0.0
 50
180.0
1001
ACAD
1000
DSTYLE
1002
{
1070
    40
1040
30.0
1070
   176
1070
     2
1070
   177
1070
     2
1070
   178
1070
     2
1070
   341
1005
44D5
1070
     5
1000
OPEN30
1002
}
  0
DIMENSION
  5
283
  8
FUTO
  2
*D4
 10
12107.857485438661
 20
18301.24117664263
 30
0.0
 11
13307.857485438661
 21
18361.24117664263
 31
0.0
 70
     0
 13
14507.857485438661
 23
18723.458353591741
 33
0.0
 14
12107.857485438661
 24
18723.458353591741
 34
0.0
 50
180.0
1001
ACAD
1000
DSTYLE
1002
{
1070
    40
1040
30.0
1070
   176
1070
     2
1070
   177
1070
     2
1070
   178
1070
     2
1070
   341
1005
44D5
1070
     5
1000
OPEN30
1002
}
  0
LINE
  5
293
  8
FUTO
 10
13897.857485438661
 20
19117.951989009209
 30
0.0
 11
13844.656552334511
 21
19117.951989009209
 31
0.0
  0
LINE
  5
294
  8
FUTO
 10
12107.857485438661
 20
19043.458353591741
 30
0.0
 11
14507.857485438661
 21
19043.458353591741
 31
0.0
  0
LINE
  5
295
  8
FUTO
 10
12107.857485438661
 20
18723.458353591741
 30
0.0
 11
14507.857485438661
 21
18723.458353591741
 31
0.0
  0
LINE
  5
2AC
  8
FUTO
 10
13897.857485438661
 20
19043.458353591741
 30
0.0
 11
13897.857485438661
 21
19134.638785933948
 31
0.0
  0
LINE
  5
2AD
  8
FUTO
 10
13897.857485438661
 20
19043.458353591741
 30
0.0
 11
13907.8658213491
 21
19103.458353591741
 31
0.0
  0
LINE
  5
2AE
  8
FUTO
 10
14417.857485438661
 20
19043.458353591741
 30
0.0
 11
14417.857485438661
 21
19134.638785933948
 31
0.0
  0
LINE
  5
2AF
  8
FUTO
 10
14417.857485438661
 20
19043.458353591741
 30
0.0
 11
14407.84914952822
 21
19103.458353591741
 31
0.0
  0
ARC
  5
2B0
  8
FUTO
 10
14157.857485438661
 20
19303.458353591741
 30
0.0
 40
220.0
 50
249.08027925595351
 51
55.520775127936567
  0
LINE
  5
2B2
  8
FUTO
 10
14507.857485438661
 20
18873.458353591741
 30
0.0
 11
14507.857485438661
 21
18723.458353591741
 31
0.0
  0
POINT
  5
2B3
  8
DEFPOINTS
 10
14507.857485438661
 20
18893.458353591741
 30
0.0
  0
POINT
  5
2B4
  8
DEFPOINTS
 10
14507.857485438661
 20
18873.458353591741
 30
0.0
  0
POINT
  5
2B5
  8
DEFPOINTS
 10
14507.857485438661
 20
18873.458353591741
 30
0.0
  0
LINE
  5
2B6
  8
FUTO
 10
14507.857485438661
 20
19043.458353591741
 30
0.0
 11
14507.857485438661
 21
18893.458353591741
 31
0.0
  0
LINE
  5
2BD
  8
CT
 10
14360.412661438661
 20
19378.458353591741
 30
0.0
 11
14396.84601143866
 21
19378.458353591741
 31
0.0
  0
LINE
  5
2BE
  8
FUTO
 10
14377.857485438661
 20
19318.458353591741
 30
0.0
 11
14360.804018438659
 21
19318.458353591741
 31
0.0
  0
LINE
  5
2BF
  8
FUTO
 10
14377.857485438661
 20
19438.458353591741
 30
0.0
 11
14310.13116743866
 21
19438.458353591741
 31
0.0
  0
ARC
  5
2C0
  8
FUTO
 10
14386.057436438659
 20
19444.924906591739
 30
0.0
 40
8.1999940000000002
 50
107.30986
 51
180.0
  0
LINE
  5
2C1
  8
FUTO
 10
14407.84914952822
 20
19103.458353591741
 30
0.0
 11
14241.1958050169
 21
19103.458353591741
 31
0.0
  0
LINE
  5
2C2
  8
FUTO
 10
14356.312458027791
 20
19117.951989009209
 30
0.0
 11
14391.12700973191
 21
19117.951989009209
 31
0.0
  0
LINE
  5
2C3
  8
FUTO
 10
14378.129458438651
 20
19304.81626359174
 30
0.0
 11
14388.528017438661
 21
19261.142191591742
 31
0.0
  0
LINE
  5
2C4
  8
FUTO
 10
14554.650088438661
 20
19270.872904591739
 30
0.0
 11
14554.650088438661
 21
19408.665384591739
 31
0.0
  0
LINE
  5
2C5
  8
FUTO
 10
14394.650088438661
 20
19488.320169591741
 30
0.0
 11
14543.400088438661
 21
19230.677591591739
 31
0.0
  0
LINE
  5
2C6
  8
FUTO
 10
14389.107485438661
 20
19485.120218591739
 30
0.0
 11
14537.857485438661
 21
19227.47764059174
 31
0.0
  0
LINE
  5
2C7
  8
FUTO
 10
14400.857485438661
 20
19223.458353591741
 30
0.0
 11
14520.857485438661
 21
19223.458353591741
 31
0.0
  0
LINE
  5
2C8
  8
FUTO
 10
14398.256045438649
 20
19253.458353591741
 30
0.0
 11
14522.857485438661
 21
19253.458353591741
 31
0.0
  0
ARC
  5
2C9
  8
FUTO
 10
14531.38238743866
 20
19255.493021591741
 30
0.0
 40
2.0000450000000001
 50
107.313553
 51
209.99818400000001
  0
LINE
  5
2CA
  8
FUTO
 10
14548.889956438659
 20
19263.044290591741
 30
0.0
 11
14530.787173438661
 21
19257.402445591739
 31
0.0
  0
LINE
  5
2CB
  8
FUTO
 10
14543.400088438661
 20
19230.677591591739
 30
0.0
 11
14537.857485438661
 21
19227.47764059174
 31
0.0
  0
LINE
  5
2CC
  8
FUTO
 10
14520.857485438661
 20
19223.458353591741
 30
0.0
 11
14520.857485438661
 21
19253.458353591741
 31
0.0
  0
ARC
  5
2CD
  8
FUTO
 10
14546.45001443866
 20
19270.872904591739
 30
0.0
 40
8.2000299999999982
 50
287.31066900000002
 51
0.000000000000007
  0
LINE
  5
2CE
  8
FUTO
 10
14400.857485438661
 20
19223.458353591741
 30
0.0
 11
14400.857485438661
 21
19253.458353591741
 31
0.0
  0
LINE
  5
2CF
  8
FUTO
 10
14430.857485438661
 20
19223.458353591741
 30
0.0
 11
14430.857485438661
 21
19253.458353591741
 31
0.0
  0
LINE
  5
2D0
  8
FUTO
 10
14433.857485438661
 20
19223.458353591741
 30
0.0
 11
14433.857485438661
 21
19253.458353591741
 31
0.0
  0
ARC
  5
2D1
  8
FUTO
 10
14398.256045438649
 20
19263.458353591741
 30
0.0
 40
9.9999559999999992
 50
193.392303
 51
270.0
  0
LINE
  5
2D2
  8
CT
 10
14460.857485438661
 20
19267.541361591739
 30
0.0
 11
14460.857485438661
 21
19215.319925591739
 31
0.0
  0
LINE
  5
2D3
  8
FUTO
 10
14490.857485438661
 20
19223.458353591741
 30
0.0
 11
14490.857485438661
 21
19253.458353591741
 31
0.0
  0
LINE
  5
2D4
  8
FUTO
 10
14487.857485438661
 20
19223.458353591741
 30
0.0
 11
14487.857485438661
 21
19253.458353591741
 31
0.0
  0
LINE
  5
2D5
  8
FUTO
 10
14417.857485438661
 20
19117.951989009209
 30
0.0
 11
14471.0584185428
 21
19117.951989009209
 31
0.0
  0
LINE
  5
2D6
  8
FUTO
 10
14471.0584185428
 20
19125.407784437419
 30
0.0
 11
14479.939658681609
 21
19125.407784437419
 31
0.0
  0
LINE
  5
2D7
  8
FUTO
 10
14471.0584185428
 20
19111.206259523911
 30
0.0
 11
14471.0584185428
 21
19125.407784437419
 31
0.0
  0
LINE
  5
2D8
  8
FUTO
 10
14480.294909524981
 20
19111.206259523911
 30
0.0
 11
14471.0584185428
 21
19111.206259523911
 31
0.0
  0
LINE
  5
2D9
  8
FUTO
 10
14480.294909524981
 20
19125.052751465959
 30
0.0
 11
14480.294909524981
 21
19111.206259523911
 31
0.0
  0
LINE
  5
2DA
  8
FUTO
 10
14391.12700973191
 20
19134.638785933948
 30
0.0
 11
14391.12700973191
 21
19103.458353591741
 31
0.0
  0
LINE
  5
2DB
  8
FUTO
 10
14417.857485438661
 20
19134.638785933948
 30
0.0
 11
14391.12700973191
 21
19134.638785933948
 31
0.0
  0
LINE
  5
2DC
  8
FUTO
 10
14534.25140643866
 20
19462.339456591741
 30
0.0
 11
14409.650088438661
 21
19462.339456591741
 31
0.0
  0
ARC
  5
2DD
  8
FUTO
 10
14534.25140643866
 20
19452.339456591741
 30
0.0
 40
10.000075000000001
 50
13.392141000000001
 51
90.0
  0
ARC
  5
2DE
  8
FUTO
 10
14544.64935543866
 20
19408.66514059174
 30
0.0
 40
10.000731999999999
 50
0.0013990000000172
 51
13.392693
  0
LINE
  5
2DF
  8
FUTO
 10
14543.979555438649
 20
19454.65561959174
 30
0.0
 11
14554.378115438651
 21
19410.981546591742
 31
0.0
  0
LINE
  5
2E0
  8
FUTO
 10
14394.650088438661
 20
19488.320169591741
 30
0.0
 11
14389.107485438661
 21
19485.120218591739
 31
0.0
  0
ARC
  5
2E1
  8
FUTO
 10
14401.125185438659
 20
19460.30478859174
 30
0.0
 40
2.000008999999999
 50
287.31021099999992
 51
29.999931000000021
  0
LINE
  5
2E2
  8
FUTO
 10
14401.720278438661
 20
19458.395365591739
 30
0.0
 11
14383.617617438649
 21
19452.753519591741
 31
0.0
  0
ARC
  5
2E3
  8
FUTO
 10
14387.857485438661
 20
19307.132425591739
 30
0.0
 40
10.0
 50
180.0
 51
193.392303
  0
LINE
  5
2E4
  8
FUTO
 10
14377.857485438661
 20
19307.132425591739
 30
0.0
 11
14377.857485438661
 21
19444.924906591739
 31
0.0
  0
LINE
  5
2E5
  8
FUTO
 10
14151.607485438661
 20
19517.10532659174
 30
0.0
 11
14151.607485438661
 21
19567.208353591741
 31
0.0
  0
LINE
  5
2E6
  8
FUTO
 10
14164.107485438661
 20
19517.10532659174
 30
0.0
 11
14164.107485438661
 21
19567.208353591741
 31
0.0
  0
LINE
  5
2E7
  8
CT
 10
14157.857485438661
 20
19579.777445591739
 30
0.0
 11
14157.857485438661
 21
19099.753519591741
 31
0.0
  0
CIRCLE
  5
2E8
  8
FUTO
 10
14157.857485438661
 20
19303.458353591741
 30
0.0
 40
40.0
  0
LINE
  5
2E9
  8
FUTO
 10
14212.595522438651
 20
19107.458353591741
 30
0.0
 11
14103.11944843866
 21
19107.458353591741
 31
0.0
  0
LINE
  5
2EA
  8
CT
 10
13943.01837443866
 20
19303.458353591741
 30
0.0
 11
14371.84857443866
 21
19303.458353591741
 31
0.0
  0
LINE
  5
2EB
  8
CT
 10
13970.357485438661
 20
19303.458353591741
 30
0.0
 11
14357.89244278478
 21
19303.458353591741
 31
0.0
  0
CIRCLE
  5
2EC
  8
SL
 10
14157.857485438661
 20
19303.458353591741
 30
0.0
 40
106.0
  0
LINE
  5
2ED
  8
FUTO
 10
14074.519165860411
 20
19093.98200903014
 30
0.0
 11
14157.870266326179
 21
19093.98200903014
 31
0.0
  0
ARC
  5
2EE
  8
FUTO
 10
14157.857485438661
 20
19303.458353591741
 30
0.0
 40
203.5
 50
285.60376000000002
 51
254.3962709999999
  0
CIRCLE
  5
2EF
  8
FUTO
 10
14157.857485438661
 20
19303.458353591741
 30
0.0
 40
7.5
  0
LINE
  5
2F0
  8
CT
 10
14157.857485438661
 20
19090.958353591741
 30
0.0
 11
14157.857485438661
 21
19506.581358942291
 31
0.0
  0
LINE
  5
2F1
  8
FUTO
 10
14308.771548438661
 20
19166.940042591741
 30
0.0
 11
14313.569643438659
 21
19162.90561959174
 31
0.0
  0
LINE
  5
2F2
  8
FUTO
 10
14310.36627443866
 20
19160.99057959174
 30
0.0
 11
14306.77423343866
 21
19164.58262059174
 31
0.0
  0
LINE
  5
2F3
  8
FUTO
 10
14310.36627443866
 20
19160.141947591739
 30
0.0
 11
14310.36627443866
 21
19160.99057959174
 31
0.0
  0
LINE
  5
2F4
  8
FUTO
 10
14308.07892143866
 20
19158.702982591742
 30
0.0
 11
14308.92755343866
 21
19158.702982591742
 31
0.0
  0
LINE
  5
2F5
  8
FUTO
 10
14308.07892143866
 20
19158.702982591742
 30
0.0
 11
14308.07892143866
 21
19157.854593591739
 31
0.0
  0
ARC
  5
2F6
  8
FUTO
 10
14310.351870438661
 20
19159.078714591738
 30
0.0
 40
5.0000339999999994
 50
316.563965
 51
49.941891000000027
  0
LINE
  5
2F7
  8
FUTO
 10
14300.325259438659
 20
19150.949564591741
 30
0.0
 11
14296.73321843866
 21
19154.541605591741
 31
0.0
  0
LINE
  5
2F8
  8
FUTO
 10
14300.325259438659
 20
19150.949564591741
 30
0.0
 11
14301.173891438661
 21
19150.949564591741
 31
0.0
  0
LINE
  5
2F9
  8
FUTO
 10
14302.612612438659
 20
19153.236917591741
 30
0.0
 11
14302.612612438659
 21
19152.38828559174
 31
0.0
  0
LINE
  5
2FA
  8
FUTO
 10
14302.612612438659
 20
19153.236917591741
 30
0.0
 11
14299.020571438659
 21
19156.828958591741
 31
0.0
  0
LINE
  5
2FB
  8
FUTO
 10
14302.612612438659
 20
19153.236917591741
 30
0.0
 11
14303.461245438661
 21
19153.236917591741
 31
0.0
  0
LINE
  5
2FC
  8
FUTO
 10
14306.77423343866
 20
19164.58262059174
 30
0.0
 11
14296.73321843866
 21
19154.541605591741
 31
0.0
  0
LINE
  5
2FD
  8
CT
 10
14306.298403438661
 20
19155.017435591741
 30
0.0
 11
14301.050356438651
 21
19160.265482591742
 31
0.0
  0
LINE
  5
2FE
  8
FUTO
 10
14310.36627443866
 20
19160.141947591739
 30
0.0
 11
14301.173891438661
 21
19150.949564591741
 31
0.0
  0
LINE
  5
2FF
  8
FUTO
 10
14308.07892143866
 20
19158.702982591742
 30
0.0
 11
14304.486880438661
 21
19162.29526759174
 31
0.0
  0
LINE
  5
300
  8
FUTO
 10
14284.04376443866
 20
19123.458353591741
 30
0.0
 11
14279.522402438661
 21
19140.332865591739
 31
0.0
  0
LINE
  5
301
  8
FUTO
 10
14279.522280438659
 20
19140.332865591739
 30
0.0
 11
14284.04376443866
 21
19123.458353591741
 31
0.0
  0
ARC
  5
302
  8
FUTO
 10
14285.642153438661
 20
19136.81186959174
 30
0.0
 40
5.0
 50
195.00116
 51
307.48202500000008
  0
ARC
  5
303
  8
FUTO
 10
14157.857485438661
 20
19303.458353591741
 30
0.0
 40
214.9999849999999
 50
307.48104899999998
 51
316.565674
  0
ARC
  5
304
  8
FUTO
 10
14270.357485438661
 20
19120.458353591741
 30
0.0
 40
3.0
 50
90.0
 51
180.0
  0
LINE
  5
305
  8
FUTO
 10
14307.607485438661
 20
19115.458353591741
 30
0.0
 11
14307.607485438661
 21
19111.458353591741
 31
0.0
  0
LINE
  5
306
  8
FUTO
 10
14307.607485438661
 20
19107.458353591741
 30
0.0
 11
14307.607485438661
 21
19103.458353591741
 31
0.0
  0
LINE
  5
307
  8
FUTO
 10
14267.357485438661
 20
19120.458353591741
 30
0.0
 11
14267.357485438661
 21
19103.458353591741
 31
0.0
  0
LINE
  5
308
  8
FUTO
 10
14267.357485438661
 20
19108.458353591741
 30
0.0
 11
14261.682436438659
 21
19129.638529591739
 31
0.0
  0
LINE
  5
309
  8
CT
 10
14316.857485438661
 20
19127.88218159174
 30
0.0
 11
14316.857485438661
 21
19098.766458591741
 31
0.0
  0
LINE
  5
30A
  8
FUTO
 10
14307.607485438661
 20
19123.458353591741
 30
0.0
 11
14307.607485438661
 21
19119.458353591741
 31
0.0
  0
ARC
  5
30B
  8
FUTO
 10
14341.857485438661
 20
19177.78501359174
 30
0.0
 40
5.0
 50
0.000000000000007
 51
55.056338999999987
  0
ARC
  5
30C
  8
FUTO
 10
14343.85748543865
 20
19120.458353591741
 30
0.0
 40
3.0
 50
0.000000000000007
 51
90.0
  0
LINE
  5
30D
  8
FUTO
 10
14326.107485438661
 20
19115.458353591741
 30
0.0
 11
14326.107485438661
 21
19111.458353591741
 31
0.0
  0
LINE
  5
30E
  8
FUTO
 10
14326.107485438661
 20
19107.458353591741
 30
0.0
 11
14326.107485438661
 21
19103.458353591741
 31
0.0
  0
LINE
  5
30F
  8
FUTO
 10
14326.107485438661
 20
19123.458353591741
 30
0.0
 11
14326.107485438661
 21
19119.458353591741
 31
0.0
  0
LINE
  5
310
  8
FUTO
 10
14346.857485438661
 20
19177.78501359174
 30
0.0
 11
14346.857485438661
 21
19103.458353591741
 31
0.0
  0
LINE
  5
311
  8
FUTO
 10
14346.857485438661
 20
19103.458353591741
 30
0.0
 11
14267.357485438661
 21
19103.458353591741
 31
0.0
  0
LINE
  5
312
  8
FUTO
 10
14270.357485438661
 20
19123.458353591741
 30
0.0
 11
14343.85748543865
 21
19123.458353591741
 31
0.0
  0
LINE
  5
313
  8
FUTO
 10
14344.72137743866
 20
19181.883646591741
 30
0.0
 11
14328.78351143866
 21
19193.02012059174
 31
0.0
  0
LINE
  5
314
  8
FUTO
 10
14241.1958050169
 20
19103.458353591741
 30
0.0
 11
14241.1958050169
 21
19093.98200903014
 31
0.0
  0
LINE
  5
315
  8
FUTO
 10
14241.1958050169
 20
19093.98200903014
 30
0.0
 11
14157.844704551129
 21
19093.98200903014
 31
0.0
  0
LINE
  5
316
  8
FUTO
 10
14301.173891438661
 20
19455.96714259174
 30
0.0
 11
14300.325381438661
 21
19455.96714259174
 31
0.0
  0
LINE
  5
317
  8
FUTO
 10
14302.61273443866
 20
19453.67978859174
 30
0.0
 11
14302.61273443866
 21
19454.528421591742
 31
0.0
  0
LINE
  5
318
  8
FUTO
 10
14302.61273443866
 20
19453.67978859174
 30
0.0
 11
14303.461245438661
 21
19453.67978859174
 31
0.0
  0
LINE
  5
319
  8
FUTO
 10
14300.325381438661
 20
19455.96714259174
 30
0.0
 11
14296.73321843866
 21
19452.375101591741
 31
0.0
  0
LINE
  5
31A
  8
FUTO
 10
14310.36627443866
 20
19445.926126591741
 30
0.0
 11
14310.36627443866
 21
19446.774759591739
 31
0.0
  0
LINE
  5
31B
  8
FUTO
 10
14308.07892143866
 20
19448.213480591741
 30
0.0
 11
14308.92755343866
 21
19448.213480591741
 31
0.0
  0
LINE
  5
31C
  8
FUTO
 10
14308.07892143866
 20
19448.213480591741
 30
0.0
 11
14308.07892143866
 21
19449.062113591739
 31
0.0
  0
LINE
  5
31D
  8
FUTO
 10
14308.07892143866
 20
19448.213480591741
 30
0.0
 11
14304.486880438661
 21
19444.621439591741
 31
0.0
  0
LINE
  5
31E
  8
FUTO
 10
14302.61273443866
 20
19453.67978859174
 30
0.0
 11
14299.020571438659
 21
19450.08774759174
 31
0.0
  0
LINE
  5
31F
  8
FUTO
 10
14306.29852543866
 20
19451.899271591741
 30
0.0
 11
14301.050356438651
 21
19446.65122459174
 31
0.0
  0
LINE
  5
320
  8
FUTO
 10
14301.173891438661
 20
19455.96714259174
 30
0.0
 11
14310.36627443866
 21
19446.774759591739
 31
0.0
  0
LINE
  5
321
  8
FUTO
 10
14367.857485438661
 20
19318.458353591741
 30
0.0
 11
14367.857485438661
 21
19438.458353591741
 31
0.0
  0
LINE
  5
322
  8
FUTO
 10
14310.36627443866
 20
19445.926126591741
 30
0.0
 11
14306.77423343866
 21
19442.334085591741
 31
0.0
  0
LINE
  5
323
  8
FUTO
 10
14296.73321843866
 20
19452.375101591741
 30
0.0
 11
14306.77423343866
 21
19442.334085591741
 31
0.0
  0
ARC
  5
324
  8
FUTO
 10
14170.857485438661
 20
19522.648294591741
 30
0.0
 40
2.0
 50
0.000000000000007
 51
84.289063000000013
  0
LINE
  5
325
  8
FUTO
 10
14164.314577438659
 20
19525.312601591741
 30
0.0
 11
14171.056521438661
 21
19524.638529591739
 31
0.0
  0
ARC
  5
326
  8
FUTO
 10
14144.857485438661
 20
19522.648294591741
 30
0.0
 40
2.0001619999999991
 50
95.710937999999985
 51
180.0
  0
LINE
  5
327
  8
FUTO
 10
14151.75738743866
 20
19525.34824559174
 30
0.0
 11
14144.658449438661
 21
19524.638529591739
 31
0.0
  0
ARC
  5
328
  8
FUTO
 10
14157.857485438661
 20
19303.458353591741
 30
0.0
 40
210.0001069999999
 50
86.232985999999997
 51
86.266968000000006
  0
ARC
  5
329
  8
FUTO
 10
14171.457217438659
 20
19510.011087591742
 30
0.0
 40
2.999933
 50
357.44390900000002
 51
86.232291999999973
  0
ARC
  5
32A
  8
FUTO
 10
14171.334780438659
 20
19510.019144591741
 30
0.0
 40
3.0000169999999988
 50
86.267189000000045
 51
175.056107
  0
LINE
  5
32B
  8
FUTO
 10
14174.454165438659
 20
19509.877298591739
 30
0.0
 11
14174.29425343866
 21
19506.29355859174
 31
0.0
  0
LINE
  5
32C
  8
FUTO
 10
14168.345888438649
 20
19510.277689591741
 30
0.0
 11
14168.03680643866
 21
19506.703714591738
 31
0.0
  0
LINE
  5
32D
  8
FUTO
 10
14147.369204438661
 20
19510.277689591741
 30
0.0
 11
14147.678286438661
 21
19506.703714591738
 31
0.0
  0
ARC
  5
32E
  8
FUTO
 10
14157.857485438661
 20
19303.458353591741
 30
0.0
 40
210.0
 50
93.732971000000006
 51
93.766974999999974
  0
ARC
  5
32F
  8
FUTO
 10
14144.257876438651
 20
19510.011087591742
 30
0.0
 40
3.0001370000000001
 50
93.767708000000013
 51
182.555984
  0
LINE
  5
330
  8
FUTO
 10
14141.26080543866
 20
19509.877298591739
 30
0.0
 11
14141.420840438661
 21
19506.29355859174
 31
0.0
  0
ARC
  5
331
  8
FUTO
 10
14144.38031243866
 20
19510.019144591741
 30
0.0
 40
3.000052999999999
 50
4.9438900000000174
 51
93.732811000000027
  0
LINE
  5
332
  8
FUTO
 10
14145.357485438661
 20
19513.458353591741
 30
0.0
 11
14170.357485438661
 21
19513.458353591741
 31
0.0
  0
LINE
  5
333
  8
FUTO
 10
14142.857485438661
 20
19513.458353591741
 30
0.0
 11
14172.857485438661
 21
19513.458353591741
 31
0.0
  0
LINE
  5
334
  8
FUTO
 10
14142.857485438661
 20
19513.458353591741
 30
0.0
 11
14142.857485438661
 21
19522.648294591741
 31
0.0
  0
LINE
  5
335
  8
FUTO
 10
14172.857485438661
 20
19513.458353591741
 30
0.0
 11
14172.857485438661
 21
19522.648294591741
 31
0.0
  0
ARC
  5
336
  8
FUTO
 10
14149.607485438661
 20
19517.10532659174
 30
0.0
 40
2.0
 50
270.0
 51
0.000000000000007
  0
ARC
  5
337
  8
FUTO
 10
14166.107485438661
 20
19517.10532659174
 30
0.0
 40
2.0
 50
180.0
 51
270.0
  0
LINE
  5
338
  8
FUTO
 10
13968.857485438661
 20
19103.458353591741
 30
0.0
 11
14048.357485438661
 21
19103.458353591741
 31
0.0
  0
LINE
  5
339
  8
FUTO
 10
14045.357485438661
 20
19123.458353591741
 30
0.0
 11
13971.857485438661
 21
19123.458353591741
 31
0.0
  0
LINE
  5
33A
  8
FUTO
 10
14018.98175343866
 20
19154.541605591741
 30
0.0
 11
14008.940737438659
 21
19164.58262059174
 31
0.0
  0
LINE
  5
33B
  8
FUTO
 10
14015.38971243866
 20
19150.949564591741
 30
0.0
 11
14018.98175343866
 21
19154.541605591741
 31
0.0
  0
ARC
  5
33C
  8
FUTO
 10
14157.857485438661
 20
19303.458353591741
 30
0.0
 40
214.9999849999999
 50
223.43432599999991
 51
232.51896699999989
  0
LINE
  5
33D
  8
FUTO
 10
13907.8658213491
 20
19103.458353591741
 30
0.0
 11
14074.519165860411
 21
19103.458353591741
 31
0.0
  0
LINE
  5
33E
  8
FUTO
 10
13995.857485438661
 20
19103.458353591741
 30
0.0
 11
14055.857485438661
 21
19103.458353591741
 31
0.0
  0
LINE
  5
33F
  8
FUTO
 10
14036.19269043866
 20
19140.332865591739
 30
0.0
 11
14031.671206438659
 21
19123.458353591741
 31
0.0
  0
ARC
  5
340
  8
FUTO
 10
14030.07281743866
 20
19136.81186959174
 30
0.0
 40
5.0
 50
232.51852400000001
 51
344.99902300000002
  0
ARC
  5
341
  8
FUTO
 10
14045.357485438661
 20
19120.458353591741
 30
0.0
 40
3.0
 50
0.000000000000007
 51
90.0
  0
LINE
  5
342
  8
FUTO
 10
14048.357485438661
 20
19120.458353591741
 30
0.0
 11
14048.357485438661
 21
19103.458353591741
 31
0.0
  0
LINE
  5
343
  8
FUTO
 10
14048.357485438661
 20
19108.458353591741
 30
0.0
 11
14054.032778438661
 21
19129.638529591739
 31
0.0
  0
LINE
  5
344
  8
FUTO
 10
14074.519165860411
 20
19103.458353591741
 30
0.0
 11
14074.519165860411
 21
19093.98200903014
 31
0.0
  0
LINE
  5
345
  8
FUTO
 10
13989.607485438661
 20
19115.458353591741
 30
0.0
 11
13989.607485438661
 21
19111.458353591741
 31
0.0
  0
LINE
  5
346
  8
FUTO
 10
13989.607485438661
 20
19107.458353591741
 30
0.0
 11
13989.607485438661
 21
19103.458353591741
 31
0.0
  0
LINE
  5
347
  8
FUTO
 10
13989.607485438661
 20
19123.458353591741
 30
0.0
 11
13989.607485438661
 21
19119.458353591741
 31
0.0
  0
ARC
  5
348
  8
FUTO
 10
13973.857485438661
 20
19177.78501359174
 30
0.0
 40
5.0000669999999987
 50
124.943665
 51
180.0
  0
ARC
  5
349
  8
FUTO
 10
13971.857485438661
 20
19120.458353591741
 30
0.0
 40
3.0
 50
90.0
 51
180.0
  0
LINE
  5
34A
  8
FUTO
 10
13968.857485438661
 20
19177.78501359174
 30
0.0
 11
13968.857485438661
 21
19103.458353591741
 31
0.0
  0
LINE
  5
34B
  8
FUTO
 10
14005.348696438659
 20
19160.99057959174
 30
0.0
 11
14008.940737438659
 21
19164.58262059174
 31
0.0
  0
LINE
  5
34C
  8
FUTO
 10
14005.348696438659
 20
19160.99057959174
 30
0.0
 11
14005.348696438659
 21
19160.141947591739
 31
0.0
  0
LINE
  5
34D
  8
FUTO
 10
14007.636050438659
 20
19158.703226591741
 30
0.0
 11
14006.787417438651
 21
19158.703226591741
 31
0.0
  0
LINE
  5
34E
  8
FUTO
 10
14007.636050438659
 20
19158.703226591741
 30
0.0
 11
14011.228091438659
 21
19162.29526759174
 31
0.0
  0
LINE
  5
34F
  8
FUTO
 10
14007.636050438659
 20
19158.703226591741
 30
0.0
 11
14007.636050438659
 21
19157.854593591739
 31
0.0
  0
LINE
  5
350
  8
FUTO
 10
14006.94366743866
 20
19166.940042591741
 30
0.0
 11
14002.14544943866
 21
19162.90561959174
 31
0.0
  0
LINE
  5
351
  8
FUTO
 10
14014.541079438661
 20
19150.949564591741
 30
0.0
 11
14015.38971243866
 21
19150.949564591741
 31
0.0
  0
LINE
  5
352
  8
FUTO
 10
14013.10211443866
 20
19153.236917591741
 30
0.0
 11
14013.10211443866
 21
19152.38828559174
 31
0.0
  0
LINE
  5
353
  8
FUTO
 10
14013.10211443866
 20
19153.236917591741
 30
0.0
 11
14016.69439943866
 21
19156.828958591741
 31
0.0
  0
LINE
  5
354
  8
FUTO
 10
14013.10211443866
 20
19153.236917591741
 30
0.0
 11
14012.253725438661
 21
19153.236917591741
 31
0.0
  0
ARC
  5
355
  8
FUTO
 10
14005.36334443866
 20
19159.078714591738
 30
0.0
 40
5.0000049999999998
 50
130.05917400000001
 51
223.43505899999991
  0
LINE
  5
356
  8
CT
 10
14009.41656743866
 20
19155.017435591741
 30
0.0
 11
14014.66461443866
 21
19160.265482591742
 31
0.0
  0
LINE
  5
357
  8
FUTO
 10
14014.541079438661
 20
19150.949564591741
 30
0.0
 11
14005.348696438659
 21
19160.141947591739
 31
0.0
  0
LINE
  5
358
  8
FUTO
 10
14008.107485438661
 20
19115.458353591741
 30
0.0
 11
14008.107485438661
 21
19111.458353591741
 31
0.0
  0
LINE
  5
359
  8
FUTO
 10
14008.107485438661
 20
19107.458353591741
 30
0.0
 11
14008.107485438661
 21
19103.458353591741
 31
0.0
  0
LINE
  5
35A
  8
CT
 10
13998.857485438661
 20
19127.88218159174
 30
0.0
 11
13998.857485438661
 21
19098.766458591741
 31
0.0
  0
LINE
  5
35B
  8
FUTO
 10
14008.107485438661
 20
19123.458353591741
 30
0.0
 11
14008.107485438661
 21
19119.458353591741
 31
0.0
  0
LINE
  5
35C
  8
FUTO
 10
13897.857485438661
 20
19134.638785933948
 30
0.0
 11
13924.5879611454
 21
19134.638785933948
 31
0.0
  0
LINE
  5
35D
  8
FUTO
 10
13959.40251284952
 20
19117.951989009209
 30
0.0
 11
13924.5879611454
 21
19117.951989009209
 31
0.0
  0
LINE
  5
35E
  8
FUTO
 10
13924.5879611454
 20
19134.638785933948
 30
0.0
 11
13924.5879611454
 21
19103.458353591741
 31
0.0
  0
LINE
  5
35F
  8
FUTO
 10
13970.993716438659
 20
19181.883646591741
 30
0.0
 11
13986.931582438659
 21
19193.02012059174
 31
0.0
  0
LINE
  5
360
  8
FUTO
 10
14015.38971243866
 20
19455.96714259174
 30
0.0
 11
14018.98175343866
 21
19452.375101591741
 31
0.0
  0
LINE
  5
361
  8
FUTO
 10
14008.940737438659
 20
19442.334085591741
 30
0.0
 11
14018.98175343866
 21
19452.375101591741
 31
0.0
  0
ARC
  5
362
  8
FUTO
 10
14157.857485438661
 20
19303.458353591741
 30
0.0
 40
210.00004599999991
 50
131.23298600000001
 51
131.26696799999991
  0
ARC
  5
363
  8
FUTO
 10
14021.326845438651
 20
19459.048685591741
 30
0.0
 40
2.9999169999999991
 50
131.26663199999999
 51
220.05661000000001
  0
ARC
  5
364
  8
FUTO
 10
14021.419009438659
 20
19459.129740591739
 30
0.0
 40
2.999909999999999
 50
42.440556000000022
 51
131.23197899999991
  0
LINE
  5
365
  8
FUTO
 10
14019.030581438659
 20
19457.118021591741
 30
0.0
 11
14021.339297438661
 21
19454.372171591742
 31
0.0
  0
LINE
  5
366
  8
FUTO
 10
14023.63287643866
 20
19461.154154591739
 30
0.0
 11
14026.054018438659
 21
19458.506937591741
 31
0.0
  0
LINE
  5
367
  8
FUTO
 10
14015.38971243866
 20
19455.96714259174
 30
0.0
 11
14014.541079438661
 21
19455.96714259174
 31
0.0
  0
LINE
  5
368
  8
FUTO
 10
14013.10235843866
 20
19453.67978859174
 30
0.0
 11
14013.10235843866
 21
19454.528421591742
 31
0.0
  0
LINE
  5
369
  8
FUTO
 10
14013.10235843866
 20
19453.67978859174
 30
0.0
 11
14012.253725438661
 21
19453.67978859174
 31
0.0
  0
LINE
  5
36A
  8
FUTO
 10
14005.348696438659
 20
19446.774759591739
 30
0.0
 11
14005.348696438659
 21
19445.926126591741
 31
0.0
  0
LINE
  5
36B
  8
FUTO
 10
14007.636050438659
 20
19448.21372459174
 30
0.0
 11
14006.787417438651
 21
19448.21372459174
 31
0.0
  0
LINE
  5
36C
  8
FUTO
 10
14007.636050438659
 20
19448.21372459174
 30
0.0
 11
14011.228091438659
 21
19444.621439591741
 31
0.0
  0
LINE
  5
36D
  8
FUTO
 10
14007.636050438659
 20
19448.21372459174
 30
0.0
 11
14007.636050438659
 21
19449.062113591739
 31
0.0
  0
LINE
  5
36E
  8
FUTO
 10
14009.41656743866
 20
19451.899271591741
 30
0.0
 11
14014.66461443866
 21
19446.65122459174
 31
0.0
  0
LINE
  5
36F
  8
FUTO
 10
14005.348696438659
 20
19446.774759591739
 30
0.0
 11
14014.541079438661
 21
19455.96714259174
 31
0.0
  0
LINE
  5
370
  8
FUTO
 10
14013.10235843866
 20
19453.67978859174
 30
0.0
 11
14016.69439943866
 21
19450.08774759174
 31
0.0
  0
ARC
  5
371
  8
FUTO
 10
14157.857485438661
 20
19303.458353591741
 30
0.0
 40
210.0
 50
138.73297099999991
 51
138.76696799999991
  0
ARC
  5
372
  8
FUTO
 10
14002.267153438661
 20
19439.989115591739
 30
0.0
 40
2.9999560000000001
 50
49.941890999999998
 51
138.7316129999999
  0
LINE
  5
373
  8
FUTO
 10
14000.161684438661
 20
19437.682962591742
 30
0.0
 11
14002.80902343866
 21
19435.262064591741
 31
0.0
  0
ARC
  5
374
  8
FUTO
 10
14002.18634343866
 20
19439.89682959174
 30
0.0
 40
2.9999500000000001
 50
138.768021
 51
227.55600000000001
  0
LINE
  5
375
  8
FUTO
 10
14004.19781743866
 20
19442.285257591739
 30
0.0
 11
14006.94366743866
 21
19439.97666359174
 31
0.0
  0
LINE
  5
376
  8
FUTO
 10
14005.348696438659
 20
19445.926126591741
 30
0.0
 11
14008.940737438659
 21
19442.334085591741
 31
0.0
  0
ARC
  5
377
  8
FUTO
 10
14157.857485438661
 20
19567.208353591741
 30
0.0
 40
6.25
 50
90.0
 51
180.0
  0
ARC
  5
378
  8
FUTO
 10
14157.857485438661
 20
19567.208353591741
 30
0.0
 40
6.25
 50
0.000000000000007
 51
90.0
  0
ARC
  5
396
  8
KL
 10
13059.857485438661
 20
20035.458353591752
 30
0.0
 40
1105.0
 50
269.14442036456973
 51
0.000000000000007
  0
ARC
  5
397
  8
FUTO
 10
12957.857485438661
 20
19933.458353591741
 30
0.0
 40
95.000000000003084
 50
249.05612602761781
 51
270.0
  0
LINE
  5
398
  8
FUTO
 10
12867.857485438661
 20
19836.458353591741
 30
0.0
 11
12957.857485438661
 21
19836.458353591741
 31
0.0
  0
LINE
  5
399
  8
KL
 10
12656.323985835081
 20
19827.458353591741
 30
0.0
 11
12957.857485438661
 21
19827.458353591741
 31
0.0
  0
LINE
  5
39A
  8
FUTO
 10
12757.857485438661
 20
19833.458353591741
 30
0.0
 11
13157.857485438661
 21
19833.458353591741
 31
0.0
  0
DIMENSION
  5
39B
  8
FUTO
  2
*D5
 10
12107.857485438661
 20
18484.15849362671
 30
0.0
 11
12532.857485438661
 21
18544.15849362671
 31
0.0
 70
     0
 13
12957.857485438661
 23
18696.376202547988
 33
0.0
 14
12107.857485438661
 24
18648.458353591741
 34
0.0
 50
180.0
1001
ACAD
1000
DSTYLE
1002
{
1070
    40
1040
30.0
1070
   176
1070
     2
1070
   177
1070
     2
1070
   178
1070
     2
1070
   341
1005
44D5
1070
     5
1000
OPEN30
1002
}
  0
LINE
  5
3B5
  8
FUTO
 10
13835.420061352341
 20
19125.052751465959
 30
0.0
 11
13835.420061352341
 21
19111.206259523911
 31
0.0
  0
LINE
  5
3B6
  8
FUTO
 10
13835.420061352341
 20
19111.206259523911
 30
0.0
 11
13844.656552334511
 21
19111.206259523911
 31
0.0
  0
LINE
  5
3B7
  8
FUTO
 10
13844.656552334511
 20
19111.206259523911
 30
0.0
 11
13844.656552334511
 21
19125.407784437419
 31
0.0
  0
LINE
  5
3B8
  8
FUTO
 10
13844.656552334511
 20
19125.407784437419
 30
0.0
 11
13835.775312195699
 21
19125.407784437419
 31
0.0
  0
LINE
  5
3BA
  8
KL
 10
13259.39098504223
 20
19827.458353591741
 30
0.0
 11
12957.857485438661
 21
19827.458353591741
 31
0.0
  0
LINE
  5
3BD
  8
FUTO
 10
13137.857485438661
 20
19833.458353591741
 30
0.0
 11
13047.857485438661
 21
19833.458353591741
 31
0.0
  0
LINE
  5
3BF
  8
FUTO
 10
13157.857485438661
 20
19833.458353591741
 30
0.0
 11
13157.857485438661
 21
19827.458353591741
 31
0.0
  0
ARC
  5
3C0
  8
FUTO
 10
13134.857485438661
 20
19864.458353591741
 30
0.0
 40
2.9999999999999991
 50
0.000000000000007
 51
90.0
  0
LINE
  5
3C1
  8
FUTO
 10
13137.857485438661
 20
19864.458353591741
 30
0.0
 11
13137.857485438661
 21
19833.458353591741
 31
0.0
  0
LINE
  5
3C2
  8
FUTO
 10
13068.857485438661
 20
19867.458353591741
 30
0.0
 11
13134.857485438661
 21
19867.458353591741
 31
0.0
  0
ARC
  5
3C3
  8
FUTO
 10
12957.857485438661
 20
19933.458353591741
 30
0.0
 40
94.999999999998295
 50
270.0
 51
290.94387397238302
  0
LINE
  5
3C4
  8
FUTO
 10
13047.857485438661
 20
19833.458353591741
 30
0.0
 11
13047.857485438661
 21
19836.458353591741
 31
0.0
  0
ARC
  5
3C5
  8
FUTO
 10
13005.357485438661
 20
19851.185940232219
 30
0.0
 40
14.999999999999909
 50
300.0000000000008
 51
34.528063013809827
  0
LINE
  5
3C6
  8
FUTO
 10
13047.857485438661
 20
19836.458353591741
 30
0.0
 11
12957.857485438661
 21
19836.458353591741
 31
0.0
  0
ARC
  5
3C7
  8
FUTO
 10
13005.357485438661
 20
19851.185940232219
 30
0.0
 40
15.000000000000419
 50
205.4719369861869
 51
300.00000000000011
  0
LINE
  5
3CF
  8
FUTO
 10
12457.857485438661
 20
18873.458353591741
 30
0.0
 11
12457.857485438661
 21
18723.458353591741
 31
0.0
  0
LINE
  5
3D0
  8
FUTO
 10
12457.857485438661
 20
19043.458353591741
 30
0.0
 11
12457.857485438661
 21
18893.458353591741
 31
0.0
  0
LINE
  5
3D1
  8
FUTO
 10
12350.58933478469
 20
18893.458353591741
 30
0.0
 11
12350.58933478469
 21
18873.458353591741
 31
0.0
  0
LINE
  5
3D2
  8
FUTO
 10
12310.58933478469
 20
18929.869782475351
 30
0.0
 11
12310.58933478469
 21
18830.044848511679
 31
0.0
1001
ACAD
1000
ASC_BOUNDS
1002
{
1070
    19
1005
0
1005
0
1005
0
1002
}
  0
POINT
  5
3D3
  8
DEFPOINTS
  6
BYBLOCK
 62
     0
 10
12107.857485438661
 20
18723.458353591741
 30
0.0
  0
LINE
  5
3D4
  8
FUTO
 10
12270.58933478469
 20
18893.458353591741
 30
0.0
 11
12270.58933478469
 21
18873.458353591741
 31
0.0
  0
LINE
  5
3D5
  8
FUTO
 10
12107.857485438661
 20
18873.458353591741
 30
0.0
 11
12107.857485438661
 21
18723.458353591741
 31
0.0
  0
POINT
  5
3D6
  8
DEFPOINTS
  6
BYBLOCK
 62
     0
 10
12107.857485438661
 20
18893.458353591741
 30
0.0
  0
POINT
  5
3D7
  8
DEFPOINTS
  6
BYBLOCK
 62
     0
 10
12107.857485438661
 20
18873.458353591741
 30
0.0
  0
POINT
  5
3D8
  8
DEFPOINTS
  6
BYBLOCK
 62
     0
 10
12107.857485438661
 20
18873.458353591741
 30
0.0
  0
LINE
  5
3D9
  8
FUTO
 10
12107.857485438661
 20
19043.458353591741
 30
0.0
 11
12107.857485438661
 21
18893.458353591741
 31
0.0
  0
LINE
  5
3DD
  8
FUTO
 10
12846.857485438661
 20
19867.458353591741
 30
0.0
 11
12780.857485438661
 21
19867.458353591741
 31
0.0
  0
LINE
  5
3DE
  8
FUTO
 10
12777.857485438661
 20
19833.458353591741
 30
0.0
 11
12867.857485438661
 21
19833.458353591741
 31
0.0
  0
LINE
  5
3E0
  8
FUTO
 10
12867.857485438661
 20
19833.458353591741
 30
0.0
 11
12867.857485438661
 21
19836.458353591741
 31
0.0
  0
ARC
  5
3E1
  8
FUTO
 10
12910.357485438661
 20
19851.185940232219
 30
0.0
 40
14.99999999999998
 50
145.47193698619191
 51
240.0000000000006
  0
ARC
  5
3E2
  8
FUTO
 10
12910.357485438661
 20
19851.185940232219
 30
0.0
 40
14.99999999999978
 50
239.99999999999989
 51
334.52806301381321
  0
LINE
  5
3E3
  8
FUTO
 10
12757.857485438661
 20
19833.458353591741
 30
0.0
 11
12757.857485438661
 21
19827.458353591741
 31
0.0
  0
ARC
  5
3E5
  8
FUTO
 10
12780.857485438661
 20
19864.458353591741
 30
0.0
 40
2.9999999999999991
 50
90.0
 51
180.0
  0
LINE
  5
3E6
  8
FUTO
 10
12777.857485438661
 20
19864.458353591741
 30
0.0
 11
12777.857485438661
 21
19833.458353591741
 31
0.0
  0
INSERT
  5
3E8
  8
FUTO
  2
K150-75
 10
15945.800897477289
 20
19043.458353591741
 30
0.0
 50
180.0
1001
ACAD
1000
ASC_BOUNDS
1002
{
1070
    19
1005
3975
1002
}
  0
LINE
  5
405
  8
SL
 10
15901.700897477291
 20
19853.458353591741
 30
0.0
 11
15923.8008974773
 21
19853.458353591741
 31
0.0
  0
LINE
  5
406
  8
CT
 10
15676.84416795658
 20
19303.458353591741
 30
0.0
 11
15979.662851068029
 21
19303.458353591741
 31
0.0
  0
LINE
  5
407
  8
FUTO
 10
15713.8008974773
 20
19083.458353591741
 30
0.0
 11
15968.800897477289
 21
19083.458353591741
 31
0.0
  0
LINE
  5
408
  8
SL
 10
15901.700897477291
 20
19243.458353591741
 30
0.0
 11
15916.8008974773
 21
19243.458353591741
 31
0.0
  0
LINE
  5
409
  8
SL
 10
15901.700897477291
 20
19363.458353591741
 30
0.0
 11
15916.8008974773
 21
19363.458353591741
 31
0.0
  0
LINE
  5
40D
  8
FUTO
 10
15940.8008974773
 20
18893.458353591741
 30
0.0
 11
15940.8008974773
 21
18873.458353591741
 31
0.0
1001
ACAD
1000
ASC_BOUNDS
1002
{
1070
    19
1005
3975
1002
}
  0
LINE
  5
40E
  8
SL
 10
15823.800897477289
 20
19197.458353591741
 30
0.0
 11
15901.700897477291
 21
19197.458353591741
 31
0.0
  0
LINE
  5
40F
  8
SL
 10
15823.800897477289
 20
19409.458353591741
 30
0.0
 11
15901.700897477291
 21
19409.458353591741
 31
0.0
  0
LINE
  5
410
  8
SL
 10
15823.800897477289
 20
19683.458353591741
 30
0.0
 11
15901.700897477291
 21
19683.458353591741
 31
0.0
  0
LINE
  5
415
  8
CT
 10
15980.8008974773
 20
18913.350530190739
 30
0.0
 11
15980.8008974773
 21
18856.56686024896
 31
0.0
1001
ACAD
1000
ASC_BOUNDS
1002
{
1070
    19
1005
0
1005
3975
1005
3975
1002
}
  0
LINE
  5
41A
  8
SL
 10
15916.8008974773
 20
19363.458353591741
 30
0.0
 11
15916.8008974773
 21
19243.458353591741
 31
0.0
  0
LINE
  5
41B
  8
FUTO
 10
15968.800897477289
 20
19250.515779867528
 30
0.0
 11
15968.800897477289
 21
19083.458353591741
 31
0.0
  0
LINE
  5
42E
  8
FUTO
 10
12070.717446318529
 20
19849.317985564219
 30
0.0
 11
12579.094662079209
 21
19902.819756352539
 31
0.0
  0
LINE
  5
42F
  8
FUTO
 10
12072.585983919529
 20
19831.415232501251
 30
0.0
 11
12580.970484156
 21
19884.917769909989
 31
0.0
  0
LINE
  5
430
  8
FUTO
 10
12027.857485438661
 20
19920.458353591741
 30
0.0
 11
12027.857485438661
 21
21478.458353591741
 31
0.0
  0
LINE
  5
431
  8
HOSO
 10
12027.857485438661
 20
19974.458353591741
 30
0.0
 11
12027.857485438661
 21
21424.458353591741
 31
0.0
  0
LINE
  5
44C
  8
FUTO
 10
12077.857485438661
 20
19920.458353591741
 30
0.0
 11
12077.857485438661
 21
21478.458353591741
 31
0.0
  0
LINE
  5
44D
  8
FUTO
 10
12031.857485438661
 20
19920.458353591741
 30
0.0
 11
12031.857485438661
 21
21478.458353591741
 31
0.0
  0
LINE
  5
44E
  8
CT
 10
11779.853506791331
 20
19933.458353591741
 30
0.0
 11
14487.94706452663
 21
19933.458353591741
 31
0.0
  0
LINE
  5
478
  8
FUTO
 10
12107.857485438661
 20
23521.15849031337
 30
0.0
 11
14507.857485438661
 21
23521.15849031337
 31
0.0
  0
LINE
  5
479
  8
FUTO
 10
12107.857485438661
 20
23596.15849031337
 30
0.0
 11
14164.857485438661
 21
23596.15849031337
 31
0.0
  0
LINE
  5
47A
  8
FUTO
 10
12457.857485438661
 20
22618.158490313381
 30
0.0
 11
14507.857485438661
 21
22618.158490313381
 31
0.0
  0
LINE
  5
488
  8
FUTO
 10
12457.857485438661
 20
22545.15849031337
 30
0.0
 11
14507.857485438661
 21
22545.15849031337
 31
0.0
  0
LINE
  5
489
  8
FUTO
 10
12457.857485438661
 20
22545.15849031337
 30
0.0
 11
14507.857485438661
 21
22545.15849031337
 31
0.0
  0
LINE
  5
4A3
  8
FUTO
 10
14507.857485438661
 20
23596.15849031337
 30
0.0
 11
14507.857485438661
 21
23521.15849031337
 31
0.0
  0
LINE
  5
4A4
  8
FUTO
 10
14292.857485438661
 20
23521.15849031337
 30
0.0
 11
14292.857485438661
 21
23221.65849031337
 31
0.0
  0
LINE
  5
4A5
  8
CT
 10
14157.857485438661
 20
23360.742979513288
 30
0.0
 11
14157.857485438661
 21
22185.026658395349
 31
0.0
  0
LINE
  5
4AD
  8
KL
 10
12027.857485438661
 20
21424.458353591741
 30
0.0
 11
12973.45208217391
 21
21339.165571803969
 31
0.0
  0
LINE
  5
4AE
  8
FUTO
 10
12077.857485438661
 20
21440.029541569878
 30
0.0
 11
12957.857485438661
 21
21360.653402754811
 31
0.0
  0
LINE
  5
4B2
  8
FUTO
 10
12027.857485438661
 20
21478.458353591741
 30
0.0
 11
12077.857485438661
 21
21478.458353591741
 31
0.0
  0
LINE
  5
51D
  8
CT
 10
12957.857485438661
 20
25047.031067962969
 30
0.0
 11
12957.857485438661
 21
22221.298402373632
 31
0.0
  0
LINE
  5
52A
  8
FUTO
 10
12457.857485438661
 20
23521.15849031337
 30
0.0
 11
12457.857485438661
 21
22545.15849031337
 31
0.0
  0
LINE
  5
52C
  8
FUTO
 10
12532.857485438661
 20
23521.15849031337
 30
0.0
 11
12532.857485438661
 21
22612.15849031337
 31
0.0
  0
ARC
  5
559
  8
FUTO
 10
13043.357485438661
 20
19847.958353591741
 30
0.0
 40
937.5
 50
180.0
 51
232.53790487866371
  0
ARC
  5
577
  8
FUTO
 10
12872.65748543866
 20
19847.958353591741
 30
0.0
 40
766.5
 50
172.0132987821784
 51
180.0
  0
CIRCLE
  5
578
  8
FUTO
 10
12957.857485438661
 20
19933.458353591741
 30
0.0
 40
36.5
  0
ARC
  5
579
  8
FUTO
 10
12957.857485438661
 20
19933.458353591741
 30
0.0
 40
94.999999999998053
 50
90.0
 51
110.94387397238231
  0
INSERT
  5
57A
  8
FUTO
  2
左回転矢印
 10
12779.848590356791
 20
20447.337173449469
 30
0.0
 41
2.0
 42
2.0
 43
2.0
  0
ARC
  5
585
  8
KL
 10
12872.65748543866
 20
19847.958353591741
 30
0.0
 40
746.49999999999989
 50
144.1215022574147
 51
180.0
  0
ARC
  5
587
  8
FUTO
 10
13052.857485438661
 20
19933.458353591741
 30
0.0
 40
14.999999999999909
 50
265.47193698619128
 51
359.9999999999996
  0
ARC
  5
588
  8
FUTO
 10
13052.857485438661
 20
19933.458353591741
 30
0.0
 40
15.000000000000121
 50
359.9999999999996
 51
94.528063013807852
  0
LINE
  5
589
  8
FUTO
 10
12973.53914813646
 20
20027.155127575861
 30
0.0
 11
12973.53914813646
 21
20033.458353591741
 31
0.0
  0
LINE
  5
58A
  8
FUTO
 10
12942.175822740861
 20
20027.155127575861
 30
0.0
 11
12942.175822740861
 21
20033.458353591741
 31
0.0
  0
LINE
  5
58B
  8
FUTO
 10
12942.175822740861
 20
20033.458353591741
 30
0.0
 11
12973.53914813646
 21
20033.458353591741
 31
0.0
  0
LINE
  5
58C
  8
FUTO
 10
13052.857485438661
 20
19918.458353591741
 30
0.0
 11
13052.857485438661
 21
19883.458353591741
 31
0.0
  0
ARC
  5
58D
  8
FUTO
 10
12957.857485438661
 20
19933.458353591741
 30
0.0
 40
95.000000000000995
 50
329.99999999999932
 51
350.94387397238222
  0
ARC
  5
58E
  8
FUTO
 10
12957.857485438661
 20
19933.458353591741
 30
0.0
 40
94.999999999997456
 50
9.0561260276185163
 51
30.000000000001421
  0
ARC
  5
58F
  8
FUTO
 10
12957.857485438661
 20
19933.458353591741
 30
0.0
 40
95.000000000000071
 50
29.999999999999481
 51
50.943873972382391
  0
ARC
  5
590
  8
FUTO
 10
12957.857485438661
 20
19933.458353591741
 30
0.0
 40
94.999999999998494
 50
69.056126027616216
 51
90.0
  0
ARC
  5
591
  8
FUTO
 10
13005.357485438661
 20
20015.730766951259
 30
0.0
 40
14.99999999999976
 50
325.47193698619111
 51
59.999999999999517
  0
ARC
  5
592
  8
FUTO
 10
13005.357485438661
 20
20015.730766951259
 30
0.0
 40
15.00000000000038
 50
59.999999999999517
 51
154.52806301381301
  0
CIRCLE
  5
593
  8
KL
 10
12252.391809021459
 20
20294.02121005427
 30
0.0
 40
17.407412889793701
  0
LINE
  5
594
  8
FUTO
 10
12077.857485438661
 20
19920.458353591741
 30
0.0
 11
12027.857485438661
 21
19920.458353591741
 31
0.0
  0
LINE
  5
595
  8
KL
 10
12027.857485438661
 20
19974.458353591741
 30
0.0
 11
12136.95374071528
 21
19974.458353591741
 31
0.0
  0
LINE
  5
596
  8
FUTO
 10
12077.857485438661
 20
19954.458353591741
 30
0.0
 11
12113.592270849031
 21
19954.458353591741
 31
0.0
  0
INSERT
  5
597
  8
FUTO
  2
まっすぐの矢印
 10
11797.999532708851
 20
20993.445700084409
 30
0.0
 41
2.0
 42
2.0
 43
2.0
 50
90.0
  0
LINE
  5
5A2
  8
FUTO
 10
12862.857485438661
 20
19918.458353591741
 30
0.0
 11
12862.857485438661
 21
19883.458353591741
 31
0.0
  0
ARC
  5
5A3
  8
FUTO
 10
12957.857485438661
 20
19933.458353591741
 30
0.0
 40
94.999999999999389
 50
149.99999999999969
 51
170.94387397238259
  0
ARC
  5
5A4
  8
FUTO
 10
12862.857485438661
 20
19933.458353591741
 30
0.0
 40
15.000000000000121
 50
85.471936986192148
 51
180.00000000000051
  0
ARC
  5
5A5
  8
FUTO
 10
12862.857485438661
 20
19933.458353591741
 30
0.0
 40
14.999999999999909
 50
180.0000000000004
 51
274.52806301380861
  0
ARC
  5
5A6
  8
FUTO
 10
12957.857485438661
 20
19933.458353591741
 30
0.0
 40
94.999999999999389
 50
189.0561260276173
 51
210.0000000000002
  0
ARC
  5
5A7
  8
FUTO
 10
12957.857485438661
 20
19933.458353591741
 30
0.0
 40
94.999999999999915
 50
129.0561260276165
 51
149.9999999999994
  0
ARC
  5
5A8
  8
FUTO
 10
12910.357485438661
 20
20015.730766951259
 30
0.0
 40
15.00000000000038
 50
25.4719369861869
 51
120.0000000000005
  0
ARC
  5
5A9
  8
FUTO
 10
12910.357485438661
 20
20015.730766951259
 30
0.0
 40
15.00000000000006
 50
120.0000000000008
 51
214.5280630138098
  0
LINE
  5
605
  8
FUTO
 10
15713.800897477289
 20
20313.458353591741
 30
0.0
 11
15968.800897477289
 21
20313.458353591741
 31
0.0
  0
LINE
  5
606
  8
SL
 10
15901.700897477291
 20
20013.458353591741
 30
0.0
 11
15923.8008974773
 21
20013.458353591741
 31
0.0
  0
POINT
  5
609
  8
DEFPOINTS
 10
15713.8008974773
 20
20313.458353591741
 30
0.0
  0
LINE
  5
60A
  8
SL
 10
15823.800897477289
 20
20183.458353591741
 30
0.0
 11
15901.700897477291
 21
20183.458353591741
 31
0.0
  0
LINE
  5
60E
  8
FUTO
 10
16153.8008974773
 20
19888.458353591741
 30
0.0
 11
16722.8008974773
 21
19888.458353591741
 31
0.0
  0
LINE
  5
60F
  8
FUTO
 10
16153.8008974773
 20
19978.458353591741
 30
0.0
 11
16722.8008974773
 21
19978.458353591741
 31
0.0
  0
LINE
  5
610
  8
FUTO
 10
15968.800897477289
 20
20313.458353591741
 30
0.0
 11
15968.800897477289
 21
20087.148723497459
 31
0.0
  0
LINE
  5
611
  8
FUTO
 10
15923.8008974773
 20
19890.958353591741
 30
0.0
 11
16013.3008974773
 21
19890.958353591741
 31
0.0
  0
LINE
  5
612
  8
FUTO
 10
15923.8008974773
 20
19975.958353591741
 30
0.0
 11
16013.3008974773
 21
19975.958353591741
 31
0.0
  0
LINE
  5
68C
  8
FUTO
 10
12107.857485438661
 20
24745.15849031337
 30
0.0
 11
13807.857485438661
 21
24745.15849031337
 31
0.0
  0
LINE
  5
68D
  8
FUTO
 10
12027.857485438661
 20
24670.15849031337
 30
0.0
 11
14164.857485438661
 21
24670.15849031337
 31
0.0
  0
LINE
  5
68E
  8
CT
 10
11780.337484859139
 20
24132.15849031337
 30
0.0
 11
14873.069558214111
 21
24132.15849031337
 31
0.0
  0
LINE
  5
68F
  8
FUTO
 10
13807.857485438661
 20
24745.15849031337
 30
0.0
 11
13807.857485438661
 21
24716.158490313381
 31
0.0
  0
LINE
  5
6A9
  8
FUTO
 10
12107.857485438661
 20
24745.15849031337
 30
0.0
 11
12107.857485438661
 21
24716.158490313381
 31
0.0
  0
LINE
  5
6C2
  8
FUTO
 10
17003.8008974773
 20
19924.458353591741
 30
0.0
 11
17003.8008974773
 21
19043.458353591741
 31
0.0
  0
LINE
  5
6C3
  8
FUTO
 10
16999.3008974773
 20
19924.458353591741
 30
0.0
 11
16999.300897477289
 21
19043.458353591741
 31
0.0
  0
LINE
  5
6C5
  8
FUTO
 10
18063.8008974773
 20
19924.458353591741
 30
0.0
 11
18063.8008974773
 21
19043.458353591741
 31
0.0
  0
LINE
  5
6C6
  8
KL
 10
18069.8008974773
 20
20637.771095900771
 30
0.0
 11
18069.8008974773
 21
19229.145611282711
 31
0.0
  0
LINE
  5
6CD
  8
CT
 10
17533.8008974773
 20
21638.380467721759
 30
0.0
 11
17533.8008974773
 21
18523.458353591741
 31
0.0
  0
LINE
  5
6D4
  8
FUTO
 10
16924.3008974773
 20
21428.458353591741
 30
0.0
 11
16924.300897477289
 21
19043.458353591741
 31
0.0
  0
DIMENSION
  5
6D5
  8
FUTO
  2
*D12
 10
18533.41075923352
 20
19233.458353591741
 30
0.0
 11
18473.41075923352
 21
19933.458353591741
 31
0.0
 70
     0
  1
%%C<>
 13
18167.8008974773
 23
20633.458353591741
 33
0.0
 14
18167.8008974773
 24
19233.458353591741
 34
0.0
 50
90.0
1001
ACAD
1000
DSTYLE
1002
{
1070
    40
1040
30.0
1070
   176
1070
     2
1070
   177
1070
     2
1070
   178
1070
     2
1070
   341
1005
44D5
1070
     5
1000
OPEN30
1002
}
  0
LINE
  5
6E2
  8
KL
 10
18073.000897477301
 20
19924.458353591741
 30
0.0
 11
18073.000897477301
 21
19183.458353591741
 31
0.0
  0
LINE
  5
6E6
  8
FUTO
 10
18161.8008974773
 20
20683.458353591741
 30
0.0
 11
18161.8008974773
 21
19183.458353591741
 31
0.0
  0
LINE
  5
6E7
  8
FUTO
 10
18167.8008974773
 20
20683.458353591741
 30
0.0
 11
18167.8008974773
 21
19183.458353591741
 31
0.0
  0
LINE
  5
703
  8
KL
 10
16999.3008974773
 20
18930.553390522251
 30
0.0
 11
18067.000897477301
 21
18930.553390522251
 31
0.0
  0
LINE
  5
70B
  8
CT
 10
16954.8008974773
 20
18913.62243472346
 30
0.0
 11
16954.8008974773
 21
18848.08959960076
 31
0.0
1001
ACAD
1000
ASC_BOUNDS
1002
{
1070
    19
1002
}
  0
LINE
  5
70E
  8
KL
 10
16999.3008974773
 20
19043.458353591741
 30
0.0
 11
16999.3008974773
 21
18930.553390522251
 31
0.0
  0
LINE
  5
70F
  8
KL
 10
17003.8008974773
 20
19043.458353591741
 30
0.0
 11
17003.8008974773
 21
18930.553390522251
 31
0.0
  0
LINE
  5
723
  8
FUTO
 10
18070.8008974773
 20
18893.458353591752
 30
0.0
 11
18070.8008974773
 21
18873.458353591741
 31
0.0
1001
ACAD
1000
ASC_BOUNDS
1002
{
1070
    19
1002
}
  0
LINE
  5
724
  8
CT
 10
18110.8008974773
 20
18912.981782523209
 30
0.0
 11
18110.8008974773
 21
18860.011128949249
 31
0.0
1001
ACAD
1000
ASC_BOUNDS
1002
{
1070
    19
1002
}
  0
LINE
  5
725
  8
KL
 10
18063.8008974773
 20
19043.458353591741
 30
0.0
 11
18063.8008974773
 21
18930.553390522251
 31
0.0
  0
LINE
  5
72A
  8
FUTO
 10
18148.8008974773
 20
18893.458353591741
 30
0.0
 11
18148.8008974773
 21
18873.458353591741
 31
0.0
1001
ACAD
1000
ASC_BOUNDS
1002
{
1070
    19
1002
}
  0
LINE
  5
72B
  8
KL
 10
18073.000897477301
 20
19227.458353591741
 30
0.0
 11
18142.000897477301
 21
19227.458353591741
 31
0.0
  0
LINE
  5
72C
  8
KL
 10
18067.000897477301
 20
19233.458353591741
 30
0.0
 11
18167.8008974773
 21
19233.458353591741
 31
0.0
  0
LINE
  5
72D
  8
CT
 10
18034.51619988219
 20
19200.958353591741
 30
0.0
 11
18091.558933014239
 21
19200.958353591741
 31
0.0
  0
LINE
  5
72E
  8
KL
 10
18067.000897477301
 20
19183.458353591741
 30
0.0
 11
18073.000897477301
 21
19183.458353591741
 31
0.0
  0
LINE
  5
72F
  8
FUTO
 10
18142.000897477301
 20
19227.458353591741
 30
0.0
 11
18161.8008974773
 21
19227.458353591741
 31
0.0
  0
LINE
  5
730
  8
CT
 10
18138.681162564659
 20
19200.958353591741
 30
0.0
 11
18198.824016318529
 21
19200.958353591741
 31
0.0
  0
LINE
  5
731
  8
FUTO
 10
18161.8008974773
 20
19183.458353591741
 30
0.0
 11
18167.8008974773
 21
19183.458353591741
 31
0.0
  0
DIMENSION
  5
800
  8
FUTO
  2
*D13
 10
18167.8008974773
 20
21756.004785875331
 30
0.0
 11
17850.8008974773
 21
21816.004785875331
 31
0.0
 70
     0
 13
17533.8008974773
 23
21601.61769153467
 33
0.0
 14
18167.8008974773
 24
20683.458353591741
 34
0.0
1001
ACAD
1000
DSTYLE
1002
{
1070
    40
1040
30.0
1070
   176
1070
     2
1070
   177
1070
     2
1070
   178
1070
     2
1070
   341
1005
44D5
1070
     5
1000
OPEN30
1002
}
  0
LINE
  5
826
  8
FUTO
 10
16999.3008974773
 20
21428.458353591741
 30
0.0
 11
16999.300897477289
 21
19942.458353591741
 31
0.0
  0
LINE
  5
827
  8
FUTO
 10
17003.8008974773
 20
21428.458353591741
 30
0.0
 11
17003.8008974773
 21
19942.458353591741
 31
0.0
  0
LINE
  5
831
  8
FUTO
 10
16949.3008974773
 20
21478.458353591741
 30
0.0
 11
16949.3008974773
 21
21428.458353591741
 31
0.0
  0
INSERT
  5
841
  8
FUTO
  2
まっすぐの矢印
 10
18229.64767816669
 20
20489.710241911718
 30
0.0
 41
-2.0
 42
2.0
 43
2.0
 50
90.0
  0
LINE
  5
842
  8
FUTO
 10
18063.800897477289
 20
21428.458353591741
 30
0.0
 11
18063.8008974773
 21
19942.458353591741
 31
0.0
  0
LINE
  5
844
  8
KL
 10
18073.000897477301
 20
20683.458353591741
 30
0.0
 11
18073.000897477301
 21
19942.458353591741
 31
0.0
  0
LINE
  5
845
  8
KL
 10
18073.000897477301
 20
20639.458353591741
 30
0.0
 11
18143.3008974773
 21
20639.458353591741
 31
0.0
  0
LINE
  5
846
  8
KL
 10
18067.000897477301
 20
20633.458353591741
 30
0.0
 11
18167.8008974773
 21
20633.458353591741
 31
0.0
  0
LINE
  5
847
  8
CT
 10
18044.344796233428
 20
20665.958353591741
 30
0.0
 11
18087.050434658689
 21
20665.958353591741
 31
0.0
  0
LINE
  5
848
  8
KL
 10
18067.000897477301
 20
20683.458353591741
 30
0.0
 11
18073.000897477301
 21
20683.458353591741
 31
0.0
  0
LINE
  5
849
  8
FUTO
 10
18118.300897477318
 20
21478.458353591741
 30
0.0
 11
18118.300897477311
 21
21428.458353591741
 31
0.0
  0
LINE
  5
84A
  8
FUTO
 10
18143.3008974773
 20
20639.458353591741
 30
0.0
 11
18161.8008974773
 21
20639.458353591741
 31
0.0
  0
LINE
  5
84B
  8
CT
 10
18139.039910215099
 20
20665.958353591741
 30
0.0
 11
18191.029385771511
 21
20665.958353591741
 31
0.0
  0
LINE
  5
84C
  8
FUTO
 10
18161.8008974773
 20
20683.458353591741
 30
0.0
 11
18167.8008974773
 21
20683.458353591741
 31
0.0
  0
POLYLINE
  8
0
  5
54F9
  62
2
  66
     1
 10
0.000000
 20
0.000000
 30
0.000000
  70
     8
  0
VERTEX
  8
0
  5
54FA
 10
14276.0
 20
20057.6
 30
0.000000
  70
    32
  0
VERTEX
  8
0
  5
54FB
 10
14276.0
 20
19933.5
 30
0.000000
  70
    32
  0
SEQEND
  8
0
  5
54FC
  0
POLYLINE
  8
0
  5
54FD
  62
2
  66
     1
 10
0.000000
 20
0.000000
 30
0.000000
  70
     8
  0
VERTEX
  8
0
  5
54FE
 10
14276.0
 20
19809.3
 30
0.000000
  70
    32
  0
VERTEX
  8
0
  5
54FF
 10
14276.0
 20
19933.5
 30
0.000000
  70
    32
  0
SEQEND
  8
0
  5
5500
  0
LINE
  5
971
  8
KL
 10
12758.00373816072
 20
19921.64820122323
 30
0.0
 11
12759.87227576172
 21
19903.745448160262
 31
0.0
  0
LINE
  5
972
  8
KL
 10
13157.857485438661
 20
19942.458353591741
 30
0.0
 11
13157.857485438661
 21
19924.458353591741
 31
0.0
  0
LINE
  5
973
  8
KL
 10
13157.857485438661
 20
19942.458353591741
 30
0.0
 11
13616.00297531025
 21
19942.458353591741
 31
0.0
  0
LINE
  5
974
  8
KL
 10
13157.857485438661
 20
19924.458353591741
 30
0.0
 11
13642.2134926212
 21
19924.458353591741
 31
0.0
  0
LINE
  5
990
  8
FUTO
 10
12070.717446318529
 20
19849.317985564219
 30
0.0
 11
12072.585983919529
 21
19831.415232501251
 31
0.0
  0
POLYLINE
  5
119F
  8
FUTO
 66
     1
 10
0.0
 20
0.0
 30
0.0
 70
     1
1001
ACAD
1000
ASC_BOUNDS
1002
{
1070
    19
1002
}
  0
VERTEX
  5
5451
  8
FUTO
 10
16919.8008974773
 20
18893.458353591741
 30
0.0
  0
VERTEX
  5
5452
  8
FUTO
 10
16919.8008974773
 20
18896.796542169908
 30
0.0
 42
-0.3888787318529885
  0
VERTEX
  5
5453
  8
FUTO
 10
16923.4522745063
 20
18900.78132096228
 30
0.0
  0
VERTEX
  5
5454
  8
FUTO
 10
16984.649520448289
 20
18906.135386221209
 30
0.0
 42
0.3888787318529894
  0
VERTEX
  5
5455
  8
FUTO
 10
16988.3008974773
 20
18910.12016501357
 30
0.0
  0
VERTEX
  5
5456
  8
FUTO
 10
16988.3008974773
 20
19026.796542169908
 30
0.0
 42
0.3888787318529893
  0
VERTEX
  5
5457
  8
FUTO
 10
16984.649520448289
 20
19030.78132096228
 30
0.0
  0
VERTEX
  5
5458
  8
FUTO
 10
16923.4522745063
 20
19036.135386221209
 30
0.0
 42
-0.3888787318529887
  0
VERTEX
  5
5459
  8
FUTO
 10
16919.8008974773
 20
19040.12016501357
 30
0.0
  0
VERTEX
  5
545A
  8
FUTO
 10
16919.8008974773
 20
19043.458353591741
 30
0.0
  0
VERTEX
  5
545B
  8
FUTO
 10
16994.8008974773
 20
19043.458353591741
 30
0.0
  0
VERTEX
  5
545C
  8
FUTO
 10
16994.8008974773
 20
18893.458353591741
 30
0.0
  0
SEQEND
  5
545D
  8
FUTO
  0
POLYLINE
  5
11AD
  8
FUTO
 66
     1
 10
0.0
 20
0.0
 30
0.0
 70
     1
1001
ACAD
1000
ASC_BOUNDS
1002
{
1070
    19
1002
}
  0
VERTEX
  5
545E
  8
FUTO
 10
18070.8008974773
 20
18893.458353591741
 30
0.0
  0
VERTEX
  5
545F
  8
FUTO
 10
18070.8008974773
 20
19043.458353591741
 30
0.0
  0
VERTEX
  5
5460
  8
FUTO
 10
18145.8008974773
 20
19043.458353591741
 30
0.0
  0
VERTEX
  5
5461
  8
FUTO
 10
18145.8008974773
 20
19040.12016501357
 30
0.0
 42
-0.3888787318527922
  0
VERTEX
  5
5462
  8
FUTO
 10
18142.149520448282
 20
19036.135386221209
 30
0.0
  0
VERTEX
  5
5463
  8
FUTO
 10
18080.9522745063
 20
19030.78132096228
 30
0.0
 42
0.3888787318529906
  0
VERTEX
  5
5464
  8
FUTO
 10
18077.3008974773
 20
19026.796542169908
 30
0.0
  0
VERTEX
  5
5465
  8
FUTO
 10
18077.3008974773
 20
18910.12016501357
 30
0.0
 42
0.388878731852991
  0
VERTEX
  5
5466
  8
FUTO
 10
18080.9522745063
 20
18906.135386221209
 30
0.0
  0
VERTEX
  5
5467
  8
FUTO
 10
18142.149520448282
 20
18900.78132096228
 30
0.0
 42
-0.3888787318529234
  0
VERTEX
  5
5468
  8
FUTO
 10
18145.8008974773
 20
18896.796542169908
 30
0.0
  0
VERTEX
  5
5469
  8
FUTO
 10
18145.8008974773
 20
18893.458353591741
 30
0.0
  0
SEQEND
  5
546A
  8
FUTO
  0
LINE
  5
11F6
  8
FUTO
 10
16020.8008974773
 20
18873.458353591741
 30
0.0
 11
15945.800897477289
 21
18873.458353591741
 31
0.0
1001
ACAD
1000
ASC_BOUNDS
1002
{
1070
    19
1005
3975
1002
}
  0
LINE
  5
11F7
  8
FUTO
 10
16010.649520448291
 20
18860.78132096228
 30
0.0
 11
15949.45227450631
 21
18866.135386221209
 31
0.0
  0
LINE
  5
11F8
  8
FUTO
 10
16020.8008974773
 20
18723.458353591741
 30
0.0
 11
15945.800897477289
 21
18723.458353591741
 31
0.0
  0
LINE
  5
11F9
  8
FUTO
 10
16010.649520448291
 20
18736.135386221209
 30
0.0
 11
15949.45227450631
 21
18730.78132096228
 31
0.0
  0
LINE
  5
11FA
  8
FUTO
 10
16014.3008974773
 20
18740.12016501357
 30
0.0
 11
16014.3008974773
 21
18856.796542169908
 31
0.0
  0
ARC
  5
11FB
  8
FUTO
 10
16010.3008974773
 20
18856.796542169908
 30
0.0
 40
4.0
 50
0.0
 51
84.999999999999943
  0
LINE
  5
11FC
  8
FUTO
 10
16020.8008974773
 20
18723.458353591741
 30
0.0
 11
16020.8008974773
 21
18873.458353591741
 31
0.0
  0
ARC
  5
11FD
  8
FUTO
 10
16010.3008974773
 20
18740.12016501357
 30
0.0
 40
4.0
 50
275.0
 51
0.0
  0
ARC
  5
11FE
  8
FUTO
 10
15949.8008974773
 20
18870.12016501357
 30
0.0
 40
4.0
 50
180.0
 51
264.99999999999972
  0
LINE
  5
11FF
  8
FUTO
 10
15945.800897477289
 20
18873.458353591752
 30
0.0
 11
15945.800897477289
 21
18870.12016501357
 31
0.0
  0
LINE
  5
1200
  8
FUTO
 10
15945.800897477289
 20
18723.458353591741
 30
0.0
 11
15945.800897477289
 21
18726.796542169908
 31
0.0
  0
ARC
  5
1201
  8
FUTO
 10
15949.8008974773
 20
18726.796542169908
 30
0.0
 40
4.0
 50
95.000000000000227
 51
180.0
  0
INSERT
  5
1202
  8
FUTO
  2
K150-75
 10
16919.8008974773
 20
18873.458353591741
 30
0.0
 50
180.0
1001
ACAD
1000
ASC_BOUNDS
1002
{
1070
    19
1002
}
  0
LINE
  5
1204
  8
FUTO
 10
18070.8008974773
 20
18873.458353591741
 30
0.0
 11
18145.8008974773
 21
18873.458353591741
 31
0.0
1001
ACAD
1000
ASC_BOUNDS
1002
{
1070
    19
1002
}
  0
LINE
  5
1205
  8
FUTO
 10
18080.9522745063
 20
18860.78132096228
 30
0.0
 11
18142.149520448282
 21
18866.135386221209
 31
0.0
  0
LINE
  5
1206
  8
FUTO
 10
18070.8008974773
 20
18723.458353591741
 30
0.0
 11
18145.8008974773
 21
18723.458353591741
 31
0.0
  0
LINE
  5
1207
  8
FUTO
 10
18080.9522745063
 20
18736.135386221209
 30
0.0
 11
18142.149520448282
 21
18730.78132096228
 31
0.0
  0
LINE
  5
1208
  8
FUTO
 10
18077.3008974773
 20
18740.12016501357
 30
0.0
 11
18077.3008974773
 21
18856.796542169908
 31
0.0
  0
ARC
  5
1209
  8
FUTO
 10
18081.3008974773
 20
18856.796542169908
 30
0.0
 40
4.0
 50
94.999999999999758
 51
180.0
  0
LINE
  5
120A
  8
FUTO
 10
18070.8008974773
 20
18723.458353591741
 30
0.0
 11
18070.8008974773
 21
18873.458353591741
 31
0.0
  0
ARC
  5
120B
  8
FUTO
 10
18081.3008974773
 20
18740.12016501357
 30
0.0
 40
4.0
 50
180.0
 51
265.00000000000028
  0
ARC
  5
120C
  8
FUTO
 10
18141.800897477289
 20
18870.12016501357
 30
0.0
 40
4.0
 50
275.00000000000011
 51
0.0
  0
LINE
  5
120D
  8
FUTO
 10
18145.8008974773
 20
18873.458353591752
 30
0.0
 11
18145.8008974773
 21
18870.12016501357
 31
0.0
  0
LINE
  5
120E
  8
FUTO
 10
18145.8008974773
 20
18723.458353591741
 30
0.0
 11
18145.8008974773
 21
18726.796542169908
 31
0.0
  0
ARC
  5
120F
  8
FUTO
 10
18141.800897477289
 20
18726.796542169908
 30
0.0
 40
4.0
 50
0.0
 51
84.999999999999844
  0
LINE
  5
1840
  8
FUTO
 10
13382.857485438661
 20
23521.15849031337
 30
0.0
 11
13382.857485438661
 21
22612.15849031337
 31
0.0
  0
LINE
  5
1841
  8
FUTO
 10
13457.857485438661
 20
23521.15849031337
 30
0.0
 11
13457.857485438661
 21
22612.15849031337
 31
0.0
  0
LINE
  5
1FF1
  8
FUTO
 10
18067.00089747729
 20
21428.458353591741
 30
0.0
 11
18067.000897477301
 21
19942.458353591741
 31
0.0
  0
LINE
  5
1FF2
  8
FUTO
 10
18067.000897477301
 20
19924.458353591741
 30
0.0
 11
18067.000897477301
 21
19043.458353591741
 31
0.0
  0
LINE
  5
1FF3
  8
KL
 10
18067.000897477301
 20
19043.458353591741
 30
0.0
 11
18067.000897477301
 21
18930.553390522251
 31
0.0
  0
LINE
  5
1FF5
  8
FUTO
 10
18142.000897477301
 20
21428.458353591741
 30
0.0
 11
18142.000897477301
 21
19043.458353591741
 31
0.0
  0
DIMENSION
  5
2003
  8
FUTO
  2
*D6
 10
18145.8008974773
 20
18305.424431349791
 30
0.0
 11
17045.8008974773
 21
18365.424431349791
 31
0.0
 70
     0
 13
15945.800897477289
 23
18723.458353591741
 33
0.0
 14
18145.8008974773
 24
18723.458353591741
 34
0.0
1001
ACAD
1000
DSTYLE
1002
{
1070
    40
1040
30.0
1070
   176
1070
     2
1070
   177
1070
     2
1070
   178
1070
     2
1070
   341
1005
44D5
1070
     5
1000
OPEN30
1002
}
  0
LINE
  5
25BB
  8
CT
 10
12957.857485438661
 20
23128.831759034441
 30
0.0
 11
12957.857485438661
 21
23126.772628703271
 31
0.0
  0
LINE
  5
279A
  8
FUTO
 10
16020.8008974773
 20
18893.458353591741
 30
0.0
 11
16020.8008974773
 21
18873.458353591741
 31
0.0
1001
ACAD
1000
ASC_BOUNDS
1002
{
1070
    19
1005
3975
1002
}
  0
TEXT
  5
29E7
  8
SP
 10
9149.8042194081445
 20
6129.2813767066364
 30
0.0
 40
100.0
  1
 
  0
LINE
  5
3207
  8
FUTO
 10
18067.076316138391
 20
18976.35848975843
 30
0.0
 11
18210.276316138388
 21
18976.358489758459
 31
0.0
  0
LINE
  5
3208
  8
FUTO
 10
18067.076316138391
 20
18942.358489758419
 30
0.0
 11
18210.276316138399
 21
18942.358489758459
 31
0.0
  0
LINE
  5
320D
  8
FUTO
 10
18210.276316138399
 20
18937.358489758451
 30
0.0
 11
18240.276316138399
 21
18937.358489758459
 31
0.0
  0
LINE
  5
320E
  8
FUTO
 10
18210.276316138388
 20
18981.358489758451
 30
0.0
 11
18240.276316138381
 21
18981.358489758459
 31
0.0
  0
LINE
  5
320F
  8
FUTO
 10
18210.276316138388
 20
18981.358489758451
 30
0.0
 11
18210.276316138399
 21
18937.358489758451
 31
0.0
  0
LINE
  5
3210
  8
FUTO
 10
18240.276316138388
 20
18981.358489758459
 30
0.0
 11
18240.276316138399
 21
18937.358489758459
 31
0.0
  0
LINE
  5
3235
  8
FUTO
 10
14168.353744622469
 20
19724.84875273682
 30
0.0
 11
14145.60334804219
 21
19732.336737637848
 31
0.0
  0
LINE
  5
3236
  8
FUTO
 10
14129.27403761622
 20
19606.114694858268
 30
0.0
 11
14102.97434261833
 21
19614.770883261459
 31
0.0
  0
LINE
  5
3237
  8
FUTO
 10
14174.72609269225
 20
19712.223651546032
 30
0.0
 11
14141.899138807001
 21
19612.487042928049
 31
0.0
  0
ARC
  5
3238
  8
FUTO
 10
14165.227368061969
 20
19715.350028106532
 30
0.0
 40
10.0
 50
341.78173999721008
 51
71.781739997210067
  0
ARC
  5
3239
  8
FUTO
 10
14132.40041417672
 20
19615.61341948856
 30
0.0
 40
10.0
 50
251.78173999721
 51
341.78173999721008
  0
LINE
  5
323A
  8
FUTO
 10
14171.480121182971
 20
19734.347477367101
 30
0.0
 11
14148.530741473691
 21
19741.900954870001
 31
0.0
  0
ARC
  5
323B
  8
FUTO
 10
14165.227368061969
 20
19715.350028106532
 30
0.0
 40
20.0
 50
341.78173999721008
 51
71.781739997210067
  0
LINE
  5
323C
  8
FUTO
 10
14184.224817322531
 20
19709.097274985528
 30
0.0
 11
14151.39786343728
 21
19609.36066636756
 31
0.0
  0
ARC
  5
323D
  8
FUTO
 10
14132.40041417672
 20
19615.61341948856
 30
0.0
 40
20.0
 50
251.78173999721
 51
341.78173999721008
  0
LINE
  5
323E
  8
FUTO
 10
14126.14766105572
 20
19596.615970227991
 30
0.0
 11
14099.07951450277
 21
19605.52508405254
 31
0.0
  0
LINE
  5
3241
  8
CT
 10
14209.7939290838
 20
19645.41097022051
 30
0.0
 11
14026.74314364052
 21
19705.65965699331
 31
0.0
  0
DIMENSION
  5
393B
  8
FUTO
  2
*D7
 10
18145.8008974773
 20
18486.75487260738
 30
0.0
 11
17839.800897477289
 21
18546.75487260738
 31
0.0
 70
     0
 13
17533.8008974773
 23
18723.458353591741
 33
0.0
 14
18145.8008974773
 24
18723.458353591741
 34
0.0
1001
ACAD
1000
DSTYLE
1002
{
1070
    40
1040
30.0
1070
   176
1070
     2
1070
   177
1070
     2
1070
   178
1070
     2
1070
   341
1005
44D5
1070
     5
1000
OPEN30
1002
}
  0
DIMENSION
  5
3948
  8
FUTO
  2
*D8
 10
15945.800897477289
 20
18486.76011352997
 30
0.0
 11
16739.8008974773
 21
18546.76011352997
 31
0.0
 70
     0
 13
17533.8008974773
 23
18723.458353591741
 33
0.0
 14
15945.800897477289
 24
18723.458353591741
 34
0.0
1001
ACAD
1000
DSTYLE
1002
{
1070
    40
1040
30.0
1070
   176
1070
     2
1070
   177
1070
     2
1070
   178
1070
     2
1070
   341
1005
44D5
1070
     5
1000
OPEN30
1002
}
  0
POLYLINE
  5
3949
  8
FUTO
 66
     1
 10
0.0
 20
0.0
 30
0.0
  0
VERTEX
  5
5486
  8
FUTO
 10
16923.8008974773
 20
19043.458353591741
 30
0.0
  0
VERTEX
  5
5487
  8
FUTO
 10
16998.8008974773
 20
19043.458353591741
 30
0.0
  0
SEQEND
  5
5488
  8
FUTO
  0
LINE
  5
39B1
  8
FUTO
 10
14497.857485438661
 20
18893.458353591741
 30
0.0
 11
14497.857485438661
 21
18873.458353591741
 31
0.0
  0
LINE
  5
39B2
  8
FUTO
 10
14417.857485438661
 20
18893.458353591741
 30
0.0
 11
14417.857485438661
 21
18873.458353591741
 31
0.0
  0
LINE
  5
39B3
  8
FUTO
 10
14457.857485438661
 20
18929.869782475351
 30
0.0
 11
14457.857485438661
 21
18830.044848511679
 31
0.0
1001
ACAD
1000
ASC_BOUNDS
1002
{
1070
    19
1005
0
1005
0
1005
0
1002
}
  0
LINE
  5
3AE6
  8
FUTO
 10
16007.3008974773
 20
19825.458353591741
 30
0.0
 11
16007.3008974773
 21
19043.458353591741
 31
0.0
  0
LINE
  5
3AE7
  8
FUTO
 10
16007.3008974773
 20
19825.458353591741
 30
0.0
 11
16017.3008974773
 21
19825.458353591741
 31
0.0
  0
LINE
  5
3AE8
  8
FUTO
 10
16017.3008974773
 20
19825.458353591741
 30
0.0
 11
16017.3008974773
 21
19815.458353591741
 31
0.0
  0
LINE
  5
3AEA
  8
FUTO
 10
16017.3008974773
 20
19815.458353591741
 30
0.0
 11
16924.300897477289
 21
19815.458353591741
 31
0.0
  0
LINE
  5
3B39
  8
FUTO
 10
16127.8008974773
 20
19870.458353591741
 30
0.0
 11
16039.8008974773
 21
19870.458353591741
 31
0.0
  0
LINE
  5
3B3A
  8
FUTO
 10
16028.800897477289
 20
19833.458353591741
 30
0.0
 11
16138.8008974773
 21
19833.458353591741
 31
0.0
  0
LINE
  5
3B3B
  8
FUTO
 10
16133.8008974773
 20
20026.458353591741
 30
0.0
 11
16033.8008974773
 21
20026.458353591741
 31
0.0
  0
LINE
  5
3B3C
  8
FUTO
 10
16033.8008974773
 20
20026.458353591741
 30
0.0
 11
16033.8008974773
 21
19833.458353591741
 31
0.0
  0
LINE
  5
3B3D
  8
FUTO
 10
16013.3008974773
 20
20008.458353591741
 30
0.0
 11
16013.3008974773
 21
19858.458353591741
 31
0.0
  0
LINE
  5
3B3E
  8
FUTO
 10
16018.8008974773
 20
20017.458353591741
 30
0.0
 11
16018.8008974773
 21
19849.458353591741
 31
0.0
  0
LINE
  5
3B40
  8
FUTO
 10
16013.3008974773
 20
19858.458353591741
 30
0.0
 11
16018.8008974773
 21
19858.458353591741
 31
0.0
  0
ARC
  5
3B41
  8
FUTO
 10
16039.8008974773
 20
19864.458353591741
 30
0.0
 40
6.0
 50
90.0
 51
180.0
  0
LINE
  5
3B42
  8
FUTO
 10
16024.8008974773
 20
19843.458353591741
 30
0.0
 11
16033.8008974773
 21
19843.458353591741
 31
0.0
  0
ARC
  5
3B43
  8
FUTO
 10
16024.8008974773
 20
19849.458353591741
 30
0.0
 40
6.0
 50
180.0
 51
270.0
  0
LINE
  5
3B44
  8
FUTO
 10
16018.8008974773
 20
20008.458353591741
 30
0.0
 11
16013.3008974773
 21
20008.458353591741
 31
0.0
  0
ARC
  5
3B45
  8
FUTO
 10
16024.8008974773
 20
20017.458353591741
 30
0.0
 40
6.0
 50
90.0
 51
180.0
  0
LINE
  5
3B46
  8
FUTO
 10
16033.8008974773
 20
20023.458353591741
 30
0.0
 11
16024.8008974773
 21
20023.458353591741
 31
0.0
  0
LINE
  5
3B47
  8
FUTO
 10
16133.8008974773
 20
19833.458353591741
 30
0.0
 11
16133.8008974773
 21
20026.458353591741
 31
0.0
  0
LINE
  5
3B48
  8
FUTO
 10
16148.8008974773
 20
20017.458353591741
 30
0.0
 11
16148.8008974773
 21
19849.458353591741
 31
0.0
  0
LINE
  5
3B49
  8
FUTO
 10
16154.3008974773
 20
20008.458353591741
 30
0.0
 11
16154.3008974773
 21
19858.458353591741
 31
0.0
  0
LINE
  5
3B4A
  8
FUTO
 10
16142.8008974773
 20
19843.458353591741
 30
0.0
 11
16133.8008974773
 21
19843.458353591741
 31
0.0
  0
ARC
  5
3B4B
  8
FUTO
 10
16127.8008974773
 20
19864.458353591741
 30
0.0
 40
6.0
 50
0.0
 51
90.0
  0
ARC
  5
3B4C
  8
FUTO
 10
16142.8008974773
 20
19849.458353591741
 30
0.0
 40
6.0
 50
270.0
 51
0.0
  0
LINE
  5
3B4D
  8
FUTO
 10
16154.3008974773
 20
19858.458353591741
 30
0.0
 11
16148.8008974773
 21
19858.458353591741
 31
0.0
  0
LINE
  5
3B4E
  8
FUTO
 10
16133.8008974773
 20
20023.458353591741
 30
0.0
 11
16142.8008974773
 21
20023.458353591741
 31
0.0
  0
ARC
  5
3B4F
  8
FUTO
 10
16142.8008974773
 20
20017.458353591741
 30
0.0
 40
6.0
 50
0.0
 51
90.0
  0
LINE
  5
3B50
  8
FUTO
 10
16148.8008974773
 20
20008.458353591741
 30
0.0
 11
16154.3008974773
 21
20008.458353591741
 31
0.0
  0
LINE
  5
3B51
  8
FUTO
 10
16028.800897477289
 20
19833.458353591741
 30
0.0
 11
16028.800897477289
 21
19815.458353591741
 31
0.0
  0
LINE
  5
3B52
  8
FUTO
 10
16138.8008974773
 20
19833.458353591741
 30
0.0
 11
16138.8008974773
 21
19815.458353591741
 31
0.0
  0
LINE
  5
3BBC
  8
FUTO
 10
16860.3008974773
 20
20037.458353591741
 30
0.0
 11
16727.3008974773
 21
20037.458353591741
 31
0.0
  0
LINE
  5
3BBD
  8
FUTO
 10
16842.8008974773
 20
19857.458353591741
 30
0.0
 11
16744.8008974773
 21
19857.458353591741
 31
0.0
  0
LINE
  5
3BBE
  8
FUTO
 10
16728.8008974773
 20
19821.458353591741
 30
0.0
 11
16858.8008974773
 21
19821.458353591741
 31
0.0
  0
LINE
  5
3BC0
  8
FUTO
 10
16738.8008974773
 20
20037.458353591741
 30
0.0
 11
16738.8008974773
 21
19821.458353591741
 31
0.0
  0
LINE
  5
3BC1
  8
FUTO
 10
16716.3008974773
 20
20023.458353591741
 30
0.0
 11
16716.3008974773
 21
19843.458353591741
 31
0.0
  0
LINE
  5
3BC2
  8
FUTO
 10
16721.3008974773
 20
20031.458353591741
 30
0.0
 11
16721.3008974773
 21
19835.458353591741
 31
0.0
  0
LINE
  5
3BC3
  8
FUTO
 10
16716.3008974773
 20
19843.458353591741
 30
0.0
 11
16721.3008974773
 21
19843.458353591741
 31
0.0
  0
ARC
  5
3BC4
  8
FUTO
 10
16744.8008974773
 20
19851.458353591741
 30
0.0
 40
6.0
 50
90.0
 51
180.0
  0
LINE
  5
3BC5
  8
FUTO
 10
16727.3008974773
 20
19829.458353591741
 30
0.0
 11
16738.8008974773
 21
19829.458353591741
 31
0.0
  0
ARC
  5
3BC6
  8
FUTO
 10
16727.3008974773
 20
19835.458353591741
 30
0.0
 40
6.0
 50
180.0
 51
270.0
  0
LINE
  5
3BC7
  8
FUTO
 10
16721.3008974773
 20
20023.458353591741
 30
0.0
 11
16716.3008974773
 21
20023.458353591741
 31
0.0
  0
ARC
  5
3BC8
  8
FUTO
 10
16727.3008974773
 20
20031.458353591741
 30
0.0
 40
6.0
 50
90.0
 51
180.0
  0
LINE
  5
3BC9
  8
FUTO
 10
16848.8008974773
 20
20037.458353591741
 30
0.0
 11
16848.8008974773
 21
19821.458353591741
 31
0.0
  0
LINE
  5
3BCA
  8
FUTO
 10
16866.3008974773
 20
20031.458353591741
 30
0.0
 11
16866.3008974773
 21
19835.458353591741
 31
0.0
  0
LINE
  5
3BCB
  8
FUTO
 10
16871.3008974773
 20
20023.458353591741
 30
0.0
 11
16871.3008974773
 21
19843.458353591741
 31
0.0
  0
ARC
  5
3BCC
  8
FUTO
 10
16842.8008974773
 20
19851.458353591741
 30
0.0
 40
6.0
 50
0.0
 51
90.0
  0
LINE
  5
3BCD
  8
FUTO
 10
16860.3008974773
 20
19829.458353591741
 30
0.0
 11
16848.8008974773
 21
19829.458353591741
 31
0.0
  0
ARC
  5
3BCE
  8
FUTO
 10
16860.3008974773
 20
19835.458353591741
 30
0.0
 40
6.0
 50
270.0
 51
0.0
  0
LINE
  5
3BCF
  8
FUTO
 10
16871.3008974773
 20
19843.458353591741
 30
0.0
 11
16866.3008974773
 21
19843.458353591741
 31
0.0
  0
ARC
  5
3BD0
  8
FUTO
 10
16860.3008974773
 20
20031.458353591741
 30
0.0
 40
6.0
 50
0.0
 51
90.0
  0
LINE
  5
3BD1
  8
FUTO
 10
16866.3008974773
 20
20023.458353591741
 30
0.0
 11
16871.3008974773
 21
20023.458353591741
 31
0.0
  0
LINE
  5
3C31
  8
SL
 10
16198.042914696791
 20
20060.15725662289
 30
0.0
 11
16663.319327582391
 21
20060.15725662289
 31
0.0
  0
LINE
  5
3C32
  8
FUTO
 10
16728.8008974773
 20
19821.458353591741
 30
0.0
 11
16728.8008974773
 21
19815.458353591741
 31
0.0
  0
LINE
  5
3C33
  8
FUTO
 10
16858.8008974773
 20
19821.458353591741
 30
0.0
 11
16858.8008974773
 21
19815.458353591741
 31
0.0
  0
DIMENSION
  5
3C4B
  8
SP
  2
*D10
 10
17533.8008974773
 20
21756.004785875331
 30
0.0
 11
16623.8008974773
 21
21816.004785875331
 31
0.0
 70
     0
 13
15713.8008974773
 23
20313.458353591741
 33
0.0
 14
17533.8008974773
 24
21631.61769153467
 34
0.0
1001
ACAD
1000
DSTYLE
1002
{
1070
    40
1040
30.0
1070
   176
1070
     2
1070
   177
1070
     2
1070
   178
1070
     2
1070
   341
1005
44D5
1070
     5
1000
OPEN30
1002
}
  0
LINE
  5
3C62
  8
SL
 10
16198.042914696791
 20
20060.15725662289
 30
0.0
 11
16198.042914696791
 21
19805.458353591741
 31
0.0
  0
LINE
  5
3C63
  8
SL
 10
16663.319327582391
 20
20060.15725662289
 30
0.0
 11
16663.319327582391
 21
19805.458353591741
 31
0.0
  0
LINE
  5
3C79
  8
FUTO
 10
12912.857485438661
 20
22752.15849031337
 30
0.0
 11
12912.857485438661
 21
23321.15849031337
 31
0.0
  0
LINE
  5
3C7A
  8
FUTO
 10
13002.857485438661
 20
22752.15849031337
 30
0.0
 11
13002.857485438661
 21
23321.15849031337
 31
0.0
  0
LINE
  5
3C7B
  8
FUTO
 10
12577.857485438661
 20
22312.15849031337
 30
0.0
 11
14377.857485438661
 21
22312.15849031337
 31
0.0
  0
LINE
  5
3C7D
  8
SL
 10
12707.857485438661
 20
22500.058490313371
 30
0.0
 11
14263.857485438661
 21
22500.058490313371
 31
0.0
  0
LINE
  5
3C7E
  8
SL
 10
12707.857485438661
 20
22422.15849031337
 30
0.0
 11
14263.857485438661
 21
22422.15849031337
 31
0.0
  0
LINE
  5
3C7F
  8
CT
 10
12839.35398847853
 20
22682.15849031337
 30
0.0
 11
13120.688117225371
 21
22682.15849031337
 31
0.0
  0
LINE
  5
3C80
  8
CT
 10
14157.857485438661
 20
22275.201760792661
 30
0.0
 11
14157.857485438661
 21
22578.020443904112
 31
0.0
  0
LINE
  5
3C81
  8
SL
 10
14051.857485438661
 20
22422.15849031337
 30
0.0
 11
14051.857485438661
 21
22500.058490313371
 31
0.0
  0
LINE
  5
3C82
  8
SL
 10
14263.857485438661
 20
22422.15849031337
 30
0.0
 11
14263.857485438661
 21
22500.058490313371
 31
0.0
  0
LINE
  5
3C83
  8
FUTO
 10
14210.80005916287
 20
22567.15849031337
 30
0.0
 11
14377.857485438661
 21
22567.15849031337
 31
0.0
  0
LINE
  5
3C84
  8
SL
 10
14097.857485438661
 20
22515.15849031337
 30
0.0
 11
14217.857485438661
 21
22515.15849031337
 31
0.0
  0
LINE
  5
3C85
  8
SL
 10
14097.857485438661
 20
22500.058490313371
 30
0.0
 11
14097.857485438661
 21
22515.15849031337
 31
0.0
  0
LINE
  5
3C86
  8
SL
 10
14217.857485438661
 20
22500.058490313371
 30
0.0
 11
14217.857485438661
 21
22515.15849031337
 31
0.0
  0
LINE
  5
3C87
  8
SL
 10
13207.857485438661
 20
22422.15849031337
 30
0.0
 11
13207.857485438661
 21
22500.058490313371
 31
0.0
  0
LINE
  5
3C88
  8
FUTO
 10
12864.857485438661
 20
22732.15849031337
 30
0.0
 11
12864.857485438661
 21
22632.15849031337
 31
0.0
  0
LINE
  5
3C8B
  8
FUTO
 10
12577.857485438661
 20
22567.15849031337
 30
0.0
 11
12804.16711553294
 21
22567.15849031337
 31
0.0
  0
LINE
  5
3C8C
  8
SL
 10
12707.857485438661
 20
22422.15849031337
 30
0.0
 11
12707.857485438661
 21
22500.058490313371
 31
0.0
  0
LINE
  5
3C8D
  8
FUTO
 10
12915.357485438661
 20
22522.15849031337
 30
0.0
 11
12915.357485438661
 21
22611.65849031337
 31
0.0
  0
LINE
  5
3C8E
  8
FUTO
 10
13000.357485438661
 20
22522.15849031337
 30
0.0
 11
13000.357485438661
 21
22611.65849031337
 31
0.0
  0
LINE
  5
3C8F
  8
SL
 10
12877.857485438661
 20
22500.058490313371
 30
0.0
 11
12877.857485438661
 21
22522.15849031337
 31
0.0
  0
LINE
  5
3C90
  8
SL
 10
13037.857485438661
 20
22500.058490313371
 30
0.0
 11
13037.857485438661
 21
22522.15849031337
 31
0.0
  0
LINE
  5
3C91
  8
SL
 10
12877.857485438661
 20
22522.15849031337
 30
0.0
 11
13037.857485438661
 21
22522.15849031337
 31
0.0
  0
LINE
  5
3C94
  8
FUTO
 10
12867.857485438661
 20
22632.15849031337
 30
0.0
 11
12867.857485438661
 21
22623.15849031337
 31
0.0
  0
ARC
  5
3C95
  8
FUTO
 10
12873.857485438661
 20
22623.15849031337
 30
0.0
 40
6.0
 50
180.0
 51
270.0
  0
LINE
  5
3C96
  8
FUTO
 10
12882.857485438661
 20
22617.15849031337
 30
0.0
 11
12882.857485438661
 21
22611.65849031337
 31
0.0
  0
ARC
  5
3C97
  8
FUTO
 10
13041.857485438661
 20
22623.15849031337
 30
0.0
 40
6.0
 50
270.0
 51
0.000000000000007
  0
LINE
  5
3C98
  8
FUTO
 10
13047.857485438661
 20
22623.15849031337
 30
0.0
 11
13047.857485438661
 21
22632.15849031337
 31
0.0
  0
LINE
  5
3C9A
  8
FUTO
 10
13032.857485438661
 20
22611.65849031337
 30
0.0
 11
13032.857485438661
 21
22617.15849031337
 31
0.0
  0
LINE
  5
3C9B
  8
FUTO
 10
12873.857485438661
 20
22617.15849031337
 30
0.0
 11
13041.857485438661
 21
22617.15849031337
 31
0.0
  0
LINE
  5
3C9C
  8
FUTO
 10
12882.857485438661
 20
22611.65849031337
 30
0.0
 11
13032.857485438661
 21
22611.65849031337
 31
0.0
  0
LINE
  5
3C9D
  8
FUTO
 10
12864.857485438661
 20
22632.15849031337
 30
0.0
 11
13050.857485438661
 21
22632.15849031337
 31
0.0
  0
LINE
  5
3C9F
  8
FUTO
 10
12577.857485438661
 20
22312.15849031337
 30
0.0
 11
12577.857485438661
 21
22567.15849031337
 31
0.0
  0
POINT
  5
3CA0
  8
DEFPOINTS
 10
12577.857485438661
 20
22312.15849031337
 30
0.0
  0
LINE
  5
3CA3
  8
FUTO
 10
12882.857485438661
 20
22747.15849031337
 30
0.0
 11
12882.857485438661
 21
22752.65849031337
 31
0.0
  0
ARC
  5
3CA4
  8
FUTO
 10
12873.857485438661
 20
22741.15849031337
 30
0.0
 40
6.0
 50
90.0
 51
180.0
  0
LINE
  5
3CA5
  8
FUTO
 10
12867.857485438661
 20
22732.15849031337
 30
0.0
 11
12867.857485438661
 21
22741.15849031337
 31
0.0
  0
LINE
  5
3CA6
  8
FUTO
 10
13032.857485438661
 20
22752.65849031337
 30
0.0
 11
13032.857485438661
 21
22747.15849031337
 31
0.0
  0
ARC
  5
3CA7
  8
FUTO
 10
13041.857485438661
 20
22741.15849031337
 30
0.0
 40
6.0
 50
0.000000000000007
 51
90.0
  0
LINE
  5
3CA9
  8
FUTO
 10
13047.857485438661
 20
22741.15849031337
 30
0.0
 11
13047.857485438661
 21
22732.15849031337
 31
0.0
  0
LINE
  5
3CAA
  8
FUTO
 10
12882.857485438661
 20
22752.65849031337
 30
0.0
 11
13032.857485438661
 21
22752.65849031337
 31
0.0
  0
LINE
  5
3CAB
  8
FUTO
 10
12873.857485438661
 20
22747.15849031337
 30
0.0
 11
13041.857485438661
 21
22747.15849031337
 31
0.0
  0
LINE
  5
3CAC
  8
FUTO
 10
13050.857485438661
 20
22732.15849031337
 30
0.0
 11
12864.857485438661
 21
22732.15849031337
 31
0.0
  0
LINE
  5
3CAF
  8
FUTO
 10
12207.857485438661
 20
24766.15849031337
 30
0.0
 11
13707.857485438661
 21
24766.15849031337
 31
0.0
  0
LINE
  5
3CB0
  8
FUTO
 10
12207.857485438661
 20
24760.15849031337
 30
0.0
 11
13707.857485438661
 21
24760.15849031337
 31
0.0
  0
LINE
  5
3CB1
  8
KL
 10
12966.857485438661
 20
24671.358490313371
 30
0.0
 11
13707.857485438661
 21
24671.358490313371
 31
0.0
  0
LINE
  5
3CB5
  8
KL
 10
12253.544743129631
 20
24668.15849031337
 30
0.0
 11
13662.170227747691
 21
24668.15849031337
 31
0.0
  0
LINE
  5
3CB9
  8
CT
 10
12839.35398847853
 20
23392.15849031337
 30
0.0
 11
13143.02164865381
 21
23392.15849031337
 31
0.0
  0
LINE
  5
3CBA
  8
KL
 10
13657.857485438661
 20
24665.358490313381
 30
0.0
 11
13657.857485438661
 21
24766.15849031337
 31
0.0
  0
LINE
  5
3CBB
  8
KL
 10
13663.857485438661
 20
24671.358490313371
 30
0.0
 11
13663.857485438661
 21
24740.358490313371
 31
0.0
  0
LINE
  5
3CBC
  8
KL
 10
13707.857485438661
 20
24665.358490313381
 30
0.0
 11
13707.857485438661
 21
24671.358490313371
 31
0.0
  0
LINE
  5
3CBD
  8
CT
 10
13690.357485438661
 20
24632.87379271827
 30
0.0
 11
13690.357485438661
 21
24689.91652585032
 31
0.0
  0
LINE
  5
3CBE
  8
FUTO
 10
13707.857485438661
 20
24760.15849031337
 30
0.0
 11
13707.857485438661
 21
24766.15849031337
 31
0.0
  0
LINE
  5
3CBF
  8
CT
 10
13690.357485438661
 20
24737.038755400739
 30
0.0
 11
13690.357485438661
 21
24797.18160915461
 31
0.0
  0
LINE
  5
3CC0
  8
FUTO
 10
13663.857485438661
 20
24740.358490313371
 30
0.0
 11
13663.857485438661
 21
24760.15849031337
 31
0.0
  0
LINE
  5
3CC7
  8
FUTO
 10
12853.857485438661
 20
23458.65849031337
 30
0.0
 11
12853.857485438661
 21
23325.65849031337
 31
0.0
  0
ARC
  5
3CCA
  8
FUTO
 10
12859.857485438661
 20
23325.65849031337
 30
0.0
 40
6.0
 50
180.0
 51
270.0
  0
LINE
  5
3CCB
  8
FUTO
 10
12867.857485438661
 20
23319.65849031337
 30
0.0
 11
12867.857485438661
 21
23314.65849031337
 31
0.0
  0
ARC
  5
3CCC
  8
FUTO
 10
13055.857485438661
 20
23325.65849031337
 30
0.0
 40
6.0
 50
270.0
 51
0.000000000000007
  0
LINE
  5
3CCD
  8
FUTO
 10
13061.857485438661
 20
23325.65849031337
 30
0.0
 11
13061.857485438661
 21
23337.15849031337
 31
0.0
  0
LINE
  5
3CCF
  8
FUTO
 10
13047.857485438661
 20
23314.65849031337
 30
0.0
 11
13047.857485438661
 21
23319.65849031337
 31
0.0
  0
LINE
  5
3CD0
  8
FUTO
 10
12859.857485438661
 20
23319.65849031337
 30
0.0
 11
13055.857485438661
 21
23319.65849031337
 31
0.0
  0
LINE
  5
3CD1
  8
FUTO
 10
12867.857485438661
 20
23314.65849031337
 30
0.0
 11
13047.857485438661
 21
23314.65849031337
 31
0.0
  0
LINE
  5
3CD2
  8
FUTO
 10
12853.857485438661
 20
23337.15849031337
 30
0.0
 11
13061.857485438661
 21
23337.15849031337
 31
0.0
  0
LINE
  5
3CD4
  8
FUTO
 10
12867.857485438661
 20
23464.65849031337
 30
0.0
 11
12867.857485438661
 21
23469.65849031337
 31
0.0
  0
ARC
  5
3CD5
  8
FUTO
 10
12859.857485438661
 20
23458.65849031337
 30
0.0
 40
6.0
 50
90.0
 51
180.0
  0
LINE
  5
3CD6
  8
FUTO
 10
13047.857485438661
 20
23469.65849031337
 30
0.0
 11
13047.857485438661
 21
23464.65849031337
 31
0.0
  0
ARC
  5
3CD7
  8
FUTO
 10
13055.857485438661
 20
23458.65849031337
 30
0.0
 40
6.0
 50
0.000000000000007
 51
90.0
  0
LINE
  5
3CD8
  8
FUTO
 10
13061.857485438661
 20
23458.65849031337
 30
0.0
 11
13061.857485438661
 21
23447.158490313381
 31
0.0
  0
LINE
  5
3CDA
  8
FUTO
 10
12867.857485438661
 20
23469.65849031337
 30
0.0
 11
13047.857485438661
 21
23469.65849031337
 31
0.0
  0
LINE
  5
3CDB
  8
FUTO
 10
12859.857485438661
 20
23464.65849031337
 30
0.0
 11
13055.857485438661
 21
23464.65849031337
 31
0.0
  0
LINE
  5
3CDC
  8
FUTO
 10
12853.857485438661
 20
23447.158490313381
 30
0.0
 11
13061.857485438661
 21
23447.158490313381
 31
0.0
  0
LINE
  5
3CDD
  8
FUTO
 10
13002.857485438661
 20
23461.15849031337
 30
0.0
 11
13002.857485438661
 21
23523.95849031338
 31
0.0
  0
LINE
  5
3CDE
  8
FUTO
 10
12912.857485438661
 20
23461.15849031337
 30
0.0
 11
12912.857485438661
 21
23522.65849031337
 31
0.0
  0
LINE
  5
3CE2
  8
KL
 10
12207.857485438661
 20
24671.358490313371
 30
0.0
 11
12948.857485438661
 21
24671.358490313371
 31
0.0
  0
INSERT
  5
3CE3
  8
FUTO
  2
まっすぐの矢印
 10
12401.605597118671
 20
24828.005271002781
 30
0.0
 41
-2.0
 42
2.0
 43
2.0
 50
180.0
  0
LINE
  5
3CE4
  8
KL
 10
12257.857485438661
 20
24665.358490313381
 30
0.0
 11
12257.857485438661
 21
24766.15849031337
 31
0.0
  0
LINE
  5
3CE5
  8
KL
 10
12251.857485438661
 20
24671.358490313371
 30
0.0
 11
12251.857485438661
 21
24741.65849031337
 31
0.0
  0
LINE
  5
3CE6
  8
KL
 10
12207.857485438661
 20
24665.358490313381
 30
0.0
 11
12207.857485438661
 21
24671.358490313371
 31
0.0
  0
LINE
  5
3CE7
  8
CT
 10
12225.357485438661
 20
24642.702389069509
 30
0.0
 11
12225.357485438661
 21
24685.40802749477
 31
0.0
  0
LINE
  5
3CE8
  8
FUTO
 10
12207.857485438661
 20
24760.15849031337
 30
0.0
 11
12207.857485438661
 21
24766.15849031337
 31
0.0
  0
LINE
  5
3CE9
  8
CT
 10
12225.357485438661
 20
24737.397503051179
 30
0.0
 11
12225.357485438661
 21
24789.386978607581
 31
0.0
  0
LINE
  5
3CEA
  8
FUTO
 10
12251.857485438661
 20
24741.65849031337
 30
0.0
 11
12251.857485438661
 21
24760.15849031337
 31
0.0
  0
LINE
  5
3D2A
  8
FUTO
 10
13061.857485438661
 20
23458.65849031337
 30
0.0
 11
13061.857485438661
 21
23325.65849031337
 31
0.0
  0
LINE
  5
3D2B
  8
FUTO
 10
13050.857485438661
 20
22732.15849031337
 30
0.0
 11
13050.857485438661
 21
22632.15849031337
 31
0.0
  0
ARC
  5
4030
  8
FUTO
 10
14157.857485438661
 20
22523.15849031337
 30
0.0
 40
9.0
 50
0.000000000000007
 51
180.0
  0
LINE
  5
4031
  8
FUTO
 10
14166.857485438661
 20
22422.15849031337
 30
0.0
 11
14166.857485438661
 21
22523.15849031337
 31
0.0
  0
LINE
  5
4032
  8
FUTO
 10
14148.857485438661
 20
22422.15849031337
 30
0.0
 11
14148.857485438661
 21
22523.15849031337
 31
0.0
  0
LINE
  5
4033
  8
FUTO
 10
14414.85742443866
 20
22936.658429313371
 30
0.0
 11
14414.85742443866
 21
22972.658490313381
 31
0.0
  0
LINE
  5
4034
  8
FUTO
 10
14417.857424438649
 20
22936.658429313371
 30
0.0
 11
14417.857424438649
 21
22972.658490313381
 31
0.0
  0
LINE
  5
4035
  8
FUTO
 10
14409.85742443866
 20
22936.658429313371
 30
0.0
 11
14409.85742443866
 21
22983.65849031337
 31
0.0
  0
LINE
  5
4036
  8
FUTO
 10
14367.857485438661
 20
22597.65849031337
 30
0.0
 11
14367.85748543865
 21
22644.53349031337
 31
0.0
  0
LINE
  5
4037
  8
FUTO
 10
14315.54912043418
 20
22592.65849031337
 30
0.0
 11
14362.85748543865
 21
22592.65849031337
 31
0.0
  0
ARC
  5
4038
  8
FUTO
 10
14362.85748543865
 20
22597.65849031337
 30
0.0
 40
5.0
 50
270.0
 51
0.000000000000007
  0
LINE
  5
4039
  8
FUTO
 10
14347.53883065708
 20
22644.53349031337
 30
0.0
 11
14367.85748543865
 21
22644.53349031337
 31
0.0
  0
LINE
  5
403A
  8
FUTO
 10
14367.85748543865
 20
22642.65849031337
 30
0.0
 11
14414.85742443866
 21
22642.65849031337
 31
0.0
  0
LINE
  5
403B
  8
FUTO
 10
14367.85748543865
 20
22639.65849031337
 30
0.0
 11
14417.857424438649
 21
22639.65849031337
 31
0.0
  0
LINE
  5
403C
  8
FUTO
 10
14347.647959006939
 20
22647.65849031337
 30
0.0
 11
14409.85742443866
 21
22647.65849031337
 31
0.0
  0
LINE
  5
403D
  8
FUTO
 10
14409.85742443866
 20
22647.65849031337
 30
0.0
 11
14414.85742443866
 21
22642.65849031337
 31
0.0
  0
LINE
  5
403E
  8
FUTO
 10
14442.85742443866
 20
22682.65849031337
 30
0.0
 11
14442.85742443866
 21
22722.65849031337
 31
0.0
  0
LINE
  5
403F
  8
FUTO
 10
14412.85742443866
 20
22682.65849031337
 30
0.0
 11
14412.85742443866
 21
22722.65849031337
 31
0.0
  0
LINE
  5
4040
  8
FUTO
 10
14442.85742443866
 20
22722.65849031337
 30
0.0
 11
14412.85742443866
 21
22722.65849031337
 31
0.0
  0
LINE
  5
4041
  8
FUTO
 10
14412.85742443866
 20
22682.65849031337
 30
0.0
 11
14442.85742443866
 21
22682.65849031337
 31
0.0
  0
LINE
  5
4042
  8
CT
 10
14361.357485438661
 20
22702.65849031337
 30
0.0
 11
14528.911867438659
 21
22702.65849031337
 31
0.0
  0
LINE
  5
4043
  8
FUTO
 10
14517.31189243866
 20
22720.248334313379
 30
0.0
 11
14505.21191643866
 21
22720.248334313379
 31
0.0
  0
LINE
  5
4044
  8
FUTO
 10
14517.31189243866
 20
22685.068647313368
 30
0.0
 11
14505.21191643866
 21
22685.068647313368
 31
0.0
  0
LINE
  5
4045
  8
FUTO
 10
14517.31189243866
 20
22712.363568313369
 30
0.0
 11
14505.21191643866
 21
22712.363568313369
 31
0.0
  0
LINE
  5
4046
  8
FUTO
 10
14517.31189243866
 20
22692.953412313371
 30
0.0
 11
14505.21191643866
 21
22692.953412313371
 31
0.0
  0
LINE
  5
4047
  8
FUTO
 10
14518.91186743865
 20
22718.648725313371
 30
0.0
 11
14518.91186743865
 21
22686.669232313368
 31
0.0
  0
LINE
  5
4048
  8
FUTO
 10
14517.31189243866
 20
22685.068647313368
 30
0.0
 11
14518.91186743865
 21
22686.669232313368
 31
0.0
  0
LINE
  5
4049
  8
FUTO
 10
14517.31189243866
 20
22692.953412313371
 30
0.0
 11
14518.91186743865
 21
22691.35380331337
 31
0.0
  0
LINE
  5
404A
  8
FUTO
 10
14517.31189243866
 20
22692.953412313371
 30
0.0
 11
14518.91186743865
 21
22694.553998313379
 31
0.0
  0
LINE
  5
404B
  8
FUTO
 10
14518.91186743865
 20
22718.648725313371
 30
0.0
 11
14517.31189243866
 21
22720.248334313379
 31
0.0
  0
LINE
  5
404C
  8
FUTO
 10
14517.31189243866
 20
22712.363568313369
 30
0.0
 11
14518.91186743865
 21
22713.964154313369
 31
0.0
  0
LINE
  5
404D
  8
FUTO
 10
14517.31189243866
 20
22712.363568313369
 30
0.0
 11
14518.91186743865
 21
22710.763959313372
 31
0.0
  0
LINE
  5
404E
  8
FUTO
 10
14505.21191643866
 20
22720.248334313379
 30
0.0
 11
14505.21191643866
 21
22685.068647313368
 31
0.0
  0
LINE
  5
404F
  8
FUTO
 10
14505.21191643866
 20
22693.65849031337
 30
0.0
 11
14442.85742443866
 21
22693.65849031337
 31
0.0
  0
LINE
  5
4050
  8
HOSO
 10
14442.85742443866
 20
22695.65849031337
 30
0.0
 11
14505.21197743865
 21
22695.65849031337
 31
0.0
  0
LINE
  5
4051
  8
HOSO
 10
14505.21191643866
 20
22709.658490313381
 30
0.0
 11
14442.85742443866
 21
22709.658490313381
 31
0.0
  0
LINE
  5
4052
  8
FUTO
 10
14442.85742443866
 20
22711.658490313381
 30
0.0
 11
14505.21197743865
 21
22711.658490313381
 31
0.0
  0
LINE
  5
4053
  8
FUTO
 10
14412.85742443866
 20
22693.65849031337
 30
0.0
 11
14361.357485438661
 21
22693.65849031337
 31
0.0
  0
LINE
  5
4054
  8
HOSO
 10
14361.357485438661
 20
22695.65849031337
 30
0.0
 11
14412.85742443866
 21
22695.65849031337
 31
0.0
  0
LINE
  5
4055
  8
FUTO
 10
14361.357485438661
 20
22711.658490313381
 30
0.0
 11
14412.85742443866
 21
22711.658490313381
 31
0.0
  0
LINE
  5
4056
  8
HOSO
 10
14412.85742443866
 20
22709.658490313381
 30
0.0
 11
14361.357485438661
 21
22709.658490313381
 31
0.0
  0
LINE
  5
4057
  8
FUTO
 10
14417.857424438649
 20
22639.65849031337
 30
0.0
 11
14417.857424438649
 21
22682.65849031337
 31
0.0
  0
LINE
  5
4058
  8
FUTO
 10
14414.85742443866
 20
22642.65849031337
 30
0.0
 11
14414.85742443866
 21
22682.65849031337
 31
0.0
  0
LINE
  5
4059
  8
FUTO
 10
14409.85742443866
 20
22647.65849031337
 30
0.0
 11
14409.85742443866
 21
22693.65849031337
 31
0.0
  0
LINE
  5
405A
  8
FUTO
 10
14417.857424438649
 20
22722.65849031337
 30
0.0
 11
14417.857424438649
 21
22758.65849031337
 31
0.0
  0
LINE
  5
405B
  8
FUTO
 10
14414.85742443866
 20
22722.65849031337
 30
0.0
 11
14414.85742443866
 21
22758.65849031337
 31
0.0
  0
LINE
  5
405C
  8
FUTO
 10
14409.85742443866
 20
22711.658490313381
 30
0.0
 11
14409.85742443866
 21
22758.65849031337
 31
0.0
  0
LINE
  5
405D
  8
FUTO
 10
14442.85742443866
 20
22983.65849031337
 30
0.0
 11
14505.21197743865
 21
22983.65849031337
 31
0.0
  0
LINE
  5
405E
  8
HOSO
 10
14505.21191643866
 20
22985.65849031337
 30
0.0
 11
14442.85742443866
 21
22985.65849031337
 31
0.0
  0
LINE
  5
405F
  8
HOSO
 10
14442.85742443866
 20
22999.65849031337
 30
0.0
 11
14505.21197743865
 21
22999.65849031337
 31
0.0
  0
LINE
  5
4060
  8
FUTO
 10
14505.21191643866
 20
23001.65849031337
 30
0.0
 11
14442.85742443866
 21
23001.65849031337
 31
0.0
  0
LINE
  5
4061
  8
FUTO
 10
14505.21191643866
 20
22975.068646313372
 30
0.0
 11
14505.21191643866
 21
23010.248333313379
 31
0.0
  0
LINE
  5
4062
  8
FUTO
 10
14517.31189243866
 20
22982.953412313371
 30
0.0
 11
14518.91186743865
 21
22984.553021313372
 31
0.0
  0
LINE
  5
4063
  8
FUTO
 10
14517.31189243866
 20
22982.953412313371
 30
0.0
 11
14518.91186743865
 21
22981.35282631337
 31
0.0
  0
LINE
  5
4064
  8
FUTO
 10
14518.91186743865
 20
22976.668255313369
 30
0.0
 11
14517.31189243866
 21
22975.068646313372
 31
0.0
  0
LINE
  5
4065
  8
FUTO
 10
14517.31189243866
 20
23002.363568313369
 30
0.0
 11
14518.91186743865
 21
23000.762982313368
 31
0.0
  0
LINE
  5
4066
  8
FUTO
 10
14517.31189243866
 20
23002.363568313369
 30
0.0
 11
14518.91186743865
 21
23003.96317731337
 31
0.0
  0
LINE
  5
4067
  8
FUTO
 10
14517.31189243866
 20
23010.248333313379
 30
0.0
 11
14518.91186743865
 21
23008.647748313371
 31
0.0
  0
LINE
  5
4068
  8
FUTO
 10
14518.91186743865
 20
22976.668255313369
 30
0.0
 11
14518.91186743865
 21
23008.647748313371
 31
0.0
  0
LINE
  5
4069
  8
FUTO
 10
14517.31189243866
 20
23002.363568313369
 30
0.0
 11
14505.21191643866
 21
23002.363568313369
 31
0.0
  0
LINE
  5
406A
  8
FUTO
 10
14517.31189243866
 20
22982.953412313371
 30
0.0
 11
14505.21191643866
 21
22982.953412313371
 31
0.0
  0
LINE
  5
406B
  8
FUTO
 10
14517.31189243866
 20
23010.248333313379
 30
0.0
 11
14505.21191643866
 21
23010.248333313379
 31
0.0
  0
LINE
  5
406C
  8
FUTO
 10
14517.31189243866
 20
22975.068646313372
 30
0.0
 11
14505.21191643866
 21
22975.068646313372
 31
0.0
  0
LINE
  5
406D
  8
FUTO
 10
14412.85742443866
 20
23012.658490313381
 30
0.0
 11
14442.85742443866
 21
23012.658490313381
 31
0.0
  0
LINE
  5
406E
  8
FUTO
 10
14442.85742443866
 20
22972.658490313381
 30
0.0
 11
14412.85742443866
 21
22972.658490313381
 31
0.0
  0
LINE
  5
406F
  8
FUTO
 10
14412.85742443866
 20
23012.658490313381
 30
0.0
 11
14412.85742443866
 21
22972.658490313381
 31
0.0
  0
LINE
  5
4070
  8
FUTO
 10
14442.85742443866
 20
23012.658490313381
 30
0.0
 11
14442.85742443866
 21
22972.658490313381
 31
0.0
  0
LINE
  5
4071
  8
HOSO
 10
14412.85742443866
 20
22985.65849031337
 30
0.0
 11
14361.357485438661
 21
22985.65849031337
 31
0.0
  0
LINE
  5
4072
  8
FUTO
 10
14361.357485438661
 20
22983.65849031337
 30
0.0
 11
14412.85742443866
 21
22983.65849031337
 31
0.0
  0
LINE
  5
4073
  8
HOSO
 10
14361.357485438661
 20
22999.65849031337
 30
0.0
 11
14412.85742443866
 21
22999.65849031337
 31
0.0
  0
LINE
  5
4074
  8
FUTO
 10
14412.85742443866
 20
23001.65849031337
 30
0.0
 11
14361.357485438661
 21
23001.65849031337
 31
0.0
  0
LINE
  5
4075
  8
CT
 10
14361.357485438661
 20
22992.65849031337
 30
0.0
 11
14528.911867438659
 21
22992.65849031337
 31
0.0
  0
LINE
  5
4076
  8
FUTO
 10
14409.85742443866
 20
23047.65849031337
 30
0.0
 11
14414.85742443866
 21
23052.658490313381
 31
0.0
  0
LINE
  5
4077
  8
FUTO
 10
14367.85748543865
 20
23055.65849031337
 30
0.0
 11
14417.857424438649
 21
23055.65849031337
 31
0.0
  0
LINE
  5
4078
  8
FUTO
 10
14367.85748543865
 20
23052.658490313381
 30
0.0
 11
14414.85742443866
 21
23052.658490313381
 31
0.0
  0
LINE
  5
4079
  8
FUTO
 10
14361.35748543865
 20
23050.783490313381
 30
0.0
 11
14367.85748543865
 21
23050.783490313381
 31
0.0
  0
LINE
  5
407A
  8
FUTO
 10
14361.357485438661
 20
23047.65849031337
 30
0.0
 11
14409.85742443866
 21
23047.65849031337
 31
0.0
  0
LINE
  5
407B
  8
FUTO
 10
14409.85742443866
 20
23047.65849031337
 30
0.0
 11
14409.85742443866
 21
23001.65849031337
 31
0.0
  0
LINE
  5
407C
  8
FUTO
 10
14414.85742443866
 20
23052.658490313381
 30
0.0
 11
14414.85742443866
 21
23012.658490313381
 31
0.0
  0
LINE
  5
407D
  8
FUTO
 10
14417.857424438649
 20
23055.65849031337
 30
0.0
 11
14417.857424438649
 21
23012.658490313381
 31
0.0
  0
ARC
  5
407E
  8
FUTO
 10
14362.85748543865
 20
23097.65849031337
 30
0.0
 40
5.0
 50
0.000000000000007
 51
90.000000000000028
  0
LINE
  5
407F
  8
FUTO
 10
14367.857485438661
 20
23097.65849031337
 30
0.0
 11
14367.85748543865
 21
23050.783490313381
 31
0.0
  0
LINE
  5
4080
  8
FUTO
 10
14350.357485438661
 20
23102.65849031337
 30
0.0
 11
14362.85748543865
 21
23102.65849031337
 31
0.0
  0
LINE
  5
4081
  8
CT
 10
13954.35748543865
 20
22992.65849031337
 30
0.0
 11
13786.803103438649
 21
22992.65849031337
 31
0.0
  0
LINE
  5
4082
  8
FUTO
 10
13902.857546438659
 20
23001.65849031337
 30
0.0
 11
13954.357485438661
 21
23001.65849031337
 31
0.0
  0
LINE
  5
4083
  8
HOSO
 10
13954.357485438661
 20
22999.65849031337
 30
0.0
 11
13902.857546438659
 21
22999.65849031337
 31
0.0
  0
LINE
  5
4084
  8
FUTO
 10
13954.357485438661
 20
22983.65849031337
 30
0.0
 11
13902.857546438659
 21
22983.65849031337
 31
0.0
  0
LINE
  5
4085
  8
HOSO
 10
13902.857546438659
 20
22985.65849031337
 30
0.0
 11
13954.357485438661
 21
22985.65849031337
 31
0.0
  0
LINE
  5
4086
  8
FUTO
 10
13872.85754643865
 20
23012.658490313381
 30
0.0
 11
13872.85754643865
 21
22972.658490313381
 31
0.0
  0
LINE
  5
4087
  8
FUTO
 10
13902.857546438659
 20
23012.658490313381
 30
0.0
 11
13902.857546438659
 21
22972.658490313381
 31
0.0
  0
LINE
  5
4088
  8
FUTO
 10
13872.85754643865
 20
22972.658490313381
 30
0.0
 11
13902.857546438659
 21
22972.658490313381
 31
0.0
  0
LINE
  5
4089
  8
FUTO
 10
13902.857546438659
 20
23012.658490313381
 30
0.0
 11
13872.85754643865
 21
23012.658490313381
 31
0.0
  0
LINE
  5
408A
  8
FUTO
 10
13798.40307843866
 20
22975.068646313372
 30
0.0
 11
13810.503054438659
 21
22975.068646313372
 31
0.0
  0
LINE
  5
408B
  8
FUTO
 10
13798.40307843866
 20
23010.248333313379
 30
0.0
 11
13810.503054438659
 21
23010.248333313379
 31
0.0
  0
LINE
  5
408C
  8
FUTO
 10
13798.40307843866
 20
22982.953412313371
 30
0.0
 11
13810.503054438659
 21
22982.953412313371
 31
0.0
  0
LINE
  5
408D
  8
FUTO
 10
13798.40307843866
 20
23002.363568313369
 30
0.0
 11
13810.503054438659
 21
23002.363568313369
 31
0.0
  0
LINE
  5
408E
  8
FUTO
 10
13796.803103438649
 20
22976.668255313369
 30
0.0
 11
13796.803103438649
 21
23008.647748313371
 31
0.0
  0
LINE
  5
408F
  8
FUTO
 10
13798.40307843866
 20
23010.248333313379
 30
0.0
 11
13796.803103438649
 21
23008.647748313371
 31
0.0
  0
LINE
  5
4090
  8
FUTO
 10
13798.40307843866
 20
23002.363568313369
 30
0.0
 11
13796.803103438649
 21
23003.96317731337
 31
0.0
  0
LINE
  5
4091
  8
FUTO
 10
13798.40307843866
 20
23002.363568313369
 30
0.0
 11
13796.803103438649
 21
23000.762982313368
 31
0.0
  0
LINE
  5
4092
  8
FUTO
 10
13796.803103438649
 20
22976.668255313369
 30
0.0
 11
13798.40307843866
 21
22975.068646313372
 31
0.0
  0
LINE
  5
4093
  8
FUTO
 10
13798.40307843866
 20
22982.953412313371
 30
0.0
 11
13796.803103438649
 21
22981.35282631337
 31
0.0
  0
LINE
  5
4094
  8
FUTO
 10
13798.40307843866
 20
22982.953412313371
 30
0.0
 11
13796.803103438649
 21
22984.553021313372
 31
0.0
  0
LINE
  5
4095
  8
FUTO
 10
13810.503054438659
 20
22975.068646313372
 30
0.0
 11
13810.503054438659
 21
23010.248333313379
 31
0.0
  0
LINE
  5
4096
  8
FUTO
 10
13810.503054438659
 20
23001.65849031337
 30
0.0
 11
13872.85754643865
 21
23001.65849031337
 31
0.0
  0
LINE
  5
4097
  8
HOSO
 10
13872.85754643865
 20
22999.65849031337
 30
0.0
 11
13810.502993438649
 21
22999.65849031337
 31
0.0
  0
LINE
  5
4098
  8
HOSO
 10
13810.503054438659
 20
22985.65849031337
 30
0.0
 11
13872.85754643865
 21
22985.65849031337
 31
0.0
  0
LINE
  5
4099
  8
FUTO
 10
13872.85754643865
 20
22983.65849031337
 30
0.0
 11
13810.502993438649
 21
22983.65849031337
 31
0.0
  0
LINE
  5
409A
  8
FUTO
 10
13897.857546438659
 20
23055.65849031337
 30
0.0
 11
13897.857546438659
 21
23012.658490313381
 31
0.0
  0
LINE
  5
409B
  8
FUTO
 10
13900.857546438659
 20
23052.658490313381
 30
0.0
 11
13900.857546438659
 21
23012.658490313381
 31
0.0
  0
LINE
  5
409C
  8
FUTO
 10
13905.857546438659
 20
23047.65849031337
 30
0.0
 11
13905.857546438659
 21
23001.65849031337
 31
0.0
  0
LINE
  5
409D
  8
FUTO
 10
13965.357485438661
 20
23102.65849031337
 30
0.0
 11
13952.857485438661
 21
23102.65849031337
 31
0.0
  0
LINE
  5
409E
  8
FUTO
 10
13954.357485438661
 20
23047.65849031337
 30
0.0
 11
13905.857546438659
 21
23047.65849031337
 31
0.0
  0
LINE
  5
409F
  8
FUTO
 10
13954.357485438661
 20
23050.783490313381
 30
0.0
 11
13947.857485438661
 21
23050.783490313381
 31
0.0
  0
LINE
  5
40A0
  8
FUTO
 10
13947.857485438661
 20
23097.65849031337
 30
0.0
 11
13947.857485438661
 21
23050.783490313381
 31
0.0
  0
LINE
  5
40A1
  8
FUTO
 10
13947.857485438661
 20
23052.658490313381
 30
0.0
 11
13900.857546438659
 21
23052.658490313381
 31
0.0
  0
LINE
  5
40A2
  8
FUTO
 10
13947.857485438661
 20
23055.65849031337
 30
0.0
 11
13897.857546438659
 21
23055.65849031337
 31
0.0
  0
ARC
  5
40A3
  8
FUTO
 10
13952.857485438661
 20
23097.65849031337
 30
0.0
 40
5.0
 50
90.000000000000028
 51
180.0
  0
LINE
  5
40A4
  8
FUTO
 10
13905.857546438659
 20
23047.65849031337
 30
0.0
 11
13900.857546438659
 21
23052.658490313381
 31
0.0
  0
LINE
  5
40A5
  8
FUTO
 10
13968.17614022023
 20
22644.53349031337
 30
0.0
 11
13947.857485438661
 21
22644.53349031337
 31
0.0
  0
LINE
  5
40A6
  8
FUTO
 10
13905.857546438659
 20
22711.658490313381
 30
0.0
 11
13905.857546438659
 21
22983.65849031337
 31
0.0
  0
LINE
  5
40A7
  8
FUTO
 10
13905.857546438659
 20
22647.65849031337
 30
0.0
 11
13900.857546438659
 21
22642.65849031337
 31
0.0
  0
LINE
  5
40A8
  8
FUTO
 10
13905.857546438659
 20
22647.65849031337
 30
0.0
 11
13905.857546438659
 21
22693.65849031337
 31
0.0
  0
LINE
  5
40A9
  8
FUTO
 10
13968.067011870369
 20
22647.65849031337
 30
0.0
 11
13905.857546438659
 21
22647.65849031337
 31
0.0
  0
ARC
  5
40AA
  8
FUTO
 10
13952.857485438661
 20
22597.65849031337
 30
0.0
 40
5.0
 50
180.0
 51
270.0
  0
LINE
  5
40AB
  8
FUTO
 10
13947.857485438661
 20
22639.65849031337
 30
0.0
 11
13897.857546438659
 21
22639.65849031337
 31
0.0
  0
LINE
  5
40AC
  8
FUTO
 10
13947.857485438661
 20
22642.65849031337
 30
0.0
 11
13900.857546438659
 21
22642.65849031337
 31
0.0
  0
LINE
  5
40AD
  8
FUTO
 10
14000.165850443131
 20
22592.65849031337
 30
0.0
 11
13952.857485438661
 21
22592.65849031337
 31
0.0
  0
LINE
  5
40AE
  8
FUTO
 10
13947.857485438661
 20
22597.65849031337
 30
0.0
 11
13947.857485438661
 21
22644.53349031337
 31
0.0
  0
LINE
  5
40AF
  8
FUTO
 10
13900.857546438659
 20
22722.65849031337
 30
0.0
 11
13900.857546438659
 21
22972.658490313381
 31
0.0
  0
LINE
  5
40B0
  8
FUTO
 10
13897.857546438659
 20
22722.65849031337
 30
0.0
 11
13897.857546438659
 21
22972.658490313381
 31
0.0
  0
LINE
  5
40B1
  8
FUTO
 10
13900.857546438659
 20
22642.65849031337
 30
0.0
 11
13900.857546438659
 21
22682.65849031337
 31
0.0
  0
LINE
  5
40B2
  8
FUTO
 10
13897.857546438659
 20
22639.65849031337
 30
0.0
 11
13897.857546438659
 21
22682.65849031337
 31
0.0
  0
LINE
  5
40B3
  8
HOSO
 10
13902.857546438659
 20
22709.658490313381
 30
0.0
 11
13954.357485438661
 21
22709.658490313381
 31
0.0
  0
LINE
  5
40B4
  8
FUTO
 10
13954.357485438661
 20
22711.658490313381
 30
0.0
 11
13902.857546438659
 21
22711.658490313381
 31
0.0
  0
LINE
  5
40B5
  8
HOSO
 10
13954.357485438661
 20
22695.65849031337
 30
0.0
 11
13902.857546438659
 21
22695.65849031337
 31
0.0
  0
LINE
  5
40B6
  8
FUTO
 10
13902.857546438659
 20
22693.65849031337
 30
0.0
 11
13954.357485438661
 21
22693.65849031337
 31
0.0
  0
LINE
  5
40B7
  8
FUTO
 10
13872.85754643865
 20
22711.658490313381
 30
0.0
 11
13810.502993438649
 21
22711.658490313381
 31
0.0
  0
LINE
  5
40B8
  8
HOSO
 10
13810.503054438659
 20
22709.658490313381
 30
0.0
 11
13872.85754643865
 21
22709.658490313381
 31
0.0
  0
LINE
  5
40B9
  8
HOSO
 10
13872.85754643865
 20
22695.65849031337
 30
0.0
 11
13810.502993438649
 21
22695.65849031337
 31
0.0
  0
LINE
  5
40BA
  8
FUTO
 10
13810.503054438659
 20
22693.65849031337
 30
0.0
 11
13872.85754643865
 21
22693.65849031337
 31
0.0
  0
LINE
  5
40BB
  8
FUTO
 10
13810.503054438659
 20
22720.248334313379
 30
0.0
 11
13810.503054438659
 21
22685.068647313368
 31
0.0
  0
LINE
  5
40BC
  8
FUTO
 10
13798.40307843866
 20
22712.363568313369
 30
0.0
 11
13796.803103438649
 21
22710.763959313372
 31
0.0
  0
LINE
  5
40BD
  8
FUTO
 10
13798.40307843866
 20
22712.363568313369
 30
0.0
 11
13796.803103438649
 21
22713.964154313369
 31
0.0
  0
LINE
  5
40BE
  8
FUTO
 10
13796.803103438649
 20
22718.648725313371
 30
0.0
 11
13798.40307843866
 21
22720.248334313379
 31
0.0
  0
LINE
  5
40BF
  8
FUTO
 10
13798.40307843866
 20
22692.953412313371
 30
0.0
 11
13796.803103438649
 21
22694.553998313379
 31
0.0
  0
LINE
  5
40C0
  8
FUTO
 10
13798.40307843866
 20
22692.953412313371
 30
0.0
 11
13796.803103438649
 21
22691.35380331337
 31
0.0
  0
LINE
  5
40C1
  8
FUTO
 10
13798.40307843866
 20
22685.068647313368
 30
0.0
 11
13796.803103438649
 21
22686.669232313368
 31
0.0
  0
LINE
  5
40C2
  8
FUTO
 10
13796.803103438649
 20
22718.648725313371
 30
0.0
 11
13796.803103438649
 21
22686.669232313368
 31
0.0
  0
LINE
  5
40C3
  8
FUTO
 10
13798.40307843866
 20
22692.953412313371
 30
0.0
 11
13810.503054438659
 21
22692.953412313371
 31
0.0
  0
LINE
  5
40C4
  8
FUTO
 10
13798.40307843866
 20
22712.363568313369
 30
0.0
 11
13810.503054438659
 21
22712.363568313369
 31
0.0
  0
LINE
  5
40C5
  8
FUTO
 10
13798.40307843866
 20
22685.068647313368
 30
0.0
 11
13810.503054438659
 21
22685.068647313368
 31
0.0
  0
LINE
  5
40C6
  8
FUTO
 10
13798.40307843866
 20
22720.248334313379
 30
0.0
 11
13810.503054438659
 21
22720.248334313379
 31
0.0
  0
LINE
  5
40C7
  8
CT
 10
13954.35748543865
 20
22702.65849031337
 30
0.0
 11
13786.803103438649
 21
22702.65849031337
 31
0.0
  0
LINE
  5
40C8
  8
FUTO
 10
13902.857546438659
 20
22682.65849031337
 30
0.0
 11
13872.85754643865
 21
22682.65849031337
 31
0.0
  0
LINE
  5
40C9
  8
FUTO
 10
13872.85754643865
 20
22722.65849031337
 30
0.0
 11
13902.857546438659
 21
22722.65849031337
 31
0.0
  0
LINE
  5
40CA
  8
FUTO
 10
13902.857546438659
 20
22682.65849031337
 30
0.0
 11
13902.857546438659
 21
22722.65849031337
 31
0.0
  0
LINE
  5
40CB
  8
FUTO
 10
13872.85754643865
 20
22682.65849031337
 30
0.0
 11
13872.85754643865
 21
22722.65849031337
 31
0.0
  0
ARC
  5
40CC
  8
FUTO
 10
14489.48663543865
 20
22909.658429313371
 30
0.0
 40
20.0
 50
0.000000000000007
 51
90.000000000000028
  0
ARC
  5
40CD
  8
FUTO
 10
14489.48663543865
 20
22785.65849031337
 30
0.0
 40
20.0
 50
270.0
 51
0.000000000000007
  0
ARC
  5
40CE
  8
FUTO
 10
14499.48663543866
 20
22768.658490313381
 30
0.0
 40
10.0
 50
270.0
 51
0.000000000000007
  0
ARC
  5
40CF
  8
FUTO
 10
14499.48663543866
 20
22926.658429313378
 30
0.0
 40
10.0
 50
0.000000000000007
 51
90.000000000000028
  0
ARC
  5
40D0
  8
FUTO
 10
14396.629910539759
 20
22768.658490313381
 30
0.0
 40
10.0
 50
180.0
 51
270.0
  0
ARC
  5
40D1
  8
FUTO
 10
14399.7970260781
 20
22768.658490313381
 30
0.0
 40
10.0
 50
180.0
 51
270.0
  0
ARC
  5
40D2
  8
FUTO
 10
14396.629910539759
 20
22926.658429313378
 30
0.0
 40
10.0
 50
90.000000000000028
 51
180.0
  0
ARC
  5
40D3
  8
FUTO
 10
14399.7970260781
 20
22926.658429313378
 30
0.0
 40
10.0
 50
90.000000000000028
 51
180.0
  0
LINE
  5
40D4
  8
FUTO
 10
14396.99362935755
 20
22765.65849031337
 30
0.0
 11
14489.48663543865
 21
22765.65849031337
 31
0.0
  0
LINE
  5
40D5
  8
FUTO
 10
14396.99362935755
 20
22929.658429313371
 30
0.0
 11
14489.48663543865
 21
22929.658429313371
 31
0.0
  0
ARC
  5
40D6
  8
FUTO
 10
14382.857485438661
 20
22770.658490313381
 30
0.0
 40
5.0
 50
180.0
 51
270.0
  0
ARC
  5
40D7
  8
FUTO
 10
14382.857485438661
 20
22924.658429313378
 30
0.0
 40
5.0
 50
90.000000000000028
 51
180.0
  0
ARC
  5
40D8
  8
FUTO
 10
14396.99362935755
 20
22770.658490313381
 30
0.0
 40
5.0
 50
180.0
 51
270.0
  0
ARC
  5
40D9
  8
FUTO
 10
14396.99362935755
 20
22924.658429313378
 30
0.0
 40
5.0
 50
90.000000000000028
 51
180.0
  0
LINE
  5
40DA
  8
FUTO
 10
14396.629910539759
 20
22758.65849031337
 30
0.0
 11
14499.48663543866
 21
22758.65849031337
 31
0.0
  0
LINE
  5
40DB
  8
FUTO
 10
14382.857485438661
 20
22765.65849031337
 30
0.0
 11
14386.629910539759
 21
22765.65849031337
 31
0.0
  0
LINE
  5
40DC
  8
FUTO
 10
14396.629910539759
 20
22936.658429313371
 30
0.0
 11
14499.48663543866
 21
22936.658429313371
 31
0.0
  0
LINE
  5
40DD
  8
FUTO
 10
14382.857485438661
 20
22929.658429313371
 30
0.0
 11
14386.629910539759
 21
22929.658429313371
 31
0.0
  0
LINE
  5
40DE
  8
FUTO
 10
14361.357485438661
 20
22907.65849031337
 30
0.0
 11
14361.357485438661
 21
23014.469261062412
 31
0.0
  0
LINE
  5
40DF
  8
FUTO
 10
14377.857485438661
 20
22787.65849031337
 30
0.0
 11
14310.13108787847
 21
22787.65849031337
 31
0.0
  0
LINE
  5
40E0
  8
FUTO
 10
14377.857485438661
 20
22907.65849031337
 30
0.0
 11
14310.13108787847
 21
22907.65849031337
 31
0.0
  0
LINE
  5
40E1
  8
FUTO
 10
14468.176821438659
 20
22785.65849031337
 30
0.0
 11
14468.176821438659
 21
22909.658429313371
 31
0.0
  0
LINE
  5
40E2
  8
FUTO
 10
14391.99362935755
 20
22770.658490313381
 30
0.0
 11
14391.99362935755
 21
22924.658429313378
 31
0.0
  0
LINE
  5
40E3
  8
FUTO
 10
14389.7970260781
 20
22768.658490313381
 30
0.0
 11
14389.7970260781
 21
22926.658429313378
 31
0.0
  0
LINE
  5
40E4
  8
FUTO
 10
14386.629910539759
 20
22768.658490313381
 30
0.0
 11
14386.629910539759
 21
22926.658429313378
 31
0.0
  0
LINE
  5
40E5
  8
FUTO
 10
14377.857485438661
 20
22770.658490313381
 30
0.0
 11
14377.857485438661
 21
22924.658429313378
 31
0.0
  0
LINE
  5
40E6
  8
FUTO
 10
14367.857485438661
 20
22787.65849031337
 30
0.0
 11
14367.857485438661
 21
22907.65849031337
 31
0.0
  0
LINE
  5
40E7
  8
FUTO
 10
14310.13108787847
 20
22787.65849031337
 30
0.0
 11
14310.13108787847
 21
22907.65849031337
 31
0.0
  0
LINE
  5
40E8
  8
FUTO
 10
14509.48663543865
 20
22768.658490313381
 30
0.0
 11
14509.48663543865
 21
22926.658429313378
 31
0.0
  0
LINE
  5
40E9
  8
FUTO
 10
14164.107485438661
 20
22823.908490313381
 30
0.0
 11
14164.107485438661
 21
22871.40849031337
 31
0.0
  0
ARC
  5
40EA
  8
FUTO
 10
14157.857485438661
 20
22823.908490313381
 30
0.0
 40
6.25
 50
180.0
 51
0.000000000000007
  0
ARC
  5
40EB
  8
FUTO
 10
14157.857485438661
 20
22871.40849031337
 30
0.0
 40
6.25
 50
0.000000000000007
 51
180.0
  0
LINE
  5
40EC
  8
CT
 10
14529.48663543866
 20
22847.65849031337
 30
0.0
 11
13877.857546438659
 21
22847.65849031337
 31
0.0
  0
LINE
  5
40ED
  8
FUTO
 10
14151.607485438661
 20
22823.908490313381
 30
0.0
 11
14151.607485438661
 21
22871.40849031337
 31
0.0
  0
LINE
  5
40EE
  8
FUTO
 10
14361.35748543865
 20
23014.469261062412
 30
0.0
 11
14359.535708438651
 21
23016.658429313371
 31
0.0
  0
LINE
  5
40EF
  8
FUTO
 10
14361.357485438661
 20
22680.847577313369
 30
0.0
 11
14354.857485438661
 21
22673.036664313371
 31
0.0
  0
LINE
  5
40F0
  8
FUTO
 10
14361.357485438661
 20
22680.847577313369
 30
0.0
 11
14361.357485438661
 21
22787.65849031337
 31
0.0
  0
LINE
  5
40F1
  8
FUTO
 10
13954.357485438661
 20
22680.847577313369
 30
0.0
 11
13954.35748543865
 21
23014.469261062412
 31
0.0
  0
ARC
  5
40F2
  8
FUTO
 10
14235.857485438661
 20
22574.15849031337
 30
0.0
 40
2.0
 50
270.0
 51
0.000000000000007
  0
ARC
  5
40F3
  8
FUTO
 10
14240.857485438661
 20
22584.311566313369
 30
0.0
 40
2.9999599999999988
 50
92.999557000034059
 51
180.0
  0
LINE
  5
40F4
  8
FUTO
 10
14237.857485438661
 20
22584.311566313369
 30
0.0
 11
14237.857485438661
 21
22574.15849031337
 31
0.0
  0
ARC
  5
40F5
  8
FUTO
 10
14336.95343343865
 20
22627.944135313381
 30
0.0
 40
9.9999679999999991
 50
315.0
 51
358.00067100000211
  0
ARC
  5
40F6
  8
FUTO
 10
14309.960269438659
 20
22600.95097031337
 30
0.0
 40
10.000024
 50
272.99903899993512
 51
315.0
  0
LINE
  5
40F7
  8
FUTO
 10
14344.02447843865
 20
22620.873090313369
 30
0.0
 11
14317.031313438651
 21
22593.87992631337
 31
0.0
  0
LINE
  5
40F8
  8
FUTO
 10
14347.857485438661
 20
22653.65849031337
 30
0.0
 11
14346.94732943865
 21
22627.595258313369
 31
0.0
  0
LINE
  5
40F9
  8
FUTO
 10
14310.48346243866
 20
22590.964642313371
 30
0.0
 11
14221.892153438661
 21
22586.321820313369
 31
0.0
  0
LINE
  5
40FA
  8
FUTO
 10
14319.857485438661
 20
22663.65849031337
 30
0.0
 11
13995.857485438661
 21
22663.65849031337
 31
0.0
  0
LINE
  5
40FB
  8
FUTO
 10
14319.857485438661
 20
22653.65849031337
 30
0.0
 11
14319.857485438661
 21
22658.65849031337
 31
0.0
  0
LINE
  5
40FC
  8
FUTO
 10
14319.857485438661
 20
22658.65849031337
 30
0.0
 11
14319.857485438661
 21
22663.65849031337
 31
0.0
  0
LINE
  5
40FD
  8
FUTO
 10
14354.857485438661
 20
22673.036664313371
 30
0.0
 11
14319.857485438661
 21
22663.65849031337
 31
0.0
  0
ARC
  5
40FE
  8
FUTO
 10
14341.357485438661
 20
23063.13181831337
 30
0.0
 40
20.0
 50
0.000000000000007
 51
20.000046000008609
  0
ARC
  5
40FF
  8
FUTO
 10
14370.357485438661
 20
23100.407208313369
 30
0.0
 40
20.0
 50
180.0
 51
199.9997250000032
  0
LINE
  5
4100
  8
FUTO
 10
14305.506411438661
 20
23045.158429313371
 30
0.0
 11
14309.259341438659
 21
23051.658429313371
 31
0.0
  0
LINE
  5
4101
  8
FUTO
 10
14309.259341438659
 20
23051.658429313371
 30
0.0
 11
14305.506411438661
 21
23058.158429313378
 31
0.0
  0
LINE
  5
4102
  8
FUTO
 10
14360.15143143865
 20
23069.972272313371
 30
0.0
 11
14351.563540438659
 21
23093.566876313369
 31
0.0
  0
LINE
  5
4103
  8
FUTO
 10
14361.357485438661
 20
23016.658429313371
 30
0.0
 11
14361.357485438661
 21
23063.13181831337
 31
0.0
  0
LINE
  5
4104
  8
FUTO
 10
14294.248110438661
 20
23051.658429313371
 30
0.0
 11
14298.00104043865
 21
23058.158429313378
 31
0.0
  0
LINE
  5
4105
  8
FUTO
 10
14298.00104043865
 20
23045.158429313371
 30
0.0
 11
14294.248110438661
 21
23051.658429313371
 31
0.0
  0
LINE
  5
4106
  8
CT
 10
14301.753726438659
 20
23044.216290313369
 30
0.0
 11
14301.753726438659
 21
23058.672345313382
 31
0.0
  0
LINE
  5
4107
  8
CT
 10
14293.363101438659
 20
23051.658429313371
 30
0.0
 11
14310.184634438659
 21
23051.658429313371
 31
0.0
  0
LINE
  5
4108
  8
FUTO
 10
14298.00104043865
 20
23058.158429313378
 30
0.0
 11
14305.506411438661
 21
23058.158429313378
 31
0.0
  0
LINE
  5
4109
  8
FUTO
 10
14298.00104043865
 20
23045.158429313371
 30
0.0
 11
14305.506411438661
 21
23045.158429313371
 31
0.0
  0
CIRCLE
  5
410A
  8
FUTO
 10
14301.753726438659
 20
23051.658429313371
 30
0.0
 40
6.5
  0
ARC
  5
410B
  8
FUTO
 10
14335.357485438661
 20
23161.34751631337
 30
0.0
 40
15.0
 50
0.000000000000007
 51
29.999816999981821
  0
ARC
  5
410C
  8
FUTO
 10
14314.97076743865
 20
23216.658429313371
 30
0.0
 40
4.9999580000000003
 50
30.000281999972739
 51
90.000000000000028
  0
LINE
  5
410D
  8
FUTO
 10
14319.30084543866
 20
23219.158429313371
 30
0.0
 11
14348.347964438661
 21
23168.847516313381
 31
0.0
  0
LINE
  5
410E
  8
FUTO
 10
14350.357485438661
 20
23100.407208313369
 30
0.0
 11
14350.357485438661
 21
23161.34751631337
 31
0.0
  0
LINE
  5
410F
  8
FUTO
 10
13965.357485438661
 20
23100.407208313369
 30
0.0
 11
13965.357485438661
 21
23161.34751631337
 31
0.0
  0
LINE
  5
4110
  8
CT
 10
14157.857485438661
 20
22402.15849031337
 30
0.0
 11
14157.857485438661
 21
23241.65849031337
 31
0.0
  0
LINE
  5
4111
  8
FUTO
 10
14000.20752143866
 20
23221.65849031337
 30
0.0
 11
14314.997835438649
 21
23221.65849031337
 31
0.0
  0
LINE
  5
4112
  8
FUTO
 10
14350.357485438661
 20
23162.55845331337
 30
0.0
 11
13965.40655743865
 21
23162.55845331337
 31
0.0
  0
LINE
  5
4113
  8
FUTO
 10
13996.41412543866
 20
23219.158429313371
 30
0.0
 11
13967.367006438661
 21
23168.847516313381
 31
0.0
  0
ARC
  5
4114
  8
FUTO
 10
14000.744203438649
 20
23216.658429313371
 30
0.0
 40
4.9999580000000003
 50
90.000000000000028
 51
149.9997180000272
  0
ARC
  5
4115
  8
FUTO
 10
13980.357485438661
 20
23161.34751631337
 30
0.0
 40
15.0
 50
150.00018300001821
 51
180.0
  0
LINE
  5
4116
  8
FUTO
 10
14235.857485438661
 20
22572.15849031337
 30
0.0
 11
14157.857485438661
 21
22572.15849031337
 31
0.0
  0
LINE
  5
4117
  8
FUTO
 10
14347.857485438661
 20
22653.65849031337
 30
0.0
 11
14157.857485438661
 21
22653.65849031337
 31
0.0
  0
LINE
  5
4118
  8
FUTO
 10
14319.857485438661
 20
22658.65849031337
 30
0.0
 11
14157.857485438661
 21
22658.65849031337
 31
0.0
  0
LINE
  5
4119
  8
FUTO
 10
13965.04010243865
 20
23096.85838031337
 30
0.0
 11
14350.357485438661
 21
23096.85838031337
 31
0.0
  0
LINE
  5
411A
  8
FUTO
 10
13954.67096143866
 20
23066.658429313371
 30
0.0
 11
14361.044105637529
 21
23066.658429313371
 31
0.0
  0
LINE
  5
411B
  8
FUTO
 10
13954.357485438661
 20
23016.658429313371
 30
0.0
 11
14359.535708438651
 21
23016.658429313371
 31
0.0
  0
LINE
  5
411C
  8
FUTO
 10
14319.857485438661
 20
22658.65849031337
 30
0.0
 11
14157.857485438661
 21
22658.65849031337
 31
0.0
  0
CIRCLE
  5
411D
  8
FUTO
 10
14013.961244438649
 20
23051.658429313371
 30
0.0
 40
6.5
  0
LINE
  5
411E
  8
FUTO
 10
14017.713930438649
 20
23045.158429313371
 30
0.0
 11
14010.20855943865
 21
23045.158429313371
 31
0.0
  0
LINE
  5
411F
  8
FUTO
 10
14017.713930438649
 20
23058.158429313378
 30
0.0
 11
14010.20855943865
 21
23058.158429313378
 31
0.0
  0
LINE
  5
4120
  8
CT
 10
14022.351869438649
 20
23051.658429313371
 30
0.0
 11
14005.53033643866
 21
23051.658429313371
 31
0.0
  0
LINE
  5
4121
  8
CT
 10
14013.961244438649
 20
23044.216290313369
 30
0.0
 11
14013.961244438649
 21
23058.672345313382
 31
0.0
  0
LINE
  5
4122
  8
FUTO
 10
14017.713930438649
 20
23045.158429313371
 30
0.0
 11
14021.466860438661
 21
23051.658429313371
 31
0.0
  0
LINE
  5
4123
  8
FUTO
 10
14021.466860438661
 20
23051.658429313371
 30
0.0
 11
14017.713930438649
 21
23058.158429313378
 31
0.0
  0
LINE
  5
4124
  8
FUTO
 10
13954.357485438661
 20
23016.658429313371
 30
0.0
 11
13954.357485438661
 21
23063.13181831337
 31
0.0
  0
LINE
  5
4125
  8
FUTO
 10
13955.563539438661
 20
23069.972272313371
 30
0.0
 11
13964.15143043866
 21
23093.566876313369
 31
0.0
  0
LINE
  5
4126
  8
FUTO
 10
14006.45562943866
 20
23051.658429313371
 30
0.0
 11
14010.20855943865
 21
23058.158429313378
 31
0.0
  0
LINE
  5
4127
  8
FUTO
 10
14010.20855943865
 20
23045.158429313371
 30
0.0
 11
14006.45562943866
 21
23051.658429313371
 31
0.0
  0
ARC
  5
4128
  8
FUTO
 10
13945.357485438661
 20
23100.407208313369
 30
0.0
 40
20.0
 50
340.0002749999968
 51
0.000000000000007
  0
ARC
  5
4129
  8
FUTO
 10
13974.357485438661
 20
23063.13181831337
 30
0.0
 40
20.0
 50
159.99995399999131
 51
180.0
  0
LINE
  5
412A
  8
FUTO
 10
13954.357485438661
 20
23014.469261062412
 30
0.0
 11
13956.17926243866
 21
23016.658429313371
 31
0.0
  0
LINE
  5
412B
  8
FUTO
 10
13995.857485438661
 20
22658.65849031337
 30
0.0
 11
14157.857485438661
 21
22658.65849031337
 31
0.0
  0
LINE
  5
412C
  8
FUTO
 10
14005.231508438659
 20
22590.964642313371
 30
0.0
 11
14093.82281743866
 21
22586.321820313369
 31
0.0
  0
LINE
  5
412D
  8
FUTO
 10
13967.857485438661
 20
22653.65849031337
 30
0.0
 11
14157.857485438661
 21
22653.65849031337
 31
0.0
  0
LINE
  5
412E
  8
FUTO
 10
13995.857485438661
 20
22658.65849031337
 30
0.0
 11
14157.857485438661
 21
22658.65849031337
 31
0.0
  0
LINE
  5
412F
  8
FUTO
 10
14187.857485438661
 20
22562.15849031337
 30
0.0
 11
14187.857485438661
 21
22422.15849031337
 31
0.0
  0
LINE
  5
4130
  8
FUTO
 10
14127.857485438661
 20
22562.15849031337
 30
0.0
 11
14127.857485438661
 21
22422.15849031337
 31
0.0
  0
LINE
  5
4131
  8
FUTO
 10
14079.857485438661
 20
22572.15849031337
 30
0.0
 11
14157.857485438661
 21
22572.15849031337
 31
0.0
  0
LINE
  5
4132
  8
FUTO
 10
14190.357485438661
 20
22562.15849031337
 30
0.0
 11
14125.357485438661
 21
22562.15849031337
 31
0.0
  0
LINE
  5
4133
  8
FUTO
 10
14190.357485438661
 20
22562.15849031337
 30
0.0
 11
14190.357485438661
 21
22572.15849031337
 31
0.0
  0
LINE
  5
4134
  8
FUTO
 10
14125.357485438661
 20
22562.15849031337
 30
0.0
 11
14125.357485438661
 21
22572.15849031337
 31
0.0
  0
LINE
  5
4135
  8
FUTO
 10
14077.857485438661
 20
22584.311566313369
 30
0.0
 11
14077.857485438661
 21
22574.15849031337
 31
0.0
  0
ARC
  5
4136
  8
FUTO
 10
14074.857485438661
 20
22584.311566313369
 30
0.0
 40
2.9999599999999988
 50
0.000000000000007
 51
87.000442999965941
  0
ARC
  5
4137
  8
FUTO
 10
14079.857485438661
 20
22574.15849031337
 30
0.0
 40
2.0
 50
180.0
 51
270.0
  0
LINE
  5
4138
  8
FUTO
 10
14127.857485438661
 20
22422.15849031337
 30
0.0
 11
14187.857485438661
 21
22422.15849031337
 31
0.0
  0
LINE
  5
4139
  8
FUTO
 10
13954.357485438661
 20
22680.847577313369
 30
0.0
 11
13960.857485438661
 21
22673.036664313371
 31
0.0
  0
LINE
  5
413A
  8
FUTO
 10
13967.857485438661
 20
22653.65849031337
 30
0.0
 11
13968.76764143865
 21
22627.595258313369
 31
0.0
  0
LINE
  5
413B
  8
FUTO
 10
13960.857485438661
 20
22673.036664313371
 30
0.0
 11
13995.857485438661
 21
22663.65849031337
 31
0.0
  0
LINE
  5
413C
  8
FUTO
 10
13995.857485438661
 20
22658.65849031337
 30
0.0
 11
13995.857485438661
 21
22663.65849031337
 31
0.0
  0
LINE
  5
413D
  8
FUTO
 10
13995.857485438661
 20
22653.65849031337
 30
0.0
 11
13995.857485438661
 21
22658.65849031337
 31
0.0
  0
LINE
  5
413E
  8
FUTO
 10
13971.690492438651
 20
22620.873090313369
 30
0.0
 11
13998.683657438651
 21
22593.87992631337
 31
0.0
  0
ARC
  5
413F
  8
FUTO
 10
14005.754701438649
 20
22600.95097031337
 30
0.0
 40
10.000024
 50
225.0
 51
267.00096100006488
  0
ARC
  5
4140
  8
FUTO
 10
13978.76153743865
 20
22627.944135313381
 30
0.0
 40
9.9999679999999991
 50
181.99932899999791
 51
225.0
  0
LINE
  5
4142
  8
FUTO
 10
16411.621405552982
 20
19123.458353591741
 30
0.0
 11
16426.30083647729
 21
19123.458353591741
 31
0.0
  0
LINE
  5
4143
  8
FUTO
 10
16414.3008974773
 20
19103.458353591741
 30
0.0
 11
16449.3008974773
 21
19103.458353591741
 31
0.0
  0
LINE
  5
4144
  8
FUTO
 10
16086.98038940161
 20
19123.458353591741
 30
0.0
 11
16072.3008974773
 21
19123.458353591741
 31
0.0
  0
LINE
  5
4145
  8
FUTO
 10
16084.3008974773
 20
19103.458353591741
 30
0.0
 11
16049.3008974773
 21
19103.458353591741
 31
0.0
  0
LINE
  5
4147
  8
FUTO
 10
16149.3008974773
 20
19098.458353591741
 30
0.0
 11
16149.3008974773
 21
19103.458353591741
 31
0.0
  0
LINE
  5
4148
  8
FUTO
 10
16349.3008974773
 20
19103.458353591741
 30
0.0
 11
16349.3008974773
 21
19098.458353591741
 31
0.0
  0
LINE
  5
4153
  8
FUTO
 10
16104.3008974773
 20
19131.933939591741
 30
0.0
 11
16088.3008974773
 21
19122.696635591739
 31
0.0
  0
LINE
  5
4154
  8
FUTO
 10
16120.300897477289
 20
19122.696635591739
 30
0.0
 11
16104.3008974773
 21
19131.933939591741
 31
0.0
  0
LINE
  5
4155
  8
FUTO
 10
16104.3008974773
 20
19094.98374459174
 30
0.0
 11
16088.3008974773
 21
19104.221049591739
 31
0.0
  0
LINE
  5
4156
  8
FUTO
 10
16120.300897477289
 20
19104.221049591739
 30
0.0
 11
16104.3008974773
 21
19094.98374459174
 31
0.0
  0
LINE
  5
4157
  8
CT
 10
16074.3008974773
 20
19113.458353591741
 30
0.0
 11
16134.3008974773
 21
19113.458353591741
 31
0.0
  0
CIRCLE
  5
4158
  8
FUTO
 10
16104.3008974773
 20
19113.458353591741
 30
0.0
 40
16.0
  0
LINE
  5
4159
  8
FUTO
 10
16120.300897477289
 20
19104.221049591739
 30
0.0
 11
16120.300897477289
 21
19122.696635591739
 31
0.0
  0
LINE
  5
415A
  8
FUTO
 10
16088.3008974773
 20
19104.221049591739
 30
0.0
 11
16088.3008974773
 21
19122.696635591739
 31
0.0
  0
ARC
  5
415B
  8
FUTO
 10
16104.3008974773
 20
19113.458353591741
 30
0.0
 40
20.0
 50
0.000000000000007
 51
180.0
  0
ARC
  5
415C
  8
FUTO
 10
15997.3008974773
 20
19070.458353591741
 30
0.0
 40
3.0
 50
90.0
 51
180.0
  0
LINE
  5
415D
  8
FUTO
 10
16046.1758974773
 20
19073.458353591741
 30
0.0
 11
15997.3008974773
 21
19073.458353591741
 31
0.0
  0
LINE
  5
415E
  8
FUTO
 10
16051.3008974773
 20
19043.458353591741
 30
0.0
 11
16051.3008974773
 21
19048.458353591741
 31
0.0
  0
LINE
  5
415F
  8
FUTO
 10
16041.3008974773
 20
19055.458353591741
 30
0.0
 11
16041.3008974773
 21
19048.458353591741
 31
0.0
  0
LINE
  5
4160
  8
FUTO
 10
16051.3008974773
 20
19043.458353591741
 30
0.0
 11
15994.3008974773
 21
19043.458353591741
 31
0.0
  0
LINE
  5
4161
  8
FUTO
 10
15994.3008974773
 20
19043.458353591741
 30
0.0
 11
15994.3008974773
 21
19070.458353591741
 31
0.0
  0
LINE
  5
4162
  8
CT
 10
16019.300897477289
 20
19093.458353591741
 30
0.0
 11
16019.300897477289
 21
19023.458353591741
 31
0.0
  0
LINE
  5
4163
  8
FUTO
 10
16041.3008974773
 20
19055.458353591741
 30
0.0
 11
16084.3008974773
 21
19055.458353591741
 31
0.0
  0
LINE
  5
4164
  8
FUTO
 10
16049.3008974773
 20
19103.458353591741
 30
0.0
 11
16044.3008974773
 21
19055.458353591741
 31
0.0
  0
LINE
  5
4165
  8
FUTO
 10
16124.3008974773
 20
19113.458353591741
 30
0.0
 11
16124.3008974773
 21
19048.458353591741
 31
0.0
  0
LINE
  5
4166
  8
FUTO
 10
16084.3008974773
 20
19048.458353591741
 30
0.0
 11
16084.3008974773
 21
19113.458353591741
 31
0.0
  0
LINE
  5
4167
  8
CT
 10
16104.3008974773
 20
19038.458353591741
 30
0.0
 11
16104.3008974773
 21
19143.458353591741
 31
0.0
  0
LINE
  5
4168
  8
FUTO
 10
16378.3008974773
 20
19122.696635591739
 30
0.0
 11
16394.3008974773
 21
19131.933939591741
 31
0.0
  0
LINE
  5
4169
  8
FUTO
 10
16378.3008974773
 20
19104.221049591739
 30
0.0
 11
16394.3008974773
 21
19094.98374459174
 31
0.0
  0
LINE
  5
416A
  8
FUTO
 10
16378.3008974773
 20
19104.221049591739
 30
0.0
 11
16378.3008974773
 21
19122.696635591739
 31
0.0
  0
LINE
  5
416B
  8
FUTO
 10
16410.3008974773
 20
19104.221049591739
 30
0.0
 11
16410.3008974773
 21
19122.696635591739
 31
0.0
  0
CIRCLE
  5
416C
  8
FUTO
 10
16394.3008974773
 20
19113.458353591741
 30
0.0
 40
16.0
  0
LINE
  5
416D
  8
FUTO
 10
16394.3008974773
 20
19131.933939591741
 30
0.0
 11
16410.3008974773
 21
19122.696635591739
 31
0.0
  0
LINE
  5
416E
  8
FUTO
 10
16394.3008974773
 20
19094.98374459174
 30
0.0
 11
16410.3008974773
 21
19104.221049591739
 31
0.0
  0
ARC
  5
416F
  8
FUTO
 10
16394.3008974773
 20
19113.458353591741
 30
0.0
 40
20.0
 50
0.000000000000007
 51
180.0
  0
LINE
  5
4170
  8
CT
 10
16424.3008974773
 20
19113.458353591741
 30
0.0
 11
16364.3008974773
 21
19113.458353591741
 31
0.0
  0
LINE
  5
4171
  8
FUTO
 10
16149.3008974773
 20
19098.458353591741
 30
0.0
 11
16349.3008974773
 21
19098.458353591741
 31
0.0
  0
LINE
  5
4172
  8
FUTO
 10
16447.3008974773
 20
19043.458353591741
 30
0.0
 11
16447.3008974773
 21
19048.458353591741
 31
0.0
  0
LINE
  5
4173
  8
FUTO
 10
16457.3008974773
 20
19055.458353591741
 30
0.0
 11
16457.3008974773
 21
19048.458353591741
 31
0.0
  0
LINE
  5
4174
  8
FUTO
 10
16457.3008974773
 20
19055.458353591741
 30
0.0
 11
16414.3008974773
 21
19055.458353591741
 31
0.0
  0
LINE
  5
4175
  8
CT
 10
16479.300897477289
 20
19093.458353591741
 30
0.0
 11
16479.300897477289
 21
19023.458353591741
 31
0.0
  0
ARC
  5
4176
  8
FUTO
 10
16501.3008974773
 20
19070.458353591741
 30
0.0
 40
3.0
 50
0.000000000000007
 51
90.0
  0
LINE
  5
4177
  8
FUTO
 10
16504.3008974773
 20
19043.458353591741
 30
0.0
 11
16504.3008974773
 21
19070.458353591741
 31
0.0
  0
LINE
  5
4178
  8
FUTO
 10
16452.4258974773
 20
19073.458353591741
 30
0.0
 11
16501.3008974773
 21
19073.458353591741
 31
0.0
  0
LINE
  5
4179
  8
FUTO
 10
16447.3008974773
 20
19043.458353591741
 30
0.0
 11
16504.3008974773
 21
19043.458353591741
 31
0.0
  0
LINE
  5
417A
  8
FUTO
 10
16449.3008974773
 20
19103.458353591741
 30
0.0
 11
16454.3008974773
 21
19055.458353591741
 31
0.0
  0
LINE
  5
417B
  8
FUTO
 10
16374.3008974773
 20
19113.458353591741
 30
0.0
 11
16374.3008974773
 21
19048.458353591741
 31
0.0
  0
LINE
  5
417C
  8
FUTO
 10
16414.3008974773
 20
19048.458353591741
 30
0.0
 11
16414.3008974773
 21
19113.458353591741
 31
0.0
  0
LINE
  5
417D
  8
CT
 10
16394.3008974773
 20
19038.458353591741
 30
0.0
 11
16394.3008974773
 21
19143.458353591741
 31
0.0
  0
LINE
  5
41CF
  8
FUTO
 10
16124.3008974773
 20
19055.458353591741
 30
0.0
 11
16374.3008974773
 21
19055.458353591741
 31
0.0
  0
LINE
  5
41D0
  8
FUTO
 10
16041.3008974773
 20
19048.458353591741
 30
0.0
 11
16457.3008974773
 21
19048.458353591741
 31
0.0
  0
LINE
  5
41D1
  8
FUTO
 10
16065.3008974773
 20
19465.458353591741
 30
0.0
 11
16065.3008974773
 21
19428.458353591741
 31
0.0
  0
ARC
  5
41D2
  8
FUTO
 10
16029.5865424773
 20
19482.554301591739
 30
0.0
 40
9.9999679999999991
 50
91.999328999997914
 51
135.0
  0
ARC
  5
41D3
  8
FUTO
 10
16002.5933774773
 20
19455.56113759174
 30
0.0
 40
10.000024
 50
135.0
 51
177.00096100006479
  0
LINE
  5
41D4
  8
FUTO
 10
16022.5154974773
 20
19489.62534659174
 30
0.0
 11
15995.5223334773
 21
19462.63218159174
 31
0.0
  0
LINE
  5
41D5
  8
FUTO
 10
16055.3008974773
 20
19465.458353591741
 30
0.0
 11
16060.300897477289
 21
19465.458353591741
 31
0.0
  0
LINE
  5
41D6
  8
FUTO
 10
16060.300897477289
 20
19465.458353591741
 30
0.0
 11
16065.3008974773
 21
19465.458353591741
 31
0.0
  0
LINE
  5
41D7
  8
FUTO
 10
16074.6790714773
 20
19500.458353591741
 30
0.0
 11
16065.3008974773
 21
19465.458353591741
 31
0.0
  0
LINE
  5
41D8
  8
FUTO
 10
16055.3008974773
 20
19493.458353591741
 30
0.0
 11
16029.2376654773
 21
19492.548197591739
 31
0.0
  0
LINE
  5
41DA
  8
FUTO
 10
16090.3008974773
 20
19513.458353591741
 30
0.0
 11
16074.6790714773
 21
19500.458353591741
 31
0.0
  0
LINE
  5
41DB
  8
FUTO
 10
15823.800897477289
 20
19337.458353591741
 30
0.0
 11
15823.800897477289
 21
19273.458353591741
 31
0.0
  0
ARC
  5
41DC
  8
FUTO
 10
15975.8008974773
 20
19381.458353591741
 30
0.0
 40
2.0
 50
90.0
 51
180.0
  0
ARC
  5
41EB
  8
FUTO
 10
16075.300897477289
 20
19428.458353591741
 30
0.0
 40
10.0
 50
90.0
 51
180.0
  0
ARC
  5
41EE
  8
FUTO
 10
15985.953973477301
 20
19386.458353591741
 30
0.0
 40
2.9999599999999988
 50
270.0
 51
357.00044299996591
  0
LINE
  5
41EF
  8
FUTO
 10
15985.953973477301
 20
19383.458353591741
 30
0.0
 11
15975.8008974773
 21
19383.458353591741
 31
0.0
  0
LINE
  5
41F0
  8
FUTO
 10
15933.8008974773
 20
19337.458353591741
 30
0.0
 11
15933.8008974773
 21
19333.458353591741
 31
0.0
  0
LINE
  5
41F1
  8
FUTO
 10
15963.8008974773
 20
19335.958353591741
 30
0.0
 11
15973.8008974773
 21
19335.958353591741
 31
0.0
  0
LINE
  5
41F2
  8
FUTO
 10
15963.8008974773
 20
19270.958353591741
 30
0.0
 11
15973.8008974773
 21
19270.958353591741
 31
0.0
  0
LINE
  5
41F3
  8
FUTO
 10
15963.8008974773
 20
19270.958353591741
 30
0.0
 11
15963.8008974773
 21
19335.958353591741
 31
0.0
  0
ARC
  5
41F4
  8
FUTO
 10
16075.300897477289
 20
19328.458353591741
 30
0.0
 40
10.0
 50
180.0
 51
270.0
  0
LINE
  5
41F5
  8
FUTO
 10
15973.8008974773
 20
19381.458353591741
 30
0.0
 11
15973.8008974773
 21
19303.458353591741
 31
0.0
  0
LINE
  5
41F6
  8
FUTO
 10
16065.3008974773
 20
19328.458353591741
 30
0.0
 11
16065.3008974773
 21
19428.458353591741
 31
0.0
  0
LINE
  5
41F7
  8
FUTO
 10
15963.8008974773
 20
19333.458353591741
 30
0.0
 11
15823.800897477289
 21
19333.458353591741
 31
0.0
  0
LINE
  5
41F8
  8
FUTO
 10
15963.8008974773
 20
19273.458353591741
 30
0.0
 11
15823.800897477289
 21
19273.458353591741
 31
0.0
  0
LINE
  5
41F9
  8
FUTO
 10
15933.8008974773
 20
19337.458353591741
 30
0.0
 11
15823.800897477289
 21
19337.458353591741
 31
0.0
  0
LINE
  5
41FA
  8
FUTO
 10
16060.300897477289
 20
19465.458353591741
 30
0.0
 11
16060.300897477289
 21
19303.458353591741
 31
0.0
  0
LINE
  5
41FB
  8
FUTO
 10
16055.3008974773
 20
19493.458353591741
 30
0.0
 11
16055.3008974773
 21
19303.458353591741
 31
0.0
  0
LINE
  5
41FC
  8
FUTO
 10
15992.607049477299
 20
19456.084330591741
 30
0.0
 11
15987.9642274773
 21
19367.493021591741
 31
0.0
  0
LINE
  5
41FE
  8
FUTO
 10
16060.300897477289
 20
19465.458353591741
 30
0.0
 11
16060.300897477289
 21
19303.458353591741
 31
0.0
  0
ARC
  5
41FF
  8
FUTO
 10
16238.065912477299
 20
19521.737467591742
 30
0.0
 40
2.9999909999999992
 50
96.115172999988943
 51
174.80557100002201
  0
LINE
  5
4200
  8
FUTO
 10
16235.0782414773
 20
19522.009074591741
 30
0.0
 11
16234.3008974773
 21
19513.458353591741
 31
0.0
  0
ARC
  5
4201
  8
FUTO
 10
16228.3425234773
 20
19514.188151591741
 30
0.0
 40
5.9999760000000002
 50
354.8055729999931
 51
54.396262999995557
  0
ARC
  5
4202
  8
FUTO
 10
16260.535882477299
 20
19521.737467591742
 30
0.0
 40
2.999981
 50
5.194427000006832
 51
83.884827000011072
  0
ARC
  5
4203
  8
FUTO
 10
16249.3008974773
 20
19543.458353591741
 30
0.0
 40
30.0
 50
305.19004800000442
 51
305.60386699997889
  0
LINE
  5
4204
  8
FUTO
 10
16249.3008974773
 20
19525.958353591741
 30
0.0
 11
16260.85546247729
 21
19524.720377591741
 31
0.0
  0
LINE
  5
4205
  8
FUTO
 10
16263.5235534773
 20
19522.009074591741
 30
0.0
 11
16264.3008974773
 21
19513.458353591741
 31
0.0
  0
ARC
  5
4206
  8
FUTO
 10
16270.2592714773
 20
19514.188151591741
 30
0.0
 40
5.9999820000000001
 50
125.6037370000044
 51
185.19442700000681
  0
LINE
  5
4207
  8
FUTO
 10
16249.3008974773
 20
19525.958353591741
 30
0.0
 11
16237.7463324773
 21
19524.720377591741
 31
0.0
  0
LINE
  5
4208
  8
FUTO
 10
16237.7463324773
 20
19524.720377591741
 30
0.0
 11
16260.85546247729
 21
19524.720377591741
 31
0.0
  0
LINE
  5
4209
  8
CT
 10
16289.3008974773
 20
19543.458353591741
 30
0.0
 11
16209.3008974773
 21
19543.458353591741
 31
0.0
  0
LINE
  5
420A
  8
FUTO
 10
16190.3008974773
 20
19452.458353591741
 30
0.0
 11
16308.3008974773
 21
19452.458353591741
 31
0.0
  0
CIRCLE
  5
420B
  8
FUTO
 10
16249.3008974773
 20
19543.458353591741
 30
0.0
 40
17.5
  0
ARC
  5
420C
  8
FUTO
 10
16249.3008974773
 20
19543.458353591741
 30
0.0
 40
30.0
 50
305.60386699997889
 51
234.39614899998969
  0
LINE
  5
420D
  8
FUTO
 10
16408.30083647729
 20
19513.458353591741
 30
0.0
 11
16418.30083647729
 21
19505.13657659174
 31
0.0
  0
ARC
  5
420E
  8
FUTO
 10
16464.7742254773
 20
19486.958353591741
 30
0.0
 40
20.0
 50
69.999953999991405
 51
90.0
  0
ARC
  5
420F
  8
FUTO
 10
16502.049615477292
 20
19515.958353591741
 30
0.0
 40
20.0
 50
250.0002749999968
 51
270.0
  0
LINE
  5
4212
  8
FUTO
 10
16471.614679477301
 20
19505.752299591739
 30
0.0
 11
16495.209283477299
 21
19497.16440859174
 31
0.0
  0
LINE
  5
4213
  8
FUTO
 10
16418.30083647729
 20
19506.958353591741
 30
0.0
 11
16464.7742254773
 21
19506.958353591741
 31
0.0
  0
LINE
  5
4214
  8
FUTO
 10
16408.30083647729
 20
19513.458353591741
 30
0.0
 11
16249.3008974773
 21
19513.458353591741
 31
0.0
  0
LINE
  5
4215
  8
FUTO
 10
16311.3008364773
 20
19445.458353591741
 30
0.0
 11
16187.3008974773
 21
19445.458353591741
 31
0.0
  0
ARC
  5
4216
  8
FUTO
 10
16187.3008974773
 20
19270.76059959174
 30
0.0
 40
20.0
 50
180.0
 51
270.0
  0
CIRCLE
  5
4217
  8
FUTO
 10
16249.3008974773
 20
19237.76059959174
 30
0.0
 40
3.5
  0
LINE
  5
4218
  8
FUTO
 10
16255.753778477299
 20
19237.76059959174
 30
0.0
 11
16241.1646674773
 21
19237.76059959174
 31
0.0
  0
LINE
  5
4219
  8
FUTO
 10
16187.3008974773
 20
19250.76059959174
 30
0.0
 11
16311.3008974773
 21
19250.76059959174
 31
0.0
  0
LINE
  5
421A
  8
FUTO
 10
16308.3008364773
 20
19230.76059959174
 30
0.0
 11
16190.3008974773
 21
19230.76059959174
 31
0.0
  0
LINE
  5
421B
  8
FUTO
 10
16167.3008974773
 20
19425.458353591741
 30
0.0
 11
16167.3008974773
 21
19270.76059959174
 31
0.0
  0
LINE
  5
421C
  8
FUTO
 10
16160.300897477289
 20
19422.458353591741
 30
0.0
 11
16160.300897477289
 21
19260.76059959174
 31
0.0
  0
LINE
  5
421D
  8
FUTO
 10
16418.30083647729
 20
19438.458353591741
 30
0.0
 11
16333.67803347729
 21
19438.458353591741
 31
0.0
  0
LINE
  5
4221
  8
FUTO
 10
16418.30083647729
 20
19318.458353591741
 30
0.0
 11
16338.3008364773
 21
19318.458353591741
 31
0.0
  0
LINE
  5
4222
  8
FUTO
 10
16331.3008364773
 20
19425.458353591741
 30
0.0
 11
16331.3008364773
 21
19270.76059959174
 31
0.0
  0
LINE
  5
4223
  8
FUTO
 10
16338.3008364773
 20
19422.458353591741
 30
0.0
 11
16338.3008364773
 21
19260.76059959174
 31
0.0
  0
ARC
  5
4224
  8
FUTO
 10
16311.3008364773
 20
19270.76059959174
 30
0.0
 40
20.0
 50
270.0
 51
0.000000000000007
  0
LINE
  5
4225
  8
CT
 10
16358.30083647729
 20
19378.458353591741
 30
0.0
 11
16140.300897477289
 21
19378.458353591741
 31
0.0
  0
ARC
  5
4226
  8
FUTO
 10
16311.3008364773
 20
19425.458353591741
 30
0.0
 40
20.0
 50
0.000000000000007
 51
90.0
  0
ARC
  5
4227
  8
FUTO
 10
16187.3008974773
 20
19425.458353591741
 30
0.0
 40
20.0
 50
90.0
 51
180.0
  0
ARC
  5
4228
  8
FUTO
 10
16190.3008974773
 20
19422.458353591741
 30
0.0
 40
30.0
 50
90.0
 51
180.0
  0
ARC
  5
4229
  8
FUTO
 10
16308.3008364773
 20
19422.458353591741
 30
0.0
 40
30.0
 50
0.000000000000007
 51
90.0
  0
LINE
  5
422E
  8
FUTO
 10
16090.3008974773
 20
19513.458353591741
 30
0.0
 11
16249.3008974773
 21
19513.458353591741
 31
0.0
  0
LINE
  5
422F
  8
FUTO
 10
16075.300897477289
 20
19438.458353591741
 30
0.0
 11
16164.923700477289
 21
19438.458353591741
 31
0.0
  0
LINE
  5
4230
  8
FUTO
 10
16075.300897477289
 20
19318.458353591741
 30
0.0
 11
16160.300897477289
 21
19318.458353591741
 31
0.0
  0
ARC
  5
4231
  8
FUTO
 10
15975.8008974773
 20
19225.458353591741
 30
0.0
 40
2.0
 50
180.0
 51
270.0
  0
ARC
  5
4232
  8
FUTO
 10
15985.953973477301
 20
19220.458353591741
 30
0.0
 40
3.0
 50
2.9995570000340721
 51
90.0
  0
ARC
  5
4233
  8
FUTO
 10
16000.650506477299
 20
19188.426615591739
 30
0.0
 40
10.000139999999989
 50
183.00042699998181
 51
225.00097700000649
  0
ARC
  5
4241
  8
FUTO
 10
16029.4429874773
 20
19159.634135591739
 30
0.0
 40
10.0
 50
225.0
 51
270.0
  0
ARC
  5
4242
  8
FUTO
 10
16002.5933774773
 20
19151.355570591739
 30
0.0
 40
9.9999679999999991
 50
182.9990539999759
 51
225.0
  0
LINE
  5
4243
  8
FUTO
 10
16065.3008974773
 20
19151.697611591739
 30
0.0
 11
16084.3895204773
 21
19151.697611591739
 31
0.0
  0
LINE
  5
4244
  8
FUTO
 10
16066.33678647729
 20
19141.458353591741
 30
0.0
 11
16060.300897477289
 21
19141.458353591741
 31
0.0
  0
LINE
  5
4245
  8
FUTO
 10
16055.3008974773
 20
19141.458353591741
 30
0.0
 11
16060.300897477289
 21
19141.458353591741
 31
0.0
  0
ARC
  5
4246
  8
FUTO
 10
16072.3008974773
 20
19120.458353591741
 30
0.0
 40
3.0
 50
90.0
 51
180.0
  0
ARC
  5
4247
  8
FUTO
 10
16079.3895204773
 20
19128.458353591741
 30
0.0
 40
5.0
 50
270.0
 51
0.000000000000007
  0
LINE
  5
4248
  8
FUTO
 10
16065.3008974773
 20
19144.584818591738
 30
0.0
 11
16067.8594914773
 21
19144.584818591738
 31
0.0
  0
LINE
  5
4249
  8
FUTO
 10
16072.3008974773
 20
19123.458353591741
 30
0.0
 11
16065.3008974773
 21
19144.584818591738
 31
0.0
  0
LINE
  5
424A
  8
FUTO
 10
16084.3895204773
 20
19128.458353591741
 30
0.0
 11
16084.3895204773
 21
19151.697611591739
 31
0.0
  0
LINE
  5
424B
  8
FUTO
 10
16075.459100477299
 20
19123.458353591741
 30
0.0
 11
16065.3008974773
 21
19151.697611591739
 31
0.0
  0
LINE
  5
424C
  8
FUTO
 10
16029.4429874773
 20
19149.634135591739
 30
0.0
 11
16055.3008974773
 21
19149.634135591739
 31
0.0
  0
LINE
  5
424E
  8
FUTO
 10
15988.932245477299
 20
19220.953593591741
 30
0.0
 11
15992.607049477299
 21
19150.832377591742
 31
0.0
  0
LINE
  5
4250
  8
FUTO
 10
16022.371942477301
 20
19152.563090591739
 30
0.0
 11
15993.5794614773
 21
19181.35532659174
 31
0.0
  0
LINE
  5
4253
  8
FUTO
 10
15985.953973477301
 20
19223.458353591741
 30
0.0
 11
15975.8008974773
 21
19223.458353591741
 31
0.0
  0
ARC
  5
4254
  8
FUTO
 10
16029.5865424773
 20
19124.362406591739
 30
0.0
 40
9.9999839999999995
 50
225.0
 51
268.00067100000211
  0
LINE
  5
4255
  8
FUTO
 10
16055.3008974773
 20
19113.458353591741
 30
0.0
 11
16029.2376654773
 21
19114.368510591739
 31
0.0
  0
LINE
  5
4256
  8
FUTO
 10
16069.3008974773
 20
19103.458353591741
 30
0.0
 11
16069.3008974773
 21
19120.458353591741
 31
0.0
  0
LINE
  5
4257
  8
FUTO
 10
16022.5154974773
 20
19117.291361591739
 30
0.0
 11
15995.5223334773
 21
19144.284525591738
 31
0.0
  0
LINE
  5
4258
  8
FUTO
 10
16209.700799477299
 20
19125.06626459174
 30
0.0
 11
16129.3008974773
 21
19123.458353591741
 31
0.0
  0
ARC
  5
4259
  8
FUTO
 10
16224.3008974773
 20
19185.954447591739
 30
0.0
 40
5.0
 50
0.000000000000007
 51
90.0
  0
ARC
  5
425A
  8
FUTO
 10
16274.3008974773
 20
19185.954447591739
 30
0.0
 40
5.0
 50
90.0
 51
180.0
  0
ARC
  5
425B
  8
FUTO
 10
16289.3008364773
 20
19145.062357591742
 30
0.0
 40
20.000091999999999
 50
180.0
 51
268.85427899999138
  0
LINE
  5
425C
  8
FUTO
 10
16269.3008974773
 20
19185.954447591739
 30
0.0
 11
16269.3008974773
 21
19145.062357591742
 31
0.0
  0
LINE
  5
425D
  8
FUTO
 10
16229.3008974773
 20
19185.954447591739
 30
0.0
 11
16229.3008974773
 21
19145.062357591742
 31
0.0
  0
ARC
  5
425E
  8
FUTO
 10
16209.3008974773
 20
19145.062357591742
 30
0.0
 40
20.0
 50
271.14572100000839
 51
0.000000000000007
  0
LINE
  5
425F
  8
FUTO
 10
16149.3008974773
 20
19103.458353591741
 30
0.0
 11
16149.3008974773
 21
19104.458353591741
 31
0.0
  0
ARC
  5
4260
  8
FUTO
 10
16154.3008974773
 20
19104.458353591741
 30
0.0
 40
5.0
 50
90.0
 51
180.0
  0
LINE
  5
4261
  8
FUTO
 10
16154.3008974773
 20
19109.458353591741
 30
0.0
 11
16249.3008974773
 21
19109.458353591741
 31
0.0
  0
ARC
  5
4262
  8
FUTO
 10
16426.30083647729
 20
19120.458353591741
 30
0.0
 40
3.0
 50
0.000000000000007
 51
90.0
  0
LINE
  5
4263
  8
FUTO
 10
16369.3008364773
 20
19123.458353591741
 30
0.0
 11
16376.98038940161
 21
19123.458353591741
 31
0.0
  0
ARC
  5
426D
  8
FUTO
 10
16344.3008364773
 20
19104.458353591741
 30
0.0
 40
5.0
 50
0.000000000000007
 51
90.0
  0
LINE
  5
426E
  8
FUTO
 10
16349.3008364773
 20
19103.458353591741
 30
0.0
 11
16349.3008364773
 21
19104.458353591741
 31
0.0
  0
LINE
  5
426F
  8
FUTO
 10
16349.3008364773
 20
19103.458353591741
 30
0.0
 11
16374.3008974773
 21
19103.458353591741
 31
0.0
  0
LINE
  5
4270
  8
FUTO
 10
16488.906915477291
 20
19107.458353591741
 30
0.0
 11
16498.522882477289
 21
19110.958353591741
 31
0.0
  0
LINE
  5
4271
  8
FUTO
 10
16488.906915477291
 20
19107.458353591741
 30
0.0
 11
16429.30083647729
 21
19107.458353591741
 31
0.0
  0
LINE
  5
4272
  8
FUTO
 10
16429.30083647729
 20
19103.458353591741
 30
0.0
 11
16429.30083647729
 21
19120.458353591741
 31
0.0
  0
LINE
  5
4273
  8
FUTO
 10
16288.9009344773
 20
19125.06626459174
 30
0.0
 11
16369.3008364773
 21
19123.458353591741
 31
0.0
  0
LINE
  5
4274
  8
FUTO
 10
16344.3008364773
 20
19109.458353591741
 30
0.0
 11
16249.3008974773
 21
19109.458353591741
 31
0.0
  0
LINE
  5
4275
  8
FUTO
 10
16129.3008974773
 20
19123.458353591741
 30
0.0
 11
16121.621405552991
 21
19123.458353591741
 31
0.0
  0
LINE
  5
4276
  8
FUTO
 10
16149.3008974773
 20
19103.458353591741
 30
0.0
 11
16124.3008974773
 21
19103.458353591741
 31
0.0
  0
ARC
  5
4277
  8
FUTO
 10
16308.3008364773
 20
19260.76059959174
 30
0.0
 40
30.0
 50
270.0
 51
0.000000000000007
  0
ARC
  5
4278
  8
FUTO
 10
16190.3008974773
 20
19260.76059959174
 30
0.0
 40
30.0
 50
180.0
 51
270.0
  0
LINE
  5
4279
  8
CT
 10
16249.3008974773
 20
19593.458353591741
 30
0.0
 11
16249.3008974773
 21
19023.458353591741
 31
0.0
  0
LINE
  5
427A
  8
FUTO
 10
16060.300897477289
 20
19141.458353591741
 30
0.0
 11
16060.300897477289
 21
19303.458353591741
 31
0.0
  0
LINE
  5
427B
  8
FUTO
 10
16418.30083647729
 20
19506.958353591741
 30
0.0
 11
16418.30083647729
 21
19123.458353591741
 31
0.0
  0
LINE
  5
427C
  8
FUTO
 10
16468.30083647729
 20
19506.644877591742
 30
0.0
 11
16468.30083647729
 21
19107.458353591741
 31
0.0
  0
LINE
  5
427D
  8
FUTO
 10
16498.5007874773
 20
19496.275736591739
 30
0.0
 11
16498.5007874773
 21
19110.958353591741
 31
0.0
  0
LINE
  5
427E
  8
FUTO
 10
16060.300897477289
 20
19141.458353591741
 30
0.0
 11
16060.300897477289
 21
19303.458353591741
 31
0.0
  0
LINE
  5
427F
  8
FUTO
 10
16055.3008974773
 20
19113.458353591741
 30
0.0
 11
16055.3008974773
 21
19303.458353591741
 31
0.0
  0
LINE
  5
4280
  8
FUTO
 10
15973.8008974773
 20
19225.458353591741
 30
0.0
 11
15973.8008974773
 21
19303.458353591741
 31
0.0
  0
ARC
  5
4281
  8
FUTO
 10
16562.989923477289
 20
19480.958353591741
 30
0.0
 40
15.0
 50
60.00018300001819
 51
90.0
  0
ARC
  5
4282
  8
FUTO
 10
16618.30083647729
 20
19460.571635591739
 30
0.0
 40
4.9999580000000003
 50
0.000000000000007
 51
59.999718000027237
  0
LINE
  5
4283
  8
FUTO
 10
16620.80083647729
 20
19464.901713591738
 30
0.0
 11
16570.4899234773
 21
19493.948832591741
 31
0.0
  0
ARC
  5
42CC
  8
FUTO
 10
16618.30083647729
 20
19146.345072591739
 30
0.0
 40
5.0
 50
300.00027500002068
 51
0.000000000000007
  0
ARC
  5
42CE
  8
FUTO
 10
16562.989923477289
 20
19125.958353591741
 30
0.0
 40
15.000085
 50
270.0
 51
299.99981699998182
  0
LINE
  5
42CF
  8
FUTO
 10
16620.80083647729
 20
19142.01499459174
 30
0.0
 11
16570.4899234773
 21
19112.967875591741
 31
0.0
  0
LINE
  5
4301
  8
FUTO
 10
16564.2008604773
 20
19110.958353591741
 30
0.0
 11
16564.2008604773
 21
19495.909281591739
 31
0.0
  0
LINE
  5
4305
  8
FUTO
 10
16623.300897477289
 20
19461.108317591741
 30
0.0
 11
16623.300897477289
 21
19146.318003591739
 31
0.0
  0
LINE
  5
4306
  8
CT
 10
15803.8008974773
 20
19303.458353591741
 30
0.0
 11
16643.300897477289
 21
19303.458353591741
 31
0.0
  0
LINE
  5
4307
  8
FUTO
 10
16502.049615477292
 20
19495.958353591741
 30
0.0
 11
16562.989923477289
 21
19495.958353591741
 31
0.0
  0
LINE
  5
4308
  8
FUTO
 10
16498.5007874773
 20
19110.958353591741
 30
0.0
 11
16562.989923477289
 21
19110.958353591741
 31
0.0
  0
LINE
  5
430D
  8
CT
 10
14022.857485438661
 20
22617.65849031337
 30
0.0
 11
13972.85748543865
 21
22617.65849031337
 31
0.0
  0
LINE
  5
430E
  8
CT
 10
13997.857485438661
 20
22592.65849031337
 30
0.0
 11
13997.857485438661
 21
22642.65849031337
 31
0.0
  0
LINE
  5
430F
  8
CT
 10
14317.857485438661
 20
22592.65849031337
 30
0.0
 11
14317.857485438661
 21
22642.65849031337
 31
0.0
  0
LINE
  5
4310
  8
CT
 10
14292.85748543865
 20
22617.65849031337
 30
0.0
 11
14342.857485438661
 21
22617.65849031337
 31
0.0
  0
LINE
  5
4311
  8
CT
 10
14292.85748543865
 20
23077.65849031337
 30
0.0
 11
14342.857485438661
 21
23077.65849031337
 31
0.0
  0
LINE
  5
4312
  8
CT
 10
14317.857485438661
 20
23102.65849031337
 30
0.0
 11
14317.857485438661
 21
23052.658490313381
 31
0.0
  0
LINE
  5
4313
  8
CT
 10
13997.857485438661
 20
23102.65849031337
 30
0.0
 11
13997.857485438661
 21
23052.658490313381
 31
0.0
  0
LINE
  5
4314
  8
CT
 10
14022.857485438661
 20
23077.65849031337
 30
0.0
 11
13972.85748543865
 21
23077.65849031337
 31
0.0
  0
LINE
  5
4315
  8
FUTO
 10
14377.857485438661
 20
22567.15849031337
 30
0.0
 11
14377.857485438661
 21
22312.15849031337
 31
0.0
  0
LINE
  5
4316
  8
FUTO
 10
14507.857485438661
 20
22618.158490313381
 30
0.0
 11
14507.857485438661
 21
22545.15849031337
 31
0.0
  0
LINE
  5
4317
  8
FUTO
 10
14367.857485438661
 20
23521.15849031337
 30
0.0
 11
14367.857485438661
 21
22618.158490313381
 31
0.0
  0
LINE
  5
4319
  8
FUTO
 10
14022.857485438661
 20
23521.15849031337
 30
0.0
 11
14022.857485438661
 21
23221.65849031337
 31
0.0
  0
LINE
  5
431A
  8
FUTO
 10
13947.857485438661
 20
23521.15849031337
 30
0.0
 11
13947.857485438661
 21
22618.158490313381
 31
0.0
  0
LINE
  5
431B
  8
SL
 10
14292.857485438661
 20
23221.65849031337
 30
0.0
 11
14292.857485438661
 21
22612.15849031337
 31
0.0
  0
LINE
  5
431C
  8
SL
 10
14022.857485438661
 20
23221.65849031337
 30
0.0
 11
14022.857485438661
 21
22612.15849031337
 31
0.0
  0
LINE
  5
432D
  8
FUTO
 10
12027.857485438661
 20
24716.158490313381
 30
0.0
 11
14214.857485438661
 21
24716.158490313381
 31
0.0
  0
LINE
  5
4341
  8
FUTO
 10
12027.857485438661
 20
23548.158490313381
 30
0.0
 11
14214.857485438661
 21
23548.158490313381
 31
0.0
  0
LINE
  5
4342
  8
FUTO
 10
12027.857485438661
 20
23594.15849031337
 30
0.0
 11
13807.857485438661
 21
23594.15849031337
 31
0.0
  0
LINE
  5
4347
  8
FUTO
 10
12107.857485438661
 20
23548.158490313381
 30
0.0
 11
12107.857485438661
 21
23521.15849031337
 31
0.0
  0
LINE
  5
4348
  8
FUTO
 10
14413.08118379951
 20
23596.158490313341
 30
0.0
 11
14507.857485438661
 21
23596.15849031337
 31
0.0
  0
LINE
  5
4349
  8
FUTO
 10
13259.39098504223
 20
22618.158490313381
 30
0.0
 11
13259.39098504223
 21
23548.158490313381
 31
0.0
  0
LINE
  5
434A
  8
FUTO
 10
12656.323985835081
 20
22618.158490313381
 30
0.0
 11
12656.323985835081
 21
23548.158490313381
 31
0.0
  0
INSERT
  5
435E
  8
FUTO
  6
CONTINUOUS
  2
*U22
 10
0.0
 20
0.0
 30
0.0
1001
ACAD
1002
{
1000
R14_HATCH_DATA
1000
435E
1011
1.0
1021
-8.0841274219130828E+118
1031
6.4776954669659793E+068
1021
0.0
1031
0.0
1011
0.0
1021
-8.0841274219130828E+118
1031
6.4776954669659793E+068
1021
1.0
1031
0.0
1011
0.0
1021
-8.0841274219130828E+118
1031
6.4776954669659793E+068
1021
0.0
1031
1.0
1040
0.0
1010
0.0
1020
0.0
1030
1.0
1000
SOLID
1070
     1
1070
     0
1071
        2
1071
        7
1070
     0
1070
     1
1071
        4
1040
12310.58933478469
1040
18893.458353591741
1040
12350.58933478469
1040
18893.458353591741
1040
12350.58933478468
1040
18873.458353591741
1040
12310.58933478468
1040
18873.458353591741
1071
        0
1071
        7
1070
     0
1070
     1
1071
        4
1040
12270.58933478469
1040
18893.458353591741
1040
12310.58933478469
1040
18893.458353591741
1040
12310.58933478469
1040
18873.458353591741
1040
12270.58933478469
1040
18873.458353591741
1071
        0
1070
     0
1070
     1
1040
1.983058079063849
1071
        2
1040
12334.992006436651
1040
18892.68473498783
1040
0.0
1040
12286.96308280049
1040
18894.604490445199
1040
0.0
1002
}
  0
INSERT
  5
4367
  8
FUTO
  6
CONTINUOUS
  2
*U23
 10
0.0
 20
0.0
 30
0.0
1001
ACAD
1002
{
1000
R14_HATCH_DATA
1000
4367
1011
1.0
1021
-8.0841274219130828E+118
1031
6.4776954669659793E+068
1021
0.0
1031
0.0
1011
0.0
1021
-8.0841274219130828E+118
1031
6.4776954669659793E+068
1021
1.0
1031
0.0
1011
0.0
1021
-8.0841274219130828E+118
1031
6.4776954669659793E+068
1021
0.0
1031
1.0
1040
0.0
1010
0.0
1020
0.0
1030
1.0
1000
SOLID
1070
     1
1070
     0
1071
        2
1071
        7
1070
     0
1070
     1
1071
        4
1040
14457.857485438661
1040
18893.458353591741
1040
14457.857485438661
1040
18873.458353591741
1040
14497.857485438661
1040
18873.458353591741
1040
14497.857485438661
1040
18893.458353591741
1071
        0
1071
        7
1070
     0
1070
     1
1071
        4
1040
14417.857485438661
1040
18873.458353591741
1040
14457.857485438661
1040
18873.458353591741
1040
14457.857485438661
1040
18893.458353591741
1040
14417.857485438661
1040
18893.458353591741
1071
        0
1070
     0
1070
     1
1040
0.2518002073071134
1071
        2
1040
14475.3068171872
1040
18883.491695887082
1040
0.0
1040
14434.485540201291
1040
18890.038490719358
1040
0.0
1002
}
  0
DIMENSION
  5
4368
  8
FUTO
  2
*D11
 10
11479.96568638693
 20
19933.458353591741
 30
0.0
 11
11419.96568638693
 21
20705.958353591752
 31
0.0
 70
     0
 13
12027.857485438661
 23
21478.458353591741
 33
0.0
 14
11956.296091118689
 24
19933.458353591741
 34
0.0
 50
270.0
1001
ACAD
1000
DSTYLE
1002
{
1070
    40
1040
30.0
1070
   176
1070
     2
1070
   177
1070
     2
1070
   178
1070
     2
1070
   341
1005
44D5
1070
     5
1000
OPEN30
1002
}
  0
LINE
  5
457C
  8
FUTO
 62
     2
 10
12077.857485438661
 20
18893.458353591741
 30
0.0
 11
11449.96568638693
 21
18893.458353591741
 31
0.0
  0
LINE
  5
457D
  8
FUTO
 62
     2
 10
12077.857485438661
 20
18873.458353591741
 30
0.0
 11
11449.96568638693
 21
18873.458353591741
 31
0.0
  0
LINE
  5
457E
  8
FUTO
 62
     2
 10
11479.96568638693
 20
18953.458353591741
 30
0.0
 11
11479.96568638693
 21
19013.458353591741
 31
0.0
  0
LINE
  5
457F
  8
FUTO
 62
     2
 10
11479.96568638693
 20
18813.458353591741
 30
0.0
 11
11479.96568638693
 21
18462.56273496167
 31
0.0
  0
LINE
  5
4580
  8
FUTO
 62
     2
 10
11479.96568638693
 20
18893.458353591741
 30
0.0
 11
11479.96568638693
 21
18873.458353591741
 31
0.0
  0
INSERT
  5
4581
  8
FUTO
 62
     2
  2
_OPEN30
 10
11479.96568638693
 20
18893.458353591741
 30
0.0
 41
-60.0
 42
60.0
 43
60.0
 50
90.0
  0
INSERT
  5
4582
  8
FUTO
 62
     2
  2
_OPEN30
 10
11479.96568638693
 20
18873.458353591741
 30
0.0
 41
-60.0
 42
60.0
 43
60.0
 50
270.0
  0
TEXT
  5
4583
  8
FUTO
 62
     2
 10
11329.74237965387
 20
18723.824294332138
 30
0.0
 40
90.0
  1
(20)
 50
90.0
 51
15.0
  7
SUNPOU
  0
DIMENSION
  5
4584
  8
FUTO
  2
*D15
 10
11479.96568638693
 20
18723.458353591741
 30
0.0
 11
11419.96568638693
 21
18543.458353591741
 31
0.0
 70
     0
 13
12107.857485438661
 23
18873.458353591741
 33
0.0
 14
12107.857485438661
 24
18723.458353591741
 34
0.0
 50
90.0
1001
ACAD
1000
DSTYLE
1002
{
1070
    40
1040
30.0
1070
   176
1070
     2
1070
   177
1070
     2
1070
   178
1070
     2
1070
   341
1005
44D5
1070
     5
1000
OPEN30
1002
}
  0
LINE
  5
4595
  8
KL
 10
13788.857485438661
 20
19208.985844305778
 30
0.0
 11
13788.857485438661
 21
19053.157223957689
 31
0.0
  0
LINE
  5
4596
  8
KL
 10
13797.857485438661
 20
19205.545528596809
 30
0.0
 11
13797.857485438661
 21
19048.299473146661
 31
0.0
  0
LINE
  5
4597
  8
FUTO
 10
13788.857485438661
 20
19208.985844305778
 30
0.0
 11
13788.857485438661
 21
19043.458353591741
 31
0.0
  0
LINE
  5
4598
  8
FUTO
 10
13797.857485438661
 20
19205.545528596809
 30
0.0
 11
13797.857485438661
 21
19043.458353591741
 31
0.0
  0
DIMENSION
  5
45A8
  8
FUTO
  2
*D16
 10
14507.857485438661
 20
25150.594313506259
 30
0.0
 11
13732.857485438661
 21
25210.594313506259
 31
0.0
 70
     0
 13
12957.857485438661
 23
25047.031067962969
 33
0.0
 14
14507.857485438661
 24
23521.15849031337
 34
0.0
 50
180.0
1001
ACAD
1000
DSTYLE
1002
{
1070
    40
1040
30.0
1070
   176
1070
     2
1070
   177
1070
     2
1070
   178
1070
     2
1070
   341
1005
44D5
1070
     5
1000
OPEN30
1002
}
  0
DIMENSION
  5
45B5
  8
FUTO
  2
*D17
 10
11547.55158259878
 20
24766.15849031337
 30
0.0
 11
11487.55158259878
 21
24449.158490313381
 31
0.0
 70
     0
 13
11780.337484859139
 23
24132.15849031337
 33
0.0
 14
12207.857485438661
 24
24766.15849031337
 34
0.0
 50
90.0
1001
ACAD
1000
DSTYLE
1002
{
1070
    40
1040
30.0
1070
   176
1070
     2
1070
   177
1070
     2
1070
   178
1070
     2
1070
   341
1005
44D5
1070
     5
1000
OPEN30
1002
}
  0
DIMENSION
  5
45C2
  8
FUTO
  2
*D18
 10
11547.55158259878
 20
22312.15849031337
 30
0.0
 11
11487.55158259878
 21
23222.158490313381
 31
0.0
 70
     0
 13
11547.55158259878
 23
24132.15849031337
 33
0.0
 14
12577.857485438661
 24
22312.15849031337
 34
0.0
 50
90.0
1001
ACAD
1000
DSTYLE
1002
{
1070
    40
1040
30.0
1070
   176
1070
     2
1070
   177
1070
     2
1070
   178
1070
     2
1070
   341
1005
44D5
1070
     5
1000
OPEN30
1002
}
  0
LINE
  5
466E
  8
CT
 10
12035.248363401761
 20
19836.536851079611
 30
0.0
 11
12957.857485438661
 21
19933.458353591741
 31
0.0
  0
LINE
  5
4670
  8
FUTO
 10
14160.139721957999
 20
19933.458353591741
 30
0.0
 11
14160.139721957999
 21
20063.406512251651
 31
0.0
  0
LINE
  5
4671
  8
FUTO
 10
14210.13972195799
 20
19924.458353591741
 30
0.0
 11
14210.13972195799
 21
19942.458353591741
 31
0.0
  0
LINE
  5
46A1
  8
FUTO
 10
12457.857485438661
 20
19043.458353591741
 30
0.0
 11
12633.17650073908
 21
19736.019101733062
 31
0.0
  0
LINE
  5
46A2
  8
FUTO
 10
13457.857485438661
 20
19043.458353591741
 30
0.0
 11
13376.004324998799
 21
19366.801979123829
 31
0.0
  0
LINE
  5
46A3
  8
SL
 10
13096.92606740164
 20
20141.20803352123
 30
0.0
 11
14216.822564190959
 21
19391.544217881841
 31
0.0
  0
LINE
  5
46A4
  8
SL
 10
12865.824670256659
 20
19701.014896102231
 30
0.0
 11
14118.83557180149
 21
19204.90232761619
 31
0.0
  0
LINE
  5
46A5
  8
FUTO
 10
13172.978288382799
 20
20246.704327453601
 30
0.0
 11
14282.401108195791
 21
19484.81128582756
 31
0.0
  0
LINE
  5
46A6
  8
FUTO
 10
12822.174866391289
 20
19578.507333184069
 30
0.0
 11
14079.30439020071
 21
19097.96039440835
 31
0.0
  0
ARC
  5
46A7
  8
FUTO
 10
13059.857485438661
 20
20035.458353591752
 30
0.0
 40
1125.0
 50
298.14243507090117
 51
312.02555928933799
  0
LINE
  5
46A8
  8
KL
 10
12633.17650073908
 20
19736.019101733062
 30
0.0
 11
12656.323985835081
 21
19827.458353591741
 31
0.0
  0
LINE
  5
46A9
  8
KL
 10
13376.004324998799
 20
19366.801979123829
 30
0.0
 11
13259.39098504223
 21
19827.458353591741
 31
0.0
  0
LINE
  5
46AB
  8
KL
 10
13788.857485438661
 20
19823.750998624299
 30
0.0
 11
13788.857485438661
 21
19208.985844305778
 31
0.0
  0
LINE
  5
46AC
  8
KL
 10
13797.857485438661
 20
19817.570273609301
 30
0.0
 11
13797.857485438661
 21
19205.545528596798
 31
0.0
  0
LINE
  5
46AD
  8
FUTO
 10
13616.00297531025
 20
19942.458353591741
 30
0.0
 11
14210.13972195799
 21
19942.458353591741
 31
0.0
  0
LINE
  5
46AE
  8
FUTO
 10
13642.2134926212
 20
19924.458353591741
 30
0.0
 11
14210.13972195799
 21
19924.458353591741
 31
0.0
  0
LINE
  5
46AF
  8
KL
 10
12579.094662079209
 20
19902.819756352539
 30
0.0
 11
12758.00373816072
 21
19921.64820122323
 31
0.0
  0
LINE
  5
46B0
  8
KL
 10
12580.970484156
 20
19884.917769909989
 30
0.0
 11
12759.87227576172
 21
19903.745448160262
 31
0.0
  0
LINE
  5
46CD
  8
FUTO
 10
16924.3008974773
 20
19942.458353591741
 30
0.0
 11
18142.000897477301
 21
19942.458353591741
 31
0.0
  0
LINE
  5
46CE
  8
FUTO
 10
16924.3008974773
 20
19924.458353591741
 30
0.0
 11
18142.000897477301
 21
19924.458353591741
 31
0.0
  0
LINE
  5
46E1
  8
FUTO
 10
16949.3008974773
 20
21478.458353591741
 30
0.0
 11
18118.300897477311
 21
21478.458353591741
 31
0.0
  0
LINE
  5
46E2
  8
FUTO
 10
16924.3008974773
 20
21428.458353591741
 30
0.0
 11
18142.000897477301
 21
21428.458353591741
 31
0.0
  0
DIMENSION
  5
46E6
  8
FUTO
  2
*D19
 10
12027.857485438661
 20
21756.004785875331
 30
0.0
 11
12492.857485438661
 21
21816.004785875331
 31
0.0
 70
     0
 13
12957.857485438661
 23
21457.885098849179
 33
0.0
 14
12027.857485438661
 24
21478.458353591741
 34
0.0
 50
180.0
1001
ACAD
1000
DSTYLE
1002
{
1070
    40
1040
30.0
1070
   176
1070
     2
1070
   177
1070
     2
1070
   178
1070
     2
1070
   341
1005
44D5
1070
     5
1000
OPEN30
1002
}
  0
DIMENSION
  5
46F4
  8
FUTO
  2
*D20
 10
11479.96568638693
 20
18893.458353591741
 30
0.0
 11
11419.96568638693
 21
19413.458353591741
 31
0.0
 70
     0
 13
11926.296091118689
 23
19933.458353591741
 33
0.0
 14
12107.857485438661
 24
18893.458353591741
 34
0.0
 50
90.0
1001
ACAD
1000
DSTYLE
1002
{
1070
    40
1040
30.0
1070
   176
1070
     2
1070
   177
1070
     2
1070
   178
1070
     2
1070
   341
1005
44D5
1070
     5
1000
OPEN30
1002
}
  0
LINE
  5
470A
  8
FUTO
 10
12027.857485438661
 20
23548.158490313381
 30
0.0
 11
12027.857485438661
 21
24716.158490313381
 31
0.0
  0
LINE
  5
470B
  8
HOSO
 10
12027.857485438661
 20
23548.158490313381
 30
0.0
 11
12027.857485438661
 21
24716.158490313381
 31
0.0
  0
LINE
  5
470C
  8
FUTO
 10
12077.857485438661
 20
23548.158490313381
 30
0.0
 11
12077.857485438661
 21
24716.158490313381
 31
0.0
  0
LINE
  5
470D
  8
FUTO
 10
12031.857485438661
 20
23548.158490313381
 30
0.0
 11
12031.857485438661
 21
24716.158490313381
 31
0.0
  0
LINE
  5
470E
  8
FUTO
 10
14164.857485438661
 20
24670.158490313381
 30
0.0
 11
14164.857485438661
 21
23596.15849031337
 31
0.0
  0
LINE
  5
470F
  8
FUTO
 10
14214.857485438661
 20
24716.158490313381
 30
0.0
 11
14214.857485438661
 21
23548.158490313381
 31
0.0
  0
LINE
  5
4710
  8
FUTO
 10
14214.857485438661
 20
23596.15849031337
 30
0.0
 11
14448.857485438661
 21
23596.15849031337
 31
0.0
  0
DIMENSION
  5
4712
  8
FUTO
  2
*D21
 10
12027.857485438661
 20
25150.594313506259
 30
0.0
 11
12492.857485438661
 21
25210.594313506259
 31
0.0
 70
     0
 13
12957.857485438661
 23
25047.031067962969
 33
0.0
 14
12027.857485438661
 24
24716.158490313381
 34
0.0
 50
180.0
1001
ACAD
1000
DSTYLE
1002
{
1070
    40
1040
30.0
1070
   176
1070
     2
1070
   177
1070
     2
1070
   178
1070
     2
1070
   341
1005
44D5
1070
     5
1000
OPEN30
1002
}
  0
TEXT
  5
4F38
  8
SP
 10
6020.9053960086612
 20
10238.29611723275
 30
0.0
 40
100.0
  1
 
  0
TEXT
  5
51F3
  8
SP
 10
10181.760896633959
 20
12918.45956617306
 30
0.0
 40
100.0
  1
 
  0
TEXT
  5
51F4
  8
SP
 10
19738.712326637411
 20
20347.057238267898
 30
0.0
 40
100.0
  1
 
  0
LINE
  5
51F5
  8
4
 10
18839.962757664249
 20
16746.004010979359
 30
0.0
 11
18839.962757664249
 21
15746.004010979361
 31
0.0
  0
LINE
  5
51F6
  8
4
 10
15339.962757664251
 20
16746.004010979359
 30
0.0
 11
15339.962757664251
 21
15746.004010979361
 31
0.0
  0
LINE
  5
51F7
  8
4
 10
12839.962757664251
 20
16746.004010979359
 30
0.0
 11
12839.962757664251
 21
15746.004010979361
 31
0.0
  0
LINE
  5
51FA
  8
4
 10
12839.962757664251
 20
15746.004010979361
 30
0.0
 11
18839.962757664249
 21
15746.004010979361
 31
0.0
  0
LINE
  5
51FB
  8
4
 10
12839.962757664251
 20
16246.004010979361
 30
0.0
 11
18839.962757664249
 21
16246.004010979361
 31
0.0
  0
TEXT
  5
51FC
  8
4
 10
13032.47316189877
 20
16403.719140312431
 30
0.0
 40
250.0
  1
機器名称
  0
TEXT
  5
51FD
  8
4
 10
13021.25328778824
 20
15854.22979463941
 30
0.0
 40
250.0
  1
機器型番
  0
TEXT
  5
51FE
  8
4
 10
15363.928066169459
 20
16356.9405227641
 30
0.0
 40
225.0
  1
ミツヤリミットロードファン
  0
TEXT
  5
51FF
  8
4
 10
15523.235235591659
 20
15831.80193237907
 30
0.0
 40
250.0
  1
LL#9-1
  0
TEXT
  5
5201
  8
4
 10
13465.12449963313
 20
26163.148217641941
 30
0.0
 40
270.0
  1
床置防振ベット
  0
TEXT
  5
5202
  8
4
 10
11170.800724311481
 20
26915.408891975851
 30
0.0
 40
360.0
  1
遠心式片吸込片持リミットロードファン
  0
LINE
  5
5203
  8
4
 10
10839.962757664251
 20
26593.047782303391
 30
0.0
 11
18839.962757664249
 21
26593.047782303391
 31
0.0
  0
LINE
  5
5204
  8
4
 10
10839.962757664251
 20
27593.047782303391
 30
0.0
 11
18839.962757664249
 21
27593.047782303391
 31
0.0
  0
LINE
  5
5205
  8
4
 10
12839.962757664251
 20
16746.004010979359
 30
0.0
 11
18839.962757664249
 21
16746.004010979359
 31
0.0
  0
LINE
  5
5206
  8
4
 10
10839.962757664251
 20
27593.047782303391
 30
0.0
 11
10839.962757664251
 21
26593.047782303391
 31
0.0
  0
TEXT
  5
5207
  8
4
 10
11285.830338419621
 20
26157.601398711078
 30
0.0
 40
270.0
  1
左回転左横向
  0
TEXT
  5
5208
  8
4
 10
16934.810553910698
 20
27776.309418455909
 30
0.0
 40
280.0
  1
No.
  0
TEXT
  5
5209
  8
4
 10
17001.741980921019
 20
25666.88337463174
 30
0.0
 40
270.0
  1
縮尺：1/50
  0
LINE
  5
520A
  8
4
 10
18839.962757664249
 20
27593.047782303391
 30
0.0
 11
18839.962757664249
 21
26593.047782303391
 31
0.0
  0
LINE
  5
520B
  8
4
 10
20089.962757664249
 20
28996.004010979359
 30
0.0
 11
20089.962757664249
 21
28996.004010979359
 31
0.0
  0
LINE
  5
520C
  8
4
 10
16793.049869463572
 20
27652.321926606372
 30
0.0
 11
16793.049869463572
 21
28179.265318728121
 31
0.0
  0
LINE
  5
520D
  8
4
 10
16793.049869463572
 20
28179.265318728121
 30
0.0
 11
18839.962757664249
 21
28179.265318728121
 31
0.0
  0
LINE
  5
520E
  8
4
 10
18839.962757664249
 20
28179.265318728121
 30
0.0
 11
18839.962757664249
 21
27652.321926606372
 31
0.0
  0
LINE
  5
520F
  8
4
 10
18839.962757664249
 20
27652.321926606372
 30
0.0
 11
16793.049869463572
 21
27652.321926606372
 31
0.0
  0
LINE
  5
5210
  8
4
 10
9589.9627576642524
 20
14246.004010979361
 30
0.0
 11
9589.9627576642524
 21
28996.004010979359
 31
0.0
  0
LINE
  5
5211
  8
4
 10
9589.9627576642524
 20
28996.004010979359
 30
0.0
 11
20089.962757664249
 21
28996.004010979359
 31
0.0
  0
LINE
  5
5212
  8
4
 10
20089.962757664249
 20
28996.004010979359
 30
0.0
 11
20089.962757664249
 21
14246.004010979361
 31
0.0
  0
LINE
  5
5213
  8
4
 10
20089.962757664249
 20
14246.004010979361
 30
0.0
 11
9589.9627576642524
 21
14246.004010979361
 31
0.0
  0
ENDSEC
  0
EOF
