  0
SECTION
  2
HEADER
  9
$ACADVER
  1
AC1009
  9
$INSBASE
 10
0.0
 20
0.0
 30
0.0
  9
$EXTMIN
 10
3961.9463183902699
 20
14579.58492882457
 30
0.0
  9
$EXTMAX
 10
14461.94631839027
 20
29329.584928824581
 30
0.0
  9
$LIMMIN
 10
0.0
 20
0.0
  9
$LIMMAX
 10
420.0
 20
297.0
  9
$ORTHOMODE
 70
     0
  9
$REGENMODE
 70
     1
  9
$FILLMODE
 70
     1
  9
$QTEXTMODE
 70
     0
  9
$MIRRTEXT
 70
     0
  9
$DRAGMODE
 70
     2
  9
$LTSCALE
 40
150.0
  9
$OSMODE
 70
    37
  9
$ATTMODE
 70
     1
  9
$TEXTSIZE
 40
90.0
  9
$TRACEWID
 40
0.05
  9
$TEXTSTYLE
  7
STANDARD
  9
$CLAYER
  8
FUTO
  9
$CELTYPE
  6
BYLAYER
  9
$CECOLOR
 62
   256
  9
$DIMSCALE
 40
30.0
  9
$DIMASZ
 40
2.0
  9
$DIMEXO
 40
1.0
  9
$DIMDLI
 40
10.0
  9
$DIMRND
 40
0.0
  9
$DIMDLE
 40
0.0
  9
$DIMEXE
 40
1.0
  9
$DIMTP
 40
0.0
  9
$DIMTM
 40
0.0
  9
$DIMTXT
 40
3.0
  9
$DIMCEN
 40
0.0
  9
$DIMTSZ
 40
0.0
  9
$DIMTOL
 70
     0
  9
$DIMLIM
 70
     0
  9
$DIMTIH
 70
     0
  9
$DIMTOH
 70
     0
  9
$DIMSE1
 70
     0
  9
$DIMSE2
 70
     0
  9
$DIMTAD
 70
     1
  9
$DIMZIN
 70
     8
  9
$DIMBLK
  1
OPEN30
  9
$DIMASO
 70
     1
  9
$DIMSHO
 70
     1
  9
$DIMPOST
  1

  9
$DIMAPOST
  1

  9
$DIMALT
 70
     0
  9
$DIMALTD
 70
     2
  9
$DIMALTF
 40
0.03937
  9
$DIMLFAC
 40
1.0
  9
$DIMTOFL
 70
     1
  9
$DIMTVP
 40
0.0
  9
$DIMTIX
 70
     0
  9
$DIMSOXD
 70
     0
  9
$DIMSAH
 70
     0
  9
$DIMBLK1
  1

  9
$DIMBLK2
  1

  9
$DIMSTYLE
  2
MATSU
  9
$DIMCLRD
 70
     2
  9
$DIMCLRE
 70
     2
  9
$DIMCLRT
 70
     2
  9
$DIMTFAC
 40
1.0
  9
$DIMGAP
 40
0.5
  9
$LUNITS
 70
     2
  9
$LUPREC
 70
     1
  9
$SKETCHINC
 40
0.1
  9
$FILLETRAD
 40
0.0
  9
$AUNITS
 70
     0
  9
$AUPREC
 70
     0
  9
$MENU
  1
SSMENU
  9
$ELEVATION
 40
0.0
  9
$PELEVATION
 40
0.0
  9
$THICKNESS
 40
0.0
  9
$LIMCHECK
 70
     0
  9
$BLIPMODE
 70
     0
  9
$CHAMFERA
 40
20.0
  9
$CHAMFERB
 40
20.0
  9
$SKPOLY
 70
     0
  9
$TDCREATE
 40
2450714.9573032409
  9
$TDUPDATE
 40
2454953.6484964462
  9
$TDINDWG
 40
1.4563362616
  9
$TDUSRTIMER
 40
1.4563362616
  9
$USRTIMER
 70
     1
  9
$ANGBASE
 50
0.0
  9
$ANGDIR
 70
     0
  9
$PDMODE
 70
     0
  9
$PDSIZE
 40
1.0
  9
$PLINEWID
 40
0.0
  9
$COORDS
 70
     1
  9
$SPLFRAME
 70
     0
  9
$SPLINETYPE
 70
     6
  9
$SPLINESEGS
 70
     8
  9
$ATTDIA
 70
     0
  9
$ATTREQ
 70
     1
  9
$HANDLING
 70
 10241
  9
$HANDSEED
  5
55D7
  9
$SURFTAB1
 70
     6
  9
$SURFTAB2
 70
     6
  9
$SURFTYPE
 70
     6
  9
$SURFU
 70
     6
  9
$SURFV
 70
     6
  9
$UCSNAME
  2

  9
$UCSORG
 10
0.0
 20
0.0
 30
0.0
  9
$UCSXDIR
 10
1.0
 20
0.0
 30
0.0
  9
$UCSYDIR
 10
0.0
 20
1.0
 30
0.0
  9
$PUCSNAME
  2

  9
$PUCSORG
 10
0.0
 20
0.0
 30
0.0
  9
$PUCSXDIR
 10
1.0
 20
0.0
 30
0.0
  9
$PUCSYDIR
 10
0.0
 20
1.0
 30
0.0
  9
$USERI1
 70
     0
  9
$USERI2
 70
     0
  9
$USERI3
 70
     0
  9
$USERI4
 70
     0
  9
$USERI5
 70
     0
  9
$USERR1
 40
0.0
  9
$USERR2
 40
0.0
  9
$USERR3
 40
0.0
  9
$USERR4
 40
0.0
  9
$USERR5
 40
0.0
  9
$WORLDVIEW
 70
     1
  9
$SHADEDGE
 70
     3
  9
$SHADEDIF
 70
    70
  9
$TILEMODE
 70
     1
  9
$MAXACTVP
 70
    16
  9
$PLIMCHECK
 70
     0
  9
$PEXTMIN
 10
0.0
 20
0.0
 30
0.0
  9
$PEXTMAX
 10
12.561051004636781
 20
9.0
 30
0.0
  9
$PLIMMIN
 10
0.0
 20
0.0
  9
$PLIMMAX
 10
12.0
 20
9.0
  9
$UNITMODE
 70
     0
  9
$VISRETAIN
 70
     0
  9
$PLINEGEN
 70
     0
  9
$PSLTSCALE
 70
     0
  0
ENDSEC
  0
SECTION
  2
TABLES
  0
TABLE
  2
VPORT
 70
     2
  0
VPORT
  2
*ACTIVE
 70
     0
 10
0.0
 20
0.0
 11
1.0
 21
1.0
 12
14101.7863356653
 22
16331.2051574789
 13
0.0
 23
0.0
 14
5.0
 24
5.0
 15
0.0
 25
0.0
 16
0.0
 26
0.0
 36
1.0
 17
0.0
 27
0.0
 37
0.0
 40
4805.1847543922713
 41
3.1666666666666661
 42
50.0
 43
0.0
 44
0.0
 50
0.0
 51
0.0
 71
     0
 72
   500
 73
     1
 74
     0
 75
     0
 76
     0
 77
     0
 78
     0
  0
ENDTAB
  0
TABLE
  2
LTYPE
 70
     4
  0
LTYPE
  2
CONTINUOUS
 70
     0
  3
実線
 72
    65
 73
     0
 40
0.0
  0
LTYPE
  2
CENTER
 70
     0
  3
____ _ ____ _ ____ _ ____ _ ____ _ ____ _ ____ 
 72
    65
 73
     4
 40
2.0
 49
1.25
 49
-0.25
 49
0.25
 49
-0.25
  0
LTYPE
  2
HIDDEN
 70
     0
  3
__ __ __ __ __ __ __ __ __ __ __ __ __ __ __ __
 72
    65
 73
     2
 40
0.375
 49
0.25
 49
-0.125
  0
LTYPE
  2
PHANTOM
 70
     0
  3
______  __  __  ______  __  __  ______  __  __ 
 72
    65
 73
     6
 40
2.5
 49
1.25
 49
-0.25
 49
0.25
 49
-0.25
 49
0.25
 49
-0.25
  0
ENDTAB
  0
TABLE
  2
LAYER
 70
     9
  0
LAYER
  2
0
 70
     0
 62
     7
  6
CONTINUOUS
  0
LAYER
  2
FUTO
 70
     0
 62
     4
  6
CONTINUOUS
  0
LAYER
  2
CT
 70
     0
 62
     3
  6
CENTER
  0
LAYER
  2
HOSO
 70
     0
 62
     7
  6
CONTINUOUS
  0
LAYER
  2
KL
 70
     0
 62
     7
  6
HIDDEN
  0
LAYER
  2
SL
 70
     0
 62
     1
  6
PHANTOM
  0
LAYER
  2
SP
 70
     0
 62
     2
  6
CONTINUOUS
  0
LAYER
  2
DEFPOINTS
 70
     0
 62
     7
  6
CONTINUOUS
  0
LAYER
  2
4
 70
     0
 62
     7
  6
CONTINUOUS
  0
ENDTAB
  0
TABLE
  2
STYLE
 70
     2
  0
STYLE
  2
STANDARD
 70
     0
 40
0.0
 41
1.0
 50
15.0
 71
     0
 42
90.0
  3
SIMPLEX
  4
EXTFONT
  0
STYLE
  2
SUNPOU
 70
     0
 40
0.0
 41
1.0
 50
15.0
 71
     0
 42
5.0
  3
simplex.shx
  4
extfont.shx
  0
ENDTAB
  0
TABLE
  2
VIEW
 70
     0
  0
ENDTAB
  0
TABLE
  2
UCS
 70
     0
  0
ENDTAB
  0
TABLE
  2
APPID
 70
     1
  0
APPID
  2
ACAD
 70
     0
  0
ENDTAB
  0
TABLE
  2
DIMSTYLE
 70
     1
  0
DIMSTYLE
  2
MATSU
 70
     0
  3

  4

  5
CLOSED
  6

  7

 40
10.0
 41
2.0
 42
1.0
 43
10.0
 44
1.0
 45
0.0
 46
0.0
 47
0.0
 48
0.0
140
3.0
141
0.0
142
0.0
143
0.03937
144
1.0
145
0.0
146
1.0
147
0.5
 71
     0
 72
     0
 73
     0
 74
     0
 75
     0
 76
     0
 77
     1
 78
     8
170
     0
171
     2
172
     1
173
     0
174
     0
175
     0
176
   256
177
   256
178
   256
  0
ENDTAB
  0
ENDSEC
  0
SECTION
  2
BLOCKS
  0
BLOCK
  8
0
  2
$MODEL_SPACE
 70
     0
 10
0.0
 20
0.0
 30
0.0
  3
$MODEL_SPACE
  1

  0
ENDBLK
  5
7
  8
0
  0
BLOCK
 67
     1
  8
0
  2
$PAPER_SPACE
 70
     0
 10
0.0
 20
0.0
 30
0.0
  3
$PAPER_SPACE
  1

  0
ENDBLK
  5
A
 67
     1
  8
0
  0
BLOCK
  8
0
  2
まっすぐの矢印
 70
     0
 10
0.0
 20
0.0
 30
0.0
  3
まっすぐの矢印
  1

  0
LINE
  5
599
  8
SP
 10
13.01863531255526
 20
-41.453946163708451
 30
0.0
 11
13.01863531255526
 21
-93.495696758840026
 31
0.0
  0
LINE
  5
59A
  8
SP
 10
13.01863531255526
 20
-93.495696758840026
 30
0.0
 11
-13.01863531255526
 21
-93.495696758840026
 31
0.0
  0
LINE
  5
59B
  8
SP
 10
-13.01863531255526
 20
-93.495696758840026
 30
0.0
 11
-13.01863531255526
 21
-41.453946163708451
 31
0.0
  0
LINE
  5
59C
  8
SP
 10
-13.01863531255526
 20
-41.453946163708451
 30
0.0
 11
-32.06015471115802
 21
-41.453946163708451
 31
0.0
  0
LINE
  5
59D
  8
SP
 10
-32.06015471115802
 20
-41.453946163708451
 30
0.0
 11
0.0
 21
0.0
 31
0.0
  0
LINE
  5
59E
  8
SP
 10
0.0
 20
0.0
 30
0.0
 11
32.06015471115802
 21
-41.453946163708451
 31
0.0
  0
LINE
  5
59F
  8
SP
 10
32.06015471115802
 20
-41.453946163708451
 30
0.0
 11
13.01863531255526
 21
-41.453946163708451
 31
0.0
  0
ENDBLK
  5
5A1
  8
0
  0
BLOCK
  8
0
  2
左回転矢印
 70
     0
 10
0.0
 20
0.0
 30
0.0
  3
左回転矢印
  1

  0
LINE
  5
57C
  8
SP
 10
43.930449171819873
 20
24.859487323637271
 30
0.0
 11
38.511878498580238
 21
44.478978865188871
 31
0.0
  0
LINE
  5
57D
  8
SP
 10
38.511878498580238
 20
44.478978865188871
 30
0.0
 11
0.0
 21
0.0
 31
0.0
  0
LINE
  5
57E
  8
SP
 10
0.0
 20
0.0
 30
0.0
 11
52.57968174421967
 21
-6.4575435924972453
 31
0.0
  0
LINE
  5
57F
  8
SP
 10
52.57968174421967
 20
-6.4575435924972453
 30
0.0
 11
48.189912989015284
 21
9.436875093862227
 31
0.0
  0
ARC
  5
580
  8
SP
 10
93.893649146691985
 20
-156.0466295121104
 30
0.0
 40
171.67883327727239
 50
67.881388989212894
 51
105.4392492786835
  0
LINE
  5
581
  8
SP
 10
158.53505643637521
 20
2.997736182040398
 30
0.0
 11
164.55945966006539
 21
17.820238190756751
 31
0.0
  0
ARC
  5
582
  8
SP
 10
93.893649146692198
 20
-156.04662951211091
 30
0.0
 40
187.67883327727299
 50
67.881388989212994
 51
105.4392492786836
  0
ENDBLK
  5
584
  8
0
  0
BLOCK
  8
0
  2
*D2
 70
     1
 10
0.0
 20
0.0
 30
0.0
  3
*D2
  1

  0
LINE
  5
5520
  8
FUTO
 62
     2
 10
7498.463796914376
 20
19024.053525989581
 30
0.0
 11
7498.463796914376
 21
18811.83581706831
 31
0.0
  0
LINE
  5
5521
  8
FUTO
 62
     2
 10
9048.4637969143769
 20
18976.13567703333
 30
0.0
 11
9048.4637969143769
 21
18811.83581706831
 31
0.0
  0
LINE
  5
5522
  8
FUTO
 62
     2
 10
7558.4637969143751
 20
18841.83581706831
 30
0.0
 11
8988.4637969143769
 21
18841.83581706831
 31
0.0
  0
INSERT
  5
5523
  8
FUTO
 62
     2
  2
_OPEN30
 10
7498.463796914376
 20
18841.83581706831
 30
0.0
 41
60.0
 42
60.0
 43
60.0
 50
180.0
  0
INSERT
  5
5524
  8
FUTO
 62
     2
  2
_OPEN30
 10
9048.4637969143769
 20
18841.83581706831
 30
0.0
 41
60.0
 42
60.0
 43
60.0
  0
TEXT
  8
0
  40
90
  5
55BF
  62
2
  72
0
  71
0
 10
8093.46
 20
18742.5
 30
0.000000
  1
1550
  7
SUNPOU
  0
POINT
  5
5526
  8
DEFPOINTS
 62
     0
 10
7498.463796914376
 20
19054.053525989581
 30
0.0
  0
POINT
  5
5527
  8
DEFPOINTS
 62
     0
 10
9048.4637969143769
 20
19006.13567703333
 30
0.0
  0
POINT
  5
5528
  8
DEFPOINTS
 62
     0
 10
9048.4637969143769
 20
18841.83581706831
 30
0.0
  0
ENDBLK
  5
3643
  8
0
  0
BLOCK
  8
0
  2
*D3
 70
     1
 10
0.0
 20
0.0
 30
0.0
  3
*D3
  1

  0
LINE
  5
5529
  8
FUTO
 62
     2
 10
9048.4637969143769
 20
19051.13567703333
 30
0.0
 11
9048.4637969143769
 21
18628.918500084219
 31
0.0
  0
LINE
  5
552A
  8
FUTO
 62
     2
 10
6648.4637969143769
 20
19051.13567703333
 30
0.0
 11
6648.4637969143769
 21
18628.918500084219
 31
0.0
  0
LINE
  5
552B
  8
FUTO
 62
     2
 10
8988.4637969143769
 20
18658.918500084219
 30
0.0
 11
6708.4637969143769
 21
18658.918500084219
 31
0.0
  0
INSERT
  5
552C
  8
FUTO
 62
     2
  2
_OPEN30
 10
9048.4637969143769
 20
18658.918500084219
 30
0.0
 41
60.0
 42
60.0
 43
60.0
  0
INSERT
  5
552D
  8
FUTO
 62
     2
  2
_OPEN30
 10
6648.4637969143769
 20
18658.918500084219
 30
0.0
 41
60.0
 42
60.0
 43
60.0
 50
180.0
  0
TEXT
  8
0
  40
90
  5
55C0
  62
2
  72
0
  71
0
 10
7668.46
 20
18559.6
 30
0.000000
  1
2400
  7
SUNPOU
  0
POINT
  5
552F
  8
DEFPOINTS
 62
     0
 10
9048.4637969143769
 20
19081.13567703333
 30
0.0
  0
POINT
  5
5530
  8
DEFPOINTS
 62
     0
 10
6648.4637969143769
 20
19081.13567703333
 30
0.0
  0
POINT
  5
5531
  8
DEFPOINTS
 62
     0
 10
6648.4637969143769
 20
18658.918500084219
 30
0.0
  0
ENDBLK
  5
3638
  8
0
  0
BLOCK
  8
0
  2
*D4
 70
     1
 10
0.0
 20
0.0
 30
0.0
  3
*D4
  1

  0
LINE
  5
5532
  8
FUTO
 62
     2
 10
7498.463796914376
 20
19024.053525989581
 30
0.0
 11
7498.463796914376
 21
18811.83581706831
 31
0.0
  0
LINE
  5
5533
  8
FUTO
 62
     2
 10
6648.4637969143769
 20
18976.13567703333
 30
0.0
 11
6648.4637969143769
 21
18811.83581706831
 31
0.0
  0
LINE
  5
5534
  8
FUTO
 62
     2
 10
7438.463796914376
 20
18841.83581706831
 30
0.0
 11
6708.4637969143769
 21
18841.83581706831
 31
0.0
  0
INSERT
  5
5535
  8
FUTO
 62
     2
  2
_OPEN30
 10
7498.463796914376
 20
18841.83581706831
 30
0.0
 41
60.0
 42
60.0
 43
60.0
  0
INSERT
  5
5536
  8
FUTO
 62
     2
  2
_OPEN30
 10
6648.4637969143769
 20
18841.83581706831
 30
0.0
 41
60.0
 42
60.0
 43
60.0
 50
180.0
  0
TEXT
  8
0
  40
90
  5
55C1
  62
2
  72
0
  71
0
 10
6893.46
 20
18742.5
 30
0.000000
  1
850
  7
SUNPOU
  0
POINT
  5
5538
  8
DEFPOINTS
 62
     0
 10
7498.463796914376
 20
19054.053525989581
 30
0.0
  0
POINT
  5
5539
  8
DEFPOINTS
 62
     0
 10
6648.4637969143769
 20
19006.13567703333
 30
0.0
  0
POINT
  5
553A
  8
DEFPOINTS
 62
     0
 10
6648.4637969143769
 20
18841.83581706831
 30
0.0
  0
ENDBLK
  5
3667
  8
0
  0
BLOCK
  8
0
  2
*D5
 70
     1
 10
0.0
 20
0.0
 30
0.0
  3
*D5
  1

  0
LINE
  5
555A
  8
FUTO
 62
     2
 10
9991.5552101202265
 20
19051.13567703333
 30
0.0
 11
9991.5552101202265
 21
18633.10175479138
 31
0.0
  0
LINE
  5
555B
  8
FUTO
 62
     2
 10
12191.555210120219
 20
19051.13567703333
 30
0.0
 11
12191.555210120219
 21
18633.10175479138
 31
0.0
  0
LINE
  5
555C
  8
FUTO
 62
     2
 10
10051.555210120219
 20
18663.10175479138
 30
0.0
 11
12131.555210120219
 21
18663.10175479138
 31
0.0
  0
INSERT
  5
555D
  8
FUTO
 62
     2
  2
_OPEN30
 10
9991.5552101202265
 20
18663.10175479138
 30
0.0
 41
60.0
 42
60.0
 43
60.0
 50
180.0
  0
INSERT
  5
555E
  8
FUTO
 62
     2
  2
_OPEN30
 10
12191.555210120219
 20
18663.10175479138
 30
0.0
 41
60.0
 42
60.0
 43
60.0
  0
TEXT
  8
0
  40
90
  5
55C2
  62
2
  72
0
  71
0
 10
10911.6
 20
18563.8
 30
0.000000
  1
2200
  7
SUNPOU
  0
POINT
  5
5560
  8
DEFPOINTS
 62
     0
 10
9991.5552101202265
 20
19081.13567703333
 30
0.0
  0
POINT
  5
5561
  8
DEFPOINTS
 62
     0
 10
12191.555210120219
 20
19081.13567703333
 30
0.0
  0
POINT
  5
5562
  8
DEFPOINTS
 62
     0
 10
12191.555210120219
 20
18663.10175479138
 30
0.0
  0
ENDBLK
  5
34E6
  8
0
  0
BLOCK
  8
0
  2
*D6
 70
     1
 10
0.0
 20
0.0
 30
0.0
  3
*D6
  1

  0
LINE
  5
5563
  8
FUTO
 62
     2
 10
11579.555210120219
 20
19051.13567703333
 30
0.0
 11
11579.555210120219
 21
18814.432196048961
 31
0.0
  0
LINE
  5
5564
  8
FUTO
 62
     2
 10
12191.555210120219
 20
19051.13567703333
 30
0.0
 11
12191.555210120219
 21
18814.432196048961
 31
0.0
  0
LINE
  5
5565
  8
FUTO
 62
     2
 10
11639.555210120219
 20
18844.432196048969
 30
0.0
 11
12131.555210120219
 21
18844.432196048969
 31
0.0
  0
INSERT
  5
5566
  8
FUTO
 62
     2
  2
_OPEN30
 10
11579.555210120219
 20
18844.432196048969
 30
0.0
 41
60.0
 42
60.0
 43
60.0
 50
180.0
  0
INSERT
  5
5567
  8
FUTO
 62
     2
  2
_OPEN30
 10
12191.555210120219
 20
18844.432196048969
 30
0.0
 41
60.0
 42
60.0
 43
60.0
  0
TEXT
  8
0
  40
90
  5
55C3
  62
2
  72
0
  71
0
 10
11705.6
 20
18745.1
 30
0.000000
  1
612
  7
SUNPOU
  0
POINT
  5
5569
  8
DEFPOINTS
 62
     0
 10
11579.555210120219
 20
19081.13567703333
 30
0.0
  0
POINT
  5
556A
  8
DEFPOINTS
 62
     0
 10
12191.555210120219
 20
19081.13567703333
 30
0.0
  0
POINT
  5
556B
  8
DEFPOINTS
 62
     0
 10
12191.555210120219
 20
18844.432196048969
 30
0.0
  0
ENDBLK
  5
393A
  8
0
  0
BLOCK
  8
0
  2
*D7
 70
     1
 10
0.0
 20
0.0
 30
0.0
  3
*D7
  1

  0
LINE
  5
556C
  8
FUTO
 62
     2
 10
11579.555210120219
 20
19051.13567703333
 30
0.0
 11
11579.555210120219
 21
18814.437436971559
 31
0.0
  0
LINE
  5
556D
  8
FUTO
 62
     2
 10
9991.5552101202265
 20
19051.13567703333
 30
0.0
 11
9991.5552101202265
 21
18814.437436971559
 31
0.0
  0
LINE
  5
556E
  8
FUTO
 62
     2
 10
11519.555210120219
 20
18844.437436971559
 30
0.0
 11
10051.555210120219
 21
18844.437436971559
 31
0.0
  0
INSERT
  5
556F
  8
FUTO
 62
     2
  2
_OPEN30
 10
11579.555210120219
 20
18844.437436971559
 30
0.0
 41
60.0
 42
60.0
 43
60.0
  0
INSERT
  5
5570
  8
FUTO
 62
     2
  2
_OPEN30
 10
9991.5552101202265
 20
18844.437436971559
 30
0.0
 41
60.0
 42
60.0
 43
60.0
 50
180.0
  0
TEXT
  8
0
  40
90
  5
55C4
  62
2
  72
0
  71
0
 10
10605.6
 20
18745.1
 30
0.000000
  1
1588
  7
SUNPOU
  0
POINT
  5
5572
  8
DEFPOINTS
 62
     0
 10
11579.555210120219
 20
19081.13567703333
 30
0.0
  0
POINT
  5
5573
  8
DEFPOINTS
 62
     0
 10
9991.5552101202265
 20
19081.13567703333
 30
0.0
  0
POINT
  5
5574
  8
DEFPOINTS
 62
     0
 10
9991.5552101202265
 20
18844.437436971559
 30
0.0
  0
ENDBLK
  5
3947
  8
0
  0
BLOCK
  8
0
  2
_CLOSED
 70
     0
 10
0.0
 20
0.0
 30
0.0
  3
_CLOSED
  1

  0
LINE
  5
3BE3
  8
0
  6
BYBLOCK
 62
     0
 10
-1.0
 20
0.1666666666666666
 30
0.0
 11
0.0
 21
0.0
 31
0.0
  0
LINE
  5
3BE4
  8
0
  6
BYBLOCK
 62
     0
 10
0.0
 20
0.0
 30
0.0
 11
-1.0
 21
-0.1666666666666666
 31
0.0
  0
LINE
  5
3BE5
  8
0
  6
BYBLOCK
 62
     0
 10
-1.0
 20
0.1666666666666666
 30
0.0
 11
-1.0
 21
-0.1666666666666666
 31
0.0
  0
ENDBLK
  5
3BE6
  8
0
  0
BLOCK
  8
0
  2
*D9
 70
     1
 10
0.0
 20
0.0
 30
0.0
  3
*D9
  1

  0
LINE
  5
5578
  8
SP
 62
     2
 10
9759.5552101202247
 20
21191.13567703333
 30
0.0
 11
9759.5552101202247
 21
22129.758431713479
 31
0.0
  0
LINE
  5
5579
  8
SP
 62
     2
 10
11579.555210120219
 20
21992.853164617529
 30
0.0
 11
11579.555210120219
 21
22129.758431713479
 31
0.0
  0
LINE
  5
557A
  8
SP
 62
     2
 10
9819.5552101202265
 20
22099.758431713479
 30
0.0
 11
11519.555210120219
 21
22099.758431713479
 31
0.0
  0
INSERT
  5
557B
  8
SP
 62
     2
  2
_OPEN30
 10
9759.5552101202247
 20
22099.758431713479
 30
0.0
 41
60.0
 42
60.0
 43
60.0
 50
180.0
  0
INSERT
  5
557C
  8
SP
 62
     2
  2
_OPEN30
 10
11579.555210120219
 20
22099.758431713479
 30
0.0
 41
60.0
 42
60.0
 43
60.0
  0
TEXT
  8
0
  40
90
  5
55C5
  62
2
  72
0
  71
0
 10
10489.6
 20
22000.5
 30
0.000000
  1
1820
  7
SUNPOU
  0
POINT
  5
557E
  8
DEFPOINTS
 62
     0
 10
9759.5552101202247
 20
21161.13567703333
 30
0.0
  0
POINT
  5
557F
  8
DEFPOINTS
 62
     0
 10
11579.555210120219
 20
21962.853164617529
 30
0.0
  0
POINT
  5
5580
  8
DEFPOINTS
 62
     0
 10
11579.555210120219
 20
22099.758431713479
 30
0.0
  0
ENDBLK
  5
3C57
  8
0
  0
BLOCK
  8
0
  2
*D10
 70
     1
 10
0.0
 20
0.0
 30
0.0
  3
*D10
  1

  0
LINE
  5
553B
  8
FUTO
 62
     2
 10
12243.555210120219
 20
21481.13567703333
 30
0.0
 11
12609.16507187645
 21
21481.13567703333
 31
0.0
  0
LINE
  5
553C
  8
FUTO
 62
     2
 10
12243.555210120219
 20
20081.13567703333
 30
0.0
 11
12609.16507187645
 21
20081.13567703333
 31
0.0
  0
LINE
  5
553D
  8
FUTO
 62
     2
 10
12579.16507187645
 20
21421.13567703333
 30
0.0
 11
12579.16507187645
 21
20141.13567703333
 31
0.0
  0
INSERT
  5
553E
  8
FUTO
 62
     2
  2
_OPEN30
 10
12579.16507187645
 20
21481.13567703333
 30
0.0
 41
60.0
 42
60.0
 43
60.0
 50
90.0
  0
INSERT
  5
553F
  8
FUTO
 62
     2
  2
_OPEN30
 10
12579.16507187645
 20
20081.13567703333
 30
0.0
 41
60.0
 42
60.0
 43
60.0
 50
270.0
  0
TEXT
  8
0
  40
90
  5
55C6
  62
2
  72
0
  71
0
 10
12339.2
 20
20621.8
 30
0.000000
  1
%%C1400
  7
SUNPOU
  0
POINT
  5
5541
  8
DEFPOINTS
 62
     0
 10
12213.555210120219
 20
21481.13567703333
 30
0.0
  0
POINT
  5
5542
  8
DEFPOINTS
 62
     0
 10
12213.555210120219
 20
20081.13567703333
 30
0.0
  0
POINT
  5
5543
  8
DEFPOINTS
 62
     0
 10
12579.16507187645
 20
20081.13567703333
 30
0.0
  0
ENDBLK
  5
4473
  8
0
  0
BLOCK
  8
0
  2
*D11
 70
     1
 10
0.0
 20
0.0
 30
0.0
  3
*D11
  1

  0
LINE
  5
5544
  8
FUTO
 62
     2
 10
11579.555210120219
 20
21962.853164617529
 30
0.0
 11
11579.555210120219
 21
22129.758431713479
 31
0.0
  0
LINE
  5
5545
  8
FUTO
 62
     2
 10
12213.555210120219
 20
21561.13567703333
 30
0.0
 11
12213.555210120219
 21
22129.758431713479
 31
0.0
  0
LINE
  5
5546
  8
FUTO
 62
     2
 10
11639.555210120219
 20
22099.758431713479
 30
0.0
 11
12153.555210120219
 21
22099.758431713479
 31
0.0
  0
INSERT
  5
5547
  8
FUTO
 62
     2
  2
_OPEN30
 10
11579.555210120219
 20
22099.758431713479
 30
0.0
 41
60.0
 42
60.0
 43
60.0
 50
180.0
  0
INSERT
  5
5548
  8
FUTO
 62
     2
  2
_OPEN30
 10
12213.555210120219
 20
22099.758431713479
 30
0.0
 41
60.0
 42
60.0
 43
60.0
  0
TEXT
  8
0
  40
90
  5
55C7
  62
2
  72
0
  71
0
 10
11716.6
 20
22000.5
 30
0.000000
  1
634
  7
SUNPOU
  0
POINT
  5
554A
  8
DEFPOINTS
 62
     0
 10
11579.555210120219
 20
21932.853164617529
 30
0.0
  0
POINT
  5
554B
  8
DEFPOINTS
 62
     0
 10
12213.555210120219
 20
21531.13567703333
 30
0.0
  0
POINT
  5
554C
  8
DEFPOINTS
 62
     0
 10
12213.555210120219
 20
22099.758431713479
 30
0.0
  0
ENDBLK
  5
447F
  8
0
  0
BLOCK
  8
0
  2
_OPEN30
 70
     0
 10
0.0
 20
0.0
 30
0.0
  3
_OPEN30
  1

  0
LINE
  5
44D6
  8
FUTO
 62
     0
 10
-1.0
 20
0.26794919
 30
0.0
 11
0.0
 21
0.0
 31
0.0
  0
LINE
  5
44D7
  8
FUTO
 62
     0
 10
0.0
 20
0.0
 30
0.0
 11
-1.0
 21
-0.26794919
 31
0.0
  0
LINE
  5
44D8
  8
FUTO
 62
     0
 10
0.0
 20
0.0
 30
0.0
 11
-1.0
 21
0.0
 31
0.0
  0
ENDBLK
  5
44DA
  8
0
  0
BLOCK
  8
0
  2
*D13
 70
     1
 10
0.0
 20
0.0
 30
0.0
  3
*D13
  1

  0
LINE
  5
5581
  8
FUTO
 62
     2
 10
7498.463796914376
 20
25468.253387828481
 30
0.0
 11
7498.463796914376
 21
25571.816633371771
 31
0.0
  0
LINE
  5
5582
  8
FUTO
 62
     2
 10
9048.4637969143769
 20
23942.380810178882
 30
0.0
 11
9048.4637969143769
 21
25571.816633371771
 31
0.0
  0
LINE
  5
5583
  8
FUTO
 62
     2
 10
7558.4637969143751
 20
25541.816633371771
 30
0.0
 11
8988.4637969143769
 21
25541.816633371771
 31
0.0
  0
INSERT
  5
5584
  8
FUTO
 62
     2
  2
_OPEN30
 10
7498.463796914376
 20
25541.816633371771
 30
0.0
 41
60.0
 42
60.0
 43
60.0
 50
180.0
  0
INSERT
  5
5585
  8
FUTO
 62
     2
  2
_OPEN30
 10
9048.4637969143769
 20
25541.816633371771
 30
0.0
 41
60.0
 42
60.0
 43
60.0
  0
TEXT
  8
0
  40
90
  5
55C8
  62
2
  72
0
  71
0
 10
8093.46
 20
25442.5
 30
0.000000
  1
1550
  7
SUNPOU
  0
POINT
  5
5587
  8
DEFPOINTS
 62
     0
 10
7498.463796914376
 20
25438.253387828481
 30
0.0
  0
POINT
  5
5588
  8
DEFPOINTS
 62
     0
 10
9048.4637969143769
 20
23912.380810178882
 30
0.0
  0
POINT
  5
5589
  8
DEFPOINTS
 62
     0
 10
9048.4637969143769
 20
25541.816633371771
 30
0.0
  0
ENDBLK
  5
45B4
  8
0
  0
BLOCK
  8
0
  2
*D14
 70
     1
 10
0.0
 20
0.0
 30
0.0
  3
*D14
  1

  0
LINE
  5
558A
  8
FUTO
 62
     2
 10
6290.9437963348573
 20
24523.380810178882
 30
0.0
 11
6058.1578940745039
 21
24523.380810178882
 31
0.0
  0
LINE
  5
558B
  8
FUTO
 62
     2
 10
6718.4637969143769
 20
25157.380810178882
 30
0.0
 11
6058.1578940745039
 21
25157.380810178882
 31
0.0
  0
LINE
  5
558C
  8
FUTO
 62
     2
 10
6088.1578940745048
 20
24583.380810178882
 30
0.0
 11
6088.1578940745048
 21
25097.380810178882
 31
0.0
  0
INSERT
  5
558D
  8
FUTO
 62
     2
  2
_OPEN30
 10
6088.1578940745048
 20
24523.380810178882
 30
0.0
 41
60.0
 42
60.0
 43
60.0
 50
270.0
  0
INSERT
  5
558E
  8
FUTO
 62
     2
  2
_OPEN30
 10
6088.1578940745048
 20
25157.380810178882
 30
0.0
 41
60.0
 42
60.0
 43
60.0
 50
90.0
  0
TEXT
  8
0
  40
90
  5
55C9
  62
2
  72
0
  71
0
 10
5848.16
 20
24681.1
 30
0.000000
  1
634
  7
SUNPOU
  0
POINT
  5
5590
  8
DEFPOINTS
 62
     0
 10
6320.9437963348564
 20
24523.380810178882
 30
0.0
  0
POINT
  5
5591
  8
DEFPOINTS
 62
     0
 10
6748.463796914376
 20
25157.380810178882
 30
0.0
  0
POINT
  5
5592
  8
DEFPOINTS
 62
     0
 10
6088.1578940745048
 20
25157.380810178882
 30
0.0
  0
ENDBLK
  5
45C1
  8
0
  0
BLOCK
  8
0
  2
*D15
 70
     1
 10
0.0
 20
0.0
 30
0.0
  3
*D15
  1

  0
LINE
  5
5593
  8
FUTO
 62
     2
 10
7088.4637969143769
 20
22703.380810178882
 30
0.0
 11
6058.1578940745057
 21
22703.380810178882
 31
0.0
  0
LINE
  5
5594
  8
FUTO
 62
     2
 10
6088.1578940745048
 20
24463.380810178882
 30
0.0
 11
6088.1578940745048
 21
22763.380810178882
 31
0.0
  0
INSERT
  5
5595
  8
FUTO
 62
     2
  2
_OPEN30
 10
6088.1578940745048
 20
24523.380810178882
 30
0.0
 41
60.0
 42
60.0
 43
60.0
 50
90.0
  0
INSERT
  5
5596
  8
FUTO
 62
     2
  2
_OPEN30
 10
6088.1578940745048
 20
22703.380810178882
 30
0.0
 41
60.0
 42
60.0
 43
60.0
 50
270.0
  0
TEXT
  8
0
  40
90
  5
55CA
  62
2
  72
0
  71
0
 10
5848.16
 20
23454.1
 30
0.000000
  1
1820
  7
SUNPOU
  0
POINT
  5
5598
  8
DEFPOINTS
 62
     0
 10
6088.1578940745048
 20
24523.380810178882
 30
0.0
  0
POINT
  5
5599
  8
DEFPOINTS
 62
     0
 10
7118.463796914376
 20
22703.380810178882
 30
0.0
  0
POINT
  5
559A
  8
DEFPOINTS
 62
     0
 10
6088.1578940745048
 20
22703.380810178882
 30
0.0
  0
ENDBLK
  5
45CD
  8
0
  0
BLOCK
  8
0
  2
*D16
 70
     1
 10
0.0
 20
0.0
 30
0.0
  3
*D16
  1

  0
LINE
  5
559B
  8
FUTO
 62
     2
 10
7498.463796914376
 20
25468.253387828481
 30
0.0
 11
7498.463796914376
 21
25571.816633371771
 31
0.0
  0
LINE
  5
559C
  8
FUTO
 62
     2
 10
6568.463796914376
 20
25137.380810178882
 30
0.0
 11
6568.463796914376
 21
25571.816633371771
 31
0.0
  0
LINE
  5
559D
  8
FUTO
 62
     2
 10
7438.463796914376
 20
25541.816633371771
 30
0.0
 11
6628.4637969143778
 21
25541.816633371771
 31
0.0
  0
INSERT
  5
559E
  8
FUTO
 62
     2
  2
_OPEN30
 10
7498.463796914376
 20
25541.816633371771
 30
0.0
 41
60.0
 42
60.0
 43
60.0
  0
INSERT
  5
559F
  8
FUTO
 62
     2
  2
_OPEN30
 10
6568.463796914376
 20
25541.816633371771
 30
0.0
 41
60.0
 42
60.0
 43
60.0
 50
180.0
  0
TEXT
  8
0
  40
90
  5
55CB
  62
2
  72
0
  71
0
 10
6853.46
 20
25442.5
 30
0.000000
  1
930
  7
SUNPOU
  0
POINT
  5
55A1
  8
DEFPOINTS
 62
     0
 10
7498.463796914376
 20
25438.253387828481
 30
0.0
  0
POINT
  5
55A2
  8
DEFPOINTS
 62
     0
 10
6568.463796914376
 20
25107.380810178889
 30
0.0
  0
POINT
  5
55A3
  8
DEFPOINTS
 62
     0
 10
6568.463796914376
 20
25541.816633371771
 30
0.0
  0
ENDBLK
  5
471E
  8
0
  0
BLOCK
  8
0
  2
*D17
 70
     1
 10
0.0
 20
0.0
 30
0.0
  3
*D17
  1

  0
LINE
  5
55A4
  8
FUTO
 62
     2
 10
6618.463796914376
 20
19081.13567703333
 30
0.0
 11
5990.5719978626539
 21
19081.13567703333
 31
0.0
  0
LINE
  5
55A5
  8
FUTO
 62
     2
 10
6290.4598182670488
 20
20781.13567703333
 30
0.0
 11
5990.5719978626539
 21
20781.13567703333
 31
0.0
  0
LINE
  5
55A6
  8
FUTO
 62
     2
 10
6020.5719978626539
 20
19141.13567703333
 30
0.0
 11
6020.5719978626539
 21
20721.13567703333
 31
0.0
  0
INSERT
  5
55A7
  8
FUTO
 62
     2
  2
_OPEN30
 10
6020.5719978626539
 20
19081.13567703333
 30
0.0
 41
60.0
 42
60.0
 43
60.0
 50
270.0
  0
INSERT
  5
55A8
  8
FUTO
 62
     2
  2
_OPEN30
 10
6020.5719978626539
 20
20781.13567703333
 30
0.0
 41
60.0
 42
60.0
 43
60.0
 50
90.0
  0
TEXT
  8
0
  40
90
  5
55CC
  62
2
  72
0
  71
0
 10
5780.57
 20
19771.8
 30
0.000000
  1
1700
  7
SUNPOU
  0
POINT
  5
55AA
  8
DEFPOINTS
 62
     0
 10
6648.4637969143769
 20
19081.13567703333
 30
0.0
  0
POINT
  5
55AB
  8
DEFPOINTS
 62
     0
 10
6320.4598182670479
 20
20781.13567703333
 30
0.0
  0
POINT
  5
55AC
  8
DEFPOINTS
 62
     0
 10
6020.5719978626539
 20
20781.13567703333
 30
0.0
  0
ENDBLK
  5
4899
  8
0
  0
BLOCK
  8
0
  2
*D18
 70
     1
 10
0.0
 20
0.0
 30
0.0
  3
*D18
  1

  0
LINE
  5
55AD
  8
FUTO
 62
     2
 10
6290.4598182670488
 20
20781.13567703333
 30
0.0
 11
5990.5719978626548
 21
20781.13567703333
 31
0.0
  0
LINE
  5
55AE
  8
FUTO
 62
     2
 10
7361.3501940718052
 20
21784.13567703333
 30
0.0
 11
5990.5719978626548
 21
21784.13567703333
 31
0.0
  0
LINE
  5
55AF
  8
FUTO
 62
     2
 10
6020.5719978626548
 20
20841.13567703334
 30
0.0
 11
6020.5719978626548
 21
21724.13567703333
 31
0.0
  0
INSERT
  5
55B0
  8
FUTO
 62
     2
  2
_OPEN30
 10
6020.5719978626548
 20
20781.13567703333
 30
0.0
 41
60.0
 42
60.0
 43
60.0
 50
270.0
  0
INSERT
  5
55B1
  8
FUTO
 62
     2
  2
_OPEN30
 10
6020.5719978626548
 20
21784.13567703333
 30
0.0
 41
60.0
 42
60.0
 43
60.0
 50
90.0
  0
TEXT
  8
0
  40
90
  5
55CD
  62
2
  72
0
  71
0
 10
5780.57
 20
21123.3
 30
0.000000
  1
1003
  7
SUNPOU
  0
POINT
  5
55B3
  8
DEFPOINTS
 62
     0
 10
6320.4598182670479
 20
20781.13567703333
 30
0.0
  0
POINT
  5
55B4
  8
DEFPOINTS
 62
     0
 10
7391.3501940718043
 20
21784.13567703333
 30
0.0
  0
POINT
  5
55B5
  8
DEFPOINTS
 62
     0
 10
6020.5719978626548
 20
21784.13567703333
 30
0.0
  0
ENDBLK
  5
48A7
  8
0
  0
BLOCK
  8
0
  2
*D19
 70
     1
 10
0.0
 20
0.0
 30
0.0
  3
*D19
  1

  0
LINE
  5
55B6
  8
FUTO
 62
     2
 10
7498.463796914376
 20
21914.16561033138
 30
0.0
 11
7498.463796914376
 21
22115.011171423532
 31
0.0
  0
LINE
  5
55B7
  8
FUTO
 62
     2
 10
6568.463796914376
 20
20824.13567703333
 30
0.0
 11
6568.463796914376
 21
22115.011171423532
 31
0.0
  0
LINE
  5
55B8
  8
FUTO
 62
     2
 10
7438.463796914376
 20
22085.011171423532
 30
0.0
 11
6628.4637969143778
 21
22085.011171423532
 31
0.0
  0
INSERT
  5
55B9
  8
FUTO
 62
     2
  2
_OPEN30
 10
7498.463796914376
 20
22085.011171423532
 30
0.0
 41
60.0
 42
60.0
 43
60.0
  0
INSERT
  5
55BA
  8
FUTO
 62
     2
  2
_OPEN30
 10
6568.463796914376
 20
22085.011171423532
 30
0.0
 41
60.0
 42
60.0
 43
60.0
 50
180.0
  0
TEXT
  8
0
  40
90
  5
55CE
  62
2
  72
0
  71
0
 10
6853.46
 20
21985.7
 30
0.000000
  1
930
  7
SUNPOU
  0
POINT
  5
55BC
  8
DEFPOINTS
 62
     0
 10
7498.463796914376
 20
21884.16561033138
 30
0.0
  0
POINT
  5
55BD
  8
DEFPOINTS
 62
     0
 10
6568.463796914376
 20
20794.13567703333
 30
0.0
  0
POINT
  5
55BE
  8
DEFPOINTS
 62
     0
 10
6568.463796914376
 20
22085.011171423532
 30
0.0
  0
ENDBLK
  5
48B4
  8
0
  0
ENDSEC
  0
SECTION
  2
ENTITIES
  0
LINE
  5
42
  8
FUTO
 10
9991.5552101202265
 20
19081.13567703333
 30
0.0
 11
12191.555210120219
 21
19081.13567703334
 31
0.0
1001
ACAD
1000
ASC_BOUNDS
1002
{
1070
    19
1005
3975
1002
}
  0
LINE
  5
116
  8
FUTO
 10
10908.555210120219
 20
20826.13567703333
 30
0.0
 11
10970.055210120219
 21
20826.13567703333
 31
0.0
  0
LINE
  5
117
  8
FUTO
 10
10908.555210120219
 20
20736.13567703333
 30
0.0
 11
10971.35521012022
 21
20736.13567703333
 31
0.0
  0
LINE
  5
118
  8
FUTO
 10
9992.5552101202284
 20
19231.13567703333
 30
0.0
 11
12191.75521012022
 21
19231.13567703333
 31
0.0
  0
LINE
  5
119
  8
CT
 10
9708.7050766348493
 20
20781.13567703333
 30
0.0
 11
12306.88268809223
 21
20781.13567703333
 31
0.0
  0
ARC
  5
11C
  8
FUTO
 10
7600.4637969143769
 20
20679.13567703333
 30
0.0
 40
1125.0
 50
5.201961084891658
 51
95.201961084891551
  0
LINE
  5
14C
  8
SL
 10
9969.5552101202265
 20
20861.13567703333
 30
0.0
 11
9969.5552101202265
 21
20701.13567703333
 31
0.0
  0
LINE
  5
162
  8
CT
 10
10129.555210120219
 20
20899.639173993459
 30
0.0
 11
10129.555210120219
 21
20618.30504524662
 31
0.0
  0
LINE
  5
163
  8
CT
 10
7353.4637969143769
 20
20671.13567703333
 30
0.0
 11
7353.4637969143769
 21
20725.13567703333
 31
0.0
  0
ARC
  5
164
  8
FUTO
 10
7387.4637969143778
 20
20731.13567703333
 30
0.0
 40
16.0
 50
270.0
 51
0.000000000000007
  0
ARC
  5
165
  8
FUTO
 10
7498.4637969143778
 20
20781.13567703333
 30
0.0
 40
95.000000000000071
 50
209.9999999999994
 51
230.94387397238239
  0
ARC
  5
168
  8
FUTO
 10
7498.4637969143778
 20
20781.13567703333
 30
0.0
 40
94.999999999997485
 50
309.05612602761818
 51
330.00000000000108
  0
LINE
  5
169
  8
CT
 10
7643.463796914376
 20
20671.13567703333
 30
0.0
 11
7643.463796914376
 21
20725.13567703333
 31
0.0
  0
ARC
  5
16A
  8
FUTO
 10
7609.463796914376
 20
20731.13567703333
 30
0.0
 40
16.0
 50
180.0
 51
270.0
  0
LINE
  5
16B
  8
CT
 10
7498.463796914376
 20
20905.639173993459
 30
0.0
 11
7498.463796914376
 21
20663.89433787774
 31
0.0
  0
ARC
  5
178
  8
KL
 10
7583.963796914376
 20
20866.63567703333
 30
0.0
 40
917.5
 50
90.000000000000071
 51
180.0
  0
LINE
  5
17D
  8
FUTO
 10
9759.5552101202247
 20
21161.13567703333
 30
0.0
 11
9759.5552101202247
 21
19271.13567703333
 31
0.0
  0
LINE
  5
17E
  8
SL
 10
9869.5552101202265
 20
21031.13567703333
 30
0.0
 11
9869.5552101202265
 21
19385.13567703333
 31
0.0
  0
LINE
  5
17F
  8
SL
 10
9947.4552101202244
 20
21031.13567703333
 30
0.0
 11
9947.455210120228
 21
19385.13567703333
 31
0.0
  0
ARC
  5
180
  8
FUTO
 10
7396.4637969143787
 20
20679.13567703333
 30
0.0
 40
1329.0
 50
295.3074078808778
 51
307.91318572112198
  0
ARC
  5
183
  8
FUTO
 10
7498.463796914376
 20
20781.13567703333
 30
0.0
 40
380.0
 50
37.719539827013911
 51
228.14039886690389
  0
LINE
  5
184
  8
CT
 10
7498.463796914376
 20
21884.16561033138
 30
0.0
 11
7498.463796914376
 21
18863.337919245529
 31
0.0
  0
LINE
  5
185
  8
FUTO
 10
8338.4637969143769
 20
21528.24167748322
 30
0.0
 11
8338.4637969143769
 21
20316.18959120502
 31
0.0
  0
LINE
  5
186
  8
FUTO
 10
8329.4637969143769
 20
21535.981053982989
 30
0.0
 11
8329.4637969143769
 21
20327.826026641611
 31
0.0
  0
LINE
  5
187
  8
FUTO
 10
6658.4637969143787
 20
19231.13567703333
 30
0.0
 11
6658.4637969143751
 21
21016.154906565851
 31
0.0
  0
LINE
  5
188
  8
FUTO
 10
6667.4637969143787
 20
19231.13567703333
 30
0.0
 11
6667.4637969143751
 21
21063.952680862189
 31
0.0
  0
CIRCLE
  5
18B
  8
SL
 10
7498.463796914376
 20
20781.13567703333
 30
0.0
 40
250.0
  0
ARC
  5
18C
  8
KL
 10
7396.4637969143787
 20
20679.13567703333
 30
0.0
 40
1309.0
 50
275.15414040245679
 51
0.0000000000000635
  0
LINE
  5
19A
  8
CT
 10
10839.555210120219
 20
20899.639173993459
 30
0.0
 11
10839.555210120219
 21
20595.971513818178
 31
0.0
  0
LINE
  5
19B
  8
FUTO
 10
6648.4637969143769
 20
19081.13567703333
 30
0.0
 11
9048.4637969143769
 21
19081.13567703333
 31
0.0
1001
ACAD
1000
ASC_BOUNDS
1002
{
1070
    19
1005
0
1005
0
1005
0
1005
0
1005
0
1005
0
1005
0
1005
0
1005
0
1005
0
1005
0
1005
0
1005
0
1005
0
1005
0
1005
0
1005
0
1005
0
1005
0
1005
0
1005
0
1002
}
  0
DIMENSION
  5
276
  8
FUTO
  2
*D2
 10
9048.4637969143769
 20
18841.83581706831
 30
0.0
 11
8273.4637969143769
 21
18901.83581706831
 31
0.0
 70
     0
 13
7498.463796914376
 23
19054.053525989581
 33
0.0
 14
9048.4637969143769
 24
19006.13567703333
 34
0.0
 50
180.0
1001
ACAD
1000
DSTYLE
1002
{
1070
    40
1040
30.0
1070
   176
1070
     2
1070
   177
1070
     2
1070
   178
1070
     2
1070
   341
1005
44D5
1070
     5
1000
OPEN30
1002
}
  0
DIMENSION
  5
283
  8
FUTO
  2
*D3
 10
6648.4637969143769
 20
18658.918500084219
 30
0.0
 11
7848.4637969143769
 21
18718.918500084219
 31
0.0
 70
     0
 13
9048.4637969143769
 23
19081.13567703333
 33
0.0
 14
6648.4637969143769
 24
19081.13567703333
 34
0.0
 50
180.0
1001
ACAD
1000
DSTYLE
1002
{
1070
    40
1040
30.0
1070
   176
1070
     2
1070
   177
1070
     2
1070
   178
1070
     2
1070
   341
1005
44D5
1070
     5
1000
OPEN30
1002
}
  0
LINE
  5
293
  8
FUTO
 10
8438.4637969143769
 20
19305.629312450801
 30
0.0
 11
8385.2628638102324
 21
19305.629312450801
 31
0.0
  0
LINE
  5
294
  8
FUTO
 10
6648.4637969143769
 20
19231.13567703333
 30
0.0
 11
9048.4637969143769
 21
19231.13567703333
 31
0.0
  0
LINE
  5
2AC
  8
FUTO
 10
8438.4637969143769
 20
19231.13567703333
 30
0.0
 11
8438.4637969143769
 21
19322.316109375541
 31
0.0
  0
LINE
  5
2AD
  8
FUTO
 10
8438.4637969143769
 20
19231.13567703333
 30
0.0
 11
8448.4721328248161
 21
19291.13567703333
 31
0.0
  0
LINE
  5
2AE
  8
FUTO
 10
8958.4637969143787
 20
19231.13567703333
 30
0.0
 11
8958.4637969143787
 21
19322.316109375541
 31
0.0
  0
LINE
  5
2AF
  8
FUTO
 10
8958.4637969143787
 20
19231.13567703333
 30
0.0
 11
8948.4554610039377
 21
19291.13567703333
 31
0.0
  0
ARC
  5
2B0
  8
FUTO
 10
8698.4637969143787
 20
19491.13567703333
 30
0.0
 40
220.0
 50
228.14039886690381
 51
37.719539827013897
  0
LINE
  5
2B6
  8
FUTO
 10
9048.4637969143769
 20
19231.13567703333
 30
0.0
 11
9048.4637969143769
 21
19081.13567703333
 31
0.0
  0
LINE
  5
2BD
  8
CT
 10
8901.0189729143749
 20
19566.13567703333
 30
0.0
 11
8937.4523229143761
 21
19566.13567703333
 31
0.0
  0
LINE
  5
2BE
  8
FUTO
 10
8918.4637969143769
 20
19506.13567703333
 30
0.0
 11
8901.4103299143753
 21
19506.13567703333
 31
0.0
  0
LINE
  5
2BF
  8
FUTO
 10
8918.4637969143769
 20
19626.13567703333
 30
0.0
 11
8850.7374789143778
 21
19626.13567703333
 31
0.0
  0
ARC
  5
2C0
  8
FUTO
 10
8926.6637479143756
 20
19632.602230033332
 30
0.0
 40
8.1999940000000002
 50
107.30986
 51
180.0
  0
LINE
  5
2C1
  8
FUTO
 10
8948.4554610039377
 20
19291.13567703333
 30
0.0
 11
8781.8021164926267
 21
19291.13567703333
 31
0.0
  0
LINE
  5
2C2
  8
FUTO
 10
8896.9187695035107
 20
19305.629312450801
 30
0.0
 11
8931.7333212076301
 21
19305.629312450801
 31
0.0
  0
LINE
  5
2C3
  8
FUTO
 10
8918.7357699143759
 20
19492.493587033328
 30
0.0
 11
8929.134328914377
 21
19448.81951503333
 31
0.0
  0
LINE
  5
2C4
  8
FUTO
 10
9095.2563999143731
 20
19458.550228033338
 30
0.0
 11
9095.2563999143731
 21
19596.342708033331
 31
0.0
  0
LINE
  5
2C5
  8
FUTO
 10
8935.2563999143767
 20
19675.99749303333
 30
0.0
 11
9084.0063999143749
 21
19418.354915033331
 31
0.0
  0
LINE
  5
2C6
  8
FUTO
 10
8929.7137969143769
 20
19672.797542033339
 30
0.0
 11
9078.4637969143769
 21
19415.154964033329
 31
0.0
  0
LINE
  5
2C7
  8
FUTO
 10
8941.4637969143769
 20
19411.13567703333
 30
0.0
 11
9061.4637969143769
 21
19411.13567703333
 31
0.0
  0
LINE
  5
2C8
  8
FUTO
 10
8938.8623569143747
 20
19441.13567703333
 30
0.0
 11
9063.4637969143769
 21
19441.13567703333
 31
0.0
  0
ARC
  5
2C9
  8
FUTO
 10
9071.9886989143761
 20
19443.17034503333
 30
0.0
 40
2.0000450000000001
 50
107.313553
 51
209.99818400000001
  0
LINE
  5
2CA
  8
FUTO
 10
9089.4962679143755
 20
19450.721614033329
 30
0.0
 11
9071.393484914377
 21
19445.079769033331
 31
0.0
  0
LINE
  5
2CB
  8
FUTO
 10
9084.0063999143749
 20
19418.354915033331
 30
0.0
 11
9078.4637969143769
 21
19415.154964033329
 31
0.0
  0
LINE
  5
2CC
  8
FUTO
 10
9061.4637969143769
 20
19411.13567703333
 30
0.0
 11
9061.4637969143769
 21
19441.13567703333
 31
0.0
  0
ARC
  5
2CD
  8
FUTO
 10
9087.0563259143746
 20
19458.550228033338
 30
0.0
 40
8.2000299999999982
 50
287.31066900000002
 51
0.000000000000007
  0
LINE
  5
2CE
  8
FUTO
 10
8941.4637969143769
 20
19411.13567703333
 30
0.0
 11
8941.4637969143769
 21
19441.13567703333
 31
0.0
  0
LINE
  5
2CF
  8
FUTO
 10
8971.4637969143769
 20
19411.13567703333
 30
0.0
 11
8971.4637969143769
 21
19441.13567703333
 31
0.0
  0
LINE
  5
2D0
  8
FUTO
 10
8974.4637969143769
 20
19411.13567703333
 30
0.0
 11
8974.4637969143769
 21
19441.13567703333
 31
0.0
  0
ARC
  5
2D1
  8
FUTO
 10
8938.8623569143747
 20
19451.13567703333
 30
0.0
 40
9.9999559999999992
 50
193.392303
 51
270.0
  0
LINE
  5
2D2
  8
CT
 10
9001.4637969143769
 20
19455.218685033338
 30
0.0
 11
9001.4637969143769
 21
19402.997249033338
 31
0.0
  0
LINE
  5
2D3
  8
FUTO
 10
9031.4637969143787
 20
19411.13567703333
 30
0.0
 11
9031.4637969143787
 21
19441.13567703333
 31
0.0
  0
LINE
  5
2D4
  8
FUTO
 10
9028.4637969143787
 20
19411.13567703333
 30
0.0
 11
9028.4637969143787
 21
19441.13567703333
 31
0.0
  0
LINE
  5
2D5
  8
FUTO
 10
8958.4637969143787
 20
19305.629312450801
 30
0.0
 11
9011.6647300185214
 21
19305.629312450801
 31
0.0
  0
LINE
  5
2D6
  8
FUTO
 10
9011.6647300185214
 20
19313.085107879011
 30
0.0
 11
9020.5459701573345
 21
19313.085107879011
 31
0.0
  0
LINE
  5
2D7
  8
FUTO
 10
9011.6647300185214
 20
19298.883582965511
 30
0.0
 11
9011.6647300185214
 21
19313.085107879011
 31
0.0
  0
LINE
  5
2D8
  8
FUTO
 10
9020.9012210006949
 20
19298.883582965511
 30
0.0
 11
9011.6647300185214
 21
19298.883582965511
 31
0.0
  0
LINE
  5
2D9
  8
FUTO
 10
9020.9012210006949
 20
19312.730074907551
 30
0.0
 11
9020.9012210006949
 21
19298.883582965511
 31
0.0
  0
LINE
  5
2DA
  8
FUTO
 10
8931.7333212076301
 20
19322.316109375541
 30
0.0
 11
8931.7333212076301
 21
19291.13567703333
 31
0.0
  0
LINE
  5
2DB
  8
FUTO
 10
8958.4637969143787
 20
19322.316109375541
 30
0.0
 11
8931.7333212076301
 21
19322.316109375541
 31
0.0
  0
LINE
  5
2DC
  8
FUTO
 10
9074.8577179143758
 20
19650.016780033329
 30
0.0
 11
8950.2563999143731
 21
19650.016780033329
 31
0.0
  0
ARC
  5
2DD
  8
FUTO
 10
9074.8577179143758
 20
19640.016780033329
 30
0.0
 40
10.000075000000001
 50
13.392141000000001
 51
90.0
  0
ARC
  5
2DE
  8
FUTO
 10
9085.255666914376
 20
19596.342464033329
 30
0.0
 40
10.000731999999999
 50
0.0013990000000172
 51
13.392693
  0
LINE
  5
2DF
  8
FUTO
 10
9084.5858669143745
 20
19642.332943033329
 30
0.0
 11
9094.9844269143778
 21
19598.65887003333
 31
0.0
  0
LINE
  5
2E0
  8
FUTO
 10
8935.2563999143767
 20
19675.99749303333
 30
0.0
 11
8929.7137969143769
 21
19672.797542033339
 31
0.0
  0
ARC
  5
2E1
  8
FUTO
 10
8941.7314969143772
 20
19647.982112033329
 30
0.0
 40
2.000008999999999
 50
287.31021099999992
 51
29.999931000000021
  0
LINE
  5
2E2
  8
FUTO
 10
8942.3265899143771
 20
19646.072689033339
 30
0.0
 11
8924.2239289143763
 21
19640.430843033329
 31
0.0
  0
ARC
  5
2E3
  8
FUTO
 10
8928.4637969143769
 20
19494.809749033338
 30
0.0
 40
10.0
 50
180.0
 51
193.392303
  0
LINE
  5
2E4
  8
FUTO
 10
8918.4637969143769
 20
19494.809749033338
 30
0.0
 11
8918.4637969143769
 21
19632.602230033332
 31
0.0
  0
LINE
  5
2E5
  8
FUTO
 10
8692.2137969143787
 20
19704.782650033339
 30
0.0
 11
8692.2137969143787
 21
19754.88567703333
 31
0.0
  0
LINE
  5
2E6
  8
FUTO
 10
8704.7137969143769
 20
19704.782650033339
 30
0.0
 11
8704.7137969143769
 21
19754.88567703333
 31
0.0
  0
LINE
  5
2E7
  8
CT
 10
8698.4637969143787
 20
19767.454769033331
 30
0.0
 11
8698.4637969143787
 21
19287.430843033329
 31
0.0
  0
CIRCLE
  5
2E8
  8
FUTO
 10
8698.4637969143787
 20
19491.13567703333
 30
0.0
 40
40.0
  0
LINE
  5
2E9
  8
FUTO
 10
8753.201833914376
 20
19295.13567703333
 30
0.0
 11
8643.7257599143759
 21
19295.13567703333
 31
0.0
  0
LINE
  5
2EA
  8
CT
 10
8483.6246859143757
 20
19491.13567703333
 30
0.0
 11
8912.4548859143761
 21
19491.13567703333
 31
0.0
  0
LINE
  5
2EB
  8
CT
 10
8510.9637969143787
 20
19491.13567703333
 30
0.0
 11
8898.4987542605013
 21
19491.13567703333
 31
0.0
  0
CIRCLE
  5
2EC
  8
SL
 10
8698.4637969143787
 20
19491.13567703333
 30
0.0
 40
106.0
  0
LINE
  5
2ED
  8
FUTO
 10
8615.1254773361288
 20
19281.659332471729
 30
0.0
 11
8698.4765778019027
 21
19281.659332471729
 31
0.0
  0
ARC
  5
2EE
  8
FUTO
 10
8698.4637969143787
 20
19491.13567703333
 30
0.0
 40
203.5
 50
285.60376000000002
 51
254.3962709999999
  0
CIRCLE
  5
2EF
  8
FUTO
 10
8698.4637969143787
 20
19491.13567703333
 30
0.0
 40
7.5
  0
LINE
  5
2F0
  8
CT
 10
8698.4637969143787
 20
19278.63567703333
 30
0.0
 11
8698.4637969143787
 21
19694.258682383879
 31
0.0
  0
LINE
  5
2F1
  8
FUTO
 10
8849.3778599143752
 20
19354.61736603333
 30
0.0
 11
8854.1759549143735
 21
19350.582943033329
 31
0.0
  0
LINE
  5
2F2
  8
FUTO
 10
8850.9725859143764
 20
19348.667903033329
 30
0.0
 11
8847.3805449143765
 21
19352.259944033329
 31
0.0
  0
LINE
  5
2F3
  8
FUTO
 10
8850.9725859143764
 20
19347.819271033331
 30
0.0
 11
8850.9725859143764
 21
19348.667903033329
 31
0.0
  0
LINE
  5
2F4
  8
FUTO
 10
8848.6852329143767
 20
19346.38030603333
 30
0.0
 11
8849.5338649143741
 21
19346.38030603333
 31
0.0
  0
LINE
  5
2F5
  8
FUTO
 10
8848.6852329143767
 20
19346.38030603333
 30
0.0
 11
8848.6852329143767
 21
19345.531917033339
 31
0.0
  0
ARC
  5
2F6
  8
FUTO
 10
8850.958181914375
 20
19346.756038033331
 30
0.0
 40
5.0000339999999994
 50
316.563965
 51
49.941891000000027
  0
LINE
  5
2F7
  8
FUTO
 10
8840.9315709143757
 20
19338.62688803333
 30
0.0
 11
8837.3395299143776
 21
19342.21892903333
 31
0.0
  0
LINE
  5
2F8
  8
FUTO
 10
8840.9315709143757
 20
19338.62688803333
 30
0.0
 11
8841.7802029143768
 21
19338.62688803333
 31
0.0
  0
LINE
  5
2F9
  8
FUTO
 10
8843.2189239143754
 20
19340.91424103333
 30
0.0
 11
8843.2189239143754
 21
19340.065609033329
 31
0.0
  0
LINE
  5
2FA
  8
FUTO
 10
8843.2189239143754
 20
19340.91424103333
 30
0.0
 11
8839.6268829143773
 21
19344.50628203333
 31
0.0
  0
LINE
  5
2FB
  8
FUTO
 10
8843.2189239143754
 20
19340.91424103333
 30
0.0
 11
8844.0675569143732
 21
19340.91424103333
 31
0.0
  0
LINE
  5
2FC
  8
FUTO
 10
8847.3805449143765
 20
19352.259944033329
 30
0.0
 11
8837.3395299143776
 21
19342.21892903333
 31
0.0
  0
LINE
  5
2FD
  8
CT
 10
8846.9047149143771
 20
19342.694759033329
 30
0.0
 11
8841.6566679143762
 21
19347.94280603333
 31
0.0
  0
LINE
  5
2FE
  8
FUTO
 10
8850.9725859143764
 20
19347.819271033331
 30
0.0
 11
8841.7802029143768
 21
19338.62688803333
 31
0.0
  0
LINE
  5
2FF
  8
FUTO
 10
8848.6852329143767
 20
19346.38030603333
 30
0.0
 11
8845.0931919143786
 21
19349.972591033329
 31
0.0
  0
LINE
  5
300
  8
FUTO
 10
8824.6500759143746
 20
19311.13567703333
 30
0.0
 11
8820.1287139143751
 21
19328.010189033332
 31
0.0
  0
LINE
  5
301
  8
FUTO
 10
8820.1285919143775
 20
19328.010189033332
 30
0.0
 11
8824.6500759143746
 21
19311.13567703333
 31
0.0
  0
ARC
  5
302
  8
FUTO
 10
8826.2484649143753
 20
19324.489193033329
 30
0.0
 40
5.0
 50
195.00116
 51
307.48202500000008
  0
ARC
  5
303
  8
FUTO
 10
8698.4637969143787
 20
19491.13567703333
 30
0.0
 40
214.9999849999999
 50
307.48104899999998
 51
316.565674
  0
ARC
  5
304
  8
FUTO
 10
8810.9637969143769
 20
19308.13567703333
 30
0.0
 40
3.0
 50
90.0
 51
180.0
  0
LINE
  5
305
  8
FUTO
 10
8848.2137969143769
 20
19303.13567703333
 30
0.0
 11
8848.2137969143769
 21
19299.13567703333
 31
0.0
  0
LINE
  5
306
  8
FUTO
 10
8848.2137969143769
 20
19295.13567703333
 30
0.0
 11
8848.2137969143769
 21
19291.13567703333
 31
0.0
  0
LINE
  5
307
  8
FUTO
 10
8807.9637969143769
 20
19308.13567703333
 30
0.0
 11
8807.9637969143769
 21
19291.13567703333
 31
0.0
  0
LINE
  5
308
  8
FUTO
 10
8807.9637969143769
 20
19296.13567703333
 30
0.0
 11
8802.2887479143756
 21
19317.315853033331
 31
0.0
  0
LINE
  5
309
  8
CT
 10
8857.4637969143769
 20
19315.559505033329
 30
0.0
 11
8857.4637969143769
 21
19286.44378203333
 31
0.0
  0
LINE
  5
30A
  8
FUTO
 10
8848.2137969143769
 20
19311.13567703333
 30
0.0
 11
8848.2137969143769
 21
19307.13567703333
 31
0.0
  0
ARC
  5
30B
  8
FUTO
 10
8882.4637969143769
 20
19365.462337033328
 30
0.0
 40
5.0
 50
0.000000000000007
 51
55.056338999999987
  0
ARC
  5
30C
  8
FUTO
 10
8884.4637969143787
 20
19308.13567703333
 30
0.0
 40
3.0
 50
0.000000000000007
 51
90.0
  0
LINE
  5
30D
  8
FUTO
 10
8866.7137969143769
 20
19303.13567703333
 30
0.0
 11
8866.7137969143769
 21
19299.13567703333
 31
0.0
  0
LINE
  5
30E
  8
FUTO
 10
8866.7137969143769
 20
19295.13567703333
 30
0.0
 11
8866.7137969143769
 21
19291.13567703333
 31
0.0
  0
LINE
  5
30F
  8
FUTO
 10
8866.7137969143769
 20
19311.13567703333
 30
0.0
 11
8866.7137969143769
 21
19307.13567703333
 31
0.0
  0
LINE
  5
310
  8
FUTO
 10
8887.4637969143787
 20
19365.462337033328
 30
0.0
 11
8887.4637969143787
 21
19291.13567703333
 31
0.0
  0
LINE
  5
311
  8
FUTO
 10
8887.4637969143787
 20
19291.13567703333
 30
0.0
 11
8807.9637969143769
 21
19291.13567703333
 31
0.0
  0
LINE
  5
312
  8
FUTO
 10
8810.9637969143769
 20
19311.13567703333
 30
0.0
 11
8884.4637969143787
 21
19311.13567703333
 31
0.0
  0
LINE
  5
313
  8
FUTO
 10
8885.3276889143781
 20
19369.56097003333
 30
0.0
 11
8869.3898229143761
 21
19380.697444033329
 31
0.0
  0
LINE
  5
314
  8
FUTO
 10
8781.8021164926267
 20
19291.13567703333
 30
0.0
 11
8781.8021164926267
 21
19281.659332471729
 31
0.0
  0
LINE
  5
315
  8
FUTO
 10
8781.8021164926267
 20
19281.659332471729
 30
0.0
 11
8698.451016026851
 21
19281.659332471729
 31
0.0
  0
LINE
  5
316
  8
FUTO
 10
8841.7802029143768
 20
19643.644466033329
 30
0.0
 11
8840.9316929143752
 21
19643.644466033329
 31
0.0
  0
LINE
  5
317
  8
FUTO
 10
8843.2190459143749
 20
19641.357112033329
 30
0.0
 11
8843.2190459143749
 21
19642.20574503333
 31
0.0
  0
LINE
  5
318
  8
FUTO
 10
8843.2190459143749
 20
19641.357112033329
 30
0.0
 11
8844.0675569143732
 21
19641.357112033329
 31
0.0
  0
LINE
  5
319
  8
FUTO
 10
8840.9316929143752
 20
19643.644466033329
 30
0.0
 11
8837.3395299143776
 21
19640.052425033329
 31
0.0
  0
LINE
  5
31A
  8
FUTO
 10
8850.9725859143764
 20
19633.60345003333
 30
0.0
 11
8850.9725859143764
 21
19634.452083033331
 31
0.0
  0
LINE
  5
31B
  8
FUTO
 10
8848.6852329143767
 20
19635.89080403333
 30
0.0
 11
8849.5338649143741
 21
19635.89080403333
 31
0.0
  0
LINE
  5
31C
  8
FUTO
 10
8848.6852329143767
 20
19635.89080403333
 30
0.0
 11
8848.6852329143767
 21
19636.739437033331
 31
0.0
  0
LINE
  5
31D
  8
FUTO
 10
8848.6852329143767
 20
19635.89080403333
 30
0.0
 11
8845.0931919143786
 21
19632.29876303333
 31
0.0
  0
LINE
  5
31E
  8
FUTO
 10
8843.2190459143749
 20
19641.357112033329
 30
0.0
 11
8839.6268829143773
 21
19637.765071033329
 31
0.0
  0
LINE
  5
31F
  8
FUTO
 10
8846.9048369143748
 20
19639.57659503333
 30
0.0
 11
8841.6566679143762
 21
19634.328548033329
 31
0.0
  0
LINE
  5
320
  8
FUTO
 10
8841.7802029143768
 20
19643.644466033329
 30
0.0
 11
8850.9725859143764
 21
19634.452083033331
 31
0.0
  0
LINE
  5
321
  8
FUTO
 10
8908.4637969143769
 20
19506.13567703333
 30
0.0
 11
8908.4637969143769
 21
19626.13567703333
 31
0.0
  0
LINE
  5
322
  8
FUTO
 10
8850.9725859143764
 20
19633.60345003333
 30
0.0
 11
8847.3805449143765
 21
19630.01140903333
 31
0.0
  0
LINE
  5
323
  8
FUTO
 10
8837.3395299143776
 20
19640.052425033329
 30
0.0
 11
8847.3805449143765
 21
19630.01140903333
 31
0.0
  0
ARC
  5
324
  8
FUTO
 10
8711.4637969143787
 20
19710.32561803333
 30
0.0
 40
2.0
 50
0.000000000000007
 51
84.289063000000013
  0
LINE
  5
325
  8
FUTO
 10
8704.9208889143774
 20
19712.989925033329
 30
0.0
 11
8711.6628329143768
 21
19712.315853033338
 31
0.0
  0
ARC
  5
326
  8
FUTO
 10
8685.4637969143769
 20
19710.32561803333
 30
0.0
 40
2.0001619999999991
 50
95.710937999999985
 51
180.0
  0
LINE
  5
327
  8
FUTO
 10
8692.3636989143743
 20
19713.025569033329
 30
0.0
 11
8685.2647609143769
 21
19712.315853033338
 31
0.0
  0
ARC
  5
328
  8
FUTO
 10
8698.4637969143787
 20
19491.13567703333
 30
0.0
 40
210.0001069999999
 50
86.232985999999997
 51
86.266968000000006
  0
ARC
  5
329
  8
FUTO
 10
8712.0635289143756
 20
19697.68841103333
 30
0.0
 40
2.999933
 50
357.44390900000002
 51
86.232291999999973
  0
ARC
  5
32A
  8
FUTO
 10
8711.9410919143775
 20
19697.696468033329
 30
0.0
 40
3.0000169999999988
 50
86.267189000000045
 51
175.056107
  0
LINE
  5
32B
  8
FUTO
 10
8715.0604769143756
 20
19697.554622033331
 30
0.0
 11
8714.9005649143764
 21
19693.970882033329
 31
0.0
  0
LINE
  5
32C
  8
FUTO
 10
8708.9521999143763
 20
19697.955013033341
 30
0.0
 11
8708.6431179143765
 21
19694.381038033331
 31
0.0
  0
LINE
  5
32D
  8
FUTO
 10
8687.9755159143751
 20
19697.955013033341
 30
0.0
 11
8688.2845979143749
 21
19694.381038033331
 31
0.0
  0
ARC
  5
32E
  8
FUTO
 10
8698.4637969143787
 20
19491.13567703333
 30
0.0
 40
210.0
 50
93.732971000000006
 51
93.766974999999974
  0
ARC
  5
32F
  8
FUTO
 10
8684.8641879143761
 20
19697.68841103333
 30
0.0
 40
3.0001370000000001
 50
93.767708000000013
 51
182.555984
  0
LINE
  5
330
  8
FUTO
 10
8681.8671169143727
 20
19697.554622033331
 30
0.0
 11
8682.0271519143753
 21
19693.970882033329
 31
0.0
  0
ARC
  5
331
  8
FUTO
 10
8684.9866239143757
 20
19697.696468033329
 30
0.0
 40
3.000052999999999
 50
4.9438900000000174
 51
93.732811000000027
  0
LINE
  5
332
  8
FUTO
 10
8685.9637969143769
 20
19701.13567703333
 30
0.0
 11
8710.9637969143769
 21
19701.13567703333
 31
0.0
  0
LINE
  5
333
  8
FUTO
 10
8683.4637969143769
 20
19701.13567703333
 30
0.0
 11
8713.4637969143769
 21
19701.13567703333
 31
0.0
  0
LINE
  5
334
  8
FUTO
 10
8683.4637969143769
 20
19701.13567703333
 30
0.0
 11
8683.4637969143769
 21
19710.32561803333
 31
0.0
  0
LINE
  5
335
  8
FUTO
 10
8713.4637969143769
 20
19701.13567703333
 30
0.0
 11
8713.4637969143769
 21
19710.32561803333
 31
0.0
  0
ARC
  5
336
  8
FUTO
 10
8690.2137969143769
 20
19704.782650033339
 30
0.0
 40
2.0
 50
270.0
 51
0.000000000000007
  0
ARC
  5
337
  8
FUTO
 10
8706.7137969143769
 20
19704.782650033339
 30
0.0
 40
2.0
 50
180.0
 51
270.0
  0
LINE
  5
338
  8
FUTO
 10
8509.4637969143787
 20
19291.13567703333
 30
0.0
 11
8588.9637969143769
 21
19291.13567703333
 31
0.0
  0
LINE
  5
339
  8
FUTO
 10
8585.9637969143769
 20
19311.13567703333
 30
0.0
 11
8512.4637969143787
 21
19311.13567703333
 31
0.0
  0
LINE
  5
33A
  8
FUTO
 10
8559.5880649143764
 20
19342.21892903333
 30
0.0
 11
8549.5470489143772
 21
19352.259944033329
 31
0.0
  0
LINE
  5
33B
  8
FUTO
 10
8555.9960239143766
 20
19338.62688803333
 30
0.0
 11
8559.5880649143764
 21
19342.21892903333
 31
0.0
  0
ARC
  5
33C
  8
FUTO
 10
8698.4637969143787
 20
19491.13567703333
 30
0.0
 40
214.9999849999999
 50
223.43432599999991
 51
232.51896699999989
  0
LINE
  5
33D
  8
FUTO
 10
8448.4721328248161
 20
19291.13567703333
 30
0.0
 11
8615.1254773361288
 21
19291.13567703333
 31
0.0
  0
LINE
  5
33E
  8
FUTO
 10
8536.4637969143769
 20
19291.13567703333
 30
0.0
 11
8596.4637969143769
 21
19291.13567703333
 31
0.0
  0
LINE
  5
33F
  8
FUTO
 10
8576.7990019143763
 20
19328.010189033332
 30
0.0
 11
8572.2775179143755
 21
19311.13567703333
 31
0.0
  0
ARC
  5
340
  8
FUTO
 10
8570.6791289143766
 20
19324.489193033329
 30
0.0
 40
5.0
 50
232.51852400000001
 51
344.99902300000002
  0
ARC
  5
341
  8
FUTO
 10
8585.9637969143769
 20
19308.13567703333
 30
0.0
 40
3.0
 50
0.000000000000007
 51
90.0
  0
LINE
  5
342
  8
FUTO
 10
8588.9637969143769
 20
19308.13567703333
 30
0.0
 11
8588.9637969143769
 21
19291.13567703333
 31
0.0
  0
LINE
  5
343
  8
FUTO
 10
8588.9637969143769
 20
19296.13567703333
 30
0.0
 11
8594.6390899143771
 21
19317.315853033331
 31
0.0
  0
LINE
  5
344
  8
FUTO
 10
8615.1254773361288
 20
19291.13567703333
 30
0.0
 11
8615.1254773361288
 21
19281.659332471729
 31
0.0
  0
LINE
  5
345
  8
FUTO
 10
8530.2137969143769
 20
19303.13567703333
 30
0.0
 11
8530.2137969143769
 21
19299.13567703333
 31
0.0
  0
LINE
  5
346
  8
FUTO
 10
8530.2137969143769
 20
19295.13567703333
 30
0.0
 11
8530.2137969143769
 21
19291.13567703333
 31
0.0
  0
LINE
  5
347
  8
FUTO
 10
8530.2137969143769
 20
19311.13567703333
 30
0.0
 11
8530.2137969143769
 21
19307.13567703333
 31
0.0
  0
ARC
  5
348
  8
FUTO
 10
8514.4637969143769
 20
19365.462337033328
 30
0.0
 40
5.0000669999999987
 50
124.943665
 51
180.0
  0
ARC
  5
349
  8
FUTO
 10
8512.4637969143787
 20
19308.13567703333
 30
0.0
 40
3.0
 50
90.0
 51
180.0
  0
LINE
  5
34A
  8
FUTO
 10
8509.4637969143787
 20
19365.462337033328
 30
0.0
 11
8509.4637969143787
 21
19291.13567703333
 31
0.0
  0
LINE
  5
34B
  8
FUTO
 10
8545.9550079143773
 20
19348.667903033329
 30
0.0
 11
8549.5470489143772
 21
19352.259944033329
 31
0.0
  0
LINE
  5
34C
  8
FUTO
 10
8545.9550079143773
 20
19348.667903033329
 30
0.0
 11
8545.9550079143773
 21
19347.819271033331
 31
0.0
  0
LINE
  5
34D
  8
FUTO
 10
8548.2423619143774
 20
19346.380550033329
 30
0.0
 11
8547.3937289143778
 21
19346.380550033329
 31
0.0
  0
LINE
  5
34E
  8
FUTO
 10
8548.2423619143774
 20
19346.380550033329
 30
0.0
 11
8551.8344029143773
 21
19349.972591033329
 31
0.0
  0
LINE
  5
34F
  8
FUTO
 10
8548.2423619143774
 20
19346.380550033329
 30
0.0
 11
8548.2423619143774
 21
19345.531917033339
 31
0.0
  0
LINE
  5
350
  8
FUTO
 10
8547.5499789143778
 20
19354.61736603333
 30
0.0
 11
8542.7517609143742
 21
19350.582943033329
 31
0.0
  0
LINE
  5
351
  8
FUTO
 10
8555.1473909143751
 20
19338.62688803333
 30
0.0
 11
8555.9960239143766
 21
19338.62688803333
 31
0.0
  0
LINE
  5
352
  8
FUTO
 10
8553.7084259143758
 20
19340.91424103333
 30
0.0
 11
8553.7084259143758
 21
19340.065609033329
 31
0.0
  0
LINE
  5
353
  8
FUTO
 10
8553.7084259143758
 20
19340.91424103333
 30
0.0
 11
8557.3007109143746
 21
19344.50628203333
 31
0.0
  0
LINE
  5
354
  8
FUTO
 10
8553.7084259143758
 20
19340.91424103333
 30
0.0
 11
8552.8600369143733
 21
19340.91424103333
 31
0.0
  0
ARC
  5
355
  8
FUTO
 10
8545.9696559143758
 20
19346.756038033331
 30
0.0
 40
5.0000049999999998
 50
130.05917400000001
 51
223.43505899999991
  0
LINE
  5
356
  8
CT
 10
8550.0228789143766
 20
19342.694759033329
 30
0.0
 11
8555.2709259143758
 21
19347.94280603333
 31
0.0
  0
LINE
  5
357
  8
FUTO
 10
8555.1473909143751
 20
19338.62688803333
 30
0.0
 11
8545.9550079143773
 21
19347.819271033331
 31
0.0
  0
LINE
  5
358
  8
FUTO
 10
8548.7137969143769
 20
19303.13567703333
 30
0.0
 11
8548.7137969143769
 21
19299.13567703333
 31
0.0
  0
LINE
  5
359
  8
FUTO
 10
8548.7137969143769
 20
19295.13567703333
 30
0.0
 11
8548.7137969143769
 21
19291.13567703333
 31
0.0
  0
LINE
  5
35A
  8
CT
 10
8539.4637969143769
 20
19315.559505033329
 30
0.0
 11
8539.4637969143769
 21
19286.44378203333
 31
0.0
  0
LINE
  5
35B
  8
FUTO
 10
8548.7137969143769
 20
19311.13567703333
 30
0.0
 11
8548.7137969143769
 21
19307.13567703333
 31
0.0
  0
LINE
  5
35C
  8
FUTO
 10
8438.4637969143769
 20
19322.316109375541
 30
0.0
 11
8465.1942726211237
 21
19322.316109375541
 31
0.0
  0
LINE
  5
35D
  8
FUTO
 10
8500.008824325243
 20
19305.629312450801
 30
0.0
 11
8465.1942726211237
 21
19305.629312450801
 31
0.0
  0
LINE
  5
35E
  8
FUTO
 10
8465.1942726211237
 20
19322.316109375541
 30
0.0
 11
8465.1942726211237
 21
19291.13567703333
 31
0.0
  0
LINE
  5
35F
  8
FUTO
 10
8511.6000279143773
 20
19369.56097003333
 30
0.0
 11
8527.5378939143775
 21
19380.697444033329
 31
0.0
  0
LINE
  5
360
  8
FUTO
 10
8555.9960239143766
 20
19643.644466033329
 30
0.0
 11
8559.5880649143764
 21
19640.052425033329
 31
0.0
  0
LINE
  5
361
  8
FUTO
 10
8549.5470489143772
 20
19630.01140903333
 30
0.0
 11
8559.5880649143764
 21
19640.052425033329
 31
0.0
  0
ARC
  5
362
  8
FUTO
 10
8698.4637969143787
 20
19491.13567703333
 30
0.0
 40
210.00004599999991
 50
131.23298600000001
 51
131.26696799999991
  0
ARC
  5
363
  8
FUTO
 10
8561.933156914376
 20
19646.726009033329
 30
0.0
 40
2.9999169999999991
 50
131.26663199999999
 51
220.05661000000001
  0
ARC
  5
364
  8
FUTO
 10
8562.0253209143757
 20
19646.807064033332
 30
0.0
 40
2.999909999999999
 50
42.440556000000022
 51
131.23197899999991
  0
LINE
  5
365
  8
FUTO
 10
8559.6368929143737
 20
19644.79534503333
 30
0.0
 11
8561.9456089143769
 21
19642.04949503333
 31
0.0
  0
LINE
  5
366
  8
FUTO
 10
8564.2391879143761
 20
19648.831478033338
 30
0.0
 11
8566.6603299143753
 21
19646.18426103333
 31
0.0
  0
LINE
  5
367
  8
FUTO
 10
8555.9960239143766
 20
19643.644466033329
 30
0.0
 11
8555.1473909143751
 21
19643.644466033329
 31
0.0
  0
LINE
  5
368
  8
FUTO
 10
8553.7086699143765
 20
19641.357112033329
 30
0.0
 11
8553.7086699143765
 21
19642.20574503333
 31
0.0
  0
LINE
  5
369
  8
FUTO
 10
8553.7086699143765
 20
19641.357112033329
 30
0.0
 11
8552.8600369143733
 21
19641.357112033329
 31
0.0
  0
LINE
  5
36A
  8
FUTO
 10
8545.9550079143773
 20
19634.452083033331
 30
0.0
 11
8545.9550079143773
 21
19633.60345003333
 31
0.0
  0
LINE
  5
36B
  8
FUTO
 10
8548.2423619143774
 20
19635.891048033329
 30
0.0
 11
8547.3937289143778
 21
19635.891048033329
 31
0.0
  0
LINE
  5
36C
  8
FUTO
 10
8548.2423619143774
 20
19635.891048033329
 30
0.0
 11
8551.8344029143773
 21
19632.29876303333
 31
0.0
  0
LINE
  5
36D
  8
FUTO
 10
8548.2423619143774
 20
19635.891048033329
 30
0.0
 11
8548.2423619143774
 21
19636.739437033331
 31
0.0
  0
LINE
  5
36E
  8
FUTO
 10
8550.0228789143766
 20
19639.57659503333
 30
0.0
 11
8555.2709259143758
 21
19634.328548033329
 31
0.0
  0
LINE
  5
36F
  8
FUTO
 10
8545.9550079143773
 20
19634.452083033331
 30
0.0
 11
8555.1473909143751
 21
19643.644466033329
 31
0.0
  0
LINE
  5
370
  8
FUTO
 10
8553.7086699143765
 20
19641.357112033329
 30
0.0
 11
8557.3007109143746
 21
19637.765071033329
 31
0.0
  0
ARC
  5
371
  8
FUTO
 10
8698.4637969143787
 20
19491.13567703333
 30
0.0
 40
210.0
 50
138.73297099999991
 51
138.76696799999991
  0
ARC
  5
372
  8
FUTO
 10
8542.8734649143771
 20
19627.666439033339
 30
0.0
 40
2.9999560000000001
 50
49.941890999999998
 51
138.7316129999999
  0
LINE
  5
373
  8
FUTO
 10
8540.7679959143752
 20
19625.36028603333
 30
0.0
 11
8543.4153349143762
 21
19622.93938803333
 31
0.0
  0
ARC
  5
374
  8
FUTO
 10
8542.7926549143776
 20
19627.574153033329
 30
0.0
 40
2.9999500000000001
 50
138.768021
 51
227.55600000000001
  0
LINE
  5
375
  8
FUTO
 10
8544.8041289143766
 20
19629.962581033331
 30
0.0
 11
8547.5499789143778
 21
19627.653987033329
 31
0.0
  0
LINE
  5
376
  8
FUTO
 10
8545.9550079143773
 20
19633.60345003333
 30
0.0
 11
8549.5470489143772
 21
19630.01140903333
 31
0.0
  0
ARC
  5
377
  8
FUTO
 10
8698.4637969143787
 20
19754.88567703333
 30
0.0
 40
6.25
 50
90.0
 51
180.0
  0
ARC
  5
378
  8
FUTO
 10
8698.4637969143787
 20
19754.88567703333
 30
0.0
 40
6.25
 50
0.000000000000007
 51
90.0
  0
ARC
  5
396
  8
KL
 10
7600.4637969143769
 20
20679.13567703333
 30
0.0
 40
1105.0
 50
0.0000000000000635
 51
90.855579635430288
  0
ARC
  5
397
  8
FUTO
 10
7498.463796914376
 20
20781.13567703333
 30
0.0
 40
95.000000000003084
 50
249.05612602761781
 51
270.0
  0
LINE
  5
398
  8
FUTO
 10
7408.4637969143769
 20
20684.13567703333
 30
0.0
 11
7498.463796914376
 21
20684.13567703333
 31
0.0
  0
LINE
  5
399
  8
KL
 10
7196.9302973108006
 20
20675.13567703333
 30
0.0
 11
7498.463796914376
 21
20675.13567703333
 31
0.0
  0
LINE
  5
39A
  8
FUTO
 10
7298.463796914376
 20
20681.13567703333
 30
0.0
 11
7698.463796914376
 21
20681.13567703333
 31
0.0
  0
DIMENSION
  5
39B
  8
FUTO
  2
*D4
 10
6648.4637969143769
 20
18841.83581706831
 30
0.0
 11
7073.4637969143778
 21
18901.83581706831
 31
0.0
 70
     0
 13
7498.463796914376
 23
19054.053525989581
 33
0.0
 14
6648.4637969143769
 24
19006.13567703333
 34
0.0
 50
180.0
1001
ACAD
1000
DSTYLE
1002
{
1070
    40
1040
30.0
1070
   176
1070
     2
1070
   177
1070
     2
1070
   178
1070
     2
1070
   341
1005
44D5
1070
     5
1000
OPEN30
1002
}
  0
LINE
  5
3B5
  8
FUTO
 10
8376.0263728280588
 20
19312.730074907551
 30
0.0
 11
8376.0263728280588
 21
19298.883582965511
 31
0.0
  0
LINE
  5
3B6
  8
FUTO
 10
8376.0263728280588
 20
19298.883582965511
 30
0.0
 11
8385.2628638102324
 21
19298.883582965511
 31
0.0
  0
LINE
  5
3B7
  8
FUTO
 10
8385.2628638102324
 20
19298.883582965511
 30
0.0
 11
8385.2628638102324
 21
19313.085107879011
 31
0.0
  0
LINE
  5
3B8
  8
FUTO
 10
8385.2628638102324
 20
19313.085107879011
 30
0.0
 11
8376.3816236714174
 21
19313.085107879011
 31
0.0
  0
LINE
  5
3BA
  8
KL
 10
7799.9972965179522
 20
20675.13567703333
 30
0.0
 11
7498.463796914376
 21
20675.13567703333
 31
0.0
  0
LINE
  5
3BD
  8
FUTO
 10
7678.463796914376
 20
20681.13567703333
 30
0.0
 11
7588.4637969143769
 21
20681.13567703333
 31
0.0
  0
LINE
  5
3BF
  8
FUTO
 10
7698.463796914376
 20
20681.13567703333
 30
0.0
 11
7698.463796914376
 21
20675.13567703333
 31
0.0
  0
ARC
  5
3C0
  8
FUTO
 10
7675.4637969143751
 20
20712.13567703333
 30
0.0
 40
2.9999999999999991
 50
0.000000000000007
 51
90.0
  0
LINE
  5
3C1
  8
FUTO
 10
7678.463796914376
 20
20712.13567703333
 30
0.0
 11
7678.463796914376
 21
20681.13567703333
 31
0.0
  0
LINE
  5
3C2
  8
FUTO
 10
7609.463796914376
 20
20715.13567703333
 30
0.0
 11
7675.4637969143751
 21
20715.13567703333
 31
0.0
  0
ARC
  5
3C3
  8
FUTO
 10
7498.4637969143778
 20
20781.13567703333
 30
0.0
 40
94.999999999998295
 50
270.0
 51
290.94387397238302
  0
LINE
  5
3C4
  8
FUTO
 10
7588.4637969143769
 20
20681.13567703333
 30
0.0
 11
7588.4637969143769
 21
20684.13567703333
 31
0.0
  0
ARC
  5
3C5
  8
FUTO
 10
7545.9637969143778
 20
20698.863263673811
 30
0.0
 40
14.999999999999909
 50
300.0000000000008
 51
34.528063013809827
  0
LINE
  5
3C6
  8
FUTO
 10
7588.4637969143769
 20
20684.13567703333
 30
0.0
 11
7498.463796914376
 21
20684.13567703333
 31
0.0
  0
ARC
  5
3C7
  8
FUTO
 10
7545.9637969143778
 20
20698.863263673811
 30
0.0
 40
15.000000000000419
 50
205.4719369861869
 51
300.00000000000011
  0
LINE
  5
3D0
  8
FUTO
 10
6998.463796914376
 20
19231.13567703333
 30
0.0
 11
6998.463796914376
 21
19081.13567703333
 31
0.0
  0
POINT
  5
3D6
  8
DEFPOINTS
  6
BYBLOCK
 62
     0
 10
6648.4637969143769
 20
19081.13567703333
 30
0.0
  0
POINT
  5
3D7
  8
DEFPOINTS
  6
BYBLOCK
 62
     0
 10
6648.4637969143769
 20
19061.13567703333
 30
0.0
  0
POINT
  5
3D8
  8
DEFPOINTS
  6
BYBLOCK
 62
     0
 10
6648.4637969143769
 20
19061.13567703333
 30
0.0
  0
LINE
  5
3D9
  8
FUTO
 10
6648.4637969143769
 20
19231.13567703333
 30
0.0
 11
6648.4637969143769
 21
19081.13567703333
 31
0.0
  0
LINE
  5
3DD
  8
FUTO
 10
7387.4637969143778
 20
20715.13567703333
 30
0.0
 11
7321.463796914376
 21
20715.13567703333
 31
0.0
  0
LINE
  5
3DE
  8
FUTO
 10
7318.463796914376
 20
20681.13567703333
 30
0.0
 11
7408.4637969143769
 21
20681.13567703333
 31
0.0
  0
LINE
  5
3E0
  8
FUTO
 10
7408.4637969143769
 20
20681.13567703333
 30
0.0
 11
7408.4637969143769
 21
20684.13567703333
 31
0.0
  0
ARC
  5
3E1
  8
FUTO
 10
7450.963796914376
 20
20698.863263673811
 30
0.0
 40
14.99999999999998
 50
145.47193698619191
 51
240.0000000000006
  0
ARC
  5
3E2
  8
FUTO
 10
7450.963796914376
 20
20698.863263673811
 30
0.0
 40
14.99999999999978
 50
239.99999999999989
 51
334.52806301381321
  0
LINE
  5
3E3
  8
FUTO
 10
7298.463796914376
 20
20681.13567703333
 30
0.0
 11
7298.463796914376
 21
20675.13567703333
 31
0.0
  0
ARC
  5
3E5
  8
FUTO
 10
7321.463796914376
 20
20712.13567703333
 30
0.0
 40
2.9999999999999991
 50
90.0
 51
180.0
  0
LINE
  5
3E6
  8
FUTO
 10
7318.463796914376
 20
20712.13567703333
 30
0.0
 11
7318.463796914376
 21
20681.13567703333
 31
0.0
  0
LINE
  5
405
  8
SL
 10
9947.4552101202244
 20
20701.13567703333
 30
0.0
 11
9969.5552101202265
 21
20701.13567703333
 31
0.0
  0
LINE
  5
406
  8
CT
 10
9722.5984805995104
 20
19491.13567703333
 30
0.0
 11
10025.417163710959
 21
19491.13567703333
 31
0.0
  0
LINE
  5
407
  8
FUTO
 10
9759.5552101202247
 20
19271.13567703333
 30
0.0
 11
10014.555210120219
 21
19271.13567703333
 31
0.0
  0
LINE
  5
408
  8
SL
 10
9947.4552101202244
 20
19431.13567703333
 30
0.0
 11
9962.5552101202284
 21
19431.13567703333
 31
0.0
  0
LINE
  5
409
  8
SL
 10
9947.4552101202244
 20
19551.13567703333
 30
0.0
 11
9962.5552101202284
 21
19551.13567703333
 31
0.0
  0
LINE
  5
40E
  8
SL
 10
9869.5552101202265
 20
19385.13567703333
 30
0.0
 11
9947.4552101202244
 21
19385.13567703333
 31
0.0
  0
LINE
  5
40F
  8
SL
 10
9869.5552101202265
 20
19597.13567703333
 30
0.0
 11
9947.4552101202244
 21
19597.13567703333
 31
0.0
  0
LINE
  5
410
  8
SL
 10
9869.5552101202247
 20
20531.13567703333
 30
0.0
 11
9947.4552101202244
 21
20531.13567703333
 31
0.0
  0
LINE
  5
415
  8
CT
 10
10026.555210120219
 20
19101.027853632331
 30
0.0
 11
10026.555210120219
 21
19044.24418369056
 31
0.0
1001
ACAD
1000
ASC_BOUNDS
1002
{
1070
    19
1005
0
1005
3975
1005
3975
1002
}
  0
LINE
  5
41A
  8
SL
 10
9962.5552101202284
 20
19551.13567703333
 30
0.0
 11
9962.5552101202247
 21
19431.13567703333
 31
0.0
  0
LINE
  5
41B
  8
FUTO
 10
10014.555210120219
 20
19438.19310330912
 30
0.0
 11
10014.555210120219
 21
19271.13567703333
 31
0.0
  0
LINE
  5
42E
  8
FUTO
 10
6611.32375779425
 20
20865.276045060851
 30
0.0
 11
7119.7009735549373
 21
20811.774274272531
 31
0.0
  0
LINE
  5
42F
  8
FUTO
 10
6613.1922953952499
 20
20883.178798123819
 30
0.0
 11
7121.5767956317168
 21
20829.676260715081
 31
0.0
  0
LINE
  5
430
  8
FUTO
 10
6568.463796914376
 20
20794.13567703333
 30
0.0
 11
6568.4637969143787
 21
19236.13567703333
 31
0.0
  0
LINE
  5
431
  8
HOSO
 10
6568.463796914376
 20
20740.13567703334
 30
0.0
 11
6568.4637969143778
 21
19290.13567703333
 31
0.0
  0
LINE
  5
44C
  8
FUTO
 10
6618.463796914376
 20
20794.13567703333
 30
0.0
 11
6618.4637969143796
 21
19236.13567703333
 31
0.0
  0
LINE
  5
44D
  8
FUTO
 10
6572.4637969143769
 20
20794.13567703333
 30
0.0
 11
6572.4637969143778
 21
19236.13567703333
 31
0.0
  0
LINE
  5
44E
  8
CT
 10
6320.4598182670479
 20
20781.13567703333
 30
0.0
 11
9028.5533760023482
 21
20781.13567703333
 31
0.0
  0
LINE
  5
478
  8
FUTO
 10
6648.463796914376
 20
23912.380810178882
 30
0.0
 11
9048.4637969143769
 21
23912.380810178882
 31
0.0
  0
LINE
  5
479
  8
FUTO
 10
6648.463796914376
 20
23987.380810178882
 30
0.0
 11
8705.4637969143769
 21
23987.380810178882
 31
0.0
  0
LINE
  5
47A
  8
FUTO
 10
6998.463796914376
 20
23009.380810178882
 30
0.0
 11
9048.4637969143769
 21
23009.380810178882
 31
0.0
  0
LINE
  5
488
  8
FUTO
 10
6998.463796914376
 20
22936.380810178882
 30
0.0
 11
9048.4637969143769
 21
22936.380810178882
 31
0.0
  0
LINE
  5
489
  8
FUTO
 10
6998.463796914376
 20
22936.380810178882
 30
0.0
 11
9048.4637969143769
 21
22936.380810178882
 31
0.0
  0
LINE
  5
4A3
  8
FUTO
 10
9048.4637969143769
 20
23987.380810178882
 30
0.0
 11
9048.4637969143769
 21
23912.380810178882
 31
0.0
  0
LINE
  5
4A4
  8
FUTO
 10
8833.4637969143787
 20
23912.380810178882
 30
0.0
 11
8833.4637969143787
 21
23612.880810178882
 31
0.0
  0
LINE
  5
4A5
  8
CT
 10
8698.4637969143787
 20
23751.9652993788
 30
0.0
 11
8698.4637969143787
 21
22576.248978260872
 31
0.0
  0
LINE
  5
4AD
  8
KL
 10
6568.4637969143778
 20
19290.13567703333
 30
0.0
 11
7514.0583936496314
 21
19375.428458821101
 31
0.0
  0
LINE
  5
4AE
  8
FUTO
 10
6618.4637969143778
 20
19274.564489055188
 30
0.0
 11
7009.2777878621728
 21
19309.8159726874
 31
0.0
  0
LINE
  5
4B2
  8
FUTO
 10
6568.4637969143787
 20
19236.13567703333
 30
0.0
 11
6618.4637969143796
 21
19236.13567703333
 31
0.0
  0
LINE
  5
51D
  8
CT
 10
7498.463796914376
 20
25438.253387828481
 30
0.0
 11
7498.463796914376
 21
22612.52072223914
 31
0.0
  0
LINE
  5
52A
  8
FUTO
 10
6998.463796914376
 20
23912.380810178882
 30
0.0
 11
6998.463796914376
 21
22936.380810178882
 31
0.0
  0
LINE
  5
52C
  8
FUTO
 10
7073.463796914376
 20
23912.380810178882
 30
0.0
 11
7073.463796914376
 21
23003.380810178882
 31
0.0
  0
ARC
  5
559
  8
FUTO
 10
7583.963796914376
 20
20866.63567703333
 30
0.0
 40
937.5
 50
95.232645962334615
 51
180.0
  0
ARC
  5
577
  8
FUTO
 10
7413.263796914378
 20
20866.63567703333
 30
0.0
 40
766.5
 50
180.0
 51
187.98670121782149
  0
CIRCLE
  5
578
  8
FUTO
 10
7498.463796914376
 20
20781.13567703333
 30
0.0
 40
36.5
  0
ARC
  5
579
  8
FUTO
 10
7498.463796914376
 20
20781.13567703333
 30
0.0
 40
94.999999999998053
 50
90.0
 51
110.94387397238231
  0
INSERT
  5
57A
  8
FUTO
  2
左回転矢印
 10
7676.4726919962404
 20
21295.014496891061
 30
0.0
 41
-2.0
 42
2.0
 43
2.0
  0
ARC
  5
585
  8
KL
 10
7413.263796914378
 20
20866.63567703333
 30
0.0
 40
746.49999999999989
 50
180.0
 51
215.8784977425853
  0
ARC
  5
587
  8
FUTO
 10
7593.4637969143769
 20
20781.13567703333
 30
0.0
 40
14.999999999999909
 50
265.47193698619128
 51
359.9999999999996
  0
ARC
  5
588
  8
FUTO
 10
7593.4637969143769
 20
20781.13567703333
 30
0.0
 40
15.000000000000121
 50
359.9999999999996
 51
94.528063013807852
  0
LINE
  5
589
  8
FUTO
 10
7514.1454596121794
 20
20874.832451017461
 30
0.0
 11
7514.1454596121794
 21
20881.13567703333
 31
0.0
  0
LINE
  5
58A
  8
FUTO
 10
7482.7821342165753
 20
20874.832451017461
 30
0.0
 11
7482.7821342165753
 21
20881.13567703333
 31
0.0
  0
LINE
  5
58B
  8
FUTO
 10
7482.7821342165753
 20
20881.13567703333
 30
0.0
 11
7514.1454596121794
 21
20881.13567703333
 31
0.0
  0
LINE
  5
58C
  8
FUTO
 10
7593.4637969143769
 20
20766.13567703333
 30
0.0
 11
7593.4637969143769
 21
20731.13567703333
 31
0.0
  0
ARC
  5
58D
  8
FUTO
 10
7498.463796914376
 20
20781.13567703333
 30
0.0
 40
95.000000000000995
 50
329.99999999999932
 51
350.94387397238222
  0
ARC
  5
58E
  8
FUTO
 10
7498.4637969143796
 20
20781.13567703333
 30
0.0
 40
94.999999999997456
 50
9.0561260276185163
 51
30.000000000001421
  0
ARC
  5
58F
  8
FUTO
 10
7498.463796914376
 20
20781.13567703333
 30
0.0
 40
95.000000000000071
 50
29.999999999999481
 51
50.943873972382391
  0
ARC
  5
590
  8
FUTO
 10
7498.463796914376
 20
20781.13567703333
 30
0.0
 40
94.999999999998494
 50
69.056126027616216
 51
90.0
  0
ARC
  5
591
  8
FUTO
 10
7545.9637969143751
 20
20863.408090392852
 30
0.0
 40
14.99999999999976
 50
325.47193698619111
 51
59.999999999999517
  0
ARC
  5
592
  8
FUTO
 10
7545.9637969143751
 20
20863.408090392852
 30
0.0
 40
15.00000000000038
 50
59.999999999999517
 51
154.52806301381301
  0
CIRCLE
  5
593
  8
KL
 10
6792.99812049718
 20
20420.572820570811
 30
0.0
 40
17.407412889793701
  0
LINE
  5
594
  8
FUTO
 10
6618.463796914376
 20
20794.13567703333
 30
0.0
 11
6568.463796914376
 21
20794.13567703333
 31
0.0
  0
LINE
  5
595
  8
KL
 10
6568.463796914376
 20
20740.13567703334
 30
0.0
 11
6677.5600521909992
 21
20740.13567703334
 31
0.0
  0
LINE
  5
596
  8
FUTO
 10
6618.463796914376
 20
20760.13567703333
 30
0.0
 11
6654.1985823247469
 21
20760.13567703333
 31
0.0
  0
INSERT
  5
597
  8
FUTO
  2
まっすぐの矢印
 10
6338.6058441845698
 20
19721.148330540658
 30
0.0
 41
-2.0
 42
2.0
 43
2.0
 50
90.000000000000071
  0
LINE
  5
5A2
  8
FUTO
 10
7403.4637969143769
 20
20766.13567703333
 30
0.0
 11
7403.4637969143769
 21
20731.13567703333
 31
0.0
  0
ARC
  5
5A3
  8
FUTO
 10
7498.463796914376
 20
20781.13567703333
 30
0.0
 40
94.999999999999389
 50
149.99999999999969
 51
170.94387397238259
  0
ARC
  5
5A4
  8
FUTO
 10
7403.4637969143769
 20
20781.13567703333
 30
0.0
 40
15.000000000000121
 50
85.471936986192148
 51
180.00000000000051
  0
ARC
  5
5A5
  8
FUTO
 10
7403.4637969143769
 20
20781.13567703333
 30
0.0
 40
14.999999999999909
 50
180.0000000000004
 51
274.52806301380861
  0
ARC
  5
5A6
  8
FUTO
 10
7498.463796914376
 20
20781.13567703333
 30
0.0
 40
94.999999999999389
 50
189.0561260276173
 51
210.0000000000002
  0
ARC
  5
5A7
  8
FUTO
 10
7498.463796914376
 20
20781.13567703333
 30
0.0
 40
94.999999999999915
 50
129.0561260276165
 51
149.9999999999994
  0
ARC
  5
5A8
  8
FUTO
 10
7450.9637969143778
 20
20863.408090392852
 30
0.0
 40
15.00000000000038
 50
25.4719369861869
 51
120.0000000000005
  0
ARC
  5
5A9
  8
FUTO
 10
7450.963796914376
 20
20863.408090392852
 30
0.0
 40
15.00000000000006
 50
120.0000000000008
 51
214.5280630138098
  0
LINE
  5
605
  8
FUTO
 10
9759.5552101202247
 20
21161.13567703333
 30
0.0
 11
10014.555210120219
 21
21161.13567703333
 31
0.0
  0
LINE
  5
606
  8
SL
 10
9947.4552101202244
 20
20861.13567703333
 30
0.0
 11
9969.5552101202265
 21
20861.13567703333
 31
0.0
  0
POINT
  5
609
  8
DEFPOINTS
 10
9759.5552101202247
 20
21161.13567703333
 30
0.0
  0
LINE
  5
60A
  8
SL
 10
9869.5552101202247
 20
21031.13567703333
 30
0.0
 11
9947.4552101202244
 21
21031.13567703333
 31
0.0
  0
LINE
  5
60E
  8
FUTO
 10
10199.555210120219
 20
20736.13567703333
 30
0.0
 11
10768.555210120219
 21
20736.13567703333
 31
0.0
  0
LINE
  5
60F
  8
FUTO
 10
10199.555210120219
 20
20826.13567703333
 30
0.0
 11
10768.555210120219
 21
20826.13567703333
 31
0.0
  0
LINE
  5
610
  8
FUTO
 10
10014.555210120219
 20
21161.13567703333
 30
0.0
 11
10014.555210120219
 21
20934.826046939052
 31
0.0
  0
LINE
  5
611
  8
FUTO
 10
9969.5552101202265
 20
20738.63567703333
 30
0.0
 11
10059.055210120219
 21
20738.63567703333
 31
0.0
  0
LINE
  5
612
  8
FUTO
 10
9969.5552101202265
 20
20823.63567703333
 30
0.0
 11
10059.055210120219
 21
20823.63567703333
 31
0.0
  0
LINE
  5
68C
  8
FUTO
 10
6648.463796914376
 20
25136.380810178882
 30
0.0
 11
8348.4637969143787
 21
25136.380810178882
 31
0.0
  0
LINE
  5
68D
  8
FUTO
 10
6568.463796914376
 20
25061.380810178882
 30
0.0
 11
8705.4637969143769
 21
25061.380810178882
 31
0.0
  0
LINE
  5
68E
  8
CT
 10
6320.9437963348564
 20
24523.380810178882
 30
0.0
 11
8856.7970374774086
 21
24523.380810178882
 31
0.0
  0
LINE
  5
68F
  8
FUTO
 10
8348.4637969143787
 20
25136.380810178882
 30
0.0
 11
8348.4637969143787
 21
25107.380810178882
 31
0.0
  0
LINE
  5
6A9
  8
FUTO
 10
6648.463796914376
 20
25136.380810178882
 30
0.0
 11
6648.463796914376
 21
25107.380810178889
 31
0.0
  0
LINE
  5
6C2
  8
FUTO
 10
11049.555210120219
 20
20772.13567703333
 30
0.0
 11
11049.555210120219
 21
19231.13567703333
 31
0.0
  0
LINE
  5
6C3
  8
FUTO
 10
11045.055210120219
 20
20772.13567703333
 30
0.0
 11
11045.055210120219
 21
19231.13567703333
 31
0.0
  0
LINE
  5
6C5
  8
FUTO
 10
12109.555210120219
 20
20772.13567703333
 30
0.0
 11
12109.555210120219
 21
19231.13567703333
 31
0.0
  0
LINE
  5
6C6
  8
KL
 10
12115.555210120219
 20
21485.44841934236
 30
0.0
 11
12115.555210120219
 21
20076.8229347243
 31
0.0
  0
LINE
  5
6CD
  8
CT
 10
11579.555210120219
 20
21919.803235705691
 30
0.0
 11
11579.555210120219
 21
18868.39563609974
 31
0.0
  0
LINE
  5
6D4
  8
FUTO
 10
10970.055210120219
 20
21784.13567703333
 30
0.0
 11
10970.055210120219
 21
19231.13567703333
 31
0.0
  0
DIMENSION
  5
6D5
  8
FUTO
  2
*D10
 10
12579.16507187645
 20
20081.13567703333
 30
0.0
 11
12519.16507187645
 21
20781.13567703334
 31
0.0
 70
     0
  1
%%C<>
 13
12213.555210120219
 23
21481.13567703333
 33
0.0
 14
12213.555210120219
 24
20081.13567703333
 34
0.0
 50
90.0
1001
ACAD
1000
DSTYLE
1002
{
1070
    40
1040
30.0
1070
   176
1070
     2
1070
   177
1070
     2
1070
   178
1070
     2
1070
   341
1005
44D5
1070
     5
1000
OPEN30
1002
}
  0
LINE
  5
6E2
  8
KL
 10
12118.75521012022
 20
20772.13567703333
 30
0.0
 11
12118.75521012022
 21
20031.13567703333
 31
0.0
  0
LINE
  5
6E6
  8
FUTO
 10
12207.555210120219
 20
21531.13567703333
 30
0.0
 11
12207.555210120219
 21
20031.13567703333
 31
0.0
  0
LINE
  5
6E7
  8
FUTO
 10
12213.555210120219
 20
21531.13567703333
 30
0.0
 11
12213.555210120219
 21
20031.13567703333
 31
0.0
  0
LINE
  5
70B
  8
CT
 10
11000.555210120219
 20
19101.29975816506
 30
0.0
 11
11000.555210120219
 21
19035.766923042349
 31
0.0
1001
ACAD
1000
ASC_BOUNDS
1002
{
1070
    19
1002
}
  0
LINE
  5
724
  8
CT
 10
12156.555210120219
 20
19100.659105964802
 30
0.0
 11
12156.555210120219
 21
19047.688452390841
 31
0.0
1001
ACAD
1000
ASC_BOUNDS
1002
{
1070
    19
1002
}
  0
LINE
  5
72B
  8
KL
 10
12118.75521012022
 20
20075.13567703334
 30
0.0
 11
12187.75521012022
 21
20075.13567703334
 31
0.0
  0
LINE
  5
72C
  8
KL
 10
12112.75521012022
 20
20081.13567703333
 30
0.0
 11
12213.555210120219
 21
20081.13567703333
 31
0.0
  0
LINE
  5
72D
  8
CT
 10
12080.27051252512
 20
20048.63567703333
 30
0.0
 11
12137.313245657169
 21
20048.63567703333
 31
0.0
  0
LINE
  5
72E
  8
KL
 10
12112.75521012022
 20
20031.13567703333
 30
0.0
 11
12118.75521012022
 21
20031.13567703333
 31
0.0
  0
LINE
  5
72F
  8
FUTO
 10
12187.75521012022
 20
20075.13567703334
 30
0.0
 11
12207.555210120219
 21
20075.13567703334
 31
0.0
  0
LINE
  5
730
  8
CT
 10
12184.43547520758
 20
20048.63567703333
 30
0.0
 11
12244.578328961459
 21
20048.63567703333
 31
0.0
  0
LINE
  5
731
  8
FUTO
 10
12207.555210120219
 20
20031.13567703333
 30
0.0
 11
12213.555210120219
 21
20031.13567703333
 31
0.0
  0
DIMENSION
  5
800
  8
FUTO
  2
*D11
 10
12213.555210120219
 20
22099.758431713479
 30
0.0
 11
11896.555210120219
 21
22159.758431713479
 31
0.0
 70
     0
 13
11579.555210120219
 23
21932.853164617529
 33
0.0
 14
12213.555210120219
 24
21531.13567703333
 34
0.0
1001
ACAD
1000
DSTYLE
1002
{
1070
    40
1040
30.0
1070
   176
1070
     2
1070
   177
1070
     2
1070
   178
1070
     2
1070
   341
1005
44D5
1070
     5
1000
OPEN30
1002
}
  0
LINE
  5
826
  8
FUTO
 10
11045.055210120219
 20
21784.13567703333
 30
0.0
 11
11045.055210120219
 21
20790.13567703333
 31
0.0
  0
LINE
  5
827
  8
FUTO
 10
11049.555210120219
 20
21784.13567703333
 30
0.0
 11
11049.555210120219
 21
20790.13567703333
 31
0.0
  0
INSERT
  5
841
  8
FUTO
  2
まっすぐの矢印
 10
12275.40199080962
 20
21337.387565353321
 30
0.0
 41
-2.0
 42
2.0
 43
2.0
 50
90.0
  0
LINE
  5
842
  8
FUTO
 10
12109.555210120219
 20
21784.13567703333
 30
0.0
 11
12109.555210120219
 21
20790.13567703333
 31
0.0
  0
LINE
  5
844
  8
KL
 10
12118.75521012022
 20
21531.13567703333
 30
0.0
 11
12118.75521012022
 21
20790.13567703333
 31
0.0
  0
LINE
  5
845
  8
KL
 10
12118.75521012022
 20
21487.13567703333
 30
0.0
 11
12189.055210120219
 21
21487.13567703333
 31
0.0
  0
LINE
  5
846
  8
KL
 10
12112.75521012022
 20
21481.13567703333
 30
0.0
 11
12213.555210120219
 21
21481.13567703333
 31
0.0
  0
LINE
  5
847
  8
CT
 10
12090.09910887636
 20
21513.63567703333
 30
0.0
 11
12132.80474730161
 21
21513.63567703333
 31
0.0
  0
LINE
  5
848
  8
KL
 10
12112.75521012022
 20
21531.13567703333
 30
0.0
 11
12118.75521012022
 21
21531.13567703333
 31
0.0
  0
LINE
  5
84A
  8
FUTO
 10
12189.055210120219
 20
21487.13567703333
 30
0.0
 11
12207.555210120219
 21
21487.13567703333
 31
0.0
  0
LINE
  5
84B
  8
CT
 10
12184.79422285802
 20
21513.63567703333
 30
0.0
 11
12236.783698414431
 21
21513.63567703333
 31
0.0
  0
LINE
  5
84C
  8
FUTO
 10
12207.555210120219
 20
21531.13567703333
 30
0.0
 11
12213.555210120219
 21
21531.13567703333
 31
0.0
  0
POLYLINE
  8
0
  5
55CF
  62
2
  66
     1
 10
0.000000
 20
0.000000
 30
0.000000
  70
     8
  0
VERTEX
  8
0
  5
55D0
 10
8816.60
 20
20905.3
 30
0.000000
  70
    32
  0
VERTEX
  8
0
  5
55D1
 10
8816.60
 20
20781.1
 30
0.000000
  70
    32
  0
SEQEND
  8
0
  5
55D2
  0
POLYLINE
  8
0
  5
55D3
  62
2
  66
     1
 10
0.000000
 20
0.000000
 30
0.000000
  70
     8
  0
VERTEX
  8
0
  5
55D4
 10
8816.60
 20
20657.0
 30
0.000000
  70
    32
  0
VERTEX
  8
0
  5
55D5
 10
8816.60
 20
20781.1
 30
0.000000
  70
    32
  0
SEQEND
  8
0
  5
55D6
  0
LINE
  5
971
  8
KL
 10
7298.6100496364406
 20
20792.94582940184
 30
0.0
 11
7300.4785872374396
 21
20810.848582464809
 31
0.0
  0
LINE
  5
972
  8
KL
 10
7698.463796914376
 20
20790.13567703333
 30
0.0
 11
7698.463796914376
 21
20772.13567703333
 31
0.0
  0
LINE
  5
973
  8
KL
 10
7698.463796914376
 20
20790.13567703333
 30
0.0
 11
7971.8983829868212
 21
20790.13567703333
 31
0.0
  0
LINE
  5
974
  8
KL
 10
7698.463796914376
 20
20772.13567703333
 30
0.0
 11
7985.820172084761
 21
20772.13567703333
 31
0.0
  0
LINE
  5
990
  8
FUTO
 10
6611.32375779425
 20
20865.276045060851
 30
0.0
 11
6613.1922953952499
 21
20883.178798123819
 31
0.0
  0
POLYLINE
  5
119F
  8
FUTO
 66
     1
 10
0.0
 20
0.0
 30
0.0
 70
     1
1001
ACAD
1000
ASC_BOUNDS
1002
{
1070
    19
1002
}
  0
VERTEX
  5
554D
  8
FUTO
 10
10965.555210120219
 20
19081.13567703333
 30
0.0
  0
VERTEX
  5
554E
  8
FUTO
 10
10965.555210120219
 20
19084.473865611501
 30
0.0
 42
-0.3888787318529885
  0
VERTEX
  5
554F
  8
FUTO
 10
10969.20658714923
 20
19088.458644403869
 30
0.0
  0
VERTEX
  5
5550
  8
FUTO
 10
11030.40383309121
 20
19093.812709662801
 30
0.0
 42
0.3888787318529894
  0
VERTEX
  5
5551
  8
FUTO
 10
11034.055210120219
 20
19097.79748845517
 30
0.0
  0
VERTEX
  5
5552
  8
FUTO
 10
11034.055210120219
 20
19214.473865611501
 30
0.0
 42
0.3888787318529893
  0
VERTEX
  5
5553
  8
FUTO
 10
11030.40383309121
 20
19218.458644403869
 30
0.0
  0
VERTEX
  5
5554
  8
FUTO
 10
10969.20658714923
 20
19223.812709662801
 30
0.0
 42
-0.3888787318529887
  0
VERTEX
  5
5555
  8
FUTO
 10
10965.555210120219
 20
19227.79748845517
 30
0.0
  0
VERTEX
  5
5556
  8
FUTO
 10
10965.555210120219
 20
19231.13567703333
 30
0.0
  0
VERTEX
  5
5557
  8
FUTO
 10
11040.555210120219
 20
19231.13567703333
 30
0.0
  0
VERTEX
  5
5558
  8
FUTO
 10
11040.555210120219
 20
19081.13567703333
 30
0.0
  0
SEQEND
  5
5559
  8
FUTO
  0
LINE
  5
1840
  8
FUTO
 10
7923.463796914376
 20
23912.380810178882
 30
0.0
 11
7923.463796914376
 21
23003.380810178882
 31
0.0
  0
LINE
  5
1841
  8
FUTO
 10
7998.463796914376
 20
23912.380810178882
 30
0.0
 11
7998.463796914376
 21
23003.380810178882
 31
0.0
  0
LINE
  5
1FF1
  8
FUTO
 10
12112.75521012022
 20
21784.13567703333
 30
0.0
 11
12112.75521012022
 21
20790.13567703333
 31
0.0
  0
LINE
  5
1FF2
  8
FUTO
 10
12112.75521012022
 20
20772.13567703333
 30
0.0
 11
12112.75521012022
 21
19231.13567703333
 31
0.0
  0
LINE
  5
1FF5
  8
FUTO
 10
12187.75521012022
 20
21784.13567703333
 30
0.0
 11
12187.755210120229
 21
19231.13567703333
 31
0.0
  0
DIMENSION
  5
2003
  8
FUTO
  2
*D5
 10
12191.555210120219
 20
18663.10175479138
 30
0.0
 11
11091.555210120219
 21
18723.101754791369
 31
0.0
 70
     0
 13
9991.5552101202265
 23
19081.13567703333
 33
0.0
 14
12191.555210120219
 24
19081.13567703333
 34
0.0
1001
ACAD
1000
DSTYLE
1002
{
1070
    40
1040
30.0
1070
   176
1070
     2
1070
   177
1070
     2
1070
   178
1070
     2
1070
   341
1005
44D5
1070
     5
1000
OPEN30
1002
}
  0
LINE
  5
25BB
  8
CT
 10
7498.463796914376
 20
23520.05407889995
 30
0.0
 11
7498.463796914376
 21
23517.994948568768
 31
0.0
  0
TEXT
  5
29E7
  8
SP
 10
9149.8042194081445
 20
6129.2813767066364
 30
0.0
 40
100.0
  1
 
  0
LINE
  5
3235
  8
FUTO
 10
8698.2468475950936
 20
20310.736677176341
 30
0.0
 11
8675.4964510148202
 21
20318.22466207738
 31
0.0
  0
LINE
  5
3236
  8
FUTO
 10
8659.1671405888392
 20
20192.0026192978
 30
0.0
 11
8632.8674455909568
 21
20200.65880770098
 31
0.0
  0
LINE
  5
3237
  8
FUTO
 10
8704.6191956648763
 20
20298.11157598556
 30
0.0
 11
8671.7922417796253
 21
20198.374967367581
 31
0.0
  0
ARC
  5
3238
  8
FUTO
 10
8695.1204710345919
 20
20301.23795254606
 30
0.0
 40
10.0
 50
341.78173999721008
 51
71.781739997210067
  0
ARC
  5
3239
  8
FUTO
 10
8662.2935171493427
 20
20201.501343928081
 30
0.0
 40
10.0
 50
251.78173999721
 51
341.78173999721008
  0
LINE
  5
323A
  8
FUTO
 10
8701.3732241555936
 20
20320.235401806629
 30
0.0
 11
8678.4238444463135
 21
20327.78887930953
 31
0.0
  0
ARC
  5
323B
  8
FUTO
 10
8695.1204710345919
 20
20301.23795254606
 30
0.0
 40
20.0
 50
341.78173999721008
 51
71.781739997210067
  0
LINE
  5
323C
  8
FUTO
 10
8714.1179202951607
 20
20294.98519942506
 30
0.0
 11
8681.2909664099097
 21
20195.248590807081
 31
0.0
  0
ARC
  5
323D
  8
FUTO
 10
8662.2935171493427
 20
20201.501343928081
 30
0.0
 40
20.0
 50
251.78173999721
 51
341.78173999721008
  0
LINE
  5
323E
  8
FUTO
 10
8656.0407640283411
 20
20182.503894667509
 30
0.0
 11
8628.9726174753996
 21
20191.413008492069
 31
0.0
  0
LINE
  5
3241
  8
CT
 10
8739.687032056423
 20
20231.298894660042
 30
0.0
 11
8556.636246613145
 21
20291.547581432831
 31
0.0
  0
DIMENSION
  5
393B
  8
FUTO
  2
*D6
 10
12191.555210120219
 20
18844.432196048969
 30
0.0
 11
11885.555210120219
 21
18904.432196048969
 31
0.0
 70
     0
 13
11579.555210120219
 23
19081.13567703333
 33
0.0
 14
12191.555210120219
 24
19081.13567703333
 34
0.0
1001
ACAD
1000
DSTYLE
1002
{
1070
    40
1040
30.0
1070
   176
1070
     2
1070
   177
1070
     2
1070
   178
1070
     2
1070
   341
1005
44D5
1070
     5
1000
OPEN30
1002
}
  0
DIMENSION
  5
3948
  8
FUTO
  2
*D7
 10
9991.5552101202265
 20
18844.437436971559
 30
0.0
 11
10785.555210120219
 21
18904.437436971559
 31
0.0
 70
     0
 13
11579.555210120219
 23
19081.13567703333
 33
0.0
 14
9991.5552101202265
 24
19081.13567703333
 34
0.0
1001
ACAD
1000
DSTYLE
1002
{
1070
    40
1040
30.0
1070
   176
1070
     2
1070
   177
1070
     2
1070
   178
1070
     2
1070
   341
1005
44D5
1070
     5
1000
OPEN30
1002
}
  0
POLYLINE
  5
3949
  8
FUTO
 66
     1
 10
0.0
 20
0.0
 30
0.0
  0
VERTEX
  5
5575
  8
FUTO
 10
10969.555210120219
 20
19231.13567703333
 30
0.0
  0
VERTEX
  5
5576
  8
FUTO
 10
11044.555210120219
 20
19231.13567703333
 30
0.0
  0
SEQEND
  5
5577
  8
FUTO
  0
LINE
  5
3AE6
  8
FUTO
 10
10053.055210120219
 20
20673.13567703333
 30
0.0
 11
10053.055210120219
 21
19231.13567703333
 31
0.0
  0
LINE
  5
3AE7
  8
FUTO
 10
10053.055210120219
 20
20673.13567703334
 30
0.0
 11
10063.055210120219
 21
20673.13567703333
 31
0.0
  0
LINE
  5
3AE8
  8
FUTO
 10
10063.055210120219
 20
20673.13567703333
 30
0.0
 11
10063.055210120219
 21
20663.13567703333
 31
0.0
  0
LINE
  5
3AEA
  8
FUTO
 10
10063.055210120219
 20
20663.13567703333
 30
0.0
 11
10970.055210120219
 21
20663.13567703333
 31
0.0
  0
LINE
  5
3B39
  8
FUTO
 10
10173.555210120219
 20
20718.13567703333
 30
0.0
 11
10085.555210120219
 21
20718.13567703333
 31
0.0
  0
LINE
  5
3B3A
  8
FUTO
 10
10074.555210120219
 20
20681.13567703333
 30
0.0
 11
10184.555210120219
 21
20681.13567703333
 31
0.0
  0
LINE
  5
3B3B
  8
FUTO
 10
10179.555210120219
 20
20874.13567703333
 30
0.0
 11
10079.555210120219
 21
20874.13567703333
 31
0.0
  0
LINE
  5
3B3C
  8
FUTO
 10
10079.555210120219
 20
20874.13567703333
 30
0.0
 11
10079.555210120219
 21
20681.13567703333
 31
0.0
  0
LINE
  5
3B3D
  8
FUTO
 10
10059.055210120219
 20
20856.13567703333
 30
0.0
 11
10059.055210120219
 21
20706.13567703333
 31
0.0
  0
LINE
  5
3B3E
  8
FUTO
 10
10064.555210120219
 20
20865.13567703333
 30
0.0
 11
10064.555210120219
 21
20697.13567703333
 31
0.0
  0
LINE
  5
3B40
  8
FUTO
 10
10059.055210120219
 20
20706.13567703333
 30
0.0
 11
10064.555210120219
 21
20706.13567703333
 31
0.0
  0
ARC
  5
3B41
  8
FUTO
 10
10085.555210120219
 20
20712.13567703333
 30
0.0
 40
6.0
 50
90.0
 51
180.0
  0
LINE
  5
3B42
  8
FUTO
 10
10070.555210120219
 20
20691.13567703333
 30
0.0
 11
10079.555210120219
 21
20691.13567703333
 31
0.0
  0
ARC
  5
3B43
  8
FUTO
 10
10070.555210120219
 20
20697.13567703333
 30
0.0
 40
6.0
 50
180.0
 51
270.0
  0
LINE
  5
3B44
  8
FUTO
 10
10064.555210120219
 20
20856.13567703333
 30
0.0
 11
10059.055210120219
 21
20856.13567703333
 31
0.0
  0
ARC
  5
3B45
  8
FUTO
 10
10070.555210120219
 20
20865.13567703333
 30
0.0
 40
6.0
 50
90.0
 51
180.0
  0
LINE
  5
3B46
  8
FUTO
 10
10079.555210120219
 20
20871.13567703333
 30
0.0
 11
10070.555210120219
 21
20871.13567703333
 31
0.0
  0
LINE
  5
3B47
  8
FUTO
 10
10179.555210120219
 20
20681.13567703333
 30
0.0
 11
10179.555210120219
 21
20874.13567703333
 31
0.0
  0
LINE
  5
3B48
  8
FUTO
 10
10194.555210120219
 20
20865.13567703333
 30
0.0
 11
10194.555210120219
 21
20697.13567703333
 31
0.0
  0
LINE
  5
3B49
  8
FUTO
 10
10200.055210120219
 20
20856.13567703333
 30
0.0
 11
10200.055210120219
 21
20706.13567703333
 31
0.0
  0
LINE
  5
3B4A
  8
FUTO
 10
10188.555210120219
 20
20691.13567703333
 30
0.0
 11
10179.555210120219
 21
20691.13567703333
 31
0.0
  0
ARC
  5
3B4B
  8
FUTO
 10
10173.555210120219
 20
20712.13567703333
 30
0.0
 40
6.0
 50
0.0
 51
90.0
  0
ARC
  5
3B4C
  8
FUTO
 10
10188.555210120219
 20
20697.13567703333
 30
0.0
 40
6.0
 50
270.0
 51
0.0
  0
LINE
  5
3B4D
  8
FUTO
 10
10200.055210120219
 20
20706.13567703333
 30
0.0
 11
10194.555210120219
 21
20706.13567703333
 31
0.0
  0
LINE
  5
3B4E
  8
FUTO
 10
10179.555210120219
 20
20871.13567703333
 30
0.0
 11
10188.555210120219
 21
20871.13567703333
 31
0.0
  0
ARC
  5
3B4F
  8
FUTO
 10
10188.555210120219
 20
20865.13567703333
 30
0.0
 40
6.0
 50
0.0
 51
90.0
  0
LINE
  5
3B50
  8
FUTO
 10
10194.555210120219
 20
20856.13567703333
 30
0.0
 11
10200.055210120219
 21
20856.13567703333
 31
0.0
  0
LINE
  5
3B51
  8
FUTO
 10
10074.555210120219
 20
20681.13567703333
 30
0.0
 11
10074.555210120219
 21
20663.13567703333
 31
0.0
  0
LINE
  5
3B52
  8
FUTO
 10
10184.555210120219
 20
20681.13567703333
 30
0.0
 11
10184.555210120219
 21
20663.13567703333
 31
0.0
  0
LINE
  5
3BBC
  8
FUTO
 10
10906.055210120219
 20
20885.13567703333
 30
0.0
 11
10773.055210120219
 21
20885.13567703333
 31
0.0
  0
LINE
  5
3BBD
  8
FUTO
 10
10888.555210120219
 20
20705.13567703333
 30
0.0
 11
10790.555210120219
 21
20705.13567703333
 31
0.0
  0
LINE
  5
3BBE
  8
FUTO
 10
10774.555210120219
 20
20669.13567703333
 30
0.0
 11
10904.555210120219
 21
20669.13567703333
 31
0.0
  0
LINE
  5
3BC0
  8
FUTO
 10
10784.555210120219
 20
20885.13567703333
 30
0.0
 11
10784.555210120219
 21
20669.13567703333
 31
0.0
  0
LINE
  5
3BC1
  8
FUTO
 10
10762.055210120219
 20
20871.13567703333
 30
0.0
 11
10762.055210120219
 21
20691.13567703333
 31
0.0
  0
LINE
  5
3BC2
  8
FUTO
 10
10767.055210120219
 20
20879.13567703333
 30
0.0
 11
10767.055210120219
 21
20683.13567703333
 31
0.0
  0
LINE
  5
3BC3
  8
FUTO
 10
10762.055210120219
 20
20691.13567703333
 30
0.0
 11
10767.055210120219
 21
20691.13567703333
 31
0.0
  0
ARC
  5
3BC4
  8
FUTO
 10
10790.555210120219
 20
20699.13567703333
 30
0.0
 40
6.0
 50
90.0
 51
180.0
  0
LINE
  5
3BC5
  8
FUTO
 10
10773.055210120219
 20
20677.13567703333
 30
0.0
 11
10784.555210120219
 21
20677.13567703333
 31
0.0
  0
ARC
  5
3BC6
  8
FUTO
 10
10773.055210120219
 20
20683.13567703333
 30
0.0
 40
6.0
 50
180.0
 51
270.0
  0
LINE
  5
3BC7
  8
FUTO
 10
10767.055210120219
 20
20871.13567703333
 30
0.0
 11
10762.055210120219
 21
20871.13567703333
 31
0.0
  0
ARC
  5
3BC8
  8
FUTO
 10
10773.055210120219
 20
20879.13567703333
 30
0.0
 40
6.0
 50
90.0
 51
180.0
  0
LINE
  5
3BC9
  8
FUTO
 10
10894.555210120219
 20
20885.13567703333
 30
0.0
 11
10894.555210120219
 21
20669.13567703333
 31
0.0
  0
LINE
  5
3BCA
  8
FUTO
 10
10912.055210120219
 20
20879.13567703333
 30
0.0
 11
10912.055210120219
 21
20683.13567703333
 31
0.0
  0
LINE
  5
3BCB
  8
FUTO
 10
10917.055210120219
 20
20871.13567703333
 30
0.0
 11
10917.055210120219
 21
20691.13567703333
 31
0.0
  0
ARC
  5
3BCC
  8
FUTO
 10
10888.555210120219
 20
20699.13567703333
 30
0.0
 40
6.0
 50
0.0
 51
90.0
  0
LINE
  5
3BCD
  8
FUTO
 10
10906.055210120219
 20
20677.13567703333
 30
0.0
 11
10894.555210120219
 21
20677.13567703333
 31
0.0
  0
ARC
  5
3BCE
  8
FUTO
 10
10906.055210120219
 20
20683.13567703333
 30
0.0
 40
6.0
 50
270.0
 51
0.0
  0
LINE
  5
3BCF
  8
FUTO
 10
10917.055210120219
 20
20691.13567703333
 30
0.0
 11
10912.055210120219
 21
20691.13567703333
 31
0.0
  0
ARC
  5
3BD0
  8
FUTO
 10
10906.055210120219
 20
20879.13567703333
 30
0.0
 40
6.0
 50
0.0
 51
90.0
  0
LINE
  5
3BD1
  8
FUTO
 10
10912.055210120219
 20
20871.13567703333
 30
0.0
 11
10917.055210120219
 21
20871.13567703333
 31
0.0
  0
LINE
  5
3C31
  8
SL
 10
10243.79722733971
 20
20907.834580064478
 30
0.0
 11
10709.07364022531
 21
20907.834580064478
 31
0.0
  0
LINE
  5
3C32
  8
FUTO
 10
10774.555210120219
 20
20669.13567703333
 30
0.0
 11
10774.555210120219
 21
20663.13567703333
 31
0.0
  0
LINE
  5
3C33
  8
FUTO
 10
10904.555210120219
 20
20669.13567703333
 30
0.0
 11
10904.555210120219
 21
20663.13567703333
 31
0.0
  0
DIMENSION
  5
3C4B
  8
SP
  2
*D9
 10
11579.555210120219
 20
22099.758431713479
 30
0.0
 11
10669.555210120219
 21
22159.758431713479
 31
0.0
 70
     0
 13
9759.5552101202247
 23
21161.13567703333
 33
0.0
 14
11579.555210120219
 24
21962.853164617529
 34
0.0
1001
ACAD
1000
DSTYLE
1002
{
1070
    40
1040
30.0
1070
   176
1070
     2
1070
   177
1070
     2
1070
   178
1070
     2
1070
   341
1005
44D5
1070
     5
1000
OPEN30
1002
}
  0
LINE
  5
3C62
  8
SL
 10
10243.79722733971
 20
20907.834580064478
 30
0.0
 11
10243.79722733971
 21
20653.13567703333
 31
0.0
  0
LINE
  5
3C63
  8
SL
 10
10709.07364022531
 20
20907.834580064478
 30
0.0
 11
10709.07364022531
 21
20653.13567703333
 31
0.0
  0
LINE
  5
3C79
  8
FUTO
 10
7453.463796914376
 20
23143.380810178882
 30
0.0
 11
7453.463796914376
 21
23712.380810178882
 31
0.0
  0
LINE
  5
3C7A
  8
FUTO
 10
7543.4637969143769
 20
23143.380810178882
 30
0.0
 11
7543.4637969143769
 21
23712.380810178882
 31
0.0
  0
LINE
  5
3C7B
  8
FUTO
 10
7118.463796914376
 20
22703.380810178882
 30
0.0
 11
8918.4637969143769
 21
22703.380810178882
 31
0.0
  0
LINE
  5
3C7D
  8
SL
 10
7248.463796914376
 20
22891.28081017888
 30
0.0
 11
8804.4637969143769
 21
22891.28081017888
 31
0.0
  0
LINE
  5
3C7E
  8
SL
 10
7248.463796914376
 20
22813.380810178882
 30
0.0
 11
8804.4637969143769
 21
22813.380810178882
 31
0.0
  0
LINE
  5
3C7F
  8
CT
 10
7379.9602999542531
 20
23073.380810178882
 30
0.0
 11
7661.2944287010896
 21
23073.380810178882
 31
0.0
  0
LINE
  5
3C80
  8
CT
 10
8698.4637969143787
 20
22666.424080658169
 30
0.0
 11
8698.4637969143787
 21
22969.242763769609
 31
0.0
  0
LINE
  5
3C81
  8
SL
 10
8592.4637969143787
 20
22813.380810178882
 30
0.0
 11
8592.4637969143787
 21
22891.28081017888
 31
0.0
  0
LINE
  5
3C82
  8
SL
 10
8804.4637969143769
 20
22813.380810178882
 30
0.0
 11
8804.4637969143769
 21
22891.28081017888
 31
0.0
  0
LINE
  5
3C83
  8
FUTO
 10
8751.4063706385841
 20
22958.380810178882
 30
0.0
 11
8918.4637969143769
 21
22958.380810178882
 31
0.0
  0
LINE
  5
3C84
  8
SL
 10
8638.4637969143769
 20
22906.380810178882
 30
0.0
 11
8758.4637969143769
 21
22906.380810178882
 31
0.0
  0
LINE
  5
3C85
  8
SL
 10
8638.4637969143769
 20
22891.28081017888
 30
0.0
 11
8638.4637969143769
 21
22906.380810178882
 31
0.0
  0
LINE
  5
3C86
  8
SL
 10
8758.4637969143769
 20
22891.28081017888
 30
0.0
 11
8758.4637969143769
 21
22906.380810178882
 31
0.0
  0
LINE
  5
3C87
  8
SL
 10
7748.463796914376
 20
22813.380810178882
 30
0.0
 11
7748.463796914376
 21
22891.28081017888
 31
0.0
  0
LINE
  5
3C88
  8
FUTO
 10
7405.4637969143751
 20
23123.380810178882
 30
0.0
 11
7405.4637969143751
 21
23023.380810178882
 31
0.0
  0
LINE
  5
3C8B
  8
FUTO
 10
7118.463796914376
 20
22958.380810178882
 30
0.0
 11
7344.773427008663
 21
22958.380810178882
 31
0.0
  0
LINE
  5
3C8C
  8
SL
 10
7248.463796914376
 20
22813.380810178882
 30
0.0
 11
7248.463796914376
 21
22891.28081017888
 31
0.0
  0
LINE
  5
3C8D
  8
FUTO
 10
7455.963796914376
 20
22913.380810178882
 30
0.0
 11
7455.963796914376
 21
23002.880810178882
 31
0.0
  0
LINE
  5
3C8E
  8
FUTO
 10
7540.9637969143751
 20
22913.380810178882
 30
0.0
 11
7540.9637969143769
 21
23002.880810178882
 31
0.0
  0
LINE
  5
3C8F
  8
SL
 10
7418.4637969143769
 20
22891.28081017888
 30
0.0
 11
7418.4637969143769
 21
22913.380810178882
 31
0.0
  0
LINE
  5
3C90
  8
SL
 10
7578.463796914376
 20
22891.28081017888
 30
0.0
 11
7578.463796914376
 21
22913.380810178882
 31
0.0
  0
LINE
  5
3C91
  8
SL
 10
7418.4637969143769
 20
22913.380810178882
 30
0.0
 11
7578.463796914376
 21
22913.380810178882
 31
0.0
  0
LINE
  5
3C94
  8
FUTO
 10
7408.4637969143751
 20
23023.380810178882
 30
0.0
 11
7408.4637969143751
 21
23014.380810178882
 31
0.0
  0
ARC
  5
3C95
  8
FUTO
 10
7414.4637969143751
 20
23014.380810178882
 30
0.0
 40
6.0
 50
180.0
 51
270.0
  0
LINE
  5
3C96
  8
FUTO
 10
7423.463796914376
 20
23008.380810178882
 30
0.0
 11
7423.463796914376
 21
23002.880810178882
 31
0.0
  0
ARC
  5
3C97
  8
FUTO
 10
7582.463796914376
 20
23014.380810178882
 30
0.0
 40
6.0
 50
270.0
 51
0.000000000000007
  0
LINE
  5
3C98
  8
FUTO
 10
7588.4637969143769
 20
23014.380810178882
 30
0.0
 11
7588.4637969143769
 21
23023.380810178882
 31
0.0
  0
LINE
  5
3C9A
  8
FUTO
 10
7573.463796914376
 20
23002.880810178882
 30
0.0
 11
7573.463796914376
 21
23008.380810178882
 31
0.0
  0
LINE
  5
3C9B
  8
FUTO
 10
7414.4637969143751
 20
23008.380810178882
 30
0.0
 11
7582.463796914376
 21
23008.380810178882
 31
0.0
  0
LINE
  5
3C9C
  8
FUTO
 10
7423.463796914376
 20
23002.880810178882
 30
0.0
 11
7573.463796914376
 21
23002.880810178882
 31
0.0
  0
LINE
  5
3C9D
  8
FUTO
 10
7405.4637969143751
 20
23023.380810178882
 30
0.0
 11
7591.4637969143751
 21
23023.380810178882
 31
0.0
  0
LINE
  5
3C9F
  8
FUTO
 10
7118.463796914376
 20
22703.380810178882
 30
0.0
 11
7118.463796914376
 21
22958.380810178882
 31
0.0
  0
POINT
  5
3CA0
  8
DEFPOINTS
 10
7118.463796914376
 20
22703.380810178882
 30
0.0
  0
LINE
  5
3CA3
  8
FUTO
 10
7423.463796914376
 20
23138.380810178882
 30
0.0
 11
7423.463796914376
 21
23143.880810178882
 31
0.0
  0
ARC
  5
3CA4
  8
FUTO
 10
7414.4637969143751
 20
23132.380810178882
 30
0.0
 40
6.0
 50
90.0
 51
180.0
  0
LINE
  5
3CA5
  8
FUTO
 10
7408.4637969143751
 20
23123.380810178882
 30
0.0
 11
7408.4637969143751
 21
23132.380810178882
 31
0.0
  0
LINE
  5
3CA6
  8
FUTO
 10
7573.463796914376
 20
23143.880810178882
 30
0.0
 11
7573.463796914376
 21
23138.380810178882
 31
0.0
  0
ARC
  5
3CA7
  8
FUTO
 10
7582.463796914376
 20
23132.380810178882
 30
0.0
 40
6.0
 50
0.000000000000007
 51
90.0
  0
LINE
  5
3CA9
  8
FUTO
 10
7588.4637969143769
 20
23132.380810178882
 30
0.0
 11
7588.4637969143769
 21
23123.380810178882
 31
0.0
  0
LINE
  5
3CAA
  8
FUTO
 10
7423.463796914376
 20
23143.880810178882
 30
0.0
 11
7573.463796914376
 21
23143.880810178882
 31
0.0
  0
LINE
  5
3CAB
  8
FUTO
 10
7414.4637969143751
 20
23138.380810178882
 30
0.0
 11
7582.463796914376
 21
23138.380810178882
 31
0.0
  0
LINE
  5
3CAC
  8
FUTO
 10
7591.4637969143751
 20
23123.380810178882
 30
0.0
 11
7405.4637969143751
 21
23123.380810178882
 31
0.0
  0
LINE
  5
3CAF
  8
FUTO
 10
6748.463796914376
 20
25157.380810178882
 30
0.0
 11
8248.4637969143769
 21
25157.380810178882
 31
0.0
  0
LINE
  5
3CB0
  8
FUTO
 10
6748.463796914376
 20
25151.380810178882
 30
0.0
 11
8248.4637969143769
 21
25151.380810178882
 31
0.0
  0
LINE
  5
3CB1
  8
KL
 10
7507.463796914376
 20
25062.580810178879
 30
0.0
 11
8248.4637969143769
 21
25062.580810178879
 31
0.0
  0
LINE
  5
3CB5
  8
KL
 10
6794.1510546053469
 20
25059.380810178882
 30
0.0
 11
8202.7765392234069
 21
25059.380810178882
 31
0.0
  0
LINE
  5
3CB9
  8
CT
 10
7379.9602999542531
 20
23783.380810178882
 30
0.0
 11
7683.6279601295309
 21
23783.380810178882
 31
0.0
  0
LINE
  5
3CBA
  8
KL
 10
8198.4637969143787
 20
25056.580810178879
 30
0.0
 11
8198.4637969143787
 21
25157.380810178882
 31
0.0
  0
LINE
  5
3CBB
  8
KL
 10
8204.4637969143769
 20
25062.580810178879
 30
0.0
 11
8204.4637969143769
 21
25131.580810178879
 31
0.0
  0
LINE
  5
3CBC
  8
KL
 10
8248.4637969143769
 20
25056.580810178879
 30
0.0
 11
8248.4637969143769
 21
25062.580810178879
 31
0.0
  0
LINE
  5
3CBD
  8
CT
 10
8230.9637969143769
 20
25024.096112583778
 30
0.0
 11
8230.9637969143769
 21
25081.138845715821
 31
0.0
  0
LINE
  5
3CBE
  8
FUTO
 10
8248.4637969143769
 20
25151.380810178882
 30
0.0
 11
8248.4637969143769
 21
25157.380810178882
 31
0.0
  0
LINE
  5
3CBF
  8
CT
 10
8230.9637969143769
 20
25128.26107526624
 30
0.0
 11
8230.9637969143769
 21
25188.403929020122
 31
0.0
  0
LINE
  5
3CC0
  8
FUTO
 10
8204.4637969143769
 20
25131.580810178879
 30
0.0
 11
8204.4637969143769
 21
25151.380810178882
 31
0.0
  0
LINE
  5
3CC7
  8
FUTO
 10
7394.4637969143769
 20
23849.880810178882
 30
0.0
 11
7394.4637969143769
 21
23716.880810178882
 31
0.0
  0
ARC
  5
3CCA
  8
FUTO
 10
7400.4637969143769
 20
23716.880810178882
 30
0.0
 40
6.0
 50
180.0
 51
270.0
  0
LINE
  5
3CCB
  8
FUTO
 10
7408.4637969143769
 20
23710.880810178882
 30
0.0
 11
7408.4637969143769
 21
23705.880810178882
 31
0.0
  0
ARC
  5
3CCC
  8
FUTO
 10
7596.4637969143769
 20
23716.880810178882
 30
0.0
 40
6.0
 50
270.0
 51
0.000000000000007
  0
LINE
  5
3CCD
  8
FUTO
 10
7602.4637969143769
 20
23716.880810178882
 30
0.0
 11
7602.4637969143769
 21
23728.380810178882
 31
0.0
  0
LINE
  5
3CCF
  8
FUTO
 10
7588.4637969143769
 20
23705.880810178882
 30
0.0
 11
7588.4637969143769
 21
23710.880810178882
 31
0.0
  0
LINE
  5
3CD0
  8
FUTO
 10
7400.4637969143769
 20
23710.880810178882
 30
0.0
 11
7596.4637969143769
 21
23710.880810178882
 31
0.0
  0
LINE
  5
3CD1
  8
FUTO
 10
7408.4637969143769
 20
23705.880810178882
 30
0.0
 11
7588.4637969143769
 21
23705.880810178882
 31
0.0
  0
LINE
  5
3CD2
  8
FUTO
 10
7394.4637969143769
 20
23728.380810178882
 30
0.0
 11
7602.4637969143751
 21
23728.380810178882
 31
0.0
  0
LINE
  5
3CD4
  8
FUTO
 10
7408.4637969143769
 20
23855.880810178882
 30
0.0
 11
7408.4637969143769
 21
23860.880810178882
 31
0.0
  0
ARC
  5
3CD5
  8
FUTO
 10
7400.4637969143769
 20
23849.880810178882
 30
0.0
 40
6.0
 50
90.0
 51
180.0
  0
LINE
  5
3CD6
  8
FUTO
 10
7588.4637969143769
 20
23860.880810178882
 30
0.0
 11
7588.4637969143769
 21
23855.880810178882
 31
0.0
  0
ARC
  5
3CD7
  8
FUTO
 10
7596.4637969143769
 20
23849.880810178882
 30
0.0
 40
6.0
 50
0.000000000000007
 51
90.0
  0
LINE
  5
3CD8
  8
FUTO
 10
7602.4637969143769
 20
23849.880810178882
 30
0.0
 11
7602.4637969143769
 21
23838.380810178882
 31
0.0
  0
LINE
  5
3CDA
  8
FUTO
 10
7408.4637969143769
 20
23860.880810178882
 30
0.0
 11
7588.4637969143769
 21
23860.880810178882
 31
0.0
  0
LINE
  5
3CDB
  8
FUTO
 10
7400.4637969143769
 20
23855.880810178882
 30
0.0
 11
7596.4637969143769
 21
23855.880810178882
 31
0.0
  0
LINE
  5
3CDC
  8
FUTO
 10
7394.4637969143769
 20
23838.380810178882
 30
0.0
 11
7602.4637969143751
 21
23838.380810178882
 31
0.0
  0
LINE
  5
3CDD
  8
FUTO
 10
7543.4637969143769
 20
23852.380810178882
 30
0.0
 11
7543.4637969143769
 21
23915.180810178881
 31
0.0
  0
LINE
  5
3CDE
  8
FUTO
 10
7453.463796914376
 20
23852.380810178882
 30
0.0
 11
7453.4637969143769
 21
23913.880810178882
 31
0.0
  0
LINE
  5
3CE2
  8
KL
 10
6748.463796914376
 20
25062.580810178879
 30
0.0
 11
7489.463796914376
 21
25062.580810178879
 31
0.0
  0
INSERT
  5
3CE3
  8
FUTO
  2
まっすぐの矢印
 10
6942.2119085943923
 20
25219.227590868279
 30
0.0
 41
-2.0
 42
2.0
 43
2.0
 50
180.0
  0
LINE
  5
3CE4
  8
KL
 10
6798.463796914376
 20
25056.580810178879
 30
0.0
 11
6798.463796914376
 21
25157.380810178882
 31
0.0
  0
LINE
  5
3CE5
  8
KL
 10
6792.4637969143751
 20
25062.580810178879
 30
0.0
 11
6792.4637969143796
 21
25132.880810178882
 31
0.0
  0
LINE
  5
3CE6
  8
KL
 10
6748.463796914376
 20
25056.580810178879
 30
0.0
 11
6748.463796914376
 21
25062.580810178879
 31
0.0
  0
LINE
  5
3CE7
  8
CT
 10
6765.963796914376
 20
25033.924708935021
 30
0.0
 11
6765.963796914376
 21
25076.630347360271
 31
0.0
  0
LINE
  5
3CE8
  8
FUTO
 10
6748.463796914376
 20
25151.380810178882
 30
0.0
 11
6748.463796914376
 21
25157.380810178882
 31
0.0
  0
LINE
  5
3CE9
  8
CT
 10
6765.963796914376
 20
25128.61982291668
 30
0.0
 11
6765.963796914376
 21
25180.6092984731
 31
0.0
  0
LINE
  5
3CEA
  8
FUTO
 10
6792.4637969143751
 20
25132.880810178882
 30
0.0
 11
6792.4637969143751
 21
25151.380810178882
 31
0.0
  0
LINE
  5
3D2A
  8
FUTO
 10
7602.4637969143751
 20
23849.880810178882
 30
0.0
 11
7602.4637969143751
 21
23716.880810178882
 31
0.0
  0
LINE
  5
3D2B
  8
FUTO
 10
7591.4637969143751
 20
23123.380810178882
 30
0.0
 11
7591.4637969143751
 21
23023.380810178882
 31
0.0
  0
ARC
  5
4030
  8
FUTO
 10
8698.4637969143787
 20
22914.380810178882
 30
0.0
 40
9.0
 50
0.000000000000007
 51
180.0
  0
LINE
  5
4031
  8
FUTO
 10
8707.4637969143769
 20
22813.380810178882
 30
0.0
 11
8707.4637969143769
 21
22914.380810178882
 31
0.0
  0
LINE
  5
4032
  8
FUTO
 10
8689.4637969143769
 20
22813.380810178882
 30
0.0
 11
8689.4637969143769
 21
22914.380810178882
 31
0.0
  0
LINE
  5
4033
  8
FUTO
 10
8955.4637359143744
 20
23327.880749178879
 30
0.0
 11
8955.4637359143744
 21
23363.880810178882
 31
0.0
  0
LINE
  5
4034
  8
FUTO
 10
8958.4637359143744
 20
23327.880749178879
 30
0.0
 11
8958.4637359143744
 21
23363.880810178882
 31
0.0
  0
LINE
  5
4035
  8
FUTO
 10
8950.4637359143726
 20
23327.880749178879
 30
0.0
 11
8950.4637359143726
 21
23374.880810178882
 31
0.0
  0
LINE
  5
4036
  8
FUTO
 10
8908.4637969143769
 20
22988.880810178882
 30
0.0
 11
8908.4637969143732
 21
23035.755810178882
 31
0.0
  0
LINE
  5
4037
  8
FUTO
 10
8856.1554319098977
 20
22983.880810178882
 30
0.0
 11
8903.4637969143787
 21
22983.880810178882
 31
0.0
  0
ARC
  5
4038
  8
FUTO
 10
8903.4637969143787
 20
22988.880810178882
 30
0.0
 40
5.0
 50
270.0
 51
0.000000000000007
  0
LINE
  5
4039
  8
FUTO
 10
8888.1451421328038
 20
23035.755810178882
 30
0.0
 11
8908.4637969143732
 21
23035.755810178882
 31
0.0
  0
LINE
  5
403A
  8
FUTO
 10
8908.4637969143732
 20
23033.880810178882
 30
0.0
 11
8955.4637359143744
 21
23033.880810178882
 31
0.0
  0
LINE
  5
403B
  8
FUTO
 10
8908.4637969143732
 20
23030.880810178882
 30
0.0
 11
8958.4637359143744
 21
23030.880810178882
 31
0.0
  0
LINE
  5
403C
  8
FUTO
 10
8888.2542704826556
 20
23038.880810178882
 30
0.0
 11
8950.4637359143726
 21
23038.880810178882
 31
0.0
  0
LINE
  5
403D
  8
FUTO
 10
8950.4637359143726
 20
23038.880810178882
 30
0.0
 11
8955.4637359143744
 21
23033.880810178882
 31
0.0
  0
LINE
  5
403E
  8
FUTO
 10
8983.4637359143744
 20
23073.880810178882
 30
0.0
 11
8983.4637359143744
 21
23113.880810178882
 31
0.0
  0
LINE
  5
403F
  8
FUTO
 10
8953.4637359143744
 20
23073.880810178882
 30
0.0
 11
8953.4637359143744
 21
23113.880810178882
 31
0.0
  0
LINE
  5
4040
  8
FUTO
 10
8983.4637359143744
 20
23113.880810178882
 30
0.0
 11
8953.4637359143744
 21
23113.880810178882
 31
0.0
  0
LINE
  5
4041
  8
FUTO
 10
8953.4637359143744
 20
23073.880810178882
 30
0.0
 11
8983.4637359143744
 21
23073.880810178882
 31
0.0
  0
LINE
  5
4042
  8
CT
 10
8901.9637969143787
 20
23093.880810178882
 30
0.0
 11
9069.5181789143771
 21
23093.880810178882
 31
0.0
  0
LINE
  5
4043
  8
FUTO
 10
9057.9182039143743
 20
23111.47065417888
 30
0.0
 11
9045.8182279143766
 21
23111.47065417888
 31
0.0
  0
LINE
  5
4044
  8
FUTO
 10
9057.9182039143743
 20
23076.29096717888
 30
0.0
 11
9045.8182279143766
 21
23076.29096717888
 31
0.0
  0
LINE
  5
4045
  8
FUTO
 10
9057.9182039143743
 20
23103.585888178881
 30
0.0
 11
9045.8182279143766
 21
23103.585888178881
 31
0.0
  0
LINE
  5
4046
  8
FUTO
 10
9057.9182039143743
 20
23084.175732178879
 30
0.0
 11
9045.8182279143766
 21
23084.175732178879
 31
0.0
  0
LINE
  5
4047
  8
FUTO
 10
9059.5181789143753
 20
23109.871045178879
 30
0.0
 11
9059.5181789143753
 21
23077.89155217888
 31
0.0
  0
LINE
  5
4048
  8
FUTO
 10
9057.9182039143743
 20
23076.29096717888
 30
0.0
 11
9059.5181789143753
 21
23077.89155217888
 31
0.0
  0
LINE
  5
4049
  8
FUTO
 10
9057.9182039143743
 20
23084.175732178879
 30
0.0
 11
9059.5181789143753
 21
23082.576123178878
 31
0.0
  0
LINE
  5
404A
  8
FUTO
 10
9057.9182039143743
 20
23084.175732178879
 30
0.0
 11
9059.5181789143753
 21
23085.77631817888
 31
0.0
  0
LINE
  5
404B
  8
FUTO
 10
9059.5181789143753
 20
23109.871045178879
 30
0.0
 11
9057.9182039143743
 21
23111.47065417888
 31
0.0
  0
LINE
  5
404C
  8
FUTO
 10
9057.9182039143743
 20
23103.585888178881
 30
0.0
 11
9059.5181789143753
 21
23105.186474178881
 31
0.0
  0
LINE
  5
404D
  8
FUTO
 10
9057.9182039143743
 20
23103.585888178881
 30
0.0
 11
9059.5181789143753
 21
23101.98627917888
 31
0.0
  0
LINE
  5
404E
  8
FUTO
 10
9045.8182279143766
 20
23111.47065417888
 30
0.0
 11
9045.8182279143766
 21
23076.29096717888
 31
0.0
  0
LINE
  5
404F
  8
FUTO
 10
9045.8182279143766
 20
23084.880810178882
 30
0.0
 11
8983.4637359143744
 21
23084.880810178882
 31
0.0
  0
LINE
  5
4050
  8
HOSO
 10
8983.4637359143744
 20
23086.880810178882
 30
0.0
 11
9045.8182889143754
 21
23086.880810178882
 31
0.0
  0
LINE
  5
4051
  8
HOSO
 10
9045.8182279143766
 20
23100.880810178882
 30
0.0
 11
8983.4637359143744
 21
23100.880810178882
 31
0.0
  0
LINE
  5
4052
  8
FUTO
 10
8983.4637359143744
 20
23102.880810178882
 30
0.0
 11
9045.8182889143754
 21
23102.880810178882
 31
0.0
  0
LINE
  5
4053
  8
FUTO
 10
8953.4637359143744
 20
23084.880810178882
 30
0.0
 11
8901.9637969143787
 21
23084.880810178882
 31
0.0
  0
LINE
  5
4054
  8
HOSO
 10
8901.9637969143787
 20
23086.880810178882
 30
0.0
 11
8953.4637359143744
 21
23086.880810178882
 31
0.0
  0
LINE
  5
4055
  8
FUTO
 10
8901.9637969143787
 20
23102.880810178882
 30
0.0
 11
8953.4637359143744
 21
23102.880810178882
 31
0.0
  0
LINE
  5
4056
  8
HOSO
 10
8953.4637359143744
 20
23100.880810178882
 30
0.0
 11
8901.9637969143787
 21
23100.880810178882
 31
0.0
  0
LINE
  5
4057
  8
FUTO
 10
8958.4637359143744
 20
23030.880810178882
 30
0.0
 11
8958.4637359143744
 21
23073.880810178882
 31
0.0
  0
LINE
  5
4058
  8
FUTO
 10
8955.4637359143744
 20
23033.880810178882
 30
0.0
 11
8955.4637359143744
 21
23073.880810178882
 31
0.0
  0
LINE
  5
4059
  8
FUTO
 10
8950.4637359143726
 20
23038.880810178882
 30
0.0
 11
8950.4637359143726
 21
23084.880810178882
 31
0.0
  0
LINE
  5
405A
  8
FUTO
 10
8958.4637359143744
 20
23113.880810178882
 30
0.0
 11
8958.4637359143744
 21
23149.880810178882
 31
0.0
  0
LINE
  5
405B
  8
FUTO
 10
8955.4637359143744
 20
23113.880810178882
 30
0.0
 11
8955.4637359143744
 21
23149.880810178882
 31
0.0
  0
LINE
  5
405C
  8
FUTO
 10
8950.4637359143726
 20
23102.880810178882
 30
0.0
 11
8950.4637359143726
 21
23149.880810178882
 31
0.0
  0
LINE
  5
405D
  8
FUTO
 10
8983.4637359143744
 20
23374.880810178882
 30
0.0
 11
9045.8182889143754
 21
23374.880810178882
 31
0.0
  0
LINE
  5
405E
  8
HOSO
 10
9045.8182279143766
 20
23376.880810178882
 30
0.0
 11
8983.4637359143744
 21
23376.880810178882
 31
0.0
  0
LINE
  5
405F
  8
HOSO
 10
8983.4637359143744
 20
23390.880810178882
 30
0.0
 11
9045.8182889143754
 21
23390.880810178882
 31
0.0
  0
LINE
  5
4060
  8
FUTO
 10
9045.8182279143766
 20
23392.880810178882
 30
0.0
 11
8983.4637359143744
 21
23392.880810178882
 31
0.0
  0
LINE
  5
4061
  8
FUTO
 10
9045.8182279143766
 20
23366.29096617888
 30
0.0
 11
9045.8182279143766
 21
23401.47065317888
 31
0.0
  0
LINE
  5
4062
  8
FUTO
 10
9057.9182039143743
 20
23374.175732178879
 30
0.0
 11
9059.5181789143753
 21
23375.775341178891
 31
0.0
  0
LINE
  5
4063
  8
FUTO
 10
9057.9182039143743
 20
23374.175732178879
 30
0.0
 11
9059.5181789143753
 21
23372.575146178879
 31
0.0
  0
LINE
  5
4064
  8
FUTO
 10
9059.5181789143753
 20
23367.890575178881
 30
0.0
 11
9057.9182039143743
 21
23366.29096617888
 31
0.0
  0
LINE
  5
4065
  8
FUTO
 10
9057.9182039143743
 20
23393.585888178881
 30
0.0
 11
9059.5181789143753
 21
23391.98530217888
 31
0.0
  0
LINE
  5
4066
  8
FUTO
 10
9057.9182039143743
 20
23393.585888178881
 30
0.0
 11
9059.5181789143753
 21
23395.185497178882
 31
0.0
  0
LINE
  5
4067
  8
FUTO
 10
9057.9182039143743
 20
23401.47065317888
 30
0.0
 11
9059.5181789143753
 21
23399.87006817888
 31
0.0
  0
LINE
  5
4068
  8
FUTO
 10
9059.5181789143753
 20
23367.890575178881
 30
0.0
 11
9059.5181789143753
 21
23399.87006817888
 31
0.0
  0
LINE
  5
4069
  8
FUTO
 10
9057.9182039143743
 20
23393.585888178881
 30
0.0
 11
9045.8182279143766
 21
23393.585888178881
 31
0.0
  0
LINE
  5
406A
  8
FUTO
 10
9057.9182039143743
 20
23374.175732178879
 30
0.0
 11
9045.8182279143766
 21
23374.175732178879
 31
0.0
  0
LINE
  5
406B
  8
FUTO
 10
9057.9182039143743
 20
23401.47065317888
 30
0.0
 11
9045.8182279143766
 21
23401.47065317888
 31
0.0
  0
LINE
  5
406C
  8
FUTO
 10
9057.9182039143743
 20
23366.29096617888
 30
0.0
 11
9045.8182279143766
 21
23366.29096617888
 31
0.0
  0
LINE
  5
406D
  8
FUTO
 10
8953.4637359143744
 20
23403.880810178882
 30
0.0
 11
8983.4637359143744
 21
23403.880810178882
 31
0.0
  0
LINE
  5
406E
  8
FUTO
 10
8983.4637359143744
 20
23363.880810178882
 30
0.0
 11
8953.4637359143744
 21
23363.880810178882
 31
0.0
  0
LINE
  5
406F
  8
FUTO
 10
8953.4637359143744
 20
23403.880810178882
 30
0.0
 11
8953.4637359143744
 21
23363.880810178882
 31
0.0
  0
LINE
  5
4070
  8
FUTO
 10
8983.4637359143744
 20
23403.880810178882
 30
0.0
 11
8983.4637359143744
 21
23363.880810178882
 31
0.0
  0
LINE
  5
4071
  8
HOSO
 10
8953.4637359143744
 20
23376.880810178882
 30
0.0
 11
8901.9637969143787
 21
23376.880810178882
 31
0.0
  0
LINE
  5
4072
  8
FUTO
 10
8901.9637969143787
 20
23374.880810178882
 30
0.0
 11
8953.4637359143744
 21
23374.880810178882
 31
0.0
  0
LINE
  5
4073
  8
HOSO
 10
8901.9637969143787
 20
23390.880810178882
 30
0.0
 11
8953.4637359143744
 21
23390.880810178882
 31
0.0
  0
LINE
  5
4074
  8
FUTO
 10
8953.4637359143744
 20
23392.880810178882
 30
0.0
 11
8901.9637969143787
 21
23392.880810178882
 31
0.0
  0
LINE
  5
4075
  8
CT
 10
8901.9637969143787
 20
23383.880810178882
 30
0.0
 11
9069.5181789143771
 21
23383.880810178882
 31
0.0
  0
LINE
  5
4076
  8
FUTO
 10
8950.4637359143726
 20
23438.880810178882
 30
0.0
 11
8955.4637359143744
 21
23443.880810178882
 31
0.0
  0
LINE
  5
4077
  8
FUTO
 10
8908.4637969143732
 20
23446.880810178882
 30
0.0
 11
8958.4637359143744
 21
23446.880810178882
 31
0.0
  0
LINE
  5
4078
  8
FUTO
 10
8908.4637969143732
 20
23443.880810178882
 30
0.0
 11
8955.4637359143744
 21
23443.880810178882
 31
0.0
  0
LINE
  5
4079
  8
FUTO
 10
8901.9637969143732
 20
23442.005810178882
 30
0.0
 11
8908.4637969143732
 21
23442.005810178882
 31
0.0
  0
LINE
  5
407A
  8
FUTO
 10
8901.9637969143787
 20
23438.880810178882
 30
0.0
 11
8950.4637359143726
 21
23438.880810178882
 31
0.0
  0
LINE
  5
407B
  8
FUTO
 10
8950.4637359143726
 20
23438.880810178882
 30
0.0
 11
8950.4637359143726
 21
23392.880810178882
 31
0.0
  0
LINE
  5
407C
  8
FUTO
 10
8955.4637359143744
 20
23443.880810178882
 30
0.0
 11
8955.4637359143744
 21
23403.880810178882
 31
0.0
  0
LINE
  5
407D
  8
FUTO
 10
8958.4637359143744
 20
23446.880810178882
 30
0.0
 11
8958.4637359143744
 21
23403.880810178882
 31
0.0
  0
ARC
  5
407E
  8
FUTO
 10
8903.4637969143787
 20
23488.880810178882
 30
0.0
 40
5.0
 50
0.000000000000007
 51
90.000000000000028
  0
LINE
  5
407F
  8
FUTO
 10
8908.4637969143769
 20
23488.880810178882
 30
0.0
 11
8908.4637969143732
 21
23442.005810178882
 31
0.0
  0
LINE
  5
4080
  8
FUTO
 10
8890.9637969143769
 20
23493.880810178882
 30
0.0
 11
8903.4637969143787
 21
23493.880810178882
 31
0.0
  0
LINE
  5
4081
  8
CT
 10
8494.9637969143732
 20
23383.880810178882
 30
0.0
 11
8327.4094149143766
 21
23383.880810178882
 31
0.0
  0
LINE
  5
4082
  8
FUTO
 10
8443.4638579143775
 20
23392.880810178882
 30
0.0
 11
8494.9637969143769
 21
23392.880810178882
 31
0.0
  0
LINE
  5
4083
  8
HOSO
 10
8494.9637969143769
 20
23390.880810178882
 30
0.0
 11
8443.4638579143775
 21
23390.880810178882
 31
0.0
  0
LINE
  5
4084
  8
FUTO
 10
8494.9637969143769
 20
23374.880810178882
 30
0.0
 11
8443.4638579143775
 21
23374.880810178882
 31
0.0
  0
LINE
  5
4085
  8
HOSO
 10
8443.4638579143775
 20
23376.880810178882
 30
0.0
 11
8494.9637969143769
 21
23376.880810178882
 31
0.0
  0
LINE
  5
4086
  8
FUTO
 10
8413.4638579143757
 20
23403.880810178882
 30
0.0
 11
8413.4638579143757
 21
23363.880810178882
 31
0.0
  0
LINE
  5
4087
  8
FUTO
 10
8443.4638579143775
 20
23403.880810178882
 30
0.0
 11
8443.4638579143775
 21
23363.880810178882
 31
0.0
  0
LINE
  5
4088
  8
FUTO
 10
8413.4638579143757
 20
23363.880810178882
 30
0.0
 11
8443.4638579143775
 21
23363.880810178882
 31
0.0
  0
LINE
  5
4089
  8
FUTO
 10
8443.4638579143775
 20
23403.880810178882
 30
0.0
 11
8413.4638579143757
 21
23403.880810178882
 31
0.0
  0
LINE
  5
408A
  8
FUTO
 10
8339.0093899143776
 20
23366.29096617888
 30
0.0
 11
8351.1093659143771
 21
23366.29096617888
 31
0.0
  0
LINE
  5
408B
  8
FUTO
 10
8339.0093899143776
 20
23401.47065317888
 30
0.0
 11
8351.1093659143771
 21
23401.47065317888
 31
0.0
  0
LINE
  5
408C
  8
FUTO
 10
8339.0093899143776
 20
23374.175732178879
 30
0.0
 11
8351.1093659143771
 21
23374.175732178879
 31
0.0
  0
LINE
  5
408D
  8
FUTO
 10
8339.0093899143776
 20
23393.585888178881
 30
0.0
 11
8351.1093659143771
 21
23393.585888178881
 31
0.0
  0
LINE
  5
408E
  8
FUTO
 10
8337.4094149143748
 20
23367.890575178881
 30
0.0
 11
8337.4094149143748
 21
23399.87006817888
 31
0.0
  0
LINE
  5
408F
  8
FUTO
 10
8339.0093899143776
 20
23401.47065317888
 30
0.0
 11
8337.4094149143748
 21
23399.87006817888
 31
0.0
  0
LINE
  5
4090
  8
FUTO
 10
8339.0093899143776
 20
23393.585888178881
 30
0.0
 11
8337.4094149143748
 21
23395.185497178882
 31
0.0
  0
LINE
  5
4091
  8
FUTO
 10
8339.0093899143776
 20
23393.585888178881
 30
0.0
 11
8337.4094149143748
 21
23391.98530217888
 31
0.0
  0
LINE
  5
4092
  8
FUTO
 10
8337.4094149143748
 20
23367.890575178881
 30
0.0
 11
8339.0093899143776
 21
23366.29096617888
 31
0.0
  0
LINE
  5
4093
  8
FUTO
 10
8339.0093899143776
 20
23374.175732178879
 30
0.0
 11
8337.4094149143748
 21
23372.575146178879
 31
0.0
  0
LINE
  5
4094
  8
FUTO
 10
8339.0093899143776
 20
23374.175732178879
 30
0.0
 11
8337.4094149143748
 21
23375.775341178891
 31
0.0
  0
LINE
  5
4095
  8
FUTO
 10
8351.1093659143771
 20
23366.29096617888
 30
0.0
 11
8351.1093659143771
 21
23401.47065317888
 31
0.0
  0
LINE
  5
4096
  8
FUTO
 10
8351.1093659143771
 20
23392.880810178882
 30
0.0
 11
8413.4638579143757
 21
23392.880810178882
 31
0.0
  0
LINE
  5
4097
  8
HOSO
 10
8413.4638579143757
 20
23390.880810178882
 30
0.0
 11
8351.1093049143747
 21
23390.880810178882
 31
0.0
  0
LINE
  5
4098
  8
HOSO
 10
8351.1093659143771
 20
23376.880810178882
 30
0.0
 11
8413.4638579143757
 21
23376.880810178882
 31
0.0
  0
LINE
  5
4099
  8
FUTO
 10
8413.4638579143757
 20
23374.880810178882
 30
0.0
 11
8351.1093049143747
 21
23374.880810178882
 31
0.0
  0
LINE
  5
409A
  8
FUTO
 10
8438.4638579143757
 20
23446.880810178882
 30
0.0
 11
8438.4638579143757
 21
23403.880810178882
 31
0.0
  0
LINE
  5
409B
  8
FUTO
 10
8441.4638579143757
 20
23443.880810178882
 30
0.0
 11
8441.4638579143757
 21
23403.880810178882
 31
0.0
  0
LINE
  5
409C
  8
FUTO
 10
8446.4638579143757
 20
23438.880810178882
 30
0.0
 11
8446.4638579143757
 21
23392.880810178882
 31
0.0
  0
LINE
  5
409D
  8
FUTO
 10
8505.9637969143769
 20
23493.880810178882
 30
0.0
 11
8493.4637969143769
 21
23493.880810178882
 31
0.0
  0
LINE
  5
409E
  8
FUTO
 10
8494.9637969143769
 20
23438.880810178882
 30
0.0
 11
8446.4638579143757
 21
23438.880810178882
 31
0.0
  0
LINE
  5
409F
  8
FUTO
 10
8494.9637969143769
 20
23442.005810178882
 30
0.0
 11
8488.4637969143769
 21
23442.005810178882
 31
0.0
  0
LINE
  5
40A0
  8
FUTO
 10
8488.4637969143769
 20
23488.880810178882
 30
0.0
 11
8488.4637969143769
 21
23442.005810178882
 31
0.0
  0
LINE
  5
40A1
  8
FUTO
 10
8488.4637969143769
 20
23443.880810178882
 30
0.0
 11
8441.4638579143757
 21
23443.880810178882
 31
0.0
  0
LINE
  5
40A2
  8
FUTO
 10
8488.4637969143769
 20
23446.880810178882
 30
0.0
 11
8438.4638579143757
 21
23446.880810178882
 31
0.0
  0
ARC
  5
40A3
  8
FUTO
 10
8493.4637969143769
 20
23488.880810178882
 30
0.0
 40
5.0
 50
90.000000000000028
 51
180.0
  0
LINE
  5
40A4
  8
FUTO
 10
8446.4638579143757
 20
23438.880810178882
 30
0.0
 11
8441.4638579143757
 21
23443.880810178882
 31
0.0
  0
LINE
  5
40A5
  8
FUTO
 10
8508.7824516959481
 20
23035.755810178882
 30
0.0
 11
8488.4637969143769
 21
23035.755810178882
 31
0.0
  0
LINE
  5
40A6
  8
FUTO
 10
8446.4638579143757
 20
23102.880810178882
 30
0.0
 11
8446.4638579143757
 21
23374.880810178882
 31
0.0
  0
LINE
  5
40A7
  8
FUTO
 10
8446.4638579143757
 20
23038.880810178882
 30
0.0
 11
8441.4638579143757
 21
23033.880810178882
 31
0.0
  0
LINE
  5
40A8
  8
FUTO
 10
8446.4638579143757
 20
23038.880810178882
 30
0.0
 11
8446.4638579143757
 21
23084.880810178882
 31
0.0
  0
LINE
  5
40A9
  8
FUTO
 10
8508.6733233460945
 20
23038.880810178882
 30
0.0
 11
8446.4638579143757
 21
23038.880810178882
 31
0.0
  0
ARC
  5
40AA
  8
FUTO
 10
8493.4637969143769
 20
22988.880810178882
 30
0.0
 40
5.0
 50
180.0
 51
270.0
  0
LINE
  5
40AB
  8
FUTO
 10
8488.4637969143769
 20
23030.880810178882
 30
0.0
 11
8438.4638579143757
 21
23030.880810178882
 31
0.0
  0
LINE
  5
40AC
  8
FUTO
 10
8488.4637969143769
 20
23033.880810178882
 30
0.0
 11
8441.4638579143757
 21
23033.880810178882
 31
0.0
  0
LINE
  5
40AD
  8
FUTO
 10
8540.7721619188524
 20
22983.880810178882
 30
0.0
 11
8493.4637969143769
 21
22983.880810178882
 31
0.0
  0
LINE
  5
40AE
  8
FUTO
 10
8488.4637969143769
 20
22988.880810178882
 30
0.0
 11
8488.4637969143769
 21
23035.755810178882
 31
0.0
  0
LINE
  5
40AF
  8
FUTO
 10
8441.4638579143757
 20
23113.880810178882
 30
0.0
 11
8441.4638579143757
 21
23363.880810178882
 31
0.0
  0
LINE
  5
40B0
  8
FUTO
 10
8438.4638579143757
 20
23113.880810178882
 30
0.0
 11
8438.4638579143757
 21
23363.880810178882
 31
0.0
  0
LINE
  5
40B1
  8
FUTO
 10
8441.4638579143757
 20
23033.880810178882
 30
0.0
 11
8441.4638579143757
 21
23073.880810178882
 31
0.0
  0
LINE
  5
40B2
  8
FUTO
 10
8438.4638579143757
 20
23030.880810178882
 30
0.0
 11
8438.4638579143757
 21
23073.880810178882
 31
0.0
  0
LINE
  5
40B3
  8
HOSO
 10
8443.4638579143775
 20
23100.880810178882
 30
0.0
 11
8494.9637969143769
 21
23100.880810178882
 31
0.0
  0
LINE
  5
40B4
  8
FUTO
 10
8494.9637969143769
 20
23102.880810178882
 30
0.0
 11
8443.4638579143775
 21
23102.880810178882
 31
0.0
  0
LINE
  5
40B5
  8
HOSO
 10
8494.9637969143769
 20
23086.880810178882
 30
0.0
 11
8443.4638579143775
 21
23086.880810178882
 31
0.0
  0
LINE
  5
40B6
  8
FUTO
 10
8443.4638579143775
 20
23084.880810178882
 30
0.0
 11
8494.9637969143769
 21
23084.880810178882
 31
0.0
  0
LINE
  5
40B7
  8
FUTO
 10
8413.4638579143757
 20
23102.880810178882
 30
0.0
 11
8351.1093049143747
 21
23102.880810178882
 31
0.0
  0
LINE
  5
40B8
  8
HOSO
 10
8351.1093659143771
 20
23100.880810178882
 30
0.0
 11
8413.4638579143757
 21
23100.880810178882
 31
0.0
  0
LINE
  5
40B9
  8
HOSO
 10
8413.4638579143757
 20
23086.880810178882
 30
0.0
 11
8351.1093049143747
 21
23086.880810178882
 31
0.0
  0
LINE
  5
40BA
  8
FUTO
 10
8351.1093659143771
 20
23084.880810178882
 30
0.0
 11
8413.4638579143757
 21
23084.880810178882
 31
0.0
  0
LINE
  5
40BB
  8
FUTO
 10
8351.1093659143771
 20
23111.47065417888
 30
0.0
 11
8351.1093659143771
 21
23076.29096717888
 31
0.0
  0
LINE
  5
40BC
  8
FUTO
 10
8339.0093899143776
 20
23103.585888178881
 30
0.0
 11
8337.4094149143748
 21
23101.98627917888
 31
0.0
  0
LINE
  5
40BD
  8
FUTO
 10
8339.0093899143776
 20
23103.585888178881
 30
0.0
 11
8337.4094149143748
 21
23105.186474178881
 31
0.0
  0
LINE
  5
40BE
  8
FUTO
 10
8337.4094149143748
 20
23109.871045178879
 30
0.0
 11
8339.0093899143776
 21
23111.47065417888
 31
0.0
  0
LINE
  5
40BF
  8
FUTO
 10
8339.0093899143776
 20
23084.175732178879
 30
0.0
 11
8337.4094149143748
 21
23085.77631817888
 31
0.0
  0
LINE
  5
40C0
  8
FUTO
 10
8339.0093899143776
 20
23084.175732178879
 30
0.0
 11
8337.4094149143748
 21
23082.576123178878
 31
0.0
  0
LINE
  5
40C1
  8
FUTO
 10
8339.0093899143776
 20
23076.29096717888
 30
0.0
 11
8337.4094149143748
 21
23077.89155217888
 31
0.0
  0
LINE
  5
40C2
  8
FUTO
 10
8337.4094149143748
 20
23109.871045178879
 30
0.0
 11
8337.4094149143748
 21
23077.89155217888
 31
0.0
  0
LINE
  5
40C3
  8
FUTO
 10
8339.0093899143776
 20
23084.175732178879
 30
0.0
 11
8351.1093659143771
 21
23084.175732178879
 31
0.0
  0
LINE
  5
40C4
  8
FUTO
 10
8339.0093899143776
 20
23103.585888178881
 30
0.0
 11
8351.1093659143771
 21
23103.585888178881
 31
0.0
  0
LINE
  5
40C5
  8
FUTO
 10
8339.0093899143776
 20
23076.29096717888
 30
0.0
 11
8351.1093659143771
 21
23076.29096717888
 31
0.0
  0
LINE
  5
40C6
  8
FUTO
 10
8339.0093899143776
 20
23111.47065417888
 30
0.0
 11
8351.1093659143771
 21
23111.47065417888
 31
0.0
  0
LINE
  5
40C7
  8
CT
 10
8494.9637969143732
 20
23093.880810178882
 30
0.0
 11
8327.4094149143766
 21
23093.880810178882
 31
0.0
  0
LINE
  5
40C8
  8
FUTO
 10
8443.4638579143775
 20
23073.880810178882
 30
0.0
 11
8413.4638579143757
 21
23073.880810178882
 31
0.0
  0
LINE
  5
40C9
  8
FUTO
 10
8413.4638579143757
 20
23113.880810178882
 30
0.0
 11
8443.4638579143775
 21
23113.880810178882
 31
0.0
  0
LINE
  5
40CA
  8
FUTO
 10
8443.4638579143775
 20
23073.880810178882
 30
0.0
 11
8443.4638579143775
 21
23113.880810178882
 31
0.0
  0
LINE
  5
40CB
  8
FUTO
 10
8413.4638579143757
 20
23073.880810178882
 30
0.0
 11
8413.4638579143757
 21
23113.880810178882
 31
0.0
  0
ARC
  5
40CC
  8
FUTO
 10
9030.0929469143739
 20
23300.880749178879
 30
0.0
 40
20.0
 50
0.000000000000007
 51
90.000000000000028
  0
ARC
  5
40CD
  8
FUTO
 10
9030.0929469143739
 20
23176.880810178882
 30
0.0
 40
20.0
 50
270.0
 51
0.000000000000007
  0
ARC
  5
40CE
  8
FUTO
 10
9040.0929469143757
 20
23159.880810178882
 30
0.0
 40
10.0
 50
270.0
 51
0.000000000000007
  0
ARC
  5
40CF
  8
FUTO
 10
9040.0929469143757
 20
23317.880749178879
 30
0.0
 40
10.0
 50
0.000000000000007
 51
90.000000000000028
  0
ARC
  5
40D0
  8
FUTO
 10
8937.2362220154828
 20
23159.880810178882
 30
0.0
 40
10.0
 50
180.0
 51
270.0
  0
ARC
  5
40D1
  8
FUTO
 10
8940.4033375538147
 20
23159.880810178882
 30
0.0
 40
10.0
 50
180.0
 51
270.0
  0
ARC
  5
40D2
  8
FUTO
 10
8937.2362220154828
 20
23317.880749178879
 30
0.0
 40
10.0
 50
90.000000000000028
 51
180.0
  0
ARC
  5
40D3
  8
FUTO
 10
8940.4033375538147
 20
23317.880749178879
 30
0.0
 40
10.0
 50
90.000000000000028
 51
180.0
  0
LINE
  5
40D4
  8
FUTO
 10
8937.5999408332718
 20
23156.880810178882
 30
0.0
 11
9030.0929469143739
 21
23156.880810178882
 31
0.0
  0
LINE
  5
40D5
  8
FUTO
 10
8937.5999408332718
 20
23320.880749178879
 30
0.0
 11
9030.0929469143739
 21
23320.880749178879
 31
0.0
  0
ARC
  5
40D6
  8
FUTO
 10
8923.4637969143769
 20
23161.880810178882
 30
0.0
 40
5.0
 50
180.0
 51
270.0
  0
ARC
  5
40D7
  8
FUTO
 10
8923.4637969143769
 20
23315.880749178879
 30
0.0
 40
5.0
 50
90.000000000000028
 51
180.0
  0
ARC
  5
40D8
  8
FUTO
 10
8937.5999408332718
 20
23161.880810178882
 30
0.0
 40
5.0
 50
180.0
 51
270.0
  0
ARC
  5
40D9
  8
FUTO
 10
8937.5999408332718
 20
23315.880749178879
 30
0.0
 40
5.0
 50
90.000000000000028
 51
180.0
  0
LINE
  5
40DA
  8
FUTO
 10
8937.2362220154828
 20
23149.880810178882
 30
0.0
 11
9040.0929469143757
 21
23149.880810178882
 31
0.0
  0
LINE
  5
40DB
  8
FUTO
 10
8923.4637969143769
 20
23156.880810178882
 30
0.0
 11
8927.2362220154828
 21
23156.880810178882
 31
0.0
  0
LINE
  5
40DC
  8
FUTO
 10
8937.2362220154828
 20
23327.880749178879
 30
0.0
 11
9040.0929469143757
 21
23327.880749178879
 31
0.0
  0
LINE
  5
40DD
  8
FUTO
 10
8923.4637969143769
 20
23320.880749178879
 30
0.0
 11
8927.2362220154828
 21
23320.880749178879
 31
0.0
  0
LINE
  5
40DE
  8
FUTO
 10
8901.9637969143787
 20
23298.880810178882
 30
0.0
 11
8901.9637969143787
 21
23405.69158092792
 31
0.0
  0
LINE
  5
40DF
  8
FUTO
 10
8918.4637969143769
 20
23178.880810178882
 30
0.0
 11
8850.7373993541933
 21
23178.880810178882
 31
0.0
  0
LINE
  5
40E0
  8
FUTO
 10
8918.4637969143769
 20
23298.880810178882
 30
0.0
 11
8850.7373993541933
 21
23298.880810178882
 31
0.0
  0
LINE
  5
40E1
  8
FUTO
 10
9008.7831329143792
 20
23176.880810178882
 30
0.0
 11
9008.7831329143737
 21
23300.880749178879
 31
0.0
  0
LINE
  5
40E2
  8
FUTO
 10
8932.5999408332718
 20
23161.880810178882
 30
0.0
 11
8932.5999408332718
 21
23315.880749178879
 31
0.0
  0
LINE
  5
40E3
  8
FUTO
 10
8930.4033375538165
 20
23159.880810178882
 30
0.0
 11
8930.4033375538165
 21
23317.880749178879
 31
0.0
  0
LINE
  5
40E4
  8
FUTO
 10
8927.2362220154828
 20
23159.880810178882
 30
0.0
 11
8927.2362220154828
 21
23317.880749178879
 31
0.0
  0
LINE
  5
40E5
  8
FUTO
 10
8918.4637969143769
 20
23161.880810178882
 30
0.0
 11
8918.4637969143769
 21
23315.880749178879
 31
0.0
  0
LINE
  5
40E6
  8
FUTO
 10
8908.4637969143769
 20
23178.880810178882
 30
0.0
 11
8908.4637969143769
 21
23298.880810178882
 31
0.0
  0
LINE
  5
40E7
  8
FUTO
 10
8850.7373993541933
 20
23178.880810178882
 30
0.0
 11
8850.7373993541933
 21
23298.880810178882
 31
0.0
  0
LINE
  5
40E8
  8
FUTO
 10
9050.0929469143739
 20
23159.880810178882
 30
0.0
 11
9050.0929469143739
 21
23317.880749178879
 31
0.0
  0
LINE
  5
40E9
  8
FUTO
 10
8704.7137969143769
 20
23215.130810178882
 30
0.0
 11
8704.7137969143769
 21
23262.630810178882
 31
0.0
  0
ARC
  5
40EA
  8
FUTO
 10
8698.4637969143787
 20
23215.130810178882
 30
0.0
 40
6.25
 50
180.0
 51
0.000000000000007
  0
ARC
  5
40EB
  8
FUTO
 10
8698.4637969143787
 20
23262.630810178882
 30
0.0
 40
6.25
 50
0.000000000000007
 51
180.0
  0
LINE
  5
40EC
  8
CT
 10
9070.0929469143757
 20
23238.880810178882
 30
0.0
 11
8418.4638579143757
 21
23238.880810178882
 31
0.0
  0
LINE
  5
40ED
  8
FUTO
 10
8692.2137969143732
 20
23215.130810178882
 30
0.0
 11
8692.2137969143787
 21
23262.630810178882
 31
0.0
  0
LINE
  5
40EE
  8
FUTO
 10
8901.9637969143732
 20
23405.69158092792
 30
0.0
 11
8900.1420199143759
 21
23407.880749178879
 31
0.0
  0
LINE
  5
40EF
  8
FUTO
 10
8901.9637969143787
 20
23072.069897178881
 30
0.0
 11
8895.4637969143769
 21
23064.258984178879
 31
0.0
  0
LINE
  5
40F0
  8
FUTO
 10
8901.9637969143787
 20
23072.069897178881
 30
0.0
 11
8901.9637969143787
 21
23178.880810178882
 31
0.0
  0
LINE
  5
40F1
  8
FUTO
 10
8494.9637969143769
 20
23072.069897178881
 30
0.0
 11
8494.9637969143732
 21
23405.69158092792
 31
0.0
  0
ARC
  5
40F2
  8
FUTO
 10
8776.4637969143769
 20
22965.380810178882
 30
0.0
 40
2.0
 50
270.0
 51
0.000000000000007
  0
ARC
  5
40F3
  8
FUTO
 10
8781.4637969143787
 20
22975.53388617888
 30
0.0
 40
2.9999599999999988
 50
92.999557000034059
 51
180.0
  0
LINE
  5
40F4
  8
FUTO
 10
8778.4637969143787
 20
22975.53388617888
 30
0.0
 11
8778.4637969143787
 21
22965.380810178882
 31
0.0
  0
ARC
  5
40F5
  8
FUTO
 10
8877.559744914377
 20
23019.166455178882
 30
0.0
 40
9.9999679999999991
 50
315.0
 51
358.00067100000211
  0
ARC
  5
40F6
  8
FUTO
 10
8850.5665809143757
 20
22992.173290178878
 30
0.0
 40
10.000024
 50
272.99903899993512
 51
315.0
  0
LINE
  5
40F7
  8
FUTO
 10
8884.6307899143758
 20
23012.095410178881
 30
0.0
 11
8857.6376249143759
 21
22985.102246178882
 31
0.0
  0
LINE
  5
40F8
  8
FUTO
 10
8888.4637969143769
 20
23044.880810178882
 30
0.0
 11
8887.5536409143733
 21
23018.817578178881
 31
0.0
  0
LINE
  5
40F9
  8
FUTO
 10
8851.0897739143766
 20
22982.186962178879
 30
0.0
 11
8762.4984649143771
 21
22977.544140178881
 31
0.0
  0
LINE
  5
40FA
  8
FUTO
 10
8860.4637969143769
 20
23054.880810178882
 30
0.0
 11
8536.4637969143769
 21
23054.880810178882
 31
0.0
  0
LINE
  5
40FB
  8
FUTO
 10
8860.4637969143769
 20
23044.880810178882
 30
0.0
 11
8860.4637969143769
 21
23049.880810178882
 31
0.0
  0
LINE
  5
40FC
  8
FUTO
 10
8860.4637969143769
 20
23049.880810178882
 30
0.0
 11
8860.4637969143769
 21
23054.880810178882
 31
0.0
  0
LINE
  5
40FD
  8
FUTO
 10
8895.4637969143769
 20
23064.258984178879
 30
0.0
 11
8860.4637969143769
 21
23054.880810178882
 31
0.0
  0
ARC
  5
40FE
  8
FUTO
 10
8881.9637969143769
 20
23454.354138178878
 30
0.0
 40
20.0
 50
0.000000000000007
 51
20.000046000008609
  0
ARC
  5
40FF
  8
FUTO
 10
8910.9637969143787
 20
23491.629528178881
 30
0.0
 40
20.0
 50
180.0
 51
199.9997250000032
  0
LINE
  5
4100
  8
FUTO
 10
8846.1127229143749
 20
23436.380749178879
 30
0.0
 11
8849.8656529143773
 21
23442.880749178879
 31
0.0
  0
LINE
  5
4101
  8
FUTO
 10
8849.8656529143773
 20
23442.880749178879
 30
0.0
 11
8846.1127229143749
 21
23449.380749178879
 31
0.0
  0
LINE
  5
4102
  8
FUTO
 10
8900.7577429143748
 20
23461.194592178879
 30
0.0
 11
8892.1698519143756
 21
23484.789196178881
 31
0.0
  0
LINE
  5
4103
  8
FUTO
 10
8901.9637969143787
 20
23407.880749178879
 30
0.0
 11
8901.9637969143787
 21
23454.354138178878
 31
0.0
  0
LINE
  5
4104
  8
FUTO
 10
8834.8544219143769
 20
23442.880749178879
 30
0.0
 11
8838.6073519143756
 21
23449.380749178879
 31
0.0
  0
LINE
  5
4105
  8
FUTO
 10
8838.6073519143756
 20
23436.380749178879
 30
0.0
 11
8834.8544219143769
 21
23442.880749178879
 31
0.0
  0
LINE
  5
4106
  8
CT
 10
8842.3600379143736
 20
23435.43861017888
 30
0.0
 11
8842.3600379143736
 21
23449.894665178879
 31
0.0
  0
LINE
  5
4107
  8
CT
 10
8833.9694129143754
 20
23442.880749178879
 30
0.0
 11
8850.7909459143739
 21
23442.880749178879
 31
0.0
  0
LINE
  5
4108
  8
FUTO
 10
8838.6073519143756
 20
23449.380749178879
 30
0.0
 11
8846.1127229143749
 21
23449.380749178879
 31
0.0
  0
LINE
  5
4109
  8
FUTO
 10
8838.6073519143756
 20
23436.380749178879
 30
0.0
 11
8846.1127229143749
 21
23436.380749178879
 31
0.0
  0
CIRCLE
  5
410A
  8
FUTO
 10
8842.3600379143736
 20
23442.880749178879
 30
0.0
 40
6.5
  0
ARC
  5
410B
  8
FUTO
 10
8875.9637969143769
 20
23552.569836178882
 30
0.0
 40
15.0
 50
0.000000000000007
 51
29.999816999981821
  0
ARC
  5
410C
  8
FUTO
 10
8855.5770789143753
 20
23607.880749178879
 30
0.0
 40
4.9999580000000003
 50
30.000281999972739
 51
90.000000000000028
  0
LINE
  5
410D
  8
FUTO
 10
8859.9071569143744
 20
23610.380749178879
 30
0.0
 11
8888.9542759143769
 21
23560.069836178882
 31
0.0
  0
LINE
  5
410E
  8
FUTO
 10
8890.9637969143769
 20
23491.629528178881
 30
0.0
 11
8890.9637969143769
 21
23552.569836178882
 31
0.0
  0
LINE
  5
410F
  8
FUTO
 10
8505.9637969143769
 20
23491.629528178881
 30
0.0
 11
8505.9637969143769
 21
23552.569836178882
 31
0.0
  0
LINE
  5
4110
  8
CT
 10
8698.4637969143787
 20
22793.380810178882
 30
0.0
 11
8698.4637969143787
 21
23632.880810178882
 31
0.0
  0
LINE
  5
4111
  8
FUTO
 10
8540.8138329143767
 20
23612.880810178882
 30
0.0
 11
8855.6041469143747
 21
23612.880810178882
 31
0.0
  0
LINE
  5
4112
  8
FUTO
 10
8890.9637969143769
 20
23553.780773178882
 30
0.0
 11
8506.0128689143748
 21
23553.780773178882
 31
0.0
  0
LINE
  5
4113
  8
FUTO
 10
8537.0204369143758
 20
23610.380749178879
 30
0.0
 11
8507.9733179143768
 21
23560.069836178882
 31
0.0
  0
ARC
  5
4114
  8
FUTO
 10
8541.3505149143748
 20
23607.880749178879
 30
0.0
 40
4.9999580000000003
 50
90.000000000000028
 51
149.9997180000272
  0
ARC
  5
4115
  8
FUTO
 10
8520.9637969143787
 20
23552.569836178882
 30
0.0
 40
15.0
 50
150.00018300001821
 51
180.0
  0
LINE
  5
4116
  8
FUTO
 10
8776.4637969143769
 20
22963.380810178882
 30
0.0
 11
8698.4637969143787
 21
22963.380810178882
 31
0.0
  0
LINE
  5
4117
  8
FUTO
 10
8888.4637969143769
 20
23044.880810178882
 30
0.0
 11
8698.4637969143787
 21
23044.880810178882
 31
0.0
  0
LINE
  5
4118
  8
FUTO
 10
8860.4637969143769
 20
23049.880810178882
 30
0.0
 11
8698.4637969143787
 21
23049.880810178882
 31
0.0
  0
LINE
  5
4119
  8
FUTO
 10
8505.6464139143754
 20
23488.080700178882
 30
0.0
 11
8890.9637969143769
 21
23488.080700178882
 31
0.0
  0
LINE
  5
411A
  8
FUTO
 10
8495.2772729143762
 20
23457.880749178879
 30
0.0
 11
8901.6504171132474
 21
23457.880749178879
 31
0.0
  0
LINE
  5
411B
  8
FUTO
 10
8494.9637969143769
 20
23407.880749178879
 30
0.0
 11
8900.1420199143759
 21
23407.880749178879
 31
0.0
  0
LINE
  5
411C
  8
FUTO
 10
8860.4637969143769
 20
23049.880810178882
 30
0.0
 11
8698.4637969143787
 21
23049.880810178882
 31
0.0
  0
CIRCLE
  5
411D
  8
FUTO
 10
8554.5675559143747
 20
23442.880749178879
 30
0.0
 40
6.5
  0
LINE
  5
411E
  8
FUTO
 10
8558.3202419143745
 20
23436.380749178879
 30
0.0
 11
8550.8148709143752
 21
23436.380749178879
 31
0.0
  0
LINE
  5
411F
  8
FUTO
 10
8558.3202419143745
 20
23449.380749178879
 30
0.0
 11
8550.8148709143752
 21
23449.380749178879
 31
0.0
  0
LINE
  5
4120
  8
CT
 10
8562.9581809143747
 20
23442.880749178879
 30
0.0
 11
8546.1366479143762
 21
23442.880749178879
 31
0.0
  0
LINE
  5
4121
  8
CT
 10
8554.5675559143747
 20
23435.43861017888
 30
0.0
 11
8554.5675559143747
 21
23449.894665178879
 31
0.0
  0
LINE
  5
4122
  8
FUTO
 10
8558.3202419143745
 20
23436.380749178879
 30
0.0
 11
8562.0731719143769
 21
23442.880749178879
 31
0.0
  0
LINE
  5
4123
  8
FUTO
 10
8562.0731719143769
 20
23442.880749178879
 30
0.0
 11
8558.3202419143745
 21
23449.380749178879
 31
0.0
  0
LINE
  5
4124
  8
FUTO
 10
8494.9637969143769
 20
23407.880749178879
 30
0.0
 11
8494.9637969143769
 21
23454.354138178878
 31
0.0
  0
LINE
  5
4125
  8
FUTO
 10
8496.1698509143753
 20
23461.194592178879
 30
0.0
 11
8504.7577419143745
 21
23484.789196178881
 31
0.0
  0
LINE
  5
4126
  8
FUTO
 10
8547.0619409143765
 20
23442.880749178879
 30
0.0
 11
8550.8148709143752
 21
23449.380749178879
 31
0.0
  0
LINE
  5
4127
  8
FUTO
 10
8550.8148709143752
 20
23436.380749178879
 30
0.0
 11
8547.0619409143765
 21
23442.880749178879
 31
0.0
  0
ARC
  5
4128
  8
FUTO
 10
8485.9637969143769
 20
23491.629528178881
 30
0.0
 40
20.0
 50
340.0002749999968
 51
0.000000000000007
  0
ARC
  5
4129
  8
FUTO
 10
8514.9637969143769
 20
23454.354138178878
 30
0.0
 40
20.0
 50
159.99995399999131
 51
180.0
  0
LINE
  5
412A
  8
FUTO
 10
8494.9637969143769
 20
23405.69158092792
 30
0.0
 11
8496.7855739143743
 21
23407.880749178879
 31
0.0
  0
LINE
  5
412B
  8
FUTO
 10
8536.4637969143769
 20
23049.880810178882
 30
0.0
 11
8698.4637969143787
 21
23049.880810178882
 31
0.0
  0
LINE
  5
412C
  8
FUTO
 10
8545.8378199143772
 20
22982.186962178879
 30
0.0
 11
8634.4291289143766
 21
22977.544140178881
 31
0.0
  0
LINE
  5
412D
  8
FUTO
 10
8508.4637969143769
 20
23044.880810178882
 30
0.0
 11
8698.4637969143787
 21
23044.880810178882
 31
0.0
  0
LINE
  5
412E
  8
FUTO
 10
8536.4637969143769
 20
23049.880810178882
 30
0.0
 11
8698.4637969143787
 21
23049.880810178882
 31
0.0
  0
LINE
  5
412F
  8
FUTO
 10
8728.4637969143769
 20
22953.380810178882
 30
0.0
 11
8728.4637969143769
 21
22813.380810178882
 31
0.0
  0
LINE
  5
4130
  8
FUTO
 10
8668.4637969143769
 20
22953.380810178882
 30
0.0
 11
8668.4637969143769
 21
22813.380810178882
 31
0.0
  0
LINE
  5
4131
  8
FUTO
 10
8620.4637969143769
 20
22963.380810178882
 30
0.0
 11
8698.4637969143787
 21
22963.380810178882
 31
0.0
  0
LINE
  5
4132
  8
FUTO
 10
8730.9637969143769
 20
22953.380810178882
 30
0.0
 11
8665.9637969143769
 21
22953.380810178882
 31
0.0
  0
LINE
  5
4133
  8
FUTO
 10
8730.9637969143769
 20
22953.380810178882
 30
0.0
 11
8730.9637969143769
 21
22963.380810178882
 31
0.0
  0
LINE
  5
4134
  8
FUTO
 10
8665.9637969143769
 20
22953.380810178882
 30
0.0
 11
8665.9637969143769
 21
22963.380810178882
 31
0.0
  0
LINE
  5
4135
  8
FUTO
 10
8618.4637969143769
 20
22975.53388617888
 30
0.0
 11
8618.4637969143769
 21
22965.380810178882
 31
0.0
  0
ARC
  5
4136
  8
FUTO
 10
8615.4637969143769
 20
22975.53388617888
 30
0.0
 40
2.9999599999999988
 50
0.000000000000007
 51
87.000442999965941
  0
ARC
  5
4137
  8
FUTO
 10
8620.4637969143769
 20
22965.380810178882
 30
0.0
 40
2.0
 50
180.0
 51
270.0
  0
LINE
  5
4138
  8
FUTO
 10
8668.4637969143769
 20
22813.380810178882
 30
0.0
 11
8728.4637969143769
 21
22813.380810178882
 31
0.0
  0
LINE
  5
4139
  8
FUTO
 10
8494.9637969143769
 20
23072.069897178881
 30
0.0
 11
8501.4637969143769
 21
23064.258984178879
 31
0.0
  0
LINE
  5
413A
  8
FUTO
 10
8508.4637969143769
 20
23044.880810178882
 30
0.0
 11
8509.373952914375
 21
23018.817578178881
 31
0.0
  0
LINE
  5
413B
  8
FUTO
 10
8501.4637969143769
 20
23064.258984178879
 30
0.0
 11
8536.4637969143769
 21
23054.880810178882
 31
0.0
  0
LINE
  5
413C
  8
FUTO
 10
8536.4637969143769
 20
23049.880810178882
 30
0.0
 11
8536.4637969143769
 21
23054.880810178882
 31
0.0
  0
LINE
  5
413D
  8
FUTO
 10
8536.4637969143769
 20
23044.880810178882
 30
0.0
 11
8536.4637969143769
 21
23049.880810178882
 31
0.0
  0
LINE
  5
413E
  8
FUTO
 10
8512.2968039143743
 20
23012.095410178881
 30
0.0
 11
8539.2899689143742
 21
22985.102246178882
 31
0.0
  0
ARC
  5
413F
  8
FUTO
 10
8546.3610129143744
 20
22992.173290178878
 30
0.0
 40
10.000024
 50
225.0
 51
267.00096100006488
  0
ARC
  5
4140
  8
FUTO
 10
8519.3678489143767
 20
23019.166455178882
 30
0.0
 40
9.9999679999999991
 50
181.99932899999791
 51
225.0
  0
LINE
  5
4142
  8
FUTO
 10
10457.37571819591
 20
19311.13567703333
 30
0.0
 11
10472.05514912022
 21
19311.13567703333
 31
0.0
  0
LINE
  5
4143
  8
FUTO
 10
10460.055210120219
 20
19291.13567703333
 30
0.0
 11
10495.055210120219
 21
19291.13567703333
 31
0.0
  0
LINE
  5
4144
  8
FUTO
 10
10132.73470204453
 20
19311.13567703333
 30
0.0
 11
10118.055210120219
 21
19311.13567703333
 31
0.0
  0
LINE
  5
4145
  8
FUTO
 10
10130.055210120219
 20
19291.13567703333
 30
0.0
 11
10095.055210120219
 21
19291.13567703333
 31
0.0
  0
LINE
  5
4147
  8
FUTO
 10
10195.055210120219
 20
19286.13567703333
 30
0.0
 11
10195.055210120219
 21
19291.13567703333
 31
0.0
  0
LINE
  5
4148
  8
FUTO
 10
10395.055210120219
 20
19291.13567703333
 30
0.0
 11
10395.055210120219
 21
19286.13567703333
 31
0.0
  0
LINE
  5
4153
  8
FUTO
 10
10150.055210120219
 20
19319.61126303333
 30
0.0
 11
10134.055210120219
 21
19310.373959033339
 31
0.0
  0
LINE
  5
4154
  8
FUTO
 10
10166.055210120219
 20
19310.373959033339
 30
0.0
 11
10150.055210120219
 21
19319.61126303333
 31
0.0
  0
LINE
  5
4155
  8
FUTO
 10
10150.055210120219
 20
19282.661068033329
 30
0.0
 11
10134.055210120219
 21
19291.898373033338
 31
0.0
  0
LINE
  5
4156
  8
FUTO
 10
10166.055210120219
 20
19291.898373033338
 30
0.0
 11
10150.055210120219
 21
19282.661068033329
 31
0.0
  0
LINE
  5
4157
  8
CT
 10
10120.055210120219
 20
19301.13567703333
 30
0.0
 11
10180.055210120219
 21
19301.13567703333
 31
0.0
  0
CIRCLE
  5
4158
  8
FUTO
 10
10150.055210120219
 20
19301.13567703333
 30
0.0
 40
16.0
  0
LINE
  5
4159
  8
FUTO
 10
10166.055210120219
 20
19291.898373033338
 30
0.0
 11
10166.055210120219
 21
19310.373959033339
 31
0.0
  0
LINE
  5
415A
  8
FUTO
 10
10134.055210120219
 20
19291.898373033338
 30
0.0
 11
10134.055210120219
 21
19310.373959033339
 31
0.0
  0
ARC
  5
415B
  8
FUTO
 10
10150.055210120219
 20
19301.13567703333
 30
0.0
 40
20.0
 50
0.000000000000007
 51
180.0
  0
ARC
  5
415C
  8
FUTO
 10
10043.055210120219
 20
19258.13567703333
 30
0.0
 40
3.0
 50
90.0
 51
180.0
  0
LINE
  5
415D
  8
FUTO
 10
10091.930210120219
 20
19261.13567703333
 30
0.0
 11
10043.055210120219
 21
19261.13567703333
 31
0.0
  0
LINE
  5
415E
  8
FUTO
 10
10097.055210120219
 20
19231.13567703333
 30
0.0
 11
10097.055210120219
 21
19236.13567703333
 31
0.0
  0
LINE
  5
415F
  8
FUTO
 10
10087.055210120219
 20
19243.13567703333
 30
0.0
 11
10087.055210120219
 21
19236.13567703333
 31
0.0
  0
LINE
  5
4160
  8
FUTO
 10
10097.055210120219
 20
19231.13567703333
 30
0.0
 11
10040.055210120219
 21
19231.13567703333
 31
0.0
  0
LINE
  5
4161
  8
FUTO
 10
10040.055210120219
 20
19231.13567703333
 30
0.0
 11
10040.055210120219
 21
19258.13567703333
 31
0.0
  0
LINE
  5
4162
  8
CT
 10
10065.055210120219
 20
19281.13567703333
 30
0.0
 11
10065.055210120219
 21
19211.13567703333
 31
0.0
  0
LINE
  5
4163
  8
FUTO
 10
10087.055210120219
 20
19243.13567703333
 30
0.0
 11
10130.055210120219
 21
19243.13567703333
 31
0.0
  0
LINE
  5
4164
  8
FUTO
 10
10095.055210120219
 20
19291.13567703333
 30
0.0
 11
10090.055210120219
 21
19243.13567703333
 31
0.0
  0
LINE
  5
4165
  8
FUTO
 10
10170.055210120219
 20
19301.13567703333
 30
0.0
 11
10170.055210120219
 21
19236.13567703333
 31
0.0
  0
LINE
  5
4166
  8
FUTO
 10
10130.055210120219
 20
19236.13567703333
 30
0.0
 11
10130.055210120219
 21
19301.13567703333
 31
0.0
  0
LINE
  5
4167
  8
CT
 10
10150.055210120219
 20
19226.13567703333
 30
0.0
 11
10150.055210120219
 21
19331.13567703333
 31
0.0
  0
LINE
  5
4168
  8
FUTO
 10
10424.055210120219
 20
19310.373959033339
 30
0.0
 11
10440.055210120219
 21
19319.61126303333
 31
0.0
  0
LINE
  5
4169
  8
FUTO
 10
10424.055210120219
 20
19291.898373033338
 30
0.0
 11
10440.055210120219
 21
19282.661068033329
 31
0.0
  0
LINE
  5
416A
  8
FUTO
 10
10424.055210120219
 20
19291.898373033338
 30
0.0
 11
10424.055210120219
 21
19310.373959033339
 31
0.0
  0
LINE
  5
416B
  8
FUTO
 10
10456.055210120219
 20
19291.898373033338
 30
0.0
 11
10456.055210120219
 21
19310.373959033339
 31
0.0
  0
CIRCLE
  5
416C
  8
FUTO
 10
10440.055210120219
 20
19301.13567703333
 30
0.0
 40
16.0
  0
LINE
  5
416D
  8
FUTO
 10
10440.055210120219
 20
19319.61126303333
 30
0.0
 11
10456.055210120219
 21
19310.373959033339
 31
0.0
  0
LINE
  5
416E
  8
FUTO
 10
10440.055210120219
 20
19282.661068033329
 30
0.0
 11
10456.055210120219
 21
19291.898373033338
 31
0.0
  0
ARC
  5
416F
  8
FUTO
 10
10440.055210120219
 20
19301.13567703333
 30
0.0
 40
20.0
 50
0.000000000000007
 51
180.0
  0
LINE
  5
4170
  8
CT
 10
10470.055210120219
 20
19301.13567703333
 30
0.0
 11
10410.055210120219
 21
19301.13567703333
 31
0.0
  0
LINE
  5
4171
  8
FUTO
 10
10195.055210120219
 20
19286.13567703333
 30
0.0
 11
10395.055210120219
 21
19286.13567703333
 31
0.0
  0
LINE
  5
4172
  8
FUTO
 10
10493.055210120219
 20
19231.13567703333
 30
0.0
 11
10493.055210120219
 21
19236.13567703333
 31
0.0
  0
LINE
  5
4173
  8
FUTO
 10
10503.055210120219
 20
19243.13567703333
 30
0.0
 11
10503.055210120219
 21
19236.13567703333
 31
0.0
  0
LINE
  5
4174
  8
FUTO
 10
10503.055210120219
 20
19243.13567703333
 30
0.0
 11
10460.055210120219
 21
19243.13567703333
 31
0.0
  0
LINE
  5
4175
  8
CT
 10
10525.055210120219
 20
19281.13567703333
 30
0.0
 11
10525.055210120219
 21
19211.13567703333
 31
0.0
  0
ARC
  5
4176
  8
FUTO
 10
10547.055210120219
 20
19258.13567703333
 30
0.0
 40
3.0
 50
0.000000000000007
 51
90.0
  0
LINE
  5
4177
  8
FUTO
 10
10550.055210120219
 20
19231.13567703333
 30
0.0
 11
10550.055210120219
 21
19258.13567703333
 31
0.0
  0
LINE
  5
4178
  8
FUTO
 10
10498.180210120219
 20
19261.13567703333
 30
0.0
 11
10547.055210120219
 21
19261.13567703333
 31
0.0
  0
LINE
  5
4179
  8
FUTO
 10
10493.055210120219
 20
19231.13567703333
 30
0.0
 11
10550.055210120219
 21
19231.13567703333
 31
0.0
  0
LINE
  5
417A
  8
FUTO
 10
10495.055210120219
 20
19291.13567703333
 30
0.0
 11
10500.055210120219
 21
19243.13567703333
 31
0.0
  0
LINE
  5
417B
  8
FUTO
 10
10420.055210120219
 20
19301.13567703333
 30
0.0
 11
10420.055210120219
 21
19236.13567703333
 31
0.0
  0
LINE
  5
417C
  8
FUTO
 10
10460.055210120219
 20
19236.13567703333
 30
0.0
 11
10460.055210120219
 21
19301.13567703333
 31
0.0
  0
LINE
  5
417D
  8
CT
 10
10440.055210120219
 20
19226.13567703333
 30
0.0
 11
10440.055210120219
 21
19331.13567703333
 31
0.0
  0
LINE
  5
41CF
  8
FUTO
 10
10170.055210120219
 20
19243.13567703333
 30
0.0
 11
10420.055210120219
 21
19243.13567703333
 31
0.0
  0
LINE
  5
41D0
  8
FUTO
 10
10087.055210120219
 20
19236.13567703333
 30
0.0
 11
10503.055210120219
 21
19236.13567703333
 31
0.0
  0
LINE
  5
41D1
  8
FUTO
 10
10111.055210120219
 20
19653.13567703333
 30
0.0
 11
10111.055210120219
 21
19616.13567703333
 31
0.0
  0
ARC
  5
41D2
  8
FUTO
 10
10075.340855120219
 20
19670.231625033332
 30
0.0
 40
9.9999679999999991
 50
91.999328999997914
 51
135.0
  0
ARC
  5
41D3
  8
FUTO
 10
10048.347690120219
 20
19643.238461033339
 30
0.0
 40
10.000024
 50
135.0
 51
177.00096100006479
  0
LINE
  5
41D4
  8
FUTO
 10
10068.26981012022
 20
19677.302670033328
 30
0.0
 11
10041.276646120221
 21
19650.309505033329
 31
0.0
  0
LINE
  5
41D5
  8
FUTO
 10
10101.055210120219
 20
19653.13567703333
 30
0.0
 11
10106.055210120219
 21
19653.13567703333
 31
0.0
  0
LINE
  5
41D6
  8
FUTO
 10
10106.055210120219
 20
19653.13567703333
 30
0.0
 11
10111.055210120219
 21
19653.13567703333
 31
0.0
  0
LINE
  5
41D7
  8
FUTO
 10
10120.433384120221
 20
19688.13567703333
 30
0.0
 11
10111.055210120219
 21
19653.13567703333
 31
0.0
  0
LINE
  5
41D8
  8
FUTO
 10
10101.055210120219
 20
19681.13567703333
 30
0.0
 11
10074.991978120221
 21
19680.225521033331
 31
0.0
  0
LINE
  5
41DA
  8
FUTO
 10
10136.055210120219
 20
19701.13567703333
 30
0.0
 11
10120.433384120221
 21
19688.13567703333
 31
0.0
  0
LINE
  5
41DB
  8
FUTO
 10
9869.5552101202265
 20
19525.13567703333
 30
0.0
 11
9869.5552101202265
 21
19461.13567703333
 31
0.0
  0
ARC
  5
41DC
  8
FUTO
 10
10021.555210120219
 20
19569.13567703333
 30
0.0
 40
2.0
 50
90.0
 51
180.0
  0
ARC
  5
41EB
  8
FUTO
 10
10121.055210120219
 20
19616.13567703333
 30
0.0
 40
10.0
 50
90.0
 51
180.0
  0
ARC
  5
41EE
  8
FUTO
 10
10031.70828612022
 20
19574.13567703333
 30
0.0
 40
2.9999599999999988
 50
270.0
 51
357.00044299996591
  0
LINE
  5
41EF
  8
FUTO
 10
10031.70828612022
 20
19571.13567703333
 30
0.0
 11
10021.555210120219
 21
19571.13567703333
 31
0.0
  0
LINE
  5
41F0
  8
FUTO
 10
9979.5552101202265
 20
19525.13567703333
 30
0.0
 11
9979.5552101202265
 21
19521.13567703333
 31
0.0
  0
LINE
  5
41F1
  8
FUTO
 10
10009.555210120219
 20
19523.63567703333
 30
0.0
 11
10019.555210120219
 21
19523.63567703333
 31
0.0
  0
LINE
  5
41F2
  8
FUTO
 10
10009.555210120219
 20
19458.63567703333
 30
0.0
 11
10019.555210120219
 21
19458.63567703333
 31
0.0
  0
LINE
  5
41F3
  8
FUTO
 10
10009.555210120219
 20
19458.63567703333
 30
0.0
 11
10009.555210120219
 21
19523.63567703333
 31
0.0
  0
ARC
  5
41F4
  8
FUTO
 10
10121.055210120219
 20
19516.13567703333
 30
0.0
 40
10.0
 50
180.0
 51
270.0
  0
LINE
  5
41F5
  8
FUTO
 10
10019.555210120219
 20
19569.13567703333
 30
0.0
 11
10019.555210120219
 21
19491.13567703333
 31
0.0
  0
LINE
  5
41F6
  8
FUTO
 10
10111.055210120219
 20
19516.13567703333
 30
0.0
 11
10111.055210120219
 21
19616.13567703333
 31
0.0
  0
LINE
  5
41F7
  8
FUTO
 10
10009.555210120219
 20
19521.13567703333
 30
0.0
 11
9869.5552101202265
 21
19521.13567703333
 31
0.0
  0
LINE
  5
41F8
  8
FUTO
 10
10009.555210120219
 20
19461.13567703333
 30
0.0
 11
9869.5552101202265
 21
19461.13567703333
 31
0.0
  0
LINE
  5
41F9
  8
FUTO
 10
9979.5552101202265
 20
19525.13567703333
 30
0.0
 11
9869.5552101202265
 21
19525.13567703333
 31
0.0
  0
LINE
  5
41FA
  8
FUTO
 10
10106.055210120219
 20
19653.13567703333
 30
0.0
 11
10106.055210120219
 21
19491.13567703333
 31
0.0
  0
LINE
  5
41FB
  8
FUTO
 10
10101.055210120219
 20
19681.13567703333
 30
0.0
 11
10101.055210120219
 21
19491.13567703333
 31
0.0
  0
LINE
  5
41FC
  8
FUTO
 10
10038.36136212022
 20
19643.761654033329
 30
0.0
 11
10033.71854012022
 21
19555.17034503333
 31
0.0
  0
LINE
  5
41FE
  8
FUTO
 10
10106.055210120219
 20
19653.13567703333
 30
0.0
 11
10106.055210120219
 21
19491.13567703333
 31
0.0
  0
ARC
  5
41FF
  8
FUTO
 10
10283.82022512022
 20
19709.41479103333
 30
0.0
 40
2.9999909999999992
 50
96.115172999988943
 51
174.80557100002201
  0
LINE
  5
4200
  8
FUTO
 10
10280.832554120219
 20
19709.686398033329
 30
0.0
 11
10280.055210120219
 21
19701.13567703333
 31
0.0
  0
ARC
  5
4201
  8
FUTO
 10
10274.096836120219
 20
19701.86547503333
 30
0.0
 40
5.9999760000000002
 50
354.8055729999931
 51
54.396262999995557
  0
ARC
  5
4202
  8
FUTO
 10
10306.29019512022
 20
19709.41479103333
 30
0.0
 40
2.999981
 50
5.194427000006832
 51
83.884827000011072
  0
ARC
  5
4203
  8
FUTO
 10
10295.055210120219
 20
19731.13567703333
 30
0.0
 40
30.0
 50
305.19004800000442
 51
305.60386699997889
  0
LINE
  5
4204
  8
FUTO
 10
10295.055210120219
 20
19713.63567703333
 30
0.0
 11
10306.60977512022
 21
19712.397701033329
 31
0.0
  0
LINE
  5
4205
  8
FUTO
 10
10309.277866120219
 20
19709.686398033329
 30
0.0
 11
10310.055210120219
 21
19701.13567703333
 31
0.0
  0
ARC
  5
4206
  8
FUTO
 10
10316.013584120219
 20
19701.86547503333
 30
0.0
 40
5.9999820000000001
 50
125.6037370000044
 51
185.19442700000681
  0
LINE
  5
4207
  8
FUTO
 10
10295.055210120219
 20
19713.63567703333
 30
0.0
 11
10283.500645120221
 21
19712.397701033329
 31
0.0
  0
LINE
  5
4208
  8
FUTO
 10
10283.500645120221
 20
19712.397701033329
 30
0.0
 11
10306.60977512022
 21
19712.397701033329
 31
0.0
  0
LINE
  5
4209
  8
CT
 10
10335.055210120219
 20
19731.13567703333
 30
0.0
 11
10255.055210120219
 21
19731.13567703333
 31
0.0
  0
LINE
  5
420A
  8
FUTO
 10
10236.055210120219
 20
19640.13567703333
 30
0.0
 11
10354.055210120219
 21
19640.13567703333
 31
0.0
  0
CIRCLE
  5
420B
  8
FUTO
 10
10295.055210120219
 20
19731.13567703333
 30
0.0
 40
17.5
  0
ARC
  5
420C
  8
FUTO
 10
10295.055210120219
 20
19731.13567703333
 30
0.0
 40
30.0
 50
305.60386699997889
 51
234.39614899998969
  0
LINE
  5
420D
  8
FUTO
 10
10454.05514912022
 20
19701.13567703333
 30
0.0
 11
10464.05514912022
 21
19692.813900033339
 31
0.0
  0
ARC
  5
420E
  8
FUTO
 10
10510.528538120219
 20
19674.63567703333
 30
0.0
 40
20.0
 50
69.999953999991405
 51
90.0
  0
ARC
  5
420F
  8
FUTO
 10
10547.80392812022
 20
19703.63567703333
 30
0.0
 40
20.0
 50
250.0002749999968
 51
270.0
  0
LINE
  5
4212
  8
FUTO
 10
10517.36899212022
 20
19693.429623033331
 30
0.0
 11
10540.96359612022
 21
19684.841732033339
 31
0.0
  0
LINE
  5
4213
  8
FUTO
 10
10464.05514912022
 20
19694.63567703333
 30
0.0
 11
10510.528538120219
 21
19694.63567703333
 31
0.0
  0
LINE
  5
4214
  8
FUTO
 10
10454.05514912022
 20
19701.13567703333
 30
0.0
 11
10295.055210120219
 21
19701.13567703333
 31
0.0
  0
LINE
  5
4215
  8
FUTO
 10
10357.05514912022
 20
19633.13567703333
 30
0.0
 11
10233.055210120219
 21
19633.13567703333
 31
0.0
  0
ARC
  5
4216
  8
FUTO
 10
10233.055210120219
 20
19458.437923033329
 30
0.0
 40
20.0
 50
180.0
 51
270.0
  0
CIRCLE
  5
4217
  8
FUTO
 10
10295.055210120219
 20
19425.437923033329
 30
0.0
 40
3.5
  0
LINE
  5
4218
  8
FUTO
 10
10301.50809112022
 20
19425.437923033329
 30
0.0
 11
10286.918980120219
 21
19425.437923033329
 31
0.0
  0
LINE
  5
4219
  8
FUTO
 10
10233.055210120219
 20
19438.437923033329
 30
0.0
 11
10357.055210120219
 21
19438.437923033329
 31
0.0
  0
LINE
  5
421A
  8
FUTO
 10
10354.05514912022
 20
19418.437923033329
 30
0.0
 11
10236.055210120219
 21
19418.437923033329
 31
0.0
  0
LINE
  5
421B
  8
FUTO
 10
10213.055210120219
 20
19613.13567703333
 30
0.0
 11
10213.055210120219
 21
19458.437923033329
 31
0.0
  0
LINE
  5
421C
  8
FUTO
 10
10206.055210120219
 20
19610.13567703333
 30
0.0
 11
10206.055210120219
 21
19448.437923033329
 31
0.0
  0
LINE
  5
421D
  8
FUTO
 10
10464.05514912022
 20
19626.13567703333
 30
0.0
 11
10379.43234612022
 21
19626.13567703333
 31
0.0
  0
LINE
  5
4221
  8
FUTO
 10
10464.05514912022
 20
19506.13567703333
 30
0.0
 11
10384.05514912022
 21
19506.13567703333
 31
0.0
  0
LINE
  5
4222
  8
FUTO
 10
10377.05514912022
 20
19613.13567703333
 30
0.0
 11
10377.05514912022
 21
19458.437923033329
 31
0.0
  0
LINE
  5
4223
  8
FUTO
 10
10384.05514912022
 20
19610.13567703333
 30
0.0
 11
10384.05514912022
 21
19448.437923033329
 31
0.0
  0
ARC
  5
4224
  8
FUTO
 10
10357.05514912022
 20
19458.437923033329
 30
0.0
 40
20.0
 50
270.0
 51
0.000000000000007
  0
LINE
  5
4225
  8
CT
 10
10404.05514912022
 20
19566.13567703333
 30
0.0
 11
10186.055210120219
 21
19566.13567703333
 31
0.0
  0
ARC
  5
4226
  8
FUTO
 10
10357.05514912022
 20
19613.13567703333
 30
0.0
 40
20.0
 50
0.000000000000007
 51
90.0
  0
ARC
  5
4227
  8
FUTO
 10
10233.055210120219
 20
19613.13567703333
 30
0.0
 40
20.0
 50
90.0
 51
180.0
  0
ARC
  5
4228
  8
FUTO
 10
10236.055210120219
 20
19610.13567703333
 30
0.0
 40
30.0
 50
90.0
 51
180.0
  0
ARC
  5
4229
  8
FUTO
 10
10354.05514912022
 20
19610.13567703333
 30
0.0
 40
30.0
 50
0.000000000000007
 51
90.0
  0
LINE
  5
422E
  8
FUTO
 10
10136.055210120219
 20
19701.13567703333
 30
0.0
 11
10295.055210120219
 21
19701.13567703333
 31
0.0
  0
LINE
  5
422F
  8
FUTO
 10
10121.055210120219
 20
19626.13567703333
 30
0.0
 11
10210.678013120219
 21
19626.13567703333
 31
0.0
  0
LINE
  5
4230
  8
FUTO
 10
10121.055210120219
 20
19506.13567703333
 30
0.0
 11
10206.055210120219
 21
19506.13567703333
 31
0.0
  0
ARC
  5
4231
  8
FUTO
 10
10021.555210120219
 20
19413.13567703333
 30
0.0
 40
2.0
 50
180.0
 51
270.0
  0
ARC
  5
4232
  8
FUTO
 10
10031.70828612022
 20
19408.13567703333
 30
0.0
 40
3.0
 50
2.9995570000340721
 51
90.0
  0
ARC
  5
4233
  8
FUTO
 10
10046.40481912022
 20
19376.103939033339
 30
0.0
 40
10.000139999999989
 50
183.00042699998181
 51
225.00097700000649
  0
ARC
  5
4241
  8
FUTO
 10
10075.19730012022
 20
19347.311459033339
 30
0.0
 40
10.0
 50
225.0
 51
270.0
  0
ARC
  5
4242
  8
FUTO
 10
10048.347690120219
 20
19339.032894033331
 30
0.0
 40
9.9999679999999991
 50
182.9990539999759
 51
225.0
  0
LINE
  5
4243
  8
FUTO
 10
10111.055210120219
 20
19339.374935033338
 30
0.0
 11
10130.143833120221
 21
19339.374935033338
 31
0.0
  0
LINE
  5
4244
  8
FUTO
 10
10112.09109912022
 20
19329.13567703333
 30
0.0
 11
10106.055210120219
 21
19329.13567703333
 31
0.0
  0
LINE
  5
4245
  8
FUTO
 10
10101.055210120219
 20
19329.13567703333
 30
0.0
 11
10106.055210120219
 21
19329.13567703333
 31
0.0
  0
ARC
  5
4246
  8
FUTO
 10
10118.055210120219
 20
19308.13567703333
 30
0.0
 40
3.0
 50
90.0
 51
180.0
  0
ARC
  5
4247
  8
FUTO
 10
10125.143833120221
 20
19316.13567703333
 30
0.0
 40
5.0
 50
270.0
 51
0.000000000000007
  0
LINE
  5
4248
  8
FUTO
 10
10111.055210120219
 20
19332.262142033331
 30
0.0
 11
10113.613804120219
 21
19332.262142033331
 31
0.0
  0
LINE
  5
4249
  8
FUTO
 10
10118.055210120219
 20
19311.13567703333
 30
0.0
 11
10111.055210120219
 21
19332.262142033331
 31
0.0
  0
LINE
  5
424A
  8
FUTO
 10
10130.143833120221
 20
19316.13567703333
 30
0.0
 11
10130.143833120221
 21
19339.374935033338
 31
0.0
  0
LINE
  5
424B
  8
FUTO
 10
10121.21341312022
 20
19311.13567703333
 30
0.0
 11
10111.055210120219
 21
19339.374935033338
 31
0.0
  0
LINE
  5
424C
  8
FUTO
 10
10075.19730012022
 20
19337.311459033332
 30
0.0
 11
10101.055210120219
 21
19337.311459033332
 31
0.0
  0
LINE
  5
424E
  8
FUTO
 10
10034.68655812022
 20
19408.63091703333
 30
0.0
 11
10038.36136212022
 21
19338.50970103333
 31
0.0
  0
LINE
  5
4250
  8
FUTO
 10
10068.12625512022
 20
19340.240414033331
 30
0.0
 11
10039.333774120219
 21
19369.032650033329
 31
0.0
  0
LINE
  5
4253
  8
FUTO
 10
10031.70828612022
 20
19411.13567703333
 30
0.0
 11
10021.555210120219
 21
19411.13567703333
 31
0.0
  0
ARC
  5
4254
  8
FUTO
 10
10075.340855120219
 20
19312.039730033332
 30
0.0
 40
9.9999839999999995
 50
225.0
 51
268.00067100000211
  0
LINE
  5
4255
  8
FUTO
 10
10101.055210120219
 20
19301.13567703333
 30
0.0
 11
10074.991978120221
 21
19302.045834033332
 31
0.0
  0
LINE
  5
4256
  8
FUTO
 10
10115.055210120219
 20
19291.13567703333
 30
0.0
 11
10115.055210120219
 21
19308.13567703333
 31
0.0
  0
LINE
  5
4257
  8
FUTO
 10
10068.26981012022
 20
19304.968685033331
 30
0.0
 11
10041.276646120221
 21
19331.961849033331
 31
0.0
  0
LINE
  5
4258
  8
FUTO
 10
10255.45511212022
 20
19312.743588033329
 30
0.0
 11
10175.055210120219
 21
19311.13567703333
 31
0.0
  0
ARC
  5
4259
  8
FUTO
 10
10270.055210120219
 20
19373.631771033331
 30
0.0
 40
5.0
 50
0.000000000000007
 51
90.0
  0
ARC
  5
425A
  8
FUTO
 10
10320.055210120219
 20
19373.631771033331
 30
0.0
 40
5.0
 50
90.0
 51
180.0
  0
ARC
  5
425B
  8
FUTO
 10
10335.05514912022
 20
19332.73968103333
 30
0.0
 40
20.000091999999999
 50
180.0
 51
268.85427899999138
  0
LINE
  5
425C
  8
FUTO
 10
10315.055210120219
 20
19373.631771033331
 30
0.0
 11
10315.055210120219
 21
19332.73968103333
 31
0.0
  0
LINE
  5
425D
  8
FUTO
 10
10275.055210120219
 20
19373.631771033331
 30
0.0
 11
10275.055210120219
 21
19332.73968103333
 31
0.0
  0
ARC
  5
425E
  8
FUTO
 10
10255.055210120219
 20
19332.73968103333
 30
0.0
 40
20.0
 50
271.14572100000839
 51
0.000000000000007
  0
LINE
  5
425F
  8
FUTO
 10
10195.055210120219
 20
19291.13567703333
 30
0.0
 11
10195.055210120219
 21
19292.13567703333
 31
0.0
  0
ARC
  5
4260
  8
FUTO
 10
10200.055210120219
 20
19292.13567703333
 30
0.0
 40
5.0
 50
90.0
 51
180.0
  0
LINE
  5
4261
  8
FUTO
 10
10200.055210120219
 20
19297.13567703333
 30
0.0
 11
10295.055210120219
 21
19297.13567703333
 31
0.0
  0
ARC
  5
4262
  8
FUTO
 10
10472.05514912022
 20
19308.13567703333
 30
0.0
 40
3.0
 50
0.000000000000007
 51
90.0
  0
LINE
  5
4263
  8
FUTO
 10
10415.05514912022
 20
19311.13567703333
 30
0.0
 11
10422.73470204453
 21
19311.13567703333
 31
0.0
  0
ARC
  5
426D
  8
FUTO
 10
10390.05514912022
 20
19292.13567703333
 30
0.0
 40
5.0
 50
0.000000000000007
 51
90.0
  0
LINE
  5
426E
  8
FUTO
 10
10395.05514912022
 20
19291.13567703333
 30
0.0
 11
10395.05514912022
 21
19292.13567703333
 31
0.0
  0
LINE
  5
426F
  8
FUTO
 10
10395.05514912022
 20
19291.13567703333
 30
0.0
 11
10420.055210120219
 21
19291.13567703333
 31
0.0
  0
LINE
  5
4270
  8
FUTO
 10
10534.66122812022
 20
19295.13567703333
 30
0.0
 11
10544.277195120219
 21
19298.63567703333
 31
0.0
  0
LINE
  5
4271
  8
FUTO
 10
10534.66122812022
 20
19295.13567703333
 30
0.0
 11
10475.05514912022
 21
19295.13567703333
 31
0.0
  0
LINE
  5
4272
  8
FUTO
 10
10475.05514912022
 20
19291.13567703333
 30
0.0
 11
10475.05514912022
 21
19308.13567703333
 31
0.0
  0
LINE
  5
4273
  8
FUTO
 10
10334.655247120219
 20
19312.743588033329
 30
0.0
 11
10415.05514912022
 21
19311.13567703333
 31
0.0
  0
LINE
  5
4274
  8
FUTO
 10
10390.05514912022
 20
19297.13567703333
 30
0.0
 11
10295.055210120219
 21
19297.13567703333
 31
0.0
  0
LINE
  5
4275
  8
FUTO
 10
10175.055210120219
 20
19311.13567703333
 30
0.0
 11
10167.37571819591
 21
19311.13567703333
 31
0.0
  0
LINE
  5
4276
  8
FUTO
 10
10195.055210120219
 20
19291.13567703333
 30
0.0
 11
10170.055210120219
 21
19291.13567703333
 31
0.0
  0
ARC
  5
4277
  8
FUTO
 10
10354.05514912022
 20
19448.437923033329
 30
0.0
 40
30.0
 50
270.0
 51
0.000000000000007
  0
ARC
  5
4278
  8
FUTO
 10
10236.055210120219
 20
19448.437923033329
 30
0.0
 40
30.0
 50
180.0
 51
270.0
  0
LINE
  5
4279
  8
CT
 10
10295.055210120219
 20
19781.13567703333
 30
0.0
 11
10295.055210120219
 21
19211.13567703333
 31
0.0
  0
LINE
  5
427A
  8
FUTO
 10
10106.055210120219
 20
19329.13567703333
 30
0.0
 11
10106.055210120219
 21
19491.13567703333
 31
0.0
  0
LINE
  5
427B
  8
FUTO
 10
10464.05514912022
 20
19694.63567703333
 30
0.0
 11
10464.05514912022
 21
19311.13567703333
 31
0.0
  0
LINE
  5
427C
  8
FUTO
 10
10514.05514912022
 20
19694.32220103333
 30
0.0
 11
10514.05514912022
 21
19295.13567703333
 31
0.0
  0
LINE
  5
427D
  8
FUTO
 10
10544.255100120219
 20
19683.953060033331
 30
0.0
 11
10544.255100120219
 21
19298.63567703333
 31
0.0
  0
LINE
  5
427E
  8
FUTO
 10
10106.055210120219
 20
19329.13567703333
 30
0.0
 11
10106.055210120219
 21
19491.13567703333
 31
0.0
  0
LINE
  5
427F
  8
FUTO
 10
10101.055210120219
 20
19301.13567703333
 30
0.0
 11
10101.055210120219
 21
19491.13567703333
 31
0.0
  0
LINE
  5
4280
  8
FUTO
 10
10019.555210120219
 20
19413.13567703333
 30
0.0
 11
10019.555210120219
 21
19491.13567703333
 31
0.0
  0
ARC
  5
4281
  8
FUTO
 10
10608.744236120219
 20
19668.63567703333
 30
0.0
 40
15.0
 50
60.00018300001819
 51
90.0
  0
ARC
  5
4282
  8
FUTO
 10
10664.05514912022
 20
19648.248959033339
 30
0.0
 40
4.9999580000000003
 50
0.000000000000007
 51
59.999718000027237
  0
LINE
  5
4283
  8
FUTO
 10
10666.55514912022
 20
19652.579037033331
 30
0.0
 11
10616.244236120219
 21
19681.62615603333
 31
0.0
  0
ARC
  5
42CC
  8
FUTO
 10
10664.05514912022
 20
19334.022396033331
 30
0.0
 40
5.0
 50
300.00027500002068
 51
0.000000000000007
  0
ARC
  5
42CE
  8
FUTO
 10
10608.744236120219
 20
19313.63567703333
 30
0.0
 40
15.000085
 50
270.0
 51
299.99981699998182
  0
LINE
  5
42CF
  8
FUTO
 10
10666.55514912022
 20
19329.692318033329
 30
0.0
 11
10616.244236120219
 21
19300.64519903333
 31
0.0
  0
LINE
  5
4301
  8
FUTO
 10
10609.955173120219
 20
19298.63567703333
 30
0.0
 11
10609.955173120219
 21
19683.586605033339
 31
0.0
  0
LINE
  5
4305
  8
FUTO
 10
10669.055210120219
 20
19648.78564103333
 30
0.0
 11
10669.055210120219
 21
19333.995327033332
 31
0.0
  0
LINE
  5
4306
  8
CT
 10
9849.5552101202265
 20
19491.13567703333
 30
0.0
 11
10689.055210120219
 21
19491.13567703333
 31
0.0
  0
LINE
  5
4307
  8
FUTO
 10
10547.80392812022
 20
19683.63567703333
 30
0.0
 11
10608.744236120219
 21
19683.63567703333
 31
0.0
  0
LINE
  5
4308
  8
FUTO
 10
10544.255100120219
 20
19298.63567703333
 30
0.0
 11
10608.744236120219
 21
19298.63567703333
 31
0.0
  0
LINE
  5
430D
  8
CT
 10
8563.4637969143769
 20
23008.880810178882
 30
0.0
 11
8513.4637969143732
 21
23008.880810178882
 31
0.0
  0
LINE
  5
430E
  8
CT
 10
8538.4637969143769
 20
22983.880810178882
 30
0.0
 11
8538.4637969143769
 21
23033.880810178882
 31
0.0
  0
LINE
  5
430F
  8
CT
 10
8858.4637969143769
 20
22983.880810178882
 30
0.0
 11
8858.4637969143769
 21
23033.880810178882
 31
0.0
  0
LINE
  5
4310
  8
CT
 10
8833.4637969143714
 20
23008.880810178882
 30
0.0
 11
8883.4637969143769
 21
23008.880810178882
 31
0.0
  0
LINE
  5
4311
  8
CT
 10
8833.4637969143714
 20
23468.880810178882
 30
0.0
 11
8883.4637969143769
 21
23468.880810178882
 31
0.0
  0
LINE
  5
4312
  8
CT
 10
8858.4637969143769
 20
23493.880810178882
 30
0.0
 11
8858.4637969143769
 21
23443.880810178882
 31
0.0
  0
LINE
  5
4313
  8
CT
 10
8538.4637969143769
 20
23493.880810178882
 30
0.0
 11
8538.4637969143769
 21
23443.880810178882
 31
0.0
  0
LINE
  5
4314
  8
CT
 10
8563.4637969143769
 20
23468.880810178882
 30
0.0
 11
8513.4637969143732
 21
23468.880810178882
 31
0.0
  0
LINE
  5
4315
  8
FUTO
 10
8918.4637969143769
 20
22958.380810178882
 30
0.0
 11
8918.4637969143769
 21
22703.380810178882
 31
0.0
  0
LINE
  5
4316
  8
FUTO
 10
9048.4637969143769
 20
23009.380810178882
 30
0.0
 11
9048.4637969143769
 21
22936.380810178882
 31
0.0
  0
LINE
  5
4317
  8
FUTO
 10
8908.4637969143769
 20
23912.380810178882
 30
0.0
 11
8908.4637969143769
 21
23009.380810178882
 31
0.0
  0
LINE
  5
4319
  8
FUTO
 10
8563.4637969143769
 20
23912.380810178882
 30
0.0
 11
8563.4637969143769
 21
23612.880810178882
 31
0.0
  0
LINE
  5
431A
  8
FUTO
 10
8488.4637969143769
 20
23912.380810178882
 30
0.0
 11
8488.4637969143769
 21
23009.380810178882
 31
0.0
  0
LINE
  5
431B
  8
SL
 10
8833.4637969143787
 20
23612.880810178882
 30
0.0
 11
8833.4637969143787
 21
23003.380810178882
 31
0.0
  0
LINE
  5
431C
  8
SL
 10
8563.4637969143769
 20
23612.880810178882
 30
0.0
 11
8563.4637969143769
 21
23003.380810178882
 31
0.0
  0
LINE
  5
432D
  8
FUTO
 10
6568.463796914376
 20
25107.380810178889
 30
0.0
 11
8755.4637969143769
 21
25107.380810178889
 31
0.0
  0
LINE
  5
4341
  8
FUTO
 10
6568.463796914376
 20
23939.380810178882
 30
0.0
 11
8755.4637969143769
 21
23939.380810178882
 31
0.0
  0
LINE
  5
4342
  8
FUTO
 10
6568.463796914376
 20
23985.380810178882
 30
0.0
 11
8348.4637969143787
 21
23985.380810178882
 31
0.0
  0
LINE
  5
4347
  8
FUTO
 10
6648.463796914376
 20
23939.380810178882
 30
0.0
 11
6648.463796914376
 21
23912.380810178882
 31
0.0
  0
LINE
  5
4348
  8
FUTO
 10
8953.6874952752314
 20
23987.380810178849
 30
0.0
 11
9048.4637969143769
 21
23987.380810178882
 31
0.0
  0
LINE
  5
4349
  8
FUTO
 10
7799.9972965179522
 20
23009.380810178889
 30
0.0
 11
7799.9972965179522
 21
23939.380810178882
 31
0.0
  0
LINE
  5
434A
  8
FUTO
 10
7196.9302973107997
 20
23009.380810178889
 30
0.0
 11
7196.9302973107997
 21
23939.380810178882
 31
0.0
  0
LINE
  5
457C
  8
FUTO
 62
     2
 10
6618.463796914376
 20
19081.13567703333
 30
0.0
 11
5990.5719978626539
 21
19081.13567703333
 31
0.0
  0
LINE
  5
457E
  8
FUTO
 62
     2
 10
6020.5719978626539
 20
19141.13567703333
 30
0.0
 11
6020.5719978626539
 21
19201.13567703333
 31
0.0
  0
INSERT
  5
4581
  8
FUTO
 62
     2
  2
_OPEN30
 10
6020.5719978626539
 20
19081.13567703333
 30
0.0
 41
-60.0
 42
60.0
 43
60.0
 50
90.0
  0
LINE
  5
4595
  8
KL
 10
8329.4637969143769
 20
19396.663167747382
 30
0.0
 11
8329.4637969143769
 21
19240.834547399281
 31
0.0
  0
LINE
  5
4596
  8
KL
 10
8338.4637969143769
 20
19393.222852038401
 30
0.0
 11
8338.4637969143769
 21
19235.976796588249
 31
0.0
  0
LINE
  5
4597
  8
FUTO
 10
8329.4637969143769
 20
19526.362748239531
 30
0.0
 11
8329.4637969143769
 21
19231.13567703333
 31
0.0
  0
LINE
  5
4598
  8
FUTO
 10
8338.4637969143769
 20
19518.29895743178
 30
0.0
 11
8338.4637969143769
 21
19231.13567703333
 31
0.0
  0
DIMENSION
  5
45A8
  8
FUTO
  2
*D13
 10
9048.4637969143769
 20
25541.816633371771
 30
0.0
 11
8273.4637969143769
 21
25601.816633371771
 31
0.0
 70
     0
 13
7498.463796914376
 23
25438.253387828481
 33
0.0
 14
9048.4637969143769
 24
23912.380810178882
 34
0.0
 50
180.0
1001
ACAD
1000
DSTYLE
1002
{
1070
    40
1040
30.0
1070
   176
1070
     2
1070
   177
1070
     2
1070
   178
1070
     2
1070
   341
1005
44D5
1070
     5
1000
OPEN30
1002
}
  0
DIMENSION
  5
45B5
  8
FUTO
  2
*D14
 10
6088.1578940745048
 20
25157.380810178882
 30
0.0
 11
6028.1578940745012
 21
24840.380810178882
 31
0.0
 70
     0
 13
6320.9437963348564
 23
24523.380810178882
 33
0.0
 14
6748.463796914376
 24
25157.380810178882
 34
0.0
 50
90.0
1001
ACAD
1000
DSTYLE
1002
{
1070
    40
1040
30.0
1070
   176
1070
     2
1070
   177
1070
     2
1070
   178
1070
     2
1070
   341
1005
44D5
1070
     5
1000
OPEN30
1002
}
  0
DIMENSION
  5
45C2
  8
FUTO
  2
*D15
 10
6088.1578940745048
 20
22703.380810178882
 30
0.0
 11
6028.1578940745021
 21
23613.380810178882
 31
0.0
 70
     0
 13
6088.1578940745048
 23
24523.380810178882
 33
0.0
 14
7118.463796914376
 24
22703.380810178882
 34
0.0
 50
90.0
1001
ACAD
1000
DSTYLE
1002
{
1070
    40
1040
30.0
1070
   176
1070
     2
1070
   177
1070
     2
1070
   178
1070
     2
1070
   341
1005
44D5
1070
     5
1000
OPEN30
1002
}
  0
LINE
  5
466E
  8
CT
 10
6575.8546748774752
 20
20878.057179545471
 30
0.0
 11
7498.463796914376
 21
20781.13567703333
 31
0.0
  0
LINE
  5
4670
  8
FUTO
 10
8700.7460334337138
 20
20781.13567703333
 30
0.0
 11
8700.7460334337138
 21
20911.083835693251
 31
0.0
  0
LINE
  5
4671
  8
FUTO
 10
8750.7460334337156
 20
20772.13567703333
 30
0.0
 11
8750.7460334337156
 21
20790.13567703333
 31
0.0
  0
LINE
  5
46AB
  8
KL
 10
8329.4637969143769
 20
20327.826026641611
 30
0.0
 11
8329.4637969143769
 21
19526.362748239531
 31
0.0
  0
LINE
  5
46AC
  8
KL
 10
8338.4637969143769
 20
20316.18959120502
 30
0.0
 11
8338.4637969143769
 21
19518.29895743178
 31
0.0
  0
LINE
  5
46AD
  8
FUTO
 10
7971.8983829868212
 20
20790.13567703333
 30
0.0
 11
8750.7460334337156
 21
20790.13567703333
 31
0.0
  0
LINE
  5
46AE
  8
FUTO
 10
7985.820172084761
 20
20772.13567703333
 30
0.0
 11
8750.7460334337156
 21
20772.13567703333
 31
0.0
  0
LINE
  5
46AF
  8
KL
 10
7119.7009735549373
 20
20811.774274272531
 30
0.0
 11
7298.6100496364406
 21
20792.94582940184
 31
0.0
  0
LINE
  5
46B0
  8
KL
 10
7121.5767956317168
 20
20829.676260715081
 30
0.0
 11
7300.4785872374396
 21
20810.848582464809
 31
0.0
  0
LINE
  5
46CD
  8
FUTO
 10
10970.055210120219
 20
20790.13567703333
 30
0.0
 11
12187.75521012022
 21
20790.13567703333
 31
0.0
  0
LINE
  5
46CE
  8
FUTO
 10
10970.055210120219
 20
20772.13567703333
 30
0.0
 11
12187.75521012022
 21
20772.13567703333
 31
0.0
  0
LINE
  5
470A
  8
FUTO
 10
6568.463796914376
 20
23939.380810178882
 30
0.0
 11
6568.463796914376
 21
25107.380810178889
 31
0.0
  0
LINE
  5
470B
  8
HOSO
 10
6568.463796914376
 20
23939.380810178882
 30
0.0
 11
6568.463796914376
 21
25107.380810178889
 31
0.0
  0
LINE
  5
470C
  8
FUTO
 10
6618.463796914376
 20
23939.380810178882
 30
0.0
 11
6618.463796914376
 21
25107.380810178889
 31
0.0
  0
LINE
  5
470D
  8
FUTO
 10
6572.4637969143769
 20
23939.380810178882
 30
0.0
 11
6572.4637969143769
 21
25107.380810178889
 31
0.0
  0
LINE
  5
470E
  8
FUTO
 10
8705.4637969143769
 20
25061.380810178882
 30
0.0
 11
8705.4637969143769
 21
23987.380810178882
 31
0.0
  0
LINE
  5
470F
  8
FUTO
 10
8755.4637969143769
 20
25107.380810178889
 30
0.0
 11
8755.4637969143769
 21
23939.380810178882
 31
0.0
  0
LINE
  5
4710
  8
FUTO
 10
8755.4637969143769
 20
23987.380810178882
 30
0.0
 11
8989.4637969143732
 21
23987.380810178882
 31
0.0
  0
DIMENSION
  5
4712
  8
FUTO
  2
*D16
 10
6568.463796914376
 20
25541.816633371771
 30
0.0
 11
7033.4637969143769
 21
25601.816633371771
 31
0.0
 70
     0
 13
7498.463796914376
 23
25438.253387828481
 33
0.0
 14
6568.463796914376
 24
25107.380810178889
 34
0.0
 50
180.0
1001
ACAD
1000
DSTYLE
1002
{
1070
    40
1040
30.0
1070
   176
1070
     2
1070
   177
1070
     2
1070
   178
1070
     2
1070
   341
1005
44D5
1070
     5
1000
OPEN30
1002
}
  0
LINE
  5
485C
  8
FUTO
 10
10995.055210120219
 20
19236.13567703333
 30
0.0
 11
12164.055210120239
 21
19236.13567703333
 31
0.0
  0
LINE
  5
485D
  8
FUTO
 10
11045.055210120219
 20
19286.13567703333
 30
0.0
 11
12112.75521012022
 21
19286.13567703333
 31
0.0
  0
LINE
  5
485E
  8
KL
 10
10995.055210120219
 20
19236.13567703333
 30
0.0
 11
10995.055210120199
 21
19777.375905114211
 31
0.0
  0
LINE
  5
485F
  8
KL
 10
12164.055210120239
 20
19236.13567703333
 30
0.0
 11
12164.05521012021
 21
19789.728615557258
 31
0.0
  0
LINE
  5
4872
  8
SL
 10
7694.8151404151031
 20
20935.881112847961
 30
0.0
 11
8781.716766558684
 21
19556.747741818741
 31
0.0
  0
LINE
  5
4873
  8
FUTO
 10
7799.0494723108477
 20
21013.618475851759
 30
0.0
 11
8872.4870826702281
 21
19625.730981612422
 31
0.0
  0
LINE
  5
4874
  8
SL
 10
8627.0125089169214
 20
19412.83680447756
 30
0.0
 11
7329.9466082411363
 21
20596.46852477916
 31
0.0
  0
LINE
  5
4875
  8
FUTO
 10
7244.8869163376603
 20
20498.118423783671
 30
0.0
 11
8551.6561292120659
 21
19327.28358304669
 31
0.0
  0
LINE
  5
4876
  8
FUTO
 10
7196.9302973108006
 20
20675.13567703333
 30
0.0
 11
6998.463796914376
 21
19231.13567703333
 31
0.0
  0
LINE
  5
4877
  8
KL
 10
7799.9972965179422
 20
20675.135677033351
 30
0.0
 11
7905.7031430261904
 21
19906.042444407471
 31
0.0
  0
LINE
  5
4878
  8
FUTO
 10
7905.7031430261904
 20
19906.042444407471
 30
0.0
 11
7998.463796914466
 21
19231.13567703337
 31
0.0
  0
LINE
  5
4879
  8
FUTO
 10
10970.055210120219
 20
21784.13567703333
 30
0.0
 11
12187.75521012022
 21
21784.13567703333
 31
0.0
  0
DIMENSION
  5
488D
  8
FUTO
  2
*D17
 10
6020.5719978626539
 20
20781.13567703333
 30
0.0
 11
5960.5719978626512
 21
19931.13567703333
 31
0.0
 70
     0
 13
6648.4637969143769
 23
19081.13567703333
 33
0.0
 14
6320.4598182670479
 24
20781.13567703333
 34
0.0
 50
90.0
1001
ACAD
1000
DSTYLE
1002
{
1070
    40
1040
30.0
1070
   176
1070
     2
1070
   177
1070
     2
1070
   178
1070
     2
1070
   341
1005
44D5
1070
     5
1000
OPEN30
1002
}
  0
LINE
  5
489A
  8
CT
 10
7391.3501940718043
 20
21784.13567703333
 30
0.0
 11
7498.463796914376
 21
21784.13567703333
 31
0.0
  0
DIMENSION
  5
489B
  8
FUTO
  2
*D18
 10
6020.5719978626548
 20
21784.13567703333
 30
0.0
 11
5960.5719978626512
 21
21282.63567703333
 31
0.0
 70
     0
 13
6320.4598182670479
 23
20781.13567703333
 33
0.0
 14
7391.3501940718043
 24
21784.13567703333
 34
0.0
 50
90.0
1001
ACAD
1000
DSTYLE
1002
{
1070
    40
1040
30.0
1070
   176
1070
     2
1070
   177
1070
     2
1070
   178
1070
     2
1070
   341
1005
44D5
1070
     5
1000
OPEN30
1002
}
  0
DIMENSION
  5
48A8
  8
FUTO
  2
*D19
 10
6568.463796914376
 20
22085.011171423532
 30
0.0
 11
7033.4637969143769
 21
22145.011171423532
 31
0.0
 70
     0
 13
7498.463796914376
 23
21884.16561033138
 33
0.0
 14
6568.463796914376
 24
20794.13567703333
 34
0.0
1001
ACAD
1000
DSTYLE
1002
{
1070
    40
1040
30.0
1070
   176
1070
     2
1070
   177
1070
     2
1070
   178
1070
     2
1070
   341
1005
44D5
1070
     5
1000
OPEN30
1002
}
  0
ARC
  5
48C7
  8
FUTO
 10
7396.4637969143787
 20
20679.13567703333
 30
0.0
 40
1329.0
 50
330.89787166681361
 51
4.4017473756491317
  0
LINE
  5
48C8
  8
KL
 10
11045.055210120219
 20
19289.33567703333
 30
0.0
 11
12112.75521012022
 21
19289.33567703333
 31
0.0
  0
LINE
  5
492F
  8
FUTO
 10
12116.555210120219
 20
19081.13567703333
 30
0.0
 11
12116.555210120219
 21
19231.13567703333
 31
0.0
1001
ACAD
1000
ASC_BOUNDS
1002
{
1070
    19
1002
}
  0
LINE
  5
4930
  8
FUTO
 10
12116.555210120219
 20
19231.13567703333
 30
0.0
 11
12191.555210120219
 21
19231.13567703333
 31
0.0
1001
ACAD
1000
ASC_BOUNDS
1002
{
1070
    19
1002
}
  0
LINE
  5
4931
  8
FUTO
 10
12191.555210120219
 20
19231.13567703333
 30
0.0
 11
12191.555210120219
 21
19227.79748845517
 31
0.0
1001
ACAD
1000
ASC_BOUNDS
1002
{
1070
    19
1002
}
  0
ARC
  5
4932
  8
FUTO
 10
12187.555210120219
 20
19227.79748845517
 30
0.0
 40
4.0000000000009086
 50
274.99999999998528
 51
359.99999999994782
1001
ACAD
1000
ASC_BOUNDS
1002
{
1070
    19
1002
}
  0
LINE
  5
4933
  8
FUTO
 10
12187.90383309121
 20
19223.812709662801
 30
0.0
 11
12126.70658714923
 21
19218.458644403869
 31
0.0
1001
ACAD
1000
ASC_BOUNDS
1002
{
1070
    19
1002
}
  0
ARC
  5
4934
  8
FUTO
 10
12127.055210120219
 20
19214.473865611501
 30
0.0
 40
4.0000000000002656
 50
94.99999999999946
 51
180.0
1001
ACAD
1000
ASC_BOUNDS
1002
{
1070
    19
1002
}
  0
LINE
  5
4935
  8
FUTO
 10
12123.055210120219
 20
19214.473865611501
 30
0.0
 11
12123.055210120219
 21
19097.79748845517
 31
0.0
1001
ACAD
1000
ASC_BOUNDS
1002
{
1070
    19
1002
}
  0
ARC
  5
4936
  8
FUTO
 10
12127.055210120219
 20
19097.79748845517
 30
0.0
 40
3.9999999999990901
 50
179.9999999999869
 51
264.99999999998641
1001
ACAD
1000
ASC_BOUNDS
1002
{
1070
    19
1002
}
  0
LINE
  5
4937
  8
FUTO
 10
12126.70658714923
 20
19093.812709662801
 30
0.0
 11
12187.90383309121
 21
19088.458644403869
 31
0.0
1001
ACAD
1000
ASC_BOUNDS
1002
{
1070
    19
1002
}
  0
ARC
  5
4938
  8
FUTO
 10
12187.555210120219
 20
19084.473865611501
 30
0.0
 40
4.0000000000010933
 50
0.0000000000260551
 51
85.000000000014666
1001
ACAD
1000
ASC_BOUNDS
1002
{
1070
    19
1002
}
  0
LINE
  5
4939
  8
FUTO
 10
12191.555210120219
 20
19084.473865611501
 30
0.0
 11
12191.555210120219
 21
19081.13567703333
 31
0.0
1001
ACAD
1000
ASC_BOUNDS
1002
{
1070
    19
1002
}
  0
LINE
  5
493A
  8
FUTO
 10
12191.555210120219
 20
19081.13567703333
 30
0.0
 11
12116.555210120219
 21
19081.13567703333
 31
0.0
1001
ACAD
1000
ASC_BOUNDS
1002
{
1070
    19
1002
}
  0
LINE
  5
493B
  8
FUTO
 10
10066.555210120219
 20
19231.13567703333
 30
0.0
 11
9991.5552101202265
 21
19231.13567703333
 31
0.0
  0
LINE
  5
493C
  8
FUTO
 10
10056.40383309121
 20
19218.458644403869
 30
0.0
 11
9995.2065871492323
 21
19223.812709662801
 31
0.0
  0
LINE
  5
493D
  8
FUTO
 10
10066.555210120219
 20
19081.13567703333
 30
0.0
 11
9991.5552101202265
 21
19081.13567703333
 31
0.0
  0
LINE
  5
493E
  8
FUTO
 10
10056.40383309121
 20
19093.812709662801
 30
0.0
 11
9995.2065871492323
 21
19088.458644403869
 31
0.0
  0
LINE
  5
493F
  8
FUTO
 10
10060.055210120219
 20
19097.79748845517
 30
0.0
 11
10060.055210120219
 21
19214.473865611501
 31
0.0
  0
ARC
  5
4940
  8
FUTO
 10
10056.055210120219
 20
19214.473865611501
 30
0.0
 40
4.0
 50
0.0
 51
84.999999999975714
  0
LINE
  5
4941
  8
FUTO
 10
10066.555210120219
 20
19081.13567703333
 30
0.0
 11
10066.555210120219
 21
19231.13567703333
 31
0.0
  0
ARC
  5
4942
  8
FUTO
 10
10056.055210120219
 20
19097.79748845517
 30
0.0
 40
4.0
 50
275.00000000002422
 51
0.0
  0
ARC
  5
4943
  8
FUTO
 10
9995.5552101202284
 20
19227.79748845517
 30
0.0
 40
4.0
 50
180.0
 51
264.99999999997573
  0
LINE
  5
4944
  8
FUTO
 10
9991.5552101202265
 20
19231.13567703333
 30
0.0
 11
9991.5552101202265
 21
19227.79748845517
 31
0.0
  0
LINE
  5
4945
  8
FUTO
 10
9991.5552101202265
 20
19081.13567703333
 30
0.0
 11
9991.5552101202265
 21
19084.473865611501
 31
0.0
  0
ARC
  5
4946
  8
FUTO
 10
9995.5552101202284
 20
19084.473865611501
 30
0.0
 40
4.0
 50
95.000000000024286
 51
180.0
  0
TEXT
  5
5046
  8
SP
 10
3375.9259318500071
 20
7711.3321362100733
 30
0.0
 40
100.0
  1
 
  0
TEXT
  5
530E
  8
SP
 10
392.88895673467772
 20
10571.87703507796
 30
0.0
 40
100.0
  1
 
  0
TEXT
  5
530F
  8
SP
 10
4553.7444573599814
 20
13252.040484018269
 30
0.0
 40
100.0
  1
 
  0
TEXT
  5
5310
  8
SP
 10
14110.69588736343
 20
20680.638156113109
 30
0.0
 40
100.0
  1
 
  0
LINE
  5
5311
  8
4
 10
13211.94631839027
 20
17079.58492882457
 30
0.0
 11
13211.94631839027
 21
16079.58492882457
 31
0.0
  0
LINE
  5
5312
  8
4
 10
9711.9463183902699
 20
17079.58492882457
 30
0.0
 11
9711.9463183902699
 21
16079.58492882457
 31
0.0
  0
LINE
  5
5313
  8
4
 10
7211.946318390269
 20
17079.58492882457
 30
0.0
 11
7211.946318390269
 21
16079.58492882457
 31
0.0
  0
LINE
  5
5316
  8
4
 10
7211.946318390269
 20
16079.58492882457
 30
0.0
 11
13211.94631839027
 21
16079.58492882457
 31
0.0
  0
LINE
  5
5317
  8
4
 10
7211.946318390269
 20
16579.58492882457
 30
0.0
 11
13211.94631839027
 21
16579.58492882457
 31
0.0
  0
TEXT
  5
5318
  8
4
 10
7404.4567226247891
 20
16737.300058157642
 30
0.0
 40
250.0
  1
機器名称
  0
TEXT
  5
5319
  8
4
 10
7393.2368485142642
 20
16187.81071248463
 30
0.0
 40
250.0
  1
機器型番
  0
TEXT
  5
531A
  8
4
 10
9735.9116268954822
 20
16690.521440609311
 30
0.0
 40
225.0
  1
ミツヤリミットロードファン
  0
TEXT
  5
531B
  8
4
 10
9895.2187963176857
 20
16165.38285022429
 30
0.0
 40
250.0
  1
LL#9-1
  0
TEXT
  5
531D
  8
4
 10
7837.1080603591554
 20
26496.729135487149
 30
0.0
 40
270.0
  1
床置ベット
  0
TEXT
  5
531E
  8
4
 10
5542.7842850375018
 20
27248.989809821069
 30
0.0
 40
360.0
  1
遠心式片吸込片持リミットロードファン
  0
LINE
  5
531F
  8
4
 10
5211.9463183902699
 20
26926.628700148602
 30
0.0
 11
13211.94631839027
 21
26926.628700148602
 31
0.0
  0
LINE
  5
5320
  8
4
 10
5211.9463183902699
 20
27926.628700148602
 30
0.0
 11
13211.94631839027
 21
27926.628700148602
 31
0.0
  0
LINE
  5
5321
  8
4
 10
7211.946318390269
 20
17079.58492882457
 30
0.0
 11
13211.94631839027
 21
17079.58492882457
 31
0.0
  0
LINE
  5
5322
  8
4
 10
5211.9463183902699
 20
27926.628700148602
 30
0.0
 11
5211.9463183902699
 21
26926.628700148602
 31
0.0
  0
TEXT
  5
5323
  8
4
 10
5657.8138991456372
 20
26491.182316556289
 30
0.0
 40
270.0
  1
右回転左横向
  0
TEXT
  5
5324
  8
4
 10
11306.794114636719
 20
28109.89033630112
 30
0.0
 40
280.0
  1
No.
  0
TEXT
  5
5325
  8
4
 10
11373.72554164704
 20
26000.464292476951
 30
0.0
 40
270.0
  1
縮尺：1/50
  0
LINE
  5
5326
  8
4
 10
13211.94631839027
 20
27926.628700148602
 30
0.0
 11
13211.94631839027
 21
26926.628700148602
 31
0.0
  0
LINE
  5
5327
  8
4
 10
14461.94631839027
 20
29329.584928824581
 30
0.0
 11
14461.94631839027
 21
29329.584928824581
 31
0.0
  0
LINE
  5
5328
  8
4
 10
11165.033430189589
 20
27985.902844451579
 30
0.0
 11
11165.033430189589
 21
28512.846236573339
 31
0.0
  0
LINE
  5
5329
  8
4
 10
11165.033430189589
 20
28512.846236573339
 30
0.0
 11
13211.94631839027
 21
28512.846236573339
 31
0.0
  0
LINE
  5
532A
  8
4
 10
13211.94631839027
 20
28512.846236573339
 30
0.0
 11
13211.94631839027
 21
27985.902844451579
 31
0.0
  0
LINE
  5
532B
  8
4
 10
13211.94631839027
 20
27985.902844451579
 30
0.0
 11
11165.033430189589
 21
27985.902844451579
 31
0.0
  0
LINE
  5
532C
  8
4
 10
3961.9463183902699
 20
14579.58492882457
 30
0.0
 11
3961.9463183902699
 21
29329.584928824581
 31
0.0
  0
LINE
  5
532D
  8
4
 10
3961.9463183902699
 20
29329.584928824581
 30
0.0
 11
14461.94631839027
 21
29329.584928824581
 31
0.0
  0
LINE
  5
532E
  8
4
 10
14461.94631839027
 20
29329.584928824581
 30
0.0
 11
14461.94631839027
 21
14579.58492882457
 31
0.0
  0
LINE
  5
532F
  8
4
 10
14461.94631839027
 20
14579.58492882457
 30
0.0
 11
3961.9463183902699
 21
14579.58492882457
 31
0.0
  0
ENDSEC
  0
EOF
