  0
SECTION
  2
HEADER
  9
$ACADVER
  1
AC1009
  9
$INSBASE
 10
0.0
 20
0.0
 30
0.0
  9
$EXTMIN
 10
7528.5342040853138
 20
16281.70089204081
 30
0.0
  9
$EXTMAX
 10
18028.53420408531
 20
31031.700892040812
 30
0.0
  9
$LIMMIN
 10
0.0
 20
0.0
  9
$LIMMAX
 10
420.0
 20
297.0
  9
$ORTHOMODE
 70
     0
  9
$REGENMODE
 70
     1
  9
$FILLMODE
 70
     1
  9
$QTEXTMODE
 70
     0
  9
$MIRRTEXT
 70
     0
  9
$DRAGMODE
 70
     2
  9
$LTSCALE
 40
150.0
  9
$OSMODE
 70
    37
  9
$ATTMODE
 70
     1
  9
$TEXTSIZE
 40
90.0
  9
$TRACEWID
 40
0.05
  9
$TEXTSTYLE
  7
STANDARD
  9
$CLAYER
  8
FUTO
  9
$CELTYPE
  6
BYLAYER
  9
$CECOLOR
 62
   256
  9
$DIMSCALE
 40
30.0
  9
$DIMASZ
 40
2.0
  9
$DIMEXO
 40
1.0
  9
$DIMDLI
 40
10.0
  9
$DIMRND
 40
0.0
  9
$DIMDLE
 40
0.0
  9
$DIMEXE
 40
1.0
  9
$DIMTP
 40
0.0
  9
$DIMTM
 40
0.0
  9
$DIMTXT
 40
3.0
  9
$DIMCEN
 40
0.0
  9
$DIMTSZ
 40
0.0
  9
$DIMTOL
 70
     0
  9
$DIMLIM
 70
     0
  9
$DIMTIH
 70
     0
  9
$DIMTOH
 70
     0
  9
$DIMSE1
 70
     0
  9
$DIMSE2
 70
     0
  9
$DIMTAD
 70
     1
  9
$DIMZIN
 70
     8
  9
$DIMBLK
  1
OPEN30
  9
$DIMASO
 70
     1
  9
$DIMSHO
 70
     1
  9
$DIMPOST
  1

  9
$DIMAPOST
  1

  9
$DIMALT
 70
     0
  9
$DIMALTD
 70
     2
  9
$DIMALTF
 40
0.03937
  9
$DIMLFAC
 40
1.0
  9
$DIMTOFL
 70
     1
  9
$DIMTVP
 40
0.0
  9
$DIMTIX
 70
     0
  9
$DIMSOXD
 70
     0
  9
$DIMSAH
 70
     0
  9
$DIMBLK1
  1

  9
$DIMBLK2
  1

  9
$DIMSTYLE
  2
MATSU
  9
$DIMCLRD
 70
     2
  9
$DIMCLRE
 70
     2
  9
$DIMCLRT
 70
     2
  9
$DIMTFAC
 40
1.0
  9
$DIMGAP
 40
0.5
  9
$LUNITS
 70
     2
  9
$LUPREC
 70
     1
  9
$SKETCHINC
 40
0.1
  9
$FILLETRAD
 40
0.0
  9
$AUNITS
 70
     0
  9
$AUPREC
 70
     0
  9
$MENU
  1
SSMENU
  9
$ELEVATION
 40
0.0
  9
$PELEVATION
 40
0.0
  9
$THICKNESS
 40
0.0
  9
$LIMCHECK
 70
     0
  9
$BLIPMODE
 70
     0
  9
$CHAMFERA
 40
20.0
  9
$CHAMFERB
 40
20.0
  9
$SKPOLY
 70
     0
  9
$TDCREATE
 40
2450714.9573032409
  9
$TDUPDATE
 40
2454953.6484373142
  9
$TDINDWG
 40
1.3849764815000001
  9
$TDUSRTIMER
 40
1.3849764815000001
  9
$USRTIMER
 70
     1
  9
$ANGBASE
 50
0.0
  9
$ANGDIR
 70
     0
  9
$PDMODE
 70
     0
  9
$PDSIZE
 40
1.0
  9
$PLINEWID
 40
0.0
  9
$COORDS
 70
     1
  9
$SPLFRAME
 70
     0
  9
$SPLINETYPE
 70
     6
  9
$SPLINESEGS
 70
     8
  9
$ATTDIA
 70
     0
  9
$ATTREQ
 70
     1
  9
$HANDLING
 70
 10241
  9
$HANDSEED
  5
52F4
  9
$SURFTAB1
 70
     6
  9
$SURFTAB2
 70
     6
  9
$SURFTYPE
 70
     6
  9
$SURFU
 70
     6
  9
$SURFV
 70
     6
  9
$UCSNAME
  2

  9
$UCSORG
 10
0.0
 20
0.0
 30
0.0
  9
$UCSXDIR
 10
1.0
 20
0.0
 30
0.0
  9
$UCSYDIR
 10
0.0
 20
1.0
 30
0.0
  9
$PUCSNAME
  2

  9
$PUCSORG
 10
0.0
 20
0.0
 30
0.0
  9
$PUCSXDIR
 10
1.0
 20
0.0
 30
0.0
  9
$PUCSYDIR
 10
0.0
 20
1.0
 30
0.0
  9
$USERI1
 70
     0
  9
$USERI2
 70
     0
  9
$USERI3
 70
     0
  9
$USERI4
 70
     0
  9
$USERI5
 70
     0
  9
$USERR1
 40
0.0
  9
$USERR2
 40
0.0
  9
$USERR3
 40
0.0
  9
$USERR4
 40
0.0
  9
$USERR5
 40
0.0
  9
$WORLDVIEW
 70
     1
  9
$SHADEDGE
 70
     3
  9
$SHADEDIF
 70
    70
  9
$TILEMODE
 70
     1
  9
$MAXACTVP
 70
    16
  9
$PLIMCHECK
 70
     0
  9
$PEXTMIN
 10
0.0
 20
0.0
 30
0.0
  9
$PEXTMAX
 10
12.561051004636781
 20
9.0
 30
0.0
  9
$PLIMMIN
 10
0.0
 20
0.0
  9
$PLIMMAX
 10
12.0
 20
9.0
  9
$UNITMODE
 70
     0
  9
$VISRETAIN
 70
     0
  9
$PLINEGEN
 70
     0
  9
$PSLTSCALE
 70
     0
  0
ENDSEC
  0
SECTION
  2
TABLES
  0
TABLE
  2
VPORT
 70
     2
  0
VPORT
  2
*ACTIVE
 70
     0
 10
0.0
 20
0.0
 11
1.0
 21
1.0
 12
17335.366887126369
 22
18067.511725035551
 13
0.0
 23
0.0
 14
5.0
 24
5.0
 15
0.0
 25
0.0
 16
0.0
 26
0.0
 36
1.0
 17
0.0
 27
0.0
 37
0.0
 40
4426.3328955126426
 41
3.1666666666666661
 42
50.0
 43
0.0
 44
0.0
 50
0.0
 51
0.0
 71
     0
 72
   500
 73
     1
 74
     0
 75
     0
 76
     0
 77
     0
 78
     0
  0
ENDTAB
  0
TABLE
  2
LTYPE
 70
     4
  0
LTYPE
  2
CONTINUOUS
 70
     0
  3
実線
 72
    65
 73
     0
 40
0.0
  0
LTYPE
  2
CENTER
 70
     0
  3
____ _ ____ _ ____ _ ____ _ ____ _ ____ _ ____ 
 72
    65
 73
     4
 40
2.0
 49
1.25
 49
-0.25
 49
0.25
 49
-0.25
  0
LTYPE
  2
HIDDEN
 70
     0
  3
__ __ __ __ __ __ __ __ __ __ __ __ __ __ __ __
 72
    65
 73
     2
 40
0.375
 49
0.25
 49
-0.125
  0
LTYPE
  2
PHANTOM
 70
     0
  3
______  __  __  ______  __  __  ______  __  __ 
 72
    65
 73
     6
 40
2.5
 49
1.25
 49
-0.25
 49
0.25
 49
-0.25
 49
0.25
 49
-0.25
  0
ENDTAB
  0
TABLE
  2
LAYER
 70
     9
  0
LAYER
  2
0
 70
     0
 62
     7
  6
CONTINUOUS
  0
LAYER
  2
FUTO
 70
     0
 62
     4
  6
CONTINUOUS
  0
LAYER
  2
CT
 70
     0
 62
     3
  6
CENTER
  0
LAYER
  2
HOSO
 70
     0
 62
     7
  6
CONTINUOUS
  0
LAYER
  2
KL
 70
     0
 62
     7
  6
HIDDEN
  0
LAYER
  2
SL
 70
     0
 62
     1
  6
PHANTOM
  0
LAYER
  2
SP
 70
     0
 62
     2
  6
CONTINUOUS
  0
LAYER
  2
DEFPOINTS
 70
     0
 62
     7
  6
CONTINUOUS
  0
LAYER
  2
4
 70
     0
 62
     7
  6
CONTINUOUS
  0
ENDTAB
  0
TABLE
  2
STYLE
 70
     2
  0
STYLE
  2
STANDARD
 70
     0
 40
0.0
 41
1.0
 50
15.0
 71
     0
 42
90.0
  3
SIMPLEX
  4
EXTFONT
  0
STYLE
  2
SUNPOU
 70
     0
 40
0.0
 41
1.0
 50
15.0
 71
     0
 42
5.0
  3
simplex.shx
  4
extfont.shx
  0
ENDTAB
  0
TABLE
  2
VIEW
 70
     0
  0
ENDTAB
  0
TABLE
  2
UCS
 70
     0
  0
ENDTAB
  0
TABLE
  2
APPID
 70
     1
  0
APPID
  2
ACAD
 70
     0
  0
ENDTAB
  0
TABLE
  2
DIMSTYLE
 70
     1
  0
DIMSTYLE
  2
MATSU
 70
     0
  3

  4

  5
CLOSED
  6

  7

 40
10.0
 41
2.0
 42
1.0
 43
10.0
 44
1.0
 45
0.0
 46
0.0
 47
0.0
 48
0.0
140
3.0
141
0.0
142
0.0
143
0.03937
144
1.0
145
0.0
146
1.0
147
0.5
 71
     0
 72
     0
 73
     0
 74
     0
 75
     0
 76
     0
 77
     1
 78
     8
170
     0
171
     2
172
     1
173
     0
174
     0
175
     0
176
   256
177
   256
178
   256
  0
ENDTAB
  0
ENDSEC
  0
SECTION
  2
BLOCKS
  0
BLOCK
  8
0
  2
$MODEL_SPACE
 70
     0
 10
0.0
 20
0.0
 30
0.0
  3
$MODEL_SPACE
  1

  0
ENDBLK
  5
7
  8
0
  0
BLOCK
 67
     1
  8
0
  2
$PAPER_SPACE
 70
     0
 10
0.0
 20
0.0
 30
0.0
  3
$PAPER_SPACE
  1

  0
ENDBLK
  5
A
 67
     1
  8
0
  0
BLOCK
  8
0
  2
まっすぐの矢印
 70
     0
 10
0.0
 20
0.0
 30
0.0
  3
まっすぐの矢印
  1

  0
LINE
  5
599
  8
SP
 10
13.01863531255526
 20
-41.453946163708451
 30
0.0
 11
13.01863531255526
 21
-93.495696758840026
 31
0.0
  0
LINE
  5
59A
  8
SP
 10
13.01863531255526
 20
-93.495696758840026
 30
0.0
 11
-13.01863531255526
 21
-93.495696758840026
 31
0.0
  0
LINE
  5
59B
  8
SP
 10
-13.01863531255526
 20
-93.495696758840026
 30
0.0
 11
-13.01863531255526
 21
-41.453946163708451
 31
0.0
  0
LINE
  5
59C
  8
SP
 10
-13.01863531255526
 20
-41.453946163708451
 30
0.0
 11
-32.06015471115802
 21
-41.453946163708451
 31
0.0
  0
LINE
  5
59D
  8
SP
 10
-32.06015471115802
 20
-41.453946163708451
 30
0.0
 11
0.0
 21
0.0
 31
0.0
  0
LINE
  5
59E
  8
SP
 10
0.0
 20
0.0
 30
0.0
 11
32.06015471115802
 21
-41.453946163708451
 31
0.0
  0
LINE
  5
59F
  8
SP
 10
32.06015471115802
 20
-41.453946163708451
 30
0.0
 11
13.01863531255526
 21
-41.453946163708451
 31
0.0
  0
ENDBLK
  5
5A1
  8
0
  0
BLOCK
  8
0
  2
左回転矢印
 70
     0
 10
0.0
 20
0.0
 30
0.0
  3
左回転矢印
  1

  0
LINE
  5
57C
  8
SP
 10
43.930449171819873
 20
24.859487323637271
 30
0.0
 11
38.511878498580238
 21
44.478978865188871
 31
0.0
  0
LINE
  5
57D
  8
SP
 10
38.511878498580238
 20
44.478978865188871
 30
0.0
 11
0.0
 21
0.0
 31
0.0
  0
LINE
  5
57E
  8
SP
 10
0.0
 20
0.0
 30
0.0
 11
52.57968174421967
 21
-6.4575435924972453
 31
0.0
  0
LINE
  5
57F
  8
SP
 10
52.57968174421967
 20
-6.4575435924972453
 30
0.0
 11
48.189912989015284
 21
9.436875093862227
 31
0.0
  0
ARC
  5
580
  8
SP
 10
93.893649146691985
 20
-156.0466295121104
 30
0.0
 40
171.67883327727239
 50
67.881388989212894
 51
105.4392492786835
  0
LINE
  5
581
  8
SP
 10
158.53505643637521
 20
2.997736182040398
 30
0.0
 11
164.55945966006539
 21
17.820238190756751
 31
0.0
  0
ARC
  5
582
  8
SP
 10
93.893649146692198
 20
-156.04662951211091
 30
0.0
 40
187.67883327727299
 50
67.881388989212994
 51
105.4392492786836
  0
ENDBLK
  5
584
  8
0
  0
BLOCK
  8
0
  2
*D2
 70
     1
 10
0.0
 20
0.0
 30
0.0
  3
*D2
  1

  0
LINE
  5
5214
  8
FUTO
 62
     2
 10
12381.646150601029
 20
22036.208229042521
 30
0.0
 11
12681.53397100542
 21
22036.208229042521
 31
0.0
  0
LINE
  5
5215
  8
FUTO
 62
     2
 10
12053.642171953699
 20
20796.208229042521
 30
0.0
 11
12681.53397100542
 21
20796.208229042521
 31
0.0
  0
LINE
  5
5216
  8
FUTO
 62
     2
 10
12651.53397100542
 20
21976.208229042521
 30
0.0
 11
12651.53397100542
 21
20856.208229042521
 31
0.0
  0
INSERT
  5
5217
  8
FUTO
 62
     2
  2
_OPEN30
 10
12651.53397100542
 20
22036.208229042521
 30
0.0
 41
60.0
 42
60.0
 43
60.0
 50
90.0
  0
INSERT
  5
5218
  8
FUTO
 62
     2
  2
_OPEN30
 10
12651.53397100542
 20
20796.208229042521
 30
0.0
 41
60.0
 42
60.0
 43
60.0
 50
270.0
  0
TEXT
  5
5219
  8
FUTO
 62
     2
 10
12636.53397100542
 20
21248.82907359397
 30
0.0
 40
90.0
  1
1240
 50
90.0
 51
15.0
  7
SUNPOU
  0
POINT
  5
521A
  8
DEFPOINTS
 62
     0
 10
12351.646150601029
 20
22036.208229042521
 30
0.0
  0
POINT
  5
521B
  8
DEFPOINTS
 62
     0
 10
12023.642171953699
 20
20796.208229042521
 30
0.0
  0
POINT
  5
521C
  8
DEFPOINTS
 62
     0
 10
12651.53397100542
 20
20796.208229042521
 30
0.0
  0
ENDBLK
  5
2BCE
  8
0
  0
BLOCK
  8
0
  2
*D3
 70
     1
 10
0.0
 20
0.0
 30
0.0
  3
*D3
  1

  0
LINE
  5
521D
  8
FUTO
 62
     2
 10
11173.642171953699
 20
20739.126077998772
 30
0.0
 11
11173.642171953699
 21
20526.908369077501
 31
0.0
  0
LINE
  5
521E
  8
FUTO
 62
     2
 10
9623.6421719537047
 20
20691.208229042521
 30
0.0
 11
9623.6421719537047
 21
20526.908369077501
 31
0.0
  0
LINE
  5
521F
  8
FUTO
 62
     2
 10
11113.642171953699
 20
20556.908369077501
 30
0.0
 11
9683.6421719537029
 21
20556.908369077501
 31
0.0
  0
INSERT
  5
5220
  8
FUTO
 62
     2
  2
_OPEN30
 10
11173.642171953699
 20
20556.908369077501
 30
0.0
 41
60.0
 42
60.0
 43
60.0
  0
INSERT
  5
5221
  8
FUTO
 62
     2
  2
_OPEN30
 10
9623.6421719537047
 20
20556.908369077501
 30
0.0
 41
60.0
 42
60.0
 43
60.0
 50
180.0
  0
TEXT
  5
5222
  8
FUTO
 62
     2
 10
10231.26301650514
 20
20571.908369077501
 30
0.0
 40
90.0
  1
1550
 51
15.0
  7
SUNPOU
  0
POINT
  5
5223
  8
DEFPOINTS
 62
     0
 10
11173.642171953699
 20
20769.126077998772
 30
0.0
  0
POINT
  5
5224
  8
DEFPOINTS
 62
     0
 10
9623.6421719537047
 20
20721.208229042521
 30
0.0
  0
POINT
  5
5225
  8
DEFPOINTS
 62
     0
 10
9623.6421719537047
 20
20556.908369077501
 30
0.0
  0
ENDBLK
  5
3643
  8
0
  0
BLOCK
  8
0
  2
*D4
 70
     1
 10
0.0
 20
0.0
 30
0.0
  3
*D4
  1

  0
LINE
  5
5226
  8
FUTO
 62
     2
 10
9623.6421719537047
 20
20766.208229042521
 30
0.0
 11
9623.6421719537047
 21
20343.99105209341
 31
0.0
  0
LINE
  5
5227
  8
FUTO
 62
     2
 10
12023.642171953699
 20
20766.208229042521
 30
0.0
 11
12023.642171953699
 21
20343.99105209341
 31
0.0
  0
LINE
  5
5228
  8
FUTO
 62
     2
 10
9683.6421719537029
 20
20373.99105209341
 30
0.0
 11
11963.642171953699
 21
20373.99105209341
 31
0.0
  0
INSERT
  5
5229
  8
FUTO
 62
     2
  2
_OPEN30
 10
9623.6421719537047
 20
20373.99105209341
 30
0.0
 41
60.0
 42
60.0
 43
60.0
 50
180.0
  0
INSERT
  5
522A
  8
FUTO
 62
     2
  2
_OPEN30
 10
12023.642171953699
 20
20373.99105209341
 30
0.0
 41
60.0
 42
60.0
 43
60.0
  0
TEXT
  5
522B
  8
FUTO
 62
     2
 10
10657.45259422942
 20
20388.99105209341
 30
0.0
 40
90.0
  1
2400
 51
15.0
  7
SUNPOU
  0
POINT
  5
522C
  8
DEFPOINTS
 62
     0
 10
9623.6421719537047
 20
20796.208229042521
 30
0.0
  0
POINT
  5
522D
  8
DEFPOINTS
 62
     0
 10
12023.642171953699
 20
20796.208229042521
 30
0.0
  0
POINT
  5
522E
  8
DEFPOINTS
 62
     0
 10
12023.642171953699
 20
20373.99105209341
 30
0.0
  0
ENDBLK
  5
3638
  8
0
  0
BLOCK
  8
0
  2
*D5
 70
     1
 10
0.0
 20
0.0
 30
0.0
  3
*D5
  1

  0
LINE
  5
522F
  8
FUTO
 62
     2
 10
11173.642171953699
 20
20739.126077998772
 30
0.0
 11
11173.642171953699
 21
20526.908369077501
 31
0.0
  0
LINE
  5
5230
  8
FUTO
 62
     2
 10
12023.642171953699
 20
20691.208229042521
 30
0.0
 11
12023.642171953699
 21
20526.908369077501
 31
0.0
  0
LINE
  5
5231
  8
FUTO
 62
     2
 10
11233.642171953699
 20
20556.908369077501
 30
0.0
 11
11963.642171953699
 21
20556.908369077501
 31
0.0
  0
INSERT
  5
5232
  8
FUTO
 62
     2
  2
_OPEN30
 10
11173.642171953699
 20
20556.908369077501
 30
0.0
 41
60.0
 42
60.0
 43
60.0
 50
180.0
  0
INSERT
  5
5233
  8
FUTO
 62
     2
  2
_OPEN30
 10
12023.642171953699
 20
20556.908369077501
 30
0.0
 41
60.0
 42
60.0
 43
60.0
  0
TEXT
  5
5234
  8
FUTO
 62
     2
 10
11473.01302972287
 20
20571.908369077501
 30
0.0
 40
90.0
  1
850
 51
15.0
  7
SUNPOU
  0
POINT
  5
5235
  8
DEFPOINTS
 62
     0
 10
11173.642171953699
 20
20769.126077998772
 30
0.0
  0
POINT
  5
5236
  8
DEFPOINTS
 62
     0
 10
12023.642171953699
 20
20721.208229042521
 30
0.0
  0
POINT
  5
5237
  8
DEFPOINTS
 62
     0
 10
12023.642171953699
 20
20556.908369077501
 30
0.0
  0
ENDBLK
  5
3667
  8
0
  0
BLOCK
  8
0
  2
*D6
 70
     1
 10
0.0
 20
0.0
 30
0.0
  3
*D6
  1

  0
LINE
  5
5262
  8
FUTO
 62
     2
 10
12381.646150601029
 20
22036.208229042521
 30
0.0
 11
12681.53397100542
 21
22036.208229042521
 31
0.0
  0
LINE
  5
5263
  8
FUTO
 62
     2
 10
11195.624371992461
 20
22966.208229042521
 30
0.0
 11
12681.53397100542
 21
22966.208229042521
 31
0.0
  0
LINE
  5
5264
  8
FUTO
 62
     2
 10
12651.53397100542
 20
22096.208229042521
 30
0.0
 11
12651.53397100542
 21
22906.208229042521
 31
0.0
  0
INSERT
  5
5265
  8
FUTO
 62
     2
  2
_OPEN30
 10
12651.53397100542
 20
22036.208229042521
 30
0.0
 41
60.0
 42
60.0
 43
60.0
 50
270.0
  0
INSERT
  5
5266
  8
FUTO
 62
     2
  2
_OPEN30
 10
12651.53397100542
 20
22966.208229042521
 30
0.0
 41
60.0
 42
60.0
 43
60.0
 50
90.0
  0
TEXT
  5
5267
  8
FUTO
 62
     2
 10
12636.53397100542
 20
22374.010406509758
 30
0.0
 40
90.0
  1
930
 50
90.0
 51
15.0
  7
SUNPOU
  0
POINT
  5
5268
  8
DEFPOINTS
 62
     0
 10
12351.646150601029
 20
22036.208229042521
 30
0.0
  0
POINT
  5
5269
  8
DEFPOINTS
 62
     0
 10
11165.62437199247
 20
22966.208229042521
 30
0.0
  0
POINT
  5
526A
  8
DEFPOINTS
 62
     0
 10
12651.53397100542
 20
22966.208229042521
 30
0.0
  0
ENDBLK
  5
2BF1
  8
0
  0
BLOCK
  8
0
  2
*D7
 70
     1
 10
0.0
 20
0.0
 30
0.0
  3
*D7
  1

  0
LINE
  5
526B
  8
FUTO
 62
     2
 10
13515.280944570381
 20
20766.208229042521
 30
0.0
 11
13515.280944570381
 21
20348.17430680056
 31
0.0
  0
LINE
  5
526C
  8
FUTO
 62
     2
 10
15715.280944570381
 20
20766.208229042521
 30
0.0
 11
15715.280944570381
 21
20348.17430680056
 31
0.0
  0
LINE
  5
526D
  8
FUTO
 62
     2
 10
13575.280944570381
 20
20378.17430680056
 30
0.0
 11
15655.280944570381
 21
20378.17430680056
 31
0.0
  0
INSERT
  5
526E
  8
FUTO
 62
     2
  2
_OPEN30
 10
13515.280944570381
 20
20378.17430680056
 30
0.0
 41
60.0
 42
60.0
 43
60.0
 50
180.0
  0
INSERT
  5
526F
  8
FUTO
 62
     2
  2
_OPEN30
 10
15715.280944570381
 20
20378.17430680056
 30
0.0
 41
60.0
 42
60.0
 43
60.0
  0
TEXT
  5
5270
  8
FUTO
 62
     2
 10
14449.091366846111
 20
20393.17430680056
 30
0.0
 40
90.0
  1
2200
 51
15.0
  7
SUNPOU
  0
POINT
  5
5271
  8
DEFPOINTS
 62
     0
 10
13515.280944570381
 20
20796.208229042521
 30
0.0
  0
POINT
  5
5272
  8
DEFPOINTS
 62
     0
 10
15715.280944570381
 20
20796.208229042521
 30
0.0
  0
POINT
  5
5273
  8
DEFPOINTS
 62
     0
 10
15715.280944570381
 20
20378.17430680056
 30
0.0
  0
ENDBLK
  5
34E6
  8
0
  0
BLOCK
  8
0
  2
*D8
 70
     1
 10
0.0
 20
0.0
 30
0.0
  3
*D8
  1

  0
LINE
  5
5274
  8
FUTO
 62
     2
 10
15103.280944570381
 20
20766.208229042521
 30
0.0
 11
15103.280944570381
 21
20529.504748058149
 31
0.0
  0
LINE
  5
5275
  8
FUTO
 62
     2
 10
15715.280944570381
 20
20766.208229042521
 30
0.0
 11
15715.280944570381
 21
20529.504748058149
 31
0.0
  0
LINE
  5
5276
  8
FUTO
 62
     2
 10
15163.280944570381
 20
20559.504748058149
 30
0.0
 11
15655.280944570381
 21
20559.504748058149
 31
0.0
  0
INSERT
  5
5277
  8
FUTO
 62
     2
  2
_OPEN30
 10
15103.280944570381
 20
20559.504748058149
 30
0.0
 41
60.0
 42
60.0
 43
60.0
 50
180.0
  0
INSERT
  5
5278
  8
FUTO
 62
     2
  2
_OPEN30
 10
15715.280944570381
 20
20559.504748058149
 30
0.0
 41
60.0
 42
60.0
 43
60.0
  0
TEXT
  5
5279
  8
FUTO
 62
     2
 10
15290.65455060905
 20
20574.504748058149
 30
0.0
 40
90.0
  1
612
 51
15.0
  7
SUNPOU
  0
POINT
  5
527A
  8
DEFPOINTS
 62
     0
 10
15103.280944570381
 20
20796.208229042521
 30
0.0
  0
POINT
  5
527B
  8
DEFPOINTS
 62
     0
 10
15715.280944570381
 20
20796.208229042521
 30
0.0
  0
POINT
  5
527C
  8
DEFPOINTS
 62
     0
 10
15715.280944570381
 20
20559.504748058149
 30
0.0
  0
ENDBLK
  5
393A
  8
0
  0
BLOCK
  8
0
  2
*D9
 70
     1
 10
0.0
 20
0.0
 30
0.0
  3
*D9
  1

  0
LINE
  5
527D
  8
FUTO
 62
     2
 10
15103.280944570381
 20
20766.208229042521
 30
0.0
 11
15103.280944570381
 21
20529.50998898075
 31
0.0
  0
LINE
  5
527E
  8
FUTO
 62
     2
 10
13515.280944570381
 20
20766.208229042521
 30
0.0
 11
13515.280944570381
 21
20529.50998898075
 31
0.0
  0
LINE
  5
527F
  8
FUTO
 62
     2
 10
15043.280944570381
 20
20559.50998898075
 30
0.0
 11
13575.280944570381
 21
20559.50998898075
 31
0.0
  0
INSERT
  5
5280
  8
FUTO
 62
     2
  2
_OPEN30
 10
15103.280944570381
 20
20559.50998898075
 30
0.0
 41
60.0
 42
60.0
 43
60.0
  0
INSERT
  5
5281
  8
FUTO
 62
     2
  2
_OPEN30
 10
13515.280944570381
 20
20559.50998898075
 30
0.0
 41
60.0
 42
60.0
 43
60.0
 50
180.0
  0
TEXT
  5
5282
  8
FUTO
 62
     2
 10
14141.3276122809
 20
20574.50998898075
 30
0.0
 40
90.0
  1
1588
 51
15.0
  7
SUNPOU
  0
POINT
  5
5283
  8
DEFPOINTS
 62
     0
 10
15103.280944570381
 20
20796.208229042521
 30
0.0
  0
POINT
  5
5284
  8
DEFPOINTS
 62
     0
 10
13515.280944570381
 20
20796.208229042521
 30
0.0
  0
POINT
  5
5285
  8
DEFPOINTS
 62
     0
 10
13515.280944570381
 20
20559.50998898075
 30
0.0
  0
ENDBLK
  5
3947
  8
0
  0
BLOCK
  8
0
  2
_CLOSED
 70
     0
 10
0.0
 20
0.0
 30
0.0
  3
_CLOSED
  1

  0
LINE
  5
3BE3
  8
0
  6
BYBLOCK
 62
     0
 10
-1.0
 20
0.1666666666666666
 30
0.0
 11
0.0
 21
0.0
 31
0.0
  0
LINE
  5
3BE4
  8
0
  6
BYBLOCK
 62
     0
 10
0.0
 20
0.0
 30
0.0
 11
-1.0
 21
-0.1666666666666666
 31
0.0
  0
LINE
  5
3BE5
  8
0
  6
BYBLOCK
 62
     0
 10
-1.0
 20
0.1666666666666666
 30
0.0
 11
-1.0
 21
-0.1666666666666666
 31
0.0
  0
ENDBLK
  5
3BE6
  8
0
  0
BLOCK
  8
0
  2
*D11
 70
     1
 10
0.0
 20
0.0
 30
0.0
  3
*D11
  1

  0
LINE
  5
5289
  8
SP
 62
     2
 10
13283.280944570381
 20
22446.208229042521
 30
0.0
 11
13283.280944570381
 21
23471.191787488839
 31
0.0
  0
LINE
  5
528A
  8
SP
 62
     2
 10
15103.280944570381
 20
23346.80469314818
 30
0.0
 11
15103.280944570381
 21
23471.191787488839
 31
0.0
  0
LINE
  5
528B
  8
SP
 62
     2
 10
13343.280944570381
 20
23441.191787488839
 30
0.0
 11
15043.280944570381
 21
23441.191787488839
 31
0.0
  0
INSERT
  5
528C
  8
SP
 62
     2
  2
_OPEN30
 10
13283.280944570381
 20
23441.191787488839
 30
0.0
 41
60.0
 42
60.0
 43
60.0
 50
180.0
  0
INSERT
  5
528D
  8
SP
 62
     2
  2
_OPEN30
 10
15103.280944570381
 20
23441.191787488839
 30
0.0
 41
60.0
 42
60.0
 43
60.0
  0
TEXT
  5
528E
  8
FUTO
 62
     2
 10
14025.90178912183
 20
23456.191787488839
 30
0.0
 40
90.0
  1
1820
 51
15.0
  7
SUNPOU
  0
POINT
  5
528F
  8
DEFPOINTS
 62
     0
 10
13283.280944570381
 20
22416.208229042521
 30
0.0
  0
POINT
  5
5290
  8
DEFPOINTS
 62
     0
 10
15103.280944570381
 20
23316.80469314818
 30
0.0
  0
POINT
  5
5291
  8
DEFPOINTS
 62
     0
 10
15103.280944570381
 20
23441.191787488839
 30
0.0
  0
ENDBLK
  5
3C57
  8
0
  0
BLOCK
  8
0
  2
*D12
 70
     1
 10
0.0
 20
0.0
 30
0.0
  3
*D12
  1

  0
LINE
  5
5292
  8
FUTO
 62
     2
 10
9628.6421719537047
 20
22996.208229042521
 30
0.0
 11
9628.6421719537047
 21
23330.038612591761
 31
0.0
  0
LINE
  5
5293
  8
FUTO
 62
     2
 10
11173.642171953699
 20
23067.769623362488
 30
0.0
 11
11173.642171953699
 21
23330.038612591761
 31
0.0
  0
LINE
  5
5294
  8
FUTO
 62
     2
 10
9688.6421719537066
 20
23300.038612591761
 30
0.0
 11
11113.642171953699
 21
23300.038612591761
 31
0.0
  0
INSERT
  5
5295
  8
FUTO
 62
     2
  2
_OPEN30
 10
9628.6421719537047
 20
23300.038612591761
 30
0.0
 41
60.0
 42
60.0
 43
60.0
 50
180.0
  0
INSERT
  5
5296
  8
FUTO
 62
     2
  2
_OPEN30
 10
11173.642171953699
 20
23300.038612591761
 30
0.0
 41
60.0
 42
60.0
 43
60.0
  0
TEXT
  5
5297
  8
FUTO
 62
     2
 10
10233.609166284299
 20
23315.038612591761
 30
0.0
 40
90.0
  1
1545
 51
15.0
  7
SUNPOU
  0
POINT
  5
5298
  8
DEFPOINTS
 62
     0
 10
9628.6421719537047
 20
22966.208229042521
 30
0.0
  0
POINT
  5
5299
  8
DEFPOINTS
 62
     0
 10
11173.642171953699
 20
23037.769623362481
 30
0.0
  0
POINT
  5
529A
  8
DEFPOINTS
 62
     0
 10
11173.642171953699
 20
23300.038612591761
 30
0.0
  0
ENDBLK
  5
4374
  8
0
  0
BLOCK
  8
0
  2
*D13
 70
     1
 10
0.0
 20
0.0
 30
0.0
  3
*D13
  1

  0
LINE
  5
5238
  8
FUTO
 62
     2
 10
15767.280944570381
 20
22736.208229042521
 30
0.0
 11
16132.890806326601
 21
22736.208229042521
 31
0.0
  0
LINE
  5
5239
  8
FUTO
 62
     2
 10
15767.280944570381
 20
21336.208229042521
 30
0.0
 11
16132.890806326601
 21
21336.208229042521
 31
0.0
  0
LINE
  5
523A
  8
FUTO
 62
     2
 10
16102.89080632661
 20
22676.208229042521
 30
0.0
 11
16102.89080632661
 21
21396.208229042521
 31
0.0
  0
INSERT
  5
523B
  8
FUTO
 62
     2
  2
_OPEN30
 10
16102.89080632661
 20
22736.208229042521
 30
0.0
 41
60.0
 42
60.0
 43
60.0
 50
90.0
  0
INSERT
  5
523C
  8
FUTO
 62
     2
  2
_OPEN30
 10
16102.89080632661
 20
21336.208229042521
 30
0.0
 41
60.0
 42
60.0
 43
60.0
 50
270.0
  0
INSERT
  5
523D
  8
FUTO
  2
*U21
 10
0.0
 20
0.0
 30
0.0
  0
POINT
  5
523E
  8
DEFPOINTS
 62
     0
 10
15737.280944570381
 20
22736.208229042521
 30
0.0
  0
POINT
  5
523F
  8
DEFPOINTS
 62
     0
 10
15737.280944570381
 20
21336.208229042521
 30
0.0
  0
POINT
  5
5240
  8
DEFPOINTS
 62
     0
 10
16102.89080632661
 20
21336.208229042521
 30
0.0
  0
ENDBLK
  5
4473
  8
0
  0
BLOCK
  8
0
  2
*D14
 70
     1
 10
0.0
 20
0.0
 30
0.0
  3
*D14
  1

  0
LINE
  5
5241
  8
FUTO
 62
     2
 10
15103.280944570381
 20
23316.80469314818
 30
0.0
 11
15103.280944570381
 21
23471.191787488839
 31
0.0
  0
LINE
  5
5242
  8
FUTO
 62
     2
 10
15737.280944570381
 20
22816.208229042521
 30
0.0
 11
15737.280944570381
 21
23471.191787488839
 31
0.0
  0
LINE
  5
5243
  8
FUTO
 62
     2
 10
15163.280944570381
 20
23441.191787488839
 30
0.0
 11
15677.280944570381
 21
23441.191787488839
 31
0.0
  0
INSERT
  5
5244
  8
FUTO
 62
     2
  2
_OPEN30
 10
15103.280944570381
 20
23441.191787488839
 30
0.0
 41
60.0
 42
60.0
 43
60.0
 50
180.0
  0
INSERT
  5
5245
  8
FUTO
 62
     2
  2
_OPEN30
 10
15737.280944570381
 20
23441.191787488839
 30
0.0
 41
60.0
 42
60.0
 43
60.0
  0
TEXT
  5
5246
  8
FUTO
 62
     2
 10
15294.539176161141
 20
23456.191787488839
 30
0.0
 40
90.0
  1
634
 51
15.0
  7
SUNPOU
  0
POINT
  5
5247
  8
DEFPOINTS
 62
     0
 10
15103.280944570381
 20
23286.804693148169
 30
0.0
  0
POINT
  5
5248
  8
DEFPOINTS
 62
     0
 10
15737.280944570381
 20
22786.208229042521
 30
0.0
  0
POINT
  5
5249
  8
DEFPOINTS
 62
     0
 10
15737.280944570381
 20
23441.191787488839
 30
0.0
  0
ENDBLK
  5
447F
  8
0
  0
BLOCK
  8
0
  2
*D15
 70
     1
 10
0.0
 20
0.0
 30
0.0
  3
*D15
  1

  0
LINE
  5
524A
  8
FUTO
 62
     2
 10
14573.280944570381
 20
22946.208229042521
 30
0.0
 11
14573.280944570381
 21
23209.331221136861
 31
0.0
  0
LINE
  5
524B
  8
FUTO
 62
     2
 10
15633.280944570381
 20
22946.208229042521
 30
0.0
 11
15633.280944570381
 21
23209.331221136861
 31
0.0
  0
LINE
  5
524C
  8
FUTO
 62
     2
 10
14633.280944570381
 20
23179.331221136861
 30
0.0
 11
15573.280944570381
 21
23179.331221136861
 31
0.0
  0
INSERT
  5
524D
  8
FUTO
 62
     2
  2
_OPEN30
 10
14573.280944570381
 20
23179.331221136861
 30
0.0
 41
60.0
 42
60.0
 43
60.0
 50
180.0
  0
INSERT
  5
524E
  8
FUTO
 62
     2
  2
_OPEN30
 10
15633.280944570381
 20
23179.331221136861
 30
0.0
 41
60.0
 42
60.0
 43
60.0
  0
TEXT
  5
524F
  8
FUTO
 62
     2
 10
14935.90178912183
 20
23194.331221136861
 30
0.0
 40
90.0
  1
1060
 51
15.0
  7
SUNPOU
  0
POINT
  5
5250
  8
DEFPOINTS
 62
     0
 10
14573.280944570381
 20
22916.208229042521
 30
0.0
  0
POINT
  5
5251
  8
DEFPOINTS
 62
     0
 10
15633.280944570381
 20
22916.208229042521
 30
0.0
  0
POINT
  5
5252
  8
DEFPOINTS
 62
     0
 10
15633.280944570381
 20
23179.331221136861
 30
0.0
  0
ENDBLK
  5
448B
  8
0
  0
BLOCK
  8
0
  2
_OPEN30
 70
     0
 10
0.0
 20
0.0
 30
0.0
  3
_OPEN30
  1

  0
LINE
  5
44D6
  8
FUTO
 62
     0
 10
-1.0
 20
0.26794919
 30
0.0
 11
0.0
 21
0.0
 31
0.0
  0
LINE
  5
44D7
  8
FUTO
 62
     0
 10
0.0
 20
0.0
 30
0.0
 11
-1.0
 21
-0.26794919
 31
0.0
  0
LINE
  5
44D8
  8
FUTO
 62
     0
 10
0.0
 20
0.0
 30
0.0
 11
-1.0
 21
0.0
 31
0.0
  0
ENDBLK
  5
44DA
  8
0
  0
BLOCK
  8
0
  2
*D17
 70
     1
 10
0.0
 20
0.0
 30
0.0
  3
*D17
  1

  0
LINE
  5
529B
  8
FUTO
 62
     2
 10
11173.642171953699
 20
26676.46950288603
 30
0.0
 11
11173.642171953699
 21
26780.032748429319
 31
0.0
  0
LINE
  5
529C
  8
FUTO
 62
     2
 10
12226.642171953699
 20
26345.596925236441
 30
0.0
 11
12226.642171953699
 21
26780.032748429319
 31
0.0
  0
LINE
  5
529D
  8
FUTO
 62
     2
 10
11233.642171953699
 20
26750.032748429319
 30
0.0
 11
12166.642171953699
 21
26750.032748429319
 31
0.0
  0
INSERT
  5
529E
  8
FUTO
 62
     2
  2
_OPEN30
 10
11173.642171953699
 20
26750.032748429319
 30
0.0
 41
60.0
 42
60.0
 43
60.0
 50
180.0
  0
INSERT
  5
529F
  8
FUTO
 62
     2
  2
_OPEN30
 10
12226.642171953699
 20
26750.032748429319
 30
0.0
 41
60.0
 42
60.0
 43
60.0
  0
TEXT
  5
52A0
  8
FUTO
 62
     2
 10
11530.46630914145
 20
26765.032748429319
 30
0.0
 40
90.0
  1
1053
 51
15.0
  7
SUNPOU
  0
POINT
  5
52A1
  8
DEFPOINTS
 62
     0
 10
11173.642171953699
 20
26646.46950288603
 30
0.0
  0
POINT
  5
52A2
  8
DEFPOINTS
 62
     0
 10
12226.642171953699
 20
26315.59692523643
 30
0.0
  0
POINT
  5
52A3
  8
DEFPOINTS
 62
     0
 10
12226.642171953699
 20
26750.032748429319
 30
0.0
  0
ENDBLK
  5
45A7
  8
0
  0
BLOCK
  8
0
  2
*D18
 70
     1
 10
0.0
 20
0.0
 30
0.0
  3
*D18
  1

  0
LINE
  5
52A4
  8
FUTO
 62
     2
 10
11173.642171953699
 20
26676.46950288603
 30
0.0
 11
11173.642171953699
 21
26780.032748429319
 31
0.0
  0
LINE
  5
52A5
  8
FUTO
 62
     2
 10
9623.6421719537047
 20
25150.59692523643
 30
0.0
 11
9623.6421719537047
 21
26780.032748429319
 31
0.0
  0
LINE
  5
52A6
  8
FUTO
 62
     2
 10
11113.642171953699
 20
26750.032748429319
 30
0.0
 11
9683.6421719537029
 21
26750.032748429319
 31
0.0
  0
INSERT
  5
52A7
  8
FUTO
 62
     2
  2
_OPEN30
 10
11173.642171953699
 20
26750.032748429319
 30
0.0
 41
60.0
 42
60.0
 43
60.0
  0
INSERT
  5
52A8
  8
FUTO
 62
     2
  2
_OPEN30
 10
9623.6421719537047
 20
26750.032748429319
 30
0.0
 41
60.0
 42
60.0
 43
60.0
 50
180.0
  0
TEXT
  5
52A9
  8
FUTO
 62
     2
 10
10231.26301650514
 20
26765.032748429319
 30
0.0
 40
90.0
  1
1550
 51
15.0
  7
SUNPOU
  0
POINT
  5
52AA
  8
DEFPOINTS
 62
     0
 10
11173.642171953699
 20
26646.46950288603
 30
0.0
  0
POINT
  5
52AB
  8
DEFPOINTS
 62
     0
 10
9623.6421719537047
 20
25120.596925236441
 30
0.0
  0
POINT
  5
52AC
  8
DEFPOINTS
 62
     0
 10
9623.6421719537047
 20
26750.032748429319
 30
0.0
  0
ENDBLK
  5
45B4
  8
0
  0
BLOCK
  8
0
  2
*D19
 70
     1
 10
0.0
 20
0.0
 30
0.0
  3
*D19
  1

  0
LINE
  5
52AD
  8
FUTO
 62
     2
 10
12381.162172533221
 20
25731.59692523643
 30
0.0
 11
12613.94807479357
 21
25731.59692523643
 31
0.0
  0
LINE
  5
52AE
  8
FUTO
 62
     2
 10
11953.642171953699
 20
26365.59692523643
 30
0.0
 11
12613.94807479357
 21
26365.59692523643
 31
0.0
  0
LINE
  5
52AF
  8
FUTO
 62
     2
 10
12583.94807479357
 20
25791.59692523643
 30
0.0
 11
12583.94807479357
 21
26305.596925236441
 31
0.0
  0
INSERT
  5
52B0
  8
FUTO
 62
     2
  2
_OPEN30
 10
12583.94807479357
 20
25731.59692523643
 30
0.0
 41
60.0
 42
60.0
 43
60.0
 50
270.0
  0
INSERT
  5
52B1
  8
FUTO
 62
     2
  2
_OPEN30
 10
12583.94807479357
 20
26365.59692523643
 30
0.0
 41
60.0
 42
60.0
 43
60.0
 50
90.0
  0
TEXT
  5
52B2
  8
FUTO
 62
     2
 10
12568.94807479357
 20
25922.855156827201
 30
0.0
 40
90.0
  1
634
 50
90.0
 51
15.0
  7
SUNPOU
  0
POINT
  5
52B3
  8
DEFPOINTS
 62
     0
 10
12351.162172533221
 20
25731.59692523643
 30
0.0
  0
POINT
  5
52B4
  8
DEFPOINTS
 62
     0
 10
11923.642171953699
 20
26365.59692523643
 30
0.0
  0
POINT
  5
52B5
  8
DEFPOINTS
 62
     0
 10
12583.94807479357
 20
26365.59692523643
 30
0.0
  0
ENDBLK
  5
45C1
  8
0
  0
BLOCK
  8
0
  2
*D20
 70
     1
 10
0.0
 20
0.0
 30
0.0
  3
*D20
  1

  0
LINE
  5
52B6
  8
FUTO
 62
     2
 10
11583.642171953699
 20
23911.59692523643
 30
0.0
 11
12613.94807479357
 21
23911.59692523643
 31
0.0
  0
LINE
  5
52B7
  8
FUTO
 62
     2
 10
12583.94807479357
 20
25671.59692523643
 30
0.0
 11
12583.94807479357
 21
23971.596925236441
 31
0.0
  0
INSERT
  5
52B8
  8
FUTO
 62
     2
  2
_OPEN30
 10
12583.94807479357
 20
25731.59692523643
 30
0.0
 41
60.0
 42
60.0
 43
60.0
 50
90.0
  0
INSERT
  5
52B9
  8
FUTO
 62
     2
  2
_OPEN30
 10
12583.94807479357
 20
23911.59692523643
 30
0.0
 41
60.0
 42
60.0
 43
60.0
 50
270.0
  0
TEXT
  5
52BA
  8
FUTO
 62
     2
 10
12568.94807479357
 20
24654.217769787891
 30
0.0
 40
90.0
  1
1820
 50
90.0
 51
15.0
  7
SUNPOU
  0
POINT
  5
52BB
  8
DEFPOINTS
 62
     0
 10
12583.94807479357
 20
25731.59692523643
 30
0.0
  0
POINT
  5
52BC
  8
DEFPOINTS
 62
     0
 10
11553.642171953699
 20
23911.59692523643
 30
0.0
  0
POINT
  5
52BD
  8
DEFPOINTS
 62
     0
 10
12583.94807479357
 20
23911.59692523643
 30
0.0
  0
ENDBLK
  5
45CD
  8
0
  0
BLOCK
  8
0
  2
*U21
 70
     1
 10
0.0
 20
0.0
 30
0.0
  3
*U21
  1

  0
TEXT
  5
52E0
  8
FUTO
 62
     2
 10
16087.890806326601
 20
21813.452666414909
 30
0.0
 40
90.0
  1
\U+2205
 50
90.0
 51
15.0
  7
SUNPOU
  0
TEXT
  5
52E1
  8
FUTO
 62
     2
 10
16087.890806326601
 20
21894.881237843481
 30
0.0
 40
90.0
  1
1400
 50
90.0
 51
15.0
  7
SUNPOU
  0
ENDBLK
  5
52E3
  8
0
  0
ENDSEC
  0
SECTION
  2
ENTITIES
  0
LINE
  5
42
  8
FUTO
 10
13515.280944570381
 20
20796.208229042521
 30
0.0
 11
15715.280944570381
 21
20796.208229042521
 31
0.0
1001
ACAD
1000
ASC_BOUNDS
1002
{
1070
    19
1005
3975
1002
}
  0
LINE
  5
116
  8
FUTO
 10
14432.280944570381
 20
22081.208229042521
 30
0.0
 11
14493.780944570381
 21
22081.208229042521
 31
0.0
  0
LINE
  5
117
  8
FUTO
 10
14432.280944570381
 20
21991.208229042521
 30
0.0
 11
14495.08094457038
 21
21991.208229042521
 31
0.0
  0
LINE
  5
118
  8
FUTO
 10
13516.280944570381
 20
20946.208229042521
 30
0.0
 11
15715.48094457038
 21
20946.208229042521
 31
0.0
  0
LINE
  5
119
  8
CT
 10
13232.430811085
 20
22036.208229042521
 30
0.0
 11
15830.608422542389
 21
22036.208229042521
 31
0.0
  0
ARC
  5
11C
  8
FUTO
 10
11071.642171953699
 20
21934.208229042521
 30
0.0
 40
1125.0
 50
301.9463645428491
 51
4.7418624062025367
  0
LINE
  5
14C
  8
SL
 10
13493.280944570381
 20
22116.208229042521
 30
0.0
 11
13493.280944570381
 21
21956.208229042521
 31
0.0
  0
LINE
  5
162
  8
CT
 10
13653.280944570381
 20
22154.71172600265
 30
0.0
 11
13653.280944570381
 21
21873.3775972558
 31
0.0
  0
LINE
  5
163
  8
CT
 10
11318.642171953699
 20
21926.208229042521
 30
0.0
 11
11318.642171953699
 21
21980.208229042521
 31
0.0
  0
ARC
  5
164
  8
FUTO
 10
11284.642171953699
 20
21986.208229042521
 30
0.0
 40
16.0
 50
180.0
 51
270.0
  0
ARC
  5
165
  8
FUTO
 10
11173.642171953699
 20
22036.208229042521
 30
0.0
 40
95.000000000000071
 50
309.05612602761761
 51
330.00000000000051
  0
ARC
  5
168
  8
FUTO
 10
11173.642171953699
 20
22036.208229042521
 30
0.0
 40
94.999999999997485
 50
209.99999999999881
 51
230.94387397238171
  0
LINE
  5
169
  8
CT
 10
11028.642171953699
 20
21926.208229042521
 30
0.0
 11
11028.642171953699
 21
21980.208229042521
 31
0.0
  0
ARC
  5
16A
  8
FUTO
 10
11062.642171953699
 20
21986.208229042521
 30
0.0
 40
16.0
 50
270.0
 51
0.0
  0
LINE
  5
16B
  8
CT
 10
11173.642171953699
 20
22160.71172600265
 30
0.0
 11
11173.642171953699
 21
21918.966889886931
 31
0.0
  0
ARC
  5
178
  8
KL
 10
11259.142171953699
 20
21950.708229042521
 30
0.0
 40
917.5
 50
0.0
 51
90.0
  0
LINE
  5
17D
  8
FUTO
 10
13283.280944570381
 20
22416.208229042521
 30
0.0
 11
13283.280944570381
 21
20986.208229042521
 31
0.0
  0
LINE
  5
17E
  8
SL
 10
13393.280944570381
 20
22286.208229042521
 30
0.0
 11
13393.280944570381
 21
21100.208229042521
 31
0.0
  0
LINE
  5
17F
  8
SL
 10
13471.18094457038
 20
22286.208229042521
 30
0.0
 11
13471.18094457038
 21
21100.208229042521
 31
0.0
  0
ARC
  5
180
  8
FUTO
 10
11071.642171953699
 20
22138.208229042521
 30
0.0
 40
1329.0
 50
185.1541404024569
 51
210.70627877559409
  0
LINE
  5
181
  8
SL
 10
11031.417717536249
 20
22241.81028293708
 30
0.0
 11
9918.3767145043075
 21
21296.661140620359
 31
0.0
  0
LINE
  5
182
  8
FUTO
 10
9823.1052456861416
 20
21367.741833939712
 30
0.0
 11
10920.83541853803
 21
22319.913613953398
 31
0.0
  0
ARC
  5
183
  8
FUTO
 10
11173.642171953699
 20
22036.208229042521
 30
0.0
 40
380.0
 50
299.23586314611509
 51
131.7038811886851
  0
LINE
  5
184
  8
CT
 10
11173.642171953699
 20
23037.769623362481
 30
0.0
 11
11173.642171953699
 21
20626.208229042521
 31
0.0
  0
LINE
  5
185
  8
FUTO
 10
10333.642171953699
 20
22916.208229042521
 30
0.0
 11
10333.642171953699
 21
21810.581855895169
 31
0.0
  0
LINE
  5
186
  8
FUTO
 10
10342.642171953699
 20
22916.208229042521
 30
0.0
 11
10342.642171953699
 21
21818.388461044651
 31
0.0
  0
LINE
  5
187
  8
FUTO
 10
12013.642171953699
 20
22486.208229042521
 30
0.0
 11
12013.642171953699
 21
20946.208229042521
 31
0.0
  0
LINE
  5
188
  8
FUTO
 10
12004.642171953699
 20
22486.208229042521
 30
0.0
 11
12004.642171953699
 21
20946.208229042521
 31
0.0
  0
CIRCLE
  5
18B
  8
SL
 10
11173.642171953699
 20
22036.208229042521
 30
0.0
 40
250.0
  0
ARC
  5
18C
  8
KL
 10
11071.642171953699
 20
22138.208229042521
 30
0.0
 40
1309.0
 50
185.1541404024569
 51
270.0
  0
DIMENSION
  5
18D
  8
FUTO
  2
*D2
 10
12651.53397100542
 20
20796.208229042521
 30
0.0
 11
12591.53397100542
 21
21416.208229042521
 31
0.0
 70
     0
 13
12351.646150601029
 23
22036.208229042521
 33
0.0
 14
12023.642171953699
 24
20796.208229042521
 34
0.0
 50
90.0
1001
ACAD
1000
DSTYLE
1002
{
1070
    40
1040
30.0
1070
   176
1070
     2
1070
   177
1070
     2
1070
   178
1070
     2
1070
   341
1005
44D5
1070
     5
1000
OPEN30
1002
}
  0
LINE
  5
19A
  8
CT
 10
14363.280944570381
 20
22154.71172600265
 30
0.0
 11
14363.280944570381
 21
21851.044065827369
 31
0.0
  0
LINE
  5
19B
  8
FUTO
 10
12023.642171953699
 20
20796.208229042521
 30
0.0
 11
9623.6421719537047
 21
20796.208229042521
 31
0.0
1001
ACAD
1000
ASC_BOUNDS
1002
{
1070
    19
1005
0
1005
0
1005
0
1005
0
1005
0
1005
0
1005
0
1005
0
1005
0
1005
0
1005
0
1005
0
1005
0
1005
0
1005
0
1005
0
1005
0
1005
0
1005
0
1005
0
1005
0
1002
}
  0
DIMENSION
  5
276
  8
FUTO
  2
*D3
 10
9623.6421719537047
 20
20556.908369077501
 30
0.0
 11
10398.642171953699
 21
20616.908369077501
 31
0.0
 70
     0
 13
11173.642171953699
 23
20769.126077998772
 33
0.0
 14
9623.6421719537047
 24
20721.208229042521
 34
0.0
1001
ACAD
1000
DSTYLE
1002
{
1070
    40
1040
30.0
1070
   176
1070
     2
1070
   177
1070
     2
1070
   178
1070
     2
1070
   341
1005
44D5
1070
     5
1000
OPEN30
1002
}
  0
DIMENSION
  5
283
  8
FUTO
  2
*D4
 10
12023.642171953699
 20
20373.99105209341
 30
0.0
 11
10823.642171953699
 21
20433.99105209341
 31
0.0
 70
     0
 13
9623.6421719537047
 23
20796.208229042521
 33
0.0
 14
12023.642171953699
 24
20796.208229042521
 34
0.0
1001
ACAD
1000
DSTYLE
1002
{
1070
    40
1040
30.0
1070
   176
1070
     2
1070
   177
1070
     2
1070
   178
1070
     2
1070
   341
1005
44D5
1070
     5
1000
OPEN30
1002
}
  0
LINE
  5
291
  8
SL
 10
11269.639315339989
 20
21805.37376787679
 30
0.0
 11
10034.700827589681
 21
21119.560432925551
 31
0.0
  0
LINE
  5
292
  8
FUTO
 10
10065.29368585281
 20
21006.208229042521
 30
0.0
 11
11359.23643357402
 21
21704.613943727461
 31
0.0
  0
LINE
  5
293
  8
FUTO
 10
10233.642171953699
 20
21020.701864459981
 30
0.0
 11
10286.84310505784
 21
21020.701864459981
 31
0.0
  0
LINE
  5
294
  8
FUTO
 10
12023.642171953699
 20
20946.208229042521
 30
0.0
 11
9623.6421719537047
 21
20946.208229042521
 31
0.0
  0
LINE
  5
2AC
  8
FUTO
 10
10233.642171953699
 20
20946.208229042521
 30
0.0
 11
10233.642171953699
 21
21037.388661384721
 31
0.0
  0
LINE
  5
2AD
  8
FUTO
 10
10233.642171953699
 20
20946.208229042521
 30
0.0
 11
10223.63383604326
 21
21006.208229042521
 31
0.0
  0
LINE
  5
2AE
  8
FUTO
 10
9713.6421719537011
 20
20946.208229042521
 30
0.0
 11
9713.6421719537011
 21
21037.388661384721
 31
0.0
  0
LINE
  5
2AF
  8
FUTO
 10
9713.6421719537011
 20
20946.208229042521
 30
0.0
 11
9723.6505078641421
 21
21006.208229042521
 31
0.0
  0
ARC
  5
2B0
  8
FUTO
 10
9973.6421719537047
 20
21206.208229042521
 30
0.0
 40
220.0
 50
131.70388118868499
 51
299.23586314611509
  0
LINE
  5
2B6
  8
FUTO
 10
9623.6421719537047
 20
20946.208229042521
 30
0.0
 11
9623.6421719537047
 21
20796.208229042521
 31
0.0
  0
LINE
  5
2BD
  8
CT
 10
9771.0869959537031
 20
21281.208229042521
 30
0.0
 11
9734.6536459537019
 21
21281.208229042521
 31
0.0
  0
LINE
  5
2BE
  8
FUTO
 10
9753.6421719537029
 20
21221.208229042521
 30
0.0
 11
9770.6956389537045
 21
21221.208229042521
 31
0.0
  0
LINE
  5
2BF
  8
FUTO
 10
9753.6421719537029
 20
21341.208229042521
 30
0.0
 11
9821.3684899537056
 21
21341.208229042521
 31
0.0
  0
ARC
  5
2C0
  8
FUTO
 10
9745.4422209537024
 20
21347.674782042519
 30
0.0
 40
8.1999940000000002
 50
0.0
 51
72.690139999999971
  0
LINE
  5
2C1
  8
FUTO
 10
9723.6505078641421
 20
21006.208229042521
 30
0.0
 11
9890.3038523754549
 21
21006.208229042521
 31
0.0
  0
LINE
  5
2C2
  8
FUTO
 10
9775.1871993645691
 20
21020.701864459981
 30
0.0
 11
9740.3726476604497
 21
21020.701864459981
 31
0.0
  0
LINE
  5
2C3
  8
FUTO
 10
9753.3701989537021
 20
21207.566139042519
 30
0.0
 11
9742.9716399537028
 21
21163.892067042521
 31
0.0
  0
LINE
  5
2C4
  8
FUTO
 10
9576.8495689537012
 20
21173.622780042519
 30
0.0
 11
9576.8495689537012
 21
21311.415260042519
 31
0.0
  0
LINE
  5
2C5
  8
FUTO
 10
9736.8495689537031
 20
21391.070045042521
 30
0.0
 11
9588.0995689537031
 21
21133.427467042518
 31
0.0
  0
LINE
  5
2C6
  8
FUTO
 10
9742.3921719537029
 20
21387.870094042519
 30
0.0
 11
9593.6421719537029
 21
21130.22751604252
 31
0.0
  0
LINE
  5
2C7
  8
FUTO
 10
9730.6421719537047
 20
21126.208229042521
 30
0.0
 11
9610.6421719537029
 21
21126.208229042521
 31
0.0
  0
LINE
  5
2C8
  8
FUTO
 10
9733.2436119537033
 20
21156.208229042521
 30
0.0
 11
9608.6421719537047
 21
21156.208229042521
 31
0.0
  0
ARC
  5
2C9
  8
FUTO
 10
9600.1172699537019
 20
21158.242897042521
 30
0.0
 40
2.0000450000000001
 50
330.00181599999991
 51
72.686446999999973
  0
LINE
  5
2CA
  8
FUTO
 10
9582.6097009537007
 20
21165.79416604252
 30
0.0
 11
9600.7124839537028
 21
21160.152321042518
 31
0.0
  0
LINE
  5
2CB
  8
FUTO
 10
9588.0995689537031
 20
21133.427467042518
 30
0.0
 11
9593.6421719537029
 21
21130.22751604252
 31
0.0
  0
LINE
  5
2CC
  8
FUTO
 10
9610.6421719537029
 20
21126.208229042521
 30
0.0
 11
9610.6421719537029
 21
21156.208229042521
 31
0.0
  0
ARC
  5
2CD
  8
FUTO
 10
9585.0496429537034
 20
21173.622780042519
 30
0.0
 40
8.2000299999999982
 50
180.0
 51
252.6893309999999
  0
LINE
  5
2CE
  8
FUTO
 10
9730.6421719537047
 20
21126.208229042521
 30
0.0
 11
9730.6421719537047
 21
21156.208229042521
 31
0.0
  0
LINE
  5
2CF
  8
FUTO
 10
9700.6421719537029
 20
21126.208229042521
 30
0.0
 11
9700.6421719537029
 21
21156.208229042521
 31
0.0
  0
LINE
  5
2D0
  8
FUTO
 10
9697.6421719537011
 20
21126.208229042521
 30
0.0
 11
9697.6421719537011
 21
21156.208229042521
 31
0.0
  0
ARC
  5
2D1
  8
FUTO
 10
9733.2436119537033
 20
21166.208229042521
 30
0.0
 40
9.9999559999999992
 50
270.0
 51
346.60769699999992
  0
LINE
  5
2D2
  8
CT
 10
9670.6421719537029
 20
21170.291237042518
 30
0.0
 11
9670.6421719537029
 21
21118.069801042519
 31
0.0
  0
LINE
  5
2D3
  8
FUTO
 10
9640.6421719537047
 20
21126.208229042521
 30
0.0
 11
9640.6421719537047
 21
21156.208229042521
 31
0.0
  0
LINE
  5
2D4
  8
FUTO
 10
9643.6421719537047
 20
21126.208229042521
 30
0.0
 11
9643.6421719537047
 21
21156.208229042521
 31
0.0
  0
LINE
  5
2D5
  8
FUTO
 10
9713.6421719537011
 20
21020.701864459981
 30
0.0
 11
9660.4412388495584
 21
21020.701864459981
 31
0.0
  0
LINE
  5
2D6
  8
FUTO
 10
9660.4412388495584
 20
21028.157659888198
 30
0.0
 11
9651.5599987107435
 21
21028.157659888198
 31
0.0
  0
LINE
  5
2D7
  8
FUTO
 10
9660.4412388495584
 20
21013.956134974698
 30
0.0
 11
9660.4412388495584
 21
21028.157659888198
 31
0.0
  0
LINE
  5
2D8
  8
FUTO
 10
9651.2047478673849
 20
21013.956134974698
 30
0.0
 11
9660.4412388495584
 21
21013.956134974698
 31
0.0
  0
LINE
  5
2D9
  8
FUTO
 10
9651.2047478673849
 20
21027.802626916731
 30
0.0
 11
9651.2047478673849
 21
21013.956134974698
 31
0.0
  0
LINE
  5
2DA
  8
FUTO
 10
9740.3726476604497
 20
21037.388661384721
 30
0.0
 11
9740.3726476604497
 21
21006.208229042521
 31
0.0
  0
LINE
  5
2DB
  8
FUTO
 10
9713.6421719537011
 20
21037.388661384721
 30
0.0
 11
9740.3726476604497
 21
21037.388661384721
 31
0.0
  0
LINE
  5
2DC
  8
FUTO
 10
9597.248250953704
 20
21365.08933204252
 30
0.0
 11
9721.8495689537049
 21
21365.08933204252
 31
0.0
  0
ARC
  5
2DD
  8
FUTO
 10
9597.248250953704
 20
21355.08933204252
 30
0.0
 40
10.000075000000001
 50
90.0
 51
166.60785899999991
  0
ARC
  5
2DE
  8
FUTO
 10
9586.8503019537002
 20
21311.41501604252
 30
0.0
 40
10.000731999999999
 50
166.60730699999991
 51
179.99860099999989
  0
LINE
  5
2DF
  8
FUTO
 10
9587.5201019537035
 20
21357.40549504252
 30
0.0
 11
9577.1215419537057
 21
21313.731422042521
 31
0.0
  0
LINE
  5
2E0
  8
FUTO
 10
9736.8495689537031
 20
21391.070045042521
 30
0.0
 11
9742.3921719537029
 21
21387.870094042519
 31
0.0
  0
ARC
  5
2E1
  8
FUTO
 10
9730.3744719537026
 20
21363.05466404252
 30
0.0
 40
2.000008999999999
 50
150.00006899999991
 51
252.68978899999999
  0
LINE
  5
2E2
  8
FUTO
 10
9729.7793789537027
 20
21361.145241042519
 30
0.0
 11
9747.8820399537035
 21
21355.50339504252
 31
0.0
  0
ARC
  5
2E3
  8
FUTO
 10
9743.6421719537047
 20
21209.882301042519
 30
0.0
 40
10.0
 50
346.60769699999992
 51
0.0
  0
LINE
  5
2E4
  8
FUTO
 10
9753.6421719537029
 20
21209.882301042519
 30
0.0
 11
9753.6421719537029
 21
21347.674782042519
 31
0.0
  0
LINE
  5
2E5
  8
FUTO
 10
9979.8921719537047
 20
21419.85520204252
 30
0.0
 11
9979.8921719537047
 21
21469.958229042521
 31
0.0
  0
LINE
  5
2E6
  8
FUTO
 10
9967.3921719537047
 20
21419.85520204252
 30
0.0
 11
9967.3921719537047
 21
21469.958229042521
 31
0.0
  0
LINE
  5
2E7
  8
CT
 10
9973.6421719537047
 20
21482.527321042518
 30
0.0
 11
9973.6421719537047
 21
21002.50339504252
 31
0.0
  0
CIRCLE
  5
2E8
  8
FUTO
 10
9973.6421719537047
 20
21206.208229042521
 30
0.0
 40
40.0
  0
LINE
  5
2E9
  8
FUTO
 10
9918.9041349537038
 20
21010.208229042521
 30
0.0
 11
10028.3802089537
 21
21010.208229042521
 31
0.0
  0
LINE
  5
2EA
  8
CT
 10
10188.4812829537
 20
21206.208229042521
 30
0.0
 11
9759.6510829537037
 21
21206.208229042521
 31
0.0
  0
LINE
  5
2EB
  8
CT
 10
10161.142171953699
 20
21206.208229042521
 30
0.0
 11
9773.6072146075785
 21
21206.208229042521
 31
0.0
  0
CIRCLE
  5
2EC
  8
SL
 10
9973.6421719537047
 20
21206.208229042521
 30
0.0
 40
106.0
  0
LINE
  5
2ED
  8
FUTO
 10
10056.980491531949
 20
20996.731884480909
 30
0.0
 11
9973.629391066177
 21
20996.731884480909
 31
0.0
  0
ARC
  5
2EE
  8
FUTO
 10
9973.6421719537047
 20
21206.208229042521
 30
0.0
 40
203.5
 50
285.60372899999987
 51
254.39624000000001
  0
CIRCLE
  5
2EF
  8
FUTO
 10
9973.6421719537047
 20
21206.208229042521
 30
0.0
 40
7.5
  0
LINE
  5
2F0
  8
CT
 10
9973.6421719537047
 20
20993.708229042521
 30
0.0
 11
9973.6421719537047
 21
21409.33123439307
 31
0.0
  0
LINE
  5
2F1
  8
FUTO
 10
9822.7281089537046
 20
21069.689918042521
 30
0.0
 11
9817.9300139537045
 21
21065.65549504252
 31
0.0
  0
LINE
  5
2F2
  8
FUTO
 10
9821.1333829537034
 20
21063.74045504252
 30
0.0
 11
9824.7254239537033
 21
21067.33249604252
 31
0.0
  0
LINE
  5
2F3
  8
FUTO
 10
9821.1333829537034
 20
21062.891823042519
 30
0.0
 11
9821.1333829537034
 21
21063.74045504252
 31
0.0
  0
LINE
  5
2F4
  8
FUTO
 10
9823.4207359537031
 20
21061.452858042521
 30
0.0
 11
9822.5721039537038
 21
21061.452858042521
 31
0.0
  0
LINE
  5
2F5
  8
FUTO
 10
9823.4207359537031
 20
21061.452858042521
 30
0.0
 11
9823.4207359537031
 21
21060.604469042519
 31
0.0
  0
ARC
  5
2F6
  8
FUTO
 10
9821.147786953703
 20
21061.828590042522
 30
0.0
 40
5.0000339999999994
 50
130.05810899999989
 51
223.43603499999989
  0
LINE
  5
2F7
  8
FUTO
 10
9831.1743979537023
 20
21053.699440042521
 30
0.0
 11
9834.7664389537022
 21
21057.291481042521
 31
0.0
  0
LINE
  5
2F8
  8
FUTO
 10
9831.1743979537023
 20
21053.699440042521
 30
0.0
 11
9830.3257659537048
 21
21053.699440042521
 31
0.0
  0
LINE
  5
2F9
  8
FUTO
 10
9828.8870449537026
 20
21055.986793042521
 30
0.0
 11
9828.8870449537026
 21
21055.13816104252
 31
0.0
  0
LINE
  5
2FA
  8
FUTO
 10
9828.8870449537026
 20
21055.986793042521
 30
0.0
 11
9832.4790859537025
 21
21059.578834042521
 31
0.0
  0
LINE
  5
2FB
  8
FUTO
 10
9828.8870449537026
 20
21055.986793042521
 30
0.0
 11
9828.0384119537048
 21
21055.986793042521
 31
0.0
  0
LINE
  5
2FC
  8
FUTO
 10
9824.7254239537033
 20
21067.33249604252
 30
0.0
 11
9834.7664389537022
 21
21057.291481042521
 31
0.0
  0
LINE
  5
2FD
  8
CT
 10
9825.2012539537045
 20
21057.76731104252
 30
0.0
 11
9830.4493009537036
 21
21063.015358042521
 31
0.0
  0
LINE
  5
2FE
  8
FUTO
 10
9821.1333829537034
 20
21062.891823042519
 30
0.0
 11
9830.3257659537048
 21
21053.699440042521
 31
0.0
  0
LINE
  5
2FF
  8
FUTO
 10
9823.4207359537031
 20
21061.452858042521
 30
0.0
 11
9827.012776953703
 21
21065.04514304252
 31
0.0
  0
LINE
  5
300
  8
FUTO
 10
9847.4558929537034
 20
21026.208229042521
 30
0.0
 11
9851.9772549537047
 21
21043.082741042519
 31
0.0
  0
LINE
  5
301
  8
FUTO
 10
9851.9773769537023
 20
21043.082741042519
 30
0.0
 11
9847.4558929537034
 21
21026.208229042521
 31
0.0
  0
ARC
  5
302
  8
FUTO
 10
9845.8575039537027
 20
21039.56174504252
 30
0.0
 40
5.0
 50
232.51797499999989
 51
344.99883999999997
  0
ARC
  5
303
  8
FUTO
 10
9973.6421719537047
 20
21206.208229042521
 30
0.0
 40
214.9999849999999
 50
223.434326
 51
232.5189509999999
  0
ARC
  5
304
  8
FUTO
 10
9861.1421719537029
 20
21023.208229042521
 30
0.0
 40
3.0
 50
0.0
 51
90.0
  0
LINE
  5
305
  8
FUTO
 10
9823.8921719537029
 20
21018.208229042521
 30
0.0
 11
9823.8921719537029
 21
21014.208229042521
 31
0.0
  0
LINE
  5
306
  8
FUTO
 10
9823.8921719537029
 20
21010.208229042521
 30
0.0
 11
9823.8921719537029
 21
21006.208229042521
 31
0.0
  0
LINE
  5
307
  8
FUTO
 10
9864.1421719537029
 20
21023.208229042521
 30
0.0
 11
9864.1421719537029
 21
21006.208229042521
 31
0.0
  0
LINE
  5
308
  8
FUTO
 10
9864.1421719537029
 20
21011.208229042521
 30
0.0
 11
9869.8172209537024
 21
21032.388405042519
 31
0.0
  0
LINE
  5
309
  8
CT
 10
9814.6421719537029
 20
21030.63205704252
 30
0.0
 11
9814.6421719537029
 21
21001.516334042521
 31
0.0
  0
LINE
  5
30A
  8
FUTO
 10
9823.8921719537029
 20
21026.208229042521
 30
0.0
 11
9823.8921719537029
 21
21022.208229042521
 31
0.0
  0
ARC
  5
30B
  8
FUTO
 10
9789.6421719537029
 20
21080.534889042519
 30
0.0
 40
5.0
 50
124.94366100000001
 51
180.0
  0
ARC
  5
30C
  8
FUTO
 10
9787.6421719537047
 20
21023.208229042521
 30
0.0
 40
3.0
 50
90.0
 51
180.0
  0
LINE
  5
30D
  8
FUTO
 10
9805.3921719537047
 20
21018.208229042521
 30
0.0
 11
9805.3921719537047
 21
21014.208229042521
 31
0.0
  0
LINE
  5
30E
  8
FUTO
 10
9805.3921719537047
 20
21010.208229042521
 30
0.0
 11
9805.3921719537047
 21
21006.208229042521
 31
0.0
  0
LINE
  5
30F
  8
FUTO
 10
9805.3921719537047
 20
21026.208229042521
 30
0.0
 11
9805.3921719537047
 21
21022.208229042521
 31
0.0
  0
LINE
  5
310
  8
FUTO
 10
9784.6421719537047
 20
21080.534889042519
 30
0.0
 11
9784.6421719537047
 21
21006.208229042521
 31
0.0
  0
LINE
  5
311
  8
FUTO
 10
9784.6421719537047
 20
21006.208229042521
 30
0.0
 11
9864.1421719537029
 21
21006.208229042521
 31
0.0
  0
LINE
  5
312
  8
FUTO
 10
9861.1421719537029
 20
21026.208229042521
 30
0.0
 11
9787.6421719537047
 21
21026.208229042521
 31
0.0
  0
LINE
  5
313
  8
FUTO
 10
9786.7782799537017
 20
21084.633522042521
 30
0.0
 11
9802.7161459537019
 21
21095.76999604252
 31
0.0
  0
LINE
  5
314
  8
FUTO
 10
9890.3038523754549
 20
21006.208229042521
 30
0.0
 11
9890.3038523754549
 21
20996.731884480909
 31
0.0
  0
LINE
  5
315
  8
FUTO
 10
9890.3038523754549
 20
20996.731884480909
 30
0.0
 11
9973.6549528412288
 21
20996.731884480909
 31
0.0
  0
LINE
  5
316
  8
FUTO
 10
9830.3257659537048
 20
21358.71701804252
 30
0.0
 11
9831.1742759537028
 21
21358.71701804252
 31
0.0
  0
LINE
  5
317
  8
FUTO
 10
9828.8869229537031
 20
21356.42966404252
 30
0.0
 11
9828.8869229537031
 21
21357.278297042521
 31
0.0
  0
LINE
  5
318
  8
FUTO
 10
9828.8869229537031
 20
21356.42966404252
 30
0.0
 11
9828.0384119537048
 21
21356.42966404252
 31
0.0
  0
LINE
  5
319
  8
FUTO
 10
9831.1742759537028
 20
21358.71701804252
 30
0.0
 11
9834.7664389537022
 21
21355.12497704252
 31
0.0
  0
LINE
  5
31A
  8
FUTO
 10
9821.1333829537034
 20
21348.676002042521
 30
0.0
 11
9821.1333829537034
 21
21349.524635042519
 31
0.0
  0
LINE
  5
31B
  8
FUTO
 10
9823.4207359537031
 20
21350.963356042521
 30
0.0
 11
9822.5721039537038
 21
21350.963356042521
 31
0.0
  0
LINE
  5
31C
  8
FUTO
 10
9823.4207359537031
 20
21350.963356042521
 30
0.0
 11
9823.4207359537031
 21
21351.811989042519
 31
0.0
  0
LINE
  5
31D
  8
FUTO
 10
9823.4207359537031
 20
21350.963356042521
 30
0.0
 11
9827.012776953703
 21
21347.371315042521
 31
0.0
  0
LINE
  5
31E
  8
FUTO
 10
9828.8869229537031
 20
21356.42966404252
 30
0.0
 11
9832.4790859537025
 21
21352.83762304252
 31
0.0
  0
LINE
  5
31F
  8
FUTO
 10
9825.2011319537032
 20
21354.649147042521
 30
0.0
 11
9830.4493009537036
 21
21349.40110004252
 31
0.0
  0
LINE
  5
320
  8
FUTO
 10
9830.3257659537048
 20
21358.71701804252
 30
0.0
 11
9821.1333829537034
 21
21349.524635042519
 31
0.0
  0
LINE
  5
321
  8
FUTO
 10
9763.6421719537029
 20
21221.208229042521
 30
0.0
 11
9763.6421719537029
 21
21341.208229042521
 31
0.0
  0
LINE
  5
322
  8
FUTO
 10
9821.1333829537034
 20
21348.676002042521
 30
0.0
 11
9824.7254239537033
 21
21345.083961042521
 31
0.0
  0
LINE
  5
323
  8
FUTO
 10
9834.7664389537022
 20
21355.12497704252
 30
0.0
 11
9824.7254239537033
 21
21345.083961042521
 31
0.0
  0
ARC
  5
324
  8
FUTO
 10
9960.6421719537011
 20
21425.398170042521
 30
0.0
 40
2.0
 50
95.710937000000001
 51
180.0
  0
LINE
  5
325
  8
FUTO
 10
9967.1850799537024
 20
21428.06247704252
 30
0.0
 11
9960.4431359537029
 21
21427.388405042519
 31
0.0
  0
ARC
  5
326
  8
FUTO
 10
9986.6421719537047
 20
21425.398170042521
 30
0.0
 40
2.0001619999999991
 50
0.0
 51
84.289062000000001
  0
LINE
  5
327
  8
FUTO
 10
9979.7422699537037
 20
21428.09812104252
 30
0.0
 11
9986.8412079537047
 21
21427.388405042519
 31
0.0
  0
ARC
  5
328
  8
FUTO
 10
9973.6421719537047
 20
21206.208229042521
 30
0.0
 40
210.0001069999999
 50
93.733031999999994
 51
93.767014000000003
  0
ARC
  5
329
  8
FUTO
 10
9960.0424399537023
 20
21412.760963042521
 30
0.0
 40
2.999933
 50
93.767708000000042
 51
182.5560909999999
  0
ARC
  5
32A
  8
FUTO
 10
9960.1648769537023
 20
21412.76902004252
 30
0.0
 40
3.0000169999999988
 50
4.9438929999999983
 51
93.732810999999984
  0
LINE
  5
32B
  8
FUTO
 10
9957.0454919537024
 20
21412.627174042522
 30
0.0
 11
9957.2054039537034
 21
21409.04343404252
 31
0.0
  0
LINE
  5
32C
  8
FUTO
 10
9963.1537689537035
 20
21413.027565042521
 30
0.0
 11
9963.4628509537033
 21
21409.453590042522
 31
0.0
  0
LINE
  5
32D
  8
FUTO
 10
9984.1304529537028
 20
21413.027565042521
 30
0.0
 11
9983.8213709537049
 21
21409.453590042522
 31
0.0
  0
ARC
  5
32E
  8
FUTO
 10
9973.6421719537047
 20
21206.208229042521
 30
0.0
 40
210.0
 50
86.233025000000012
 51
86.267029000000008
  0
ARC
  5
32F
  8
FUTO
 10
9987.2417809537037
 20
21412.760963042521
 30
0.0
 40
3.0001370000000001
 50
357.44401599999998
 51
86.232291999999987
  0
LINE
  5
330
  8
FUTO
 10
9990.2388519537053
 20
21412.627174042522
 30
0.0
 11
9990.0788169537027
 21
21409.04343404252
 31
0.0
  0
ARC
  5
331
  8
FUTO
 10
9987.1193449537041
 20
21412.76902004252
 30
0.0
 40
3.000052999999999
 50
86.267188999999973
 51
175.0561099999999
  0
LINE
  5
332
  8
FUTO
 10
9986.1421719537029
 20
21416.208229042521
 30
0.0
 11
9961.1421719537029
 21
21416.208229042521
 31
0.0
  0
LINE
  5
333
  8
FUTO
 10
9988.6421719537029
 20
21416.208229042521
 30
0.0
 11
9958.6421719537029
 21
21416.208229042521
 31
0.0
  0
LINE
  5
334
  8
FUTO
 10
9988.6421719537029
 20
21416.208229042521
 30
0.0
 11
9988.6421719537029
 21
21425.398170042521
 31
0.0
  0
LINE
  5
335
  8
FUTO
 10
9958.6421719537029
 20
21416.208229042521
 30
0.0
 11
9958.6421719537029
 21
21425.398170042521
 31
0.0
  0
ARC
  5
336
  8
FUTO
 10
9981.8921719537029
 20
21419.85520204252
 30
0.0
 40
2.0
 50
180.0
 51
270.0
  0
ARC
  5
337
  8
FUTO
 10
9965.3921719537047
 20
21419.85520204252
 30
0.0
 40
2.0
 50
270.0
 51
0.0
  0
LINE
  5
338
  8
FUTO
 10
10162.642171953699
 20
21006.208229042521
 30
0.0
 11
10083.142171953699
 21
21006.208229042521
 31
0.0
  0
LINE
  5
339
  8
FUTO
 10
10086.142171953699
 20
21026.208229042521
 30
0.0
 11
10159.642171953699
 21
21026.208229042521
 31
0.0
  0
LINE
  5
33A
  8
FUTO
 10
10112.5179039537
 20
21057.291481042521
 30
0.0
 11
10122.558919953701
 21
21067.33249604252
 31
0.0
  0
LINE
  5
33B
  8
FUTO
 10
10116.1099449537
 20
21053.699440042521
 30
0.0
 11
10112.5179039537
 21
21057.291481042521
 31
0.0
  0
ARC
  5
33C
  8
FUTO
 10
9973.6421719537047
 20
21206.208229042521
 30
0.0
 40
214.9999849999999
 50
307.48103299999991
 51
316.565674
  0
LINE
  5
33D
  8
FUTO
 10
10223.63383604326
 20
21006.208229042521
 30
0.0
 11
10056.980491531949
 21
21006.208229042521
 31
0.0
  0
LINE
  5
33E
  8
FUTO
 10
10135.642171953699
 20
21006.208229042521
 30
0.0
 11
10075.642171953699
 21
21006.208229042521
 31
0.0
  0
LINE
  5
33F
  8
FUTO
 10
10095.3069669537
 20
21043.082741042519
 30
0.0
 11
10099.828450953701
 21
21026.208229042521
 31
0.0
  0
ARC
  5
340
  8
FUTO
 10
10101.4268399537
 20
21039.56174504252
 30
0.0
 40
5.0
 50
195.00097699999989
 51
307.48147599999987
  0
ARC
  5
341
  8
FUTO
 10
10086.142171953699
 20
21023.208229042521
 30
0.0
 40
3.0
 50
90.0
 51
180.0
  0
LINE
  5
342
  8
FUTO
 10
10083.142171953699
 20
21023.208229042521
 30
0.0
 11
10083.142171953699
 21
21006.208229042521
 31
0.0
  0
LINE
  5
343
  8
FUTO
 10
10083.142171953699
 20
21011.208229042521
 30
0.0
 11
10077.466878953701
 21
21032.388405042519
 31
0.0
  0
LINE
  5
344
  8
FUTO
 10
10056.980491531949
 20
21006.208229042521
 30
0.0
 11
10056.980491531949
 21
20996.731884480909
 31
0.0
  0
LINE
  5
345
  8
FUTO
 10
10141.892171953699
 20
21018.208229042521
 30
0.0
 11
10141.892171953699
 21
21014.208229042521
 31
0.0
  0
LINE
  5
346
  8
FUTO
 10
10141.892171953699
 20
21010.208229042521
 30
0.0
 11
10141.892171953699
 21
21006.208229042521
 31
0.0
  0
LINE
  5
347
  8
FUTO
 10
10141.892171953699
 20
21026.208229042521
 30
0.0
 11
10141.892171953699
 21
21022.208229042521
 31
0.0
  0
ARC
  5
348
  8
FUTO
 10
10157.642171953699
 20
21080.534889042519
 30
0.0
 40
5.0000669999999987
 50
0.0
 51
55.056334999999997
  0
ARC
  5
349
  8
FUTO
 10
10159.642171953699
 20
21023.208229042521
 30
0.0
 40
3.0
 50
0.0
 51
90.0
  0
LINE
  5
34A
  8
FUTO
 10
10162.642171953699
 20
21080.534889042519
 30
0.0
 11
10162.642171953699
 21
21006.208229042521
 31
0.0
  0
LINE
  5
34B
  8
FUTO
 10
10126.150960953701
 20
21063.74045504252
 30
0.0
 11
10122.558919953701
 21
21067.33249604252
 31
0.0
  0
LINE
  5
34C
  8
FUTO
 10
10126.150960953701
 20
21063.74045504252
 30
0.0
 11
10126.150960953701
 21
21062.891823042519
 31
0.0
  0
LINE
  5
34D
  8
FUTO
 10
10123.863606953701
 20
21061.45310204252
 30
0.0
 11
10124.7122399537
 21
21061.45310204252
 31
0.0
  0
LINE
  5
34E
  8
FUTO
 10
10123.863606953701
 20
21061.45310204252
 30
0.0
 11
10120.271565953701
 21
21065.04514304252
 31
0.0
  0
LINE
  5
34F
  8
FUTO
 10
10123.863606953701
 20
21061.45310204252
 30
0.0
 11
10123.863606953701
 21
21060.604469042519
 31
0.0
  0
LINE
  5
350
  8
FUTO
 10
10124.5559899537
 20
21069.689918042521
 30
0.0
 11
10129.3542079537
 21
21065.65549504252
 31
0.0
  0
LINE
  5
351
  8
FUTO
 10
10116.958577953699
 20
21053.699440042521
 30
0.0
 11
10116.1099449537
 21
21053.699440042521
 31
0.0
  0
LINE
  5
352
  8
FUTO
 10
10118.3975429537
 20
21055.986793042521
 30
0.0
 11
10118.3975429537
 21
21055.13816104252
 31
0.0
  0
LINE
  5
353
  8
FUTO
 10
10118.3975429537
 20
21055.986793042521
 30
0.0
 11
10114.8052579537
 21
21059.578834042521
 31
0.0
  0
LINE
  5
354
  8
FUTO
 10
10118.3975429537
 20
21055.986793042521
 30
0.0
 11
10119.245931953699
 21
21055.986793042521
 31
0.0
  0
ARC
  5
355
  8
FUTO
 10
10126.1363129537
 20
21061.828590042522
 30
0.0
 40
5.0000049999999998
 50
316.56494099999998
 51
49.94082599999998
  0
LINE
  5
356
  8
CT
 10
10122.0830899537
 20
21057.76731104252
 30
0.0
 11
10116.8350429537
 21
21063.015358042521
 31
0.0
  0
LINE
  5
357
  8
FUTO
 10
10116.958577953699
 20
21053.699440042521
 30
0.0
 11
10126.150960953701
 21
21062.891823042519
 31
0.0
  0
LINE
  5
358
  8
FUTO
 10
10123.392171953699
 20
21018.208229042521
 30
0.0
 11
10123.392171953699
 21
21014.208229042521
 31
0.0
  0
LINE
  5
359
  8
FUTO
 10
10123.392171953699
 20
21010.208229042521
 30
0.0
 11
10123.392171953699
 21
21006.208229042521
 31
0.0
  0
LINE
  5
35A
  8
CT
 10
10132.642171953699
 20
21030.63205704252
 30
0.0
 11
10132.642171953699
 21
21001.516334042521
 31
0.0
  0
LINE
  5
35B
  8
FUTO
 10
10123.392171953699
 20
21026.208229042521
 30
0.0
 11
10123.392171953699
 21
21022.208229042521
 31
0.0
  0
LINE
  5
35C
  8
FUTO
 10
10233.642171953699
 20
21037.388661384721
 30
0.0
 11
10206.911696246951
 21
21037.388661384721
 31
0.0
  0
LINE
  5
35D
  8
FUTO
 10
10172.097144542829
 20
21020.701864459981
 30
0.0
 11
10206.911696246951
 21
21020.701864459981
 31
0.0
  0
LINE
  5
35E
  8
FUTO
 10
10206.911696246951
 20
21037.388661384721
 30
0.0
 11
10206.911696246951
 21
21006.208229042521
 31
0.0
  0
LINE
  5
35F
  8
FUTO
 10
10160.505940953701
 20
21084.633522042521
 30
0.0
 11
10144.5680749537
 21
21095.76999604252
 31
0.0
  0
LINE
  5
360
  8
FUTO
 10
10116.1099449537
 20
21358.71701804252
 30
0.0
 11
10112.5179039537
 21
21355.12497704252
 31
0.0
  0
LINE
  5
361
  8
FUTO
 10
10122.558919953701
 20
21345.083961042521
 30
0.0
 11
10112.5179039537
 21
21355.12497704252
 31
0.0
  0
ARC
  5
362
  8
FUTO
 10
9973.6421719537047
 20
21206.208229042521
 30
0.0
 40
210.00004599999991
 50
48.733032000000009
 51
48.767014000000003
  0
ARC
  5
363
  8
FUTO
 10
10110.1728119537
 20
21361.79856104252
 30
0.0
 40
2.9999169999999991
 50
319.94338999999991
 51
48.733367999999977
  0
ARC
  5
364
  8
FUTO
 10
10110.0806479537
 20
21361.879616042519
 30
0.0
 40
2.999909999999999
 50
48.768020999999997
 51
137.5594439999999
  0
LINE
  5
365
  8
FUTO
 10
10112.469075953701
 20
21359.867897042521
 30
0.0
 11
10110.160359953699
 21
21357.122047042521
 31
0.0
  0
LINE
  5
366
  8
FUTO
 10
10107.8667809537
 20
21363.904030042519
 30
0.0
 11
10105.445638953701
 21
21361.256813042521
 31
0.0
  0
LINE
  5
367
  8
FUTO
 10
10116.1099449537
 20
21358.71701804252
 30
0.0
 11
10116.958577953699
 21
21358.71701804252
 31
0.0
  0
LINE
  5
368
  8
FUTO
 10
10118.3972989537
 20
21356.42966404252
 30
0.0
 11
10118.3972989537
 21
21357.278297042521
 31
0.0
  0
LINE
  5
369
  8
FUTO
 10
10118.3972989537
 20
21356.42966404252
 30
0.0
 11
10119.245931953699
 21
21356.42966404252
 31
0.0
  0
LINE
  5
36A
  8
FUTO
 10
10126.150960953701
 20
21349.524635042519
 30
0.0
 11
10126.150960953701
 21
21348.676002042521
 31
0.0
  0
LINE
  5
36B
  8
FUTO
 10
10123.863606953701
 20
21350.96360004252
 30
0.0
 11
10124.7122399537
 21
21350.96360004252
 31
0.0
  0
LINE
  5
36C
  8
FUTO
 10
10123.863606953701
 20
21350.96360004252
 30
0.0
 11
10120.271565953701
 21
21347.371315042521
 31
0.0
  0
LINE
  5
36D
  8
FUTO
 10
10123.863606953701
 20
21350.96360004252
 30
0.0
 11
10123.863606953701
 21
21351.811989042519
 31
0.0
  0
LINE
  5
36E
  8
FUTO
 10
10122.0830899537
 20
21354.649147042521
 30
0.0
 11
10116.8350429537
 21
21349.40110004252
 31
0.0
  0
LINE
  5
36F
  8
FUTO
 10
10126.150960953701
 20
21349.524635042519
 30
0.0
 11
10116.958577953699
 21
21358.71701804252
 31
0.0
  0
LINE
  5
370
  8
FUTO
 10
10118.3972989537
 20
21356.42966404252
 30
0.0
 11
10114.8052579537
 21
21352.83762304252
 31
0.0
  0
ARC
  5
371
  8
FUTO
 10
9973.6421719537047
 20
21206.208229042521
 30
0.0
 40
210.0
 50
41.233032000000009
 51
41.267029000000001
  0
ARC
  5
372
  8
FUTO
 10
10129.232503953701
 20
21342.738991042519
 30
0.0
 40
2.9999560000000001
 50
41.268387000000011
 51
130.058109
  0
LINE
  5
373
  8
FUTO
 10
10131.337972953699
 20
21340.432838042521
 30
0.0
 11
10128.6906339537
 21
21338.011940042521
 31
0.0
  0
ARC
  5
374
  8
FUTO
 10
10129.3133139537
 20
21342.64670504252
 30
0.0
 40
2.9999500000000001
 50
312.44400000000002
 51
41.231979000000003
  0
LINE
  5
375
  8
FUTO
 10
10127.3018399537
 20
21345.035133042518
 30
0.0
 11
10124.5559899537
 21
21342.72653904252
 31
0.0
  0
LINE
  5
376
  8
FUTO
 10
10126.150960953701
 20
21348.676002042521
 30
0.0
 11
10122.558919953701
 21
21345.083961042521
 31
0.0
  0
ARC
  5
377
  8
FUTO
 10
9973.6421719537047
 20
21469.958229042521
 30
0.0
 40
6.25
 50
0.0
 51
90.0
  0
ARC
  5
378
  8
FUTO
 10
9973.6421719537047
 20
21469.958229042521
 30
0.0
 40
6.25
 50
90.0
 51
180.0
  0
ARC
  5
396
  8
KL
 10
11071.642171953699
 20
21934.208229042521
 30
0.0
 40
1105.0
 50
270.0
 51
0.8555796354302191
  0
ARC
  5
397
  8
FUTO
 10
11173.642171953699
 20
22036.208229042521
 30
0.0
 40
95.000000000003084
 50
270.0
 51
290.94387397238211
  0
LINE
  5
398
  8
FUTO
 10
11263.642171953699
 20
21939.208229042521
 30
0.0
 11
11173.642171953699
 21
21939.208229042521
 31
0.0
  0
LINE
  5
399
  8
KL
 10
11475.17567155727
 20
21930.208229042521
 30
0.0
 11
11173.642171953699
 21
21930.208229042521
 31
0.0
  0
LINE
  5
39A
  8
FUTO
 10
11373.642171953699
 20
21936.208229042521
 30
0.0
 11
10973.642171953699
 21
21936.208229042521
 31
0.0
  0
DIMENSION
  5
39B
  8
FUTO
  2
*D5
 10
12023.642171953699
 20
20556.908369077501
 30
0.0
 11
11598.642171953699
 21
20616.908369077501
 31
0.0
 70
     0
 13
11173.642171953699
 23
20769.126077998772
 33
0.0
 14
12023.642171953699
 24
20721.208229042521
 34
0.0
1001
ACAD
1000
DSTYLE
1002
{
1070
    40
1040
30.0
1070
   176
1070
     2
1070
   177
1070
     2
1070
   178
1070
     2
1070
   341
1005
44D5
1070
     5
1000
OPEN30
1002
}
  0
LINE
  5
3AA
  8
KL
 10
10872.108672350119
 20
21930.208229042521
 30
0.0
 11
10761.540047615121
 21
21382.007265545311
 31
0.0
  0
LINE
  5
3B5
  8
FUTO
 10
10296.079596040019
 20
21027.802626916731
 30
0.0
 11
10296.079596040019
 21
21013.956134974698
 31
0.0
  0
LINE
  5
3B6
  8
FUTO
 10
10296.079596040019
 20
21013.956134974698
 30
0.0
 11
10286.84310505784
 21
21013.956134974698
 31
0.0
  0
LINE
  5
3B7
  8
FUTO
 10
10286.84310505784
 20
21013.956134974698
 30
0.0
 11
10286.84310505784
 21
21028.157659888198
 31
0.0
  0
LINE
  5
3B8
  8
FUTO
 10
10286.84310505784
 20
21028.157659888198
 30
0.0
 11
10295.724345196661
 21
21028.157659888198
 31
0.0
  0
LINE
  5
3BA
  8
KL
 10
10872.108672350119
 20
21930.208229042521
 30
0.0
 11
11173.642171953699
 21
21930.208229042521
 31
0.0
  0
LINE
  5
3BD
  8
FUTO
 10
10993.642171953699
 20
21936.208229042521
 30
0.0
 11
11083.642171953699
 21
21936.208229042521
 31
0.0
  0
LINE
  5
3BF
  8
FUTO
 10
10973.642171953699
 20
21936.208229042521
 30
0.0
 11
10973.642171953699
 21
21930.208229042521
 31
0.0
  0
ARC
  5
3C0
  8
FUTO
 10
10996.642171953699
 20
21967.208229042521
 30
0.0
 40
2.9999999999999991
 50
90.0
 51
180.0
  0
LINE
  5
3C1
  8
FUTO
 10
10993.642171953699
 20
21967.208229042521
 30
0.0
 11
10993.642171953699
 21
21936.208229042521
 31
0.0
  0
LINE
  5
3C2
  8
FUTO
 10
11062.642171953699
 20
21970.208229042521
 30
0.0
 11
10996.642171953699
 21
21970.208229042521
 31
0.0
  0
ARC
  5
3C3
  8
FUTO
 10
11173.642171953699
 20
22036.208229042521
 30
0.0
 40
94.999999999998295
 50
249.0561260276169
 51
270.0
  0
LINE
  5
3C4
  8
FUTO
 10
11083.642171953699
 20
21936.208229042521
 30
0.0
 11
11083.642171953699
 21
21939.208229042521
 31
0.0
  0
ARC
  5
3C5
  8
FUTO
 10
11126.142171953699
 20
21953.935815682999
 30
0.0
 40
14.999999999999909
 50
145.47193698619009
 51
239.99999999999909
  0
LINE
  5
3C6
  8
FUTO
 10
11083.642171953699
 20
21939.208229042521
 30
0.0
 11
11173.642171953699
 21
21939.208229042521
 31
0.0
  0
ARC
  5
3C7
  8
FUTO
 10
11126.142171953699
 20
21953.935815682999
 30
0.0
 40
15.000000000000419
 50
239.99999999999989
 51
334.52806301381298
  0
LINE
  5
3CB
  8
KL
 10
11475.175671557279
 20
21930.208229042521
 30
0.0
 11
11494.772788249849
 21
21833.045419263632
 31
0.0
  0
LINE
  5
3D0
  8
FUTO
 10
11673.642171953699
 20
20946.208229042521
 30
0.0
 11
11673.642171953699
 21
20796.208229042521
 31
0.0
  0
POINT
  5
3D6
  8
DEFPOINTS
  6
BYBLOCK
 62
     0
 10
12023.642171953699
 20
20796.208229042521
 30
0.0
  0
LINE
  5
3D9
  8
FUTO
 10
12023.642171953699
 20
20946.208229042521
 30
0.0
 11
12023.642171953699
 21
20796.208229042521
 31
0.0
  0
LINE
  5
3DD
  8
FUTO
 10
11284.642171953699
 20
21970.208229042521
 30
0.0
 11
11350.642171953699
 21
21970.208229042521
 31
0.0
  0
LINE
  5
3DE
  8
FUTO
 10
11353.642171953699
 20
21936.208229042521
 30
0.0
 11
11263.642171953699
 21
21936.208229042521
 31
0.0
  0
LINE
  5
3E0
  8
FUTO
 10
11263.642171953699
 20
21936.208229042521
 30
0.0
 11
11263.642171953699
 21
21939.208229042521
 31
0.0
  0
ARC
  5
3E1
  8
FUTO
 10
11221.142171953699
 20
21953.935815682999
 30
0.0
 40
14.99999999999998
 50
299.99999999999932
 51
34.528063013808008
  0
ARC
  5
3E2
  8
FUTO
 10
11221.142171953699
 20
21953.935815682999
 30
0.0
 40
14.99999999999978
 50
205.47193698618659
 51
300.00000000000011
  0
LINE
  5
3E3
  8
FUTO
 10
11373.642171953699
 20
21936.208229042521
 30
0.0
 11
11373.642171953699
 21
21930.208229042521
 31
0.0
  0
ARC
  5
3E5
  8
FUTO
 10
11350.642171953699
 20
21967.208229042521
 30
0.0
 40
2.9999999999999991
 50
0.0
 51
90.0
  0
LINE
  5
3E6
  8
FUTO
 10
11353.642171953699
 20
21967.208229042521
 30
0.0
 11
11353.642171953699
 21
21936.208229042521
 31
0.0
  0
LINE
  5
405
  8
SL
 10
13471.18094457038
 20
21956.208229042521
 30
0.0
 11
13493.280944570381
 21
21956.208229042521
 31
0.0
  0
LINE
  5
406
  8
CT
 10
13246.324215049661
 20
21206.208229042521
 30
0.0
 11
13549.142898161121
 21
21206.208229042521
 31
0.0
  0
LINE
  5
407
  8
FUTO
 10
13283.280944570381
 20
20986.208229042521
 30
0.0
 11
13538.280944570381
 21
20986.208229042521
 31
0.0
  0
LINE
  5
408
  8
SL
 10
13471.18094457038
 20
21146.208229042521
 30
0.0
 11
13486.280944570381
 21
21146.208229042521
 31
0.0
  0
LINE
  5
409
  8
SL
 10
13471.18094457038
 20
21266.208229042521
 30
0.0
 11
13486.280944570381
 21
21266.208229042521
 31
0.0
  0
LINE
  5
40E
  8
SL
 10
13393.280944570381
 20
21100.208229042521
 30
0.0
 11
13471.18094457038
 21
21100.208229042521
 31
0.0
  0
LINE
  5
40F
  8
SL
 10
13393.280944570381
 20
21312.208229042521
 30
0.0
 11
13471.18094457038
 21
21312.208229042521
 31
0.0
  0
LINE
  5
410
  8
SL
 10
13393.280944570381
 20
21786.208229042521
 30
0.0
 11
13471.18094457038
 21
21786.208229042521
 31
0.0
  0
LINE
  5
415
  8
CT
 10
13550.280944570381
 20
20816.100405641511
 30
0.0
 11
13550.280944570381
 21
20759.31673569974
 31
0.0
1001
ACAD
1000
ASC_BOUNDS
1002
{
1070
    19
1005
0
1005
3975
1005
3975
1002
}
  0
LINE
  5
41A
  8
SL
 10
13486.280944570381
 20
21266.208229042521
 30
0.0
 11
13486.280944570381
 21
21146.208229042521
 31
0.0
  0
LINE
  5
41B
  8
FUTO
 10
13538.280944570381
 20
21153.265655318311
 30
0.0
 11
13538.280944570381
 21
20986.208229042521
 31
0.0
  0
LINE
  5
42E
  8
FUTO
 10
12226.642171953699
 20
22045.208229042521
 30
0.0
 11
11373.642171953699
 21
22045.208229042521
 31
0.0
  0
LINE
  5
42F
  8
FUTO
 10
12226.642171953699
 20
22027.208229042521
 30
0.0
 11
11373.642171953699
 21
22027.208229042521
 31
0.0
  0
LINE
  5
430
  8
FUTO
 10
11186.642171953699
 20
22966.208229042521
 30
0.0
 11
9628.6421719537047
 21
22966.208229042521
 31
0.0
  0
LINE
  5
431
  8
HOSO
 10
11132.642171953699
 20
22966.208229042521
 30
0.0
 11
9682.6421719537047
 21
22966.208229042521
 31
0.0
  0
LINE
  5
44C
  8
FUTO
 10
11186.642171953699
 20
22916.208229042521
 30
0.0
 11
9628.6421719537047
 21
22916.208229042521
 31
0.0
  0
LINE
  5
44D
  8
FUTO
 10
11186.642171953699
 20
22962.208229042521
 30
0.0
 11
9628.6421719537047
 21
22962.208229042521
 31
0.0
  0
LINE
  5
44E
  8
CT
 10
12351.646150601029
 20
22036.208229042521
 30
0.0
 11
9643.5525928657316
 21
22036.208229042521
 31
0.0
  0
LINE
  5
478
  8
FUTO
 10
12023.642171953699
 20
25120.596925236441
 30
0.0
 11
9623.6421719537047
 21
25120.596925236441
 31
0.0
  0
LINE
  5
479
  8
FUTO
 10
12023.642171953699
 20
25195.59692523643
 30
0.0
 11
9682.6421719537047
 21
25195.59692523643
 31
0.0
  0
LINE
  5
47A
  8
FUTO
 10
11673.642171953699
 20
24217.59692523643
 30
0.0
 11
9623.6421719537047
 21
24217.59692523643
 31
0.0
  0
LINE
  5
488
  8
FUTO
 10
11673.642171953699
 20
24144.59692523643
 30
0.0
 11
9623.6421719537047
 21
24144.59692523643
 31
0.0
  0
LINE
  5
489
  8
FUTO
 10
11673.642171953699
 20
24144.59692523643
 30
0.0
 11
9623.6421719537047
 21
24144.59692523643
 31
0.0
  0
LINE
  5
4A3
  8
FUTO
 10
9623.6421719537047
 20
25195.59692523643
 30
0.0
 11
9623.6421719537047
 21
25120.596925236441
 31
0.0
  0
LINE
  5
4A4
  8
FUTO
 10
9838.6421719537011
 20
25120.596925236441
 30
0.0
 11
9838.6421719537011
 21
24821.09692523643
 31
0.0
  0
LINE
  5
4A5
  8
CT
 10
9973.6421719537047
 20
24960.181414436349
 30
0.0
 11
9973.6421719537047
 21
23784.46509331842
 31
0.0
  0
LINE
  5
4AD
  8
KL
 10
9682.6421719537047
 20
22966.208229042521
 30
0.0
 11
9767.9349537414728
 21
22020.613632307271
 31
0.0
  0
LINE
  5
4AE
  8
FUTO
 10
9667.0709839755673
 20
22916.208229042521
 30
0.0
 11
9745.6353213709353
 21
22045.208229042521
 31
0.0
  0
LINE
  5
4AF
  8
FUTO
 10
9747.258924210335
 20
22027.208229042521
 30
0.0
 11
9748.0158213012546
 21
22018.816923419032
 31
0.0
  0
LINE
  5
4B0
  8
FUTO
 10
9715.5135275729026
 20
22045.208229042521
 30
0.0
 11
9715.5135275729026
 21
22027.208229042521
 31
0.0
  0
LINE
  5
4B2
  8
FUTO
 10
9628.6421719537047
 20
22966.208229042521
 30
0.0
 11
9628.6421719537047
 21
22916.208229042521
 31
0.0
  0
LINE
  5
51D
  8
CT
 10
11173.642171953699
 20
26646.46950288603
 30
0.0
 11
11173.642171953699
 21
23820.736837296688
 31
0.0
  0
LINE
  5
52A
  8
FUTO
 10
11673.642171953699
 20
25120.596925236441
 30
0.0
 11
11673.642171953699
 21
24144.59692523643
 31
0.0
  0
LINE
  5
52C
  8
FUTO
 10
11598.642171953699
 20
25120.596925236441
 30
0.0
 11
11598.642171953699
 21
24211.596925236441
 31
0.0
  0
ARC
  5
559
  8
FUTO
 10
11259.142171953699
 20
21950.708229042521
 30
0.0
 40
937.5
 50
5.7852398837488019
 51
90.0
  0
ARC
  5
577
  8
FUTO
 10
11259.142171953699
 20
22121.408229042521
 30
0.0
 40
766.5
 50
90.0
 51
97.986701217821505
  0
CIRCLE
  5
578
  8
FUTO
 10
11173.642171953699
 20
22036.208229042521
 30
0.0
 40
36.5
  0
ARC
  5
579
  8
FUTO
 10
11173.642171953699
 20
22036.208229042521
 30
0.0
 40
94.999999999998053
 50
69.05612602761768
 51
90.0
  0
INSERT
  5
57A
  8
FUTO
  2
左回転矢印
 10
11351.65106703556
 20
22550.087048900248
 30
0.0
 41
-2.0
 42
2.0
 43
2.0
  0
ARC
  5
585
  8
KL
 10
11259.142171953699
 20
22121.408229042521
 30
0.0
 40
746.49999999999989
 50
90.0
 51
125.8784977425853
  0
ARC
  5
587
  8
FUTO
 10
11078.642171953699
 20
22036.208229042521
 30
0.0
 40
14.999999999999909
 50
180.0000000000004
 51
274.52806301380861
  0
ARC
  5
588
  8
FUTO
 10
11078.642171953699
 20
22036.208229042521
 30
0.0
 40
15.000000000000121
 50
85.471936986192148
 51
180.0000000000004
  0
LINE
  5
589
  8
FUTO
 10
11157.96050925589
 20
22129.905003026652
 30
0.0
 11
11157.96050925589
 21
22136.208229042521
 31
0.0
  0
LINE
  5
58A
  8
FUTO
 10
11189.323834651501
 20
22129.905003026652
 30
0.0
 11
11189.323834651501
 21
22136.208229042521
 31
0.0
  0
LINE
  5
58B
  8
FUTO
 10
11189.323834651501
 20
22136.208229042521
 30
0.0
 11
11157.96050925589
 21
22136.208229042521
 31
0.0
  0
LINE
  5
58C
  8
FUTO
 10
11078.642171953699
 20
22021.208229042521
 30
0.0
 11
11078.642171953699
 21
21986.208229042521
 31
0.0
  0
ARC
  5
58D
  8
FUTO
 10
11173.642171953699
 20
22036.208229042521
 30
0.0
 40
95.000000000000995
 50
189.05612602761769
 51
210.00000000000071
  0
ARC
  5
58E
  8
FUTO
 10
11173.64217195369
 20
22036.208229042521
 30
0.0
 40
94.999999999997456
 50
149.99999999999849
 51
170.9438739723814
  0
ARC
  5
58F
  8
FUTO
 10
11173.642171953699
 20
22036.208229042521
 30
0.0
 40
95.000000000000071
 50
129.05612602761761
 51
150.00000000000051
  0
ARC
  5
590
  8
FUTO
 10
11173.642171953699
 20
22036.208229042521
 30
0.0
 40
94.999999999998494
 50
90.0
 51
110.9438739723838
  0
ARC
  5
591
  8
FUTO
 10
11126.142171953699
 20
22118.480642402039
 30
0.0
 40
14.99999999999976
 50
120.0000000000004
 51
214.52806301380889
  0
ARC
  5
592
  8
FUTO
 10
11126.142171953699
 20
22118.480642402039
 30
0.0
 40
15.00000000000038
 50
25.4719369861869
 51
120.0000000000004
  0
CIRCLE
  5
593
  8
KL
 10
10813.07931549117
 20
22741.67390545972
 30
0.0
 40
17.407412889793701
  0
LINE
  5
594
  8
FUTO
 10
11186.642171953699
 20
22916.208229042521
 30
0.0
 11
11186.642171953699
 21
22966.208229042521
 31
0.0
  0
LINE
  5
595
  8
KL
 10
11132.642171953699
 20
22966.208229042521
 30
0.0
 11
11132.642171953699
 21
22857.111973765899
 31
0.0
  0
LINE
  5
596
  8
FUTO
 10
11152.642171953699
 20
22916.208229042521
 30
0.0
 11
11152.642171953699
 21
22880.473443632149
 31
0.0
  0
INSERT
  5
597
  8
FUTO
  2
まっすぐの矢印
 10
10113.65482546103
 20
23196.06618177233
 30
0.0
 41
-2.0
 42
2.0
 43
2.0
  0
LINE
  5
5A2
  8
FUTO
 10
11268.642171953699
 20
22021.208229042521
 30
0.0
 11
11268.642171953699
 21
21986.208229042521
 31
0.0
  0
ARC
  5
5A3
  8
FUTO
 10
11173.642171953699
 20
22036.208229042521
 30
0.0
 40
94.999999999999389
 50
9.0561260276173137
 51
30.000000000000231
  0
ARC
  5
5A4
  8
FUTO
 10
11268.642171953699
 20
22036.208229042521
 30
0.0
 40
15.000000000000121
 50
359.99999999999937
 51
94.528063013807852
  0
ARC
  5
5A5
  8
FUTO
 10
11268.642171953699
 20
22036.208229042521
 30
0.0
 40
14.999999999999909
 50
265.47193698619128
 51
359.9999999999996
  0
ARC
  5
5A6
  8
FUTO
 10
11173.642171953699
 20
22036.208229042521
 30
0.0
 40
94.999999999999389
 50
329.99999999999972
 51
350.94387397238262
  0
ARC
  5
5A7
  8
FUTO
 10
11173.642171953699
 20
22036.208229042521
 30
0.0
 40
94.999999999999915
 50
30.000000000000551
 51
50.943873972383457
  0
ARC
  5
5A8
  8
FUTO
 10
11221.142171953699
 20
22118.480642402039
 30
0.0
 40
15.00000000000038
 50
59.99999999999951
 51
154.52806301381301
  0
ARC
  5
5A9
  8
FUTO
 10
11221.142171953699
 20
22118.480642402039
 30
0.0
 40
15.00000000000006
 50
325.4719369861902
 51
59.999999999999147
  0
LINE
  5
605
  8
FUTO
 10
13283.280944570381
 20
22416.208229042521
 30
0.0
 11
13538.280944570381
 21
22416.208229042521
 31
0.0
  0
LINE
  5
606
  8
SL
 10
13471.18094457038
 20
22116.208229042521
 30
0.0
 11
13493.280944570381
 21
22116.208229042521
 31
0.0
  0
POINT
  5
609
  8
DEFPOINTS
 10
13283.280944570381
 20
22416.208229042521
 30
0.0
  0
LINE
  5
60A
  8
SL
 10
13393.280944570381
 20
22286.208229042521
 30
0.0
 11
13471.18094457038
 21
22286.208229042521
 31
0.0
  0
LINE
  5
60E
  8
FUTO
 10
13723.280944570381
 20
21991.208229042521
 30
0.0
 11
14292.280944570381
 21
21991.208229042521
 31
0.0
  0
LINE
  5
60F
  8
FUTO
 10
13723.280944570381
 20
22081.208229042521
 30
0.0
 11
14292.280944570381
 21
22081.208229042521
 31
0.0
  0
LINE
  5
610
  8
FUTO
 10
13538.280944570381
 20
22416.208229042521
 30
0.0
 11
13538.280944570381
 21
22189.898598948232
 31
0.0
  0
LINE
  5
611
  8
FUTO
 10
13493.280944570381
 20
21993.708229042521
 30
0.0
 11
13582.780944570381
 21
21993.708229042521
 31
0.0
  0
LINE
  5
612
  8
FUTO
 10
13493.280944570381
 20
22078.708229042521
 30
0.0
 11
13582.780944570381
 21
22078.708229042521
 31
0.0
  0
LINE
  5
68C
  8
FUTO
 10
12023.642171953699
 20
26344.59692523643
 30
0.0
 11
10323.642171953699
 21
26344.59692523643
 31
0.0
  0
LINE
  5
68D
  8
FUTO
 10
12176.642171953699
 20
26269.596925236441
 30
0.0
 11
9682.6421719537047
 21
26269.596925236441
 31
0.0
  0
LINE
  5
68E
  8
CT
 10
12351.162172533221
 20
25731.59692523643
 30
0.0
 11
9258.4300991782511
 21
25731.59692523643
 31
0.0
  0
LINE
  5
68F
  8
FUTO
 10
10323.642171953699
 20
26344.59692523643
 30
0.0
 11
10323.642171953699
 21
26315.59692523643
 31
0.0
  0
LINE
  5
6A9
  8
FUTO
 10
12023.642171953699
 20
26344.59692523643
 30
0.0
 11
12023.642171953699
 21
26315.59692523643
 31
0.0
  0
LINE
  5
6C2
  8
FUTO
 10
14573.280944570381
 20
22027.208229042521
 30
0.0
 11
14573.280944570381
 21
20946.208229042521
 31
0.0
  0
LINE
  5
6C3
  8
FUTO
 10
14568.780944570381
 20
22027.208229042521
 30
0.0
 11
14568.780944570381
 21
20946.208229042521
 31
0.0
  0
LINE
  5
6C5
  8
FUTO
 10
15633.280944570381
 20
22027.208229042521
 30
0.0
 11
15633.280944570381
 21
20946.208229042521
 31
0.0
  0
LINE
  5
6C6
  8
KL
 10
15639.280944570381
 20
22740.520971351551
 30
0.0
 11
15639.280944570381
 21
21331.895486733491
 31
0.0
  0
LINE
  5
6CD
  8
CT
 10
15103.280944570381
 20
23158.693645720381
 30
0.0
 11
15103.280944570381
 21
20626.208229042521
 31
0.0
  0
LINE
  5
6D4
  8
FUTO
 10
14493.780944570381
 20
22916.208229042521
 30
0.0
 11
14493.780944570381
 21
20946.208229042521
 31
0.0
  0
DIMENSION
  5
6D5
  8
FUTO
  2
*D13
 10
16102.89080632661
 20
21336.208229042521
 30
0.0
 11
16042.890806326601
 21
22036.208229042531
 31
0.0
 70
     0
  1
%%C<>
 13
15737.280944570381
 23
22736.208229042521
 33
0.0
 14
15737.280944570381
 24
21336.208229042521
 34
0.0
 50
90.0
1001
ACAD
1000
DSTYLE
1002
{
1070
    40
1040
30.0
1070
   176
1070
     2
1070
   177
1070
     2
1070
   178
1070
     2
1070
   341
1005
44D5
1070
     5
1000
OPEN30
1002
}
  0
LINE
  5
6E2
  8
KL
 10
15642.48094457038
 20
22027.208229042521
 30
0.0
 11
15642.48094457038
 21
21286.208229042521
 31
0.0
  0
LINE
  5
6E6
  8
FUTO
 10
15731.280944570381
 20
22786.208229042521
 30
0.0
 11
15731.280944570381
 21
21286.208229042521
 31
0.0
  0
LINE
  5
6E7
  8
FUTO
 10
15737.280944570381
 20
22786.208229042521
 30
0.0
 11
15737.280944570381
 21
21286.208229042521
 31
0.0
  0
LINE
  5
703
  8
KL
 10
14568.780944570381
 20
20833.303265973031
 30
0.0
 11
15636.48094457038
 21
20833.303265973031
 31
0.0
  0
LINE
  5
70B
  8
CT
 10
14524.280944570381
 20
20816.37231017424
 30
0.0
 11
14524.280944570381
 21
20750.83947505154
 31
0.0
1001
ACAD
1000
ASC_BOUNDS
1002
{
1070
    19
1002
}
  0
LINE
  5
70E
  8
KL
 10
14568.780944570381
 20
20946.208229042521
 30
0.0
 11
14568.780944570381
 21
20833.303265973031
 31
0.0
  0
LINE
  5
70F
  8
KL
 10
14573.280944570381
 20
20946.208229042521
 30
0.0
 11
14573.280944570381
 21
20833.303265973031
 31
0.0
  0
LINE
  5
724
  8
CT
 10
15680.280944570381
 20
20815.731657973989
 30
0.0
 11
15680.280944570381
 21
20762.761004400028
 31
0.0
1001
ACAD
1000
ASC_BOUNDS
1002
{
1070
    19
1002
}
  0
LINE
  5
725
  8
KL
 10
15633.280944570381
 20
20946.208229042521
 30
0.0
 11
15633.280944570381
 21
20833.303265973031
 31
0.0
  0
LINE
  5
72B
  8
KL
 10
15642.48094457038
 20
21330.208229042521
 30
0.0
 11
15711.48094457038
 21
21330.208229042521
 31
0.0
  0
LINE
  5
72C
  8
KL
 10
15636.48094457038
 20
21336.208229042521
 30
0.0
 11
15737.280944570381
 21
21336.208229042521
 31
0.0
  0
LINE
  5
72D
  8
CT
 10
15603.996246975281
 20
21303.708229042521
 30
0.0
 11
15661.03898010732
 21
21303.708229042521
 31
0.0
  0
LINE
  5
72E
  8
KL
 10
15636.48094457038
 20
21286.208229042521
 30
0.0
 11
15642.48094457038
 21
21286.208229042521
 31
0.0
  0
LINE
  5
72F
  8
FUTO
 10
15711.48094457038
 20
21330.208229042521
 30
0.0
 11
15731.280944570381
 21
21330.208229042521
 31
0.0
  0
LINE
  5
730
  8
CT
 10
15708.161209657739
 20
21303.708229042521
 30
0.0
 11
15768.304063411621
 21
21303.708229042521
 31
0.0
  0
LINE
  5
731
  8
FUTO
 10
15731.280944570381
 20
21286.208229042521
 30
0.0
 11
15737.280944570381
 21
21286.208229042521
 31
0.0
  0
LINE
  5
7FD
  8
FUTO
 10
14493.780944570381
 20
22027.208229042521
 30
0.0
 11
15711.48094457038
 21
22027.208229042521
 31
0.0
  0
LINE
  5
7FE
  8
FUTO
 10
14493.780944570381
 20
22045.208229042521
 30
0.0
 11
15711.48094457038
 21
22045.208229042521
 31
0.0
  0
LINE
  5
7FF
  8
FUTO
 10
14493.780944570381
 20
22916.208229042521
 30
0.0
 11
15711.48094457038
 21
22916.208229042521
 31
0.0
  0
DIMENSION
  5
800
  8
FUTO
  2
*D14
 10
15737.280944570381
 20
23441.191787488839
 30
0.0
 11
15420.280944570381
 21
23501.191787488839
 31
0.0
 70
     0
 13
15103.280944570381
 23
23286.804693148169
 33
0.0
 14
15737.280944570381
 24
22786.208229042521
 34
0.0
1001
ACAD
1000
DSTYLE
1002
{
1070
    40
1040
30.0
1070
   176
1070
     2
1070
   177
1070
     2
1070
   178
1070
     2
1070
   341
1005
44D5
1070
     5
1000
OPEN30
1002
}
  0
DIMENSION
  5
80D
  8
FUTO
  2
*D15
 10
15633.280944570381
 20
23179.331221136861
 30
0.0
 11
15103.280944570381
 21
23179.331221136861
 31
0.0
 70
   128
 13
14573.280944570381
 23
22916.208229042521
 33
0.0
 14
15633.280944570381
 24
22916.208229042521
 34
0.0
1001
ACAD
1000
DSTYLE
1002
{
1070
    40
1040
30.0
1070
   176
1070
     2
1070
   177
1070
     2
1070
   178
1070
     2
1070
   341
1005
44D5
1070
     5
1000
OPEN30
1002
}
  0
LINE
  5
81F
  8
FUTO
 10
14518.780944570381
 20
22966.208229042521
 30
0.0
 11
15687.780944570381
 21
22966.208229042521
 31
0.0
  0
LINE
  5
820
  8
FUTO
 10
14518.780944570381
 20
22961.708229042521
 30
0.0
 11
15687.780944570381
 21
22961.708229042521
 31
0.0
  0
LINE
  5
826
  8
FUTO
 10
14568.780944570381
 20
22916.208229042521
 30
0.0
 11
14568.780944570381
 21
22045.208229042521
 31
0.0
  0
LINE
  5
827
  8
FUTO
 10
14573.280944570381
 20
22916.208229042521
 30
0.0
 11
14573.280944570381
 21
22045.208229042521
 31
0.0
  0
LINE
  5
831
  8
FUTO
 10
14518.780944570381
 20
22966.208229042521
 30
0.0
 11
14518.780944570381
 21
22916.208229042521
 31
0.0
  0
INSERT
  5
841
  8
FUTO
  2
まっすぐの矢印
 10
15799.127725259779
 20
22592.460117362509
 30
0.0
 41
-2.0
 42
2.0
 43
2.0
 50
90.0
  0
LINE
  5
842
  8
FUTO
 10
15633.280944570381
 20
22916.208229042521
 30
0.0
 11
15633.280944570381
 21
22045.208229042521
 31
0.0
  0
LINE
  5
844
  8
KL
 10
15642.48094457038
 20
22786.208229042521
 30
0.0
 11
15642.48094457038
 21
22045.208229042521
 31
0.0
  0
LINE
  5
845
  8
KL
 10
15642.48094457038
 20
22742.208229042521
 30
0.0
 11
15712.780944570381
 21
22742.20822904251
 31
0.0
  0
LINE
  5
846
  8
KL
 10
15636.48094457038
 20
22736.208229042521
 30
0.0
 11
15737.280944570381
 21
22736.208229042521
 31
0.0
  0
LINE
  5
847
  8
CT
 10
15613.82484332652
 20
22768.708229042521
 30
0.0
 11
15656.53048175177
 21
22768.708229042521
 31
0.0
  0
LINE
  5
848
  8
KL
 10
15636.48094457038
 20
22786.208229042521
 30
0.0
 11
15642.48094457038
 21
22786.208229042521
 31
0.0
  0
LINE
  5
849
  8
FUTO
 10
15687.780944570381
 20
22966.208229042521
 30
0.0
 11
15687.780944570381
 21
22916.208229042521
 31
0.0
  0
LINE
  5
84A
  8
FUTO
 10
15712.780944570381
 20
22742.208229042521
 30
0.0
 11
15731.280944570381
 21
22742.208229042521
 31
0.0
  0
LINE
  5
84B
  8
CT
 10
15708.519957308181
 20
22768.708229042521
 30
0.0
 11
15760.50943286459
 21
22768.708229042521
 31
0.0
  0
LINE
  5
84C
  8
FUTO
 10
15731.280944570381
 20
22786.208229042521
 30
0.0
 11
15737.280944570381
 21
22786.208229042521
 31
0.0
  0
POLYLINE
  8
0
  5
52E4
  62
2
  66
     1
 10
0.000000
 20
0.000000
 30
0.000000
  70
     8
  0
VERTEX
  8
0
  5
52E5
 10
12303.5
 20
22160.4
 30
0.000000
  70
    32
  0
VERTEX
  8
0
  5
52E6
 10
12303.5
 20
22036.2
 30
0.000000
  70
    32
  0
SEQEND
  8
0
  5
52E7
  0
POLYLINE
  8
0
  5
52E8
  62
2
  66
     1
 10
0.000000
 20
0.000000
 30
0.000000
  70
     8
  0
VERTEX
  8
0
  5
52E9
 10
12303.5
 20
21912.0
 30
0.000000
  70
    32
  0
VERTEX
  8
0
  5
52EA
 10
12303.5
 20
22036.2
 30
0.000000
  70
    32
  0
SEQEND
  8
0
  5
52EB
  0
POLYLINE
  8
0
  5
52EC
  62
2
  66
     1
 10
0.000000
 20
0.000000
 30
0.000000
  70
     8
  0
VERTEX
  8
0
  5
52ED
 10
9659.67
 20
22160.4
 30
0.000000
  70
    32
  0
VERTEX
  8
0
  5
52EE
 10
9659.67
 20
22036.2
 30
0.000000
  70
    32
  0
SEQEND
  8
0
  5
52EF
  0
POLYLINE
  8
0
  5
52F0
  62
2
  66
     1
 10
0.000000
 20
0.000000
 30
0.000000
  70
     8
  0
VERTEX
  8
0
  5
52F1
 10
9659.67
 20
21912.0
 30
0.000000
  70
    32
  0
VERTEX
  8
0
  5
52F2
 10
9659.67
 20
22036.2
 30
0.000000
  70
    32
  0
SEQEND
  8
0
  5
52F3
  0
LINE
  5
971
  8
FUTO
 10
11373.642171953699
 20
22045.208229042521
 30
0.0
 11
11373.642171953699
 21
22027.208229042521
 31
0.0
  0
LINE
  5
972
  8
FUTO
 10
10973.642171953699
 20
22045.208229042521
 30
0.0
 11
10973.642171953699
 21
22027.208229042521
 31
0.0
  0
LINE
  5
973
  8
FUTO
 10
10973.642171953699
 20
22045.208229042521
 30
0.0
 11
9715.5135275729026
 21
22045.208229042521
 31
0.0
  0
LINE
  5
974
  8
FUTO
 10
10973.642171953699
 20
22027.208229042521
 30
0.0
 11
9715.5135275729026
 21
22027.208229042521
 31
0.0
  0
LINE
  5
990
  8
FUTO
 10
12226.642171953699
 20
22045.208229042521
 30
0.0
 11
12226.642171953699
 21
22027.208229042521
 31
0.0
  0
POLYLINE
  5
119F
  8
FUTO
 66
     1
 10
0.0
 20
0.0
 30
0.0
 70
     1
1001
ACAD
1000
ASC_BOUNDS
1002
{
1070
    19
1002
}
  0
VERTEX
  5
52CF
  8
FUTO
 10
14489.280944570381
 20
20796.208229042521
 30
0.0
  0
VERTEX
  5
52D0
  8
FUTO
 10
14489.280944570381
 20
20799.546417620691
 30
0.0
 42
-0.3888787318529885
  0
VERTEX
  5
52D1
  8
FUTO
 10
14492.93232159939
 20
20803.531196413049
 30
0.0
  0
VERTEX
  5
52D2
  8
FUTO
 10
14554.129567541369
 20
20808.885261671981
 30
0.0
 42
0.3888787318529894
  0
VERTEX
  5
52D3
  8
FUTO
 10
14557.780944570381
 20
20812.87004046435
 30
0.0
  0
VERTEX
  5
52D4
  8
FUTO
 10
14557.780944570381
 20
20929.546417620691
 30
0.0
 42
0.3888787318529893
  0
VERTEX
  5
52D5
  8
FUTO
 10
14554.129567541369
 20
20933.53119641306
 30
0.0
  0
VERTEX
  5
52D6
  8
FUTO
 10
14492.93232159939
 20
20938.885261671981
 30
0.0
 42
-0.3888787318529887
  0
VERTEX
  5
52D7
  8
FUTO
 10
14489.280944570381
 20
20942.87004046435
 30
0.0
  0
VERTEX
  5
52D8
  8
FUTO
 10
14489.280944570381
 20
20946.208229042521
 30
0.0
  0
VERTEX
  5
52D9
  8
FUTO
 10
14564.280944570381
 20
20946.208229042521
 30
0.0
  0
VERTEX
  5
52DA
  8
FUTO
 10
14564.280944570381
 20
20796.208229042521
 30
0.0
  0
SEQEND
  5
52DB
  8
FUTO
  0
LINE
  5
1840
  8
FUTO
 10
10748.642171953699
 20
25120.596925236441
 30
0.0
 11
10748.642171953699
 21
24211.596925236441
 31
0.0
  0
LINE
  5
1841
  8
FUTO
 10
10673.642171953699
 20
25120.596925236441
 30
0.0
 11
10673.642171953699
 21
24211.596925236441
 31
0.0
  0
DIMENSION
  5
1F4D
  8
FUTO
  2
*D6
 10
12651.53397100542
 20
22966.208229042521
 30
0.0
 11
12591.53397100542
 21
22501.208229042531
 31
0.0
 70
     0
 13
12351.646150601029
 23
22036.208229042521
 33
0.0
 14
11165.62437199247
 24
22966.208229042521
 34
0.0
 50
270.0
1001
ACAD
1000
DSTYLE
1002
{
1070
    40
1040
30.0
1070
   176
1070
     2
1070
   177
1070
     2
1070
   178
1070
     2
1070
   341
1005
44D5
1070
     5
1000
OPEN30
1002
}
  0
LINE
  5
1FF1
  8
FUTO
 10
15636.48094457038
 20
22916.208229042521
 30
0.0
 11
15636.48094457038
 21
22045.208229042521
 31
0.0
  0
LINE
  5
1FF2
  8
FUTO
 10
15636.48094457038
 20
22027.208229042521
 30
0.0
 11
15636.48094457038
 21
20946.208229042521
 31
0.0
  0
LINE
  5
1FF3
  8
KL
 10
15636.48094457038
 20
20946.208229042521
 30
0.0
 11
15636.48094457038
 21
20833.303265973031
 31
0.0
  0
LINE
  5
1FF5
  8
FUTO
 10
15711.48094457038
 20
22916.208229042521
 30
0.0
 11
15711.48094457038
 21
20946.208229042521
 31
0.0
  0
DIMENSION
  5
2003
  8
FUTO
  2
*D7
 10
15715.280944570381
 20
20378.17430680056
 30
0.0
 11
14615.280944570381
 21
20438.17430680056
 31
0.0
 70
     0
 13
13515.280944570381
 23
20796.208229042521
 33
0.0
 14
15715.280944570381
 24
20796.208229042521
 34
0.0
1001
ACAD
1000
DSTYLE
1002
{
1070
    40
1040
30.0
1070
   176
1070
     2
1070
   177
1070
     2
1070
   178
1070
     2
1070
   341
1005
44D5
1070
     5
1000
OPEN30
1002
}
  0
ARC
  5
256F
  8
FUTO
 10
11071.642171953699
 20
22138.208229042521
 30
0.0
 40
1329.0
 50
235.74685544800971
 51
236.26829289235809
  0
ARC
  5
2570
  8
FUTO
 10
11071.642171953699
 20
22138.208229042521
 30
0.0
 40
1329.0
 50
236.73358966698379
 51
243.75547144267921
  0
LINE
  5
25BB
  8
CT
 10
11173.642171953699
 20
24728.270193957502
 30
0.0
 11
11173.642171953699
 21
24726.211063626331
 31
0.0
  0
TEXT
  5
29E7
  8
SP
 10
9149.8042194081445
 20
6129.2813767066364
 30
0.0
 40
100.0
  1
 
  0
LINE
  5
3207
  8
FUTO
 10
15636.55636323147
 20
20879.108365209198
 30
0.0
 11
15779.75636323147
 21
20879.108365209238
 31
0.0
  0
LINE
  5
3208
  8
FUTO
 10
15636.556363231481
 20
20845.108365209198
 30
0.0
 11
15779.75636323149
 21
20845.108365209238
 31
0.0
  0
LINE
  5
320D
  8
FUTO
 10
15779.75636323149
 20
20840.108365209238
 30
0.0
 11
15809.75636323149
 21
20840.108365209238
 31
0.0
  0
LINE
  5
320E
  8
FUTO
 10
15779.75636323147
 20
20884.108365209238
 30
0.0
 11
15809.75636323147
 21
20884.108365209238
 31
0.0
  0
LINE
  5
320F
  8
FUTO
 10
15779.75636323147
 20
20884.108365209238
 30
0.0
 11
15779.75636323149
 21
20840.108365209238
 31
0.0
  0
LINE
  5
3210
  8
FUTO
 10
15809.75636323147
 20
20884.108365209238
 30
0.0
 11
15809.75636323149
 21
20840.108365209238
 31
0.0
  0
LINE
  5
3235
  8
FUTO
 10
9768.6455697642396
 20
21761.061233862489
 30
0.0
 11
9791.395966344513
 21
21768.549218763521
 31
0.0
  0
LINE
  5
3236
  8
FUTO
 10
9807.7252767704904
 20
21642.327175983952
 30
0.0
 11
9834.0249717683746
 21
21650.983364387121
 31
0.0
  0
LINE
  5
3237
  8
FUTO
 10
9762.2732216944569
 20
21748.436132671701
 30
0.0
 11
9795.100175579706
 21
21648.699524053729
 31
0.0
  0
ARC
  5
3238
  8
FUTO
 10
9771.7719463247395
 20
21751.562509232201
 30
0.0
 40
10.0
 50
108.2182600027899
 51
198.21826000278989
  0
ARC
  5
3239
  8
FUTO
 10
9804.5989002099905
 20
21651.825900614222
 30
0.0
 40
10.0
 50
198.21826000278989
 51
288.21826000278992
  0
LINE
  5
323A
  8
FUTO
 10
9765.5191932037396
 20
21770.55995849277
 30
0.0
 11
9788.4685729130179
 21
21778.113435995681
 31
0.0
  0
ARC
  5
323B
  8
FUTO
 10
9771.7719463247395
 20
21751.562509232201
 30
0.0
 40
20.0
 50
108.2182600027899
 51
198.21826000278989
  0
LINE
  5
323C
  8
FUTO
 10
9752.7744970641725
 20
21745.309756111212
 30
0.0
 11
9785.6014509494235
 21
21645.573147493222
 31
0.0
  0
ARC
  5
323D
  8
FUTO
 10
9804.5989002099905
 20
21651.825900614222
 30
0.0
 40
20.0
 50
198.21826000278989
 51
288.21826000278992
  0
LINE
  5
323E
  8
FUTO
 10
9810.8516533309921
 20
21632.82845135366
 30
0.0
 11
9837.9197998839336
 21
21641.737565178209
 31
0.0
  0
LINE
  5
3241
  8
CT
 10
9727.2053853029083
 20
21681.62345134619
 30
0.0
 11
9995.3125844444548
 21
21769.86730467626
 31
0.0
  0
DIMENSION
  5
393B
  8
FUTO
  2
*D8
 10
15715.280944570381
 20
20559.504748058149
 30
0.0
 11
15409.280944570381
 21
20619.504748058149
 31
0.0
 70
     0
 13
15103.280944570381
 23
20796.208229042521
 33
0.0
 14
15715.280944570381
 24
20796.208229042521
 34
0.0
1001
ACAD
1000
DSTYLE
1002
{
1070
    40
1040
30.0
1070
   176
1070
     2
1070
   177
1070
     2
1070
   178
1070
     2
1070
   341
1005
44D5
1070
     5
1000
OPEN30
1002
}
  0
DIMENSION
  5
3948
  8
FUTO
  2
*D9
 10
13515.280944570381
 20
20559.50998898075
 30
0.0
 11
14309.280944570381
 21
20619.50998898075
 31
0.0
 70
     0
 13
15103.280944570381
 23
20796.208229042521
 33
0.0
 14
13515.280944570381
 24
20796.208229042521
 34
0.0
1001
ACAD
1000
DSTYLE
1002
{
1070
    40
1040
30.0
1070
   176
1070
     2
1070
   177
1070
     2
1070
   178
1070
     2
1070
   341
1005
44D5
1070
     5
1000
OPEN30
1002
}
  0
POLYLINE
  5
3949
  8
FUTO
 66
     1
 10
0.0
 20
0.0
 30
0.0
  0
VERTEX
  5
52DC
  8
FUTO
 10
14493.280944570381
 20
20946.208229042521
 30
0.0
  0
VERTEX
  5
52DD
  8
FUTO
 10
14568.280944570381
 20
20946.208229042521
 30
0.0
  0
SEQEND
  5
52DE
  8
FUTO
  0
LINE
  5
3AE6
  8
FUTO
 10
13576.780944570381
 20
21928.208229042521
 30
0.0
 11
13576.780944570381
 21
20946.208229042521
 31
0.0
  0
LINE
  5
3AE7
  8
FUTO
 10
13576.780944570381
 20
21928.208229042521
 30
0.0
 11
13586.780944570381
 21
21928.208229042521
 31
0.0
  0
LINE
  5
3AE8
  8
FUTO
 10
13586.780944570381
 20
21928.208229042521
 30
0.0
 11
13586.780944570381
 21
21918.208229042521
 31
0.0
  0
LINE
  5
3AEA
  8
FUTO
 10
13586.780944570381
 20
21918.208229042521
 30
0.0
 11
14493.780944570381
 21
21918.208229042521
 31
0.0
  0
LINE
  5
3B39
  8
FUTO
 10
13697.280944570381
 20
21973.208229042521
 30
0.0
 11
13609.280944570381
 21
21973.208229042521
 31
0.0
  0
LINE
  5
3B3A
  8
FUTO
 10
13598.280944570381
 20
21936.208229042521
 30
0.0
 11
13708.280944570381
 21
21936.208229042521
 31
0.0
  0
LINE
  5
3B3B
  8
FUTO
 10
13703.280944570381
 20
22129.208229042521
 30
0.0
 11
13603.280944570381
 21
22129.208229042521
 31
0.0
  0
LINE
  5
3B3C
  8
FUTO
 10
13603.280944570381
 20
22129.208229042521
 30
0.0
 11
13603.280944570381
 21
21936.208229042521
 31
0.0
  0
LINE
  5
3B3D
  8
FUTO
 10
13582.780944570381
 20
22111.208229042521
 30
0.0
 11
13582.780944570381
 21
21961.208229042521
 31
0.0
  0
LINE
  5
3B3E
  8
FUTO
 10
13588.280944570381
 20
22120.208229042521
 30
0.0
 11
13588.280944570381
 21
21952.208229042521
 31
0.0
  0
LINE
  5
3B40
  8
FUTO
 10
13582.780944570381
 20
21961.208229042521
 30
0.0
 11
13588.280944570381
 21
21961.208229042521
 31
0.0
  0
ARC
  5
3B41
  8
FUTO
 10
13609.280944570381
 20
21967.208229042521
 30
0.0
 40
6.0
 50
90.0
 51
180.0
  0
LINE
  5
3B42
  8
FUTO
 10
13594.280944570381
 20
21946.208229042521
 30
0.0
 11
13603.280944570381
 21
21946.208229042521
 31
0.0
  0
ARC
  5
3B43
  8
FUTO
 10
13594.280944570381
 20
21952.208229042521
 30
0.0
 40
6.0
 50
180.0
 51
270.0
  0
LINE
  5
3B44
  8
FUTO
 10
13588.280944570381
 20
22111.208229042521
 30
0.0
 11
13582.780944570381
 21
22111.208229042521
 31
0.0
  0
ARC
  5
3B45
  8
FUTO
 10
13594.280944570381
 20
22120.208229042521
 30
0.0
 40
6.0
 50
90.0
 51
180.0
  0
LINE
  5
3B46
  8
FUTO
 10
13603.280944570381
 20
22126.208229042521
 30
0.0
 11
13594.280944570381
 21
22126.208229042521
 31
0.0
  0
LINE
  5
3B47
  8
FUTO
 10
13703.280944570381
 20
21936.208229042521
 30
0.0
 11
13703.280944570381
 21
22129.208229042521
 31
0.0
  0
LINE
  5
3B48
  8
FUTO
 10
13718.280944570381
 20
22120.208229042521
 30
0.0
 11
13718.280944570381
 21
21952.208229042521
 31
0.0
  0
LINE
  5
3B49
  8
FUTO
 10
13723.780944570381
 20
22111.208229042521
 30
0.0
 11
13723.780944570381
 21
21961.208229042521
 31
0.0
  0
LINE
  5
3B4A
  8
FUTO
 10
13712.280944570381
 20
21946.208229042521
 30
0.0
 11
13703.280944570381
 21
21946.208229042521
 31
0.0
  0
ARC
  5
3B4B
  8
FUTO
 10
13697.280944570381
 20
21967.208229042521
 30
0.0
 40
6.0
 50
0.0
 51
90.0
  0
ARC
  5
3B4C
  8
FUTO
 10
13712.280944570381
 20
21952.208229042521
 30
0.0
 40
6.0
 50
270.0
 51
0.0
  0
LINE
  5
3B4D
  8
FUTO
 10
13723.780944570381
 20
21961.208229042521
 30
0.0
 11
13718.280944570381
 21
21961.208229042521
 31
0.0
  0
LINE
  5
3B4E
  8
FUTO
 10
13703.280944570381
 20
22126.208229042521
 30
0.0
 11
13712.280944570381
 21
22126.208229042521
 31
0.0
  0
ARC
  5
3B4F
  8
FUTO
 10
13712.280944570381
 20
22120.208229042521
 30
0.0
 40
6.0
 50
0.0
 51
90.0
  0
LINE
  5
3B50
  8
FUTO
 10
13718.280944570381
 20
22111.208229042521
 30
0.0
 11
13723.780944570381
 21
22111.208229042521
 31
0.0
  0
LINE
  5
3B51
  8
FUTO
 10
13598.280944570381
 20
21936.208229042521
 30
0.0
 11
13598.280944570381
 21
21918.208229042521
 31
0.0
  0
LINE
  5
3B52
  8
FUTO
 10
13708.280944570381
 20
21936.208229042521
 30
0.0
 11
13708.280944570381
 21
21918.208229042521
 31
0.0
  0
LINE
  5
3BBC
  8
FUTO
 10
14429.780944570381
 20
22140.208229042521
 30
0.0
 11
14296.780944570381
 21
22140.208229042521
 31
0.0
  0
LINE
  5
3BBD
  8
FUTO
 10
14412.280944570381
 20
21960.208229042521
 30
0.0
 11
14314.280944570381
 21
21960.208229042521
 31
0.0
  0
LINE
  5
3BBE
  8
FUTO
 10
14298.280944570381
 20
21924.208229042521
 30
0.0
 11
14428.280944570381
 21
21924.208229042521
 31
0.0
  0
LINE
  5
3BC0
  8
FUTO
 10
14308.280944570381
 20
22140.208229042521
 30
0.0
 11
14308.280944570381
 21
21924.208229042521
 31
0.0
  0
LINE
  5
3BC1
  8
FUTO
 10
14285.780944570381
 20
22126.208229042521
 30
0.0
 11
14285.780944570381
 21
21946.208229042521
 31
0.0
  0
LINE
  5
3BC2
  8
FUTO
 10
14290.780944570381
 20
22134.208229042521
 30
0.0
 11
14290.780944570381
 21
21938.208229042521
 31
0.0
  0
LINE
  5
3BC3
  8
FUTO
 10
14285.780944570381
 20
21946.208229042521
 30
0.0
 11
14290.780944570381
 21
21946.208229042521
 31
0.0
  0
ARC
  5
3BC4
  8
FUTO
 10
14314.280944570381
 20
21954.208229042521
 30
0.0
 40
6.0
 50
90.0
 51
180.0
  0
LINE
  5
3BC5
  8
FUTO
 10
14296.780944570381
 20
21932.208229042521
 30
0.0
 11
14308.280944570381
 21
21932.208229042521
 31
0.0
  0
ARC
  5
3BC6
  8
FUTO
 10
14296.780944570381
 20
21938.208229042521
 30
0.0
 40
6.0
 50
180.0
 51
270.0
  0
LINE
  5
3BC7
  8
FUTO
 10
14290.780944570381
 20
22126.208229042521
 30
0.0
 11
14285.780944570381
 21
22126.208229042521
 31
0.0
  0
ARC
  5
3BC8
  8
FUTO
 10
14296.780944570381
 20
22134.208229042521
 30
0.0
 40
6.0
 50
90.0
 51
180.0
  0
LINE
  5
3BC9
  8
FUTO
 10
14418.280944570381
 20
22140.208229042521
 30
0.0
 11
14418.280944570381
 21
21924.208229042521
 31
0.0
  0
LINE
  5
3BCA
  8
FUTO
 10
14435.780944570381
 20
22134.208229042521
 30
0.0
 11
14435.780944570381
 21
21938.208229042521
 31
0.0
  0
LINE
  5
3BCB
  8
FUTO
 10
14440.780944570381
 20
22126.208229042521
 30
0.0
 11
14440.780944570381
 21
21946.208229042521
 31
0.0
  0
ARC
  5
3BCC
  8
FUTO
 10
14412.280944570381
 20
21954.208229042521
 30
0.0
 40
6.0
 50
0.0
 51
90.0
  0
LINE
  5
3BCD
  8
FUTO
 10
14429.780944570381
 20
21932.208229042521
 30
0.0
 11
14418.280944570381
 21
21932.208229042521
 31
0.0
  0
ARC
  5
3BCE
  8
FUTO
 10
14429.780944570381
 20
21938.208229042521
 30
0.0
 40
6.0
 50
270.0
 51
0.0
  0
LINE
  5
3BCF
  8
FUTO
 10
14440.780944570381
 20
21946.208229042521
 30
0.0
 11
14435.780944570381
 21
21946.208229042521
 31
0.0
  0
ARC
  5
3BD0
  8
FUTO
 10
14429.780944570381
 20
22134.208229042521
 30
0.0
 40
6.0
 50
0.0
 51
90.0
  0
LINE
  5
3BD1
  8
FUTO
 10
14435.780944570381
 20
22126.208229042521
 30
0.0
 11
14440.780944570381
 21
22126.208229042521
 31
0.0
  0
LINE
  5
3C31
  8
SL
 10
13767.522961789869
 20
22162.907132073669
 30
0.0
 11
14232.799374675469
 21
22162.907132073669
 31
0.0
  0
LINE
  5
3C32
  8
FUTO
 10
14298.280944570381
 20
21924.208229042521
 30
0.0
 11
14298.280944570381
 21
21918.208229042521
 31
0.0
  0
LINE
  5
3C33
  8
FUTO
 10
14428.280944570381
 20
21924.208229042521
 30
0.0
 11
14428.280944570381
 21
21918.208229042521
 31
0.0
  0
DIMENSION
  5
3C4B
  8
SP
  2
*D11
 10
15103.280944570381
 20
23441.191787488839
 30
0.0
 11
14193.280944570381
 21
23501.191787488839
 31
0.0
 70
     0
 13
13283.280944570381
 23
22416.208229042521
 33
0.0
 14
15103.280944570381
 24
23316.80469314818
 34
0.0
1001
ACAD
1000
DSTYLE
1002
{
1070
    40
1040
30.0
1070
   176
1070
     2
1070
   177
1070
     2
1070
   178
1070
     2
1070
   341
1005
44D5
1070
     5
1000
OPEN30
1002
}
  0
LINE
  5
3C62
  8
SL
 10
13767.522961789869
 20
22162.907132073669
 30
0.0
 11
13767.522961789869
 21
21908.208229042521
 31
0.0
  0
LINE
  5
3C63
  8
SL
 10
14232.799374675469
 20
22162.907132073669
 30
0.0
 11
14232.799374675469
 21
21908.208229042521
 31
0.0
  0
ARC
  5
3C73
  8
FUTO
 10
11071.642171953699
 20
22138.208229042521
 30
0.0
 40
1329.0
 50
231.30557347923079
 51
235.35767514530929
  0
LINE
  5
3C79
  8
FUTO
 10
11218.642171953699
 20
24351.59692523643
 30
0.0
 11
11218.642171953699
 21
24920.596925236441
 31
0.0
  0
LINE
  5
3C7A
  8
FUTO
 10
11128.642171953699
 20
24351.59692523643
 30
0.0
 11
11128.642171953699
 21
24920.596925236441
 31
0.0
  0
LINE
  5
3C7B
  8
FUTO
 10
11553.642171953699
 20
23911.59692523643
 30
0.0
 11
9753.6421719537029
 21
23911.59692523643
 31
0.0
  0
LINE
  5
3C7D
  8
SL
 10
11423.642171953699
 20
24099.496925236432
 30
0.0
 11
9867.6421719537047
 21
24099.496925236432
 31
0.0
  0
LINE
  5
3C7E
  8
SL
 10
11423.642171953699
 20
24021.59692523643
 30
0.0
 11
9867.6421719537047
 21
24021.59692523643
 31
0.0
  0
LINE
  5
3C7F
  8
CT
 10
11292.145668913819
 20
24281.59692523643
 30
0.0
 11
11010.81154016698
 21
24281.59692523643
 31
0.0
  0
LINE
  5
3C80
  8
CT
 10
9973.6421719537047
 20
23874.640195715721
 30
0.0
 11
9973.6421719537047
 21
24177.458878827169
 31
0.0
  0
LINE
  5
3C81
  8
SL
 10
10079.642171953699
 20
24021.59692523643
 30
0.0
 11
10079.642171953699
 21
24099.496925236432
 31
0.0
  0
LINE
  5
3C82
  8
SL
 10
9867.6421719537047
 20
24021.59692523643
 30
0.0
 11
9867.6421719537047
 21
24099.496925236432
 31
0.0
  0
LINE
  5
3C83
  8
FUTO
 10
9920.6995982294957
 20
24166.59692523643
 30
0.0
 11
9753.6421719537029
 21
24166.59692523643
 31
0.0
  0
LINE
  5
3C84
  8
SL
 10
10033.642171953699
 20
24114.596925236441
 30
0.0
 11
9913.6421719537047
 21
24114.596925236441
 31
0.0
  0
LINE
  5
3C85
  8
SL
 10
10033.642171953699
 20
24099.496925236432
 30
0.0
 11
10033.642171953699
 21
24114.596925236441
 31
0.0
  0
LINE
  5
3C86
  8
SL
 10
9913.6421719537047
 20
24099.496925236432
 30
0.0
 11
9913.6421719537047
 21
24114.596925236441
 31
0.0
  0
LINE
  5
3C87
  8
SL
 10
10923.642171953699
 20
24021.59692523643
 30
0.0
 11
10923.642171953699
 21
24099.496925236432
 31
0.0
  0
LINE
  5
3C88
  8
FUTO
 10
11266.642171953699
 20
24331.596925236441
 30
0.0
 11
11266.642171953699
 21
24231.59692523643
 31
0.0
  0
LINE
  5
3C8B
  8
FUTO
 10
11553.642171953699
 20
24166.59692523643
 30
0.0
 11
11327.33254185941
 21
24166.59692523643
 31
0.0
  0
LINE
  5
3C8C
  8
SL
 10
11423.642171953699
 20
24021.59692523643
 30
0.0
 11
11423.642171953699
 21
24099.496925236432
 31
0.0
  0
LINE
  5
3C8D
  8
FUTO
 10
11216.142171953699
 20
24121.59692523643
 30
0.0
 11
11216.142171953699
 21
24211.09692523643
 31
0.0
  0
LINE
  5
3C8E
  8
FUTO
 10
11131.142171953699
 20
24121.59692523643
 30
0.0
 11
11131.142171953699
 21
24211.09692523643
 31
0.0
  0
LINE
  5
3C8F
  8
SL
 10
11253.642171953699
 20
24099.496925236432
 30
0.0
 11
11253.642171953699
 21
24121.59692523643
 31
0.0
  0
LINE
  5
3C90
  8
SL
 10
11093.642171953699
 20
24099.496925236432
 30
0.0
 11
11093.642171953699
 21
24121.59692523643
 31
0.0
  0
LINE
  5
3C91
  8
SL
 10
11253.642171953699
 20
24121.59692523643
 30
0.0
 11
11093.642171953699
 21
24121.59692523643
 31
0.0
  0
LINE
  5
3C94
  8
FUTO
 10
11263.642171953699
 20
24231.59692523643
 30
0.0
 11
11263.642171953699
 21
24222.59692523643
 31
0.0
  0
ARC
  5
3C95
  8
FUTO
 10
11257.642171953699
 20
24222.59692523643
 30
0.0
 40
6.0
 50
270.0
 51
0.000000000000007
  0
LINE
  5
3C96
  8
FUTO
 10
11248.642171953699
 20
24216.59692523643
 30
0.0
 11
11248.642171953699
 21
24211.09692523643
 31
0.0
  0
ARC
  5
3C97
  8
FUTO
 10
11089.642171953699
 20
24222.59692523643
 30
0.0
 40
6.0
 50
180.0
 51
270.0
  0
LINE
  5
3C98
  8
FUTO
 10
11083.642171953699
 20
24222.59692523643
 30
0.0
 11
11083.642171953699
 21
24231.59692523643
 31
0.0
  0
LINE
  5
3C9A
  8
FUTO
 10
11098.642171953699
 20
24211.09692523643
 30
0.0
 11
11098.642171953699
 21
24216.59692523643
 31
0.0
  0
LINE
  5
3C9B
  8
FUTO
 10
11257.642171953699
 20
24216.59692523643
 30
0.0
 11
11089.642171953699
 21
24216.59692523643
 31
0.0
  0
LINE
  5
3C9C
  8
FUTO
 10
11248.642171953699
 20
24211.09692523643
 30
0.0
 11
11098.642171953699
 21
24211.09692523643
 31
0.0
  0
LINE
  5
3C9D
  8
FUTO
 10
11266.642171953699
 20
24231.59692523643
 30
0.0
 11
11080.642171953699
 21
24231.59692523643
 31
0.0
  0
LINE
  5
3C9F
  8
FUTO
 10
11553.642171953699
 20
23911.59692523643
 30
0.0
 11
11553.642171953699
 21
24166.59692523643
 31
0.0
  0
POINT
  5
3CA0
  8
DEFPOINTS
 10
11553.642171953699
 20
23911.59692523643
 30
0.0
  0
LINE
  5
3CA3
  8
FUTO
 10
11248.642171953699
 20
24346.59692523643
 30
0.0
 11
11248.642171953699
 21
24352.09692523643
 31
0.0
  0
ARC
  5
3CA4
  8
FUTO
 10
11257.642171953699
 20
24340.59692523643
 30
0.0
 40
6.0
 50
0.000000000000007
 51
90.0
  0
LINE
  5
3CA5
  8
FUTO
 10
11263.642171953699
 20
24331.596925236441
 30
0.0
 11
11263.642171953699
 21
24340.59692523643
 31
0.0
  0
LINE
  5
3CA6
  8
FUTO
 10
11098.642171953699
 20
24352.09692523643
 30
0.0
 11
11098.642171953699
 21
24346.59692523643
 31
0.0
  0
ARC
  5
3CA7
  8
FUTO
 10
11089.642171953699
 20
24340.59692523643
 30
0.0
 40
6.0
 50
90.0
 51
180.0
  0
LINE
  5
3CA9
  8
FUTO
 10
11083.642171953699
 20
24340.59692523643
 30
0.0
 11
11083.642171953699
 21
24331.596925236441
 31
0.0
  0
LINE
  5
3CAA
  8
FUTO
 10
11248.642171953699
 20
24352.09692523643
 30
0.0
 11
11098.642171953699
 21
24352.09692523643
 31
0.0
  0
LINE
  5
3CAB
  8
FUTO
 10
11257.642171953699
 20
24346.59692523643
 30
0.0
 11
11089.642171953699
 21
24346.59692523643
 31
0.0
  0
LINE
  5
3CAC
  8
FUTO
 10
11080.642171953699
 20
24331.596925236441
 30
0.0
 11
11266.642171953699
 21
24331.596925236441
 31
0.0
  0
LINE
  5
3CAF
  8
FUTO
 10
11923.642171953699
 20
26365.59692523643
 30
0.0
 11
10423.642171953699
 21
26365.59692523643
 31
0.0
  0
LINE
  5
3CB0
  8
FUTO
 10
11923.642171953699
 20
26359.59692523643
 30
0.0
 11
10423.642171953699
 21
26359.59692523643
 31
0.0
  0
LINE
  5
3CB1
  8
KL
 10
11164.642171953699
 20
26270.796925236431
 30
0.0
 11
10423.642171953699
 21
26270.796925236431
 31
0.0
  0
LINE
  5
3CB5
  8
KL
 10
11877.954914262729
 20
26267.596925236441
 30
0.0
 11
10469.329429644669
 21
26267.596925236441
 31
0.0
  0
LINE
  5
3CB9
  8
CT
 10
11292.145668913819
 20
24991.59692523643
 30
0.0
 11
10988.478008738541
 21
24991.59692523643
 31
0.0
  0
LINE
  5
3CBA
  8
KL
 10
10473.642171953699
 20
26264.796925236431
 30
0.0
 11
10473.642171953699
 21
26365.59692523643
 31
0.0
  0
LINE
  5
3CBB
  8
KL
 10
10467.642171953699
 20
26270.796925236431
 30
0.0
 11
10467.642171953699
 21
26339.796925236431
 31
0.0
  0
LINE
  5
3CBC
  8
KL
 10
10423.642171953699
 20
26264.796925236431
 30
0.0
 11
10423.642171953699
 21
26270.796925236431
 31
0.0
  0
LINE
  5
3CBD
  8
CT
 10
10441.142171953699
 20
26232.312227641331
 30
0.0
 11
10441.142171953699
 21
26289.35496077338
 31
0.0
  0
LINE
  5
3CBE
  8
FUTO
 10
10423.642171953699
 20
26359.59692523643
 30
0.0
 11
10423.642171953699
 21
26365.59692523643
 31
0.0
  0
LINE
  5
3CBF
  8
CT
 10
10441.142171953699
 20
26336.4771903238
 30
0.0
 11
10441.142171953699
 21
26396.62004407767
 31
0.0
  0
LINE
  5
3CC0
  8
FUTO
 10
10467.642171953699
 20
26339.796925236431
 30
0.0
 11
10467.642171953699
 21
26359.59692523643
 31
0.0
  0
LINE
  5
3CC7
  8
FUTO
 10
11277.642171953699
 20
25058.09692523643
 30
0.0
 11
11277.642171953699
 21
24925.09692523643
 31
0.0
  0
ARC
  5
3CCA
  8
FUTO
 10
11271.642171953699
 20
24925.09692523643
 30
0.0
 40
6.0
 50
270.0
 51
0.000000000000007
  0
LINE
  5
3CCB
  8
FUTO
 10
11263.642171953699
 20
24919.09692523643
 30
0.0
 11
11263.642171953699
 21
24914.09692523643
 31
0.0
  0
ARC
  5
3CCC
  8
FUTO
 10
11075.642171953699
 20
24925.09692523643
 30
0.0
 40
6.0
 50
180.0
 51
270.0
  0
LINE
  5
3CCD
  8
FUTO
 10
11069.642171953699
 20
24925.09692523643
 30
0.0
 11
11069.642171953699
 21
24936.59692523643
 31
0.0
  0
LINE
  5
3CCF
  8
FUTO
 10
11083.642171953699
 20
24914.09692523643
 30
0.0
 11
11083.642171953699
 21
24919.09692523643
 31
0.0
  0
LINE
  5
3CD0
  8
FUTO
 10
11271.642171953699
 20
24919.09692523643
 30
0.0
 11
11075.642171953699
 21
24919.09692523643
 31
0.0
  0
LINE
  5
3CD1
  8
FUTO
 10
11263.642171953699
 20
24914.09692523643
 30
0.0
 11
11083.642171953699
 21
24914.09692523643
 31
0.0
  0
LINE
  5
3CD2
  8
FUTO
 10
11277.642171953699
 20
24936.59692523643
 30
0.0
 11
11069.642171953699
 21
24936.59692523643
 31
0.0
  0
LINE
  5
3CD4
  8
FUTO
 10
11263.642171953699
 20
25064.09692523643
 30
0.0
 11
11263.642171953699
 21
25069.096925236441
 31
0.0
  0
ARC
  5
3CD5
  8
FUTO
 10
11271.642171953699
 20
25058.09692523643
 30
0.0
 40
6.0
 50
0.000000000000007
 51
90.0
  0
LINE
  5
3CD6
  8
FUTO
 10
11083.642171953699
 20
25069.096925236441
 30
0.0
 11
11083.642171953699
 21
25064.09692523643
 31
0.0
  0
ARC
  5
3CD7
  8
FUTO
 10
11075.642171953699
 20
25058.09692523643
 30
0.0
 40
6.0
 50
90.0
 51
180.0
  0
LINE
  5
3CD8
  8
FUTO
 10
11069.642171953699
 20
25058.09692523643
 30
0.0
 11
11069.642171953699
 21
25046.59692523643
 31
0.0
  0
LINE
  5
3CDA
  8
FUTO
 10
11263.642171953699
 20
25069.096925236441
 30
0.0
 11
11083.642171953699
 21
25069.096925236441
 31
0.0
  0
LINE
  5
3CDB
  8
FUTO
 10
11271.642171953699
 20
25064.09692523643
 30
0.0
 11
11075.642171953699
 21
25064.09692523643
 31
0.0
  0
LINE
  5
3CDC
  8
FUTO
 10
11277.642171953699
 20
25046.59692523643
 30
0.0
 11
11069.642171953699
 21
25046.59692523643
 31
0.0
  0
LINE
  5
3CDD
  8
FUTO
 10
11128.642171953699
 20
25060.59692523643
 30
0.0
 11
11128.642171953699
 21
25123.39692523644
 31
0.0
  0
LINE
  5
3CDE
  8
FUTO
 10
11218.642171953699
 20
25060.59692523643
 30
0.0
 11
11218.642171953699
 21
25122.09692523643
 31
0.0
  0
LINE
  5
3CE2
  8
KL
 10
11923.642171953699
 20
26270.796925236431
 30
0.0
 11
11182.642171953699
 21
26270.796925236431
 31
0.0
  0
INSERT
  5
3CE3
  8
FUTO
  2
まっすぐの矢印
 10
11729.89406027368
 20
26427.443705925842
 30
0.0
 41
2.0
 42
2.0
 43
2.0
 50
180.0
  0
LINE
  5
3CE4
  8
KL
 10
11873.642171953699
 20
26264.796925236431
 30
0.0
 11
11873.642171953699
 21
26365.59692523643
 31
0.0
  0
LINE
  5
3CE5
  8
KL
 10
11879.642171953699
 20
26270.796925236431
 30
0.0
 11
11879.64217195369
 21
26341.09692523643
 31
0.0
  0
LINE
  5
3CE6
  8
KL
 10
11923.642171953699
 20
26264.796925236431
 30
0.0
 11
11923.642171953699
 21
26270.796925236431
 31
0.0
  0
LINE
  5
3CE7
  8
CT
 10
11906.142171953699
 20
26242.140823992569
 30
0.0
 11
11906.142171953699
 21
26284.84646241783
 31
0.0
  0
LINE
  5
3CE8
  8
FUTO
 10
11923.642171953699
 20
26359.59692523643
 30
0.0
 11
11923.642171953699
 21
26365.59692523643
 31
0.0
  0
LINE
  5
3CE9
  8
CT
 10
11906.142171953699
 20
26336.83593797424
 30
0.0
 11
11906.142171953699
 21
26388.825413530649
 31
0.0
  0
LINE
  5
3CEA
  8
FUTO
 10
11879.642171953699
 20
26341.09692523643
 30
0.0
 11
11879.642171953699
 21
26359.59692523643
 31
0.0
  0
LINE
  5
3D2A
  8
FUTO
 10
11069.642171953699
 20
25058.09692523643
 30
0.0
 11
11069.642171953699
 21
24925.09692523643
 31
0.0
  0
LINE
  5
3D2B
  8
FUTO
 10
11080.642171953699
 20
24331.596925236441
 30
0.0
 11
11080.642171953699
 21
24231.59692523643
 31
0.0
  0
ARC
  5
4030
  8
FUTO
 10
9973.6421719537047
 20
24122.59692523643
 30
0.0
 40
9.0
 50
0.0
 51
180.0
  0
LINE
  5
4031
  8
FUTO
 10
9964.6421719537047
 20
24021.59692523643
 30
0.0
 11
9964.6421719537047
 21
24122.59692523643
 31
0.0
  0
LINE
  5
4032
  8
FUTO
 10
9982.6421719537047
 20
24021.59692523643
 30
0.0
 11
9982.6421719537047
 21
24122.59692523643
 31
0.0
  0
LINE
  5
4033
  8
FUTO
 10
9716.6422329537036
 20
24536.096864236431
 30
0.0
 11
9716.6422329537036
 21
24572.09692523643
 31
0.0
  0
LINE
  5
4034
  8
FUTO
 10
9713.6422329537036
 20
24536.096864236431
 30
0.0
 11
9713.6422329537036
 21
24572.09692523643
 31
0.0
  0
LINE
  5
4035
  8
FUTO
 10
9721.6422329537054
 20
24536.096864236431
 30
0.0
 11
9721.6422329537054
 21
24583.096925236441
 31
0.0
  0
LINE
  5
4036
  8
FUTO
 10
9763.6421719537029
 20
24197.09692523643
 30
0.0
 11
9763.6421719537047
 21
24243.971925236441
 31
0.0
  0
LINE
  5
4037
  8
FUTO
 10
9815.9505369581802
 20
24192.09692523643
 30
0.0
 11
9768.6421719537047
 21
24192.09692523643
 31
0.0
  0
ARC
  5
4038
  8
FUTO
 10
9768.6421719537047
 20
24197.09692523643
 30
0.0
 40
5.0
 50
180.0
 51
270.0
  0
LINE
  5
4039
  8
FUTO
 10
9783.960826735276
 20
24243.971925236441
 30
0.0
 11
9763.6421719537047
 21
24243.971925236441
 31
0.0
  0
LINE
  5
403A
  8
FUTO
 10
9763.6421719537047
 20
24242.096925236441
 30
0.0
 11
9716.6422329537036
 21
24242.096925236441
 31
0.0
  0
LINE
  5
403B
  8
FUTO
 10
9763.6421719537047
 20
24239.09692523643
 30
0.0
 11
9713.6422329537036
 21
24239.09692523643
 31
0.0
  0
LINE
  5
403C
  8
FUTO
 10
9783.8516983854224
 20
24247.09692523643
 30
0.0
 11
9721.6422329537054
 21
24247.09692523643
 31
0.0
  0
LINE
  5
403D
  8
FUTO
 10
9721.6422329537054
 20
24247.09692523643
 30
0.0
 11
9716.6422329537036
 21
24242.096925236441
 31
0.0
  0
LINE
  5
403E
  8
FUTO
 10
9688.6422329537036
 20
24282.096925236441
 30
0.0
 11
9688.6422329537036
 21
24322.096925236441
 31
0.0
  0
LINE
  5
403F
  8
FUTO
 10
9718.6422329537054
 20
24282.096925236441
 30
0.0
 11
9718.6422329537054
 21
24322.096925236441
 31
0.0
  0
LINE
  5
4040
  8
FUTO
 10
9688.6422329537036
 20
24322.096925236441
 30
0.0
 11
9718.6422329537054
 21
24322.096925236441
 31
0.0
  0
LINE
  5
4041
  8
FUTO
 10
9718.6422329537054
 20
24282.096925236441
 30
0.0
 11
9688.6422329537036
 21
24282.096925236441
 31
0.0
  0
LINE
  5
4042
  8
CT
 10
9770.1421719537047
 20
24302.09692523643
 30
0.0
 11
9602.5877899537045
 21
24302.09692523643
 31
0.0
  0
LINE
  5
4043
  8
FUTO
 10
9614.1877649537055
 20
24319.686769236439
 30
0.0
 11
9626.287740953705
 21
24319.686769236439
 31
0.0
  0
LINE
  5
4044
  8
FUTO
 10
9614.1877649537055
 20
24284.507082236429
 30
0.0
 11
9626.287740953705
 21
24284.507082236429
 31
0.0
  0
LINE
  5
4045
  8
FUTO
 10
9614.1877649537055
 20
24311.802003236429
 30
0.0
 11
9626.287740953705
 21
24311.802003236429
 31
0.0
  0
LINE
  5
4046
  8
FUTO
 10
9614.1877649537055
 20
24292.391847236431
 30
0.0
 11
9626.287740953705
 21
24292.391847236431
 31
0.0
  0
LINE
  5
4047
  8
FUTO
 10
9612.5877899537045
 20
24318.087160236439
 30
0.0
 11
9612.5877899537045
 21
24286.107667236429
 31
0.0
  0
LINE
  5
4048
  8
FUTO
 10
9614.1877649537055
 20
24284.507082236429
 30
0.0
 11
9612.5877899537045
 21
24286.107667236429
 31
0.0
  0
LINE
  5
4049
  8
FUTO
 10
9614.1877649537055
 20
24292.391847236431
 30
0.0
 11
9612.5877899537045
 21
24290.79223823643
 31
0.0
  0
LINE
  5
404A
  8
FUTO
 10
9614.1877649537055
 20
24292.391847236431
 30
0.0
 11
9612.5877899537045
 21
24293.992433236432
 31
0.0
  0
LINE
  5
404B
  8
FUTO
 10
9612.5877899537045
 20
24318.087160236439
 30
0.0
 11
9614.1877649537055
 21
24319.686769236439
 31
0.0
  0
LINE
  5
404C
  8
FUTO
 10
9614.1877649537055
 20
24311.802003236429
 30
0.0
 11
9612.5877899537045
 21
24313.40258923643
 31
0.0
  0
LINE
  5
404D
  8
FUTO
 10
9614.1877649537055
 20
24311.802003236429
 30
0.0
 11
9612.5877899537045
 21
24310.202394236439
 31
0.0
  0
LINE
  5
404E
  8
FUTO
 10
9626.287740953705
 20
24319.686769236439
 30
0.0
 11
9626.287740953705
 21
24284.507082236429
 31
0.0
  0
LINE
  5
404F
  8
FUTO
 10
9626.287740953705
 20
24293.09692523643
 30
0.0
 11
9688.6422329537036
 21
24293.09692523643
 31
0.0
  0
LINE
  5
4050
  8
HOSO
 10
9688.6422329537036
 20
24295.09692523643
 30
0.0
 11
9626.2876799537044
 21
24295.09692523643
 31
0.0
  0
LINE
  5
4051
  8
HOSO
 10
9626.287740953705
 20
24309.09692523643
 30
0.0
 11
9688.6422329537036
 21
24309.09692523643
 31
0.0
  0
LINE
  5
4052
  8
FUTO
 10
9688.6422329537036
 20
24311.09692523643
 30
0.0
 11
9626.2876799537044
 21
24311.09692523643
 31
0.0
  0
LINE
  5
4053
  8
FUTO
 10
9718.6422329537054
 20
24293.09692523643
 30
0.0
 11
9770.1421719537047
 21
24293.09692523643
 31
0.0
  0
LINE
  5
4054
  8
HOSO
 10
9770.1421719537047
 20
24295.09692523643
 30
0.0
 11
9718.6422329537054
 21
24295.09692523643
 31
0.0
  0
LINE
  5
4055
  8
FUTO
 10
9770.1421719537047
 20
24311.09692523643
 30
0.0
 11
9718.6422329537054
 21
24311.09692523643
 31
0.0
  0
LINE
  5
4056
  8
HOSO
 10
9718.6422329537054
 20
24309.09692523643
 30
0.0
 11
9770.1421719537047
 21
24309.09692523643
 31
0.0
  0
LINE
  5
4057
  8
FUTO
 10
9713.6422329537036
 20
24239.09692523643
 30
0.0
 11
9713.6422329537036
 21
24282.096925236441
 31
0.0
  0
LINE
  5
4058
  8
FUTO
 10
9716.6422329537036
 20
24242.096925236441
 30
0.0
 11
9716.6422329537036
 21
24282.096925236441
 31
0.0
  0
LINE
  5
4059
  8
FUTO
 10
9721.6422329537054
 20
24247.09692523643
 30
0.0
 11
9721.6422329537054
 21
24293.09692523643
 31
0.0
  0
LINE
  5
405A
  8
FUTO
 10
9713.6422329537036
 20
24322.096925236441
 30
0.0
 11
9713.6422329537036
 21
24358.09692523643
 31
0.0
  0
LINE
  5
405B
  8
FUTO
 10
9716.6422329537036
 20
24322.096925236441
 30
0.0
 11
9716.6422329537036
 21
24358.09692523643
 31
0.0
  0
LINE
  5
405C
  8
FUTO
 10
9721.6422329537054
 20
24311.09692523643
 30
0.0
 11
9721.6422329537054
 21
24358.09692523643
 31
0.0
  0
LINE
  5
405D
  8
FUTO
 10
9688.6422329537036
 20
24583.096925236441
 30
0.0
 11
9626.2876799537044
 21
24583.096925236441
 31
0.0
  0
LINE
  5
405E
  8
HOSO
 10
9626.287740953705
 20
24585.096925236441
 30
0.0
 11
9688.6422329537036
 21
24585.096925236441
 31
0.0
  0
LINE
  5
405F
  8
HOSO
 10
9688.6422329537036
 20
24599.09692523643
 30
0.0
 11
9626.2876799537044
 21
24599.09692523643
 31
0.0
  0
LINE
  5
4060
  8
FUTO
 10
9626.287740953705
 20
24601.09692523643
 30
0.0
 11
9688.6422329537036
 21
24601.09692523643
 31
0.0
  0
LINE
  5
4061
  8
FUTO
 10
9626.287740953705
 20
24574.507081236428
 30
0.0
 11
9626.287740953705
 21
24609.686768236439
 31
0.0
  0
LINE
  5
4062
  8
FUTO
 10
9614.1877649537055
 20
24582.391847236431
 30
0.0
 11
9612.5877899537045
 21
24583.991456236428
 31
0.0
  0
LINE
  5
4063
  8
FUTO
 10
9614.1877649537055
 20
24582.391847236431
 30
0.0
 11
9612.5877899537045
 21
24580.791261236442
 31
0.0
  0
LINE
  5
4064
  8
FUTO
 10
9612.5877899537045
 20
24576.106690236429
 30
0.0
 11
9614.1877649537055
 21
24574.507081236428
 31
0.0
  0
LINE
  5
4065
  8
FUTO
 10
9614.1877649537055
 20
24601.802003236429
 30
0.0
 11
9612.5877899537045
 21
24600.201417236429
 31
0.0
  0
LINE
  5
4066
  8
FUTO
 10
9614.1877649537055
 20
24601.802003236429
 30
0.0
 11
9612.5877899537045
 21
24603.40161223643
 31
0.0
  0
LINE
  5
4067
  8
FUTO
 10
9614.1877649537055
 20
24609.686768236439
 30
0.0
 11
9612.5877899537045
 21
24608.086183236432
 31
0.0
  0
LINE
  5
4068
  8
FUTO
 10
9612.5877899537045
 20
24576.106690236429
 30
0.0
 11
9612.5877899537045
 21
24608.086183236432
 31
0.0
  0
LINE
  5
4069
  8
FUTO
 10
9614.1877649537055
 20
24601.802003236429
 30
0.0
 11
9626.287740953705
 21
24601.802003236429
 31
0.0
  0
LINE
  5
406A
  8
FUTO
 10
9614.1877649537055
 20
24582.391847236431
 30
0.0
 11
9626.287740953705
 21
24582.391847236431
 31
0.0
  0
LINE
  5
406B
  8
FUTO
 10
9614.1877649537055
 20
24609.686768236439
 30
0.0
 11
9626.287740953705
 21
24609.686768236439
 31
0.0
  0
LINE
  5
406C
  8
FUTO
 10
9614.1877649537055
 20
24574.507081236428
 30
0.0
 11
9626.287740953705
 21
24574.507081236428
 31
0.0
  0
LINE
  5
406D
  8
FUTO
 10
9718.6422329537054
 20
24612.09692523643
 30
0.0
 11
9688.6422329537036
 21
24612.09692523643
 31
0.0
  0
LINE
  5
406E
  8
FUTO
 10
9688.6422329537036
 20
24572.09692523643
 30
0.0
 11
9718.6422329537054
 21
24572.09692523643
 31
0.0
  0
LINE
  5
406F
  8
FUTO
 10
9718.6422329537054
 20
24612.09692523643
 30
0.0
 11
9718.6422329537054
 21
24572.09692523643
 31
0.0
  0
LINE
  5
4070
  8
FUTO
 10
9688.6422329537036
 20
24612.09692523643
 30
0.0
 11
9688.6422329537036
 21
24572.09692523643
 31
0.0
  0
LINE
  5
4071
  8
HOSO
 10
9718.6422329537054
 20
24585.096925236441
 30
0.0
 11
9770.1421719537047
 21
24585.096925236441
 31
0.0
  0
LINE
  5
4072
  8
FUTO
 10
9770.1421719537047
 20
24583.096925236441
 30
0.0
 11
9718.6422329537054
 21
24583.096925236441
 31
0.0
  0
LINE
  5
4073
  8
HOSO
 10
9770.1421719537047
 20
24599.09692523643
 30
0.0
 11
9718.6422329537054
 21
24599.09692523643
 31
0.0
  0
LINE
  5
4074
  8
FUTO
 10
9718.6422329537054
 20
24601.09692523643
 30
0.0
 11
9770.1421719537047
 21
24601.09692523643
 31
0.0
  0
LINE
  5
4075
  8
CT
 10
9770.1421719537047
 20
24592.09692523643
 30
0.0
 11
9602.5877899537045
 21
24592.09692523643
 31
0.0
  0
LINE
  5
4076
  8
FUTO
 10
9721.6422329537054
 20
24647.09692523643
 30
0.0
 11
9716.6422329537036
 21
24652.09692523643
 31
0.0
  0
LINE
  5
4077
  8
FUTO
 10
9763.6421719537047
 20
24655.09692523643
 30
0.0
 11
9713.6422329537036
 21
24655.09692523643
 31
0.0
  0
LINE
  5
4078
  8
FUTO
 10
9763.6421719537047
 20
24652.09692523643
 30
0.0
 11
9716.6422329537036
 21
24652.09692523643
 31
0.0
  0
LINE
  5
4079
  8
FUTO
 10
9770.1421719537066
 20
24650.22192523643
 30
0.0
 11
9763.6421719537047
 21
24650.22192523643
 31
0.0
  0
LINE
  5
407A
  8
FUTO
 10
9770.1421719537047
 20
24647.09692523643
 30
0.0
 11
9721.6422329537054
 21
24647.09692523643
 31
0.0
  0
LINE
  5
407B
  8
FUTO
 10
9721.6422329537054
 20
24647.09692523643
 30
0.0
 11
9721.6422329537054
 21
24601.09692523643
 31
0.0
  0
LINE
  5
407C
  8
FUTO
 10
9716.6422329537036
 20
24652.09692523643
 30
0.0
 11
9716.6422329537036
 21
24612.09692523643
 31
0.0
  0
LINE
  5
407D
  8
FUTO
 10
9713.6422329537036
 20
24655.09692523643
 30
0.0
 11
9713.6422329537036
 21
24612.09692523643
 31
0.0
  0
ARC
  5
407E
  8
FUTO
 10
9768.6421719537047
 20
24697.09692523643
 30
0.0
 40
5.0
 50
89.999999999999986
 51
180.0
  0
LINE
  5
407F
  8
FUTO
 10
9763.6421719537029
 20
24697.09692523643
 30
0.0
 11
9763.6421719537047
 21
24650.22192523643
 31
0.0
  0
LINE
  5
4080
  8
FUTO
 10
9781.1421719537029
 20
24702.09692523643
 30
0.0
 11
9768.6421719537047
 21
24702.09692523643
 31
0.0
  0
LINE
  5
4081
  8
CT
 10
10177.142171953699
 20
24592.09692523643
 30
0.0
 11
10344.6965539537
 21
24592.09692523643
 31
0.0
  0
LINE
  5
4082
  8
FUTO
 10
10228.6421109537
 20
24601.09692523643
 30
0.0
 11
10177.142171953699
 21
24601.09692523643
 31
0.0
  0
LINE
  5
4083
  8
HOSO
 10
10177.142171953699
 20
24599.09692523643
 30
0.0
 11
10228.6421109537
 21
24599.09692523643
 31
0.0
  0
LINE
  5
4084
  8
FUTO
 10
10177.142171953699
 20
24583.096925236441
 30
0.0
 11
10228.6421109537
 21
24583.096925236441
 31
0.0
  0
LINE
  5
4085
  8
HOSO
 10
10228.6421109537
 20
24585.096925236441
 30
0.0
 11
10177.142171953699
 21
24585.096925236441
 31
0.0
  0
LINE
  5
4086
  8
FUTO
 10
10258.6421109537
 20
24612.09692523643
 30
0.0
 11
10258.6421109537
 21
24572.09692523643
 31
0.0
  0
LINE
  5
4087
  8
FUTO
 10
10228.6421109537
 20
24612.09692523643
 30
0.0
 11
10228.6421109537
 21
24572.09692523643
 31
0.0
  0
LINE
  5
4088
  8
FUTO
 10
10258.6421109537
 20
24572.09692523643
 30
0.0
 11
10228.6421109537
 21
24572.09692523643
 31
0.0
  0
LINE
  5
4089
  8
FUTO
 10
10228.6421109537
 20
24612.09692523643
 30
0.0
 11
10258.6421109537
 21
24612.09692523643
 31
0.0
  0
LINE
  5
408A
  8
FUTO
 10
10333.0965789537
 20
24574.507081236428
 30
0.0
 11
10320.996602953701
 21
24574.507081236428
 31
0.0
  0
LINE
  5
408B
  8
FUTO
 10
10333.0965789537
 20
24609.686768236439
 30
0.0
 11
10320.996602953701
 21
24609.686768236439
 31
0.0
  0
LINE
  5
408C
  8
FUTO
 10
10333.0965789537
 20
24582.391847236431
 30
0.0
 11
10320.996602953701
 21
24582.391847236431
 31
0.0
  0
LINE
  5
408D
  8
FUTO
 10
10333.0965789537
 20
24601.802003236429
 30
0.0
 11
10320.996602953701
 21
24601.802003236429
 31
0.0
  0
LINE
  5
408E
  8
FUTO
 10
10334.6965539537
 20
24576.106690236429
 30
0.0
 11
10334.6965539537
 21
24608.086183236432
 31
0.0
  0
LINE
  5
408F
  8
FUTO
 10
10333.0965789537
 20
24609.686768236439
 30
0.0
 11
10334.6965539537
 21
24608.086183236432
 31
0.0
  0
LINE
  5
4090
  8
FUTO
 10
10333.0965789537
 20
24601.802003236429
 30
0.0
 11
10334.6965539537
 21
24603.40161223643
 31
0.0
  0
LINE
  5
4091
  8
FUTO
 10
10333.0965789537
 20
24601.802003236429
 30
0.0
 11
10334.6965539537
 21
24600.201417236429
 31
0.0
  0
LINE
  5
4092
  8
FUTO
 10
10334.6965539537
 20
24576.106690236429
 30
0.0
 11
10333.0965789537
 21
24574.507081236428
 31
0.0
  0
LINE
  5
4093
  8
FUTO
 10
10333.0965789537
 20
24582.391847236431
 30
0.0
 11
10334.6965539537
 21
24580.791261236442
 31
0.0
  0
LINE
  5
4094
  8
FUTO
 10
10333.0965789537
 20
24582.391847236431
 30
0.0
 11
10334.6965539537
 21
24583.991456236428
 31
0.0
  0
LINE
  5
4095
  8
FUTO
 10
10320.996602953701
 20
24574.507081236428
 30
0.0
 11
10320.996602953701
 21
24609.686768236439
 31
0.0
  0
LINE
  5
4096
  8
FUTO
 10
10320.996602953701
 20
24601.09692523643
 30
0.0
 11
10258.6421109537
 21
24601.09692523643
 31
0.0
  0
LINE
  5
4097
  8
HOSO
 10
10258.6421109537
 20
24599.09692523643
 30
0.0
 11
10320.9966639537
 21
24599.09692523643
 31
0.0
  0
LINE
  5
4098
  8
HOSO
 10
10320.996602953701
 20
24585.096925236441
 30
0.0
 11
10258.6421109537
 21
24585.096925236441
 31
0.0
  0
LINE
  5
4099
  8
FUTO
 10
10258.6421109537
 20
24583.096925236441
 30
0.0
 11
10320.9966639537
 21
24583.096925236441
 31
0.0
  0
LINE
  5
409A
  8
FUTO
 10
10233.6421109537
 20
24655.09692523643
 30
0.0
 11
10233.6421109537
 21
24612.09692523643
 31
0.0
  0
LINE
  5
409B
  8
FUTO
 10
10230.6421109537
 20
24652.09692523643
 30
0.0
 11
10230.6421109537
 21
24612.09692523643
 31
0.0
  0
LINE
  5
409C
  8
FUTO
 10
10225.6421109537
 20
24647.09692523643
 30
0.0
 11
10225.6421109537
 21
24601.09692523643
 31
0.0
  0
LINE
  5
409D
  8
FUTO
 10
10166.142171953699
 20
24702.09692523643
 30
0.0
 11
10178.642171953699
 21
24702.09692523643
 31
0.0
  0
LINE
  5
409E
  8
FUTO
 10
10177.142171953699
 20
24647.09692523643
 30
0.0
 11
10225.6421109537
 21
24647.09692523643
 31
0.0
  0
LINE
  5
409F
  8
FUTO
 10
10177.142171953699
 20
24650.22192523643
 30
0.0
 11
10183.642171953699
 21
24650.22192523643
 31
0.0
  0
LINE
  5
40A0
  8
FUTO
 10
10183.642171953699
 20
24697.09692523643
 30
0.0
 11
10183.642171953699
 21
24650.22192523643
 31
0.0
  0
LINE
  5
40A1
  8
FUTO
 10
10183.642171953699
 20
24652.09692523643
 30
0.0
 11
10230.6421109537
 21
24652.09692523643
 31
0.0
  0
LINE
  5
40A2
  8
FUTO
 10
10183.642171953699
 20
24655.09692523643
 30
0.0
 11
10233.6421109537
 21
24655.09692523643
 31
0.0
  0
ARC
  5
40A3
  8
FUTO
 10
10178.642171953699
 20
24697.09692523643
 30
0.0
 40
5.0
 50
0.0
 51
89.999999999999986
  0
LINE
  5
40A4
  8
FUTO
 10
10225.6421109537
 20
24647.09692523643
 30
0.0
 11
10230.6421109537
 21
24652.09692523643
 31
0.0
  0
LINE
  5
40A5
  8
FUTO
 10
10163.32351717213
 20
24243.971925236441
 30
0.0
 11
10183.642171953699
 21
24243.971925236441
 31
0.0
  0
LINE
  5
40A6
  8
FUTO
 10
10225.6421109537
 20
24311.09692523643
 30
0.0
 11
10225.6421109537
 21
24583.096925236441
 31
0.0
  0
LINE
  5
40A7
  8
FUTO
 10
10225.6421109537
 20
24247.09692523643
 30
0.0
 11
10230.6421109537
 21
24242.096925236441
 31
0.0
  0
LINE
  5
40A8
  8
FUTO
 10
10225.6421109537
 20
24247.09692523643
 30
0.0
 11
10225.6421109537
 21
24293.09692523643
 31
0.0
  0
LINE
  5
40A9
  8
FUTO
 10
10163.43264552198
 20
24247.09692523643
 30
0.0
 11
10225.6421109537
 21
24247.09692523643
 31
0.0
  0
ARC
  5
40AA
  8
FUTO
 10
10178.642171953699
 20
24197.09692523643
 30
0.0
 40
5.0
 50
270.0
 51
0.0
  0
LINE
  5
40AB
  8
FUTO
 10
10183.642171953699
 20
24239.09692523643
 30
0.0
 11
10233.6421109537
 21
24239.09692523643
 31
0.0
  0
LINE
  5
40AC
  8
FUTO
 10
10183.642171953699
 20
24242.096925236441
 30
0.0
 11
10230.6421109537
 21
24242.096925236441
 31
0.0
  0
LINE
  5
40AD
  8
FUTO
 10
10131.33380694922
 20
24192.09692523643
 30
0.0
 11
10178.642171953699
 21
24192.09692523643
 31
0.0
  0
LINE
  5
40AE
  8
FUTO
 10
10183.642171953699
 20
24197.09692523643
 30
0.0
 11
10183.642171953699
 21
24243.971925236441
 31
0.0
  0
LINE
  5
40AF
  8
FUTO
 10
10230.6421109537
 20
24322.096925236441
 30
0.0
 11
10230.6421109537
 21
24572.09692523643
 31
0.0
  0
LINE
  5
40B0
  8
FUTO
 10
10233.6421109537
 20
24322.096925236441
 30
0.0
 11
10233.6421109537
 21
24572.09692523643
 31
0.0
  0
LINE
  5
40B1
  8
FUTO
 10
10230.6421109537
 20
24242.096925236441
 30
0.0
 11
10230.6421109537
 21
24282.096925236441
 31
0.0
  0
LINE
  5
40B2
  8
FUTO
 10
10233.6421109537
 20
24239.09692523643
 30
0.0
 11
10233.6421109537
 21
24282.096925236441
 31
0.0
  0
LINE
  5
40B3
  8
HOSO
 10
10228.6421109537
 20
24309.09692523643
 30
0.0
 11
10177.142171953699
 21
24309.09692523643
 31
0.0
  0
LINE
  5
40B4
  8
FUTO
 10
10177.142171953699
 20
24311.09692523643
 30
0.0
 11
10228.6421109537
 21
24311.09692523643
 31
0.0
  0
LINE
  5
40B5
  8
HOSO
 10
10177.142171953699
 20
24295.09692523643
 30
0.0
 11
10228.6421109537
 21
24295.09692523643
 31
0.0
  0
LINE
  5
40B6
  8
FUTO
 10
10228.6421109537
 20
24293.09692523643
 30
0.0
 11
10177.142171953699
 21
24293.09692523643
 31
0.0
  0
LINE
  5
40B7
  8
FUTO
 10
10258.6421109537
 20
24311.09692523643
 30
0.0
 11
10320.9966639537
 21
24311.09692523643
 31
0.0
  0
LINE
  5
40B8
  8
HOSO
 10
10320.996602953701
 20
24309.09692523643
 30
0.0
 11
10258.6421109537
 21
24309.09692523643
 31
0.0
  0
LINE
  5
40B9
  8
HOSO
 10
10258.6421109537
 20
24295.09692523643
 30
0.0
 11
10320.9966639537
 21
24295.09692523643
 31
0.0
  0
LINE
  5
40BA
  8
FUTO
 10
10320.996602953701
 20
24293.09692523643
 30
0.0
 11
10258.6421109537
 21
24293.09692523643
 31
0.0
  0
LINE
  5
40BB
  8
FUTO
 10
10320.996602953701
 20
24319.686769236439
 30
0.0
 11
10320.996602953701
 21
24284.507082236429
 31
0.0
  0
LINE
  5
40BC
  8
FUTO
 10
10333.0965789537
 20
24311.802003236429
 30
0.0
 11
10334.6965539537
 21
24310.202394236439
 31
0.0
  0
LINE
  5
40BD
  8
FUTO
 10
10333.0965789537
 20
24311.802003236429
 30
0.0
 11
10334.6965539537
 21
24313.40258923643
 31
0.0
  0
LINE
  5
40BE
  8
FUTO
 10
10334.6965539537
 20
24318.087160236439
 30
0.0
 11
10333.0965789537
 21
24319.686769236439
 31
0.0
  0
LINE
  5
40BF
  8
FUTO
 10
10333.0965789537
 20
24292.391847236431
 30
0.0
 11
10334.6965539537
 21
24293.992433236432
 31
0.0
  0
LINE
  5
40C0
  8
FUTO
 10
10333.0965789537
 20
24292.391847236431
 30
0.0
 11
10334.6965539537
 21
24290.79223823643
 31
0.0
  0
LINE
  5
40C1
  8
FUTO
 10
10333.0965789537
 20
24284.507082236429
 30
0.0
 11
10334.6965539537
 21
24286.107667236429
 31
0.0
  0
LINE
  5
40C2
  8
FUTO
 10
10334.6965539537
 20
24318.087160236439
 30
0.0
 11
10334.6965539537
 21
24286.107667236429
 31
0.0
  0
LINE
  5
40C3
  8
FUTO
 10
10333.0965789537
 20
24292.391847236431
 30
0.0
 11
10320.996602953701
 21
24292.391847236431
 31
0.0
  0
LINE
  5
40C4
  8
FUTO
 10
10333.0965789537
 20
24311.802003236429
 30
0.0
 11
10320.996602953701
 21
24311.802003236429
 31
0.0
  0
LINE
  5
40C5
  8
FUTO
 10
10333.0965789537
 20
24284.507082236429
 30
0.0
 11
10320.996602953701
 21
24284.507082236429
 31
0.0
  0
LINE
  5
40C6
  8
FUTO
 10
10333.0965789537
 20
24319.686769236439
 30
0.0
 11
10320.996602953701
 21
24319.686769236439
 31
0.0
  0
LINE
  5
40C7
  8
CT
 10
10177.142171953699
 20
24302.09692523643
 30
0.0
 11
10344.6965539537
 21
24302.09692523643
 31
0.0
  0
LINE
  5
40C8
  8
FUTO
 10
10228.6421109537
 20
24282.096925236441
 30
0.0
 11
10258.6421109537
 21
24282.096925236441
 31
0.0
  0
LINE
  5
40C9
  8
FUTO
 10
10258.6421109537
 20
24322.096925236441
 30
0.0
 11
10228.6421109537
 21
24322.096925236441
 31
0.0
  0
LINE
  5
40CA
  8
FUTO
 10
10228.6421109537
 20
24282.096925236441
 30
0.0
 11
10228.6421109537
 21
24322.096925236441
 31
0.0
  0
LINE
  5
40CB
  8
FUTO
 10
10258.6421109537
 20
24282.096925236441
 30
0.0
 11
10258.6421109537
 21
24322.096925236441
 31
0.0
  0
ARC
  5
40CC
  8
FUTO
 10
9642.0130219537059
 20
24509.096864236431
 30
0.0
 40
20.0
 50
89.999999999999986
 51
180.0
  0
ARC
  5
40CD
  8
FUTO
 10
9642.0130219537059
 20
24385.096925236441
 30
0.0
 40
20.0
 50
180.0
 51
270.0
  0
ARC
  5
40CE
  8
FUTO
 10
9632.0130219537059
 20
24368.09692523643
 30
0.0
 40
10.0
 50
180.0
 51
270.0
  0
ARC
  5
40CF
  8
FUTO
 10
9632.0130219537059
 20
24526.096864236431
 30
0.0
 40
10.0
 50
89.999999999999986
 51
180.0
  0
ARC
  5
40D0
  8
FUTO
 10
9734.8697468525952
 20
24368.09692523643
 30
0.0
 40
10.0
 50
270.0
 51
0.0
  0
ARC
  5
40D1
  8
FUTO
 10
9731.7026313142633
 20
24368.09692523643
 30
0.0
 40
10.0
 50
270.0
 51
0.0
  0
ARC
  5
40D2
  8
FUTO
 10
9734.8697468525952
 20
24526.096864236431
 30
0.0
 40
10.0
 50
0.0
 51
89.999999999999986
  0
ARC
  5
40D3
  8
FUTO
 10
9731.7026313142633
 20
24526.096864236431
 30
0.0
 40
10.0
 50
0.0
 51
89.999999999999986
  0
LINE
  5
40D4
  8
FUTO
 10
9734.5060280348061
 20
24365.09692523643
 30
0.0
 11
9642.0130219537059
 21
24365.09692523643
 31
0.0
  0
LINE
  5
40D5
  8
FUTO
 10
9734.5060280348061
 20
24529.096864236439
 30
0.0
 11
9642.0130219537059
 21
24529.096864236439
 31
0.0
  0
ARC
  5
40D6
  8
FUTO
 10
9748.6421719537047
 20
24370.09692523643
 30
0.0
 40
5.0
 50
270.0
 51
0.0
  0
ARC
  5
40D7
  8
FUTO
 10
9748.6421719537047
 20
24524.096864236431
 30
0.0
 40
5.0
 50
0.0
 51
89.999999999999986
  0
ARC
  5
40D8
  8
FUTO
 10
9734.5060280348061
 20
24370.09692523643
 30
0.0
 40
5.0
 50
270.0
 51
0.0
  0
ARC
  5
40D9
  8
FUTO
 10
9734.5060280348061
 20
24524.096864236431
 30
0.0
 40
5.0
 50
0.0
 51
89.999999999999986
  0
LINE
  5
40DA
  8
FUTO
 10
9734.8697468525952
 20
24358.09692523643
 30
0.0
 11
9632.0130219537059
 21
24358.09692523643
 31
0.0
  0
LINE
  5
40DB
  8
FUTO
 10
9748.6421719537047
 20
24365.09692523643
 30
0.0
 11
9744.8697468525952
 21
24365.09692523643
 31
0.0
  0
LINE
  5
40DC
  8
FUTO
 10
9734.8697468525952
 20
24536.096864236431
 30
0.0
 11
9632.0130219537059
 21
24536.096864236431
 31
0.0
  0
LINE
  5
40DD
  8
FUTO
 10
9748.6421719537047
 20
24529.096864236439
 30
0.0
 11
9744.8697468525952
 21
24529.096864236439
 31
0.0
  0
LINE
  5
40DE
  8
FUTO
 10
9770.1421719537047
 20
24507.096925236441
 30
0.0
 11
9770.1421719537047
 21
24613.907695985468
 31
0.0
  0
LINE
  5
40DF
  8
FUTO
 10
9753.6421719537029
 20
24387.096925236441
 30
0.0
 11
9821.3685695138865
 21
24387.096925236441
 31
0.0
  0
LINE
  5
40E0
  8
FUTO
 10
9753.6421719537029
 20
24507.096925236441
 30
0.0
 11
9821.3685695138865
 21
24507.096925236441
 31
0.0
  0
LINE
  5
40E1
  8
FUTO
 10
9663.3228359537025
 20
24385.096925236441
 30
0.0
 11
9663.3228359537043
 21
24509.096864236431
 31
0.0
  0
LINE
  5
40E2
  8
FUTO
 10
9739.5060280348061
 20
24370.09692523643
 30
0.0
 11
9739.5060280348061
 21
24524.096864236431
 31
0.0
  0
LINE
  5
40E3
  8
FUTO
 10
9741.7026313142633
 20
24368.09692523643
 30
0.0
 11
9741.7026313142633
 21
24526.096864236431
 31
0.0
  0
LINE
  5
40E4
  8
FUTO
 10
9744.8697468525952
 20
24368.09692523643
 30
0.0
 11
9744.8697468525952
 21
24526.096864236431
 31
0.0
  0
LINE
  5
40E5
  8
FUTO
 10
9753.6421719537029
 20
24370.09692523643
 30
0.0
 11
9753.6421719537029
 21
24524.096864236431
 31
0.0
  0
LINE
  5
40E6
  8
FUTO
 10
9763.6421719537029
 20
24387.096925236441
 30
0.0
 11
9763.6421719537029
 21
24507.096925236441
 31
0.0
  0
LINE
  5
40E7
  8
FUTO
 10
9821.3685695138865
 20
24387.096925236441
 30
0.0
 11
9821.3685695138865
 21
24507.096925236441
 31
0.0
  0
LINE
  5
40E8
  8
FUTO
 10
9622.0130219537059
 20
24368.09692523643
 30
0.0
 11
9622.0130219537059
 21
24526.096864236431
 31
0.0
  0
LINE
  5
40E9
  8
FUTO
 10
9967.3921719537047
 20
24423.34692523643
 30
0.0
 11
9967.3921719537047
 21
24470.846925236441
 31
0.0
  0
ARC
  5
40EA
  8
FUTO
 10
9973.6421719537047
 20
24423.34692523643
 30
0.0
 40
6.25
 50
180.0
 51
0.0
  0
ARC
  5
40EB
  8
FUTO
 10
9973.6421719537047
 20
24470.846925236441
 30
0.0
 40
6.25
 50
0.0
 51
180.0
  0
LINE
  5
40EC
  8
CT
 10
9602.0130219537041
 20
24447.09692523643
 30
0.0
 11
10253.6421109537
 21
24447.09692523643
 31
0.0
  0
LINE
  5
40ED
  8
FUTO
 10
9979.8921719537047
 20
24423.34692523643
 30
0.0
 11
9979.8921719537047
 21
24470.846925236441
 31
0.0
  0
LINE
  5
40EE
  8
FUTO
 10
9770.1421719537066
 20
24613.907695985468
 30
0.0
 11
9771.9639489537039
 21
24616.096864236431
 31
0.0
  0
LINE
  5
40EF
  8
FUTO
 10
9770.1421719537047
 20
24280.286012236429
 30
0.0
 11
9776.6421719537029
 21
24272.475099236432
 31
0.0
  0
LINE
  5
40F0
  8
FUTO
 10
9770.1421719537047
 20
24280.286012236429
 30
0.0
 11
9770.1421719537047
 21
24387.096925236441
 31
0.0
  0
LINE
  5
40F1
  8
FUTO
 10
10177.142171953699
 20
24280.286012236429
 30
0.0
 11
10177.142171953699
 21
24613.907695985468
 31
0.0
  0
ARC
  5
40F2
  8
FUTO
 10
9895.6421719537029
 20
24173.596925236441
 30
0.0
 40
2.0
 50
180.0
 51
270.0
  0
ARC
  5
40F3
  8
FUTO
 10
9890.6421719537047
 20
24183.750001236429
 30
0.0
 40
2.9999599999999988
 50
0.0
 51
87.000442999965927
  0
LINE
  5
40F4
  8
FUTO
 10
9893.6421719537047
 20
24183.750001236429
 30
0.0
 11
9893.6421719537047
 21
24173.596925236441
 31
0.0
  0
ARC
  5
40F5
  8
FUTO
 10
9794.5462239537046
 20
24227.38257023643
 30
0.0
 40
9.9999679999999991
 50
181.99932899999791
 51
225.0
  0
ARC
  5
40F6
  8
FUTO
 10
9821.539387953706
 20
24200.38940523643
 30
0.0
 40
10.000024
 50
225.0
 51
267.00096100006482
  0
LINE
  5
40F7
  8
FUTO
 10
9787.4751789537058
 20
24220.31152523643
 30
0.0
 11
9814.4683439537057
 21
24193.31836123643
 31
0.0
  0
LINE
  5
40F8
  8
FUTO
 10
9783.6421719537029
 20
24253.09692523643
 30
0.0
 11
9784.5523279537047
 21
24227.03369323643
 31
0.0
  0
LINE
  5
40F9
  8
FUTO
 10
9821.0161949537032
 20
24190.403077236431
 30
0.0
 11
9909.6075039537027
 21
24185.76025523643
 31
0.0
  0
LINE
  5
40FA
  8
FUTO
 10
9811.6421719537029
 20
24263.096925236441
 30
0.0
 11
10135.642171953699
 21
24263.096925236441
 31
0.0
  0
LINE
  5
40FB
  8
FUTO
 10
9811.6421719537029
 20
24253.09692523643
 30
0.0
 11
9811.6421719537029
 21
24258.09692523643
 31
0.0
  0
LINE
  5
40FC
  8
FUTO
 10
9811.6421719537029
 20
24258.09692523643
 30
0.0
 11
9811.6421719537029
 21
24263.096925236441
 31
0.0
  0
LINE
  5
40FD
  8
FUTO
 10
9776.6421719537029
 20
24272.475099236432
 30
0.0
 11
9811.6421719537029
 21
24263.096925236441
 31
0.0
  0
ARC
  5
40FE
  8
FUTO
 10
9790.1421719537047
 20
24662.57025323643
 30
0.0
 40
20.0
 50
159.99995399999131
 51
180.0
  0
ARC
  5
40FF
  8
FUTO
 10
9761.1421719537047
 20
24699.845643236429
 30
0.0
 40
20.0
 50
340.0002749999968
 51
0.0
  0
LINE
  5
4100
  8
FUTO
 10
9825.9932459537049
 20
24644.596864236431
 30
0.0
 11
9822.2403159537025
 21
24651.096864236439
 31
0.0
  0
LINE
  5
4101
  8
FUTO
 10
9822.2403159537025
 20
24651.096864236439
 30
0.0
 11
9825.9932459537049
 21
24657.596864236431
 31
0.0
  0
LINE
  5
4102
  8
FUTO
 10
9771.348225953705
 20
24669.410707236439
 30
0.0
 11
9779.936116953706
 21
24693.005311236429
 31
0.0
  0
LINE
  5
4103
  8
FUTO
 10
9770.1421719537047
 20
24616.096864236431
 30
0.0
 11
9770.1421719537047
 21
24662.57025323643
 31
0.0
  0
LINE
  5
4104
  8
FUTO
 10
9837.2515469537029
 20
24651.096864236439
 30
0.0
 11
9833.4986169537042
 21
24657.596864236431
 31
0.0
  0
LINE
  5
4105
  8
FUTO
 10
9833.4986169537042
 20
24644.596864236431
 30
0.0
 11
9837.2515469537029
 21
24651.096864236439
 31
0.0
  0
LINE
  5
4106
  8
CT
 10
9829.7459309537062
 20
24643.654725236429
 30
0.0
 11
9829.7459309537062
 21
24658.110780236431
 31
0.0
  0
LINE
  5
4107
  8
CT
 10
9838.1365559537044
 20
24651.096864236439
 30
0.0
 11
9821.3150229537041
 21
24651.096864236439
 31
0.0
  0
LINE
  5
4108
  8
FUTO
 10
9833.4986169537042
 20
24657.596864236431
 30
0.0
 11
9825.9932459537049
 21
24657.596864236431
 31
0.0
  0
LINE
  5
4109
  8
FUTO
 10
9833.4986169537042
 20
24644.596864236431
 30
0.0
 11
9825.9932459537049
 21
24644.596864236431
 31
0.0
  0
CIRCLE
  5
410A
  8
FUTO
 10
9829.7459309537062
 20
24651.096864236439
 30
0.0
 40
6.5
  0
ARC
  5
410B
  8
FUTO
 10
9796.1421719537047
 20
24760.78595123643
 30
0.0
 40
15.0
 50
150.0001830000181
 51
180.0
  0
ARC
  5
410C
  8
FUTO
 10
9816.5288899537045
 20
24816.096864236431
 30
0.0
 40
4.9999580000000003
 50
89.999999999999986
 51
149.9997180000272
  0
LINE
  5
410D
  8
FUTO
 10
9812.1988119537036
 20
24818.596864236439
 30
0.0
 11
9783.1516929537029
 21
24768.28595123643
 31
0.0
  0
LINE
  5
410E
  8
FUTO
 10
9781.1421719537029
 20
24699.845643236429
 30
0.0
 11
9781.1421719537029
 21
24760.78595123643
 31
0.0
  0
LINE
  5
410F
  8
FUTO
 10
10166.142171953699
 20
24699.845643236429
 30
0.0
 11
10166.142171953699
 21
24760.78595123643
 31
0.0
  0
LINE
  5
4110
  8
CT
 10
9973.6421719537047
 20
24001.59692523643
 30
0.0
 11
9973.6421719537047
 21
24841.09692523643
 31
0.0
  0
LINE
  5
4111
  8
FUTO
 10
10131.292135953699
 20
24821.09692523643
 30
0.0
 11
9816.5018219537051
 21
24821.09692523643
 31
0.0
  0
LINE
  5
4112
  8
FUTO
 10
9781.1421719537029
 20
24761.99688823643
 30
0.0
 11
10166.093099953699
 21
24761.99688823643
 31
0.0
  0
LINE
  5
4113
  8
FUTO
 10
10135.0855319537
 20
24818.596864236439
 30
0.0
 11
10164.132650953699
 21
24768.28595123643
 31
0.0
  0
ARC
  5
4114
  8
FUTO
 10
10130.7554539537
 20
24816.096864236431
 30
0.0
 40
4.9999580000000003
 50
30.000281999972749
 51
89.999999999999986
  0
ARC
  5
4115
  8
FUTO
 10
10151.142171953699
 20
24760.78595123643
 30
0.0
 40
15.0
 50
0.0
 51
29.9998169999818
  0
LINE
  5
4116
  8
FUTO
 10
9895.6421719537029
 20
24171.596925236441
 30
0.0
 11
9973.6421719537047
 21
24171.596925236441
 31
0.0
  0
LINE
  5
4117
  8
FUTO
 10
9783.6421719537029
 20
24253.09692523643
 30
0.0
 11
9973.6421719537047
 21
24253.09692523643
 31
0.0
  0
LINE
  5
4118
  8
FUTO
 10
9811.6421719537029
 20
24258.09692523643
 30
0.0
 11
9973.6421719537047
 21
24258.09692523643
 31
0.0
  0
LINE
  5
4119
  8
FUTO
 10
10166.459554953701
 20
24696.296815236441
 30
0.0
 11
9781.1421719537029
 21
24696.296815236441
 31
0.0
  0
LINE
  5
411A
  8
FUTO
 10
10176.8286959537
 20
24666.096864236439
 30
0.0
 11
9770.4555517548324
 21
24666.096864236439
 31
0.0
  0
LINE
  5
411B
  8
FUTO
 10
10177.142171953699
 20
24616.096864236431
 30
0.0
 11
9771.9639489537039
 21
24616.096864236431
 31
0.0
  0
LINE
  5
411C
  8
FUTO
 10
9811.6421719537029
 20
24258.09692523643
 30
0.0
 11
9973.6421719537047
 21
24258.09692523643
 31
0.0
  0
CIRCLE
  5
411D
  8
FUTO
 10
10117.5384129537
 20
24651.096864236439
 30
0.0
 40
6.5
  0
LINE
  5
411E
  8
FUTO
 10
10113.7857269537
 20
24644.596864236431
 30
0.0
 11
10121.291097953699
 21
24644.596864236431
 31
0.0
  0
LINE
  5
411F
  8
FUTO
 10
10113.7857269537
 20
24657.596864236431
 30
0.0
 11
10121.291097953699
 21
24657.596864236431
 31
0.0
  0
LINE
  5
4120
  8
CT
 10
10109.1477879537
 20
24651.096864236439
 30
0.0
 11
10125.9693209537
 21
24651.096864236439
 31
0.0
  0
LINE
  5
4121
  8
CT
 10
10117.5384129537
 20
24643.654725236429
 30
0.0
 11
10117.5384129537
 21
24658.110780236431
 31
0.0
  0
LINE
  5
4122
  8
FUTO
 10
10113.7857269537
 20
24644.596864236431
 30
0.0
 11
10110.032796953699
 21
24651.096864236439
 31
0.0
  0
LINE
  5
4123
  8
FUTO
 10
10110.032796953699
 20
24651.096864236439
 30
0.0
 11
10113.7857269537
 21
24657.596864236431
 31
0.0
  0
LINE
  5
4124
  8
FUTO
 10
10177.142171953699
 20
24616.096864236431
 30
0.0
 11
10177.142171953699
 21
24662.57025323643
 31
0.0
  0
LINE
  5
4125
  8
FUTO
 10
10175.936117953701
 20
24669.410707236439
 30
0.0
 11
10167.3482269537
 21
24693.005311236429
 31
0.0
  0
LINE
  5
4126
  8
FUTO
 10
10125.0440279537
 20
24651.096864236439
 30
0.0
 11
10121.291097953699
 21
24657.596864236431
 31
0.0
  0
LINE
  5
4127
  8
FUTO
 10
10121.291097953699
 20
24644.596864236431
 30
0.0
 11
10125.0440279537
 21
24651.096864236439
 31
0.0
  0
ARC
  5
4128
  8
FUTO
 10
10186.142171953699
 20
24699.845643236429
 30
0.0
 40
20.0
 50
180.0
 51
199.99972500000311
  0
ARC
  5
4129
  8
FUTO
 10
10157.142171953699
 20
24662.57025323643
 30
0.0
 40
20.0
 50
0.0
 51
20.000046000008592
  0
LINE
  5
412A
  8
FUTO
 10
10177.142171953699
 20
24613.907695985468
 30
0.0
 11
10175.3203949537
 21
24616.096864236431
 31
0.0
  0
LINE
  5
412B
  8
FUTO
 10
10135.642171953699
 20
24258.09692523643
 30
0.0
 11
9973.6421719537047
 21
24258.09692523643
 31
0.0
  0
LINE
  5
412C
  8
FUTO
 10
10126.268148953701
 20
24190.403077236431
 30
0.0
 11
10037.6768399537
 21
24185.76025523643
 31
0.0
  0
LINE
  5
412D
  8
FUTO
 10
10163.642171953699
 20
24253.09692523643
 30
0.0
 11
9973.6421719537047
 21
24253.09692523643
 31
0.0
  0
LINE
  5
412E
  8
FUTO
 10
10135.642171953699
 20
24258.09692523643
 30
0.0
 11
9973.6421719537047
 21
24258.09692523643
 31
0.0
  0
LINE
  5
412F
  8
FUTO
 10
9943.6421719537047
 20
24161.59692523643
 30
0.0
 11
9943.6421719537047
 21
24021.59692523643
 31
0.0
  0
LINE
  5
4130
  8
FUTO
 10
10003.642171953699
 20
24161.59692523643
 30
0.0
 11
10003.642171953699
 21
24021.59692523643
 31
0.0
  0
LINE
  5
4131
  8
FUTO
 10
10051.642171953699
 20
24171.596925236441
 30
0.0
 11
9973.6421719537047
 21
24171.596925236441
 31
0.0
  0
LINE
  5
4132
  8
FUTO
 10
9941.1421719537029
 20
24161.59692523643
 30
0.0
 11
10006.142171953699
 21
24161.59692523643
 31
0.0
  0
LINE
  5
4133
  8
FUTO
 10
9941.1421719537029
 20
24161.59692523643
 30
0.0
 11
9941.1421719537029
 21
24171.596925236441
 31
0.0
  0
LINE
  5
4134
  8
FUTO
 10
10006.142171953699
 20
24161.59692523643
 30
0.0
 11
10006.142171953699
 21
24171.596925236441
 31
0.0
  0
LINE
  5
4135
  8
FUTO
 10
10053.642171953699
 20
24183.750001236429
 30
0.0
 11
10053.642171953699
 21
24173.596925236441
 31
0.0
  0
ARC
  5
4136
  8
FUTO
 10
10056.642171953699
 20
24183.750001236429
 30
0.0
 40
2.9999599999999988
 50
92.999557000034059
 51
180.0
  0
ARC
  5
4137
  8
FUTO
 10
10051.642171953699
 20
24173.596925236441
 30
0.0
 40
2.0
 50
270.0
 51
0.0
  0
LINE
  5
4138
  8
FUTO
 10
10003.642171953699
 20
24021.59692523643
 30
0.0
 11
9943.6421719537047
 21
24021.59692523643
 31
0.0
  0
LINE
  5
4139
  8
FUTO
 10
10177.142171953699
 20
24280.286012236429
 30
0.0
 11
10170.642171953699
 21
24272.475099236432
 31
0.0
  0
LINE
  5
413A
  8
FUTO
 10
10163.642171953699
 20
24253.09692523643
 30
0.0
 11
10162.732015953699
 21
24227.03369323643
 31
0.0
  0
LINE
  5
413B
  8
FUTO
 10
10170.642171953699
 20
24272.475099236432
 30
0.0
 11
10135.642171953699
 21
24263.096925236441
 31
0.0
  0
LINE
  5
413C
  8
FUTO
 10
10135.642171953699
 20
24258.09692523643
 30
0.0
 11
10135.642171953699
 21
24263.096925236441
 31
0.0
  0
LINE
  5
413D
  8
FUTO
 10
10135.642171953699
 20
24253.09692523643
 30
0.0
 11
10135.642171953699
 21
24258.09692523643
 31
0.0
  0
LINE
  5
413E
  8
FUTO
 10
10159.8091649537
 20
24220.31152523643
 30
0.0
 11
10132.8159999537
 21
24193.31836123643
 31
0.0
  0
ARC
  5
413F
  8
FUTO
 10
10125.7449559537
 20
24200.38940523643
 30
0.0
 40
10.000024
 50
272.99903899993512
 51
315.0
  0
ARC
  5
4140
  8
FUTO
 10
10152.738119953699
 20
24227.38257023643
 30
0.0
 40
9.9999679999999991
 50
315.0
 51
358.00067100000211
  0
LINE
  5
4142
  8
KL
 10
13981.101452646069
 20
21026.208229042521
 30
0.0
 11
13995.78088357038
 21
21026.208229042521
 31
0.0
  0
LINE
  5
4143
  8
KL
 10
13983.780944570381
 20
21006.208229042521
 30
0.0
 11
14018.780944570381
 21
21006.208229042521
 31
0.0
  0
LINE
  5
4144
  8
KL
 10
13656.46043649469
 20
21026.208229042521
 30
0.0
 11
13641.780944570381
 21
21026.208229042521
 31
0.0
  0
LINE
  5
4145
  8
KL
 10
13653.780944570381
 20
21006.208229042521
 30
0.0
 11
13618.780944570381
 21
21006.208229042521
 31
0.0
  0
LINE
  5
4147
  8
KL
 10
13718.780944570381
 20
21001.208229042521
 30
0.0
 11
13718.780944570381
 21
21006.208229042521
 31
0.0
  0
LINE
  5
4148
  8
KL
 10
13918.780944570381
 20
21006.208229042521
 30
0.0
 11
13918.780944570381
 21
21001.208229042521
 31
0.0
  0
LINE
  5
4153
  8
KL
 10
13673.780944570381
 20
21034.683815042521
 30
0.0
 11
13657.780944570381
 21
21025.446511042519
 31
0.0
  0
LINE
  5
4154
  8
KL
 10
13689.780944570381
 20
21025.446511042519
 30
0.0
 11
13673.780944570381
 21
21034.683815042521
 31
0.0
  0
LINE
  5
4155
  8
KL
 10
13673.780944570381
 20
20997.73362004252
 30
0.0
 11
13657.780944570381
 21
21006.970925042519
 31
0.0
  0
LINE
  5
4156
  8
KL
 10
13689.780944570381
 20
21006.970925042519
 30
0.0
 11
13673.780944570381
 21
20997.73362004252
 31
0.0
  0
LINE
  5
4157
  8
CT
 10
13643.780944570381
 20
21016.208229042521
 30
0.0
 11
13703.780944570381
 21
21016.208229042521
 31
0.0
  0
CIRCLE
  5
4158
  8
CT
 10
13673.780944570381
 20
21016.208229042521
 30
0.0
 40
16.0
  0
LINE
  5
4159
  8
KL
 10
13689.780944570381
 20
21006.970925042519
 30
0.0
 11
13689.780944570381
 21
21025.446511042519
 31
0.0
  0
LINE
  5
415A
  8
KL
 10
13657.780944570381
 20
21006.970925042519
 30
0.0
 11
13657.780944570381
 21
21025.446511042519
 31
0.0
  0
ARC
  5
415B
  8
KL
 10
13673.780944570381
 20
21016.208229042521
 30
0.0
 40
20.0
 50
0.000000000000007
 51
180.0
  0
ARC
  5
415C
  8
KL
 10
13566.780944570381
 20
20973.208229042521
 30
0.0
 40
3.0
 50
90.0
 51
180.0
  0
LINE
  5
415D
  8
KL
 10
13615.655944570381
 20
20976.208229042521
 30
0.0
 11
13566.780944570381
 21
20976.208229042521
 31
0.0
  0
LINE
  5
415E
  8
KL
 10
13620.780944570381
 20
20946.208229042521
 30
0.0
 11
13620.780944570381
 21
20951.208229042521
 31
0.0
  0
LINE
  5
415F
  8
KL
 10
13610.780944570381
 20
20958.208229042521
 30
0.0
 11
13610.780944570381
 21
20951.208229042521
 31
0.0
  0
LINE
  5
4160
  8
FUTO
 10
13620.780944570381
 20
20946.208229042521
 30
0.0
 11
13563.780944570381
 21
20946.208229042521
 31
0.0
  0
LINE
  5
4161
  8
KL
 10
13563.780944570381
 20
20946.208229042521
 30
0.0
 11
13563.780944570381
 21
20973.208229042521
 31
0.0
  0
LINE
  5
4162
  8
CT
 10
13588.780944570381
 20
20996.208229042521
 30
0.0
 11
13588.780944570381
 21
20926.208229042521
 31
0.0
  0
LINE
  5
4163
  8
KL
 10
13610.780944570381
 20
20958.208229042521
 30
0.0
 11
13653.780944570381
 21
20958.208229042521
 31
0.0
  0
LINE
  5
4164
  8
KL
 10
13618.780944570381
 20
21006.208229042521
 30
0.0
 11
13613.780944570381
 21
20958.208229042521
 31
0.0
  0
LINE
  5
4165
  8
KL
 10
13693.780944570381
 20
21016.208229042521
 30
0.0
 11
13693.780944570381
 21
20951.208229042521
 31
0.0
  0
LINE
  5
4166
  8
KL
 10
13653.780944570381
 20
20951.208229042521
 30
0.0
 11
13653.780944570381
 21
21016.208229042521
 31
0.0
  0
LINE
  5
4167
  8
CT
 10
13673.780944570381
 20
20941.208229042521
 30
0.0
 11
13673.780944570381
 21
21046.208229042521
 31
0.0
  0
LINE
  5
4168
  8
KL
 10
13947.780944570381
 20
21025.446511042519
 30
0.0
 11
13963.780944570381
 21
21034.683815042521
 31
0.0
  0
LINE
  5
4169
  8
KL
 10
13947.780944570381
 20
21006.970925042519
 30
0.0
 11
13963.780944570381
 21
20997.73362004252
 31
0.0
  0
LINE
  5
416A
  8
KL
 10
13947.780944570381
 20
21006.970925042519
 30
0.0
 11
13947.780944570381
 21
21025.446511042519
 31
0.0
  0
LINE
  5
416B
  8
KL
 10
13979.780944570381
 20
21006.970925042519
 30
0.0
 11
13979.780944570381
 21
21025.446511042519
 31
0.0
  0
CIRCLE
  5
416C
  8
KL
 10
13963.780944570381
 20
21016.208229042521
 30
0.0
 40
16.0
  0
LINE
  5
416D
  8
KL
 10
13963.780944570381
 20
21034.683815042521
 30
0.0
 11
13979.780944570381
 21
21025.446511042519
 31
0.0
  0
LINE
  5
416E
  8
KL
 10
13963.780944570381
 20
20997.73362004252
 30
0.0
 11
13979.780944570381
 21
21006.970925042519
 31
0.0
  0
ARC
  5
416F
  8
KL
 10
13963.780944570381
 20
21016.208229042521
 30
0.0
 40
20.0
 50
0.000000000000007
 51
180.0
  0
LINE
  5
4170
  8
CT
 10
13993.780944570381
 20
21016.208229042521
 30
0.0
 11
13933.780944570381
 21
21016.208229042521
 31
0.0
  0
LINE
  5
4171
  8
KL
 10
13718.780944570381
 20
21001.208229042521
 30
0.0
 11
13918.780944570381
 21
21001.208229042521
 31
0.0
  0
LINE
  5
4172
  8
KL
 10
14016.780944570381
 20
20946.208229042521
 30
0.0
 11
14016.780944570381
 21
20951.208229042521
 31
0.0
  0
LINE
  5
4173
  8
KL
 10
14026.780944570381
 20
20958.208229042521
 30
0.0
 11
14026.780944570381
 21
20951.208229042521
 31
0.0
  0
LINE
  5
4174
  8
KL
 10
14026.780944570381
 20
20958.208229042521
 30
0.0
 11
13983.780944570381
 21
20958.208229042521
 31
0.0
  0
LINE
  5
4175
  8
CT
 10
14048.780944570381
 20
20996.208229042521
 30
0.0
 11
14048.780944570381
 21
20926.208229042521
 31
0.0
  0
ARC
  5
4176
  8
KL
 10
14070.780944570381
 20
20973.208229042521
 30
0.0
 40
3.0
 50
0.000000000000007
 51
90.0
  0
LINE
  5
4177
  8
KL
 10
14073.780944570381
 20
20946.208229042521
 30
0.0
 11
14073.780944570381
 21
20973.208229042521
 31
0.0
  0
LINE
  5
4178
  8
KL
 10
14021.905944570381
 20
20976.208229042521
 30
0.0
 11
14070.780944570381
 21
20976.208229042521
 31
0.0
  0
LINE
  5
4179
  8
KL
 10
14016.780944570381
 20
20946.208229042521
 30
0.0
 11
14073.780944570381
 21
20946.208229042521
 31
0.0
  0
LINE
  5
417A
  8
KL
 10
14018.780944570381
 20
21006.208229042521
 30
0.0
 11
14023.780944570381
 21
20958.208229042521
 31
0.0
  0
LINE
  5
417B
  8
KL
 10
13943.780944570381
 20
21016.208229042521
 30
0.0
 11
13943.780944570381
 21
20951.208229042521
 31
0.0
  0
LINE
  5
417C
  8
KL
 10
13983.780944570381
 20
20951.208229042521
 30
0.0
 11
13983.780944570381
 21
21016.208229042521
 31
0.0
  0
LINE
  5
417D
  8
CT
 10
13963.780944570381
 20
20941.208229042521
 30
0.0
 11
13963.780944570381
 21
21046.208229042521
 31
0.0
  0
LINE
  5
41CF
  8
KL
 10
13693.780944570381
 20
20958.208229042521
 30
0.0
 11
13943.780944570381
 21
20958.208229042521
 31
0.0
  0
LINE
  5
41D0
  8
KL
 10
13610.780944570381
 20
20951.208229042521
 30
0.0
 11
14026.780944570381
 21
20951.208229042521
 31
0.0
  0
LINE
  5
41D1
  8
KL
 10
13634.780944570381
 20
21368.208229042521
 30
0.0
 11
13634.780944570381
 21
21331.208229042521
 31
0.0
  0
ARC
  5
41D2
  8
FUTO
 10
13599.066589570381
 20
21385.304177042519
 30
0.0
 40
9.9999679999999991
 50
91.999328999997914
 51
135.0
  0
ARC
  5
41D3
  8
FUTO
 10
13572.073424570381
 20
21358.311013042519
 30
0.0
 40
10.000024
 50
135.0
 51
177.00096100006479
  0
LINE
  5
41D4
  8
FUTO
 10
13591.99554457038
 20
21392.375222042519
 30
0.0
 11
13565.00238057038
 21
21365.38205704252
 31
0.0
  0
LINE
  5
41D5
  8
KL
 10
13624.780944570381
 20
21368.208229042521
 30
0.0
 11
13629.780944570381
 21
21368.208229042521
 31
0.0
  0
LINE
  5
41D6
  8
KL
 10
13629.780944570381
 20
21368.208229042521
 30
0.0
 11
13634.780944570381
 21
21368.208229042521
 31
0.0
  0
LINE
  5
41D7
  8
KL
 10
13644.15911857038
 20
21403.208229042521
 30
0.0
 11
13634.780944570381
 21
21368.208229042521
 31
0.0
  0
LINE
  5
41D8
  8
KL
 10
13624.780944570381
 20
21396.208229042521
 30
0.0
 11
13598.71771257038
 21
21395.298073042519
 31
0.0
  0
LINE
  5
41DA
  8
KL
 10
13659.780944570381
 20
21416.208229042521
 30
0.0
 11
13644.15911857038
 21
21403.208229042521
 31
0.0
  0
LINE
  5
41DB
  8
FUTO
 10
13393.280944570381
 20
21240.208229042521
 30
0.0
 11
13393.280944570381
 21
21176.208229042521
 31
0.0
  0
ARC
  5
41DC
  8
FUTO
 10
13545.280944570381
 20
21284.208229042521
 30
0.0
 40
2.0
 50
90.0
 51
180.0
  0
ARC
  5
41EB
  8
KL
 10
13644.780944570381
 20
21331.208229042521
 30
0.0
 40
10.0
 50
90.0
 51
180.0
  0
ARC
  5
41EE
  8
FUTO
 10
13555.434020570379
 20
21289.208229042521
 30
0.0
 40
2.9999599999999988
 50
270.0
 51
357.00044299996591
  0
LINE
  5
41EF
  8
FUTO
 10
13555.434020570379
 20
21286.208229042521
 30
0.0
 11
13545.280944570381
 21
21286.208229042521
 31
0.0
  0
LINE
  5
41F0
  8
FUTO
 10
13503.280944570381
 20
21240.208229042521
 30
0.0
 11
13503.280944570381
 21
21236.208229042521
 31
0.0
  0
LINE
  5
41F1
  8
FUTO
 10
13533.280944570381
 20
21238.708229042521
 30
0.0
 11
13543.280944570381
 21
21238.708229042521
 31
0.0
  0
LINE
  5
41F2
  8
FUTO
 10
13533.280944570381
 20
21173.708229042521
 30
0.0
 11
13543.280944570381
 21
21173.708229042521
 31
0.0
  0
LINE
  5
41F3
  8
FUTO
 10
13533.280944570381
 20
21173.708229042521
 30
0.0
 11
13533.280944570381
 21
21238.708229042521
 31
0.0
  0
ARC
  5
41F4
  8
KL
 10
13644.780944570381
 20
21231.208229042521
 30
0.0
 40
10.0
 50
180.0
 51
270.0
  0
LINE
  5
41F5
  8
FUTO
 10
13543.280944570381
 20
21284.208229042521
 30
0.0
 11
13543.280944570381
 21
21206.208229042521
 31
0.0
  0
LINE
  5
41F6
  8
KL
 10
13634.780944570381
 20
21231.208229042521
 30
0.0
 11
13634.780944570381
 21
21331.208229042521
 31
0.0
  0
LINE
  5
41F7
  8
FUTO
 10
13533.280944570381
 20
21236.208229042521
 30
0.0
 11
13393.280944570381
 21
21236.208229042521
 31
0.0
  0
LINE
  5
41F8
  8
FUTO
 10
13533.280944570381
 20
21176.208229042521
 30
0.0
 11
13393.280944570381
 21
21176.208229042521
 31
0.0
  0
LINE
  5
41F9
  8
FUTO
 10
13503.280944570381
 20
21240.208229042521
 30
0.0
 11
13393.280944570381
 21
21240.208229042521
 31
0.0
  0
LINE
  5
41FA
  8
KL
 10
13629.780944570381
 20
21368.208229042521
 30
0.0
 11
13629.780944570381
 21
21206.208229042521
 31
0.0
  0
LINE
  5
41FB
  8
KL
 10
13624.780944570381
 20
21396.208229042521
 30
0.0
 11
13624.780944570381
 21
21206.208229042521
 31
0.0
  0
LINE
  5
41FC
  8
FUTO
 10
13562.08709657038
 20
21358.83420604252
 30
0.0
 11
13557.44427457038
 21
21270.242897042521
 31
0.0
  0
LINE
  5
41FE
  8
KL
 10
13629.780944570381
 20
21368.208229042521
 30
0.0
 11
13629.780944570381
 21
21206.208229042521
 31
0.0
  0
ARC
  5
41FF
  8
KL
 10
13807.54595957038
 20
21424.487343042521
 30
0.0
 40
2.9999909999999992
 50
96.115172999988943
 51
174.80557100002201
  0
LINE
  5
4200
  8
KL
 10
13804.558288570381
 20
21424.75895004252
 30
0.0
 11
13803.780944570381
 21
21416.208229042521
 31
0.0
  0
ARC
  5
4201
  8
KL
 10
13797.822570570381
 20
21416.938027042521
 30
0.0
 40
5.9999760000000002
 50
354.8055729999931
 51
54.396262999995557
  0
ARC
  5
4202
  8
KL
 10
13830.01592957038
 20
21424.487343042521
 30
0.0
 40
2.999981
 50
5.194427000006832
 51
83.884827000011072
  0
ARC
  5
4203
  8
KL
 10
13818.780944570381
 20
21446.208229042521
 30
0.0
 40
30.0
 50
305.19004800000442
 51
305.60386699997889
  0
LINE
  5
4204
  8
KL
 10
13818.780944570381
 20
21428.708229042521
 30
0.0
 11
13830.335509570379
 21
21427.47025304252
 31
0.0
  0
LINE
  5
4205
  8
KL
 10
13833.003600570381
 20
21424.75895004252
 30
0.0
 11
13833.780944570381
 21
21416.208229042521
 31
0.0
  0
ARC
  5
4206
  8
KL
 10
13839.73931857038
 20
21416.938027042521
 30
0.0
 40
5.9999820000000001
 50
125.6037370000044
 51
185.19442700000681
  0
LINE
  5
4207
  8
KL
 10
13818.780944570381
 20
21428.708229042521
 30
0.0
 11
13807.22637957038
 21
21427.47025304252
 31
0.0
  0
LINE
  5
4208
  8
KL
 10
13807.22637957038
 20
21427.47025304252
 30
0.0
 11
13830.335509570379
 21
21427.47025304252
 31
0.0
  0
LINE
  5
4209
  8
CT
 10
13858.780944570381
 20
21446.208229042521
 30
0.0
 11
13778.780944570381
 21
21446.208229042521
 31
0.0
  0
LINE
  5
420A
  8
KL
 10
13759.780944570381
 20
21355.208229042521
 30
0.0
 11
13877.780944570381
 21
21355.208229042521
 31
0.0
  0
CIRCLE
  5
420B
  8
KL
 10
13818.780944570381
 20
21446.208229042521
 30
0.0
 40
17.5
  0
ARC
  5
420C
  8
KL
 10
13818.780944570381
 20
21446.208229042521
 30
0.0
 40
30.0
 50
305.60386699997889
 51
234.39614899998969
  0
LINE
  5
420D
  8
KL
 10
13977.78088357038
 20
21416.208229042521
 30
0.0
 11
13987.78088357038
 21
21407.88645204252
 31
0.0
  0
ARC
  5
420E
  8
KL
 10
14034.254272570381
 20
21389.708229042521
 30
0.0
 40
20.0
 50
69.999953999991405
 51
90.0
  0
ARC
  5
420F
  8
KL
 10
14071.52966257038
 20
21418.708229042521
 30
0.0
 40
20.0
 50
250.0002749999968
 51
270.0
  0
LINE
  5
4212
  8
KL
 10
14041.09472657038
 20
21408.502175042519
 30
0.0
 11
14064.68933057038
 21
21399.914284042519
 31
0.0
  0
LINE
  5
4213
  8
KL
 10
13987.78088357038
 20
21409.708229042521
 30
0.0
 11
14034.254272570381
 21
21409.708229042521
 31
0.0
  0
LINE
  5
4214
  8
KL
 10
13977.78088357038
 20
21416.208229042521
 30
0.0
 11
13818.780944570381
 21
21416.208229042521
 31
0.0
  0
LINE
  5
4215
  8
KL
 10
13880.78088357038
 20
21348.208229042521
 30
0.0
 11
13756.780944570381
 21
21348.208229042521
 31
0.0
  0
ARC
  5
4216
  8
KL
 10
13756.780944570381
 20
21173.51047504252
 30
0.0
 40
20.0
 50
180.0
 51
270.0
  0
CIRCLE
  5
4217
  8
KL
 10
13818.780944570381
 20
21140.51047504252
 30
0.0
 40
3.5
  0
LINE
  5
4218
  8
KL
 10
13825.23382557038
 20
21140.51047504252
 30
0.0
 11
13810.644714570381
 21
21140.51047504252
 31
0.0
  0
LINE
  5
4219
  8
KL
 10
13756.780944570381
 20
21153.51047504252
 30
0.0
 11
13880.780944570381
 21
21153.51047504252
 31
0.0
  0
LINE
  5
421A
  8
KL
 10
13877.78088357038
 20
21133.51047504252
 30
0.0
 11
13759.780944570381
 21
21133.51047504252
 31
0.0
  0
LINE
  5
421B
  8
KL
 10
13736.780944570381
 20
21328.208229042521
 30
0.0
 11
13736.780944570381
 21
21173.51047504252
 31
0.0
  0
LINE
  5
421C
  8
KL
 10
13729.780944570381
 20
21325.208229042521
 30
0.0
 11
13729.780944570381
 21
21163.51047504252
 31
0.0
  0
LINE
  5
421D
  8
KL
 10
13987.78088357038
 20
21341.208229042521
 30
0.0
 11
13903.15808057038
 21
21341.208229042521
 31
0.0
  0
LINE
  5
4221
  8
KL
 10
13987.78088357038
 20
21221.208229042521
 30
0.0
 11
13907.78088357038
 21
21221.208229042521
 31
0.0
  0
LINE
  5
4222
  8
KL
 10
13900.78088357038
 20
21328.208229042521
 30
0.0
 11
13900.78088357038
 21
21173.51047504252
 31
0.0
  0
LINE
  5
4223
  8
KL
 10
13907.78088357038
 20
21325.208229042521
 30
0.0
 11
13907.78088357038
 21
21163.51047504252
 31
0.0
  0
ARC
  5
4224
  8
KL
 10
13880.78088357038
 20
21173.51047504252
 30
0.0
 40
20.0
 50
270.0
 51
0.000000000000007
  0
LINE
  5
4225
  8
CT
 10
13927.78088357038
 20
21281.208229042521
 30
0.0
 11
13709.780944570381
 21
21281.208229042521
 31
0.0
  0
ARC
  5
4226
  8
KL
 10
13880.78088357038
 20
21328.208229042521
 30
0.0
 40
20.0
 50
0.000000000000007
 51
90.0
  0
ARC
  5
4227
  8
KL
 10
13756.780944570381
 20
21328.208229042521
 30
0.0
 40
20.0
 50
90.0
 51
180.0
  0
ARC
  5
4228
  8
KL
 10
13759.780944570381
 20
21325.208229042521
 30
0.0
 40
30.0
 50
90.0
 51
180.0
  0
ARC
  5
4229
  8
KL
 10
13877.78088357038
 20
21325.208229042521
 30
0.0
 40
30.0
 50
0.000000000000007
 51
90.0
  0
LINE
  5
422E
  8
KL
 10
13659.780944570381
 20
21416.208229042521
 30
0.0
 11
13818.780944570381
 21
21416.208229042521
 31
0.0
  0
LINE
  5
422F
  8
KL
 10
13644.780944570381
 20
21341.208229042521
 30
0.0
 11
13734.403747570381
 21
21341.208229042521
 31
0.0
  0
LINE
  5
4230
  8
KL
 10
13644.780944570381
 20
21221.208229042521
 30
0.0
 11
13729.780944570381
 21
21221.208229042521
 31
0.0
  0
ARC
  5
4231
  8
FUTO
 10
13545.280944570381
 20
21128.208229042521
 30
0.0
 40
2.0
 50
180.0
 51
270.0
  0
ARC
  5
4232
  8
FUTO
 10
13555.434020570379
 20
21123.208229042521
 30
0.0
 40
3.0
 50
2.9995570000340721
 51
90.0
  0
ARC
  5
4233
  8
FUTO
 10
13570.13055357038
 20
21091.176491042519
 30
0.0
 40
10.000139999999989
 50
183.00042699998181
 51
225.00097700000649
  0
ARC
  5
4241
  8
FUTO
 10
13598.92303457038
 20
21062.384011042519
 30
0.0
 40
10.0
 50
225.0
 51
270.0
  0
ARC
  5
4242
  8
FUTO
 10
13572.073424570381
 20
21054.105446042518
 30
0.0
 40
9.9999679999999991
 50
182.9990539999759
 51
225.0
  0
LINE
  5
4243
  8
KL
 10
13634.780944570381
 20
21054.447487042518
 30
0.0
 11
13653.86956757038
 21
21054.447487042518
 31
0.0
  0
LINE
  5
4244
  8
KL
 10
13635.816833570379
 20
21044.208229042521
 30
0.0
 11
13629.780944570381
 21
21044.208229042521
 31
0.0
  0
LINE
  5
4245
  8
KL
 10
13624.780944570381
 20
21044.208229042521
 30
0.0
 11
13629.780944570381
 21
21044.208229042521
 31
0.0
  0
ARC
  5
4246
  8
KL
 10
13641.780944570381
 20
21023.208229042521
 30
0.0
 40
3.0
 50
90.0
 51
180.0
  0
ARC
  5
4247
  8
KL
 10
13648.86956757038
 20
21031.208229042521
 30
0.0
 40
5.0
 50
270.0
 51
0.000000000000007
  0
LINE
  5
4248
  8
KL
 10
13634.780944570381
 20
21047.334694042522
 30
0.0
 11
13637.339538570381
 21
21047.334694042522
 31
0.0
  0
LINE
  5
4249
  8
KL
 10
13641.780944570381
 20
21026.208229042521
 30
0.0
 11
13634.780944570381
 21
21047.334694042522
 31
0.0
  0
LINE
  5
424A
  8
KL
 10
13653.86956757038
 20
21031.208229042521
 30
0.0
 11
13653.86956757038
 21
21054.447487042518
 31
0.0
  0
LINE
  5
424B
  8
KL
 10
13644.93914757038
 20
21026.208229042521
 30
0.0
 11
13634.780944570381
 21
21054.447487042518
 31
0.0
  0
LINE
  5
424C
  8
KL
 10
13598.92303457038
 20
21052.384011042519
 30
0.0
 11
13624.780944570381
 21
21052.384011042519
 31
0.0
  0
LINE
  5
424E
  8
FUTO
 10
13558.41229257038
 20
21123.703469042521
 30
0.0
 11
13562.08709657038
 21
21053.582253042521
 31
0.0
  0
LINE
  5
4250
  8
FUTO
 10
13591.851989570379
 20
21055.312966042518
 30
0.0
 11
13563.059508570381
 21
21084.10520204252
 31
0.0
  0
LINE
  5
4253
  8
FUTO
 10
13555.434020570379
 20
21126.208229042521
 30
0.0
 11
13545.280944570381
 21
21126.208229042521
 31
0.0
  0
ARC
  5
4254
  8
FUTO
 10
13599.066589570381
 20
21027.112282042519
 30
0.0
 40
9.9999839999999995
 50
225.0
 51
268.00067100000211
  0
LINE
  5
4255
  8
KL
 10
13624.780944570381
 20
21016.208229042521
 30
0.0
 11
13598.71771257038
 21
21017.118386042519
 31
0.0
  0
LINE
  5
4256
  8
KL
 10
13638.780944570381
 20
21006.208229042521
 30
0.0
 11
13638.780944570381
 21
21023.208229042521
 31
0.0
  0
LINE
  5
4257
  8
FUTO
 10
13591.99554457038
 20
21020.041237042518
 30
0.0
 11
13565.00238057038
 21
21047.034401042521
 31
0.0
  0
LINE
  5
4258
  8
KL
 10
13779.18084657038
 20
21027.81614004252
 30
0.0
 11
13698.780944570381
 21
21026.208229042521
 31
0.0
  0
ARC
  5
4259
  8
KL
 10
13793.780944570381
 20
21088.704323042519
 30
0.0
 40
5.0
 50
0.000000000000007
 51
90.0
  0
ARC
  5
425A
  8
KL
 10
13843.780944570381
 20
21088.704323042519
 30
0.0
 40
5.0
 50
90.0
 51
180.0
  0
ARC
  5
425B
  8
KL
 10
13858.78088357038
 20
21047.812233042521
 30
0.0
 40
20.000091999999999
 50
180.0
 51
268.85427899999138
  0
LINE
  5
425C
  8
KL
 10
13838.780944570381
 20
21088.704323042519
 30
0.0
 11
13838.780944570381
 21
21047.812233042521
 31
0.0
  0
LINE
  5
425D
  8
KL
 10
13798.780944570381
 20
21088.704323042519
 30
0.0
 11
13798.780944570381
 21
21047.812233042521
 31
0.0
  0
ARC
  5
425E
  8
KL
 10
13778.780944570381
 20
21047.812233042521
 30
0.0
 40
20.0
 50
271.14572100000839
 51
0.000000000000007
  0
LINE
  5
425F
  8
KL
 10
13718.780944570381
 20
21006.208229042521
 30
0.0
 11
13718.780944570381
 21
21007.208229042521
 31
0.0
  0
ARC
  5
4260
  8
KL
 10
13723.780944570381
 20
21007.208229042521
 30
0.0
 40
5.0
 50
90.0
 51
180.0
  0
LINE
  5
4261
  8
KL
 10
13723.780944570381
 20
21012.208229042521
 30
0.0
 11
13818.780944570381
 21
21012.208229042521
 31
0.0
  0
ARC
  5
4262
  8
KL
 10
13995.78088357038
 20
21023.208229042521
 30
0.0
 40
3.0
 50
0.000000000000007
 51
90.0
  0
LINE
  5
4263
  8
KL
 10
13938.78088357038
 20
21026.208229042521
 30
0.0
 11
13946.46043649469
 21
21026.208229042521
 31
0.0
  0
ARC
  5
426D
  8
KL
 10
13913.78088357038
 20
21007.208229042521
 30
0.0
 40
5.0
 50
0.000000000000007
 51
90.0
  0
LINE
  5
426E
  8
KL
 10
13918.78088357038
 20
21006.208229042521
 30
0.0
 11
13918.78088357038
 21
21007.208229042521
 31
0.0
  0
LINE
  5
426F
  8
KL
 10
13918.78088357038
 20
21006.208229042521
 30
0.0
 11
13943.780944570381
 21
21006.208229042521
 31
0.0
  0
LINE
  5
4270
  8
KL
 10
14058.386962570379
 20
21010.208229042521
 30
0.0
 11
14068.002929570381
 21
21013.708229042521
 31
0.0
  0
LINE
  5
4271
  8
KL
 10
14058.386962570379
 20
21010.208229042521
 30
0.0
 11
13998.78088357038
 21
21010.208229042521
 31
0.0
  0
LINE
  5
4272
  8
KL
 10
13998.78088357038
 20
21006.208229042521
 30
0.0
 11
13998.78088357038
 21
21023.208229042521
 31
0.0
  0
LINE
  5
4273
  8
KL
 10
13858.380981570381
 20
21027.81614004252
 30
0.0
 11
13938.78088357038
 21
21026.208229042521
 31
0.0
  0
LINE
  5
4274
  8
KL
 10
13913.78088357038
 20
21012.208229042521
 30
0.0
 11
13818.780944570381
 21
21012.208229042521
 31
0.0
  0
LINE
  5
4275
  8
KL
 10
13698.780944570381
 20
21026.208229042521
 30
0.0
 11
13691.101452646069
 21
21026.208229042521
 31
0.0
  0
LINE
  5
4276
  8
KL
 10
13718.780944570381
 20
21006.208229042521
 30
0.0
 11
13693.780944570381
 21
21006.208229042521
 31
0.0
  0
ARC
  5
4277
  8
KL
 10
13877.78088357038
 20
21163.51047504252
 30
0.0
 40
30.0
 50
270.0
 51
0.000000000000007
  0
ARC
  5
4278
  8
KL
 10
13759.780944570381
 20
21163.51047504252
 30
0.0
 40
30.0
 50
180.0
 51
270.0
  0
LINE
  5
4279
  8
CT
 10
13818.780944570381
 20
21496.208229042521
 30
0.0
 11
13818.780944570381
 21
20926.208229042521
 31
0.0
  0
LINE
  5
427A
  8
KL
 10
13629.780944570381
 20
21044.208229042521
 30
0.0
 11
13629.780944570381
 21
21206.208229042521
 31
0.0
  0
LINE
  5
427B
  8
KL
 10
13987.78088357038
 20
21409.708229042521
 30
0.0
 11
13987.78088357038
 21
21026.208229042521
 31
0.0
  0
LINE
  5
427C
  8
KL
 10
14037.78088357038
 20
21409.394753042521
 30
0.0
 11
14037.78088357038
 21
21010.208229042521
 31
0.0
  0
LINE
  5
427D
  8
KL
 10
14067.98083457038
 20
21399.025612042518
 30
0.0
 11
14067.98083457038
 21
21013.708229042521
 31
0.0
  0
LINE
  5
427E
  8
KL
 10
13629.780944570381
 20
21044.208229042521
 30
0.0
 11
13629.780944570381
 21
21206.208229042521
 31
0.0
  0
LINE
  5
427F
  8
KL
 10
13624.780944570381
 20
21016.208229042521
 30
0.0
 11
13624.780944570381
 21
21206.208229042521
 31
0.0
  0
LINE
  5
4280
  8
FUTO
 10
13543.280944570381
 20
21128.208229042521
 30
0.0
 11
13543.280944570381
 21
21206.208229042521
 31
0.0
  0
ARC
  5
4281
  8
KL
 10
14132.469970570381
 20
21383.708229042521
 30
0.0
 40
15.0
 50
60.00018300001819
 51
90.0
  0
ARC
  5
4282
  8
KL
 10
14187.78088357038
 20
21363.321511042519
 30
0.0
 40
4.9999580000000003
 50
0.000000000000007
 51
59.999718000027237
  0
LINE
  5
4283
  8
KL
 10
14190.28088357038
 20
21367.651589042522
 30
0.0
 11
14139.969970570381
 21
21396.698708042521
 31
0.0
  0
ARC
  5
42CC
  8
KL
 10
14187.78088357038
 20
21049.094948042519
 30
0.0
 40
5.0
 50
300.00027500002068
 51
0.000000000000007
  0
ARC
  5
42CE
  8
KL
 10
14132.469970570381
 20
21028.708229042521
 30
0.0
 40
15.000085
 50
270.0
 51
299.99981699998182
  0
LINE
  5
42CF
  8
KL
 10
14190.28088357038
 20
21044.76487004252
 30
0.0
 11
14139.969970570381
 21
21015.717751042521
 31
0.0
  0
LINE
  5
4301
  8
KL
 10
14133.68090757038
 20
21013.708229042521
 30
0.0
 11
14133.68090757038
 21
21398.659157042519
 31
0.0
  0
LINE
  5
4305
  8
KL
 10
14192.780944570381
 20
21363.858193042521
 30
0.0
 11
14192.780944570381
 21
21049.067879042519
 31
0.0
  0
LINE
  5
4306
  8
CT
 10
13373.280944570381
 20
21206.208229042521
 30
0.0
 11
14212.780944570381
 21
21206.208229042521
 31
0.0
  0
LINE
  5
4307
  8
KL
 10
14071.52966257038
 20
21398.708229042521
 30
0.0
 11
14132.469970570381
 21
21398.708229042521
 31
0.0
  0
LINE
  5
4308
  8
KL
 10
14067.98083457038
 20
21013.708229042521
 30
0.0
 11
14132.469970570381
 21
21013.708229042521
 31
0.0
  0
LINE
  5
430D
  8
CT
 10
10108.642171953699
 20
24217.09692523643
 30
0.0
 11
10158.642171953699
 21
24217.09692523643
 31
0.0
  0
LINE
  5
430E
  8
CT
 10
10133.642171953699
 20
24192.09692523643
 30
0.0
 11
10133.642171953699
 21
24242.096925236441
 31
0.0
  0
LINE
  5
430F
  8
CT
 10
9813.6421719537011
 20
24192.09692523643
 30
0.0
 11
9813.6421719537011
 21
24242.096925236441
 31
0.0
  0
LINE
  5
4310
  8
CT
 10
9838.6421719537066
 20
24217.09692523643
 30
0.0
 11
9788.6421719537047
 21
24217.09692523643
 31
0.0
  0
LINE
  5
4311
  8
CT
 10
9838.6421719537066
 20
24677.09692523643
 30
0.0
 11
9788.6421719537047
 21
24677.09692523643
 31
0.0
  0
LINE
  5
4312
  8
CT
 10
9813.6421719537011
 20
24702.09692523643
 30
0.0
 11
9813.6421719537011
 21
24652.09692523643
 31
0.0
  0
LINE
  5
4313
  8
CT
 10
10133.642171953699
 20
24702.09692523643
 30
0.0
 11
10133.642171953699
 21
24652.09692523643
 31
0.0
  0
LINE
  5
4314
  8
CT
 10
10108.642171953699
 20
24677.09692523643
 30
0.0
 11
10158.642171953699
 21
24677.09692523643
 31
0.0
  0
LINE
  5
4315
  8
FUTO
 10
9753.6421719537029
 20
24166.59692523643
 30
0.0
 11
9753.6421719537029
 21
23911.59692523643
 31
0.0
  0
LINE
  5
4316
  8
FUTO
 10
9623.6421719537047
 20
24217.59692523643
 30
0.0
 11
9623.6421719537047
 21
24144.59692523643
 31
0.0
  0
LINE
  5
4317
  8
FUTO
 10
9763.6421719537029
 20
25120.596925236441
 30
0.0
 11
9763.6421719537029
 21
24217.59692523643
 31
0.0
  0
LINE
  5
4319
  8
FUTO
 10
10108.642171953699
 20
25120.596925236441
 30
0.0
 11
10108.642171953699
 21
24821.09692523643
 31
0.0
  0
LINE
  5
431A
  8
FUTO
 10
10183.642171953699
 20
25120.596925236441
 30
0.0
 11
10183.642171953699
 21
24217.59692523643
 31
0.0
  0
LINE
  5
431B
  8
SL
 10
9838.6421719537011
 20
24821.09692523643
 30
0.0
 11
9838.6421719537011
 21
24211.596925236441
 31
0.0
  0
LINE
  5
431C
  8
SL
 10
10108.642171953699
 20
24821.09692523643
 30
0.0
 11
10108.642171953699
 21
24211.596925236441
 31
0.0
  0
LINE
  5
431D
  8
FUTO
 10
12176.642171953699
 20
26269.596925236441
 30
0.0
 11
12176.642171953699
 21
25731.59692523643
 31
0.0
  0
LINE
  5
431F
  8
FUTO
 10
12226.642171953699
 20
26315.59692523643
 30
0.0
 11
12226.642171953699
 21
25731.59692523643
 31
0.0
  0
LINE
  5
432D
  8
FUTO
 10
12226.642171953699
 20
26315.59692523643
 30
0.0
 11
9628.6421719537047
 21
26315.59692523643
 31
0.0
  0
LINE
  5
433D
  8
FUTO
 10
9628.6421719537047
 20
25147.59692523643
 30
0.0
 11
9628.6421719537047
 21
26315.59692523643
 31
0.0
  0
LINE
  5
433E
  8
FUTO
 10
11132.642171953699
 20
25147.59692523643
 30
0.0
 11
11132.642171953699
 21
26269.596925236441
 31
0.0
  0
LINE
  5
433F
  8
FUTO
 10
11186.642171953699
 20
25147.59692523643
 30
0.0
 11
11186.642171953699
 21
26315.59692523643
 31
0.0
  0
LINE
  5
4341
  8
FUTO
 10
12226.642171953699
 20
25147.59692523643
 30
0.0
 11
9628.6421719537047
 21
25147.59692523643
 31
0.0
  0
LINE
  5
4342
  8
FUTO
 10
12176.642171953699
 20
25193.59692523643
 30
0.0
 11
10323.642171953699
 21
25193.59692523643
 31
0.0
  0
LINE
  5
4343
  8
FUTO
 10
12176.642171953699
 20
25193.59692523643
 30
0.0
 11
12176.642171953699
 21
25731.59692523643
 31
0.0
  0
LINE
  5
4344
  8
FUTO
 10
12226.642171953699
 20
25147.59692523643
 30
0.0
 11
12226.642171953699
 21
25731.59692523643
 31
0.0
  0
LINE
  5
4345
  8
FUTO
 10
9682.6421719537047
 20
25195.59692523643
 30
0.0
 11
9682.6421719537047
 21
26269.596925236441
 31
0.0
  0
LINE
  5
4347
  8
FUTO
 10
12023.642171953699
 20
25147.59692523643
 30
0.0
 11
12023.642171953699
 21
25120.596925236441
 31
0.0
  0
LINE
  5
4348
  8
FUTO
 10
9628.6421719537047
 20
25195.59692523643
 30
0.0
 11
9623.6421719537047
 21
25195.59692523643
 31
0.0
  0
LINE
  5
4349
  8
FUTO
 10
10872.108672350119
 20
24217.59692523643
 30
0.0
 11
10872.108672350119
 21
25147.59692523643
 31
0.0
  0
LINE
  5
434A
  8
FUTO
 10
11475.175671557279
 20
24217.59692523643
 30
0.0
 11
11475.175671557279
 21
25147.59692523643
 31
0.0
  0
LINE
  5
434B
  8
SL
 10
9682.6421719537047
 20
26269.596925236441
 30
0.0
 11
11132.642171953699
 21
25195.59692523643
 31
0.0
  0
LINE
  5
434C
  8
SL
 10
11132.642171953699
 20
26269.596925236441
 30
0.0
 11
9682.6421719537047
 21
25195.59692523643
 31
0.0
  0
DIMENSION
  5
4368
  8
FUTO
  2
*D12
 10
11173.642171953699
 20
23300.038612591761
 30
0.0
 11
10401.142171953699
 21
23360.038612591761
 31
0.0
 70
     0
 13
9628.6421719537047
 23
22966.208229042521
 33
0.0
 14
11173.642171953699
 24
23037.769623362481
 34
0.0
1001
ACAD
1000
DSTYLE
1002
{
1070
    40
1040
30.0
1070
   176
1070
     2
1070
   177
1070
     2
1070
   178
1070
     2
1070
   341
1005
44D5
1070
     5
1000
OPEN30
1002
}
  0
LINE
  5
457C
  8
FUTO
 62
     2
 10
12053.642171953699
 20
20796.208229042521
 30
0.0
 11
12681.53397100542
 21
20796.208229042521
 31
0.0
  0
LINE
  5
457E
  8
FUTO
 62
     2
 10
12651.53397100542
 20
20856.208229042521
 30
0.0
 11
12651.53397100542
 21
20916.208229042521
 31
0.0
  0
INSERT
  5
4581
  8
FUTO
 62
     2
  2
_OPEN30
 10
12651.53397100542
 20
20796.208229042521
 30
0.0
 41
60.0
 42
60.0
 43
60.0
 50
270.0
  0
LINE
  5
4593
  8
FUTO
 10
10761.540047615121
 20
21382.007265545311
 30
0.0
 11
10673.642171953699
 21
20946.208229042521
 31
0.0
  0
LINE
  5
4594
  8
FUTO
 10
11494.772788249849
 20
21833.045419263632
 30
0.0
 11
11673.642171953699
 21
20946.208229042521
 31
0.0
  0
LINE
  5
4595
  8
KL
 10
10342.642171953699
 20
21818.388461044651
 30
0.0
 11
10342.642171953699
 21
21155.907099408469
 31
0.0
  0
LINE
  5
4596
  8
KL
 10
10333.642171953699
 20
21810.581855895169
 30
0.0
 11
10333.642171953699
 21
21151.04934859744
 31
0.0
  0
LINE
  5
4597
  8
FUTO
 10
10342.642171953699
 20
21155.907099408469
 30
0.0
 11
10342.642171953699
 21
20946.208229042521
 31
0.0
  0
LINE
  5
4598
  8
FUTO
 10
10333.642171953699
 20
21151.04934859744
 30
0.0
 11
10333.642171953699
 21
20946.208229042521
 31
0.0
  0
DIMENSION
  5
459B
  8
FUTO
  2
*D17
 10
12226.642171953699
 20
26750.032748429319
 30
0.0
 11
11700.142171953699
 21
26810.032748429319
 31
0.0
 70
     0
 13
11173.642171953699
 23
26646.46950288603
 33
0.0
 14
12226.642171953699
 24
26315.59692523643
 34
0.0
1001
ACAD
1000
DSTYLE
1002
{
1070
    40
1040
30.0
1070
   176
1070
     2
1070
   177
1070
     2
1070
   178
1070
     2
1070
   341
1005
44D5
1070
     5
1000
OPEN30
1002
}
  0
DIMENSION
  5
45A8
  8
FUTO
  2
*D18
 10
9623.6421719537047
 20
26750.032748429319
 30
0.0
 11
10398.642171953699
 21
26810.032748429319
 31
0.0
 70
     0
 13
11173.642171953699
 23
26646.46950288603
 33
0.0
 14
9623.6421719537047
 24
25120.596925236441
 34
0.0
1001
ACAD
1000
DSTYLE
1002
{
1070
    40
1040
30.0
1070
   176
1070
     2
1070
   177
1070
     2
1070
   178
1070
     2
1070
   341
1005
44D5
1070
     5
1000
OPEN30
1002
}
  0
DIMENSION
  5
45B5
  8
FUTO
  2
*D19
 10
12583.94807479357
 20
26365.59692523643
 30
0.0
 11
12523.94807479357
 21
26048.596925236441
 31
0.0
 70
     0
 13
12351.162172533221
 23
25731.59692523643
 33
0.0
 14
11923.642171953699
 24
26365.59692523643
 34
0.0
 50
90.0
1001
ACAD
1000
DSTYLE
1002
{
1070
    40
1040
30.0
1070
   176
1070
     2
1070
   177
1070
     2
1070
   178
1070
     2
1070
   341
1005
44D5
1070
     5
1000
OPEN30
1002
}
  0
DIMENSION
  5
45C2
  8
FUTO
  2
*D20
 10
12583.94807479357
 20
23911.59692523643
 30
0.0
 11
12523.94807479357
 21
24821.596925236441
 31
0.0
 70
     0
 13
12583.94807479357
 23
25731.59692523643
 33
0.0
 14
11553.642171953699
 24
23911.59692523643
 34
0.0
 50
90.0
1001
ACAD
1000
DSTYLE
1002
{
1070
    40
1040
30.0
1070
   176
1070
     2
1070
   177
1070
     2
1070
   178
1070
     2
1070
   341
1005
44D5
1070
     5
1000
OPEN30
1002
}
  0
LINE
  5
4622
  8
FUTO
 10
13590.280944570381
 20
20946.208229042521
 30
0.0
 11
13515.280944570381
 21
20946.208229042521
 31
0.0
  0
LINE
  5
4623
  8
FUTO
 10
13580.129567541369
 20
20933.53119641306
 30
0.0
 11
13518.93232159939
 21
20938.885261671981
 31
0.0
  0
LINE
  5
4624
  8
FUTO
 10
13590.280944570381
 20
20796.208229042521
 30
0.0
 11
13515.280944570381
 21
20796.208229042521
 31
0.0
  0
LINE
  5
4625
  8
FUTO
 10
13580.129567541369
 20
20808.885261671981
 30
0.0
 11
13518.93232159939
 21
20803.531196413049
 31
0.0
  0
LINE
  5
4626
  8
FUTO
 10
13583.780944570381
 20
20812.87004046435
 30
0.0
 11
13583.780944570381
 21
20929.546417620691
 31
0.0
  0
ARC
  5
4627
  8
FUTO
 10
13579.780944570381
 20
20929.546417620691
 30
0.0
 40
4.0
 50
0.0
 51
84.999999999975714
  0
LINE
  5
4628
  8
FUTO
 10
13590.280944570381
 20
20796.208229042521
 30
0.0
 11
13590.280944570381
 21
20946.208229042521
 31
0.0
  0
ARC
  5
4629
  8
FUTO
 10
13579.780944570381
 20
20812.87004046435
 30
0.0
 40
4.0
 50
275.00000000002422
 51
0.0
  0
ARC
  5
462A
  8
FUTO
 10
13519.280944570381
 20
20942.87004046435
 30
0.0
 40
4.0
 50
180.0
 51
264.99999999997573
  0
LINE
  5
462B
  8
FUTO
 10
13515.280944570381
 20
20946.208229042521
 30
0.0
 11
13515.280944570381
 21
20942.87004046435
 31
0.0
  0
LINE
  5
462C
  8
FUTO
 10
13515.280944570381
 20
20796.208229042521
 30
0.0
 11
13515.280944570381
 21
20799.546417620691
 31
0.0
  0
ARC
  5
462D
  8
FUTO
 10
13519.280944570381
 20
20799.546417620691
 30
0.0
 40
4.0
 50
95.000000000024286
 51
180.0
  0
LINE
  5
462E
  8
FUTO
 10
15640.280944570381
 20
20796.208229042521
 30
0.0
 11
15640.280944570381
 21
20946.208229042521
 31
0.0
1001
ACAD
1000
ASC_BOUNDS
1002
{
1070
    19
1002
}
  0
LINE
  5
462F
  8
FUTO
 10
15640.280944570381
 20
20946.208229042521
 30
0.0
 11
15715.280944570381
 21
20946.208229042521
 31
0.0
1001
ACAD
1000
ASC_BOUNDS
1002
{
1070
    19
1002
}
  0
LINE
  5
4630
  8
FUTO
 10
15715.280944570381
 20
20946.208229042521
 30
0.0
 11
15715.280944570381
 21
20942.87004046435
 31
0.0
1001
ACAD
1000
ASC_BOUNDS
1002
{
1070
    19
1002
}
  0
ARC
  5
4631
  8
FUTO
 10
15711.280944570381
 20
20942.87004046436
 30
0.0
 40
4.0
 50
274.99999999999949
 51
359.99999999996078
1001
ACAD
1000
ASC_BOUNDS
1002
{
1070
    19
1002
}
  0
LINE
  5
4632
  8
FUTO
 10
15711.629567541369
 20
20938.885261671989
 30
0.0
 11
15650.43232159939
 21
20933.53119641306
 31
0.0
1001
ACAD
1000
ASC_BOUNDS
1002
{
1070
    19
1002
}
  0
ARC
  5
4633
  8
FUTO
 10
15650.780944570381
 20
20929.546417620691
 30
0.0
 40
4.0000000000002656
 50
94.99999999999946
 51
180.0
1001
ACAD
1000
ASC_BOUNDS
1002
{
1070
    19
1002
}
  0
LINE
  5
4634
  8
FUTO
 10
15646.780944570381
 20
20929.546417620691
 30
0.0
 11
15646.780944570381
 21
20812.87004046435
 31
0.0
1001
ACAD
1000
ASC_BOUNDS
1002
{
1070
    19
1002
}
  0
ARC
  5
4635
  8
FUTO
 10
15650.780944570381
 20
20812.87004046435
 30
0.0
 40
4.0
 50
180.0
 51
265.00000000000051
1001
ACAD
1000
ASC_BOUNDS
1002
{
1070
    19
1002
}
  0
LINE
  5
4636
  8
FUTO
 10
15650.43232159939
 20
20808.885261671981
 30
0.0
 11
15711.629567541369
 21
20803.531196413049
 31
0.0
1001
ACAD
1000
ASC_BOUNDS
1002
{
1070
    19
1002
}
  0
ARC
  5
4637
  8
FUTO
 10
15711.280944570381
 20
20799.546417620691
 30
0.0
 40
4.0000000000002656
 50
0.0000000000130276
 51
85.000000000000554
1001
ACAD
1000
ASC_BOUNDS
1002
{
1070
    19
1002
}
  0
LINE
  5
4638
  8
FUTO
 10
15715.280944570381
 20
20799.546417620691
 30
0.0
 11
15715.280944570381
 21
20796.208229042521
 31
0.0
1001
ACAD
1000
ASC_BOUNDS
1002
{
1070
    19
1002
}
  0
LINE
  5
4639
  8
FUTO
 10
15715.280944570381
 20
20796.208229042521
 30
0.0
 11
15640.280944570381
 21
20796.208229042521
 31
0.0
1001
ACAD
1000
ASC_BOUNDS
1002
{
1070
    19
1002
}
  0
TEXT
  5
4D0F
  8
SP
 10
6942.513817545052
 20
9413.4480994263067
 30
0.0
 40
100.0
  1
 
  0
TEXT
  5
4FD7
  8
SP
 10
3959.4768424297222
 20
12273.99299829419
 30
0.0
 40
100.0
  1
 
  0
TEXT
  5
4FD8
  8
SP
 10
8120.3323430550272
 20
14954.156447234511
 30
0.0
 40
100.0
  1
 
  0
TEXT
  5
4FD9
  8
SP
 10
17677.28377305848
 20
22382.75411932934
 30
0.0
 40
100.0
  1
 
  0
LINE
  5
4FDA
  8
4
 10
16778.53420408531
 20
18781.700892040812
 30
0.0
 11
16778.53420408531
 21
17781.700892040812
 31
0.0
  0
LINE
  5
4FDB
  8
4
 10
13278.53420408531
 20
18781.700892040812
 30
0.0
 11
13278.53420408531
 21
17781.700892040812
 31
0.0
  0
LINE
  5
4FDC
  8
4
 10
10778.53420408531
 20
18781.700892040812
 30
0.0
 11
10778.53420408531
 21
17781.700892040812
 31
0.0
  0
LINE
  5
4FDF
  8
4
 10
10778.53420408531
 20
17781.700892040812
 30
0.0
 11
16778.53420408531
 21
17781.700892040812
 31
0.0
  0
LINE
  5
4FE0
  8
4
 10
10778.53420408531
 20
18281.700892040812
 30
0.0
 11
16778.53420408531
 21
18281.700892040812
 31
0.0
  0
TEXT
  5
4FE1
  8
4
 10
10971.044608319829
 20
18439.41602137388
 30
0.0
 40
250.0
  1
機器名称
  0
TEXT
  5
4FE2
  8
4
 10
10959.8247342093
 20
17889.926675700859
 30
0.0
 40
250.0
  1
機器型番
  0
TEXT
  5
4FE3
  8
4
 10
13302.499512590521
 20
18392.637403825542
 30
0.0
 40
225.0
  1
ミツヤリミットロードファン
  0
TEXT
  5
4FE4
  8
4
 10
13461.806682012721
 20
17867.498813440528
 30
0.0
 40
250.0
  1
LL#9-1
  0
TEXT
  5
4FE6
  8
4
 10
11403.695946054189
 20
28198.84509870339
 30
0.0
 40
270.0
  1
床置ベット
  0
TEXT
  5
4FE7
  8
4
 10
9109.3721707325458
 20
28951.1057730373
 30
0.0
 40
360.0
  1
遠心式片吸込片持リミットロードファン
  0
LINE
  5
4FE8
  8
4
 10
8778.5342040853138
 20
28628.74466336484
 30
0.0
 11
16778.53420408531
 21
28628.74466336484
 31
0.0
  0
LINE
  5
4FE9
  8
4
 10
8778.5342040853138
 20
29628.74466336484
 30
0.0
 11
16778.53420408531
 21
29628.74466336484
 31
0.0
  0
LINE
  5
4FEA
  8
4
 10
10778.53420408531
 20
18781.700892040812
 30
0.0
 11
16778.53420408531
 21
18781.700892040812
 31
0.0
  0
LINE
  5
4FEB
  8
4
 10
8778.5342040853138
 20
29628.74466336484
 30
0.0
 11
8778.5342040853138
 21
28628.74466336484
 31
0.0
  0
TEXT
  5
4FEC
  8
4
 10
9224.4017848406784
 20
28193.298279772531
 30
0.0
 40
270.0
  1
右回転上向
  0
TEXT
  5
4FED
  8
4
 10
14873.38200033176
 20
29812.00629951735
 30
0.0
 40
280.0
  1
No.
  0
TEXT
  5
4FEE
  8
4
 10
14940.31342734208
 20
27702.580255693189
 30
0.0
 40
270.0
  1
縮尺：1/50
  0
LINE
  5
4FEF
  8
4
 10
16778.53420408531
 20
29628.74466336484
 30
0.0
 11
16778.53420408531
 21
28628.74466336484
 31
0.0
  0
LINE
  5
4FF0
  8
4
 10
18028.53420408531
 20
31031.700892040812
 30
0.0
 11
18028.53420408531
 21
31031.700892040812
 31
0.0
  0
LINE
  5
4FF1
  8
4
 10
14731.621315884629
 20
29688.018807667821
 30
0.0
 11
14731.621315884629
 21
30214.96219978957
 31
0.0
  0
LINE
  5
4FF2
  8
4
 10
14731.621315884629
 20
30214.96219978957
 30
0.0
 11
16778.53420408531
 21
30214.96219978957
 31
0.0
  0
LINE
  5
4FF3
  8
4
 10
16778.53420408531
 20
30214.96219978957
 30
0.0
 11
16778.53420408531
 21
29688.018807667821
 31
0.0
  0
LINE
  5
4FF4
  8
4
 10
16778.53420408531
 20
29688.018807667821
 30
0.0
 11
14731.621315884629
 21
29688.018807667821
 31
0.0
  0
LINE
  5
4FF5
  8
4
 10
7528.5342040853138
 20
16281.70089204081
 30
0.0
 11
7528.5342040853138
 21
31031.700892040812
 31
0.0
  0
LINE
  5
4FF6
  8
4
 10
7528.5342040853138
 20
31031.700892040812
 30
0.0
 11
18028.53420408531
 21
31031.700892040812
 31
0.0
  0
LINE
  5
4FF7
  8
4
 10
18028.53420408531
 20
31031.700892040812
 30
0.0
 11
18028.53420408531
 21
16281.70089204081
 31
0.0
  0
LINE
  5
4FF8
  8
4
 10
18028.53420408531
 20
16281.70089204081
 30
0.0
 11
7528.5342040853138
 21
16281.70089204081
 31
0.0
  0
ENDSEC
  0
EOF
