  0
SECTION
  2
HEADER
  9
$ACADVER
  1
AC1009
  9
$INSBASE
 10
0.0
 20
0.0
 30
0.0
  9
$EXTMIN
 10
2585.2076644965341
 20
14894.3866163697
 30
0.0
  9
$EXTMAX
 10
13085.207664496529
 20
29644.386616369698
 30
0.0
  9
$LIMMIN
 10
0.0
 20
0.0
  9
$LIMMAX
 10
420.0
 20
297.0
  9
$ORTHOMODE
 70
     0
  9
$REGENMODE
 70
     1
  9
$FILLMODE
 70
     1
  9
$QTEXTMODE
 70
     0
  9
$MIRRTEXT
 70
     0
  9
$DRAGMODE
 70
     2
  9
$LTSCALE
 40
150.0
  9
$OSMODE
 70
    37
  9
$ATTMODE
 70
     1
  9
$TEXTSIZE
 40
90.0
  9
$TRACEWID
 40
0.05
  9
$TEXTSTYLE
  7
STANDARD
  9
$CLAYER
  8
FUTO
  9
$CELTYPE
  6
BYLAYER
  9
$CECOLOR
 62
   256
  9
$DIMSCALE
 40
30.0
  9
$DIMASZ
 40
2.0
  9
$DIMEXO
 40
1.0
  9
$DIMDLI
 40
10.0
  9
$DIMRND
 40
0.0
  9
$DIMDLE
 40
0.0
  9
$DIMEXE
 40
1.0
  9
$DIMTP
 40
0.0
  9
$DIMTM
 40
0.0
  9
$DIMTXT
 40
3.0
  9
$DIMCEN
 40
0.0
  9
$DIMTSZ
 40
0.0
  9
$DIMTOL
 70
     0
  9
$DIMLIM
 70
     0
  9
$DIMTIH
 70
     0
  9
$DIMTOH
 70
     0
  9
$DIMSE1
 70
     0
  9
$DIMSE2
 70
     0
  9
$DIMTAD
 70
     1
  9
$DIMZIN
 70
     8
  9
$DIMBLK
  1
OPEN30
  9
$DIMASO
 70
     1
  9
$DIMSHO
 70
     1
  9
$DIMPOST
  1

  9
$DIMAPOST
  1

  9
$DIMALT
 70
     0
  9
$DIMALTD
 70
     2
  9
$DIMALTF
 40
0.03937
  9
$DIMLFAC
 40
1.0
  9
$DIMTOFL
 70
     1
  9
$DIMTVP
 40
0.0
  9
$DIMTIX
 70
     0
  9
$DIMSOXD
 70
     0
  9
$DIMSAH
 70
     0
  9
$DIMBLK1
  1

  9
$DIMBLK2
  1

  9
$DIMSTYLE
  2
MATSU
  9
$DIMCLRD
 70
     2
  9
$DIMCLRE
 70
     2
  9
$DIMCLRT
 70
     2
  9
$DIMTFAC
 40
1.0
  9
$DIMGAP
 40
0.5
  9
$LUNITS
 70
     2
  9
$LUPREC
 70
     1
  9
$SKETCHINC
 40
0.1
  9
$FILLETRAD
 40
0.0
  9
$AUNITS
 70
     0
  9
$AUPREC
 70
     0
  9
$MENU
  1
SSMENU
  9
$ELEVATION
 40
0.0
  9
$PELEVATION
 40
0.0
  9
$THICKNESS
 40
0.0
  9
$LIMCHECK
 70
     0
  9
$BLIPMODE
 70
     0
  9
$CHAMFERA
 40
20.0
  9
$CHAMFERB
 40
20.0
  9
$SKPOLY
 70
     0
  9
$TDCREATE
 40
2450714.9573032409
  9
$TDUPDATE
 40
2454953.648383426
  9
$TDINDWG
 40
1.4144943518999999
  9
$TDUSRTIMER
 40
1.4144943518999999
  9
$USRTIMER
 70
     1
  9
$ANGBASE
 50
0.0
  9
$ANGDIR
 70
     0
  9
$PDMODE
 70
     0
  9
$PDSIZE
 40
1.0
  9
$PLINEWID
 40
0.0
  9
$COORDS
 70
     1
  9
$SPLFRAME
 70
     0
  9
$SPLINETYPE
 70
     6
  9
$SPLINESEGS
 70
     8
  9
$ATTDIA
 70
     0
  9
$ATTREQ
 70
     1
  9
$HANDLING
 70
 10241
  9
$HANDSEED
  5
544B
  9
$SURFTAB1
 70
     6
  9
$SURFTAB2
 70
     6
  9
$SURFTYPE
 70
     6
  9
$SURFU
 70
     6
  9
$SURFV
 70
     6
  9
$UCSNAME
  2

  9
$UCSORG
 10
0.0
 20
0.0
 30
0.0
  9
$UCSXDIR
 10
1.0
 20
0.0
 30
0.0
  9
$UCSYDIR
 10
0.0
 20
1.0
 30
0.0
  9
$PUCSNAME
  2

  9
$PUCSORG
 10
0.0
 20
0.0
 30
0.0
  9
$PUCSXDIR
 10
1.0
 20
0.0
 30
0.0
  9
$PUCSYDIR
 10
0.0
 20
1.0
 30
0.0
  9
$USERI1
 70
     0
  9
$USERI2
 70
     0
  9
$USERI3
 70
     0
  9
$USERI4
 70
     0
  9
$USERI5
 70
     0
  9
$USERR1
 40
0.0
  9
$USERR2
 40
0.0
  9
$USERR3
 40
0.0
  9
$USERR4
 40
0.0
  9
$USERR5
 40
0.0
  9
$WORLDVIEW
 70
     1
  9
$SHADEDGE
 70
     3
  9
$SHADEDIF
 70
    70
  9
$TILEMODE
 70
     1
  9
$MAXACTVP
 70
    16
  9
$PLIMCHECK
 70
     0
  9
$PEXTMIN
 10
0.0
 20
0.0
 30
0.0
  9
$PEXTMAX
 10
12.561051004636781
 20
9.0
 30
0.0
  9
$PLIMMIN
 10
0.0
 20
0.0
  9
$PLIMMAX
 10
12.0
 20
9.0
  9
$UNITMODE
 70
     0
  9
$VISRETAIN
 70
     0
  9
$PLINEGEN
 70
     0
  9
$PSLTSCALE
 70
     0
  0
ENDSEC
  0
SECTION
  2
TABLES
  0
TABLE
  2
VPORT
 70
     2
  0
VPORT
  2
*ACTIVE
 70
     0
 10
0.0
 20
0.0
 11
1.0
 21
1.0
 12
12627.673313723941
 22
16545.872990119409
 13
0.0
 23
0.0
 14
5.0
 24
5.0
 15
0.0
 25
0.0
 16
0.0
 26
0.0
 36
1.0
 17
0.0
 27
0.0
 37
0.0
 40
4659.5822865510272
 41
3.1666666666666661
 42
50.0
 43
0.0
 44
0.0
 50
0.0
 51
0.0
 71
     0
 72
   500
 73
     1
 74
     0
 75
     0
 76
     0
 77
     0
 78
     0
  0
ENDTAB
  0
TABLE
  2
LTYPE
 70
     4
  0
LTYPE
  2
CONTINUOUS
 70
     0
  3
実線
 72
    65
 73
     0
 40
0.0
  0
LTYPE
  2
CENTER
 70
     0
  3
____ _ ____ _ ____ _ ____ _ ____ _ ____ _ ____ 
 72
    65
 73
     4
 40
2.0
 49
1.25
 49
-0.25
 49
0.25
 49
-0.25
  0
LTYPE
  2
HIDDEN
 70
     0
  3
__ __ __ __ __ __ __ __ __ __ __ __ __ __ __ __
 72
    65
 73
     2
 40
0.375
 49
0.25
 49
-0.125
  0
LTYPE
  2
PHANTOM
 70
     0
  3
______  __  __  ______  __  __  ______  __  __ 
 72
    65
 73
     6
 40
2.5
 49
1.25
 49
-0.25
 49
0.25
 49
-0.25
 49
0.25
 49
-0.25
  0
ENDTAB
  0
TABLE
  2
LAYER
 70
     9
  0
LAYER
  2
0
 70
     0
 62
     7
  6
CONTINUOUS
  0
LAYER
  2
FUTO
 70
     0
 62
     4
  6
CONTINUOUS
  0
LAYER
  2
CT
 70
     0
 62
     3
  6
CENTER
  0
LAYER
  2
HOSO
 70
     0
 62
     7
  6
CONTINUOUS
  0
LAYER
  2
KL
 70
     0
 62
     7
  6
HIDDEN
  0
LAYER
  2
SL
 70
     0
 62
     1
  6
PHANTOM
  0
LAYER
  2
SP
 70
     0
 62
     2
  6
CONTINUOUS
  0
LAYER
  2
DEFPOINTS
 70
     0
 62
     7
  6
CONTINUOUS
  0
LAYER
  2
4
 70
     0
 62
     7
  6
CONTINUOUS
  0
ENDTAB
  0
TABLE
  2
STYLE
 70
     2
  0
STYLE
  2
STANDARD
 70
     0
 40
0.0
 41
1.0
 50
15.0
 71
     0
 42
90.0
  3
SIMPLEX
  4
EXTFONT
  0
STYLE
  2
SUNPOU
 70
     0
 40
0.0
 41
1.0
 50
15.0
 71
     0
 42
5.0
  3
simplex.shx
  4
extfont.shx
  0
ENDTAB
  0
TABLE
  2
VIEW
 70
     0
  0
ENDTAB
  0
TABLE
  2
UCS
 70
     0
  0
ENDTAB
  0
TABLE
  2
APPID
 70
     1
  0
APPID
  2
ACAD
 70
     0
  0
ENDTAB
  0
TABLE
  2
DIMSTYLE
 70
     1
  0
DIMSTYLE
  2
MATSU
 70
     0
  3

  4

  5
CLOSED
  6

  7

 40
10.0
 41
2.0
 42
1.0
 43
10.0
 44
1.0
 45
0.0
 46
0.0
 47
0.0
 48
0.0
140
3.0
141
0.0
142
0.0
143
0.03937
144
1.0
145
0.0
146
1.0
147
0.5
 71
     0
 72
     0
 73
     0
 74
     0
 75
     0
 76
     0
 77
     1
 78
     8
170
     0
171
     2
172
     1
173
     0
174
     0
175
     0
176
   256
177
   256
178
   256
  0
ENDTAB
  0
ENDSEC
  0
SECTION
  2
BLOCKS
  0
BLOCK
  8
0
  2
$MODEL_SPACE
 70
     0
 10
0.0
 20
0.0
 30
0.0
  3
$MODEL_SPACE
  1

  0
ENDBLK
  5
7
  8
0
  0
BLOCK
 67
     1
  8
0
  2
$PAPER_SPACE
 70
     0
 10
0.0
 20
0.0
 30
0.0
  3
$PAPER_SPACE
  1

  0
ENDBLK
  5
A
 67
     1
  8
0
  0
BLOCK
  8
0
  2
まっすぐの矢印
 70
     0
 10
0.0
 20
0.0
 30
0.0
  3
まっすぐの矢印
  1

  0
LINE
  5
599
  8
SP
 10
13.01863531255526
 20
-41.453946163708451
 30
0.0
 11
13.01863531255526
 21
-93.495696758840026
 31
0.0
  0
LINE
  5
59A
  8
SP
 10
13.01863531255526
 20
-93.495696758840026
 30
0.0
 11
-13.01863531255526
 21
-93.495696758840026
 31
0.0
  0
LINE
  5
59B
  8
SP
 10
-13.01863531255526
 20
-93.495696758840026
 30
0.0
 11
-13.01863531255526
 21
-41.453946163708451
 31
0.0
  0
LINE
  5
59C
  8
SP
 10
-13.01863531255526
 20
-41.453946163708451
 30
0.0
 11
-32.06015471115802
 21
-41.453946163708451
 31
0.0
  0
LINE
  5
59D
  8
SP
 10
-32.06015471115802
 20
-41.453946163708451
 30
0.0
 11
0.0
 21
0.0
 31
0.0
  0
LINE
  5
59E
  8
SP
 10
0.0
 20
0.0
 30
0.0
 11
32.06015471115802
 21
-41.453946163708451
 31
0.0
  0
LINE
  5
59F
  8
SP
 10
32.06015471115802
 20
-41.453946163708451
 30
0.0
 11
13.01863531255526
 21
-41.453946163708451
 31
0.0
  0
ENDBLK
  5
5A1
  8
0
  0
BLOCK
  8
0
  2
左回転矢印
 70
     0
 10
0.0
 20
0.0
 30
0.0
  3
左回転矢印
  1

  0
LINE
  5
57C
  8
SP
 10
43.930449171819873
 20
24.859487323637271
 30
0.0
 11
38.511878498580238
 21
44.478978865188871
 31
0.0
  0
LINE
  5
57D
  8
SP
 10
38.511878498580238
 20
44.478978865188871
 30
0.0
 11
0.0
 21
0.0
 31
0.0
  0
LINE
  5
57E
  8
SP
 10
0.0
 20
0.0
 30
0.0
 11
52.57968174421967
 21
-6.4575435924972453
 31
0.0
  0
LINE
  5
57F
  8
SP
 10
52.57968174421967
 20
-6.4575435924972453
 30
0.0
 11
48.189912989015284
 21
9.436875093862227
 31
0.0
  0
ARC
  5
580
  8
SP
 10
93.893649146691985
 20
-156.0466295121104
 30
0.0
 40
171.67883327727239
 50
67.881388989212894
 51
105.4392492786835
  0
LINE
  5
581
  8
SP
 10
158.53505643637521
 20
2.997736182040398
 30
0.0
 11
164.55945966006539
 21
17.820238190756751
 31
0.0
  0
ARC
  5
582
  8
SP
 10
93.893649146692198
 20
-156.04662951211091
 30
0.0
 40
187.67883327727299
 50
67.881388989212994
 51
105.4392492786836
  0
ENDBLK
  5
584
  8
0
  0
BLOCK
  8
0
  2
*D2
 70
     1
 10
0.0
 20
0.0
 30
0.0
  3
*D2
  1

  0
LINE
  5
537C
  8
FUTO
 62
     2
 10
6429.4013380386668
 20
19337.706930021319
 30
0.0
 11
6429.4013380386668
 21
19125.489221100052
 31
0.0
  0
LINE
  5
537D
  8
FUTO
 62
     2
 10
4879.4013380386677
 20
19289.789081065072
 30
0.0
 11
4879.4013380386677
 21
19125.489221100052
 31
0.0
  0
LINE
  5
537E
  8
FUTO
 62
     2
 10
6369.4013380386677
 20
19155.489221100041
 30
0.0
 11
4939.4013380386677
 21
19155.489221100041
 31
0.0
  0
INSERT
  5
537F
  8
FUTO
 62
     2
  2
_OPEN30
 10
6429.4013380386668
 20
19155.489221100041
 30
0.0
 41
60.0
 42
60.0
 43
60.0
  0
INSERT
  5
5380
  8
FUTO
 62
     2
  2
_OPEN30
 10
4879.4013380386677
 20
19155.489221100041
 30
0.0
 41
60.0
 42
60.0
 43
60.0
 50
180.0
  0
TEXT
  5
5381
  8
FUTO
 62
     2
 10
5487.0221825901153
 20
19170.489221100041
 30
0.0
 40
90.0
  1
1550
 51
15.0
  7
SUNPOU
  0
POINT
  5
5382
  8
DEFPOINTS
 62
     0
 10
6429.4013380386668
 20
19367.706930021319
 30
0.0
  0
POINT
  5
5383
  8
DEFPOINTS
 62
     0
 10
4879.4013380386677
 20
19319.789081065072
 30
0.0
  0
POINT
  5
5384
  8
DEFPOINTS
 62
     0
 10
4879.4013380386677
 20
19155.489221100041
 30
0.0
  0
ENDBLK
  5
3643
  8
0
  0
BLOCK
  8
0
  2
*D3
 70
     1
 10
0.0
 20
0.0
 30
0.0
  3
*D3
  1

  0
LINE
  5
5385
  8
FUTO
 62
     2
 10
4879.4013380386677
 20
19364.789081065072
 30
0.0
 11
4879.4013380386677
 21
18942.571904115961
 31
0.0
  0
LINE
  5
5386
  8
FUTO
 62
     2
 10
7279.4013380386668
 20
19364.789081065072
 30
0.0
 11
7279.4013380386668
 21
18942.571904115961
 31
0.0
  0
LINE
  5
5387
  8
FUTO
 62
     2
 10
4939.4013380386677
 20
18972.571904115961
 30
0.0
 11
7219.4013380386659
 21
18972.571904115961
 31
0.0
  0
INSERT
  5
5388
  8
FUTO
 62
     2
  2
_OPEN30
 10
4879.4013380386677
 20
18972.571904115961
 30
0.0
 41
60.0
 42
60.0
 43
60.0
 50
180.0
  0
INSERT
  5
5389
  8
FUTO
 62
     2
  2
_OPEN30
 10
7279.4013380386668
 20
18972.571904115961
 30
0.0
 41
60.0
 42
60.0
 43
60.0
  0
TEXT
  5
538A
  8
FUTO
 62
     2
 10
5913.2117603143924
 20
18987.57190411595
 30
0.0
 40
90.0
  1
2400
 51
15.0
  7
SUNPOU
  0
POINT
  5
538B
  8
DEFPOINTS
 62
     0
 10
4879.4013380386677
 20
19394.789081065072
 30
0.0
  0
POINT
  5
538C
  8
DEFPOINTS
 62
     0
 10
7279.4013380386668
 20
19394.789081065072
 30
0.0
  0
POINT
  5
538D
  8
DEFPOINTS
 62
     0
 10
7279.4013380386668
 20
18972.571904115961
 30
0.0
  0
ENDBLK
  5
3638
  8
0
  0
BLOCK
  8
0
  2
*D4
 70
     1
 10
0.0
 20
0.0
 30
0.0
  3
*D4
  1

  0
LINE
  5
538E
  8
FUTO
 62
     2
 10
6429.4013380386668
 20
19337.706930021319
 30
0.0
 11
6429.4013380386668
 21
19125.489221100052
 31
0.0
  0
LINE
  5
538F
  8
FUTO
 62
     2
 10
7279.4013380386668
 20
19289.789081065072
 30
0.0
 11
7279.4013380386668
 21
19125.489221100052
 31
0.0
  0
LINE
  5
5390
  8
FUTO
 62
     2
 10
6489.4013380386677
 20
19155.489221100041
 30
0.0
 11
7219.4013380386659
 21
19155.489221100041
 31
0.0
  0
INSERT
  5
5391
  8
FUTO
 62
     2
  2
_OPEN30
 10
6429.4013380386668
 20
19155.489221100041
 30
0.0
 41
60.0
 42
60.0
 43
60.0
 50
180.0
  0
INSERT
  5
5392
  8
FUTO
 62
     2
  2
_OPEN30
 10
7279.4013380386668
 20
19155.489221100041
 30
0.0
 41
60.0
 42
60.0
 43
60.0
  0
TEXT
  5
5393
  8
FUTO
 62
     2
 10
6728.7721958078382
 20
19170.489221100041
 30
0.0
 40
90.0
  1
850
 51
15.0
  7
SUNPOU
  0
POINT
  5
5394
  8
DEFPOINTS
 62
     0
 10
6429.4013380386668
 20
19367.706930021319
 30
0.0
  0
POINT
  5
5395
  8
DEFPOINTS
 62
     0
 10
7279.4013380386668
 20
19319.789081065072
 30
0.0
  0
POINT
  5
5396
  8
DEFPOINTS
 62
     0
 10
7279.4013380386668
 20
19155.489221100041
 30
0.0
  0
ENDBLK
  5
3667
  8
0
  0
BLOCK
  8
0
  2
*D5
 70
     1
 10
0.0
 20
0.0
 30
0.0
  3
*D5
  1

  0
LINE
  5
53B8
  8
FUTO
 62
     2
 10
8737.5990504245747
 20
19364.789081065072
 30
0.0
 11
8737.5990504245747
 21
18946.755158823122
 31
0.0
  0
LINE
  5
53B9
  8
FUTO
 62
     2
 10
10937.599050424569
 20
19364.789081065072
 30
0.0
 11
10937.599050424569
 21
18946.755158823122
 31
0.0
  0
LINE
  5
53BA
  8
FUTO
 62
     2
 10
8797.5990504245747
 20
18976.755158823122
 30
0.0
 11
10877.599050424569
 21
18976.755158823122
 31
0.0
  0
INSERT
  5
53BB
  8
FUTO
 62
     2
  2
_OPEN30
 10
8737.5990504245747
 20
18976.755158823122
 30
0.0
 41
60.0
 42
60.0
 43
60.0
 50
180.0
  0
INSERT
  5
53BC
  8
FUTO
 62
     2
  2
_OPEN30
 10
10937.599050424569
 20
18976.755158823122
 30
0.0
 41
60.0
 42
60.0
 43
60.0
  0
TEXT
  5
53BD
  8
FUTO
 62
     2
 10
9671.4094727002976
 20
18991.755158823122
 30
0.0
 40
90.0
  1
2200
 51
15.0
  7
SUNPOU
  0
POINT
  5
53BE
  8
DEFPOINTS
 62
     0
 10
8737.5990504245747
 20
19394.789081065072
 30
0.0
  0
POINT
  5
53BF
  8
DEFPOINTS
 62
     0
 10
10937.599050424569
 20
19394.789081065072
 30
0.0
  0
POINT
  5
53C0
  8
DEFPOINTS
 62
     0
 10
10937.599050424569
 20
18976.755158823122
 30
0.0
  0
ENDBLK
  5
34E6
  8
0
  0
BLOCK
  8
0
  2
*D6
 70
     1
 10
0.0
 20
0.0
 30
0.0
  3
*D6
  1

  0
LINE
  5
53C1
  8
FUTO
 62
     2
 10
10325.599050424569
 20
19364.789081065072
 30
0.0
 11
10325.599050424569
 21
19128.085600080711
 31
0.0
  0
LINE
  5
53C2
  8
FUTO
 62
     2
 10
10937.599050424569
 20
19364.789081065079
 30
0.0
 11
10937.599050424569
 21
19128.085600080711
 31
0.0
  0
LINE
  5
53C3
  8
FUTO
 62
     2
 10
10385.599050424569
 20
19158.085600080711
 30
0.0
 11
10877.599050424569
 21
19158.085600080711
 31
0.0
  0
INSERT
  5
53C4
  8
FUTO
 62
     2
  2
_OPEN30
 10
10325.599050424569
 20
19158.085600080711
 30
0.0
 41
60.0
 42
60.0
 43
60.0
 50
180.0
  0
INSERT
  5
53C5
  8
FUTO
 62
     2
  2
_OPEN30
 10
10937.599050424569
 20
19158.085600080711
 30
0.0
 41
60.0
 42
60.0
 43
60.0
  0
TEXT
  5
53C6
  8
FUTO
 62
     2
 10
10512.972656463229
 20
19173.085600080711
 30
0.0
 40
90.0
  1
612
 51
15.0
  7
SUNPOU
  0
POINT
  5
53C7
  8
DEFPOINTS
 62
     0
 10
10325.599050424569
 20
19394.789081065072
 30
0.0
  0
POINT
  5
53C8
  8
DEFPOINTS
 62
     0
 10
10937.599050424569
 20
19394.789081065079
 30
0.0
  0
POINT
  5
53C9
  8
DEFPOINTS
 62
     0
 10
10937.599050424569
 20
19158.085600080711
 30
0.0
  0
ENDBLK
  5
393A
  8
0
  0
BLOCK
  8
0
  2
*D7
 70
     1
 10
0.0
 20
0.0
 30
0.0
  3
*D7
  1

  0
LINE
  5
53CA
  8
FUTO
 62
     2
 10
10325.599050424569
 20
19364.789081065072
 30
0.0
 11
10325.599050424569
 21
19128.090841003301
 31
0.0
  0
LINE
  5
53CB
  8
FUTO
 62
     2
 10
8737.5990504245747
 20
19364.789081065072
 30
0.0
 11
8737.5990504245747
 21
19128.090841003301
 31
0.0
  0
LINE
  5
53CC
  8
FUTO
 62
     2
 10
10265.599050424569
 20
19158.090841003301
 30
0.0
 11
8797.5990504245747
 21
19158.090841003301
 31
0.0
  0
INSERT
  5
53CD
  8
FUTO
 62
     2
  2
_OPEN30
 10
10325.599050424569
 20
19158.090841003301
 30
0.0
 41
60.0
 42
60.0
 43
60.0
  0
INSERT
  5
53CE
  8
FUTO
 62
     2
  2
_OPEN30
 10
8737.5990504245747
 20
19158.090841003301
 30
0.0
 41
60.0
 42
60.0
 43
60.0
 50
180.0
  0
TEXT
  5
53CF
  8
FUTO
 62
     2
 10
9363.6457181350961
 20
19173.090841003301
 30
0.0
 40
90.0
  1
1588
 51
15.0
  7
SUNPOU
  0
POINT
  5
53D0
  8
DEFPOINTS
 62
     0
 10
10325.599050424569
 20
19394.789081065072
 30
0.0
  0
POINT
  5
53D1
  8
DEFPOINTS
 62
     0
 10
8737.5990504245747
 20
19394.789081065072
 30
0.0
  0
POINT
  5
53D2
  8
DEFPOINTS
 62
     0
 10
8737.5990504245747
 20
19158.090841003301
 30
0.0
  0
ENDBLK
  5
3947
  8
0
  0
BLOCK
  8
0
  2
_CLOSED
 70
     0
 10
0.0
 20
0.0
 30
0.0
  3
_CLOSED
  1

  0
LINE
  5
3BE3
  8
0
  6
BYBLOCK
 62
     0
 10
-1.0
 20
0.1666666666666666
 30
0.0
 11
0.0
 21
0.0
 31
0.0
  0
LINE
  5
3BE4
  8
0
  6
BYBLOCK
 62
     0
 10
0.0
 20
0.0
 30
0.0
 11
-1.0
 21
-0.1666666666666666
 31
0.0
  0
LINE
  5
3BE5
  8
0
  6
BYBLOCK
 62
     0
 10
-1.0
 20
0.1666666666666666
 30
0.0
 11
-1.0
 21
-0.1666666666666666
 31
0.0
  0
ENDBLK
  5
3BE6
  8
0
  0
BLOCK
  8
0
  2
*D9
 70
     1
 10
0.0
 20
0.0
 30
0.0
  3
*D9
  1

  0
LINE
  5
53D6
  8
SP
 62
     2
 10
8505.5990504245747
 20
20844.789081065072
 30
0.0
 11
8505.5990504245747
 21
22287.335513348658
 31
0.0
  0
LINE
  5
53D7
  8
SP
 62
     2
 10
10325.599050424569
 20
22162.948419008
 30
0.0
 11
10325.599050424569
 21
22287.335513348658
 31
0.0
  0
LINE
  5
53D8
  8
SP
 62
     2
 10
8565.5990504245747
 20
22257.335513348658
 30
0.0
 11
10265.599050424569
 21
22257.335513348658
 31
0.0
  0
INSERT
  5
53D9
  8
SP
 62
     2
  2
_OPEN30
 10
8505.5990504245747
 20
22257.335513348658
 30
0.0
 41
60.0
 42
60.0
 43
60.0
 50
180.0
  0
INSERT
  5
53DA
  8
SP
 62
     2
  2
_OPEN30
 10
10325.599050424569
 20
22257.335513348658
 30
0.0
 41
60.0
 42
60.0
 43
60.0
  0
TEXT
  5
53DB
  8
FUTO
 62
     2
 10
9248.2198949760204
 20
22272.335513348658
 30
0.0
 40
90.0
  1
1820
 51
15.0
  7
SUNPOU
  0
POINT
  5
53DC
  8
DEFPOINTS
 62
     0
 10
8505.5990504245747
 20
20814.789081065072
 30
0.0
  0
POINT
  5
53DD
  8
DEFPOINTS
 62
     0
 10
10325.599050424569
 20
22132.948419008
 30
0.0
  0
POINT
  5
53DE
  8
DEFPOINTS
 62
     0
 10
10325.599050424569
 20
22257.335513348658
 30
0.0
  0
ENDBLK
  5
3C57
  8
0
  0
BLOCK
  8
0
  2
*D10
 70
     1
 10
0.0
 20
0.0
 30
0.0
  3
*D10
  1

  0
LINE
  5
53DF
  8
FUTO
 62
     2
 10
7389.4013380386659
 20
21979.789081065072
 30
0.0
 11
7937.2931370903898
 21
21979.789081065072
 31
0.0
  0
LINE
  5
53E0
  8
FUTO
 62
     2
 10
7460.9627323586301
 20
20434.789081065072
 30
0.0
 11
7937.2931370903898
 21
20434.789081065072
 31
0.0
  0
LINE
  5
53E1
  8
FUTO
 62
     2
 10
7907.2931370903898
 20
21919.789081065072
 30
0.0
 11
7907.2931370903898
 21
20494.789081065072
 31
0.0
  0
INSERT
  5
53E2
  8
FUTO
 62
     2
  2
_OPEN30
 10
7907.2931370903898
 20
21979.789081065072
 30
0.0
 41
60.0
 42
60.0
 43
60.0
 50
90.0
  0
INSERT
  5
53E3
  8
FUTO
 62
     2
  2
_OPEN30
 10
7907.2931370903898
 20
20434.789081065072
 30
0.0
 41
60.0
 42
60.0
 43
60.0
 50
270.0
  0
TEXT
  5
53E4
  8
FUTO
 62
     2
 10
7892.2931370903871
 20
21039.756075395679
 30
0.0
 40
90.0
  1
1545
 50
90.0
 51
15.0
  7
SUNPOU
  0
POINT
  5
53E5
  8
DEFPOINTS
 62
     0
 10
7359.4013380386668
 20
21979.789081065072
 30
0.0
  0
POINT
  5
53E6
  8
DEFPOINTS
 62
     0
 10
7430.9627323586292
 20
20434.789081065072
 30
0.0
  0
POINT
  5
53E7
  8
DEFPOINTS
 62
     0
 10
7907.2931370903898
 20
20434.789081065072
 30
0.0
  0
ENDBLK
  5
4374
  8
0
  0
BLOCK
  8
0
  2
*D11
 70
     1
 10
0.0
 20
0.0
 30
0.0
  3
*D11
  1

  0
LINE
  5
5397
  8
FUTO
 62
     2
 10
10989.599050424569
 20
21134.789081065072
 30
0.0
 11
11355.2089121808
 21
21134.789081065072
 31
0.0
  0
LINE
  5
5398
  8
FUTO
 62
     2
 10
10989.599050424569
 20
19734.789081065072
 30
0.0
 11
11355.208912180789
 21
19734.789081065072
 31
0.0
  0
LINE
  5
5399
  8
FUTO
 62
     2
 10
11325.2089121808
 20
21074.789081065072
 30
0.0
 11
11325.208912180789
 21
19794.789081065072
 31
0.0
  0
INSERT
  5
539A
  8
FUTO
 62
     2
  2
_OPEN30
 10
11325.2089121808
 20
21134.789081065072
 30
0.0
 41
60.0
 42
60.0
 43
60.0
 50
90.0
  0
INSERT
  5
539B
  8
FUTO
 62
     2
  2
_OPEN30
 10
11325.208912180789
 20
19734.789081065072
 30
0.0
 41
60.0
 42
60.0
 43
60.0
 50
270.0
  0
INSERT
  5
539C
  8
FUTO
  2
*U20
 10
0.0
 20
0.0
 30
0.0
  0
POINT
  5
539D
  8
DEFPOINTS
 62
     0
 10
10959.599050424569
 20
21134.789081065072
 30
0.0
  0
POINT
  5
539E
  8
DEFPOINTS
 62
     0
 10
10959.599050424569
 20
19734.789081065072
 30
0.0
  0
POINT
  5
539F
  8
DEFPOINTS
 62
     0
 10
11325.208912180789
 20
19734.789081065072
 30
0.0
  0
ENDBLK
  5
4473
  8
0
  0
BLOCK
  8
0
  2
*D12
 70
     1
 10
0.0
 20
0.0
 30
0.0
  3
*D12
  1

  0
LINE
  5
53A0
  8
FUTO
 62
     2
 10
10325.599050424569
 20
22132.948419008
 30
0.0
 11
10325.599050424569
 21
22287.335513348658
 31
0.0
  0
LINE
  5
53A1
  8
FUTO
 62
     2
 10
10959.599050424569
 20
21214.789081065072
 30
0.0
 11
10959.599050424569
 21
22287.335513348658
 31
0.0
  0
LINE
  5
53A2
  8
FUTO
 62
     2
 10
10385.599050424569
 20
22257.335513348658
 30
0.0
 11
10899.599050424569
 21
22257.335513348658
 31
0.0
  0
INSERT
  5
53A3
  8
FUTO
 62
     2
  2
_OPEN30
 10
10325.599050424569
 20
22257.335513348658
 30
0.0
 41
60.0
 42
60.0
 43
60.0
 50
180.0
  0
INSERT
  5
53A4
  8
FUTO
 62
     2
  2
_OPEN30
 10
10959.599050424569
 20
22257.335513348658
 30
0.0
 41
60.0
 42
60.0
 43
60.0
  0
TEXT
  5
53A5
  8
FUTO
 62
     2
 10
10516.857282015329
 20
22272.335513348658
 30
0.0
 40
90.0
  1
634
 51
15.0
  7
SUNPOU
  0
POINT
  5
53A6
  8
DEFPOINTS
 62
     0
 10
10325.599050424569
 20
22102.948419007989
 30
0.0
  0
POINT
  5
53A7
  8
DEFPOINTS
 62
     0
 10
10959.599050424569
 20
21184.789081065072
 30
0.0
  0
POINT
  5
53A8
  8
DEFPOINTS
 62
     0
 10
10959.599050424569
 20
22257.335513348658
 30
0.0
  0
ENDBLK
  5
447F
  8
0
  0
BLOCK
  8
0
  2
_OPEN30
 70
     0
 10
0.0
 20
0.0
 30
0.0
  3
_OPEN30
  1

  0
LINE
  5
44D6
  8
FUTO
 62
     0
 10
-1.0
 20
0.26794919
 30
0.0
 11
0.0
 21
0.0
 31
0.0
  0
LINE
  5
44D7
  8
FUTO
 62
     0
 10
0.0
 20
0.0
 30
0.0
 11
-1.0
 21
-0.26794919
 31
0.0
  0
LINE
  5
44D8
  8
FUTO
 62
     0
 10
0.0
 20
0.0
 30
0.0
 11
-1.0
 21
0.0
 31
0.0
  0
ENDBLK
  5
44DA
  8
0
  0
BLOCK
  8
0
  2
*D14
 70
     1
 10
0.0
 20
0.0
 30
0.0
  3
*D14
  1

  0
LINE
  5
53E8
  8
FUTO
 62
     2
 10
6429.4013380386668
 20
25578.3617954363
 30
0.0
 11
6429.4013380386668
 21
25681.92504097959
 31
0.0
  0
LINE
  5
53E9
  8
FUTO
 62
     2
 10
4879.4013380386677
 20
24052.489217786711
 30
0.0
 11
4879.4013380386677
 21
25681.92504097959
 31
0.0
  0
LINE
  5
53EA
  8
FUTO
 62
     2
 10
6369.4013380386677
 20
25651.92504097959
 30
0.0
 11
4939.4013380386677
 21
25651.92504097959
 31
0.0
  0
INSERT
  5
53EB
  8
FUTO
 62
     2
  2
_OPEN30
 10
6429.4013380386668
 20
25651.92504097959
 30
0.0
 41
60.0
 42
60.0
 43
60.0
  0
INSERT
  5
53EC
  8
FUTO
 62
     2
  2
_OPEN30
 10
4879.4013380386677
 20
25651.92504097959
 30
0.0
 41
60.0
 42
60.0
 43
60.0
 50
180.0
  0
TEXT
  5
53ED
  8
FUTO
 62
     2
 10
5487.0221825901153
 20
25666.9250409796
 30
0.0
 40
90.0
  1
1550
 51
15.0
  7
SUNPOU
  0
POINT
  5
53EE
  8
DEFPOINTS
 62
     0
 10
6429.4013380386668
 20
25548.3617954363
 30
0.0
  0
POINT
  5
53EF
  8
DEFPOINTS
 62
     0
 10
4879.4013380386677
 20
24022.4892177867
 30
0.0
  0
POINT
  5
53F0
  8
DEFPOINTS
 62
     0
 10
4879.4013380386677
 20
25651.92504097959
 30
0.0
  0
ENDBLK
  5
45B4
  8
0
  0
BLOCK
  8
0
  2
*D15
 70
     1
 10
0.0
 20
0.0
 30
0.0
  3
*D15
  1

  0
LINE
  5
53F1
  8
FUTO
 62
     2
 10
7636.9213386181864
 20
24633.489217786711
 30
0.0
 11
7869.7072408785389
 21
24633.489217786711
 31
0.0
  0
LINE
  5
53F2
  8
FUTO
 62
     2
 10
7209.4013380386677
 20
25267.4892177867
 30
0.0
 11
7869.7072408785389
 21
25267.4892177867
 31
0.0
  0
LINE
  5
53F3
  8
FUTO
 62
     2
 10
7839.7072408785389
 20
24693.4892177867
 30
0.0
 11
7839.7072408785389
 21
25207.4892177867
 31
0.0
  0
INSERT
  5
53F4
  8
FUTO
 62
     2
  2
_OPEN30
 10
7839.7072408785389
 20
24633.489217786711
 30
0.0
 41
60.0
 42
60.0
 43
60.0
 50
270.0
  0
INSERT
  5
53F5
  8
FUTO
 62
     2
  2
_OPEN30
 10
7839.7072408785389
 20
25267.4892177867
 30
0.0
 41
60.0
 42
60.0
 43
60.0
 50
90.0
  0
TEXT
  5
53F6
  8
FUTO
 62
     2
 10
7824.7072408785352
 20
24824.747449377472
 30
0.0
 40
90.0
  1
634
 50
90.0
 51
15.0
  7
SUNPOU
  0
POINT
  5
53F7
  8
DEFPOINTS
 62
     0
 10
7606.9213386181873
 20
24633.489217786711
 30
0.0
  0
POINT
  5
53F8
  8
DEFPOINTS
 62
     0
 10
7179.4013380386668
 20
25267.4892177867
 30
0.0
  0
POINT
  5
53F9
  8
DEFPOINTS
 62
     0
 10
7839.7072408785389
 20
25267.4892177867
 30
0.0
  0
ENDBLK
  5
45C1
  8
0
  0
BLOCK
  8
0
  2
*D16
 70
     1
 10
0.0
 20
0.0
 30
0.0
  3
*D16
  1

  0
LINE
  5
53FA
  8
FUTO
 62
     2
 10
6839.4013380386677
 20
22813.489217786711
 30
0.0
 11
7869.7072408785389
 21
22813.489217786711
 31
0.0
  0
LINE
  5
53FB
  8
FUTO
 62
     2
 10
7839.7072408785389
 20
24573.4892177867
 30
0.0
 11
7839.7072408785389
 21
22873.4892177867
 31
0.0
  0
INSERT
  5
53FC
  8
FUTO
 62
     2
  2
_OPEN30
 10
7839.7072408785389
 20
24633.489217786711
 30
0.0
 41
60.0
 42
60.0
 43
60.0
 50
90.0
  0
INSERT
  5
53FD
  8
FUTO
 62
     2
  2
_OPEN30
 10
7839.7072408785389
 20
22813.489217786711
 30
0.0
 41
60.0
 42
60.0
 43
60.0
 50
270.0
  0
TEXT
  5
53FE
  8
FUTO
 62
     2
 10
7824.7072408785352
 20
23556.11006233815
 30
0.0
 40
90.0
  1
1820
 50
90.0
 51
15.0
  7
SUNPOU
  0
POINT
  5
53FF
  8
DEFPOINTS
 62
     0
 10
7839.7072408785389
 20
24633.489217786711
 30
0.0
  0
POINT
  5
5400
  8
DEFPOINTS
 62
     0
 10
6809.4013380386677
 20
22813.489217786711
 30
0.0
  0
POINT
  5
5401
  8
DEFPOINTS
 62
     0
 10
7839.7072408785389
 20
22813.489217786711
 30
0.0
  0
ENDBLK
  5
45CD
  8
0
  0
BLOCK
  8
0
  2
*D17
 70
     1
 10
0.0
 20
0.0
 30
0.0
  3
*D17
  1

  0
LINE
  5
5402
  8
FUTO
 62
     2
 10
6429.4013380386668
 20
21989.21582632251
 30
0.0
 11
6429.4013380386668
 21
22287.335513348658
 31
0.0
  0
LINE
  5
5403
  8
FUTO
 62
     2
 10
7359.4013380386668
 20
22009.789081065072
 30
0.0
 11
7359.4013380386668
 21
22287.335513348658
 31
0.0
  0
LINE
  5
5404
  8
FUTO
 62
     2
 10
6489.4013380386677
 20
22257.335513348658
 30
0.0
 11
7299.4013380386668
 21
22257.335513348658
 31
0.0
  0
INSERT
  5
5405
  8
FUTO
 62
     2
  2
_OPEN30
 10
6429.4013380386668
 20
22257.335513348658
 30
0.0
 41
60.0
 42
60.0
 43
60.0
 50
180.0
  0
INSERT
  5
5406
  8
FUTO
 62
     2
  2
_OPEN30
 10
7359.4013380386668
 20
22257.335513348658
 30
0.0
 41
60.0
 42
60.0
 43
60.0
  0
TEXT
  5
5407
  8
FUTO
 62
     2
 10
6767.2035155059057
 20
22272.335513348658
 30
0.0
 40
90.0
  1
930
 51
15.0
  7
SUNPOU
  0
POINT
  5
5408
  8
DEFPOINTS
 62
     0
 10
6429.4013380386668
 20
21959.21582632251
 30
0.0
  0
POINT
  5
5409
  8
DEFPOINTS
 62
     0
 10
7359.4013380386668
 20
21979.789081065072
 30
0.0
  0
POINT
  5
540A
  8
DEFPOINTS
 62
     0
 10
7359.4013380386668
 20
22257.335513348658
 30
0.0
  0
ENDBLK
  5
46F2
  8
0
  0
BLOCK
  8
0
  2
*D18
 70
     1
 10
0.0
 20
0.0
 30
0.0
  3
*D18
  1

  0
LINE
  5
540B
  8
FUTO
 62
     2
 10
7490.962732358631
 20
20434.789081065072
 30
0.0
 11
7937.2931370903898
 21
20434.789081065072
 31
0.0
  0
LINE
  5
540C
  8
FUTO
 62
     2
 10
7309.4013380386668
 20
19394.789081065072
 30
0.0
 11
7937.2931370903898
 21
19394.789081065072
 31
0.0
  0
LINE
  5
540D
  8
FUTO
 62
     2
 10
7907.2931370903898
 20
20374.789081065072
 30
0.0
 11
7907.2931370903898
 21
19454.789081065072
 31
0.0
  0
INSERT
  5
540E
  8
FUTO
 62
     2
  2
_OPEN30
 10
7907.2931370903898
 20
20434.789081065072
 30
0.0
 41
60.0
 42
60.0
 43
60.0
 50
90.0
  0
INSERT
  5
540F
  8
FUTO
 62
     2
  2
_OPEN30
 10
7907.2931370903898
 20
19394.789081065072
 30
0.0
 41
60.0
 42
60.0
 43
60.0
 50
270.0
  0
TEXT
  5
5410
  8
FUTO
 62
     2
 10
7892.2931370903871
 20
19747.409925616521
 30
0.0
 40
90.0
  1
1040
 50
90.0
 51
15.0
  7
SUNPOU
  0
POINT
  5
5411
  8
DEFPOINTS
 62
     0
 10
7460.9627323586301
 20
20434.789081065072
 30
0.0
  0
POINT
  5
5412
  8
DEFPOINTS
 62
     0
 10
7279.4013380386668
 20
19394.789081065072
 30
0.0
  0
POINT
  5
5413
  8
DEFPOINTS
 62
     0
 10
7907.2931370903898
 20
19394.789081065072
 30
0.0
  0
ENDBLK
  5
4700
  8
0
  0
BLOCK
  8
0
  2
*D19
 70
     1
 10
0.0
 20
0.0
 30
0.0
  3
*D19
  1

  0
LINE
  5
5414
  8
FUTO
 62
     2
 10
6429.4013380386668
 20
25578.3617954363
 30
0.0
 11
6429.4013380386668
 21
25681.92504097959
 31
0.0
  0
LINE
  5
5415
  8
FUTO
 62
     2
 10
7359.4013380386687
 20
25247.4892177867
 30
0.0
 11
7359.4013380386687
 21
25681.92504097959
 31
0.0
  0
LINE
  5
5416
  8
FUTO
 62
     2
 10
6489.4013380386677
 20
25651.92504097959
 30
0.0
 11
7299.4013380386668
 21
25651.92504097959
 31
0.0
  0
INSERT
  5
5417
  8
FUTO
 62
     2
  2
_OPEN30
 10
6429.4013380386668
 20
25651.92504097959
 30
0.0
 41
60.0
 42
60.0
 43
60.0
 50
180.0
  0
INSERT
  5
5418
  8
FUTO
 62
     2
  2
_OPEN30
 10
7359.4013380386687
 20
25651.92504097959
 30
0.0
 41
60.0
 42
60.0
 43
60.0
  0
TEXT
  5
5419
  8
FUTO
 62
     2
 10
6767.2035155059057
 20
25666.9250409796
 30
0.0
 40
90.0
  1
930
 51
15.0
  7
SUNPOU
  0
POINT
  5
541A
  8
DEFPOINTS
 62
     0
 10
6429.4013380386668
 20
25548.3617954363
 30
0.0
  0
POINT
  5
541B
  8
DEFPOINTS
 62
     0
 10
7359.4013380386687
 20
25217.4892177867
 30
0.0
  0
POINT
  5
541C
  8
DEFPOINTS
 62
     0
 10
7359.4013380386687
 20
25651.92504097959
 30
0.0
  0
ENDBLK
  5
471E
  8
0
  0
BLOCK
  8
0
  2
*U20
 70
     1
 10
0.0
 20
0.0
 30
0.0
  3
*U20
  1

  0
TEXT
  5
543F
  8
FUTO
 62
     2
 10
11310.208912180789
 20
20212.03351843746
 30
0.0
 40
90.0
  1
\U+2205
 50
90.0
 51
15.0
  7
SUNPOU
  0
TEXT
  5
5440
  8
FUTO
 62
     2
 10
11310.208912180789
 20
20293.462089866029
 30
0.0
 40
90.0
  1
1400
 50
90.0
 51
15.0
  7
SUNPOU
  0
ENDBLK
  5
5442
  8
0
  0
ENDSEC
  0
SECTION
  2
ENTITIES
  0
LINE
  5
42
  8
FUTO
 10
8737.5990504245747
 20
19394.789081065072
 30
0.0
 11
10937.599050424569
 21
19394.789081065079
 31
0.0
1001
ACAD
1000
ASC_BOUNDS
1002
{
1070
    19
1005
3975
1002
}
  0
LINE
  5
116
  8
FUTO
 10
9654.5990504245747
 20
20479.789081065072
 30
0.0
 11
9716.0990504245747
 21
20479.789081065072
 31
0.0
  0
LINE
  5
117
  8
FUTO
 10
9654.5990504245747
 20
20389.789081065072
 30
0.0
 11
9717.3990504245758
 21
20389.789081065072
 31
0.0
  0
LINE
  5
118
  8
FUTO
 10
8738.5990504245747
 20
19544.789081065072
 30
0.0
 11
10937.79905042457
 21
19544.789081065072
 31
0.0
  0
LINE
  5
119
  8
CT
 10
8454.7489169391956
 20
20434.789081065072
 30
0.0
 11
11052.92652839658
 21
20434.789081065072
 31
0.0
  0
ARC
  5
11C
  8
FUTO
 10
6327.4013380386677
 20
20536.789081065072
 30
0.0
 40
1125.0
 50
185.20196108489151
 51
202.2565661003735
  0
LINE
  5
14C
  8
SL
 10
8715.5990504245747
 20
20514.789081065072
 30
0.0
 11
8715.5990504245747
 21
20354.789081065072
 31
0.0
  0
LINE
  5
162
  8
CT
 10
8875.5990504245747
 20
20553.29257802519
 30
0.0
 11
8875.5990504245747
 21
20271.958449278362
 31
0.0
  0
LINE
  5
163
  8
CT
 10
6574.4013380386677
 20
20324.789081065072
 30
0.0
 11
6574.4013380386677
 21
20378.789081065072
 31
0.0
  0
ARC
  5
164
  8
FUTO
 10
6540.4013380386668
 20
20384.789081065072
 30
0.0
 40
16.0
 50
180.0
 51
270.0
  0
ARC
  5
165
  8
FUTO
 10
6429.401338038665
 20
20434.789081065072
 30
0.0
 40
95.000000000000071
 50
309.05612602761761
 51
330.00000000000051
  0
ARC
  5
168
  8
FUTO
 10
6429.401338038665
 20
20434.789081065072
 30
0.0
 40
94.999999999997485
 50
209.99999999999881
 51
230.94387397238171
  0
LINE
  5
169
  8
CT
 10
6284.4013380386677
 20
20324.789081065072
 30
0.0
 11
6284.4013380386677
 21
20378.789081065072
 31
0.0
  0
ARC
  5
16A
  8
FUTO
 10
6318.4013380386677
 20
20384.789081065072
 30
0.0
 40
16.0
 50
270.0
 51
0.0
  0
LINE
  5
16B
  8
CT
 10
6429.4013380386668
 20
20559.29257802519
 30
0.0
 11
6429.4013380386668
 21
20317.547741909471
 31
0.0
  0
ARC
  5
178
  8
KL
 10
6343.9013380386668
 20
20349.289081065079
 30
0.0
 40
917.5
 50
270.0
 51
0.0
  0
LINE
  5
17D
  8
FUTO
 10
8505.5990504245747
 20
20814.789081065072
 30
0.0
 11
8505.5990504245747
 21
19584.789081065072
 31
0.0
  0
LINE
  5
17E
  8
SL
 10
8615.5990504245765
 20
20684.789081065072
 30
0.0
 11
8615.5990504245765
 21
19698.789081065072
 31
0.0
  0
LINE
  5
17F
  8
SL
 10
8693.4990504245743
 20
20684.789081065072
 30
0.0
 11
8693.4990504245743
 21
19698.789081065072
 31
0.0
  0
ARC
  5
180
  8
FUTO
 10
6531.4013380386659
 20
20536.789081065072
 30
0.0
 40
1329.0
 50
94.401747375648924
 51
184.40174737564899
  0
ARC
  5
183
  8
FUTO
 10
6429.4013380386668
 20
20434.789081065072
 30
0.0
 40
380.0
 50
290.91972074404651
 51
124.4792248720635
  0
LINE
  5
184
  8
CT
 10
6429.4013380386668
 20
21959.21582632251
 30
0.0
 11
6429.4013380386668
 21
19024.789081065072
 31
0.0
  0
LINE
  5
185
  8
FUTO
 10
5589.4013380386677
 20
21474.273480935281
 30
0.0
 11
5589.4013380386677
 21
20318.901001082631
 31
0.0
  0
LINE
  5
186
  8
FUTO
 10
5598.4013380386677
 20
21483.230838385622
 30
0.0
 11
5598.4013380386677
 21
20325.08172609764
 31
0.0
  0
LINE
  5
187
  8
FUTO
 10
7269.4013380386677
 20
21937.752262733429
 30
0.0
 11
7269.4013380386677
 21
19544.789081065072
 31
0.0
  0
LINE
  5
188
  8
FUTO
 10
7260.4013380386677
 20
21936.94046131373
 30
0.0
 11
7260.4013380386677
 21
19544.789081065072
 31
0.0
  0
CIRCLE
  5
18B
  8
SL
 10
6429.4013380386668
 20
20434.789081065072
 30
0.0
 40
250.0
  0
ARC
  5
18C
  8
KL
 10
6531.4013380386659
 20
20536.789081065072
 30
0.0
 40
1309.0
 50
95.154140402456889
 51
180.0
  0
LINE
  5
19A
  8
CT
 10
9585.5990504245747
 20
20553.29257802519
 30
0.0
 11
9585.5990504245747
 21
20249.62491784992
 31
0.0
  0
LINE
  5
19B
  8
FUTO
 10
7279.4013380386668
 20
19394.789081065072
 30
0.0
 11
4879.4013380386677
 21
19394.789081065072
 31
0.0
1001
ACAD
1000
ASC_BOUNDS
1002
{
1070
    19
1005
0
1005
0
1005
0
1005
0
1005
0
1005
0
1005
0
1005
0
1005
0
1005
0
1005
0
1005
0
1005
0
1005
0
1005
0
1005
0
1005
0
1005
0
1005
0
1005
0
1005
0
1002
}
  0
DIMENSION
  5
276
  8
FUTO
  2
*D2
 10
4879.4013380386677
 20
19155.489221100041
 30
0.0
 11
5654.4013380386677
 21
19215.489221100041
 31
0.0
 70
     0
 13
6429.4013380386668
 23
19367.706930021319
 33
0.0
 14
4879.4013380386677
 24
19319.789081065072
 34
0.0
1001
ACAD
1000
DSTYLE
1002
{
1070
    40
1040
30.0
1070
   176
1070
     2
1070
   177
1070
     2
1070
   178
1070
     2
1070
   341
1005
44D5
1070
     5
1000
OPEN30
1002
}
  0
DIMENSION
  5
283
  8
FUTO
  2
*D3
 10
7279.4013380386668
 20
18972.571904115961
 30
0.0
 11
6079.4013380386677
 21
19032.571904115961
 31
0.0
 70
     0
 13
4879.4013380386677
 23
19394.789081065072
 33
0.0
 14
7279.4013380386668
 24
19394.789081065072
 34
0.0
1001
ACAD
1000
DSTYLE
1002
{
1070
    40
1040
30.0
1070
   176
1070
     2
1070
   177
1070
     2
1070
   178
1070
     2
1070
   341
1005
44D5
1070
     5
1000
OPEN30
1002
}
  0
LINE
  5
293
  8
FUTO
 10
5489.4013380386677
 20
19619.282716482539
 30
0.0
 11
5542.6022711428122
 21
19619.282716482539
 31
0.0
  0
LINE
  5
294
  8
FUTO
 10
7279.4013380386668
 20
19544.789081065072
 30
0.0
 11
4879.4013380386677
 21
19544.789081065072
 31
0.0
  0
LINE
  5
2AC
  8
FUTO
 10
5489.4013380386677
 20
19544.789081065072
 30
0.0
 11
5489.4013380386677
 21
19635.969513407279
 31
0.0
  0
LINE
  5
2AD
  8
FUTO
 10
5489.4013380386677
 20
19544.789081065072
 30
0.0
 11
5479.3930021282276
 21
19604.789081065072
 31
0.0
  0
LINE
  5
2AE
  8
FUTO
 10
4969.401338038665
 20
19544.789081065072
 30
0.0
 11
4969.401338038665
 21
19635.969513407279
 31
0.0
  0
LINE
  5
2AF
  8
FUTO
 10
4969.401338038665
 20
19544.789081065072
 30
0.0
 11
4979.409673949106
 21
19604.789081065072
 31
0.0
  0
ARC
  5
2B0
  8
FUTO
 10
5229.4013380386677
 20
19804.789081065072
 30
0.0
 40
220.0
 50
124.4792248720634
 51
290.9197207440464
  0
LINE
  5
2B6
  8
FUTO
 10
4879.4013380386677
 20
19544.789081065072
 30
0.0
 11
4879.4013380386677
 21
19394.789081065072
 31
0.0
  0
LINE
  5
2BD
  8
CT
 10
5026.8461620386679
 20
19879.789081065072
 30
0.0
 11
4990.4128120386677
 21
19879.789081065072
 31
0.0
  0
LINE
  5
2BE
  8
FUTO
 10
5009.4013380386668
 20
19819.789081065072
 30
0.0
 11
5026.4548050386666
 21
19819.789081065072
 31
0.0
  0
LINE
  5
2BF
  8
FUTO
 10
5009.4013380386668
 20
19939.789081065072
 30
0.0
 11
5077.1276560386677
 21
19939.789081065072
 31
0.0
  0
ARC
  5
2C0
  8
FUTO
 10
5001.2013870386672
 20
19946.25563406507
 30
0.0
 40
8.1999940000000002
 50
0.0
 51
72.690139999999971
  0
LINE
  5
2C1
  8
FUTO
 10
4979.409673949106
 20
19604.789081065072
 30
0.0
 11
5146.0630184604197
 21
19604.789081065072
 31
0.0
  0
LINE
  5
2C2
  8
FUTO
 10
5030.946365449533
 20
19619.282716482539
 30
0.0
 11
4996.1318137454145
 21
19619.282716482539
 31
0.0
  0
LINE
  5
2C3
  8
FUTO
 10
5009.1293650386679
 20
19806.14699106507
 30
0.0
 11
4998.7308060386677
 21
19762.472919065069
 31
0.0
  0
LINE
  5
2C4
  8
FUTO
 10
4832.6087350386679
 20
19772.20363206507
 30
0.0
 11
4832.6087350386679
 21
19909.99611206507
 31
0.0
  0
LINE
  5
2C5
  8
FUTO
 10
4992.6087350386679
 20
19989.650897065068
 30
0.0
 11
4843.8587350386688
 21
19732.008319065069
 31
0.0
  0
LINE
  5
2C6
  8
FUTO
 10
4998.1513380386677
 20
19986.45094606507
 30
0.0
 11
4849.4013380386668
 21
19728.808368065071
 31
0.0
  0
LINE
  5
2C7
  8
FUTO
 10
4986.4013380386677
 20
19724.789081065072
 30
0.0
 11
4866.4013380386668
 21
19724.789081065072
 31
0.0
  0
LINE
  5
2C8
  8
FUTO
 10
4989.0027780386681
 20
19754.789081065072
 30
0.0
 11
4864.4013380386677
 21
19754.789081065072
 31
0.0
  0
ARC
  5
2C9
  8
FUTO
 10
4855.8764360386667
 20
19756.823749065072
 30
0.0
 40
2.0000450000000001
 50
330.00181599999991
 51
72.686446999999973
  0
LINE
  5
2CA
  8
FUTO
 10
4838.3688670386673
 20
19764.375018065071
 30
0.0
 11
4856.4716500386676
 21
19758.733173065069
 31
0.0
  0
LINE
  5
2CB
  8
FUTO
 10
4843.8587350386688
 20
19732.008319065069
 30
0.0
 11
4849.4013380386668
 21
19728.808368065071
 31
0.0
  0
LINE
  5
2CC
  8
FUTO
 10
4866.4013380386668
 20
19724.789081065072
 30
0.0
 11
4866.4013380386668
 21
19754.789081065072
 31
0.0
  0
ARC
  5
2CD
  8
FUTO
 10
4840.8088090386682
 20
19772.20363206507
 30
0.0
 40
8.2000299999999982
 50
180.0
 51
252.6893309999999
  0
LINE
  5
2CE
  8
FUTO
 10
4986.4013380386677
 20
19724.789081065072
 30
0.0
 11
4986.4013380386677
 21
19754.789081065072
 31
0.0
  0
LINE
  5
2CF
  8
FUTO
 10
4956.4013380386668
 20
19724.789081065072
 30
0.0
 11
4956.4013380386668
 21
19754.789081065072
 31
0.0
  0
LINE
  5
2D0
  8
FUTO
 10
4953.4013380386677
 20
19724.789081065072
 30
0.0
 11
4953.4013380386677
 21
19754.789081065072
 31
0.0
  0
ARC
  5
2D1
  8
FUTO
 10
4989.0027780386681
 20
19764.789081065072
 30
0.0
 40
9.9999559999999992
 50
270.0
 51
346.60769699999992
  0
LINE
  5
2D2
  8
CT
 10
4926.4013380386677
 20
19768.872089065069
 30
0.0
 11
4926.4013380386677
 21
19716.650653065069
 31
0.0
  0
LINE
  5
2D3
  8
FUTO
 10
4896.4013380386677
 20
19724.789081065072
 30
0.0
 11
4896.4013380386677
 21
19754.789081065072
 31
0.0
  0
LINE
  5
2D4
  8
FUTO
 10
4899.4013380386677
 20
19724.789081065072
 30
0.0
 11
4899.4013380386677
 21
19754.789081065072
 31
0.0
  0
LINE
  5
2D5
  8
FUTO
 10
4969.401338038665
 20
19619.282716482539
 30
0.0
 11
4916.2004049345242
 21
19619.282716482539
 31
0.0
  0
LINE
  5
2D6
  8
FUTO
 10
4916.2004049345242
 20
19626.738511910749
 30
0.0
 11
4907.3191647957101
 21
19626.738511910749
 31
0.0
  0
LINE
  5
2D7
  8
FUTO
 10
4916.2004049345242
 20
19612.536986997249
 30
0.0
 11
4916.2004049345242
 21
19626.738511910749
 31
0.0
  0
LINE
  5
2D8
  8
FUTO
 10
4906.9639139523488
 20
19612.536986997249
 30
0.0
 11
4916.2004049345242
 21
19612.536986997249
 31
0.0
  0
LINE
  5
2D9
  8
FUTO
 10
4906.9639139523488
 20
19626.383478939289
 30
0.0
 11
4906.9639139523488
 21
19612.536986997249
 31
0.0
  0
LINE
  5
2DA
  8
FUTO
 10
4996.1318137454145
 20
19635.969513407279
 30
0.0
 11
4996.1318137454145
 21
19604.789081065072
 31
0.0
  0
LINE
  5
2DB
  8
FUTO
 10
4969.401338038665
 20
19635.969513407279
 30
0.0
 11
4996.1318137454145
 21
19635.969513407279
 31
0.0
  0
LINE
  5
2DC
  8
FUTO
 10
4853.0074170386679
 20
19963.670184065071
 30
0.0
 11
4977.6087350386679
 21
19963.670184065071
 31
0.0
  0
ARC
  5
2DD
  8
FUTO
 10
4853.0074170386679
 20
19953.670184065071
 30
0.0
 40
10.000075000000001
 50
90.0
 51
166.60785899999991
  0
ARC
  5
2DE
  8
FUTO
 10
4842.6094680386668
 20
19909.995868065071
 30
0.0
 40
10.000731999999999
 50
166.60730699999991
 51
179.99860099999989
  0
LINE
  5
2DF
  8
FUTO
 10
4843.2792680386683
 20
19955.986347065071
 30
0.0
 11
4832.8807080386678
 21
19912.312274065069
 31
0.0
  0
LINE
  5
2E0
  8
FUTO
 10
4992.6087350386679
 20
19989.650897065068
 30
0.0
 11
4998.1513380386677
 21
19986.45094606507
 31
0.0
  0
ARC
  5
2E1
  8
FUTO
 10
4986.1336380386674
 20
19961.635516065071
 30
0.0
 40
2.000008999999999
 50
150.00006899999991
 51
252.68978899999999
  0
LINE
  5
2E2
  8
FUTO
 10
4985.5385450386684
 20
19959.72609306507
 30
0.0
 11
5003.6412060386683
 21
19954.084247065071
 31
0.0
  0
ARC
  5
2E3
  8
FUTO
 10
4999.4013380386668
 20
19808.463153065069
 30
0.0
 40
10.0
 50
346.60769699999992
 51
0.0
  0
LINE
  5
2E4
  8
FUTO
 10
5009.4013380386668
 20
19808.463153065069
 30
0.0
 11
5009.4013380386668
 21
19946.25563406507
 31
0.0
  0
LINE
  5
2E5
  8
FUTO
 10
5235.6513380386677
 20
20018.43605406507
 30
0.0
 11
5235.6513380386677
 21
20068.539081065072
 31
0.0
  0
LINE
  5
2E6
  8
FUTO
 10
5223.1513380386677
 20
20018.43605406507
 30
0.0
 11
5223.1513380386677
 21
20068.539081065072
 31
0.0
  0
LINE
  5
2E7
  8
CT
 10
5229.4013380386677
 20
20081.108173065069
 30
0.0
 11
5229.4013380386677
 21
19601.084247065071
 31
0.0
  0
CIRCLE
  5
2E8
  8
FUTO
 10
5229.4013380386677
 20
19804.789081065072
 30
0.0
 40
40.0
  0
LINE
  5
2E9
  8
FUTO
 10
5174.6633010386677
 20
19608.789081065072
 30
0.0
 11
5284.1393750386678
 21
19608.789081065072
 31
0.0
  0
LINE
  5
2EA
  8
CT
 10
5444.240449038668
 20
19804.789081065072
 30
0.0
 11
5015.4102490386676
 21
19804.789081065072
 31
0.0
  0
LINE
  5
2EB
  8
CT
 10
5416.9013380386677
 20
19804.789081065072
 30
0.0
 11
5029.3663806925433
 21
19804.789081065072
 31
0.0
  0
CIRCLE
  5
2EC
  8
SL
 10
5229.4013380386677
 20
19804.789081065072
 30
0.0
 40
106.0
  0
LINE
  5
2ED
  8
FUTO
 10
5312.7396576169158
 20
19595.312736503471
 30
0.0
 11
5229.3885571511419
 21
19595.312736503471
 31
0.0
  0
ARC
  5
2EE
  8
FUTO
 10
5229.4013380386677
 20
19804.789081065072
 30
0.0
 40
203.5
 50
285.60372899999987
 51
254.39624000000001
  0
CIRCLE
  5
2EF
  8
FUTO
 10
5229.4013380386677
 20
19804.789081065072
 30
0.0
 40
7.5
  0
LINE
  5
2F0
  8
CT
 10
5229.4013380386677
 20
19592.289081065072
 30
0.0
 11
5229.4013380386677
 21
20007.912086415621
 31
0.0
  0
LINE
  5
2F1
  8
FUTO
 10
5078.4872750386676
 20
19668.270770065072
 30
0.0
 11
5073.6891800386666
 21
19664.236347065071
 31
0.0
  0
LINE
  5
2F2
  8
FUTO
 10
5076.8925490386682
 20
19662.321307065071
 30
0.0
 11
5080.4845900386681
 21
19665.913348065071
 31
0.0
  0
LINE
  5
2F3
  8
FUTO
 10
5076.8925490386682
 20
19661.47267506507
 30
0.0
 11
5076.8925490386682
 21
19662.321307065071
 31
0.0
  0
LINE
  5
2F4
  8
FUTO
 10
5079.1799020386679
 20
19660.033710065069
 30
0.0
 11
5078.3312700386678
 21
19660.033710065069
 31
0.0
  0
LINE
  5
2F5
  8
FUTO
 10
5079.1799020386679
 20
19660.033710065069
 30
0.0
 11
5079.1799020386679
 21
19659.18532106507
 31
0.0
  0
ARC
  5
2F6
  8
FUTO
 10
5076.9069530386678
 20
19660.409442065069
 30
0.0
 40
5.0000339999999994
 50
130.05810899999989
 51
223.43603499999989
  0
LINE
  5
2F7
  8
FUTO
 10
5086.933564038668
 20
19652.280292065068
 30
0.0
 11
5090.5256050386679
 21
19655.872333065068
 31
0.0
  0
LINE
  5
2F8
  8
FUTO
 10
5086.933564038668
 20
19652.280292065068
 30
0.0
 11
5086.0849320386678
 21
19652.280292065068
 31
0.0
  0
LINE
  5
2F9
  8
FUTO
 10
5084.6462110386674
 20
19654.567645065072
 30
0.0
 11
5084.6462110386674
 21
19653.719013065071
 31
0.0
  0
LINE
  5
2FA
  8
FUTO
 10
5084.6462110386674
 20
19654.567645065072
 30
0.0
 11
5088.2382520386673
 21
19658.159686065072
 31
0.0
  0
LINE
  5
2FB
  8
FUTO
 10
5084.6462110386674
 20
19654.567645065072
 30
0.0
 11
5083.7975780386678
 21
19654.567645065072
 31
0.0
  0
LINE
  5
2FC
  8
FUTO
 10
5080.4845900386681
 20
19665.913348065071
 30
0.0
 11
5090.5256050386679
 21
19655.872333065068
 31
0.0
  0
LINE
  5
2FD
  8
CT
 10
5080.9604200386666
 20
19656.348163065071
 30
0.0
 11
5086.2084670386675
 21
19661.596210065069
 31
0.0
  0
LINE
  5
2FE
  8
FUTO
 10
5076.8925490386682
 20
19661.47267506507
 30
0.0
 11
5086.0849320386678
 21
19652.280292065068
 31
0.0
  0
LINE
  5
2FF
  8
FUTO
 10
5079.1799020386679
 20
19660.033710065069
 30
0.0
 11
5082.7719430386678
 21
19663.625995065071
 31
0.0
  0
LINE
  5
300
  8
FUTO
 10
5103.2150590386682
 20
19624.789081065072
 30
0.0
 11
5107.7364210386668
 21
19641.66359306507
 31
0.0
  0
LINE
  5
301
  8
FUTO
 10
5107.7365430386672
 20
19641.66359306507
 30
0.0
 11
5103.2150590386682
 21
19624.789081065072
 31
0.0
  0
ARC
  5
302
  8
FUTO
 10
5101.6166700386684
 20
19638.142597065071
 30
0.0
 40
5.0
 50
232.51797499999989
 51
344.99883999999997
  0
ARC
  5
303
  8
FUTO
 10
5229.4013380386677
 20
19804.789081065072
 30
0.0
 40
214.9999849999999
 50
223.434326
 51
232.5189509999999
  0
ARC
  5
304
  8
FUTO
 10
5116.9013380386677
 20
19621.789081065072
 30
0.0
 40
3.0
 50
0.0
 51
90.0
  0
LINE
  5
305
  8
FUTO
 10
5079.6513380386677
 20
19616.789081065072
 30
0.0
 11
5079.6513380386677
 21
19612.789081065072
 31
0.0
  0
LINE
  5
306
  8
FUTO
 10
5079.6513380386677
 20
19608.789081065072
 30
0.0
 11
5079.6513380386677
 21
19604.789081065072
 31
0.0
  0
LINE
  5
307
  8
FUTO
 10
5119.9013380386677
 20
19621.789081065072
 30
0.0
 11
5119.9013380386677
 21
19604.789081065072
 31
0.0
  0
LINE
  5
308
  8
FUTO
 10
5119.9013380386677
 20
19609.789081065072
 30
0.0
 11
5125.5763870386672
 21
19630.96925706507
 31
0.0
  0
LINE
  5
309
  8
CT
 10
5070.4013380386668
 20
19629.212909065071
 30
0.0
 11
5070.4013380386668
 21
19600.097186065072
 31
0.0
  0
LINE
  5
30A
  8
FUTO
 10
5079.6513380386677
 20
19624.789081065072
 30
0.0
 11
5079.6513380386677
 21
19620.789081065072
 31
0.0
  0
ARC
  5
30B
  8
FUTO
 10
5045.4013380386677
 20
19679.11574106507
 30
0.0
 40
5.0
 50
124.94366100000001
 51
180.0
  0
ARC
  5
30C
  8
FUTO
 10
5043.4013380386677
 20
19621.789081065072
 30
0.0
 40
3.0
 50
90.0
 51
180.0
  0
LINE
  5
30D
  8
FUTO
 10
5061.1513380386668
 20
19616.789081065072
 30
0.0
 11
5061.1513380386668
 21
19612.789081065072
 31
0.0
  0
LINE
  5
30E
  8
FUTO
 10
5061.1513380386668
 20
19608.789081065072
 30
0.0
 11
5061.1513380386668
 21
19604.789081065072
 31
0.0
  0
LINE
  5
30F
  8
FUTO
 10
5061.1513380386668
 20
19624.789081065072
 30
0.0
 11
5061.1513380386668
 21
19620.789081065072
 31
0.0
  0
LINE
  5
310
  8
FUTO
 10
5040.4013380386677
 20
19679.11574106507
 30
0.0
 11
5040.4013380386677
 21
19604.789081065072
 31
0.0
  0
LINE
  5
311
  8
FUTO
 10
5040.4013380386677
 20
19604.789081065072
 30
0.0
 11
5119.9013380386677
 21
19604.789081065072
 31
0.0
  0
LINE
  5
312
  8
FUTO
 10
5116.9013380386677
 20
19624.789081065072
 30
0.0
 11
5043.4013380386677
 21
19624.789081065072
 31
0.0
  0
LINE
  5
313
  8
FUTO
 10
5042.5374460386683
 20
19683.214374065072
 30
0.0
 11
5058.4753120386677
 21
19694.350848065071
 31
0.0
  0
LINE
  5
314
  8
FUTO
 10
5146.0630184604197
 20
19604.789081065072
 30
0.0
 11
5146.0630184604197
 21
19595.312736503471
 31
0.0
  0
LINE
  5
315
  8
FUTO
 10
5146.0630184604197
 20
19595.312736503471
 30
0.0
 11
5229.4141189261927
 21
19595.312736503471
 31
0.0
  0
LINE
  5
316
  8
FUTO
 10
5086.0849320386678
 20
19957.297870065071
 30
0.0
 11
5086.9334420386676
 21
19957.297870065071
 31
0.0
  0
LINE
  5
317
  8
FUTO
 10
5084.6460890386679
 20
19955.010516065071
 30
0.0
 11
5084.6460890386679
 21
19955.859149065069
 31
0.0
  0
LINE
  5
318
  8
FUTO
 10
5084.6460890386679
 20
19955.010516065071
 30
0.0
 11
5083.7975780386678
 21
19955.010516065071
 31
0.0
  0
LINE
  5
319
  8
FUTO
 10
5086.9334420386676
 20
19957.297870065071
 30
0.0
 11
5090.5256050386679
 21
19953.705829065071
 31
0.0
  0
LINE
  5
31A
  8
FUTO
 10
5076.8925490386682
 20
19947.256854065068
 30
0.0
 11
5076.8925490386682
 21
19948.10548706507
 31
0.0
  0
LINE
  5
31B
  8
FUTO
 10
5079.1799020386679
 20
19949.544208065068
 30
0.0
 11
5078.3312700386678
 21
19949.544208065068
 31
0.0
  0
LINE
  5
31C
  8
FUTO
 10
5079.1799020386679
 20
19949.544208065068
 30
0.0
 11
5079.1799020386679
 21
19950.39284106507
 31
0.0
  0
LINE
  5
31D
  8
FUTO
 10
5079.1799020386679
 20
19949.544208065068
 30
0.0
 11
5082.7719430386678
 21
19945.952167065068
 31
0.0
  0
LINE
  5
31E
  8
FUTO
 10
5084.6460890386679
 20
19955.010516065071
 30
0.0
 11
5088.2382520386673
 21
19951.418475065071
 31
0.0
  0
LINE
  5
31F
  8
FUTO
 10
5080.960298038668
 20
19953.229999065072
 30
0.0
 11
5086.2084670386675
 21
19947.981952065071
 31
0.0
  0
LINE
  5
320
  8
FUTO
 10
5086.0849320386678
 20
19957.297870065071
 30
0.0
 11
5076.8925490386682
 21
19948.10548706507
 31
0.0
  0
LINE
  5
321
  8
FUTO
 10
5019.4013380386677
 20
19819.789081065072
 30
0.0
 11
5019.4013380386677
 21
19939.789081065072
 31
0.0
  0
LINE
  5
322
  8
FUTO
 10
5076.8925490386682
 20
19947.256854065068
 30
0.0
 11
5080.4845900386681
 21
19943.664813065068
 31
0.0
  0
LINE
  5
323
  8
FUTO
 10
5090.5256050386679
 20
19953.705829065071
 30
0.0
 11
5080.4845900386681
 21
19943.664813065068
 31
0.0
  0
ARC
  5
324
  8
FUTO
 10
5216.4013380386677
 20
20023.979022065068
 30
0.0
 40
2.0
 50
95.710937000000001
 51
180.0
  0
LINE
  5
325
  8
FUTO
 10
5222.9442460386672
 20
20026.643329065071
 30
0.0
 11
5216.2023020386669
 21
20025.96925706507
 31
0.0
  0
ARC
  5
326
  8
FUTO
 10
5242.4013380386677
 20
20023.979022065068
 30
0.0
 40
2.0001619999999991
 50
0.0
 51
84.289062000000001
  0
LINE
  5
327
  8
FUTO
 10
5235.5014360386667
 20
20026.678973065071
 30
0.0
 11
5242.6003740386668
 21
20025.96925706507
 31
0.0
  0
ARC
  5
328
  8
FUTO
 10
5229.4013380386677
 20
19804.789081065072
 30
0.0
 40
210.0001069999999
 50
93.733031999999994
 51
93.767014000000003
  0
ARC
  5
329
  8
FUTO
 10
5215.8016060386672
 20
20011.341815065069
 30
0.0
 40
2.999933
 50
93.767708000000042
 51
182.5560909999999
  0
ARC
  5
32A
  8
FUTO
 10
5215.9240430386672
 20
20011.349872065071
 30
0.0
 40
3.0000169999999988
 50
4.9438929999999983
 51
93.732810999999984
  0
LINE
  5
32B
  8
FUTO
 10
5212.8046580386672
 20
20011.208026065069
 30
0.0
 11
5212.9645700386682
 21
20007.624286065071
 31
0.0
  0
LINE
  5
32C
  8
FUTO
 10
5218.9129350386684
 20
20011.608417065068
 30
0.0
 11
5219.2220170386681
 21
20008.034442065069
 31
0.0
  0
LINE
  5
32D
  8
FUTO
 10
5239.8896190386677
 20
20011.608417065068
 30
0.0
 11
5239.5805370386679
 21
20008.034442065069
 31
0.0
  0
ARC
  5
32E
  8
FUTO
 10
5229.4013380386677
 20
19804.789081065072
 30
0.0
 40
210.0
 50
86.233025000000012
 51
86.267029000000008
  0
ARC
  5
32F
  8
FUTO
 10
5243.0009470386676
 20
20011.341815065069
 30
0.0
 40
3.0001370000000001
 50
357.44401599999998
 51
86.232291999999987
  0
LINE
  5
330
  8
FUTO
 10
5245.9980180386692
 20
20011.208026065069
 30
0.0
 11
5245.8379830386684
 21
20007.624286065071
 31
0.0
  0
ARC
  5
331
  8
FUTO
 10
5242.878511038668
 20
20011.349872065071
 30
0.0
 40
3.000052999999999
 50
86.267188999999973
 51
175.0561099999999
  0
LINE
  5
332
  8
FUTO
 10
5241.9013380386677
 20
20014.789081065072
 30
0.0
 11
5216.9013380386677
 21
20014.789081065072
 31
0.0
  0
LINE
  5
333
  8
FUTO
 10
5244.4013380386677
 20
20014.789081065072
 30
0.0
 11
5214.4013380386677
 21
20014.789081065072
 31
0.0
  0
LINE
  5
334
  8
FUTO
 10
5244.4013380386677
 20
20014.789081065072
 30
0.0
 11
5244.4013380386677
 21
20023.979022065068
 31
0.0
  0
LINE
  5
335
  8
FUTO
 10
5214.4013380386677
 20
20014.789081065072
 30
0.0
 11
5214.4013380386677
 21
20023.979022065068
 31
0.0
  0
ARC
  5
336
  8
FUTO
 10
5237.6513380386668
 20
20018.43605406507
 30
0.0
 40
2.0
 50
180.0
 51
270.0
  0
ARC
  5
337
  8
FUTO
 10
5221.1513380386677
 20
20018.43605406507
 30
0.0
 40
2.0
 50
270.0
 51
0.0
  0
LINE
  5
338
  8
FUTO
 10
5418.4013380386677
 20
19604.789081065072
 30
0.0
 11
5338.9013380386677
 21
19604.789081065072
 31
0.0
  0
LINE
  5
339
  8
FUTO
 10
5341.9013380386677
 20
19624.789081065072
 30
0.0
 11
5415.4013380386677
 21
19624.789081065072
 31
0.0
  0
LINE
  5
33A
  8
FUTO
 10
5368.2770700386691
 20
19655.872333065068
 30
0.0
 11
5378.3180860386674
 21
19665.913348065071
 31
0.0
  0
LINE
  5
33B
  8
FUTO
 10
5371.8691110386681
 20
19652.280292065068
 30
0.0
 11
5368.2770700386691
 21
19655.872333065068
 31
0.0
  0
ARC
  5
33C
  8
FUTO
 10
5229.4013380386677
 20
19804.789081065072
 30
0.0
 40
214.9999849999999
 50
307.48103299999991
 51
316.565674
  0
LINE
  5
33D
  8
FUTO
 10
5479.3930021282276
 20
19604.789081065072
 30
0.0
 11
5312.7396576169158
 21
19604.789081065072
 31
0.0
  0
LINE
  5
33E
  8
FUTO
 10
5391.4013380386677
 20
19604.789081065072
 30
0.0
 11
5331.4013380386668
 21
19604.789081065072
 31
0.0
  0
LINE
  5
33F
  8
FUTO
 10
5351.0661330386674
 20
19641.66359306507
 30
0.0
 11
5355.5876170386682
 21
19624.789081065072
 31
0.0
  0
ARC
  5
340
  8
FUTO
 10
5357.186006038668
 20
19638.142597065071
 30
0.0
 40
5.0
 50
195.00097699999989
 51
307.48147599999987
  0
ARC
  5
341
  8
FUTO
 10
5341.9013380386677
 20
19621.789081065072
 30
0.0
 40
3.0
 50
90.0
 51
180.0
  0
LINE
  5
342
  8
FUTO
 10
5338.9013380386677
 20
19621.789081065072
 30
0.0
 11
5338.9013380386677
 21
19604.789081065072
 31
0.0
  0
LINE
  5
343
  8
FUTO
 10
5338.9013380386677
 20
19609.789081065072
 30
0.0
 11
5333.2260450386666
 21
19630.96925706507
 31
0.0
  0
LINE
  5
344
  8
FUTO
 10
5312.7396576169158
 20
19604.789081065072
 30
0.0
 11
5312.7396576169158
 21
19595.312736503471
 31
0.0
  0
LINE
  5
345
  8
FUTO
 10
5397.6513380386668
 20
19616.789081065072
 30
0.0
 11
5397.6513380386668
 21
19612.789081065072
 31
0.0
  0
LINE
  5
346
  8
FUTO
 10
5397.6513380386668
 20
19608.789081065072
 30
0.0
 11
5397.6513380386668
 21
19604.789081065072
 31
0.0
  0
LINE
  5
347
  8
FUTO
 10
5397.6513380386668
 20
19624.789081065072
 30
0.0
 11
5397.6513380386668
 21
19620.789081065072
 31
0.0
  0
ARC
  5
348
  8
FUTO
 10
5413.4013380386668
 20
19679.11574106507
 30
0.0
 40
5.0000669999999987
 50
0.0
 51
55.056334999999997
  0
ARC
  5
349
  8
FUTO
 10
5415.4013380386677
 20
19621.789081065072
 30
0.0
 40
3.0
 50
0.0
 51
90.0
  0
LINE
  5
34A
  8
FUTO
 10
5418.4013380386677
 20
19679.11574106507
 30
0.0
 11
5418.4013380386677
 21
19604.789081065072
 31
0.0
  0
LINE
  5
34B
  8
FUTO
 10
5381.9101270386682
 20
19662.321307065071
 30
0.0
 11
5378.3180860386674
 21
19665.913348065071
 31
0.0
  0
LINE
  5
34C
  8
FUTO
 10
5381.9101270386682
 20
19662.321307065071
 30
0.0
 11
5381.9101270386682
 21
19661.47267506507
 31
0.0
  0
LINE
  5
34D
  8
FUTO
 10
5379.6227730386681
 20
19660.033954065071
 30
0.0
 11
5380.4714060386677
 21
19660.033954065071
 31
0.0
  0
LINE
  5
34E
  8
FUTO
 10
5379.6227730386681
 20
19660.033954065071
 30
0.0
 11
5376.0307320386673
 21
19663.625995065071
 31
0.0
  0
LINE
  5
34F
  8
FUTO
 10
5379.6227730386681
 20
19660.033954065071
 30
0.0
 11
5379.6227730386681
 21
19659.18532106507
 31
0.0
  0
LINE
  5
350
  8
FUTO
 10
5380.3151560386677
 20
19668.270770065072
 30
0.0
 11
5385.1133740386676
 21
19664.236347065071
 31
0.0
  0
LINE
  5
351
  8
FUTO
 10
5372.7177440386668
 20
19652.280292065068
 30
0.0
 11
5371.8691110386681
 21
19652.280292065068
 31
0.0
  0
LINE
  5
352
  8
FUTO
 10
5374.1567090386679
 20
19654.567645065072
 30
0.0
 11
5374.1567090386679
 21
19653.719013065071
 31
0.0
  0
LINE
  5
353
  8
FUTO
 10
5374.1567090386679
 20
19654.567645065072
 30
0.0
 11
5370.5644240386682
 21
19658.159686065072
 31
0.0
  0
LINE
  5
354
  8
FUTO
 10
5374.1567090386679
 20
19654.567645065072
 30
0.0
 11
5375.0050980386668
 21
19654.567645065072
 31
0.0
  0
ARC
  5
355
  8
FUTO
 10
5381.8954790386679
 20
19660.409442065069
 30
0.0
 40
5.0000049999999998
 50
316.56494099999998
 51
49.94082599999998
  0
LINE
  5
356
  8
CT
 10
5377.842256038668
 20
19656.348163065071
 30
0.0
 11
5372.5942090386679
 21
19661.596210065069
 31
0.0
  0
LINE
  5
357
  8
FUTO
 10
5372.7177440386668
 20
19652.280292065068
 30
0.0
 11
5381.9101270386682
 21
19661.47267506507
 31
0.0
  0
LINE
  5
358
  8
FUTO
 10
5379.1513380386668
 20
19616.789081065072
 30
0.0
 11
5379.1513380386668
 21
19612.789081065072
 31
0.0
  0
LINE
  5
359
  8
FUTO
 10
5379.1513380386668
 20
19608.789081065072
 30
0.0
 11
5379.1513380386668
 21
19604.789081065072
 31
0.0
  0
LINE
  5
35A
  8
CT
 10
5388.4013380386677
 20
19629.212909065071
 30
0.0
 11
5388.4013380386677
 21
19600.097186065072
 31
0.0
  0
LINE
  5
35B
  8
FUTO
 10
5379.1513380386668
 20
19624.789081065072
 30
0.0
 11
5379.1513380386668
 21
19620.789081065072
 31
0.0
  0
LINE
  5
35C
  8
FUTO
 10
5489.4013380386677
 20
19635.969513407279
 30
0.0
 11
5462.6708623319209
 21
19635.969513407279
 31
0.0
  0
LINE
  5
35D
  8
FUTO
 10
5427.8563106278007
 20
19619.282716482539
 30
0.0
 11
5462.6708623319209
 21
19619.282716482539
 31
0.0
  0
LINE
  5
35E
  8
FUTO
 10
5462.6708623319209
 20
19635.969513407279
 30
0.0
 11
5462.6708623319209
 21
19604.789081065072
 31
0.0
  0
LINE
  5
35F
  8
FUTO
 10
5416.2651070386673
 20
19683.214374065072
 30
0.0
 11
5400.3272410386671
 21
19694.350848065071
 31
0.0
  0
LINE
  5
360
  8
FUTO
 10
5371.8691110386681
 20
19957.297870065071
 30
0.0
 11
5368.2770700386691
 21
19953.705829065071
 31
0.0
  0
LINE
  5
361
  8
FUTO
 10
5378.3180860386674
 20
19943.664813065068
 30
0.0
 11
5368.2770700386691
 21
19953.705829065071
 31
0.0
  0
ARC
  5
362
  8
FUTO
 10
5229.4013380386677
 20
19804.789081065072
 30
0.0
 40
210.00004599999991
 50
48.733032000000009
 51
48.767014000000003
  0
ARC
  5
363
  8
FUTO
 10
5365.9319780386677
 20
19960.379413065071
 30
0.0
 40
2.9999169999999991
 50
319.94338999999991
 51
48.733367999999977
  0
ARC
  5
364
  8
FUTO
 10
5365.839814038668
 20
19960.46046806507
 30
0.0
 40
2.999909999999999
 50
48.768020999999997
 51
137.5594439999999
  0
LINE
  5
365
  8
FUTO
 10
5368.2282420386682
 20
19958.448749065072
 30
0.0
 11
5365.9195260386678
 21
19955.702899065069
 31
0.0
  0
LINE
  5
366
  8
FUTO
 10
5363.6259470386667
 20
19962.48488206507
 30
0.0
 11
5361.2048050386666
 21
19959.837665065072
 31
0.0
  0
LINE
  5
367
  8
FUTO
 10
5371.8691110386681
 20
19957.297870065071
 30
0.0
 11
5372.7177440386668
 21
19957.297870065071
 31
0.0
  0
LINE
  5
368
  8
FUTO
 10
5374.156465038669
 20
19955.010516065071
 30
0.0
 11
5374.156465038669
 21
19955.859149065069
 31
0.0
  0
LINE
  5
369
  8
FUTO
 10
5374.156465038669
 20
19955.010516065071
 30
0.0
 11
5375.0050980386668
 21
19955.010516065071
 31
0.0
  0
LINE
  5
36A
  8
FUTO
 10
5381.9101270386682
 20
19948.10548706507
 30
0.0
 11
5381.9101270386682
 21
19947.256854065068
 31
0.0
  0
LINE
  5
36B
  8
FUTO
 10
5379.6227730386681
 20
19949.544452065071
 30
0.0
 11
5380.4714060386677
 21
19949.544452065071
 31
0.0
  0
LINE
  5
36C
  8
FUTO
 10
5379.6227730386681
 20
19949.544452065071
 30
0.0
 11
5376.0307320386673
 21
19945.952167065068
 31
0.0
  0
LINE
  5
36D
  8
FUTO
 10
5379.6227730386681
 20
19949.544452065071
 30
0.0
 11
5379.6227730386681
 21
19950.39284106507
 31
0.0
  0
LINE
  5
36E
  8
FUTO
 10
5377.842256038668
 20
19953.229999065072
 30
0.0
 11
5372.5942090386679
 21
19947.981952065071
 31
0.0
  0
LINE
  5
36F
  8
FUTO
 10
5381.9101270386682
 20
19948.10548706507
 30
0.0
 11
5372.7177440386668
 21
19957.297870065071
 31
0.0
  0
LINE
  5
370
  8
FUTO
 10
5374.156465038669
 20
19955.010516065071
 30
0.0
 11
5370.5644240386682
 21
19951.418475065071
 31
0.0
  0
ARC
  5
371
  8
FUTO
 10
5229.4013380386677
 20
19804.789081065072
 30
0.0
 40
210.0
 50
41.233032000000009
 51
41.267029000000001
  0
ARC
  5
372
  8
FUTO
 10
5384.9916700386684
 20
19941.31984306507
 30
0.0
 40
2.9999560000000001
 50
41.268387000000011
 51
130.058109
  0
LINE
  5
373
  8
FUTO
 10
5387.0971390386676
 20
19939.013690065069
 30
0.0
 11
5384.4498000386684
 21
19936.592792065068
 31
0.0
  0
ARC
  5
374
  8
FUTO
 10
5385.0724800386679
 20
19941.227557065071
 30
0.0
 40
2.9999500000000001
 50
312.44400000000002
 51
41.231979000000003
  0
LINE
  5
375
  8
FUTO
 10
5383.061006038668
 20
19943.615985065069
 30
0.0
 11
5380.3151560386677
 21
19941.307391065071
 31
0.0
  0
LINE
  5
376
  8
FUTO
 10
5381.9101270386682
 20
19947.256854065068
 30
0.0
 11
5378.3180860386674
 21
19943.664813065068
 31
0.0
  0
ARC
  5
377
  8
FUTO
 10
5229.4013380386677
 20
20068.539081065072
 30
0.0
 40
6.25
 50
0.0
 51
90.0
  0
ARC
  5
378
  8
FUTO
 10
5229.4013380386677
 20
20068.539081065072
 30
0.0
 40
6.25
 50
90.0
 51
180.0
  0
ARC
  5
396
  8
KL
 10
6327.4013380386677
 20
20536.789081065072
 30
0.0
 40
1105.0
 50
180.0
 51
270.85557963543022
  0
ARC
  5
397
  8
FUTO
 10
6429.4013380386668
 20
20434.789081065079
 30
0.0
 40
95.000000000003084
 50
270.0
 51
290.94387397238211
  0
LINE
  5
398
  8
FUTO
 10
6519.4013380386659
 20
20337.789081065072
 30
0.0
 11
6429.4013380386668
 21
20337.789081065072
 31
0.0
  0
LINE
  5
399
  8
KL
 10
6730.9348376422431
 20
20328.789081065072
 30
0.0
 11
6429.4013380386668
 21
20328.789081065072
 31
0.0
  0
LINE
  5
39A
  8
FUTO
 10
6629.4013380386668
 20
20334.789081065072
 30
0.0
 11
6229.4013380386677
 21
20334.789081065072
 31
0.0
  0
DIMENSION
  5
39B
  8
FUTO
  2
*D4
 10
7279.4013380386668
 20
19155.489221100041
 30
0.0
 11
6854.4013380386668
 21
19215.489221100041
 31
0.0
 70
     0
 13
6429.4013380386668
 23
19367.706930021319
 33
0.0
 14
7279.4013380386668
 24
19319.789081065072
 34
0.0
1001
ACAD
1000
DSTYLE
1002
{
1070
    40
1040
30.0
1070
   176
1070
     2
1070
   177
1070
     2
1070
   178
1070
     2
1070
   341
1005
44D5
1070
     5
1000
OPEN30
1002
}
  0
LINE
  5
3B5
  8
FUTO
 10
5551.8387621249858
 20
19626.383478939289
 30
0.0
 11
5551.8387621249858
 21
19612.536986997249
 31
0.0
  0
LINE
  5
3B6
  8
FUTO
 10
5551.8387621249858
 20
19612.536986997249
 30
0.0
 11
5542.6022711428122
 21
19612.536986997249
 31
0.0
  0
LINE
  5
3B7
  8
FUTO
 10
5542.6022711428122
 20
19612.536986997249
 30
0.0
 11
5542.6022711428122
 21
19626.738511910749
 31
0.0
  0
LINE
  5
3B8
  8
FUTO
 10
5542.6022711428122
 20
19626.738511910749
 30
0.0
 11
5551.4835112816263
 21
19626.738511910749
 31
0.0
  0
LINE
  5
3BA
  8
KL
 10
6127.8678384350924
 20
20328.789081065072
 30
0.0
 11
6429.4013380386668
 21
20328.789081065072
 31
0.0
  0
LINE
  5
3BD
  8
FUTO
 10
6249.4013380386668
 20
20334.789081065072
 30
0.0
 11
6339.4013380386677
 21
20334.789081065072
 31
0.0
  0
LINE
  5
3BF
  8
FUTO
 10
6229.4013380386677
 20
20334.789081065072
 30
0.0
 11
6229.4013380386677
 21
20328.789081065072
 31
0.0
  0
ARC
  5
3C0
  8
FUTO
 10
6252.4013380386677
 20
20365.789081065072
 30
0.0
 40
2.9999999999999991
 50
90.0
 51
180.0
  0
LINE
  5
3C1
  8
FUTO
 10
6249.4013380386668
 20
20365.789081065072
 30
0.0
 11
6249.4013380386668
 21
20334.789081065072
 31
0.0
  0
LINE
  5
3C2
  8
FUTO
 10
6318.4013380386677
 20
20368.789081065072
 30
0.0
 11
6252.4013380386677
 21
20368.789081065072
 31
0.0
  0
ARC
  5
3C3
  8
FUTO
 10
6429.401338038665
 20
20434.789081065072
 30
0.0
 40
94.999999999998295
 50
249.0561260276169
 51
270.0
  0
LINE
  5
3C4
  8
FUTO
 10
6339.4013380386677
 20
20334.789081065072
 30
0.0
 11
6339.4013380386677
 21
20337.789081065072
 31
0.0
  0
ARC
  5
3C5
  8
FUTO
 10
6381.9013380386659
 20
20352.516667705549
 30
0.0
 40
14.999999999999909
 50
145.47193698619009
 51
239.99999999999909
  0
LINE
  5
3C6
  8
FUTO
 10
6339.4013380386677
 20
20337.789081065072
 30
0.0
 11
6429.4013380386668
 21
20337.789081065072
 31
0.0
  0
ARC
  5
3C7
  8
FUTO
 10
6381.9013380386659
 20
20352.516667705549
 30
0.0
 40
15.000000000000419
 50
239.99999999999989
 51
334.52806301381298
  0
LINE
  5
3D0
  8
FUTO
 10
6929.4013380386668
 20
19544.789081065072
 30
0.0
 11
6929.4013380386668
 21
19394.789081065072
 31
0.0
  0
POINT
  5
3D6
  8
DEFPOINTS
  6
BYBLOCK
 62
     0
 10
7279.4013380386668
 20
19394.789081065072
 30
0.0
  0
LINE
  5
3D9
  8
FUTO
 10
7279.4013380386668
 20
19544.789081065072
 30
0.0
 11
7279.4013380386668
 21
19394.789081065072
 31
0.0
  0
LINE
  5
3DD
  8
FUTO
 10
6540.4013380386668
 20
20368.789081065072
 30
0.0
 11
6606.4013380386687
 21
20368.789081065072
 31
0.0
  0
LINE
  5
3DE
  8
FUTO
 10
6609.4013380386668
 20
20334.789081065072
 30
0.0
 11
6519.4013380386659
 21
20334.789081065072
 31
0.0
  0
LINE
  5
3E0
  8
FUTO
 10
6519.4013380386659
 20
20334.789081065072
 30
0.0
 11
6519.4013380386659
 21
20337.789081065072
 31
0.0
  0
ARC
  5
3E1
  8
FUTO
 10
6476.9013380386668
 20
20352.516667705549
 30
0.0
 40
14.99999999999998
 50
299.99999999999932
 51
34.528063013808008
  0
ARC
  5
3E2
  8
FUTO
 10
6476.9013380386668
 20
20352.516667705549
 30
0.0
 40
14.99999999999978
 50
205.47193698618659
 51
300.00000000000011
  0
LINE
  5
3E3
  8
FUTO
 10
6629.4013380386668
 20
20334.789081065072
 30
0.0
 11
6629.4013380386668
 21
20328.789081065072
 31
0.0
  0
ARC
  5
3E5
  8
FUTO
 10
6606.4013380386687
 20
20365.789081065072
 30
0.0
 40
2.9999999999999991
 50
0.0
 51
90.0
  0
LINE
  5
3E6
  8
FUTO
 10
6609.4013380386687
 20
20365.789081065072
 30
0.0
 11
6609.4013380386668
 21
20334.789081065072
 31
0.0
  0
LINE
  5
405
  8
SL
 10
8693.4990504245743
 20
20354.789081065072
 30
0.0
 11
8715.5990504245747
 21
20354.789081065072
 31
0.0
  0
LINE
  5
406
  8
CT
 10
8468.6423209038585
 20
19804.789081065072
 30
0.0
 11
8771.4610040153093
 21
19804.789081065072
 31
0.0
  0
LINE
  5
407
  8
FUTO
 10
8505.5990504245747
 20
19584.789081065072
 30
0.0
 11
8760.5990504245747
 21
19584.789081065072
 31
0.0
  0
LINE
  5
408
  8
SL
 10
8693.4990504245725
 20
19744.789081065072
 30
0.0
 11
8708.5990504245747
 21
19744.789081065072
 31
0.0
  0
LINE
  5
409
  8
SL
 10
8693.4990504245743
 20
19864.789081065072
 30
0.0
 11
8708.5990504245747
 21
19864.789081065072
 31
0.0
  0
LINE
  5
40E
  8
SL
 10
8615.5990504245765
 20
19698.789081065072
 30
0.0
 11
8693.4990504245725
 21
19698.789081065072
 31
0.0
  0
LINE
  5
40F
  8
SL
 10
8615.5990504245765
 20
19910.789081065072
 30
0.0
 11
8693.4990504245725
 21
19910.789081065072
 31
0.0
  0
LINE
  5
410
  8
SL
 10
8615.5990504245765
 20
20184.789081065072
 30
0.0
 11
8693.4990504245743
 21
20184.789081065072
 31
0.0
  0
LINE
  5
415
  8
CT
 10
8772.5990504245747
 20
19414.68125766407
 30
0.0
 11
8772.5990504245747
 21
19357.897587722291
 31
0.0
1001
ACAD
1000
ASC_BOUNDS
1002
{
1070
    19
1005
0
1005
3975
1005
3975
1002
}
  0
LINE
  5
41A
  8
SL
 10
8708.5990504245747
 20
19864.789081065072
 30
0.0
 11
8708.5990504245747
 21
19744.789081065072
 31
0.0
  0
LINE
  5
41B
  8
FUTO
 10
8760.5990504245747
 20
19751.846507340859
 30
0.0
 11
8760.5990504245747
 21
19584.789081065072
 31
0.0
  0
LINE
  5
42E
  8
FUTO
 10
7316.5413771587928
 20
20350.648713037561
 30
0.0
 11
6808.1641613981074
 21
20404.15048382587
 31
0.0
  0
LINE
  5
42F
  8
FUTO
 10
7314.6728395577929
 20
20332.745959974582
 30
0.0
 11
6806.288339321326
 21
20386.248497383331
 31
0.0
  0
LINE
  5
430
  8
FUTO
 10
7359.4013380386668
 20
20421.789081065072
 30
0.0
 11
7359.4013380386668
 21
21979.789081065072
 31
0.0
  0
LINE
  5
431
  8
HOSO
 10
7359.4013380386687
 20
20475.789081065072
 30
0.0
 11
7359.4013380386687
 21
21925.789081065072
 31
0.0
  0
LINE
  5
44C
  8
FUTO
 10
7309.4013380386668
 20
20421.789081065072
 30
0.0
 11
7309.4013380386668
 21
21979.789081065072
 31
0.0
  0
LINE
  5
44D
  8
FUTO
 10
7355.4013380386659
 20
20421.789081065072
 30
0.0
 11
7355.4013380386659
 21
21979.789081065072
 31
0.0
  0
LINE
  5
44E
  8
CT
 10
7607.4053166859949
 20
20434.789081065072
 30
0.0
 11
4899.3117589506946
 21
20434.789081065072
 31
0.0
  0
LINE
  5
478
  8
FUTO
 10
7279.4013380386668
 20
24022.4892177867
 30
0.0
 11
4879.4013380386677
 21
24022.4892177867
 31
0.0
  0
LINE
  5
479
  8
FUTO
 10
7279.4013380386668
 20
24097.4892177867
 30
0.0
 11
5222.4013380386677
 21
24097.4892177867
 31
0.0
  0
LINE
  5
47A
  8
FUTO
 10
6929.4013380386668
 20
23119.4892177867
 30
0.0
 11
4879.4013380386677
 21
23119.4892177867
 31
0.0
  0
LINE
  5
488
  8
FUTO
 10
6929.4013380386668
 20
23046.4892177867
 30
0.0
 11
4879.4013380386677
 21
23046.4892177867
 31
0.0
  0
LINE
  5
489
  8
FUTO
 10
6929.4013380386668
 20
23046.4892177867
 30
0.0
 11
4879.4013380386677
 21
23046.4892177867
 31
0.0
  0
LINE
  5
4A3
  8
FUTO
 10
4879.4013380386677
 20
24097.4892177867
 30
0.0
 11
4879.4013380386677
 21
24022.4892177867
 31
0.0
  0
LINE
  5
4A4
  8
FUTO
 10
5094.4013380386677
 20
24022.4892177867
 30
0.0
 11
5094.4013380386677
 21
23722.9892177867
 31
0.0
  0
LINE
  5
4A5
  8
CT
 10
5229.4013380386677
 20
23862.073706986619
 30
0.0
 11
5229.4013380386677
 21
22686.35738586869
 31
0.0
  0
LINE
  5
4AD
  8
KL
 10
7359.4013380386687
 20
21925.789081065072
 30
0.0
 11
6413.806741303415
 21
21840.4962992773
 31
0.0
  0
LINE
  5
4AE
  8
FUTO
 10
7309.4013380386677
 20
21941.360269043202
 30
0.0
 11
6429.4013380386668
 21
21861.984130228138
 31
0.0
  0
LINE
  5
4B2
  8
FUTO
 10
7359.4013380386668
 20
21979.789081065072
 30
0.0
 11
7309.4013380386668
 21
21979.789081065072
 31
0.0
  0
LINE
  5
51D
  8
CT
 10
6429.4013380386668
 20
25548.3617954363
 30
0.0
 11
6429.4013380386668
 21
22722.629129846959
 31
0.0
  0
LINE
  5
52A
  8
FUTO
 10
6929.4013380386668
 20
24022.4892177867
 30
0.0
 11
6929.4013380386668
 21
23046.4892177867
 31
0.0
  0
LINE
  5
52C
  8
FUTO
 10
6854.4013380386668
 20
24022.4892177867
 30
0.0
 11
6854.4013380386668
 21
23113.4892177867
 31
0.0
  0
ARC
  5
559
  8
FUTO
 10
6343.9013380386668
 20
20349.289081065079
 30
0.0
 40
937.5
 50
307.46209512133618
 51
0.0
  0
ARC
  5
577
  8
FUTO
 10
6514.6013380386657
 20
20349.289081065072
 30
0.0
 40
766.5
 50
0.0
 51
7.9867012178214782
  0
CIRCLE
  5
578
  8
FUTO
 10
6429.4013380386668
 20
20434.789081065072
 30
0.0
 40
36.5
  0
ARC
  5
579
  8
FUTO
 10
6429.4013380386668
 20
20434.789081065079
 30
0.0
 40
94.999999999998053
 50
69.05612602761768
 51
90.0
  0
INSERT
  5
57A
  8
FUTO
  2
左回転矢印
 10
6607.4102331205322
 20
20948.667900922799
 30
0.0
 41
-2.0
 42
2.0
 43
2.0
  0
ARC
  5
585
  8
KL
 10
6514.6013380386657
 20
20349.289081065072
 30
0.0
 40
746.49999999999989
 50
0.0
 51
35.878497742585267
  0
ARC
  5
587
  8
FUTO
 10
6334.4013380386668
 20
20434.789081065072
 30
0.0
 40
14.999999999999909
 50
180.0000000000004
 51
274.52806301380861
  0
ARC
  5
588
  8
FUTO
 10
6334.4013380386668
 20
20434.789081065072
 30
0.0
 40
15.000000000000121
 50
85.471936986192148
 51
180.0000000000004
  0
LINE
  5
589
  8
FUTO
 10
6413.7196753408643
 20
20528.485855049199
 30
0.0
 11
6413.7196753408643
 21
20534.789081065072
 31
0.0
  0
LINE
  5
58A
  8
FUTO
 10
6445.0830007364702
 20
20528.485855049199
 30
0.0
 11
6445.0830007364702
 21
20534.789081065072
 31
0.0
  0
LINE
  5
58B
  8
FUTO
 10
6445.0830007364702
 20
20534.789081065072
 30
0.0
 11
6413.7196753408643
 21
20534.789081065072
 31
0.0
  0
LINE
  5
58C
  8
FUTO
 10
6334.4013380386668
 20
20419.789081065072
 30
0.0
 11
6334.4013380386668
 21
20384.789081065072
 31
0.0
  0
ARC
  5
58D
  8
FUTO
 10
6429.4013380386668
 20
20434.789081065079
 30
0.0
 40
95.000000000000995
 50
189.05612602761769
 51
210.00000000000071
  0
ARC
  5
58E
  8
FUTO
 10
6429.4013380386641
 20
20434.789081065072
 30
0.0
 40
94.999999999997456
 50
149.99999999999849
 51
170.9438739723814
  0
ARC
  5
58F
  8
FUTO
 10
6429.4013380386668
 20
20434.789081065072
 30
0.0
 40
95.000000000000071
 50
129.05612602761761
 51
150.00000000000051
  0
ARC
  5
590
  8
FUTO
 10
6429.4013380386668
 20
20434.789081065079
 30
0.0
 40
94.999999999998494
 50
90.0
 51
110.9438739723838
  0
ARC
  5
591
  8
FUTO
 10
6381.9013380386677
 20
20517.06149442459
 30
0.0
 40
14.99999999999976
 50
120.0000000000004
 51
214.52806301380889
  0
ARC
  5
592
  8
FUTO
 10
6381.9013380386677
 20
20517.06149442459
 30
0.0
 40
15.00000000000038
 50
25.4719369861869
 51
120.0000000000004
  0
CIRCLE
  5
593
  8
KL
 10
7134.8670144558646
 20
20795.351937527601
 30
0.0
 40
17.407412889793701
  0
LINE
  5
594
  8
FUTO
 10
7309.4013380386668
 20
20421.789081065072
 30
0.0
 11
7359.4013380386668
 21
20421.789081065072
 31
0.0
  0
LINE
  5
595
  8
KL
 10
7359.4013380386687
 20
20475.789081065072
 30
0.0
 11
7250.3050827620436
 21
20475.789081065072
 31
0.0
  0
LINE
  5
596
  8
FUTO
 10
7309.4013380386668
 20
20455.789081065072
 30
0.0
 11
7273.6665526282977
 21
20455.789081065072
 31
0.0
  0
INSERT
  5
597
  8
FUTO
  2
まっすぐの矢印
 10
7589.2592907684757
 20
21494.776427557739
 30
0.0
 41
-2.0
 42
2.0
 43
2.0
 50
270.0
  0
LINE
  5
5A2
  8
FUTO
 10
6524.4013380386677
 20
20419.789081065072
 30
0.0
 11
6524.4013380386677
 21
20384.789081065072
 31
0.0
  0
ARC
  5
5A3
  8
FUTO
 10
6429.4013380386668
 20
20434.789081065072
 30
0.0
 40
94.999999999999389
 50
9.0561260276173137
 51
30.000000000000231
  0
ARC
  5
5A4
  8
FUTO
 10
6524.4013380386677
 20
20434.789081065072
 30
0.0
 40
15.000000000000121
 50
359.99999999999937
 51
94.528063013807852
  0
ARC
  5
5A5
  8
FUTO
 10
6524.4013380386677
 20
20434.789081065072
 30
0.0
 40
14.999999999999909
 50
265.47193698619128
 51
359.9999999999996
  0
ARC
  5
5A6
  8
FUTO
 10
6429.4013380386668
 20
20434.789081065072
 30
0.0
 40
94.999999999999389
 50
329.99999999999972
 51
350.94387397238262
  0
ARC
  5
5A7
  8
FUTO
 10
6429.4013380386668
 20
20434.789081065072
 30
0.0
 40
94.999999999999915
 50
30.000000000000551
 51
50.943873972383457
  0
ARC
  5
5A8
  8
FUTO
 10
6476.9013380386668
 20
20517.06149442459
 30
0.0
 40
15.00000000000038
 50
59.99999999999951
 51
154.52806301381301
  0
ARC
  5
5A9
  8
FUTO
 10
6476.9013380386668
 20
20517.06149442459
 30
0.0
 40
15.00000000000006
 50
325.4719369861902
 51
59.999999999999147
  0
LINE
  5
605
  8
FUTO
 10
8505.5990504245729
 20
20814.789081065072
 30
0.0
 11
8760.5990504245747
 21
20814.789081065072
 31
0.0
  0
LINE
  5
606
  8
SL
 10
8693.4990504245743
 20
20514.789081065072
 30
0.0
 11
8715.5990504245747
 21
20514.789081065072
 31
0.0
  0
POINT
  5
609
  8
DEFPOINTS
 10
8505.5990504245747
 20
20814.789081065072
 30
0.0
  0
LINE
  5
60A
  8
SL
 10
8615.5990504245765
 20
20684.789081065072
 30
0.0
 11
8693.4990504245743
 21
20684.789081065072
 31
0.0
  0
LINE
  5
60E
  8
FUTO
 10
8945.5990504245747
 20
20389.789081065072
 30
0.0
 11
9514.5990504245747
 21
20389.789081065072
 31
0.0
  0
LINE
  5
60F
  8
FUTO
 10
8945.5990504245747
 20
20479.789081065072
 30
0.0
 11
9514.5990504245747
 21
20479.789081065072
 31
0.0
  0
LINE
  5
610
  8
FUTO
 10
8760.5990504245747
 20
20814.789081065072
 30
0.0
 11
8760.5990504245747
 21
20588.479450970779
 31
0.0
  0
LINE
  5
611
  8
FUTO
 10
8715.5990504245747
 20
20392.289081065072
 30
0.0
 11
8805.0990504245747
 21
20392.289081065072
 31
0.0
  0
LINE
  5
612
  8
FUTO
 10
8715.5990504245747
 20
20477.289081065072
 30
0.0
 11
8805.0990504245747
 21
20477.289081065072
 31
0.0
  0
LINE
  5
68C
  8
FUTO
 10
7279.4013380386668
 20
25246.4892177867
 30
0.0
 11
5579.4013380386677
 21
25246.4892177867
 31
0.0
  0
LINE
  5
68D
  8
FUTO
 10
7359.4013380386687
 20
25171.4892177867
 30
0.0
 11
5222.4013380386677
 21
25171.4892177867
 31
0.0
  0
LINE
  5
68E
  8
CT
 10
7606.9213386181873
 20
24633.489217786711
 30
0.0
 11
4514.189265263215
 21
24633.489217786711
 31
0.0
  0
LINE
  5
68F
  8
FUTO
 10
5579.4013380386677
 20
25246.4892177867
 30
0.0
 11
5579.4013380386677
 21
25217.4892177867
 31
0.0
  0
LINE
  5
6A9
  8
FUTO
 10
7279.4013380386668
 20
25246.4892177867
 30
0.0
 11
7279.4013380386668
 21
25217.4892177867
 31
0.0
  0
LINE
  5
6C2
  8
FUTO
 10
9795.5990504245783
 20
20421.789081065072
 30
0.0
 11
9795.5990504245747
 21
19544.789081065072
 31
0.0
  0
LINE
  5
6C3
  8
FUTO
 10
9791.0990504245747
 20
20421.789081065072
 30
0.0
 11
9791.0990504245729
 21
19544.789081065072
 31
0.0
  0
LINE
  5
6C5
  8
FUTO
 10
10855.599050424569
 20
20421.789081065072
 30
0.0
 11
10855.599050424569
 21
19544.789081065072
 31
0.0
  0
LINE
  5
6C6
  8
KL
 10
10861.599050424569
 20
21139.101823374102
 30
0.0
 11
10861.599050424569
 21
19730.476338756042
 31
0.0
  0
LINE
  5
6CD
  8
CT
 10
10325.599050424569
 20
22139.711195195101
 30
0.0
 11
10325.599050424569
 21
19024.789081065072
 31
0.0
  0
LINE
  5
6D4
  8
FUTO
 10
9716.0990504245747
 20
21929.789081065072
 30
0.0
 11
9716.0990504245747
 21
19544.789081065072
 31
0.0
  0
DIMENSION
  5
6D5
  8
FUTO
  2
*D11
 10
11325.208912180789
 20
19734.789081065072
 30
0.0
 11
11265.208912180789
 21
20434.789081065079
 31
0.0
 70
     0
  1
%%C<>
 13
10959.599050424569
 23
21134.789081065072
 33
0.0
 14
10959.599050424569
 24
19734.789081065072
 34
0.0
 50
90.0
1001
ACAD
1000
DSTYLE
1002
{
1070
    40
1040
30.0
1070
   176
1070
     2
1070
   177
1070
     2
1070
   178
1070
     2
1070
   341
1005
44D5
1070
     5
1000
OPEN30
1002
}
  0
LINE
  5
6E2
  8
KL
 10
10864.79905042457
 20
20425.789081065072
 30
0.0
 11
10864.79905042457
 21
19684.789081065072
 31
0.0
  0
LINE
  5
6E6
  8
FUTO
 10
10953.599050424569
 20
21184.789081065072
 30
0.0
 11
10953.599050424569
 21
19684.789081065072
 31
0.0
  0
LINE
  5
6E7
  8
FUTO
 10
10959.599050424569
 20
21184.789081065072
 30
0.0
 11
10959.599050424569
 21
19684.789081065072
 31
0.0
  0
LINE
  5
703
  8
KL
 10
9791.0990504245747
 20
19431.884117995582
 30
0.0
 11
10858.79905042457
 21
19431.884117995582
 31
0.0
  0
LINE
  5
70B
  8
CT
 10
9746.5990504245765
 20
19414.953162196791
 30
0.0
 11
9746.5990504245765
 21
19349.420327074091
 31
0.0
1001
ACAD
1000
ASC_BOUNDS
1002
{
1070
    19
1002
}
  0
LINE
  5
70E
  8
KL
 10
9791.0990504245747
 20
19544.789081065072
 30
0.0
 11
9791.0990504245747
 21
19431.884117995582
 31
0.0
  0
LINE
  5
70F
  8
KL
 10
9795.5990504245747
 20
19544.789081065072
 30
0.0
 11
9795.5990504245747
 21
19431.884117995582
 31
0.0
  0
LINE
  5
724
  8
CT
 10
10902.599050424569
 20
19414.31250999654
 30
0.0
 11
10902.599050424569
 21
19361.341856422579
 31
0.0
1001
ACAD
1000
ASC_BOUNDS
1002
{
1070
    19
1002
}
  0
LINE
  5
725
  8
KL
 10
10855.599050424569
 20
19544.789081065072
 30
0.0
 11
10855.599050424569
 21
19431.884117995582
 31
0.0
  0
LINE
  5
72B
  8
KL
 10
10864.79905042457
 20
19728.789081065072
 30
0.0
 11
10933.79905042457
 21
19728.789081065072
 31
0.0
  0
LINE
  5
72C
  8
KL
 10
10858.79905042457
 20
19734.789081065072
 30
0.0
 11
10959.599050424569
 21
19734.789081065072
 31
0.0
  0
LINE
  5
72D
  8
CT
 10
10826.314352829469
 20
19702.289081065072
 30
0.0
 11
10883.35708596151
 21
19702.289081065072
 31
0.0
  0
LINE
  5
72E
  8
KL
 10
10858.79905042457
 20
19684.789081065072
 30
0.0
 11
10864.79905042457
 21
19684.789081065072
 31
0.0
  0
LINE
  5
72F
  8
FUTO
 10
10933.79905042457
 20
19728.789081065072
 30
0.0
 11
10953.599050424569
 21
19728.789081065072
 31
0.0
  0
LINE
  5
730
  8
CT
 10
10930.47931551193
 20
19702.289081065072
 30
0.0
 11
10990.622169265809
 21
19702.289081065072
 31
0.0
  0
LINE
  5
731
  8
FUTO
 10
10953.599050424569
 20
19684.789081065072
 30
0.0
 11
10959.599050424569
 21
19684.789081065072
 31
0.0
  0
DIMENSION
  5
800
  8
FUTO
  2
*D12
 10
10959.599050424569
 20
22257.335513348658
 30
0.0
 11
10642.599050424569
 21
22317.335513348658
 31
0.0
 70
     0
 13
10325.599050424569
 23
22102.948419007989
 33
0.0
 14
10959.599050424569
 24
21184.789081065072
 34
0.0
1001
ACAD
1000
DSTYLE
1002
{
1070
    40
1040
30.0
1070
   176
1070
     2
1070
   177
1070
     2
1070
   178
1070
     2
1070
   341
1005
44D5
1070
     5
1000
OPEN30
1002
}
  0
LINE
  5
826
  8
FUTO
 10
9791.0990504245765
 20
21929.789081065072
 30
0.0
 11
9791.0990504245729
 21
20475.789081065072
 31
0.0
  0
LINE
  5
827
  8
FUTO
 10
9795.5990504245747
 20
21929.789081065072
 30
0.0
 11
9795.5990504245747
 21
20475.789081065072
 31
0.0
  0
LINE
  5
831
  8
FUTO
 10
9741.0990504245783
 20
21979.789081065072
 30
0.0
 11
9741.0990504245747
 21
20421.789081065072
 31
0.0
  0
INSERT
  5
841
  8
FUTO
  2
まっすぐの矢印
 10
11021.44583111397
 20
20991.04096938506
 30
0.0
 41
-2.0
 42
2.0
 43
2.0
 50
90.0
  0
LINE
  5
842
  8
FUTO
 10
10855.599050424569
 20
21929.789081065072
 30
0.0
 11
10855.599050424569
 21
20475.789081065072
 31
0.0
  0
LINE
  5
844
  8
KL
 10
10864.79905042457
 20
21184.789081065072
 30
0.0
 11
10864.79905042457
 21
20443.789081065072
 31
0.0
  0
LINE
  5
845
  8
KL
 10
10864.79905042457
 20
21140.789081065072
 30
0.0
 11
10935.099050424569
 21
21140.789081065072
 31
0.0
  0
LINE
  5
846
  8
KL
 10
10858.79905042457
 20
21134.789081065072
 30
0.0
 11
10959.599050424569
 21
21134.789081065072
 31
0.0
  0
LINE
  5
847
  8
CT
 10
10836.14294918071
 20
21167.289081065072
 30
0.0
 11
10878.84858760596
 21
21167.289081065072
 31
0.0
  0
LINE
  5
848
  8
KL
 10
10858.79905042457
 20
21184.789081065072
 30
0.0
 11
10864.79905042457
 21
21184.789081065072
 31
0.0
  0
LINE
  5
849
  8
FUTO
 10
10910.099050424589
 20
21979.789081065072
 30
0.0
 11
10910.09905042454
 21
20421.789081065072
 31
0.0
  0
LINE
  5
84A
  8
FUTO
 10
10935.099050424569
 20
21140.789081065072
 30
0.0
 11
10953.599050424569
 21
21140.789081065072
 31
0.0
  0
LINE
  5
84B
  8
CT
 10
10930.83806316237
 20
21167.289081065072
 30
0.0
 11
10982.82753871878
 21
21167.289081065072
 31
0.0
  0
LINE
  5
84C
  8
FUTO
 10
10953.599050424569
 20
21184.789081065072
 30
0.0
 11
10959.599050424569
 21
21184.789081065072
 31
0.0
  0
POLYLINE
  8
0
  5
5443
  62
2
  66
     1
 10
0.000000
 20
0.000000
 30
0.000000
  70
     8
  0
VERTEX
  8
0
  5
5444
 10
5111.27
 20
20559.0
 30
0.000000
  70
    32
  0
VERTEX
  8
0
  5
5445
 10
5111.27
 20
20434.8
 30
0.000000
  70
    32
  0
SEQEND
  8
0
  5
5446
  0
POLYLINE
  8
0
  5
5447
  62
2
  66
     1
 10
0.000000
 20
0.000000
 30
0.000000
  70
     8
  0
VERTEX
  8
0
  5
5448
 10
5111.27
 20
20310.6
 30
0.000000
  70
    32
  0
VERTEX
  8
0
  5
5449
 10
5111.27
 20
20434.8
 30
0.000000
  70
    32
  0
SEQEND
  8
0
  5
544A
  0
LINE
  5
971
  8
KL
 10
6629.255085316604
 20
20422.978928696561
 30
0.0
 11
6627.3865477156032
 21
20405.076175633589
 31
0.0
  0
LINE
  5
972
  8
KL
 10
6229.4013380386677
 20
20443.789081065072
 30
0.0
 11
6229.4013380386677
 21
20425.789081065072
 31
0.0
  0
LINE
  5
973
  8
KL
 10
6229.4013380386677
 20
20443.789081065072
 30
0.0
 11
5771.2558481670767
 21
20443.789081065072
 31
0.0
  0
LINE
  5
974
  8
KL
 10
6229.4013380386677
 20
20425.789081065072
 30
0.0
 11
5745.0453308561237
 21
20425.789081065072
 31
0.0
  0
LINE
  5
990
  8
FUTO
 10
7316.5413771587928
 20
20350.648713037561
 30
0.0
 11
7314.6728395577929
 21
20332.745959974582
 31
0.0
  0
POLYLINE
  5
119F
  8
FUTO
 66
     1
 10
0.0
 20
0.0
 30
0.0
 70
     1
1001
ACAD
1000
ASC_BOUNDS
1002
{
1070
    19
1002
}
  0
VERTEX
  5
542E
  8
FUTO
 10
9711.5990504245747
 20
19394.789081065072
 30
0.0
  0
VERTEX
  5
542F
  8
FUTO
 10
9711.5990504245747
 20
19398.127269643239
 30
0.0
 42
-0.3888787318529885
  0
VERTEX
  5
5430
  8
FUTO
 10
9715.2504274535841
 20
19402.112048435611
 30
0.0
  0
VERTEX
  5
5431
  8
FUTO
 10
9776.4476733955653
 20
19407.46611369454
 30
0.0
 42
0.3888787318529894
  0
VERTEX
  5
5432
  8
FUTO
 10
9780.0990504245747
 20
19411.450892486901
 30
0.0
  0
VERTEX
  5
5433
  8
FUTO
 10
9780.0990504245747
 20
19528.127269643239
 30
0.0
 42
0.3888787318529893
  0
VERTEX
  5
5434
  8
FUTO
 10
9776.4476733955653
 20
19532.112048435611
 30
0.0
  0
VERTEX
  5
5435
  8
FUTO
 10
9715.2504274535841
 20
19537.46611369454
 30
0.0
 42
-0.3888787318529887
  0
VERTEX
  5
5436
  8
FUTO
 10
9711.5990504245747
 20
19541.450892486901
 30
0.0
  0
VERTEX
  5
5437
  8
FUTO
 10
9711.5990504245747
 20
19544.789081065072
 30
0.0
  0
VERTEX
  5
5438
  8
FUTO
 10
9786.5990504245747
 20
19544.789081065072
 30
0.0
  0
VERTEX
  5
5439
  8
FUTO
 10
9786.5990504245747
 20
19394.789081065072
 30
0.0
  0
SEQEND
  5
543A
  8
FUTO
  0
LINE
  5
1840
  8
FUTO
 10
6004.4013380386677
 20
24022.4892177867
 30
0.0
 11
6004.4013380386677
 21
23113.4892177867
 31
0.0
  0
LINE
  5
1841
  8
FUTO
 10
5929.4013380386677
 20
24022.4892177867
 30
0.0
 11
5929.4013380386677
 21
23113.4892177867
 31
0.0
  0
LINE
  5
1FF1
  8
FUTO
 10
10858.79905042457
 20
21929.789081065072
 30
0.0
 11
10858.79905042457
 21
20475.789081065072
 31
0.0
  0
LINE
  5
1FF2
  8
FUTO
 10
10858.79905042457
 20
20421.789081065072
 30
0.0
 11
10858.79905042457
 21
19544.789081065072
 31
0.0
  0
LINE
  5
1FF3
  8
KL
 10
10858.79905042457
 20
19544.789081065072
 30
0.0
 11
10858.79905042457
 21
19431.884117995582
 31
0.0
  0
LINE
  5
1FF5
  8
FUTO
 10
10933.79905042457
 20
21929.789081065072
 30
0.0
 11
10933.79905042457
 21
19544.789081065072
 31
0.0
  0
DIMENSION
  5
2003
  8
FUTO
  2
*D5
 10
10937.599050424569
 20
18976.755158823122
 30
0.0
 11
9837.5990504245747
 21
19036.755158823122
 31
0.0
 70
     0
 13
8737.5990504245747
 23
19394.789081065072
 33
0.0
 14
10937.599050424569
 24
19394.789081065072
 34
0.0
1001
ACAD
1000
DSTYLE
1002
{
1070
    40
1040
30.0
1070
   176
1070
     2
1070
   177
1070
     2
1070
   178
1070
     2
1070
   341
1005
44D5
1070
     5
1000
OPEN30
1002
}
  0
LINE
  5
25BB
  8
CT
 10
6429.4013380386668
 20
23630.162486507768
 30
0.0
 11
6429.4013380386668
 21
23628.103356176602
 31
0.0
  0
TEXT
  5
29E7
  8
SP
 10
9149.8042194081445
 20
6129.2813767066364
 30
0.0
 40
100.0
  1
 
  0
LINE
  5
3207
  8
FUTO
 10
10858.87446908566
 20
19477.68921723176
 30
0.0
 11
11002.074469085661
 21
19477.689217231789
 31
0.0
  0
LINE
  5
3208
  8
FUTO
 10
10858.874469085669
 20
19443.68921723176
 30
0.0
 11
11002.07446908567
 21
19443.689217231778
 31
0.0
  0
LINE
  5
320D
  8
FUTO
 10
11002.07446908567
 20
19438.689217231778
 30
0.0
 11
11032.074469085681
 21
19438.689217231789
 31
0.0
  0
LINE
  5
320E
  8
FUTO
 10
11002.074469085661
 20
19482.689217231789
 30
0.0
 11
11032.074469085661
 21
19482.689217231789
 31
0.0
  0
LINE
  5
320F
  8
FUTO
 10
11002.074469085661
 20
19482.689217231789
 30
0.0
 11
11002.07446908567
 21
19438.689217231778
 31
0.0
  0
LINE
  5
3210
  8
FUTO
 10
11032.074469085661
 20
19482.689217231789
 30
0.0
 11
11032.074469085681
 21
19438.689217231789
 31
0.0
  0
LINE
  5
3235
  8
FUTO
 10
5218.9050788548584
 20
20226.179480210139
 30
0.0
 11
5241.65547543513
 21
20233.667465111179
 31
0.0
  0
LINE
  5
3236
  8
FUTO
 10
5257.9847858611083
 20
20107.445422331599
 30
0.0
 11
5284.2844808589934
 21
20116.10161073479
 31
0.0
  0
LINE
  5
3237
  8
FUTO
 10
5212.5327307850739
 20
20213.554379019359
 30
0.0
 11
5245.3596846703249
 21
20113.81777040138
 31
0.0
  0
ARC
  5
3238
  8
FUTO
 10
5222.0314554153583
 20
20216.680755579859
 30
0.0
 40
10.0
 50
108.2182600027899
 51
198.21826000278989
  0
ARC
  5
3239
  8
FUTO
 10
5254.8584093006084
 20
20116.944146961891
 30
0.0
 40
10.0
 50
198.21826000278989
 51
288.21826000278992
  0
LINE
  5
323A
  8
FUTO
 10
5215.7787022943576
 20
20235.678204840431
 30
0.0
 11
5238.7280820036358
 21
20243.231682343328
 31
0.0
  0
ARC
  5
323B
  8
FUTO
 10
5222.0314554153583
 20
20216.680755579859
 30
0.0
 40
20.0
 50
108.2182600027899
 51
198.21826000278989
  0
LINE
  5
323C
  8
FUTO
 10
5203.0340061547913
 20
20210.428002458859
 30
0.0
 11
5235.8609600400414
 21
20110.691393840891
 31
0.0
  0
ARC
  5
323D
  8
FUTO
 10
5254.8584093006084
 20
20116.944146961891
 30
0.0
 40
20.0
 50
198.21826000278989
 51
288.21826000278992
  0
LINE
  5
323E
  8
FUTO
 10
5261.1111624216092
 20
20097.946697701322
 30
0.0
 11
5288.1793089745524
 21
20106.855811525871
 31
0.0
  0
LINE
  5
3241
  8
CT
 10
5177.4648943935263
 20
20146.741697693851
 30
0.0
 11
5360.5156798368062
 21
20206.990384466641
 31
0.0
  0
DIMENSION
  5
393B
  8
FUTO
  2
*D6
 10
10937.599050424569
 20
19158.085600080711
 30
0.0
 11
10631.599050424569
 21
19218.085600080711
 31
0.0
 70
     0
 13
10325.599050424569
 23
19394.789081065072
 33
0.0
 14
10937.599050424569
 24
19394.789081065079
 34
0.0
1001
ACAD
1000
DSTYLE
1002
{
1070
    40
1040
30.0
1070
   176
1070
     2
1070
   177
1070
     2
1070
   178
1070
     2
1070
   341
1005
44D5
1070
     5
1000
OPEN30
1002
}
  0
DIMENSION
  5
3948
  8
FUTO
  2
*D7
 10
8737.5990504245747
 20
19158.090841003301
 30
0.0
 11
9531.5990504245747
 21
19218.090841003301
 31
0.0
 70
     0
 13
10325.599050424569
 23
19394.789081065072
 33
0.0
 14
8737.5990504245747
 24
19394.789081065072
 34
0.0
1001
ACAD
1000
DSTYLE
1002
{
1070
    40
1040
30.0
1070
   176
1070
     2
1070
   177
1070
     2
1070
   178
1070
     2
1070
   341
1005
44D5
1070
     5
1000
OPEN30
1002
}
  0
POLYLINE
  5
3949
  8
FUTO
 66
     1
 10
0.0
 20
0.0
 30
0.0
  0
VERTEX
  5
543B
  8
FUTO
 10
9715.5990504245747
 20
19544.789081065072
 30
0.0
  0
VERTEX
  5
543C
  8
FUTO
 10
9790.5990504245747
 20
19544.789081065072
 30
0.0
  0
SEQEND
  5
543D
  8
FUTO
  0
LINE
  5
3AE6
  8
FUTO
 10
8799.0990504245747
 20
20326.789081065072
 30
0.0
 11
8799.0990504245747
 21
19544.789081065072
 31
0.0
  0
LINE
  5
3AE7
  8
FUTO
 10
8799.0990504245747
 20
20326.789081065072
 30
0.0
 11
8809.0990504245729
 21
20326.789081065072
 31
0.0
  0
LINE
  5
3AE8
  8
FUTO
 10
8809.0990504245765
 20
20326.789081065072
 30
0.0
 11
8809.0990504245765
 21
20316.789081065072
 31
0.0
  0
LINE
  5
3AEA
  8
FUTO
 10
8809.0990504245765
 20
20316.789081065072
 30
0.0
 11
9716.0990504245747
 21
20316.789081065072
 31
0.0
  0
LINE
  5
3B39
  8
FUTO
 10
8919.5990504245747
 20
20371.789081065072
 30
0.0
 11
8831.5990504245747
 21
20371.789081065072
 31
0.0
  0
LINE
  5
3B3A
  8
FUTO
 10
8820.5990504245747
 20
20334.789081065072
 30
0.0
 11
8930.5990504245729
 21
20334.789081065072
 31
0.0
  0
LINE
  5
3B3B
  8
FUTO
 10
8925.5990504245747
 20
20527.789081065072
 30
0.0
 11
8825.5990504245747
 21
20527.789081065072
 31
0.0
  0
LINE
  5
3B3C
  8
FUTO
 10
8825.5990504245747
 20
20527.789081065072
 30
0.0
 11
8825.5990504245747
 21
20334.789081065072
 31
0.0
  0
LINE
  5
3B3D
  8
FUTO
 10
8805.0990504245747
 20
20509.789081065072
 30
0.0
 11
8805.0990504245747
 21
20359.789081065072
 31
0.0
  0
LINE
  5
3B3E
  8
FUTO
 10
8810.5990504245765
 20
20518.789081065072
 30
0.0
 11
8810.5990504245765
 21
20350.789081065072
 31
0.0
  0
LINE
  5
3B40
  8
FUTO
 10
8805.0990504245747
 20
20359.789081065072
 30
0.0
 11
8810.5990504245765
 21
20359.789081065072
 31
0.0
  0
ARC
  5
3B41
  8
FUTO
 10
8831.5990504245747
 20
20365.789081065072
 30
0.0
 40
6.0
 50
90.0
 51
180.0
  0
LINE
  5
3B42
  8
FUTO
 10
8816.5990504245765
 20
20344.789081065072
 30
0.0
 11
8825.5990504245747
 21
20344.789081065072
 31
0.0
  0
ARC
  5
3B43
  8
FUTO
 10
8816.5990504245765
 20
20350.789081065072
 30
0.0
 40
6.0
 50
180.0
 51
270.0
  0
LINE
  5
3B44
  8
FUTO
 10
8810.5990504245765
 20
20509.789081065072
 30
0.0
 11
8805.0990504245747
 21
20509.789081065072
 31
0.0
  0
ARC
  5
3B45
  8
FUTO
 10
8816.5990504245765
 20
20518.789081065072
 30
0.0
 40
6.0
 50
90.0
 51
180.0
  0
LINE
  5
3B46
  8
FUTO
 10
8825.5990504245747
 20
20524.789081065072
 30
0.0
 11
8816.5990504245765
 21
20524.789081065072
 31
0.0
  0
LINE
  5
3B47
  8
FUTO
 10
8925.5990504245747
 20
20334.789081065072
 30
0.0
 11
8925.5990504245747
 21
20527.789081065072
 31
0.0
  0
LINE
  5
3B48
  8
FUTO
 10
8940.5990504245747
 20
20518.789081065072
 30
0.0
 11
8940.5990504245747
 21
20350.789081065072
 31
0.0
  0
LINE
  5
3B49
  8
FUTO
 10
8946.0990504245747
 20
20509.789081065072
 30
0.0
 11
8946.0990504245747
 21
20359.789081065072
 31
0.0
  0
LINE
  5
3B4A
  8
FUTO
 10
8934.5990504245747
 20
20344.789081065072
 30
0.0
 11
8925.5990504245747
 21
20344.789081065072
 31
0.0
  0
ARC
  5
3B4B
  8
FUTO
 10
8919.5990504245747
 20
20365.789081065072
 30
0.0
 40
6.0
 50
0.0
 51
90.0
  0
ARC
  5
3B4C
  8
FUTO
 10
8934.5990504245747
 20
20350.789081065072
 30
0.0
 40
6.0
 50
270.0
 51
0.0
  0
LINE
  5
3B4D
  8
FUTO
 10
8946.0990504245747
 20
20359.789081065072
 30
0.0
 11
8940.5990504245747
 21
20359.789081065072
 31
0.0
  0
LINE
  5
3B4E
  8
FUTO
 10
8925.5990504245747
 20
20524.789081065072
 30
0.0
 11
8934.5990504245747
 21
20524.789081065072
 31
0.0
  0
ARC
  5
3B4F
  8
FUTO
 10
8934.5990504245747
 20
20518.789081065072
 30
0.0
 40
6.0
 50
0.0
 51
90.0
  0
LINE
  5
3B50
  8
FUTO
 10
8940.5990504245747
 20
20509.789081065072
 30
0.0
 11
8946.0990504245747
 21
20509.789081065072
 31
0.0
  0
LINE
  5
3B51
  8
FUTO
 10
8820.5990504245747
 20
20334.789081065072
 30
0.0
 11
8820.5990504245747
 21
20316.789081065072
 31
0.0
  0
LINE
  5
3B52
  8
FUTO
 10
8930.5990504245729
 20
20334.789081065072
 30
0.0
 11
8930.5990504245729
 21
20316.789081065072
 31
0.0
  0
LINE
  5
3BBC
  8
FUTO
 10
9652.0990504245747
 20
20538.789081065072
 30
0.0
 11
9519.0990504245747
 21
20538.789081065072
 31
0.0
  0
LINE
  5
3BBD
  8
FUTO
 10
9634.5990504245765
 20
20358.789081065072
 30
0.0
 11
9536.5990504245747
 21
20358.789081065072
 31
0.0
  0
LINE
  5
3BBE
  8
FUTO
 10
9520.5990504245747
 20
20322.789081065072
 30
0.0
 11
9650.5990504245747
 21
20322.789081065072
 31
0.0
  0
LINE
  5
3BC0
  8
FUTO
 10
9530.5990504245747
 20
20538.789081065072
 30
0.0
 11
9530.5990504245747
 21
20322.789081065072
 31
0.0
  0
LINE
  5
3BC1
  8
FUTO
 10
9508.0990504245747
 20
20524.789081065072
 30
0.0
 11
9508.0990504245747
 21
20344.789081065072
 31
0.0
  0
LINE
  5
3BC2
  8
FUTO
 10
9513.0990504245747
 20
20532.789081065072
 30
0.0
 11
9513.0990504245747
 21
20336.789081065072
 31
0.0
  0
LINE
  5
3BC3
  8
FUTO
 10
9508.0990504245747
 20
20344.789081065072
 30
0.0
 11
9513.0990504245747
 21
20344.789081065072
 31
0.0
  0
ARC
  5
3BC4
  8
FUTO
 10
9536.5990504245747
 20
20352.789081065072
 30
0.0
 40
6.0
 50
90.0
 51
180.0
  0
LINE
  5
3BC5
  8
FUTO
 10
9519.0990504245747
 20
20330.789081065072
 30
0.0
 11
9530.5990504245747
 21
20330.789081065072
 31
0.0
  0
ARC
  5
3BC6
  8
FUTO
 10
9519.0990504245747
 20
20336.789081065072
 30
0.0
 40
6.0
 50
180.0
 51
270.0
  0
LINE
  5
3BC7
  8
FUTO
 10
9513.0990504245747
 20
20524.789081065072
 30
0.0
 11
9508.0990504245747
 21
20524.789081065072
 31
0.0
  0
ARC
  5
3BC8
  8
FUTO
 10
9519.0990504245747
 20
20532.789081065072
 30
0.0
 40
6.0
 50
90.0
 51
180.0
  0
LINE
  5
3BC9
  8
FUTO
 10
9640.5990504245765
 20
20538.789081065072
 30
0.0
 11
9640.5990504245765
 21
20322.789081065072
 31
0.0
  0
LINE
  5
3BCA
  8
FUTO
 10
9658.0990504245747
 20
20532.789081065072
 30
0.0
 11
9658.0990504245747
 21
20336.789081065072
 31
0.0
  0
LINE
  5
3BCB
  8
FUTO
 10
9663.0990504245747
 20
20524.789081065072
 30
0.0
 11
9663.0990504245747
 21
20344.789081065072
 31
0.0
  0
ARC
  5
3BCC
  8
FUTO
 10
9634.5990504245765
 20
20352.789081065072
 30
0.0
 40
6.0
 50
0.0
 51
90.0
  0
LINE
  5
3BCD
  8
FUTO
 10
9652.0990504245747
 20
20330.789081065072
 30
0.0
 11
9640.5990504245765
 21
20330.789081065072
 31
0.0
  0
ARC
  5
3BCE
  8
FUTO
 10
9652.0990504245747
 20
20336.789081065072
 30
0.0
 40
6.0
 50
270.0
 51
0.0
  0
LINE
  5
3BCF
  8
FUTO
 10
9663.0990504245747
 20
20344.789081065072
 30
0.0
 11
9658.0990504245747
 21
20344.789081065072
 31
0.0
  0
ARC
  5
3BD0
  8
FUTO
 10
9652.0990504245747
 20
20532.789081065072
 30
0.0
 40
6.0
 50
0.0
 51
90.0
  0
LINE
  5
3BD1
  8
FUTO
 10
9658.0990504245747
 20
20524.789081065072
 30
0.0
 11
9663.0990504245747
 21
20524.789081065072
 31
0.0
  0
LINE
  5
3C31
  8
SL
 10
8989.8410676440653
 20
20561.48798409622
 30
0.0
 11
9455.117480529665
 21
20561.48798409622
 31
0.0
  0
LINE
  5
3C32
  8
FUTO
 10
9520.5990504245747
 20
20322.789081065072
 30
0.0
 11
9520.5990504245747
 21
20316.789081065072
 31
0.0
  0
LINE
  5
3C33
  8
FUTO
 10
9650.5990504245747
 20
20322.789081065072
 30
0.0
 11
9650.5990504245747
 21
20316.789081065072
 31
0.0
  0
DIMENSION
  5
3C4B
  8
SP
  2
*D9
 10
10325.599050424569
 20
22257.335513348658
 30
0.0
 11
9415.5990504245747
 21
22317.335513348658
 31
0.0
 70
     0
 13
8505.5990504245747
 23
20814.789081065072
 33
0.0
 14
10325.599050424569
 24
22132.948419008
 34
0.0
1001
ACAD
1000
DSTYLE
1002
{
1070
    40
1040
30.0
1070
   176
1070
     2
1070
   177
1070
     2
1070
   178
1070
     2
1070
   341
1005
44D5
1070
     5
1000
OPEN30
1002
}
  0
LINE
  5
3C62
  8
SL
 10
8989.8410676440653
 20
20561.48798409622
 30
0.0
 11
8989.8410676440653
 21
20306.789081065079
 31
0.0
  0
LINE
  5
3C63
  8
SL
 10
9455.117480529665
 20
20561.48798409622
 30
0.0
 11
9455.117480529665
 21
20306.789081065072
 31
0.0
  0
LINE
  5
3C79
  8
FUTO
 10
6474.4013380386687
 20
23253.4892177867
 30
0.0
 11
6474.4013380386668
 21
23822.4892177867
 31
0.0
  0
LINE
  5
3C7A
  8
FUTO
 10
6384.4013380386668
 20
23253.4892177867
 30
0.0
 11
6384.4013380386668
 21
23822.4892177867
 31
0.0
  0
LINE
  5
3C7B
  8
FUTO
 10
6809.4013380386677
 20
22813.489217786711
 30
0.0
 11
5009.4013380386668
 21
22813.489217786711
 31
0.0
  0
LINE
  5
3C7D
  8
SL
 10
6679.4013380386668
 20
23001.389217786709
 30
0.0
 11
5123.4013380386677
 21
23001.389217786709
 31
0.0
  0
LINE
  5
3C7E
  8
SL
 10
6679.4013380386668
 20
22923.4892177867
 30
0.0
 11
5123.4013380386677
 21
22923.4892177867
 31
0.0
  0
LINE
  5
3C7F
  8
CT
 10
6547.9048349987916
 20
23183.489217786711
 30
0.0
 11
6266.5707062519532
 21
23183.489217786711
 31
0.0
  0
LINE
  5
3C80
  8
CT
 10
5229.4013380386677
 20
22776.532488265992
 30
0.0
 11
5229.4013380386677
 21
23079.351171377439
 31
0.0
  0
LINE
  5
3C81
  8
SL
 10
5335.4013380386677
 20
22923.4892177867
 30
0.0
 11
5335.4013380386677
 21
23001.389217786698
 31
0.0
  0
LINE
  5
3C82
  8
SL
 10
5123.4013380386677
 20
22923.4892177867
 30
0.0
 11
5123.4013380386677
 21
23001.389217786698
 31
0.0
  0
LINE
  5
3C83
  8
FUTO
 10
5176.4587643144578
 20
23068.4892177867
 30
0.0
 11
5009.4013380386668
 21
23068.4892177867
 31
0.0
  0
LINE
  5
3C84
  8
SL
 10
5289.4013380386677
 20
23016.4892177867
 30
0.0
 11
5169.4013380386668
 21
23016.4892177867
 31
0.0
  0
LINE
  5
3C85
  8
SL
 10
5289.4013380386677
 20
23001.389217786709
 30
0.0
 11
5289.4013380386677
 21
23016.4892177867
 31
0.0
  0
LINE
  5
3C86
  8
SL
 10
5169.4013380386668
 20
23001.389217786698
 30
0.0
 11
5169.4013380386668
 21
23016.4892177867
 31
0.0
  0
LINE
  5
3C87
  8
SL
 10
6179.4013380386677
 20
22923.4892177867
 30
0.0
 11
6179.4013380386677
 21
23001.389217786709
 31
0.0
  0
LINE
  5
3C88
  8
FUTO
 10
6522.4013380386677
 20
23233.4892177867
 30
0.0
 11
6522.4013380386677
 21
23133.4892177867
 31
0.0
  0
LINE
  5
3C8B
  8
FUTO
 10
6809.4013380386677
 20
23068.4892177867
 30
0.0
 11
6583.0917079443816
 21
23068.4892177867
 31
0.0
  0
LINE
  5
3C8C
  8
SL
 10
6679.4013380386668
 20
22923.4892177867
 30
0.0
 11
6679.4013380386668
 21
23001.389217786709
 31
0.0
  0
LINE
  5
3C8D
  8
FUTO
 10
6471.9013380386677
 20
23023.489217786711
 30
0.0
 11
6471.9013380386677
 21
23112.989217786711
 31
0.0
  0
LINE
  5
3C8E
  8
FUTO
 10
6386.9013380386677
 20
23023.489217786711
 30
0.0
 11
6386.9013380386668
 21
23112.989217786711
 31
0.0
  0
LINE
  5
3C8F
  8
SL
 10
6509.4013380386677
 20
23001.389217786709
 30
0.0
 11
6509.4013380386677
 21
23023.489217786711
 31
0.0
  0
LINE
  5
3C90
  8
SL
 10
6349.4013380386668
 20
23001.389217786709
 30
0.0
 11
6349.4013380386668
 21
23023.489217786711
 31
0.0
  0
LINE
  5
3C91
  8
SL
 10
6509.4013380386677
 20
23023.489217786711
 30
0.0
 11
6349.4013380386668
 21
23023.489217786711
 31
0.0
  0
LINE
  5
3C94
  8
FUTO
 10
6519.4013380386677
 20
23133.4892177867
 30
0.0
 11
6519.4013380386687
 21
23124.489217786711
 31
0.0
  0
ARC
  5
3C95
  8
FUTO
 10
6513.4013380386687
 20
23124.489217786711
 30
0.0
 40
6.0
 50
270.0
 51
0.000000000000007
  0
LINE
  5
3C96
  8
FUTO
 10
6504.4013380386668
 20
23118.489217786711
 30
0.0
 11
6504.4013380386668
 21
23112.989217786711
 31
0.0
  0
ARC
  5
3C97
  8
FUTO
 10
6345.4013380386677
 20
23124.489217786711
 30
0.0
 40
6.0
 50
180.0
 51
270.0
  0
LINE
  5
3C98
  8
FUTO
 10
6339.4013380386677
 20
23124.489217786711
 30
0.0
 11
6339.4013380386677
 21
23133.4892177867
 31
0.0
  0
LINE
  5
3C9A
  8
FUTO
 10
6354.4013380386677
 20
23112.989217786711
 30
0.0
 11
6354.4013380386677
 21
23118.489217786711
 31
0.0
  0
LINE
  5
3C9B
  8
FUTO
 10
6513.4013380386687
 20
23118.489217786711
 30
0.0
 11
6345.4013380386677
 21
23118.489217786711
 31
0.0
  0
LINE
  5
3C9C
  8
FUTO
 10
6504.4013380386668
 20
23112.989217786711
 30
0.0
 11
6354.4013380386677
 21
23112.989217786711
 31
0.0
  0
LINE
  5
3C9D
  8
FUTO
 10
6522.4013380386677
 20
23133.4892177867
 30
0.0
 11
6336.4013380386677
 21
23133.4892177867
 31
0.0
  0
LINE
  5
3C9F
  8
FUTO
 10
6809.4013380386677
 20
22813.489217786711
 30
0.0
 11
6809.4013380386668
 21
23068.4892177867
 31
0.0
  0
POINT
  5
3CA0
  8
DEFPOINTS
 10
6809.4013380386677
 20
22813.489217786711
 30
0.0
  0
LINE
  5
3CA3
  8
FUTO
 10
6504.4013380386668
 20
23248.4892177867
 30
0.0
 11
6504.4013380386668
 21
23253.989217786711
 31
0.0
  0
ARC
  5
3CA4
  8
FUTO
 10
6513.4013380386687
 20
23242.489217786711
 30
0.0
 40
6.0
 50
0.000000000000007
 51
90.0
  0
LINE
  5
3CA5
  8
FUTO
 10
6519.4013380386677
 20
23233.4892177867
 30
0.0
 11
6519.4013380386687
 21
23242.489217786711
 31
0.0
  0
LINE
  5
3CA6
  8
FUTO
 10
6354.4013380386677
 20
23253.989217786711
 30
0.0
 11
6354.4013380386677
 21
23248.4892177867
 31
0.0
  0
ARC
  5
3CA7
  8
FUTO
 10
6345.4013380386677
 20
23242.489217786711
 30
0.0
 40
6.0
 50
90.0
 51
180.0
  0
LINE
  5
3CA9
  8
FUTO
 10
6339.4013380386677
 20
23242.489217786711
 30
0.0
 11
6339.4013380386677
 21
23233.4892177867
 31
0.0
  0
LINE
  5
3CAA
  8
FUTO
 10
6504.4013380386668
 20
23253.989217786711
 30
0.0
 11
6354.4013380386677
 21
23253.989217786711
 31
0.0
  0
LINE
  5
3CAB
  8
FUTO
 10
6513.4013380386687
 20
23248.4892177867
 30
0.0
 11
6345.4013380386677
 21
23248.4892177867
 31
0.0
  0
LINE
  5
3CAC
  8
FUTO
 10
6336.4013380386677
 20
23233.4892177867
 30
0.0
 11
6522.4013380386677
 21
23233.4892177867
 31
0.0
  0
LINE
  5
3CAF
  8
FUTO
 10
7179.4013380386668
 20
25267.4892177867
 30
0.0
 11
5679.4013380386677
 21
25267.4892177867
 31
0.0
  0
LINE
  5
3CB0
  8
FUTO
 10
7179.4013380386668
 20
25261.4892177867
 30
0.0
 11
5679.4013380386677
 21
25261.4892177867
 31
0.0
  0
LINE
  5
3CB1
  8
KL
 10
6420.4013380386687
 20
25172.689217786701
 30
0.0
 11
5679.4013380386677
 21
25172.689217786701
 31
0.0
  0
LINE
  5
3CB5
  8
KL
 10
7133.7140803476977
 20
25169.4892177867
 30
0.0
 11
5725.0885957296359
 21
25169.4892177867
 31
0.0
  0
LINE
  5
3CB9
  8
CT
 10
6547.9048349987916
 20
23893.4892177867
 30
0.0
 11
6244.2371748235119
 21
23893.4892177867
 31
0.0
  0
LINE
  5
3CBA
  8
KL
 10
5729.4013380386677
 20
25166.689217786701
 30
0.0
 11
5729.4013380386677
 21
25267.4892177867
 31
0.0
  0
LINE
  5
3CBB
  8
KL
 10
5723.4013380386677
 20
25172.689217786701
 30
0.0
 11
5723.4013380386677
 21
25241.689217786708
 31
0.0
  0
LINE
  5
3CBC
  8
KL
 10
5679.4013380386677
 20
25166.689217786701
 30
0.0
 11
5679.4013380386677
 21
25172.689217786701
 31
0.0
  0
LINE
  5
3CBD
  8
CT
 10
5696.9013380386668
 20
25134.204520191601
 30
0.0
 11
5696.9013380386668
 21
25191.24725332364
 31
0.0
  0
LINE
  5
3CBE
  8
FUTO
 10
5679.4013380386677
 20
25261.4892177867
 30
0.0
 11
5679.4013380386677
 21
25267.4892177867
 31
0.0
  0
LINE
  5
3CBF
  8
CT
 10
5696.9013380386668
 20
25238.36948287407
 30
0.0
 11
5696.9013380386668
 21
25298.51233662794
 31
0.0
  0
LINE
  5
3CC0
  8
FUTO
 10
5723.4013380386677
 20
25241.689217786708
 30
0.0
 11
5723.4013380386677
 21
25261.4892177867
 31
0.0
  0
LINE
  5
3CC7
  8
FUTO
 10
6533.4013380386659
 20
23959.9892177867
 30
0.0
 11
6533.4013380386659
 21
23826.9892177867
 31
0.0
  0
ARC
  5
3CCA
  8
FUTO
 10
6527.4013380386659
 20
23826.9892177867
 30
0.0
 40
6.0
 50
270.0
 51
0.000000000000007
  0
LINE
  5
3CCB
  8
FUTO
 10
6519.4013380386659
 20
23820.9892177867
 30
0.0
 11
6519.4013380386659
 21
23815.989217786711
 31
0.0
  0
ARC
  5
3CCC
  8
FUTO
 10
6331.4013380386659
 20
23826.9892177867
 30
0.0
 40
6.0
 50
180.0
 51
270.0
  0
LINE
  5
3CCD
  8
FUTO
 10
6325.4013380386659
 20
23826.9892177867
 30
0.0
 11
6325.4013380386659
 21
23838.4892177867
 31
0.0
  0
LINE
  5
3CCF
  8
FUTO
 10
6339.4013380386659
 20
23815.989217786711
 30
0.0
 11
6339.4013380386659
 21
23820.9892177867
 31
0.0
  0
LINE
  5
3CD0
  8
FUTO
 10
6527.4013380386659
 20
23820.9892177867
 30
0.0
 11
6331.4013380386659
 21
23820.9892177867
 31
0.0
  0
LINE
  5
3CD1
  8
FUTO
 10
6519.4013380386659
 20
23815.989217786711
 30
0.0
 11
6339.4013380386659
 21
23815.989217786711
 31
0.0
  0
LINE
  5
3CD2
  8
FUTO
 10
6533.4013380386659
 20
23838.4892177867
 30
0.0
 11
6325.4013380386687
 21
23838.4892177867
 31
0.0
  0
LINE
  5
3CD4
  8
FUTO
 10
6519.4013380386659
 20
23965.9892177867
 30
0.0
 11
6519.4013380386659
 21
23970.9892177867
 31
0.0
  0
ARC
  5
3CD5
  8
FUTO
 10
6527.4013380386659
 20
23959.9892177867
 30
0.0
 40
6.0
 50
0.000000000000007
 51
90.0
  0
LINE
  5
3CD6
  8
FUTO
 10
6339.4013380386659
 20
23970.9892177867
 30
0.0
 11
6339.4013380386659
 21
23965.9892177867
 31
0.0
  0
ARC
  5
3CD7
  8
FUTO
 10
6331.4013380386659
 20
23959.9892177867
 30
0.0
 40
6.0
 50
90.0
 51
180.0
  0
LINE
  5
3CD8
  8
FUTO
 10
6325.4013380386659
 20
23959.9892177867
 30
0.0
 11
6325.4013380386659
 21
23948.4892177867
 31
0.0
  0
LINE
  5
3CDA
  8
FUTO
 10
6519.4013380386659
 20
23970.9892177867
 30
0.0
 11
6339.4013380386659
 21
23970.9892177867
 31
0.0
  0
LINE
  5
3CDB
  8
FUTO
 10
6527.4013380386659
 20
23965.9892177867
 30
0.0
 11
6331.4013380386659
 21
23965.9892177867
 31
0.0
  0
LINE
  5
3CDC
  8
FUTO
 10
6533.4013380386659
 20
23948.4892177867
 30
0.0
 11
6325.4013380386687
 21
23948.4892177867
 31
0.0
  0
LINE
  5
3CDD
  8
FUTO
 10
6384.4013380386668
 20
23962.489217786711
 30
0.0
 11
6384.4013380386668
 21
24025.289217786711
 31
0.0
  0
LINE
  5
3CDE
  8
FUTO
 10
6474.4013380386668
 20
23962.489217786711
 30
0.0
 11
6474.4013380386668
 21
24023.9892177867
 31
0.0
  0
LINE
  5
3CE2
  8
KL
 10
7179.4013380386668
 20
25172.689217786701
 30
0.0
 11
6438.4013380386668
 21
25172.689217786701
 31
0.0
  0
INSERT
  5
3CE3
  8
FUTO
  2
まっすぐの矢印
 10
6985.6532263586514
 20
25329.335998476108
 30
0.0
 41
2.0
 42
2.0
 43
2.0
 50
180.0
  0
LINE
  5
3CE4
  8
KL
 10
7129.4013380386668
 20
25166.689217786701
 30
0.0
 11
7129.4013380386668
 21
25267.4892177867
 31
0.0
  0
LINE
  5
3CE5
  8
KL
 10
7135.4013380386677
 20
25172.689217786701
 30
0.0
 11
7135.401338038665
 21
25242.989217786711
 31
0.0
  0
LINE
  5
3CE6
  8
KL
 10
7179.4013380386668
 20
25166.689217786701
 30
0.0
 11
7179.4013380386668
 21
25172.689217786701
 31
0.0
  0
LINE
  5
3CE7
  8
CT
 10
7161.9013380386668
 20
25144.03311654284
 30
0.0
 11
7161.9013380386668
 21
25186.738754968101
 31
0.0
  0
LINE
  5
3CE8
  8
FUTO
 10
7179.4013380386668
 20
25261.4892177867
 30
0.0
 11
7179.4013380386668
 21
25267.4892177867
 31
0.0
  0
LINE
  5
3CE9
  8
CT
 10
7161.9013380386668
 20
25238.728230524499
 30
0.0
 11
7161.9013380386668
 21
25290.717706080919
 31
0.0
  0
LINE
  5
3CEA
  8
FUTO
 10
7135.4013380386677
 20
25242.989217786711
 30
0.0
 11
7135.4013380386677
 21
25261.4892177867
 31
0.0
  0
LINE
  5
3D2A
  8
FUTO
 10
6325.4013380386687
 20
23959.9892177867
 30
0.0
 11
6325.4013380386687
 21
23826.9892177867
 31
0.0
  0
LINE
  5
3D2B
  8
FUTO
 10
6336.4013380386677
 20
23233.4892177867
 30
0.0
 11
6336.4013380386677
 21
23133.4892177867
 31
0.0
  0
ARC
  5
4030
  8
FUTO
 10
5229.4013380386677
 20
23024.4892177867
 30
0.0
 40
9.0
 50
0.0
 51
180.0
  0
LINE
  5
4031
  8
FUTO
 10
5220.4013380386677
 20
22923.4892177867
 30
0.0
 11
5220.4013380386677
 21
23024.4892177867
 31
0.0
  0
LINE
  5
4032
  8
FUTO
 10
5238.4013380386668
 20
22923.4892177867
 30
0.0
 11
5238.4013380386668
 21
23024.4892177867
 31
0.0
  0
LINE
  5
4033
  8
FUTO
 10
4972.4013990386693
 20
23437.989156786709
 30
0.0
 11
4972.4013990386693
 21
23473.9892177867
 31
0.0
  0
LINE
  5
4034
  8
FUTO
 10
4969.4013990386693
 20
23437.989156786709
 30
0.0
 11
4969.4013990386693
 21
23473.9892177867
 31
0.0
  0
LINE
  5
4035
  8
FUTO
 10
4977.4013990386693
 20
23437.989156786709
 30
0.0
 11
4977.4013990386693
 21
23484.9892177867
 31
0.0
  0
LINE
  5
4036
  8
FUTO
 10
5019.4013380386677
 20
23098.9892177867
 30
0.0
 11
5019.4013380386696
 21
23145.8642177867
 31
0.0
  0
LINE
  5
4037
  8
FUTO
 10
5071.7097030431451
 20
23093.989217786711
 30
0.0
 11
5024.4013380386677
 21
23093.989217786711
 31
0.0
  0
ARC
  5
4038
  8
FUTO
 10
5024.4013380386677
 20
23098.9892177867
 30
0.0
 40
5.0
 50
180.0
 51
270.0
  0
LINE
  5
4039
  8
FUTO
 10
5039.7199928202408
 20
23145.8642177867
 30
0.0
 11
5019.4013380386696
 21
23145.8642177867
 31
0.0
  0
LINE
  5
403A
  8
FUTO
 10
5019.4013380386696
 20
23143.9892177867
 30
0.0
 11
4972.4013990386693
 21
23143.9892177867
 31
0.0
  0
LINE
  5
403B
  8
FUTO
 10
5019.4013380386696
 20
23140.9892177867
 30
0.0
 11
4969.4013990386693
 21
23140.9892177867
 31
0.0
  0
LINE
  5
403C
  8
FUTO
 10
5039.6108644703872
 20
23148.989217786711
 30
0.0
 11
4977.4013990386693
 21
23148.989217786711
 31
0.0
  0
LINE
  5
403D
  8
FUTO
 10
4977.4013990386693
 20
23148.989217786711
 30
0.0
 11
4972.4013990386693
 21
23143.9892177867
 31
0.0
  0
LINE
  5
403E
  8
FUTO
 10
4944.4013990386684
 20
23183.9892177867
 30
0.0
 11
4944.4013990386684
 21
23223.9892177867
 31
0.0
  0
LINE
  5
403F
  8
FUTO
 10
4974.4013990386693
 20
23183.9892177867
 30
0.0
 11
4974.4013990386693
 21
23223.9892177867
 31
0.0
  0
LINE
  5
4040
  8
FUTO
 10
4944.4013990386684
 20
23223.9892177867
 30
0.0
 11
4974.4013990386693
 21
23223.9892177867
 31
0.0
  0
LINE
  5
4041
  8
FUTO
 10
4974.4013990386693
 20
23183.9892177867
 30
0.0
 11
4944.4013990386684
 21
23183.9892177867
 31
0.0
  0
LINE
  5
4042
  8
CT
 10
5025.9013380386677
 20
23203.9892177867
 30
0.0
 11
4858.3469560386693
 21
23203.9892177867
 31
0.0
  0
LINE
  5
4043
  8
FUTO
 10
4869.9469310386676
 20
23221.57906178671
 30
0.0
 11
4882.046907038668
 21
23221.57906178671
 31
0.0
  0
LINE
  5
4044
  8
FUTO
 10
4869.9469310386676
 20
23186.399374786699
 30
0.0
 11
4882.046907038668
 21
23186.399374786699
 31
0.0
  0
LINE
  5
4045
  8
FUTO
 10
4869.9469310386676
 20
23213.6942957867
 30
0.0
 11
4882.046907038668
 21
23213.6942957867
 31
0.0
  0
LINE
  5
4046
  8
FUTO
 10
4869.9469310386676
 20
23194.284139786709
 30
0.0
 11
4882.046907038668
 21
23194.284139786709
 31
0.0
  0
LINE
  5
4047
  8
FUTO
 10
4868.3469560386702
 20
23219.979452786702
 30
0.0
 11
4868.3469560386702
 21
23187.999959786699
 31
0.0
  0
LINE
  5
4048
  8
FUTO
 10
4869.9469310386676
 20
23186.399374786699
 30
0.0
 11
4868.3469560386702
 21
23187.999959786699
 31
0.0
  0
LINE
  5
4049
  8
FUTO
 10
4869.9469310386676
 20
23194.284139786709
 30
0.0
 11
4868.3469560386702
 21
23192.684530786701
 31
0.0
  0
LINE
  5
404A
  8
FUTO
 10
4869.9469310386676
 20
23194.284139786709
 30
0.0
 11
4868.3469560386702
 21
23195.884725786698
 31
0.0
  0
LINE
  5
404B
  8
FUTO
 10
4868.3469560386702
 20
23219.979452786702
 30
0.0
 11
4869.9469310386676
 21
23221.57906178671
 31
0.0
  0
LINE
  5
404C
  8
FUTO
 10
4869.9469310386676
 20
23213.6942957867
 30
0.0
 11
4868.3469560386702
 21
23215.2948817867
 31
0.0
  0
LINE
  5
404D
  8
FUTO
 10
4869.9469310386676
 20
23213.6942957867
 30
0.0
 11
4868.3469560386702
 21
23212.09468678671
 31
0.0
  0
LINE
  5
404E
  8
FUTO
 10
4882.046907038668
 20
23221.57906178671
 30
0.0
 11
4882.046907038668
 21
23186.399374786699
 31
0.0
  0
LINE
  5
404F
  8
FUTO
 10
4882.046907038668
 20
23194.989217786711
 30
0.0
 11
4944.4013990386684
 21
23194.989217786711
 31
0.0
  0
LINE
  5
4050
  8
HOSO
 10
4944.4013990386684
 20
23196.9892177867
 30
0.0
 11
4882.0468460386692
 21
23196.9892177867
 31
0.0
  0
LINE
  5
4051
  8
HOSO
 10
4882.046907038668
 20
23210.9892177867
 30
0.0
 11
4944.4013990386684
 21
23210.9892177867
 31
0.0
  0
LINE
  5
4052
  8
FUTO
 10
4944.4013990386684
 20
23212.9892177867
 30
0.0
 11
4882.0468460386692
 21
23212.9892177867
 31
0.0
  0
LINE
  5
4053
  8
FUTO
 10
4974.4013990386693
 20
23194.989217786711
 30
0.0
 11
5025.9013380386677
 21
23194.989217786711
 31
0.0
  0
LINE
  5
4054
  8
HOSO
 10
5025.9013380386677
 20
23196.9892177867
 30
0.0
 11
4974.4013990386693
 21
23196.9892177867
 31
0.0
  0
LINE
  5
4055
  8
FUTO
 10
5025.9013380386677
 20
23212.9892177867
 30
0.0
 11
4974.4013990386693
 21
23212.9892177867
 31
0.0
  0
LINE
  5
4056
  8
HOSO
 10
4974.4013990386693
 20
23210.9892177867
 30
0.0
 11
5025.9013380386677
 21
23210.9892177867
 31
0.0
  0
LINE
  5
4057
  8
FUTO
 10
4969.4013990386693
 20
23140.9892177867
 30
0.0
 11
4969.4013990386693
 21
23183.9892177867
 31
0.0
  0
LINE
  5
4058
  8
FUTO
 10
4972.4013990386693
 20
23143.9892177867
 30
0.0
 11
4972.4013990386693
 21
23183.9892177867
 31
0.0
  0
LINE
  5
4059
  8
FUTO
 10
4977.4013990386693
 20
23148.989217786711
 30
0.0
 11
4977.4013990386693
 21
23194.989217786711
 31
0.0
  0
LINE
  5
405A
  8
FUTO
 10
4969.4013990386693
 20
23223.9892177867
 30
0.0
 11
4969.4013990386693
 21
23259.9892177867
 31
0.0
  0
LINE
  5
405B
  8
FUTO
 10
4972.4013990386693
 20
23223.9892177867
 30
0.0
 11
4972.4013990386693
 21
23259.9892177867
 31
0.0
  0
LINE
  5
405C
  8
FUTO
 10
4977.4013990386693
 20
23212.9892177867
 30
0.0
 11
4977.4013990386693
 21
23259.9892177867
 31
0.0
  0
LINE
  5
405D
  8
FUTO
 10
4944.4013990386684
 20
23484.9892177867
 30
0.0
 11
4882.0468460386692
 21
23484.9892177867
 31
0.0
  0
LINE
  5
405E
  8
HOSO
 10
4882.046907038668
 20
23486.9892177867
 30
0.0
 11
4944.4013990386684
 21
23486.9892177867
 31
0.0
  0
LINE
  5
405F
  8
HOSO
 10
4944.4013990386684
 20
23500.9892177867
 30
0.0
 11
4882.0468460386692
 21
23500.9892177867
 31
0.0
  0
LINE
  5
4060
  8
FUTO
 10
4882.046907038668
 20
23502.9892177867
 30
0.0
 11
4944.4013990386684
 21
23502.9892177867
 31
0.0
  0
LINE
  5
4061
  8
FUTO
 10
4882.046907038668
 20
23476.399373786699
 30
0.0
 11
4882.046907038668
 21
23511.579060786698
 31
0.0
  0
LINE
  5
4062
  8
FUTO
 10
4869.9469310386676
 20
23484.284139786709
 30
0.0
 11
4868.3469560386702
 21
23485.883748786699
 31
0.0
  0
LINE
  5
4063
  8
FUTO
 10
4869.9469310386676
 20
23484.284139786709
 30
0.0
 11
4868.3469560386702
 21
23482.683553786701
 31
0.0
  0
LINE
  5
4064
  8
FUTO
 10
4868.3469560386702
 20
23477.998982786699
 30
0.0
 11
4869.9469310386676
 21
23476.399373786699
 31
0.0
  0
LINE
  5
4065
  8
FUTO
 10
4869.9469310386676
 20
23503.69429578671
 30
0.0
 11
4868.3469560386702
 21
23502.093709786699
 31
0.0
  0
LINE
  5
4066
  8
FUTO
 10
4869.9469310386676
 20
23503.69429578671
 30
0.0
 11
4868.3469560386702
 21
23505.293904786711
 31
0.0
  0
LINE
  5
4067
  8
FUTO
 10
4869.9469310386676
 20
23511.579060786698
 30
0.0
 11
4868.3469560386702
 21
23509.978475786709
 31
0.0
  0
LINE
  5
4068
  8
FUTO
 10
4868.3469560386702
 20
23477.998982786699
 30
0.0
 11
4868.3469560386702
 21
23509.978475786709
 31
0.0
  0
LINE
  5
4069
  8
FUTO
 10
4869.9469310386676
 20
23503.69429578671
 30
0.0
 11
4882.046907038668
 21
23503.69429578671
 31
0.0
  0
LINE
  5
406A
  8
FUTO
 10
4869.9469310386676
 20
23484.284139786709
 30
0.0
 11
4882.046907038668
 21
23484.284139786709
 31
0.0
  0
LINE
  5
406B
  8
FUTO
 10
4869.9469310386676
 20
23511.579060786698
 30
0.0
 11
4882.046907038668
 21
23511.579060786698
 31
0.0
  0
LINE
  5
406C
  8
FUTO
 10
4869.9469310386676
 20
23476.399373786699
 30
0.0
 11
4882.046907038668
 21
23476.399373786699
 31
0.0
  0
LINE
  5
406D
  8
FUTO
 10
4974.4013990386693
 20
23513.9892177867
 30
0.0
 11
4944.4013990386684
 21
23513.9892177867
 31
0.0
  0
LINE
  5
406E
  8
FUTO
 10
4944.4013990386684
 20
23473.9892177867
 30
0.0
 11
4974.4013990386693
 21
23473.9892177867
 31
0.0
  0
LINE
  5
406F
  8
FUTO
 10
4974.4013990386693
 20
23513.9892177867
 30
0.0
 11
4974.4013990386693
 21
23473.9892177867
 31
0.0
  0
LINE
  5
4070
  8
FUTO
 10
4944.4013990386684
 20
23513.9892177867
 30
0.0
 11
4944.4013990386684
 21
23473.9892177867
 31
0.0
  0
LINE
  5
4071
  8
HOSO
 10
4974.4013990386693
 20
23486.9892177867
 30
0.0
 11
5025.9013380386677
 21
23486.9892177867
 31
0.0
  0
LINE
  5
4072
  8
FUTO
 10
5025.9013380386677
 20
23484.9892177867
 30
0.0
 11
4974.4013990386693
 21
23484.9892177867
 31
0.0
  0
LINE
  5
4073
  8
HOSO
 10
5025.9013380386677
 20
23500.9892177867
 30
0.0
 11
4974.4013990386693
 21
23500.9892177867
 31
0.0
  0
LINE
  5
4074
  8
FUTO
 10
4974.4013990386693
 20
23502.9892177867
 30
0.0
 11
5025.9013380386677
 21
23502.9892177867
 31
0.0
  0
LINE
  5
4075
  8
CT
 10
5025.9013380386677
 20
23493.989217786711
 30
0.0
 11
4858.3469560386693
 21
23493.989217786711
 31
0.0
  0
LINE
  5
4076
  8
FUTO
 10
4977.4013990386693
 20
23548.989217786711
 30
0.0
 11
4972.4013990386693
 21
23553.9892177867
 31
0.0
  0
LINE
  5
4077
  8
FUTO
 10
5019.4013380386696
 20
23556.989217786711
 30
0.0
 11
4969.4013990386693
 21
23556.989217786711
 31
0.0
  0
LINE
  5
4078
  8
FUTO
 10
5019.4013380386696
 20
23553.9892177867
 30
0.0
 11
4972.4013990386693
 21
23553.9892177867
 31
0.0
  0
LINE
  5
4079
  8
FUTO
 10
5025.9013380386696
 20
23552.1142177867
 30
0.0
 11
5019.4013380386696
 21
23552.1142177867
 31
0.0
  0
LINE
  5
407A
  8
FUTO
 10
5025.9013380386677
 20
23548.989217786711
 30
0.0
 11
4977.4013990386693
 21
23548.989217786711
 31
0.0
  0
LINE
  5
407B
  8
FUTO
 10
4977.4013990386693
 20
23548.989217786711
 30
0.0
 11
4977.4013990386693
 21
23502.9892177867
 31
0.0
  0
LINE
  5
407C
  8
FUTO
 10
4972.4013990386693
 20
23553.9892177867
 30
0.0
 11
4972.4013990386693
 21
23513.9892177867
 31
0.0
  0
LINE
  5
407D
  8
FUTO
 10
4969.4013990386693
 20
23556.989217786711
 30
0.0
 11
4969.4013990386693
 21
23513.9892177867
 31
0.0
  0
ARC
  5
407E
  8
FUTO
 10
5024.4013380386677
 20
23598.9892177867
 30
0.0
 40
5.0
 50
89.999999999999986
 51
180.0
  0
LINE
  5
407F
  8
FUTO
 10
5019.4013380386677
 20
23598.9892177867
 30
0.0
 11
5019.4013380386696
 21
23552.1142177867
 31
0.0
  0
LINE
  5
4080
  8
FUTO
 10
5036.9013380386668
 20
23603.9892177867
 30
0.0
 11
5024.4013380386677
 21
23603.9892177867
 31
0.0
  0
LINE
  5
4081
  8
CT
 10
5432.9013380386696
 20
23493.989217786711
 30
0.0
 11
5600.4557200386698
 21
23493.989217786711
 31
0.0
  0
LINE
  5
4082
  8
FUTO
 10
5484.4012770386689
 20
23502.9892177867
 30
0.0
 11
5432.9013380386677
 21
23502.9892177867
 31
0.0
  0
LINE
  5
4083
  8
HOSO
 10
5432.9013380386677
 20
23500.9892177867
 30
0.0
 11
5484.4012770386689
 21
23500.9892177867
 31
0.0
  0
LINE
  5
4084
  8
FUTO
 10
5432.9013380386677
 20
23484.9892177867
 30
0.0
 11
5484.4012770386689
 21
23484.9892177867
 31
0.0
  0
LINE
  5
4085
  8
HOSO
 10
5484.4012770386689
 20
23486.9892177867
 30
0.0
 11
5432.9013380386677
 21
23486.9892177867
 31
0.0
  0
LINE
  5
4086
  8
FUTO
 10
5514.401277038668
 20
23513.9892177867
 30
0.0
 11
5514.401277038668
 21
23473.9892177867
 31
0.0
  0
LINE
  5
4087
  8
FUTO
 10
5484.4012770386689
 20
23513.9892177867
 30
0.0
 11
5484.4012770386689
 21
23473.9892177867
 31
0.0
  0
LINE
  5
4088
  8
FUTO
 10
5514.401277038668
 20
23473.9892177867
 30
0.0
 11
5484.4012770386689
 21
23473.9892177867
 31
0.0
  0
LINE
  5
4089
  8
FUTO
 10
5484.4012770386689
 20
23513.9892177867
 30
0.0
 11
5514.401277038668
 21
23513.9892177867
 31
0.0
  0
LINE
  5
408A
  8
FUTO
 10
5588.8557450386688
 20
23476.399373786699
 30
0.0
 11
5576.7557690386666
 21
23476.399373786699
 31
0.0
  0
LINE
  5
408B
  8
FUTO
 10
5588.8557450386688
 20
23511.579060786698
 30
0.0
 11
5576.7557690386666
 21
23511.579060786698
 31
0.0
  0
LINE
  5
408C
  8
FUTO
 10
5588.8557450386688
 20
23484.284139786709
 30
0.0
 11
5576.7557690386666
 21
23484.284139786709
 31
0.0
  0
LINE
  5
408D
  8
FUTO
 10
5588.8557450386688
 20
23503.69429578671
 30
0.0
 11
5576.7557690386666
 21
23503.69429578671
 31
0.0
  0
LINE
  5
408E
  8
FUTO
 10
5590.4557200386689
 20
23477.998982786699
 30
0.0
 11
5590.4557200386689
 21
23509.978475786709
 31
0.0
  0
LINE
  5
408F
  8
FUTO
 10
5588.8557450386688
 20
23511.579060786698
 30
0.0
 11
5590.4557200386689
 21
23509.978475786709
 31
0.0
  0
LINE
  5
4090
  8
FUTO
 10
5588.8557450386688
 20
23503.69429578671
 30
0.0
 11
5590.4557200386689
 21
23505.293904786711
 31
0.0
  0
LINE
  5
4091
  8
FUTO
 10
5588.8557450386688
 20
23503.69429578671
 30
0.0
 11
5590.4557200386689
 21
23502.093709786699
 31
0.0
  0
LINE
  5
4092
  8
FUTO
 10
5590.4557200386689
 20
23477.998982786699
 30
0.0
 11
5588.8557450386688
 21
23476.399373786699
 31
0.0
  0
LINE
  5
4093
  8
FUTO
 10
5588.8557450386688
 20
23484.284139786709
 30
0.0
 11
5590.4557200386689
 21
23482.683553786701
 31
0.0
  0
LINE
  5
4094
  8
FUTO
 10
5588.8557450386688
 20
23484.284139786709
 30
0.0
 11
5590.4557200386689
 21
23485.883748786699
 31
0.0
  0
LINE
  5
4095
  8
FUTO
 10
5576.7557690386666
 20
23476.399373786699
 30
0.0
 11
5576.7557690386666
 21
23511.579060786698
 31
0.0
  0
LINE
  5
4096
  8
FUTO
 10
5576.7557690386666
 20
23502.9892177867
 30
0.0
 11
5514.401277038668
 21
23502.9892177867
 31
0.0
  0
LINE
  5
4097
  8
HOSO
 10
5514.401277038668
 20
23500.9892177867
 30
0.0
 11
5576.7558300386709
 21
23500.9892177867
 31
0.0
  0
LINE
  5
4098
  8
HOSO
 10
5576.7557690386666
 20
23486.9892177867
 30
0.0
 11
5514.401277038668
 21
23486.9892177867
 31
0.0
  0
LINE
  5
4099
  8
FUTO
 10
5514.401277038668
 20
23484.9892177867
 30
0.0
 11
5576.7558300386709
 21
23484.9892177867
 31
0.0
  0
LINE
  5
409A
  8
FUTO
 10
5489.4012770386689
 20
23556.989217786711
 30
0.0
 11
5489.4012770386689
 21
23513.9892177867
 31
0.0
  0
LINE
  5
409B
  8
FUTO
 10
5486.4012770386698
 20
23553.9892177867
 30
0.0
 11
5486.4012770386698
 21
23513.9892177867
 31
0.0
  0
LINE
  5
409C
  8
FUTO
 10
5481.4012770386689
 20
23548.989217786711
 30
0.0
 11
5481.4012770386689
 21
23502.9892177867
 31
0.0
  0
LINE
  5
409D
  8
FUTO
 10
5421.9013380386677
 20
23603.9892177867
 30
0.0
 11
5434.4013380386677
 21
23603.9892177867
 31
0.0
  0
LINE
  5
409E
  8
FUTO
 10
5432.9013380386677
 20
23548.989217786711
 30
0.0
 11
5481.4012770386689
 21
23548.989217786711
 31
0.0
  0
LINE
  5
409F
  8
FUTO
 10
5432.9013380386677
 20
23552.1142177867
 30
0.0
 11
5439.4013380386677
 21
23552.1142177867
 31
0.0
  0
LINE
  5
40A0
  8
FUTO
 10
5439.4013380386677
 20
23598.9892177867
 30
0.0
 11
5439.4013380386677
 21
23552.1142177867
 31
0.0
  0
LINE
  5
40A1
  8
FUTO
 10
5439.4013380386677
 20
23553.9892177867
 30
0.0
 11
5486.4012770386698
 21
23553.9892177867
 31
0.0
  0
LINE
  5
40A2
  8
FUTO
 10
5439.4013380386677
 20
23556.989217786711
 30
0.0
 11
5489.4012770386689
 21
23556.989217786711
 31
0.0
  0
ARC
  5
40A3
  8
FUTO
 10
5434.4013380386677
 20
23598.9892177867
 30
0.0
 40
5.0
 50
0.0
 51
89.999999999999986
  0
LINE
  5
40A4
  8
FUTO
 10
5481.4012770386689
 20
23548.989217786711
 30
0.0
 11
5486.4012770386698
 21
23553.9892177867
 31
0.0
  0
LINE
  5
40A5
  8
FUTO
 10
5419.0826832570956
 20
23145.8642177867
 30
0.0
 11
5439.4013380386677
 21
23145.8642177867
 31
0.0
  0
LINE
  5
40A6
  8
FUTO
 10
5481.4012770386689
 20
23212.9892177867
 30
0.0
 11
5481.4012770386689
 21
23484.9892177867
 31
0.0
  0
LINE
  5
40A7
  8
FUTO
 10
5481.4012770386689
 20
23148.989217786711
 30
0.0
 11
5486.4012770386698
 21
23143.9892177867
 31
0.0
  0
LINE
  5
40A8
  8
FUTO
 10
5481.4012770386689
 20
23148.989217786711
 30
0.0
 11
5481.4012770386689
 21
23194.989217786711
 31
0.0
  0
LINE
  5
40A9
  8
FUTO
 10
5419.1918116069501
 20
23148.989217786711
 30
0.0
 11
5481.4012770386689
 21
23148.989217786711
 31
0.0
  0
ARC
  5
40AA
  8
FUTO
 10
5434.4013380386677
 20
23098.9892177867
 30
0.0
 40
5.0
 50
270.0
 51
0.0
  0
LINE
  5
40AB
  8
FUTO
 10
5439.4013380386677
 20
23140.9892177867
 30
0.0
 11
5489.4012770386689
 21
23140.9892177867
 31
0.0
  0
LINE
  5
40AC
  8
FUTO
 10
5439.4013380386677
 20
23143.9892177867
 30
0.0
 11
5486.4012770386698
 21
23143.9892177867
 31
0.0
  0
LINE
  5
40AD
  8
FUTO
 10
5387.0929730341923
 20
23093.989217786711
 30
0.0
 11
5434.4013380386677
 21
23093.989217786711
 31
0.0
  0
LINE
  5
40AE
  8
FUTO
 10
5439.4013380386677
 20
23098.9892177867
 30
0.0
 11
5439.4013380386677
 21
23145.8642177867
 31
0.0
  0
LINE
  5
40AF
  8
FUTO
 10
5486.4012770386698
 20
23223.9892177867
 30
0.0
 11
5486.4012770386698
 21
23473.9892177867
 31
0.0
  0
LINE
  5
40B0
  8
FUTO
 10
5489.4012770386689
 20
23223.9892177867
 30
0.0
 11
5489.4012770386689
 21
23473.9892177867
 31
0.0
  0
LINE
  5
40B1
  8
FUTO
 10
5486.4012770386698
 20
23143.9892177867
 30
0.0
 11
5486.4012770386698
 21
23183.9892177867
 31
0.0
  0
LINE
  5
40B2
  8
FUTO
 10
5489.4012770386689
 20
23140.9892177867
 30
0.0
 11
5489.4012770386689
 21
23183.9892177867
 31
0.0
  0
LINE
  5
40B3
  8
HOSO
 10
5484.4012770386689
 20
23210.9892177867
 30
0.0
 11
5432.9013380386677
 21
23210.9892177867
 31
0.0
  0
LINE
  5
40B4
  8
FUTO
 10
5432.9013380386677
 20
23212.9892177867
 30
0.0
 11
5484.4012770386689
 21
23212.9892177867
 31
0.0
  0
LINE
  5
40B5
  8
HOSO
 10
5432.9013380386677
 20
23196.9892177867
 30
0.0
 11
5484.4012770386689
 21
23196.9892177867
 31
0.0
  0
LINE
  5
40B6
  8
FUTO
 10
5484.4012770386689
 20
23194.989217786711
 30
0.0
 11
5432.9013380386677
 21
23194.989217786711
 31
0.0
  0
LINE
  5
40B7
  8
FUTO
 10
5514.401277038668
 20
23212.9892177867
 30
0.0
 11
5576.7558300386709
 21
23212.9892177867
 31
0.0
  0
LINE
  5
40B8
  8
HOSO
 10
5576.7557690386666
 20
23210.9892177867
 30
0.0
 11
5514.401277038668
 21
23210.9892177867
 31
0.0
  0
LINE
  5
40B9
  8
HOSO
 10
5514.401277038668
 20
23196.9892177867
 30
0.0
 11
5576.7558300386709
 21
23196.9892177867
 31
0.0
  0
LINE
  5
40BA
  8
FUTO
 10
5576.7557690386666
 20
23194.989217786711
 30
0.0
 11
5514.401277038668
 21
23194.989217786711
 31
0.0
  0
LINE
  5
40BB
  8
FUTO
 10
5576.7557690386666
 20
23221.57906178671
 30
0.0
 11
5576.7557690386666
 21
23186.399374786699
 31
0.0
  0
LINE
  5
40BC
  8
FUTO
 10
5588.8557450386688
 20
23213.6942957867
 30
0.0
 11
5590.4557200386689
 21
23212.09468678671
 31
0.0
  0
LINE
  5
40BD
  8
FUTO
 10
5588.8557450386688
 20
23213.6942957867
 30
0.0
 11
5590.4557200386689
 21
23215.2948817867
 31
0.0
  0
LINE
  5
40BE
  8
FUTO
 10
5590.4557200386689
 20
23219.979452786702
 30
0.0
 11
5588.8557450386688
 21
23221.57906178671
 31
0.0
  0
LINE
  5
40BF
  8
FUTO
 10
5588.8557450386688
 20
23194.284139786709
 30
0.0
 11
5590.4557200386689
 21
23195.884725786698
 31
0.0
  0
LINE
  5
40C0
  8
FUTO
 10
5588.8557450386688
 20
23194.284139786709
 30
0.0
 11
5590.4557200386689
 21
23192.684530786701
 31
0.0
  0
LINE
  5
40C1
  8
FUTO
 10
5588.8557450386688
 20
23186.399374786699
 30
0.0
 11
5590.4557200386689
 21
23187.999959786699
 31
0.0
  0
LINE
  5
40C2
  8
FUTO
 10
5590.4557200386689
 20
23219.979452786702
 30
0.0
 11
5590.4557200386689
 21
23187.999959786699
 31
0.0
  0
LINE
  5
40C3
  8
FUTO
 10
5588.8557450386688
 20
23194.284139786709
 30
0.0
 11
5576.7557690386666
 21
23194.284139786709
 31
0.0
  0
LINE
  5
40C4
  8
FUTO
 10
5588.8557450386688
 20
23213.6942957867
 30
0.0
 11
5576.7557690386666
 21
23213.6942957867
 31
0.0
  0
LINE
  5
40C5
  8
FUTO
 10
5588.8557450386688
 20
23186.399374786699
 30
0.0
 11
5576.7557690386666
 21
23186.399374786699
 31
0.0
  0
LINE
  5
40C6
  8
FUTO
 10
5588.8557450386688
 20
23221.57906178671
 30
0.0
 11
5576.7557690386666
 21
23221.57906178671
 31
0.0
  0
LINE
  5
40C7
  8
CT
 10
5432.9013380386696
 20
23203.9892177867
 30
0.0
 11
5600.4557200386698
 21
23203.9892177867
 31
0.0
  0
LINE
  5
40C8
  8
FUTO
 10
5484.4012770386689
 20
23183.9892177867
 30
0.0
 11
5514.401277038668
 21
23183.9892177867
 31
0.0
  0
LINE
  5
40C9
  8
FUTO
 10
5514.401277038668
 20
23223.9892177867
 30
0.0
 11
5484.4012770386689
 21
23223.9892177867
 31
0.0
  0
LINE
  5
40CA
  8
FUTO
 10
5484.4012770386689
 20
23183.9892177867
 30
0.0
 11
5484.4012770386689
 21
23223.9892177867
 31
0.0
  0
LINE
  5
40CB
  8
FUTO
 10
5514.401277038668
 20
23183.9892177867
 30
0.0
 11
5514.401277038668
 21
23223.9892177867
 31
0.0
  0
ARC
  5
40CC
  8
FUTO
 10
4897.772188038668
 20
23410.989156786702
 30
0.0
 40
20.0
 50
89.999999999999986
 51
180.0
  0
ARC
  5
40CD
  8
FUTO
 10
4897.772188038668
 20
23286.9892177867
 30
0.0
 40
20.0
 50
180.0
 51
270.0
  0
ARC
  5
40CE
  8
FUTO
 10
4887.7721880386689
 20
23269.9892177867
 30
0.0
 40
10.0
 50
180.0
 51
270.0
  0
ARC
  5
40CF
  8
FUTO
 10
4887.7721880386689
 20
23427.989156786702
 30
0.0
 40
10.0
 50
89.999999999999986
 51
180.0
  0
ARC
  5
40D0
  8
FUTO
 10
4990.62891293756
 20
23269.9892177867
 30
0.0
 40
10.0
 50
270.0
 51
0.0
  0
ARC
  5
40D1
  8
FUTO
 10
4987.4617973992281
 20
23269.9892177867
 30
0.0
 40
10.0
 50
270.0
 51
0.0
  0
ARC
  5
40D2
  8
FUTO
 10
4990.62891293756
 20
23427.989156786702
 30
0.0
 40
10.0
 50
0.0
 51
89.999999999999986
  0
ARC
  5
40D3
  8
FUTO
 10
4987.4617973992281
 20
23427.989156786702
 30
0.0
 40
10.0
 50
0.0
 51
89.999999999999986
  0
LINE
  5
40D4
  8
FUTO
 10
4990.265194119771
 20
23266.989217786711
 30
0.0
 11
4897.772188038668
 21
23266.989217786711
 31
0.0
  0
LINE
  5
40D5
  8
FUTO
 10
4990.265194119771
 20
23430.989156786709
 30
0.0
 11
4897.772188038668
 21
23430.989156786709
 31
0.0
  0
ARC
  5
40D6
  8
FUTO
 10
5004.4013380386677
 20
23271.9892177867
 30
0.0
 40
5.0
 50
270.0
 51
0.0
  0
ARC
  5
40D7
  8
FUTO
 10
5004.4013380386677
 20
23425.989156786702
 30
0.0
 40
5.0
 50
0.0
 51
89.999999999999986
  0
ARC
  5
40D8
  8
FUTO
 10
4990.265194119771
 20
23271.9892177867
 30
0.0
 40
5.0
 50
270.0
 51
0.0
  0
ARC
  5
40D9
  8
FUTO
 10
4990.265194119771
 20
23425.989156786702
 30
0.0
 40
5.0
 50
0.0
 51
89.999999999999986
  0
LINE
  5
40DA
  8
FUTO
 10
4990.62891293756
 20
23259.9892177867
 30
0.0
 11
4887.7721880386689
 21
23259.9892177867
 31
0.0
  0
LINE
  5
40DB
  8
FUTO
 10
5004.4013380386677
 20
23266.989217786711
 30
0.0
 11
5000.62891293756
 21
23266.989217786711
 31
0.0
  0
LINE
  5
40DC
  8
FUTO
 10
4990.62891293756
 20
23437.989156786709
 30
0.0
 11
4887.7721880386689
 21
23437.989156786709
 31
0.0
  0
LINE
  5
40DD
  8
FUTO
 10
5004.4013380386677
 20
23430.989156786709
 30
0.0
 11
5000.62891293756
 21
23430.989156786709
 31
0.0
  0
LINE
  5
40DE
  8
FUTO
 10
5025.9013380386677
 20
23408.9892177867
 30
0.0
 11
5025.9013380386677
 21
23515.799988535739
 31
0.0
  0
LINE
  5
40DF
  8
FUTO
 10
5009.4013380386668
 20
23288.9892177867
 30
0.0
 11
5077.1277355988504
 21
23288.9892177867
 31
0.0
  0
LINE
  5
40E0
  8
FUTO
 10
5009.4013380386668
 20
23408.9892177867
 30
0.0
 11
5077.1277355988504
 21
23408.9892177867
 31
0.0
  0
LINE
  5
40E1
  8
FUTO
 10
4919.0820020386673
 20
23286.9892177867
 30
0.0
 11
4919.08200203867
 21
23410.989156786702
 31
0.0
  0
LINE
  5
40E2
  8
FUTO
 10
4995.2651941197701
 20
23271.9892177867
 30
0.0
 11
4995.2651941197701
 21
23425.989156786702
 31
0.0
  0
LINE
  5
40E3
  8
FUTO
 10
4997.4617973992281
 20
23269.9892177867
 30
0.0
 11
4997.4617973992281
 21
23427.989156786702
 31
0.0
  0
LINE
  5
40E4
  8
FUTO
 10
5000.62891293756
 20
23269.9892177867
 30
0.0
 11
5000.62891293756
 21
23427.989156786702
 31
0.0
  0
LINE
  5
40E5
  8
FUTO
 10
5009.4013380386668
 20
23271.9892177867
 30
0.0
 11
5009.4013380386668
 21
23425.989156786702
 31
0.0
  0
LINE
  5
40E6
  8
FUTO
 10
5019.4013380386677
 20
23288.9892177867
 30
0.0
 11
5019.4013380386677
 21
23408.9892177867
 31
0.0
  0
LINE
  5
40E7
  8
FUTO
 10
5077.1277355988504
 20
23288.9892177867
 30
0.0
 11
5077.1277355988504
 21
23408.9892177867
 31
0.0
  0
LINE
  5
40E8
  8
FUTO
 10
4877.7721880386689
 20
23269.9892177867
 30
0.0
 11
4877.7721880386689
 21
23427.989156786702
 31
0.0
  0
LINE
  5
40E9
  8
FUTO
 10
5223.1513380386677
 20
23325.2392177867
 30
0.0
 11
5223.1513380386677
 21
23372.7392177867
 31
0.0
  0
ARC
  5
40EA
  8
FUTO
 10
5229.4013380386677
 20
23325.2392177867
 30
0.0
 40
6.25
 50
180.0
 51
0.0
  0
ARC
  5
40EB
  8
FUTO
 10
5229.4013380386677
 20
23372.7392177867
 30
0.0
 40
6.25
 50
0.0
 51
180.0
  0
LINE
  5
40EC
  8
CT
 10
4857.7721880386689
 20
23348.989217786711
 30
0.0
 11
5509.4012770386689
 21
23348.989217786711
 31
0.0
  0
LINE
  5
40ED
  8
FUTO
 10
5235.6513380386687
 20
23325.2392177867
 30
0.0
 11
5235.6513380386677
 21
23372.7392177867
 31
0.0
  0
LINE
  5
40EE
  8
FUTO
 10
5025.9013380386696
 20
23515.799988535739
 30
0.0
 11
5027.7231150386688
 21
23517.989156786709
 31
0.0
  0
LINE
  5
40EF
  8
FUTO
 10
5025.9013380386677
 20
23182.178304786699
 30
0.0
 11
5032.4013380386677
 21
23174.367391786702
 31
0.0
  0
LINE
  5
40F0
  8
FUTO
 10
5025.9013380386677
 20
23182.178304786699
 30
0.0
 11
5025.9013380386677
 21
23288.9892177867
 31
0.0
  0
LINE
  5
40F1
  8
FUTO
 10
5432.9013380386677
 20
23182.178304786699
 30
0.0
 11
5432.9013380386696
 21
23515.799988535739
 31
0.0
  0
ARC
  5
40F2
  8
FUTO
 10
5151.4013380386677
 20
23075.4892177867
 30
0.0
 40
2.0
 50
180.0
 51
270.0
  0
ARC
  5
40F3
  8
FUTO
 10
5146.4013380386677
 20
23085.642293786699
 30
0.0
 40
2.9999599999999988
 50
0.0
 51
87.000442999965927
  0
LINE
  5
40F4
  8
FUTO
 10
5149.4013380386677
 20
23085.642293786699
 30
0.0
 11
5149.4013380386677
 21
23075.4892177867
 31
0.0
  0
ARC
  5
40F5
  8
FUTO
 10
5050.3053900386694
 20
23129.2748627867
 30
0.0
 40
9.9999679999999991
 50
181.99932899999791
 51
225.0
  0
ARC
  5
40F6
  8
FUTO
 10
5077.298554038669
 20
23102.281697786711
 30
0.0
 40
10.000024
 50
225.0
 51
267.00096100006482
  0
LINE
  5
40F7
  8
FUTO
 10
5043.2343450386688
 20
23122.2038177867
 30
0.0
 11
5070.2275100386687
 21
23095.210653786711
 31
0.0
  0
LINE
  5
40F8
  8
FUTO
 10
5039.4013380386677
 20
23154.989217786711
 30
0.0
 11
5040.3114940386686
 21
23128.9259857867
 31
0.0
  0
LINE
  5
40F9
  8
FUTO
 10
5076.7753610386681
 20
23092.295369786709
 30
0.0
 11
5165.3666700386684
 21
23087.6525477867
 31
0.0
  0
LINE
  5
40FA
  8
FUTO
 10
5067.4013380386668
 20
23164.9892177867
 30
0.0
 11
5391.4013380386677
 21
23164.9892177867
 31
0.0
  0
LINE
  5
40FB
  8
FUTO
 10
5067.4013380386668
 20
23154.989217786711
 30
0.0
 11
5067.4013380386668
 21
23159.9892177867
 31
0.0
  0
LINE
  5
40FC
  8
FUTO
 10
5067.4013380386668
 20
23159.9892177867
 30
0.0
 11
5067.4013380386668
 21
23164.9892177867
 31
0.0
  0
LINE
  5
40FD
  8
FUTO
 10
5032.4013380386677
 20
23174.367391786702
 30
0.0
 11
5067.4013380386668
 21
23164.9892177867
 31
0.0
  0
ARC
  5
40FE
  8
FUTO
 10
5045.9013380386668
 20
23564.462545786711
 30
0.0
 40
20.0
 50
159.99995399999131
 51
180.0
  0
ARC
  5
40FF
  8
FUTO
 10
5016.9013380386677
 20
23601.737935786699
 30
0.0
 40
20.0
 50
340.0002749999968
 51
0.0
  0
LINE
  5
4100
  8
FUTO
 10
5081.7524120386697
 20
23546.489156786709
 30
0.0
 11
5077.9994820386673
 21
23552.989156786709
 31
0.0
  0
LINE
  5
4101
  8
FUTO
 10
5077.9994820386673
 20
23552.989156786709
 30
0.0
 11
5081.7524120386697
 21
23559.489156786702
 31
0.0
  0
LINE
  5
4102
  8
FUTO
 10
5027.1073920386689
 20
23571.302999786702
 30
0.0
 11
5035.695283038669
 21
23594.8976037867
 31
0.0
  0
LINE
  5
4103
  8
FUTO
 10
5025.9013380386677
 20
23517.989156786709
 30
0.0
 11
5025.9013380386677
 21
23564.462545786711
 31
0.0
  0
LINE
  5
4104
  8
FUTO
 10
5093.0107130386677
 20
23552.989156786709
 30
0.0
 11
5089.257783038669
 21
23559.489156786702
 31
0.0
  0
LINE
  5
4105
  8
FUTO
 10
5089.257783038669
 20
23546.489156786709
 30
0.0
 11
5093.0107130386677
 21
23552.989156786709
 31
0.0
  0
LINE
  5
4106
  8
CT
 10
5085.5050970386692
 20
23545.547017786699
 30
0.0
 11
5085.5050970386692
 21
23560.003072786702
 31
0.0
  0
LINE
  5
4107
  8
CT
 10
5093.8957220386692
 20
23552.989156786709
 30
0.0
 11
5077.074189038668
 21
23552.989156786709
 31
0.0
  0
LINE
  5
4108
  8
FUTO
 10
5089.257783038669
 20
23559.489156786702
 30
0.0
 11
5081.7524120386697
 21
23559.489156786702
 31
0.0
  0
LINE
  5
4109
  8
FUTO
 10
5089.257783038669
 20
23546.489156786709
 30
0.0
 11
5081.7524120386697
 21
23546.489156786709
 31
0.0
  0
CIRCLE
  5
410A
  8
FUTO
 10
5085.5050970386692
 20
23552.989156786709
 30
0.0
 40
6.5
  0
ARC
  5
410B
  8
FUTO
 10
5051.9013380386677
 20
23662.6782437867
 30
0.0
 40
15.0
 50
150.0001830000181
 51
180.0
  0
ARC
  5
410C
  8
FUTO
 10
5072.2880560386693
 20
23717.989156786709
 30
0.0
 40
4.9999580000000003
 50
89.999999999999986
 51
149.9997180000272
  0
LINE
  5
410D
  8
FUTO
 10
5067.9579780386694
 20
23720.489156786709
 30
0.0
 11
5038.9108590386677
 21
23670.1782437867
 31
0.0
  0
LINE
  5
410E
  8
FUTO
 10
5036.9013380386668
 20
23601.737935786699
 30
0.0
 11
5036.9013380386668
 21
23662.6782437867
 31
0.0
  0
LINE
  5
410F
  8
FUTO
 10
5421.9013380386677
 20
23601.737935786699
 30
0.0
 11
5421.9013380386677
 21
23662.6782437867
 31
0.0
  0
LINE
  5
4110
  8
CT
 10
5229.4013380386677
 20
22903.4892177867
 30
0.0
 11
5229.4013380386677
 21
23742.9892177867
 31
0.0
  0
LINE
  5
4111
  8
FUTO
 10
5387.0513020386679
 20
23722.9892177867
 30
0.0
 11
5072.2609880386699
 21
23722.9892177867
 31
0.0
  0
LINE
  5
4112
  8
FUTO
 10
5036.9013380386668
 20
23663.889180786711
 30
0.0
 11
5421.8522660386689
 21
23663.889180786711
 31
0.0
  0
LINE
  5
4113
  8
FUTO
 10
5390.8446980386689
 20
23720.489156786709
 30
0.0
 11
5419.8918170386669
 21
23670.1782437867
 31
0.0
  0
ARC
  5
4114
  8
FUTO
 10
5386.5146200386698
 20
23717.989156786709
 30
0.0
 40
4.9999580000000003
 50
30.000281999972749
 51
89.999999999999986
  0
ARC
  5
4115
  8
FUTO
 10
5406.9013380386677
 20
23662.6782437867
 30
0.0
 40
15.0
 50
0.0
 51
29.9998169999818
  0
LINE
  5
4116
  8
FUTO
 10
5151.4013380386677
 20
23073.4892177867
 30
0.0
 11
5229.4013380386677
 21
23073.4892177867
 31
0.0
  0
LINE
  5
4117
  8
FUTO
 10
5039.4013380386677
 20
23154.989217786711
 30
0.0
 11
5229.4013380386677
 21
23154.989217786711
 31
0.0
  0
LINE
  5
4118
  8
FUTO
 10
5067.4013380386668
 20
23159.9892177867
 30
0.0
 11
5229.4013380386677
 21
23159.9892177867
 31
0.0
  0
LINE
  5
4119
  8
FUTO
 10
5422.2187210386692
 20
23598.1891077867
 30
0.0
 11
5036.9013380386668
 21
23598.1891077867
 31
0.0
  0
LINE
  5
411A
  8
FUTO
 10
5432.5878620386684
 20
23567.989156786709
 30
0.0
 11
5026.2147178397963
 21
23567.989156786709
 31
0.0
  0
LINE
  5
411B
  8
FUTO
 10
5432.9013380386677
 20
23517.989156786709
 30
0.0
 11
5027.7231150386688
 21
23517.989156786709
 31
0.0
  0
LINE
  5
411C
  8
FUTO
 10
5067.4013380386668
 20
23159.9892177867
 30
0.0
 11
5229.4013380386677
 21
23159.9892177867
 31
0.0
  0
CIRCLE
  5
411D
  8
FUTO
 10
5373.2975790386699
 20
23552.989156786709
 30
0.0
 40
6.5
  0
LINE
  5
411E
  8
FUTO
 10
5369.5448930386683
 20
23546.489156786709
 30
0.0
 11
5377.0502640386694
 21
23546.489156786709
 31
0.0
  0
LINE
  5
411F
  8
FUTO
 10
5369.5448930386683
 20
23559.489156786702
 30
0.0
 11
5377.0502640386694
 21
23559.489156786702
 31
0.0
  0
LINE
  5
4120
  8
CT
 10
5364.906954038669
 20
23552.989156786709
 30
0.0
 11
5381.7284870386684
 21
23552.989156786709
 31
0.0
  0
LINE
  5
4121
  8
CT
 10
5373.2975790386699
 20
23545.547017786699
 30
0.0
 11
5373.2975790386699
 21
23560.003072786702
 31
0.0
  0
LINE
  5
4122
  8
FUTO
 10
5369.5448930386683
 20
23546.489156786709
 30
0.0
 11
5365.7919630386677
 21
23552.989156786709
 31
0.0
  0
LINE
  5
4123
  8
FUTO
 10
5365.7919630386677
 20
23552.989156786709
 30
0.0
 11
5369.5448930386683
 21
23559.489156786702
 31
0.0
  0
LINE
  5
4124
  8
FUTO
 10
5432.9013380386677
 20
23517.989156786709
 30
0.0
 11
5432.9013380386677
 21
23564.462545786711
 31
0.0
  0
LINE
  5
4125
  8
FUTO
 10
5431.6952840386703
 20
23571.302999786702
 30
0.0
 11
5423.1073930386692
 21
23594.8976037867
 31
0.0
  0
LINE
  5
4126
  8
FUTO
 10
5380.8031940386682
 20
23552.989156786709
 30
0.0
 11
5377.0502640386694
 21
23559.489156786702
 31
0.0
  0
LINE
  5
4127
  8
FUTO
 10
5377.0502640386694
 20
23546.489156786709
 30
0.0
 11
5380.8031940386682
 21
23552.989156786709
 31
0.0
  0
ARC
  5
4128
  8
FUTO
 10
5441.9013380386677
 20
23601.737935786699
 30
0.0
 40
20.0
 50
180.0
 51
199.99972500000311
  0
ARC
  5
4129
  8
FUTO
 10
5412.9013380386677
 20
23564.462545786711
 30
0.0
 40
20.0
 50
0.0
 51
20.000046000008592
  0
LINE
  5
412A
  8
FUTO
 10
5432.9013380386677
 20
23515.799988535739
 30
0.0
 11
5431.0795610386676
 21
23517.989156786709
 31
0.0
  0
LINE
  5
412B
  8
FUTO
 10
5391.4013380386677
 20
23159.9892177867
 30
0.0
 11
5229.4013380386677
 21
23159.9892177867
 31
0.0
  0
LINE
  5
412C
  8
FUTO
 10
5382.0273150386674
 20
23092.295369786709
 30
0.0
 11
5293.436006038668
 21
23087.6525477867
 31
0.0
  0
LINE
  5
412D
  8
FUTO
 10
5419.4013380386668
 20
23154.989217786711
 30
0.0
 11
5229.4013380386677
 21
23154.989217786711
 31
0.0
  0
LINE
  5
412E
  8
FUTO
 10
5391.4013380386677
 20
23159.9892177867
 30
0.0
 11
5229.4013380386677
 21
23159.9892177867
 31
0.0
  0
LINE
  5
412F
  8
FUTO
 10
5199.4013380386677
 20
23063.489217786711
 30
0.0
 11
5199.4013380386677
 21
22923.4892177867
 31
0.0
  0
LINE
  5
4130
  8
FUTO
 10
5259.4013380386668
 20
23063.489217786711
 30
0.0
 11
5259.4013380386668
 21
22923.4892177867
 31
0.0
  0
LINE
  5
4131
  8
FUTO
 10
5307.4013380386677
 20
23073.4892177867
 30
0.0
 11
5229.4013380386677
 21
23073.4892177867
 31
0.0
  0
LINE
  5
4132
  8
FUTO
 10
5196.9013380386668
 20
23063.489217786711
 30
0.0
 11
5261.9013380386677
 21
23063.489217786711
 31
0.0
  0
LINE
  5
4133
  8
FUTO
 10
5196.9013380386668
 20
23063.489217786711
 30
0.0
 11
5196.9013380386668
 21
23073.4892177867
 31
0.0
  0
LINE
  5
4134
  8
FUTO
 10
5261.9013380386677
 20
23063.489217786711
 30
0.0
 11
5261.9013380386677
 21
23073.4892177867
 31
0.0
  0
LINE
  5
4135
  8
FUTO
 10
5309.4013380386677
 20
23085.642293786699
 30
0.0
 11
5309.4013380386677
 21
23075.4892177867
 31
0.0
  0
ARC
  5
4136
  8
FUTO
 10
5312.4013380386677
 20
23085.642293786699
 30
0.0
 40
2.9999599999999988
 50
92.999557000034059
 51
180.0
  0
ARC
  5
4137
  8
FUTO
 10
5307.4013380386677
 20
23075.4892177867
 30
0.0
 40
2.0
 50
270.0
 51
0.0
  0
LINE
  5
4138
  8
FUTO
 10
5259.4013380386668
 20
22923.4892177867
 30
0.0
 11
5199.4013380386677
 21
22923.4892177867
 31
0.0
  0
LINE
  5
4139
  8
FUTO
 10
5432.9013380386677
 20
23182.178304786699
 30
0.0
 11
5426.4013380386677
 21
23174.367391786702
 31
0.0
  0
LINE
  5
413A
  8
FUTO
 10
5419.4013380386668
 20
23154.989217786711
 30
0.0
 11
5418.4911820386687
 21
23128.9259857867
 31
0.0
  0
LINE
  5
413B
  8
FUTO
 10
5426.4013380386677
 20
23174.367391786702
 30
0.0
 11
5391.4013380386677
 21
23164.9892177867
 31
0.0
  0
LINE
  5
413C
  8
FUTO
 10
5391.4013380386677
 20
23159.9892177867
 30
0.0
 11
5391.4013380386677
 21
23164.9892177867
 31
0.0
  0
LINE
  5
413D
  8
FUTO
 10
5391.4013380386677
 20
23154.989217786711
 30
0.0
 11
5391.4013380386677
 21
23159.9892177867
 31
0.0
  0
LINE
  5
413E
  8
FUTO
 10
5415.5683310386676
 20
23122.2038177867
 30
0.0
 11
5388.5751660386686
 21
23095.210653786711
 31
0.0
  0
ARC
  5
413F
  8
FUTO
 10
5381.5041220386684
 20
23102.281697786711
 30
0.0
 40
10.000024
 50
272.99903899993512
 51
315.0
  0
ARC
  5
4140
  8
FUTO
 10
5408.4972860386697
 20
23129.2748627867
 30
0.0
 40
9.9999679999999991
 50
315.0
 51
358.00067100000211
  0
LINE
  5
4142
  8
KL
 10
9203.4195585002635
 20
19624.789081065072
 30
0.0
 11
9218.0989894245722
 21
19624.789081065072
 31
0.0
  0
LINE
  5
4143
  8
KL
 10
9206.0990504245747
 20
19604.789081065072
 30
0.0
 11
9241.0990504245747
 21
19604.789081065072
 31
0.0
  0
LINE
  5
4144
  8
KL
 10
8878.7785423488858
 20
19624.789081065072
 30
0.0
 11
8864.0990504245765
 21
19624.789081065072
 31
0.0
  0
LINE
  5
4145
  8
KL
 10
8876.0990504245765
 20
19604.789081065072
 30
0.0
 11
8841.0990504245747
 21
19604.789081065072
 31
0.0
  0
LINE
  5
4147
  8
KL
 10
8941.0990504245747
 20
19599.789081065072
 30
0.0
 11
8941.0990504245747
 21
19604.789081065072
 31
0.0
  0
LINE
  5
4148
  8
KL
 10
9141.0990504245747
 20
19604.789081065072
 30
0.0
 11
9141.0990504245747
 21
19599.789081065072
 31
0.0
  0
LINE
  5
4153
  8
KL
 10
8896.0990504245747
 20
19633.264667065068
 30
0.0
 11
8880.0990504245747
 21
19624.02736306507
 31
0.0
  0
LINE
  5
4154
  8
KL
 10
8912.0990504245765
 20
19624.02736306507
 30
0.0
 11
8896.0990504245747
 21
19633.264667065068
 31
0.0
  0
LINE
  5
4155
  8
KL
 10
8896.0990504245747
 20
19596.314472065071
 30
0.0
 11
8880.0990504245747
 21
19605.551777065069
 31
0.0
  0
LINE
  5
4156
  8
KL
 10
8912.0990504245765
 20
19605.551777065069
 30
0.0
 11
8896.0990504245747
 21
19596.314472065071
 31
0.0
  0
LINE
  5
4157
  8
CT
 10
8866.0990504245747
 20
19614.789081065072
 30
0.0
 11
8926.0990504245747
 21
19614.789081065072
 31
0.0
  0
CIRCLE
  5
4158
  8
CT
 10
8896.0990504245747
 20
19614.789081065072
 30
0.0
 40
16.0
  0
LINE
  5
4159
  8
KL
 10
8912.0990504245765
 20
19605.551777065069
 30
0.0
 11
8912.0990504245765
 21
19624.02736306507
 31
0.0
  0
LINE
  5
415A
  8
KL
 10
8880.0990504245747
 20
19605.551777065069
 30
0.0
 11
8880.0990504245747
 21
19624.02736306507
 31
0.0
  0
ARC
  5
415B
  8
KL
 10
8896.0990504245747
 20
19614.789081065072
 30
0.0
 40
20.0
 50
0.000000000000007
 51
180.0
  0
ARC
  5
415C
  8
KL
 10
8789.0990504245747
 20
19571.789081065072
 30
0.0
 40
3.0
 50
90.0
 51
180.0
  0
LINE
  5
415D
  8
KL
 10
8837.9740504245747
 20
19574.789081065072
 30
0.0
 11
8789.0990504245747
 21
19574.789081065072
 31
0.0
  0
LINE
  5
415E
  8
KL
 10
8843.0990504245747
 20
19544.789081065072
 30
0.0
 11
8843.0990504245747
 21
19549.789081065072
 31
0.0
  0
LINE
  5
415F
  8
KL
 10
8833.0990504245747
 20
19556.789081065072
 30
0.0
 11
8833.0990504245747
 21
19549.789081065072
 31
0.0
  0
LINE
  5
4160
  8
FUTO
 10
8843.0990504245747
 20
19544.789081065072
 30
0.0
 11
8786.0990504245747
 21
19544.789081065072
 31
0.0
  0
LINE
  5
4161
  8
KL
 10
8786.0990504245747
 20
19544.789081065072
 30
0.0
 11
8786.0990504245747
 21
19571.789081065072
 31
0.0
  0
LINE
  5
4162
  8
CT
 10
8811.0990504245747
 20
19594.789081065072
 30
0.0
 11
8811.0990504245747
 21
19524.789081065072
 31
0.0
  0
LINE
  5
4163
  8
KL
 10
8833.0990504245747
 20
19556.789081065072
 30
0.0
 11
8876.0990504245765
 21
19556.789081065072
 31
0.0
  0
LINE
  5
4164
  8
KL
 10
8841.0990504245747
 20
19604.789081065072
 30
0.0
 11
8836.0990504245747
 21
19556.789081065072
 31
0.0
  0
LINE
  5
4165
  8
KL
 10
8916.0990504245747
 20
19614.789081065072
 30
0.0
 11
8916.0990504245747
 21
19549.789081065072
 31
0.0
  0
LINE
  5
4166
  8
KL
 10
8876.0990504245765
 20
19549.789081065072
 30
0.0
 11
8876.0990504245765
 21
19614.789081065072
 31
0.0
  0
LINE
  5
4167
  8
CT
 10
8896.0990504245747
 20
19539.789081065072
 30
0.0
 11
8896.0990504245747
 21
19644.789081065072
 31
0.0
  0
LINE
  5
4168
  8
KL
 10
9170.0990504245747
 20
19624.02736306507
 30
0.0
 11
9186.0990504245747
 21
19633.264667065068
 31
0.0
  0
LINE
  5
4169
  8
KL
 10
9170.0990504245747
 20
19605.551777065069
 30
0.0
 11
9186.0990504245747
 21
19596.314472065071
 31
0.0
  0
LINE
  5
416A
  8
KL
 10
9170.0990504245747
 20
19605.551777065069
 30
0.0
 11
9170.0990504245747
 21
19624.02736306507
 31
0.0
  0
LINE
  5
416B
  8
KL
 10
9202.0990504245747
 20
19605.551777065069
 30
0.0
 11
9202.0990504245747
 21
19624.02736306507
 31
0.0
  0
CIRCLE
  5
416C
  8
KL
 10
9186.0990504245747
 20
19614.789081065072
 30
0.0
 40
16.0
  0
LINE
  5
416D
  8
KL
 10
9186.0990504245747
 20
19633.264667065068
 30
0.0
 11
9202.0990504245747
 21
19624.02736306507
 31
0.0
  0
LINE
  5
416E
  8
KL
 10
9186.0990504245747
 20
19596.314472065071
 30
0.0
 11
9202.0990504245747
 21
19605.551777065069
 31
0.0
  0
ARC
  5
416F
  8
KL
 10
9186.0990504245747
 20
19614.789081065072
 30
0.0
 40
20.0
 50
0.000000000000007
 51
180.0
  0
LINE
  5
4170
  8
CT
 10
9216.0990504245747
 20
19614.789081065072
 30
0.0
 11
9156.0990504245747
 21
19614.789081065072
 31
0.0
  0
LINE
  5
4171
  8
KL
 10
8941.0990504245747
 20
19599.789081065072
 30
0.0
 11
9141.0990504245747
 21
19599.789081065072
 31
0.0
  0
LINE
  5
4172
  8
KL
 10
9239.0990504245765
 20
19544.789081065072
 30
0.0
 11
9239.0990504245765
 21
19549.789081065072
 31
0.0
  0
LINE
  5
4173
  8
KL
 10
9249.0990504245747
 20
19556.789081065072
 30
0.0
 11
9249.0990504245747
 21
19549.789081065072
 31
0.0
  0
LINE
  5
4174
  8
KL
 10
9249.0990504245747
 20
19556.789081065072
 30
0.0
 11
9206.0990504245747
 21
19556.789081065072
 31
0.0
  0
LINE
  5
4175
  8
CT
 10
9271.0990504245747
 20
19594.789081065072
 30
0.0
 11
9271.0990504245747
 21
19524.789081065072
 31
0.0
  0
ARC
  5
4176
  8
KL
 10
9293.0990504245747
 20
19571.789081065072
 30
0.0
 40
3.0
 50
0.000000000000007
 51
90.0
  0
LINE
  5
4177
  8
KL
 10
9296.0990504245747
 20
19544.789081065072
 30
0.0
 11
9296.0990504245747
 21
19571.789081065072
 31
0.0
  0
LINE
  5
4178
  8
KL
 10
9244.2240504245747
 20
19574.789081065072
 30
0.0
 11
9293.0990504245747
 21
19574.789081065072
 31
0.0
  0
LINE
  5
4179
  8
KL
 10
9239.0990504245765
 20
19544.789081065072
 30
0.0
 11
9296.0990504245747
 21
19544.789081065072
 31
0.0
  0
LINE
  5
417A
  8
KL
 10
9241.0990504245747
 20
19604.789081065072
 30
0.0
 11
9246.0990504245729
 21
19556.789081065072
 31
0.0
  0
LINE
  5
417B
  8
KL
 10
9166.0990504245747
 20
19614.789081065072
 30
0.0
 11
9166.0990504245747
 21
19549.789081065072
 31
0.0
  0
LINE
  5
417C
  8
KL
 10
9206.0990504245747
 20
19549.789081065072
 30
0.0
 11
9206.0990504245747
 21
19614.789081065072
 31
0.0
  0
LINE
  5
417D
  8
CT
 10
9186.0990504245747
 20
19539.789081065072
 30
0.0
 11
9186.0990504245747
 21
19644.789081065072
 31
0.0
  0
LINE
  5
41CF
  8
KL
 10
8916.0990504245747
 20
19556.789081065072
 30
0.0
 11
9166.0990504245747
 21
19556.789081065072
 31
0.0
  0
LINE
  5
41D0
  8
KL
 10
8833.0990504245747
 20
19549.789081065072
 30
0.0
 11
9249.0990504245747
 21
19549.789081065072
 31
0.0
  0
LINE
  5
41D1
  8
KL
 10
8857.0990504245747
 20
19966.789081065072
 30
0.0
 11
8857.0990504245747
 21
19929.789081065072
 31
0.0
  0
ARC
  5
41D2
  8
FUTO
 10
8821.3846954245746
 20
19983.88502906507
 30
0.0
 40
9.9999679999999991
 50
91.999328999997914
 51
135.0
  0
ARC
  5
41D3
  8
FUTO
 10
8794.3915304245747
 20
19956.89186506507
 30
0.0
 40
10.000024
 50
135.0
 51
177.00096100006479
  0
LINE
  5
41D4
  8
FUTO
 10
8814.313650424574
 20
19990.95607406507
 30
0.0
 11
8787.3204864245745
 21
19963.962909065071
 31
0.0
  0
LINE
  5
41D5
  8
KL
 10
8847.0990504245747
 20
19966.789081065072
 30
0.0
 11
8852.0990504245747
 21
19966.789081065072
 31
0.0
  0
LINE
  5
41D6
  8
KL
 10
8852.0990504245747
 20
19966.789081065072
 30
0.0
 11
8857.0990504245747
 21
19966.789081065072
 31
0.0
  0
LINE
  5
41D7
  8
KL
 10
8866.4772244245742
 20
20001.789081065072
 30
0.0
 11
8857.0990504245747
 21
19966.789081065072
 31
0.0
  0
LINE
  5
41D8
  8
KL
 10
8847.0990504245747
 20
19994.789081065072
 30
0.0
 11
8821.0358184245742
 21
19993.87892506507
 31
0.0
  0
LINE
  5
41DA
  8
KL
 10
8882.0990504245747
 20
20014.789081065072
 30
0.0
 11
8866.4772244245742
 21
20001.789081065072
 31
0.0
  0
LINE
  5
41DB
  8
FUTO
 10
8615.5990504245765
 20
19838.789081065072
 30
0.0
 11
8615.5990504245765
 21
19774.789081065072
 31
0.0
  0
ARC
  5
41DC
  8
FUTO
 10
8767.5990504245747
 20
19882.789081065072
 30
0.0
 40
2.0
 50
90.0
 51
180.0
  0
ARC
  5
41EB
  8
KL
 10
8867.0990504245765
 20
19929.789081065072
 30
0.0
 40
10.0
 50
90.0
 51
180.0
  0
ARC
  5
41EE
  8
FUTO
 10
8777.7521264245734
 20
19887.789081065072
 30
0.0
 40
2.9999599999999988
 50
270.0
 51
357.00044299996591
  0
LINE
  5
41EF
  8
FUTO
 10
8777.7521264245734
 20
19884.789081065072
 30
0.0
 11
8767.5990504245747
 21
19884.789081065072
 31
0.0
  0
LINE
  5
41F0
  8
FUTO
 10
8725.5990504245747
 20
19838.789081065072
 30
0.0
 11
8725.5990504245747
 21
19834.789081065072
 31
0.0
  0
LINE
  5
41F1
  8
FUTO
 10
8755.5990504245747
 20
19837.289081065072
 30
0.0
 11
8765.5990504245747
 21
19837.289081065072
 31
0.0
  0
LINE
  5
41F2
  8
FUTO
 10
8755.5990504245747
 20
19772.289081065072
 30
0.0
 11
8765.5990504245747
 21
19772.289081065072
 31
0.0
  0
LINE
  5
41F3
  8
FUTO
 10
8755.5990504245747
 20
19772.289081065072
 30
0.0
 11
8755.5990504245747
 21
19837.289081065072
 31
0.0
  0
ARC
  5
41F4
  8
KL
 10
8867.0990504245765
 20
19829.789081065072
 30
0.0
 40
10.0
 50
180.0
 51
270.0
  0
LINE
  5
41F5
  8
FUTO
 10
8765.5990504245747
 20
19882.789081065072
 30
0.0
 11
8765.5990504245747
 21
19804.789081065072
 31
0.0
  0
LINE
  5
41F6
  8
KL
 10
8857.0990504245747
 20
19829.789081065072
 30
0.0
 11
8857.0990504245747
 21
19929.789081065072
 31
0.0
  0
LINE
  5
41F7
  8
FUTO
 10
8755.5990504245747
 20
19834.789081065072
 30
0.0
 11
8615.5990504245765
 21
19834.789081065072
 31
0.0
  0
LINE
  5
41F8
  8
FUTO
 10
8755.5990504245747
 20
19774.789081065072
 30
0.0
 11
8615.5990504245765
 21
19774.789081065072
 31
0.0
  0
LINE
  5
41F9
  8
FUTO
 10
8725.5990504245747
 20
19838.789081065072
 30
0.0
 11
8615.5990504245765
 21
19838.789081065072
 31
0.0
  0
LINE
  5
41FA
  8
KL
 10
8852.0990504245747
 20
19966.789081065072
 30
0.0
 11
8852.0990504245747
 21
19804.789081065072
 31
0.0
  0
LINE
  5
41FB
  8
KL
 10
8847.0990504245747
 20
19994.789081065072
 30
0.0
 11
8847.0990504245747
 21
19804.789081065072
 31
0.0
  0
LINE
  5
41FC
  8
FUTO
 10
8784.4052024245757
 20
19957.415058065071
 30
0.0
 11
8779.7623804245759
 21
19868.823749065072
 31
0.0
  0
LINE
  5
41FE
  8
KL
 10
8852.0990504245747
 20
19966.789081065072
 30
0.0
 11
8852.0990504245747
 21
19804.789081065072
 31
0.0
  0
ARC
  5
41FF
  8
KL
 10
9029.8640654245755
 20
20023.068195065069
 30
0.0
 40
2.9999909999999992
 50
96.115172999988943
 51
174.80557100002201
  0
LINE
  5
4200
  8
KL
 10
9026.8763944245748
 20
20023.339802065071
 30
0.0
 11
9026.0990504245747
 21
20014.789081065072
 31
0.0
  0
ARC
  5
4201
  8
KL
 10
9020.1406764245748
 20
20015.518879065072
 30
0.0
 40
5.9999760000000002
 50
354.8055729999931
 51
54.396262999995557
  0
ARC
  5
4202
  8
KL
 10
9052.3340354245756
 20
20023.068195065069
 30
0.0
 40
2.999981
 50
5.194427000006832
 51
83.884827000011072
  0
ARC
  5
4203
  8
KL
 10
9041.0990504245747
 20
20044.789081065072
 30
0.0
 40
30.0
 50
305.19004800000442
 51
305.60386699997889
  0
LINE
  5
4204
  8
KL
 10
9041.0990504245747
 20
20027.289081065072
 30
0.0
 11
9052.6536154245714
 21
20026.051105065071
 31
0.0
  0
LINE
  5
4205
  8
KL
 10
9055.3217064245746
 20
20023.339802065071
 30
0.0
 11
9056.0990504245765
 21
20014.789081065072
 31
0.0
  0
ARC
  5
4206
  8
KL
 10
9062.0574244245745
 20
20015.518879065072
 30
0.0
 40
5.9999820000000001
 50
125.6037370000044
 51
185.19442700000681
  0
LINE
  5
4207
  8
KL
 10
9041.0990504245747
 20
20027.289081065072
 30
0.0
 11
9029.5444854245743
 21
20026.051105065071
 31
0.0
  0
LINE
  5
4208
  8
KL
 10
9029.5444854245743
 20
20026.051105065071
 30
0.0
 11
9052.6536154245714
 21
20026.051105065071
 31
0.0
  0
LINE
  5
4209
  8
CT
 10
9081.0990504245747
 20
20044.789081065072
 30
0.0
 11
9001.0990504245765
 21
20044.789081065072
 31
0.0
  0
LINE
  5
420A
  8
KL
 10
8982.0990504245747
 20
19953.789081065072
 30
0.0
 11
9100.0990504245747
 21
19953.789081065072
 31
0.0
  0
CIRCLE
  5
420B
  8
KL
 10
9041.0990504245747
 20
20044.789081065072
 30
0.0
 40
17.5
  0
ARC
  5
420C
  8
KL
 10
9041.0990504245747
 20
20044.789081065072
 30
0.0
 40
30.0
 50
305.60386699997889
 51
234.39614899998969
  0
LINE
  5
420D
  8
KL
 10
9200.098989424574
 20
20014.789081065072
 30
0.0
 11
9210.098989424574
 21
20006.46730406507
 31
0.0
  0
ARC
  5
420E
  8
KL
 10
9256.5723784245747
 20
19988.289081065072
 30
0.0
 40
20.0
 50
69.999953999991405
 51
90.0
  0
ARC
  5
420F
  8
KL
 10
9293.8477684245754
 20
20017.289081065072
 30
0.0
 40
20.0
 50
250.0002749999968
 51
270.0
  0
LINE
  5
4212
  8
KL
 10
9263.4128324245758
 20
20007.083027065069
 30
0.0
 11
9287.0074364245738
 21
19998.49513606507
 31
0.0
  0
LINE
  5
4213
  8
KL
 10
9210.098989424574
 20
20008.289081065072
 30
0.0
 11
9256.5723784245747
 21
20008.289081065072
 31
0.0
  0
LINE
  5
4214
  8
KL
 10
9200.098989424574
 20
20014.789081065072
 30
0.0
 11
9041.0990504245747
 21
20014.789081065072
 31
0.0
  0
LINE
  5
4215
  8
KL
 10
9103.0989894245722
 20
19946.789081065072
 30
0.0
 11
8979.0990504245765
 21
19946.789081065072
 31
0.0
  0
ARC
  5
4216
  8
KL
 10
8979.0990504245765
 20
19772.091327065082
 30
0.0
 40
20.0
 50
180.0
 51
270.0
  0
CIRCLE
  5
4217
  8
KL
 10
9041.0990504245747
 20
19739.091327065071
 30
0.0
 40
3.5
  0
LINE
  5
4218
  8
KL
 10
9047.5519314245757
 20
19739.091327065071
 30
0.0
 11
9032.9628204245746
 21
19739.091327065071
 31
0.0
  0
LINE
  5
4219
  8
KL
 10
8979.0990504245765
 20
19752.091327065082
 30
0.0
 11
9103.0990504245747
 21
19752.091327065082
 31
0.0
  0
LINE
  5
421A
  8
KL
 10
9100.0989894245758
 20
19732.091327065071
 30
0.0
 11
8982.0990504245747
 21
19732.091327065071
 31
0.0
  0
LINE
  5
421B
  8
KL
 10
8959.0990504245747
 20
19926.789081065072
 30
0.0
 11
8959.0990504245747
 21
19772.091327065082
 31
0.0
  0
LINE
  5
421C
  8
KL
 10
8952.0990504245747
 20
19923.789081065072
 30
0.0
 11
8952.0990504245747
 21
19762.091327065071
 31
0.0
  0
LINE
  5
421D
  8
KL
 10
9210.098989424574
 20
19939.789081065072
 30
0.0
 11
9125.4761864245738
 21
19939.789081065072
 31
0.0
  0
LINE
  5
4221
  8
KL
 10
9210.098989424574
 20
19819.789081065072
 30
0.0
 11
9130.098989424574
 21
19819.789081065072
 31
0.0
  0
LINE
  5
4222
  8
KL
 10
9123.098989424574
 20
19926.789081065072
 30
0.0
 11
9123.098989424574
 21
19772.091327065082
 31
0.0
  0
LINE
  5
4223
  8
KL
 10
9130.098989424574
 20
19923.789081065072
 30
0.0
 11
9130.098989424574
 21
19762.091327065071
 31
0.0
  0
ARC
  5
4224
  8
KL
 10
9103.0989894245722
 20
19772.091327065082
 30
0.0
 40
20.0
 50
270.0
 51
0.000000000000007
  0
LINE
  5
4225
  8
CT
 10
9150.0989894245758
 20
19879.789081065072
 30
0.0
 11
8932.0990504245729
 21
19879.789081065072
 31
0.0
  0
ARC
  5
4226
  8
KL
 10
9103.0989894245722
 20
19926.789081065072
 30
0.0
 40
20.0
 50
0.000000000000007
 51
90.0
  0
ARC
  5
4227
  8
KL
 10
8979.0990504245765
 20
19926.789081065072
 30
0.0
 40
20.0
 50
90.0
 51
180.0
  0
ARC
  5
4228
  8
KL
 10
8982.0990504245747
 20
19923.789081065072
 30
0.0
 40
30.0
 50
90.0
 51
180.0
  0
ARC
  5
4229
  8
KL
 10
9100.0989894245758
 20
19923.789081065072
 30
0.0
 40
30.0
 50
0.000000000000007
 51
90.0
  0
LINE
  5
422E
  8
KL
 10
8882.0990504245747
 20
20014.789081065072
 30
0.0
 11
9041.0990504245747
 21
20014.789081065072
 31
0.0
  0
LINE
  5
422F
  8
KL
 10
8867.0990504245765
 20
19939.789081065072
 30
0.0
 11
8956.7218534245731
 21
19939.789081065072
 31
0.0
  0
LINE
  5
4230
  8
KL
 10
8867.0990504245765
 20
19819.789081065072
 30
0.0
 11
8952.0990504245747
 21
19819.789081065072
 31
0.0
  0
ARC
  5
4231
  8
FUTO
 10
8767.5990504245747
 20
19726.789081065072
 30
0.0
 40
2.0
 50
180.0
 51
270.0
  0
ARC
  5
4232
  8
FUTO
 10
8777.7521264245734
 20
19721.789081065072
 30
0.0
 40
3.0
 50
2.9995570000340721
 51
90.0
  0
ARC
  5
4233
  8
FUTO
 10
8792.4486594245755
 20
19689.75734306507
 30
0.0
 40
10.000139999999989
 50
183.00042699998181
 51
225.00097700000649
  0
ARC
  5
4241
  8
FUTO
 10
8821.2411404245722
 20
19660.96486306507
 30
0.0
 40
10.0
 50
225.0
 51
270.0
  0
ARC
  5
4242
  8
FUTO
 10
8794.3915304245747
 20
19652.686298065069
 30
0.0
 40
9.9999679999999991
 50
182.9990539999759
 51
225.0
  0
LINE
  5
4243
  8
KL
 10
8857.0990504245747
 20
19653.028339065069
 30
0.0
 11
8876.1876734245743
 21
19653.028339065069
 31
0.0
  0
LINE
  5
4244
  8
KL
 10
8858.1349394245735
 20
19642.789081065072
 30
0.0
 11
8852.0990504245747
 21
19642.789081065072
 31
0.0
  0
LINE
  5
4245
  8
KL
 10
8847.0990504245747
 20
19642.789081065072
 30
0.0
 11
8852.0990504245747
 21
19642.789081065072
 31
0.0
  0
ARC
  5
4246
  8
KL
 10
8864.0990504245765
 20
19621.789081065072
 30
0.0
 40
3.0
 50
90.0
 51
180.0
  0
ARC
  5
4247
  8
KL
 10
8871.1876734245743
 20
19629.789081065072
 30
0.0
 40
5.0
 50
270.0
 51
0.000000000000007
  0
LINE
  5
4248
  8
KL
 10
8857.0990504245747
 20
19645.915546065069
 30
0.0
 11
8859.6576444245766
 21
19645.915546065069
 31
0.0
  0
LINE
  5
4249
  8
KL
 10
8864.0990504245765
 20
19624.789081065072
 30
0.0
 11
8857.0990504245747
 21
19645.915546065069
 31
0.0
  0
LINE
  5
424A
  8
KL
 10
8876.1876734245743
 20
19629.789081065072
 30
0.0
 11
8876.1876734245743
 21
19653.028339065069
 31
0.0
  0
LINE
  5
424B
  8
KL
 10
8867.2572534245737
 20
19624.789081065072
 30
0.0
 11
8857.0990504245747
 21
19653.028339065069
 31
0.0
  0
LINE
  5
424C
  8
KL
 10
8821.2411404245722
 20
19650.96486306507
 30
0.0
 11
8847.0990504245747
 21
19650.96486306507
 31
0.0
  0
LINE
  5
424E
  8
FUTO
 10
8780.7303984245737
 20
19722.284321065072
 30
0.0
 11
8784.4052024245757
 21
19652.163105065069
 31
0.0
  0
LINE
  5
4250
  8
FUTO
 10
8814.1700954245753
 20
19653.893818065069
 30
0.0
 11
8785.3776144245749
 21
19682.68605406507
 31
0.0
  0
LINE
  5
4253
  8
FUTO
 10
8777.7521264245734
 20
19724.789081065072
 30
0.0
 11
8767.5990504245747
 21
19724.789081065072
 31
0.0
  0
ARC
  5
4254
  8
FUTO
 10
8821.3846954245746
 20
19625.69313406507
 30
0.0
 40
9.9999839999999995
 50
225.0
 51
268.00067100000211
  0
LINE
  5
4255
  8
KL
 10
8847.0990504245747
 20
19614.789081065072
 30
0.0
 11
8821.0358184245742
 21
19615.69923806507
 31
0.0
  0
LINE
  5
4256
  8
KL
 10
8861.0990504245747
 20
19604.789081065072
 30
0.0
 11
8861.0990504245747
 21
19621.789081065072
 31
0.0
  0
LINE
  5
4257
  8
FUTO
 10
8814.313650424574
 20
19618.622089065069
 30
0.0
 11
8787.3204864245745
 21
19645.615253065069
 31
0.0
  0
LINE
  5
4258
  8
KL
 10
9001.4989524245757
 20
19626.396992065071
 30
0.0
 11
8921.0990504245747
 21
19624.789081065072
 31
0.0
  0
ARC
  5
4259
  8
KL
 10
9016.0990504245747
 20
19687.28517506507
 30
0.0
 40
5.0
 50
0.000000000000007
 51
90.0
  0
ARC
  5
425A
  8
KL
 10
9066.0990504245747
 20
19687.28517506507
 30
0.0
 40
5.0
 50
90.0
 51
180.0
  0
ARC
  5
425B
  8
KL
 10
9081.0989894245722
 20
19646.393085065069
 30
0.0
 40
20.000091999999999
 50
180.0
 51
268.85427899999138
  0
LINE
  5
425C
  8
KL
 10
9061.0990504245747
 20
19687.28517506507
 30
0.0
 11
9061.0990504245747
 21
19646.393085065069
 31
0.0
  0
LINE
  5
425D
  8
KL
 10
9021.0990504245747
 20
19687.28517506507
 30
0.0
 11
9021.0990504245747
 21
19646.393085065069
 31
0.0
  0
ARC
  5
425E
  8
KL
 10
9001.0990504245765
 20
19646.393085065069
 30
0.0
 40
20.0
 50
271.14572100000839
 51
0.000000000000007
  0
LINE
  5
425F
  8
KL
 10
8941.0990504245747
 20
19604.789081065072
 30
0.0
 11
8941.0990504245747
 21
19605.789081065072
 31
0.0
  0
ARC
  5
4260
  8
KL
 10
8946.0990504245747
 20
19605.789081065072
 30
0.0
 40
5.0
 50
90.0
 51
180.0
  0
LINE
  5
4261
  8
KL
 10
8946.0990504245747
 20
19610.789081065072
 30
0.0
 11
9041.0990504245747
 21
19610.789081065072
 31
0.0
  0
ARC
  5
4262
  8
KL
 10
9218.0989894245722
 20
19621.789081065072
 30
0.0
 40
3.0
 50
0.000000000000007
 51
90.0
  0
LINE
  5
4263
  8
KL
 10
9161.0989894245758
 20
19624.789081065072
 30
0.0
 11
9168.7785423488876
 21
19624.789081065072
 31
0.0
  0
ARC
  5
426D
  8
KL
 10
9136.098989424574
 20
19605.789081065072
 30
0.0
 40
5.0
 50
0.000000000000007
 51
90.0
  0
LINE
  5
426E
  8
KL
 10
9141.0989894245758
 20
19604.789081065072
 30
0.0
 11
9141.0989894245758
 21
19605.789081065072
 31
0.0
  0
LINE
  5
426F
  8
KL
 10
9141.0989894245758
 20
19604.789081065072
 30
0.0
 11
9166.0990504245747
 21
19604.789081065072
 31
0.0
  0
LINE
  5
4270
  8
KL
 10
9280.7050684245733
 20
19608.789081065072
 30
0.0
 11
9290.321035424573
 21
19612.289081065072
 31
0.0
  0
LINE
  5
4271
  8
KL
 10
9280.7050684245733
 20
19608.789081065072
 30
0.0
 11
9221.0989894245722
 21
19608.789081065072
 31
0.0
  0
LINE
  5
4272
  8
KL
 10
9221.0989894245722
 20
19604.789081065072
 30
0.0
 11
9221.0989894245722
 21
19621.789081065072
 31
0.0
  0
LINE
  5
4273
  8
KL
 10
9080.6990874245748
 20
19626.396992065071
 30
0.0
 11
9161.0989894245758
 21
19624.789081065072
 31
0.0
  0
LINE
  5
4274
  8
KL
 10
9136.098989424574
 20
19610.789081065072
 30
0.0
 11
9041.0990504245747
 21
19610.789081065072
 31
0.0
  0
LINE
  5
4275
  8
KL
 10
8921.0990504245747
 20
19624.789081065072
 30
0.0
 11
8913.4195585002635
 21
19624.789081065072
 31
0.0
  0
LINE
  5
4276
  8
KL
 10
8941.0990504245747
 20
19604.789081065072
 30
0.0
 11
8916.0990504245747
 21
19604.789081065072
 31
0.0
  0
ARC
  5
4277
  8
KL
 10
9100.0989894245758
 20
19762.091327065071
 30
0.0
 40
30.0
 50
270.0
 51
0.000000000000007
  0
ARC
  5
4278
  8
KL
 10
8982.0990504245747
 20
19762.091327065071
 30
0.0
 40
30.0
 50
180.0
 51
270.0
  0
LINE
  5
4279
  8
CT
 10
9041.0990504245747
 20
20094.789081065072
 30
0.0
 11
9041.0990504245747
 21
19524.789081065072
 31
0.0
  0
LINE
  5
427A
  8
KL
 10
8852.0990504245747
 20
19642.789081065072
 30
0.0
 11
8852.0990504245747
 21
19804.789081065072
 31
0.0
  0
LINE
  5
427B
  8
KL
 10
9210.098989424574
 20
20008.289081065072
 30
0.0
 11
9210.098989424574
 21
19624.789081065072
 31
0.0
  0
LINE
  5
427C
  8
KL
 10
9260.0989894245758
 20
20007.975605065069
 30
0.0
 11
9260.0989894245758
 21
19608.789081065072
 31
0.0
  0
LINE
  5
427D
  8
KL
 10
9290.2989404245745
 20
19997.606464065069
 30
0.0
 11
9290.2989404245745
 21
19612.289081065072
 31
0.0
  0
LINE
  5
427E
  8
KL
 10
8852.0990504245747
 20
19642.789081065072
 30
0.0
 11
8852.0990504245747
 21
19804.789081065072
 31
0.0
  0
LINE
  5
427F
  8
KL
 10
8847.0990504245747
 20
19614.789081065072
 30
0.0
 11
8847.0990504245747
 21
19804.789081065072
 31
0.0
  0
LINE
  5
4280
  8
FUTO
 10
8765.5990504245747
 20
19726.789081065072
 30
0.0
 11
8765.5990504245747
 21
19804.789081065072
 31
0.0
  0
ARC
  5
4281
  8
KL
 10
9354.7880764245747
 20
19982.289081065072
 30
0.0
 40
15.0
 50
60.00018300001819
 51
90.0
  0
ARC
  5
4282
  8
KL
 10
9410.0989894245722
 20
19961.90236306507
 30
0.0
 40
4.9999580000000003
 50
0.000000000000007
 51
59.999718000027237
  0
LINE
  5
4283
  8
KL
 10
9412.5989894245758
 20
19966.232441065069
 30
0.0
 11
9362.2880764245747
 21
19995.279560065072
 31
0.0
  0
ARC
  5
42CC
  8
KL
 10
9410.0989894245722
 20
19647.67580006507
 30
0.0
 40
5.0
 50
300.00027500002068
 51
0.000000000000007
  0
ARC
  5
42CE
  8
KL
 10
9354.7880764245747
 20
19627.289081065072
 30
0.0
 40
15.000085
 50
270.0
 51
299.99981699998182
  0
LINE
  5
42CF
  8
KL
 10
9412.5989894245758
 20
19643.345722065071
 30
0.0
 11
9362.2880764245747
 21
19614.298603065072
 31
0.0
  0
LINE
  5
4301
  8
KL
 10
9355.9990134245745
 20
19612.289081065072
 30
0.0
 11
9355.9990134245745
 21
19997.24000906507
 31
0.0
  0
LINE
  5
4305
  8
KL
 10
9415.0990504245765
 20
19962.439045065072
 30
0.0
 11
9415.0990504245765
 21
19647.64873106507
 31
0.0
  0
LINE
  5
4306
  8
CT
 10
8595.5990504245747
 20
19804.789081065072
 30
0.0
 11
9435.0990504245729
 21
19804.789081065072
 31
0.0
  0
LINE
  5
4307
  8
KL
 10
9293.8477684245754
 20
19997.289081065072
 30
0.0
 11
9354.7880764245747
 21
19997.289081065072
 31
0.0
  0
LINE
  5
4308
  8
KL
 10
9290.2989404245745
 20
19612.289081065072
 30
0.0
 11
9354.7880764245747
 21
19612.289081065072
 31
0.0
  0
LINE
  5
430D
  8
CT
 10
5364.4013380386677
 20
23118.9892177867
 30
0.0
 11
5414.4013380386687
 21
23118.9892177867
 31
0.0
  0
LINE
  5
430E
  8
CT
 10
5389.4013380386677
 20
23093.989217786711
 30
0.0
 11
5389.4013380386677
 21
23143.9892177867
 31
0.0
  0
LINE
  5
430F
  8
CT
 10
5069.4013380386677
 20
23093.989217786711
 30
0.0
 11
5069.4013380386677
 21
23143.9892177867
 31
0.0
  0
LINE
  5
4310
  8
CT
 10
5094.4013380386696
 20
23118.9892177867
 30
0.0
 11
5044.4013380386668
 21
23118.9892177867
 31
0.0
  0
LINE
  5
4311
  8
CT
 10
5094.4013380386696
 20
23578.9892177867
 30
0.0
 11
5044.4013380386668
 21
23578.9892177867
 31
0.0
  0
LINE
  5
4312
  8
CT
 10
5069.4013380386677
 20
23603.9892177867
 30
0.0
 11
5069.4013380386677
 21
23553.9892177867
 31
0.0
  0
LINE
  5
4313
  8
CT
 10
5389.4013380386677
 20
23603.9892177867
 30
0.0
 11
5389.4013380386677
 21
23553.9892177867
 31
0.0
  0
LINE
  5
4314
  8
CT
 10
5364.4013380386677
 20
23578.9892177867
 30
0.0
 11
5414.4013380386687
 21
23578.9892177867
 31
0.0
  0
LINE
  5
4315
  8
FUTO
 10
5009.4013380386668
 20
23068.4892177867
 30
0.0
 11
5009.4013380386668
 21
22813.489217786711
 31
0.0
  0
LINE
  5
4316
  8
FUTO
 10
4879.4013380386677
 20
23119.4892177867
 30
0.0
 11
4879.4013380386677
 21
23046.4892177867
 31
0.0
  0
LINE
  5
4317
  8
FUTO
 10
5019.4013380386677
 20
24022.4892177867
 30
0.0
 11
5019.4013380386677
 21
23119.4892177867
 31
0.0
  0
LINE
  5
4319
  8
FUTO
 10
5364.4013380386677
 20
24022.4892177867
 30
0.0
 11
5364.4013380386677
 21
23722.9892177867
 31
0.0
  0
LINE
  5
431A
  8
FUTO
 10
5439.4013380386677
 20
24022.4892177867
 30
0.0
 11
5439.4013380386677
 21
23119.4892177867
 31
0.0
  0
LINE
  5
431B
  8
SL
 10
5094.4013380386677
 20
23722.9892177867
 30
0.0
 11
5094.4013380386677
 21
23113.4892177867
 31
0.0
  0
LINE
  5
431C
  8
SL
 10
5364.4013380386677
 20
23722.9892177867
 30
0.0
 11
5364.4013380386677
 21
23113.4892177867
 31
0.0
  0
LINE
  5
432D
  8
FUTO
 10
7359.4013380386687
 20
25217.4892177867
 30
0.0
 11
5172.4013380386668
 21
25217.4892177867
 31
0.0
  0
LINE
  5
4341
  8
FUTO
 10
7359.4013380386687
 20
24049.4892177867
 30
0.0
 11
5172.4013380386668
 21
24049.4892177867
 31
0.0
  0
LINE
  5
4342
  8
FUTO
 10
7359.4013380386668
 20
24095.4892177867
 30
0.0
 11
5579.4013380386677
 21
24095.4892177867
 31
0.0
  0
LINE
  5
4347
  8
FUTO
 10
7279.4013380386668
 20
24049.4892177867
 30
0.0
 11
7279.4013380386668
 21
24022.4892177867
 31
0.0
  0
LINE
  5
4348
  8
FUTO
 10
4974.177639677815
 20
24097.489217786671
 30
0.0
 11
4879.4013380386677
 21
24097.4892177867
 31
0.0
  0
LINE
  5
4349
  8
FUTO
 10
6127.8678384350924
 20
23119.4892177867
 30
0.0
 11
6127.8678384350924
 21
24049.4892177867
 31
0.0
  0
LINE
  5
434A
  8
FUTO
 10
6730.9348376422431
 20
23119.4892177867
 30
0.0
 11
6730.9348376422431
 21
24049.4892177867
 31
0.0
  0
DIMENSION
  5
4368
  8
FUTO
  2
*D10
 10
7907.2931370903898
 20
20434.789081065072
 30
0.0
 11
7847.2931370903862
 21
21207.289081065072
 31
0.0
 70
     0
 13
7359.4013380386668
 23
21979.789081065072
 33
0.0
 14
7430.9627323586292
 24
20434.789081065072
 34
0.0
 50
270.0
1001
ACAD
1000
DSTYLE
1002
{
1070
    40
1040
30.0
1070
   176
1070
     2
1070
   177
1070
     2
1070
   178
1070
     2
1070
   341
1005
44D5
1070
     5
1000
OPEN30
1002
}
  0
LINE
  5
457C
  8
FUTO
 62
     2
 10
7309.4013380386668
 20
19394.789081065072
 30
0.0
 11
7937.2931370903898
 21
19394.789081065072
 31
0.0
  0
LINE
  5
457E
  8
FUTO
 62
     2
 10
7907.2931370903898
 20
19454.789081065072
 30
0.0
 11
7907.2931370903898
 21
19514.789081065072
 31
0.0
  0
INSERT
  5
4581
  8
FUTO
 62
     2
  2
_OPEN30
 10
7907.2931370903898
 20
19394.789081065072
 30
0.0
 41
60.0
 42
60.0
 43
60.0
 50
270.0
  0
LINE
  5
4595
  8
KL
 10
5598.4013380386677
 20
19710.31657177912
 30
0.0
 11
5598.4013380386677
 21
19554.48795143102
 31
0.0
  0
LINE
  5
4596
  8
KL
 10
5589.4013380386677
 20
19706.87625607014
 30
0.0
 11
5589.4013380386677
 21
19549.630200619991
 31
0.0
  0
LINE
  5
4597
  8
FUTO
 10
5598.4013380386677
 20
19710.31657177912
 30
0.0
 11
5598.4013380386677
 21
19544.789081065072
 31
0.0
  0
LINE
  5
4598
  8
FUTO
 10
5589.4013380386677
 20
19706.87625607014
 30
0.0
 11
5589.4013380386677
 21
19544.789081065072
 31
0.0
  0
DIMENSION
  5
45A8
  8
FUTO
  2
*D14
 10
4879.4013380386677
 20
25651.92504097959
 30
0.0
 11
5654.4013380386677
 21
25711.92504097959
 31
0.0
 70
     0
 13
6429.4013380386668
 23
25548.3617954363
 33
0.0
 14
4879.4013380386677
 24
24022.4892177867
 34
0.0
1001
ACAD
1000
DSTYLE
1002
{
1070
    40
1040
30.0
1070
   176
1070
     2
1070
   177
1070
     2
1070
   178
1070
     2
1070
   341
1005
44D5
1070
     5
1000
OPEN30
1002
}
  0
DIMENSION
  5
45B5
  8
FUTO
  2
*D15
 10
7839.7072408785389
 20
25267.4892177867
 30
0.0
 11
7779.7072408785352
 21
24950.4892177867
 31
0.0
 70
     0
 13
7606.9213386181873
 23
24633.489217786711
 33
0.0
 14
7179.4013380386668
 24
25267.4892177867
 34
0.0
 50
90.0
1001
ACAD
1000
DSTYLE
1002
{
1070
    40
1040
30.0
1070
   176
1070
     2
1070
   177
1070
     2
1070
   178
1070
     2
1070
   341
1005
44D5
1070
     5
1000
OPEN30
1002
}
  0
DIMENSION
  5
45C2
  8
FUTO
  2
*D16
 10
7839.7072408785389
 20
22813.489217786711
 30
0.0
 11
7779.7072408785352
 21
23723.4892177867
 31
0.0
 70
     0
 13
7839.7072408785389
 23
24633.489217786711
 33
0.0
 14
6809.4013380386677
 24
22813.489217786711
 34
0.0
 50
90.0
1001
ACAD
1000
DSTYLE
1002
{
1070
    40
1040
30.0
1070
   176
1070
     2
1070
   177
1070
     2
1070
   178
1070
     2
1070
   341
1005
44D5
1070
     5
1000
OPEN30
1002
}
  0
LINE
  5
466E
  8
CT
 10
7352.0104600755667
 20
20337.867578552941
 30
0.0
 11
6429.4013380386668
 21
20434.789081065072
 31
0.0
  0
LINE
  5
4670
  8
FUTO
 10
5227.1191015193281
 20
20434.789081065072
 30
0.0
 11
5227.1191015193281
 21
20564.737239724978
 31
0.0
  0
LINE
  5
4671
  8
FUTO
 10
5177.1191015193281
 20
20425.789081065072
 30
0.0
 11
5177.1191015193281
 21
20443.789081065072
 31
0.0
  0
LINE
  5
46A1
  8
FUTO
 10
6929.4013380386668
 20
19544.789081065072
 30
0.0
 11
6754.0823227382389
 21
20237.349829206389
 31
0.0
  0
LINE
  5
46A2
  8
FUTO
 10
5929.4013380386677
 20
19544.789081065072
 30
0.0
 11
6011.2544984785227
 21
19868.13270659716
 31
0.0
  0
LINE
  5
46A3
  8
SL
 10
6290.3327560756861
 20
20642.538760994561
 30
0.0
 11
5170.4362592863636
 21
19892.874945355172
 31
0.0
  0
LINE
  5
46A4
  8
SL
 10
6521.4341532206599
 20
20202.345623575558
 30
0.0
 11
5268.4232516758329
 21
19706.23305508952
 31
0.0
  0
LINE
  5
46A5
  8
FUTO
 10
6214.2805350945227
 20
20748.035054926939
 30
0.0
 11
5104.8577152815305
 21
19986.142013300891
 31
0.0
  0
LINE
  5
46A6
  8
FUTO
 10
6565.0839570860298
 20
20079.838060657399
 30
0.0
 11
5307.9544332766154
 21
19599.291121881681
 31
0.0
  0
ARC
  5
46A7
  8
FUTO
 10
6327.4013380386677
 20
20536.789081065072
 30
0.0
 40
1125.0
 50
227.9744407106619
 51
241.85756492909869
  0
LINE
  5
46A8
  8
KL
 10
6754.0823227382389
 20
20237.349829206389
 30
0.0
 11
6730.9348376422431
 21
20328.789081065072
 31
0.0
  0
LINE
  5
46A9
  8
KL
 10
6011.2544984785227
 20
19868.13270659716
 30
0.0
 11
6127.8678384350933
 21
20328.789081065072
 31
0.0
  0
LINE
  5
46AB
  8
KL
 10
5598.4013380386677
 20
20325.08172609764
 30
0.0
 11
5598.4013380386677
 21
19710.31657177912
 31
0.0
  0
LINE
  5
46AC
  8
KL
 10
5589.4013380386677
 20
20318.901001082631
 30
0.0
 11
5589.4013380386677
 21
19706.87625607014
 31
0.0
  0
LINE
  5
46AD
  8
FUTO
 10
5771.2558481670767
 20
20443.789081065072
 30
0.0
 11
5177.1191015193281
 21
20443.789081065072
 31
0.0
  0
LINE
  5
46AE
  8
FUTO
 10
5745.0453308561237
 20
20425.789081065072
 30
0.0
 11
5177.1191015193281
 21
20425.789081065072
 31
0.0
  0
LINE
  5
46AF
  8
KL
 10
6808.1641613981074
 20
20404.15048382587
 30
0.0
 11
6629.255085316604
 21
20422.978928696561
 31
0.0
  0
LINE
  5
46B0
  8
KL
 10
6806.288339321326
 20
20386.248497383331
 30
0.0
 11
6627.3865477156032
 21
20405.076175633589
 31
0.0
  0
LINE
  5
46CC
  8
FUTO
 10
9716.0990504245747
 20
20341.691866428591
 30
0.0
 11
10933.79905042457
 21
20341.691866428591
 31
0.0
  0
LINE
  5
46CD
  8
FUTO
 10
9716.0990504245747
 20
20350.691866428591
 30
0.0
 11
10933.79905042457
 21
20350.691866428591
 31
0.0
  0
LINE
  5
46CE
  8
FUTO
 10
9716.0990504245747
 20
20332.691866428591
 30
0.0
 11
10933.79905042457
 21
20332.691866428591
 31
0.0
  0
LINE
  5
46E1
  8
FUTO
 10
9741.0990504245747
 20
21979.789081065072
 30
0.0
 11
10910.099050424589
 21
21979.789081065072
 31
0.0
  0
LINE
  5
46E2
  8
FUTO
 10
9716.0990504245747
 20
21929.789081065072
 30
0.0
 11
10933.79905042457
 21
21929.789081065072
 31
0.0
  0
LINE
  5
46E3
  8
FUTO
 10
9791.0990504245729
 20
20475.789081065072
 30
0.0
 11
10858.79905042457
 21
20475.789081065072
 31
0.0
  0
LINE
  5
46E4
  8
FUTO
 10
9741.0990504245747
 20
20421.789081065072
 30
0.0
 11
10910.09905042454
 21
20421.789081065072
 31
0.0
  0
DIMENSION
  5
46E6
  8
FUTO
  2
*D17
 10
7359.4013380386668
 20
22257.335513348658
 30
0.0
 11
6894.4013380386677
 21
22317.335513348658
 31
0.0
 70
     0
 13
6429.4013380386668
 23
21959.21582632251
 33
0.0
 14
7359.4013380386668
 24
21979.789081065072
 34
0.0
1001
ACAD
1000
DSTYLE
1002
{
1070
    40
1040
30.0
1070
   176
1070
     2
1070
   177
1070
     2
1070
   178
1070
     2
1070
   341
1005
44D5
1070
     5
1000
OPEN30
1002
}
  0
DIMENSION
  5
46F4
  8
FUTO
  2
*D18
 10
7907.2931370903898
 20
19394.789081065072
 30
0.0
 11
7847.2931370903862
 21
19914.789081065072
 31
0.0
 70
     0
 13
7460.9627323586301
 23
20434.789081065072
 33
0.0
 14
7279.4013380386668
 24
19394.789081065072
 34
0.0
 50
90.0
1001
ACAD
1000
DSTYLE
1002
{
1070
    40
1040
30.0
1070
   176
1070
     2
1070
   177
1070
     2
1070
   178
1070
     2
1070
   341
1005
44D5
1070
     5
1000
OPEN30
1002
}
  0
LINE
  5
470A
  8
FUTO
 10
7359.4013380386687
 20
24049.4892177867
 30
0.0
 11
7359.4013380386668
 21
25217.4892177867
 31
0.0
  0
LINE
  5
470B
  8
HOSO
 10
7359.4013380386687
 20
24049.4892177867
 30
0.0
 11
7359.4013380386687
 21
25217.4892177867
 31
0.0
  0
LINE
  5
470C
  8
FUTO
 10
7309.4013380386677
 20
24049.4892177867
 30
0.0
 11
7309.4013380386677
 21
25217.4892177867
 31
0.0
  0
LINE
  5
470D
  8
FUTO
 10
7355.4013380386659
 20
24049.4892177867
 30
0.0
 11
7355.4013380386659
 21
25217.4892177867
 31
0.0
  0
LINE
  5
470E
  8
FUTO
 10
5222.4013380386677
 20
25171.489217786711
 30
0.0
 11
5222.4013380386677
 21
24097.4892177867
 31
0.0
  0
LINE
  5
470F
  8
FUTO
 10
5172.4013380386668
 20
25217.4892177867
 30
0.0
 11
5172.4013380386668
 21
24049.4892177867
 31
0.0
  0
LINE
  5
4710
  8
FUTO
 10
5172.4013380386668
 20
24097.4892177867
 30
0.0
 11
4938.4013380386687
 21
24097.4892177867
 31
0.0
  0
DIMENSION
  5
4712
  8
FUTO
  2
*D19
 10
7359.4013380386687
 20
25651.92504097959
 30
0.0
 11
6894.4013380386677
 21
25711.92504097959
 31
0.0
 70
     0
 13
6429.4013380386668
 23
25548.3617954363
 33
0.0
 14
7359.4013380386687
 24
25217.4892177867
 34
0.0
1001
ACAD
1000
DSTYLE
1002
{
1070
    40
1040
30.0
1070
   176
1070
     2
1070
   177
1070
     2
1070
   178
1070
     2
1070
   341
1005
44D5
1070
     5
1000
OPEN30
1002
}
  0
LINE
  5
4780
  8
FUTO
 10
8812.5990504245747
 20
19544.789081065072
 30
0.0
 11
8737.5990504245747
 21
19544.789081065072
 31
0.0
  0
LINE
  5
4781
  8
FUTO
 10
8802.4476733955653
 20
19532.112048435611
 30
0.0
 11
8741.2504274535841
 21
19537.46611369454
 31
0.0
  0
LINE
  5
4782
  8
FUTO
 10
8812.5990504245747
 20
19394.789081065072
 30
0.0
 11
8737.5990504245747
 21
19394.789081065072
 31
0.0
  0
LINE
  5
4783
  8
FUTO
 10
8802.4476733955653
 20
19407.46611369454
 30
0.0
 11
8741.2504274535841
 21
19402.112048435611
 31
0.0
  0
LINE
  5
4784
  8
FUTO
 10
8806.0990504245765
 20
19411.450892486901
 30
0.0
 11
8806.0990504245765
 21
19528.127269643239
 31
0.0
  0
ARC
  5
4785
  8
FUTO
 10
8802.0990504245747
 20
19528.127269643239
 30
0.0
 40
4.0
 50
0.0
 51
84.999999999975714
  0
LINE
  5
4786
  8
FUTO
 10
8812.5990504245747
 20
19394.789081065072
 30
0.0
 11
8812.5990504245747
 21
19544.789081065072
 31
0.0
  0
ARC
  5
4787
  8
FUTO
 10
8802.0990504245747
 20
19411.450892486901
 30
0.0
 40
4.0
 50
275.00000000002422
 51
0.0
  0
ARC
  5
4788
  8
FUTO
 10
8741.5990504245747
 20
19541.450892486901
 30
0.0
 40
4.0
 50
180.0
 51
264.99999999997573
  0
LINE
  5
4789
  8
FUTO
 10
8737.5990504245747
 20
19544.789081065072
 30
0.0
 11
8737.5990504245747
 21
19541.450892486901
 31
0.0
  0
LINE
  5
478A
  8
FUTO
 10
8737.5990504245747
 20
19394.789081065072
 30
0.0
 11
8737.5990504245747
 21
19398.127269643239
 31
0.0
  0
ARC
  5
478B
  8
FUTO
 10
8741.5990504245747
 20
19398.127269643239
 30
0.0
 40
4.0
 50
95.000000000024286
 51
180.0
  0
LINE
  5
478C
  8
FUTO
 10
10862.599050424569
 20
19394.789081065072
 30
0.0
 11
10862.599050424569
 21
19544.789081065072
 31
0.0
1001
ACAD
1000
ASC_BOUNDS
1002
{
1070
    19
1002
}
  0
LINE
  5
478D
  8
FUTO
 10
10862.599050424569
 20
19544.789081065072
 30
0.0
 11
10937.599050424569
 21
19544.789081065072
 31
0.0
1001
ACAD
1000
ASC_BOUNDS
1002
{
1070
    19
1002
}
  0
LINE
  5
478E
  8
FUTO
 10
10937.599050424569
 20
19544.789081065072
 30
0.0
 11
10937.599050424569
 21
19541.450892486901
 31
0.0
1001
ACAD
1000
ASC_BOUNDS
1002
{
1070
    19
1002
}
  0
ARC
  5
478F
  8
FUTO
 10
10933.599050424569
 20
19541.450892486911
 30
0.0
 40
4.0000000000009086
 50
274.99999999998528
 51
359.99999999994782
1001
ACAD
1000
ASC_BOUNDS
1002
{
1070
    19
1002
}
  0
LINE
  5
4790
  8
FUTO
 10
10933.94767339556
 20
19537.46611369454
 30
0.0
 11
10872.75042745358
 21
19532.112048435611
 31
0.0
1001
ACAD
1000
ASC_BOUNDS
1002
{
1070
    19
1002
}
  0
ARC
  5
4791
  8
FUTO
 10
10873.099050424569
 20
19528.127269643239
 30
0.0
 40
4.0000000000002656
 50
94.99999999999946
 51
180.0
1001
ACAD
1000
ASC_BOUNDS
1002
{
1070
    19
1002
}
  0
LINE
  5
4792
  8
FUTO
 10
10869.099050424569
 20
19528.127269643239
 30
0.0
 11
10869.099050424569
 21
19411.450892486901
 31
0.0
1001
ACAD
1000
ASC_BOUNDS
1002
{
1070
    19
1002
}
  0
ARC
  5
4793
  8
FUTO
 10
10873.099050424569
 20
19411.450892486901
 30
0.0
 40
3.9999999999990901
 50
179.9999999999869
 51
264.99999999998641
1001
ACAD
1000
ASC_BOUNDS
1002
{
1070
    19
1002
}
  0
LINE
  5
4794
  8
FUTO
 10
10872.75042745358
 20
19407.46611369454
 30
0.0
 11
10933.94767339556
 21
19402.112048435611
 31
0.0
1001
ACAD
1000
ASC_BOUNDS
1002
{
1070
    19
1002
}
  0
ARC
  5
4795
  8
FUTO
 10
10933.599050424569
 20
19398.127269643239
 30
0.0
 40
4.0000000000010933
 50
0.0000000000260551
 51
85.000000000014666
1001
ACAD
1000
ASC_BOUNDS
1002
{
1070
    19
1002
}
  0
LINE
  5
4796
  8
FUTO
 10
10937.599050424569
 20
19398.127269643239
 30
0.0
 11
10937.599050424569
 21
19394.789081065072
 31
0.0
1001
ACAD
1000
ASC_BOUNDS
1002
{
1070
    19
1002
}
  0
LINE
  5
4797
  8
FUTO
 10
10937.599050424569
 20
19394.789081065072
 30
0.0
 11
10862.599050424569
 21
19394.789081065072
 31
0.0
1001
ACAD
1000
ASC_BOUNDS
1002
{
1070
    19
1002
}
  0
TEXT
  5
4E82
  8
SP
 10
1999.1872779562721
 20
8026.1338237551981
 30
0.0
 40
100.0
  1
 
  0
TEXT
  5
514A
  8
SP
 10
-983.84969715905765
 20
10886.678722623081
 30
0.0
 40
100.0
  1
 
  0
TEXT
  5
514B
  8
SP
 10
3177.005803466247
 20
13566.842171563399
 30
0.0
 40
100.0
  1
 
  0
TEXT
  5
514C
  8
SP
 10
12733.9572334697
 20
20995.439843658241
 30
0.0
 40
100.0
  1
 
  0
LINE
  5
514D
  8
4
 10
11835.207664496529
 20
17394.386616369698
 30
0.0
 11
11835.207664496529
 21
16394.386616369698
 31
0.0
  0
LINE
  5
514E
  8
4
 10
8335.2076644965346
 20
17394.386616369698
 30
0.0
 11
8335.2076644965346
 21
16394.386616369698
 31
0.0
  0
LINE
  5
514F
  8
4
 10
5835.2076644965337
 20
17394.386616369698
 30
0.0
 11
5835.2076644965337
 21
16394.386616369698
 31
0.0
  0
LINE
  5
5152
  8
4
 10
5835.2076644965337
 20
16394.386616369698
 30
0.0
 11
11835.207664496529
 21
16394.386616369698
 31
0.0
  0
LINE
  5
5153
  8
4
 10
5835.2076644965337
 20
16894.386616369698
 30
0.0
 11
11835.207664496529
 21
16894.386616369698
 31
0.0
  0
TEXT
  5
5154
  8
4
 10
6027.7180687310538
 20
17052.10174570277
 30
0.0
 40
250.0
  1
機器名称
  0
TEXT
  5
5155
  8
4
 10
6016.4981946205298
 20
16502.61240002975
 30
0.0
 40
250.0
  1
機器型番
  0
TEXT
  5
5156
  8
4
 10
8359.1729730017469
 20
17005.323128154429
 30
0.0
 40
225.0
  1
ミツヤリミットロードファン
  0
TEXT
  5
5157
  8
4
 10
8518.4801424239486
 20
16480.184537769412
 30
0.0
 40
250.0
  1
LL#9-1
  0
TEXT
  5
5159
  8
4
 10
6460.3694064654192
 20
26811.530823032281
 30
0.0
 40
270.0
  1
床置ベット
  0
TEXT
  5
515A
  8
4
 10
4166.0456311437656
 20
27563.79149736619
 30
0.0
 40
360.0
  1
遠心式片吸込片持リミットロードファン
  0
LINE
  5
515B
  8
4
 10
3835.2076644965341
 20
27241.43038769373
 30
0.0
 11
11835.207664496529
 21
27241.43038769373
 31
0.0
  0
LINE
  5
515C
  8
4
 10
3835.2076644965341
 20
28241.43038769373
 30
0.0
 11
11835.207664496529
 21
28241.43038769373
 31
0.0
  0
LINE
  5
515D
  8
4
 10
5835.2076644965337
 20
17394.386616369698
 30
0.0
 11
11835.207664496529
 21
17394.386616369698
 31
0.0
  0
LINE
  5
515E
  8
4
 10
3835.2076644965341
 20
28241.43038769373
 30
0.0
 11
3835.2076644965341
 21
27241.43038769373
 31
0.0
  0
TEXT
  5
515F
  8
4
 10
4281.0752452519
 20
26805.984004101421
 30
0.0
 40
270.0
  1
右回転右横向
  0
TEXT
  5
5160
  8
4
 10
9930.0554607429876
 20
28424.692023846241
 30
0.0
 40
280.0
  1
No.
  0
TEXT
  5
5161
  8
4
 10
9996.9868877533081
 20
26315.265980022079
 30
0.0
 40
270.0
  1
縮尺：1/50
  0
LINE
  5
5162
  8
4
 10
11835.207664496529
 20
28241.43038769373
 30
0.0
 11
11835.207664496529
 21
27241.43038769373
 31
0.0
  0
LINE
  5
5163
  8
4
 10
13085.207664496529
 20
29644.386616369698
 30
0.0
 11
13085.207664496529
 21
29644.386616369698
 31
0.0
  0
LINE
  5
5164
  8
4
 10
9788.2947762958574
 20
28300.704531996711
 30
0.0
 11
9788.2947762958574
 21
28827.647924118472
 31
0.0
  0
LINE
  5
5165
  8
4
 10
9788.2947762958574
 20
28827.647924118472
 30
0.0
 11
11835.207664496529
 21
28827.647924118472
 31
0.0
  0
LINE
  5
5166
  8
4
 10
11835.207664496529
 20
28827.647924118472
 30
0.0
 11
11835.207664496529
 21
28300.704531996711
 31
0.0
  0
LINE
  5
5167
  8
4
 10
11835.207664496529
 20
28300.704531996711
 30
0.0
 11
9788.2947762958574
 21
28300.704531996711
 31
0.0
  0
LINE
  5
5168
  8
4
 10
2585.2076644965341
 20
14894.3866163697
 30
0.0
 11
2585.2076644965341
 21
29644.386616369698
 31
0.0
  0
LINE
  5
5169
  8
4
 10
2585.2076644965341
 20
29644.386616369698
 30
0.0
 11
13085.207664496529
 21
29644.386616369698
 31
0.0
  0
LINE
  5
516A
  8
4
 10
13085.207664496529
 20
29644.386616369698
 30
0.0
 11
13085.207664496529
 21
14894.3866163697
 31
0.0
  0
LINE
  5
516B
  8
4
 10
13085.207664496529
 20
14894.3866163697
 30
0.0
 11
2585.2076644965341
 21
14894.3866163697
 31
0.0
  0
ENDSEC
  0
EOF
