  0
SECTION
  2
HEADER
  9
$ACADVER
  1
AC1009
  9
$INSBASE
 10
0.0
 20
0.0
 30
0.0
  9
$EXTMIN
 10
9735.8246059484045
 20
12997.534169321139
 30
0.0
  9
$EXTMAX
 10
20235.824605948401
 20
27747.534169321141
 30
0.0
  9
$LIMMIN
 10
0.0
 20
0.0
  9
$LIMMAX
 10
420.0
 20
297.0
  9
$ORTHOMODE
 70
     0
  9
$REGENMODE
 70
     1
  9
$FILLMODE
 70
     1
  9
$QTEXTMODE
 70
     0
  9
$MIRRTEXT
 70
     0
  9
$DRAGMODE
 70
     2
  9
$LTSCALE
 40
150.0
  9
$OSMODE
 70
    37
  9
$ATTMODE
 70
     1
  9
$TEXTSIZE
 40
90.0
  9
$TRACEWID
 40
0.05
  9
$TEXTSTYLE
  7
STANDARD
  9
$CLAYER
  8
FUTO
  9
$CELTYPE
  6
BYLAYER
  9
$CECOLOR
 62
   256
  9
$DIMSCALE
 40
30.0
  9
$DIMASZ
 40
2.0
  9
$DIMEXO
 40
1.0
  9
$DIMDLI
 40
10.0
  9
$DIMRND
 40
0.0
  9
$DIMDLE
 40
0.0
  9
$DIMEXE
 40
1.0
  9
$DIMTP
 40
0.0
  9
$DIMTM
 40
0.0
  9
$DIMTXT
 40
3.0
  9
$DIMCEN
 40
0.0
  9
$DIMTSZ
 40
0.0
  9
$DIMTOL
 70
     0
  9
$DIMLIM
 70
     0
  9
$DIMTIH
 70
     0
  9
$DIMTOH
 70
     0
  9
$DIMSE1
 70
     0
  9
$DIMSE2
 70
     0
  9
$DIMTAD
 70
     1
  9
$DIMZIN
 70
     8
  9
$DIMBLK
  1
OPEN30
  9
$DIMASO
 70
     1
  9
$DIMSHO
 70
     1
  9
$DIMPOST
  1

  9
$DIMAPOST
  1

  9
$DIMALT
 70
     0
  9
$DIMALTD
 70
     2
  9
$DIMALTF
 40
0.03937
  9
$DIMLFAC
 40
1.0
  9
$DIMTOFL
 70
     1
  9
$DIMTVP
 40
0.0
  9
$DIMTIX
 70
     0
  9
$DIMSOXD
 70
     0
  9
$DIMSAH
 70
     0
  9
$DIMBLK1
  1

  9
$DIMBLK2
  1

  9
$DIMSTYLE
  2
MATSU
  9
$DIMCLRD
 70
     2
  9
$DIMCLRE
 70
     2
  9
$DIMCLRT
 70
     2
  9
$DIMTFAC
 40
1.0
  9
$DIMGAP
 40
0.5
  9
$LUNITS
 70
     2
  9
$LUPREC
 70
     1
  9
$SKETCHINC
 40
0.1
  9
$FILLETRAD
 40
0.0
  9
$AUNITS
 70
     0
  9
$AUPREC
 70
     0
  9
$MENU
  1
SSMENU
  9
$ELEVATION
 40
0.0
  9
$PELEVATION
 40
0.0
  9
$THICKNESS
 40
0.0
  9
$LIMCHECK
 70
     0
  9
$BLIPMODE
 70
     0
  9
$CHAMFERA
 40
20.0
  9
$CHAMFERB
 40
20.0
  9
$SKPOLY
 70
     0
  9
$TDCREATE
 40
2450714.9573032409
  9
$TDUPDATE
 40
2454953.6483288072
  9
$TDINDWG
 40
1.4498434028
  9
$TDUSRTIMER
 40
1.4498434028
  9
$USRTIMER
 70
     1
  9
$ANGBASE
 50
0.0
  9
$ANGDIR
 70
     0
  9
$PDMODE
 70
     0
  9
$PDSIZE
 40
1.0
  9
$PLINEWID
 40
0.0
  9
$COORDS
 70
     1
  9
$SPLFRAME
 70
     0
  9
$SPLINETYPE
 70
     6
  9
$SPLINESEGS
 70
     8
  9
$ATTDIA
 70
     0
  9
$ATTREQ
 70
     1
  9
$HANDLING
 70
 10241
  9
$HANDSEED
  5
56A7
  9
$SURFTAB1
 70
     6
  9
$SURFTAB2
 70
     6
  9
$SURFTYPE
 70
     6
  9
$SURFU
 70
     6
  9
$SURFV
 70
     6
  9
$UCSNAME
  2

  9
$UCSORG
 10
0.0
 20
0.0
 30
0.0
  9
$UCSXDIR
 10
1.0
 20
0.0
 30
0.0
  9
$UCSYDIR
 10
0.0
 20
1.0
 30
0.0
  9
$PUCSNAME
  2

  9
$PUCSORG
 10
0.0
 20
0.0
 30
0.0
  9
$PUCSXDIR
 10
1.0
 20
0.0
 30
0.0
  9
$PUCSYDIR
 10
0.0
 20
1.0
 30
0.0
  9
$USERI1
 70
     0
  9
$USERI2
 70
     0
  9
$USERI3
 70
     0
  9
$USERI4
 70
     0
  9
$USERI5
 70
     0
  9
$USERR1
 40
0.0
  9
$USERR2
 40
0.0
  9
$USERR3
 40
0.0
  9
$USERR4
 40
0.0
  9
$USERR5
 40
0.0
  9
$WORLDVIEW
 70
     1
  9
$SHADEDGE
 70
     3
  9
$SHADEDIF
 70
    70
  9
$TILEMODE
 70
     1
  9
$MAXACTVP
 70
    16
  9
$PLIMCHECK
 70
     0
  9
$PEXTMIN
 10
0.0
 20
0.0
 30
0.0
  9
$PEXTMAX
 10
12.561051004636781
 20
9.0
 30
0.0
  9
$PLIMMIN
 10
0.0
 20
0.0
  9
$PLIMMAX
 10
12.0
 20
9.0
  9
$UNITMODE
 70
     0
  9
$VISRETAIN
 70
     0
  9
$PLINEGEN
 70
     0
  9
$PSLTSCALE
 70
     0
  0
ENDSEC
  0
SECTION
  2
TABLES
  0
TABLE
  2
VPORT
 70
     2
  0
VPORT
  2
*ACTIVE
 70
     0
 10
0.0
 20
0.0
 11
1.0
 21
1.0
 12
19870.055081829181
 22
14684.05936984955
 13
0.0
 23
0.0
 14
5.0
 24
5.0
 15
0.0
 25
0.0
 16
0.0
 26
0.0
 36
1.0
 17
0.0
 27
0.0
 37
0.0
 40
4717.204539974935
 41
3.1666666666666661
 42
50.0
 43
0.0
 44
0.0
 50
0.0
 51
0.0
 71
     0
 72
   500
 73
     1
 74
     0
 75
     0
 76
     0
 77
     0
 78
     0
  0
ENDTAB
  0
TABLE
  2
LTYPE
 70
     4
  0
LTYPE
  2
CONTINUOUS
 70
     0
  3
実線
 72
    65
 73
     0
 40
0.0
  0
LTYPE
  2
CENTER
 70
     0
  3
____ _ ____ _ ____ _ ____ _ ____ _ ____ _ ____ 
 72
    65
 73
     4
 40
2.0
 49
1.25
 49
-0.25
 49
0.25
 49
-0.25
  0
LTYPE
  2
HIDDEN
 70
     0
  3
__ __ __ __ __ __ __ __ __ __ __ __ __ __ __ __
 72
    65
 73
     2
 40
0.375
 49
0.25
 49
-0.125
  0
LTYPE
  2
PHANTOM
 70
     0
  3
______  __  __  ______  __  __  ______  __  __ 
 72
    65
 73
     6
 40
2.5
 49
1.25
 49
-0.25
 49
0.25
 49
-0.25
 49
0.25
 49
-0.25
  0
ENDTAB
  0
TABLE
  2
LAYER
 70
     9
  0
LAYER
  2
0
 70
     0
 62
     7
  6
CONTINUOUS
  0
LAYER
  2
FUTO
 70
     0
 62
     4
  6
CONTINUOUS
  0
LAYER
  2
CT
 70
     0
 62
     3
  6
CENTER
  0
LAYER
  2
HOSO
 70
     0
 62
     7
  6
CONTINUOUS
  0
LAYER
  2
KL
 70
     0
 62
     7
  6
HIDDEN
  0
LAYER
  2
SL
 70
     0
 62
     1
  6
PHANTOM
  0
LAYER
  2
SP
 70
     0
 62
     2
  6
CONTINUOUS
  0
LAYER
  2
DEFPOINTS
 70
     0
 62
     7
  6
CONTINUOUS
  0
LAYER
  2
4
 70
     0
 62
     7
  6
CONTINUOUS
  0
ENDTAB
  0
TABLE
  2
STYLE
 70
     2
  0
STYLE
  2
STANDARD
 70
     0
 40
0.0
 41
1.0
 50
15.0
 71
     0
 42
90.0
  3
SIMPLEX
  4
EXTFONT
  0
STYLE
  2
SUNPOU
 70
     0
 40
0.0
 41
1.0
 50
15.0
 71
     0
 42
5.0
  3
simplex.shx
  4
extfont.shx
  0
ENDTAB
  0
TABLE
  2
VIEW
 70
     0
  0
ENDTAB
  0
TABLE
  2
UCS
 70
     0
  0
ENDTAB
  0
TABLE
  2
APPID
 70
     1
  0
APPID
  2
ACAD
 70
     0
  0
ENDTAB
  0
TABLE
  2
DIMSTYLE
 70
     1
  0
DIMSTYLE
  2
MATSU
 70
     0
  3

  4

  5
CLOSED
  6

  7

 40
10.0
 41
2.0
 42
1.0
 43
10.0
 44
1.0
 45
0.0
 46
0.0
 47
0.0
 48
0.0
140
3.0
141
0.0
142
0.0
143
0.03937
144
1.0
145
0.0
146
1.0
147
0.5
 71
     0
 72
     0
 73
     0
 74
     0
 75
     0
 76
     0
 77
     1
 78
     8
170
     0
171
     2
172
     1
173
     0
174
     0
175
     0
176
   256
177
   256
178
   256
  0
ENDTAB
  0
ENDSEC
  0
SECTION
  2
BLOCKS
  0
BLOCK
  8
0
  2
$MODEL_SPACE
 70
     0
 10
0.0
 20
0.0
 30
0.0
  3
$MODEL_SPACE
  1

  0
ENDBLK
  5
7
  8
0
  0
BLOCK
 67
     1
  8
0
  2
$PAPER_SPACE
 70
     0
 10
0.0
 20
0.0
 30
0.0
  3
$PAPER_SPACE
  1

  0
ENDBLK
  5
A
 67
     1
  8
0
  0
BLOCK
  8
0
  2
まっすぐの矢印
 70
     0
 10
0.0
 20
0.0
 30
0.0
  3
まっすぐの矢印
  1

  0
LINE
  5
599
  8
SP
 10
13.01863531255526
 20
-41.453946163708451
 30
0.0
 11
13.01863531255526
 21
-93.495696758840026
 31
0.0
  0
LINE
  5
59A
  8
SP
 10
13.01863531255526
 20
-93.495696758840026
 30
0.0
 11
-13.01863531255526
 21
-93.495696758840026
 31
0.0
  0
LINE
  5
59B
  8
SP
 10
-13.01863531255526
 20
-93.495696758840026
 30
0.0
 11
-13.01863531255526
 21
-41.453946163708451
 31
0.0
  0
LINE
  5
59C
  8
SP
 10
-13.01863531255526
 20
-41.453946163708451
 30
0.0
 11
-32.06015471115802
 21
-41.453946163708451
 31
0.0
  0
LINE
  5
59D
  8
SP
 10
-32.06015471115802
 20
-41.453946163708451
 30
0.0
 11
0.0
 21
0.0
 31
0.0
  0
LINE
  5
59E
  8
SP
 10
0.0
 20
0.0
 30
0.0
 11
32.06015471115802
 21
-41.453946163708451
 31
0.0
  0
LINE
  5
59F
  8
SP
 10
32.06015471115802
 20
-41.453946163708451
 30
0.0
 11
13.01863531255526
 21
-41.453946163708451
 31
0.0
  0
ENDBLK
  5
5A1
  8
0
  0
BLOCK
  8
0
  2
左回転矢印
 70
     0
 10
0.0
 20
0.0
 30
0.0
  3
左回転矢印
  1

  0
LINE
  5
57C
  8
SP
 10
43.930449171819873
 20
24.859487323637271
 30
0.0
 11
38.511878498580238
 21
44.478978865188871
 31
0.0
  0
LINE
  5
57D
  8
SP
 10
38.511878498580238
 20
44.478978865188871
 30
0.0
 11
0.0
 21
0.0
 31
0.0
  0
LINE
  5
57E
  8
SP
 10
0.0
 20
0.0
 30
0.0
 11
52.57968174421967
 21
-6.4575435924972453
 31
0.0
  0
LINE
  5
57F
  8
SP
 10
52.57968174421967
 20
-6.4575435924972453
 30
0.0
 11
48.189912989015284
 21
9.436875093862227
 31
0.0
  0
ARC
  5
580
  8
SP
 10
93.893649146691985
 20
-156.0466295121104
 30
0.0
 40
171.67883327727239
 50
67.881388989212894
 51
105.4392492786835
  0
LINE
  5
581
  8
SP
 10
158.53505643637521
 20
2.997736182040398
 30
0.0
 11
164.55945966006539
 21
17.820238190756751
 31
0.0
  0
ARC
  5
582
  8
SP
 10
93.893649146692198
 20
-156.04662951211091
 30
0.0
 40
187.67883327727299
 50
67.881388989212994
 51
105.4392492786836
  0
ENDBLK
  5
584
  8
0
  0
BLOCK
  8
0
  2
*D2
 70
     1
 10
0.0
 20
0.0
 30
0.0
  3
*D2
  1

  0
LINE
  5
55F0
  8
FUTO
 62
     2
 10
13593.476832236511
 20
17252.509234401361
 30
0.0
 11
13593.476832236511
 21
17040.29152548009
 31
0.0
  0
LINE
  5
55F1
  8
FUTO
 62
     2
 10
12043.476832236511
 20
17204.591385445121
 30
0.0
 11
12043.476832236511
 21
17040.29152548009
 31
0.0
  0
LINE
  5
55F2
  8
FUTO
 62
     2
 10
13533.476832236511
 20
17070.29152548009
 30
0.0
 11
12103.476832236511
 21
17070.29152548009
 31
0.0
  0
INSERT
  5
55F3
  8
FUTO
 62
     2
  2
_OPEN30
 10
13593.476832236511
 20
17070.29152548009
 30
0.0
 41
60.0
 42
60.0
 43
60.0
  0
INSERT
  5
55F4
  8
FUTO
 62
     2
  2
_OPEN30
 10
12043.476832236511
 20
17070.29152548009
 30
0.0
 41
60.0
 42
60.0
 43
60.0
 50
180.0
  0
TEXT
  8
0
  40
90
  5
568F
  62
2
  72
0
  71
0
 10
12638.5
 20
16971.0
 30
0.000000
  1
1550
  7
SUNPOU
  0
POINT
  5
55F6
  8
DEFPOINTS
 62
     0
 10
13593.476832236511
 20
17282.509234401361
 30
0.0
  0
POINT
  5
55F7
  8
DEFPOINTS
 62
     0
 10
12043.476832236511
 20
17234.591385445121
 30
0.0
  0
POINT
  5
55F8
  8
DEFPOINTS
 62
     0
 10
12043.476832236511
 20
17070.29152548009
 30
0.0
  0
ENDBLK
  5
3643
  8
0
  0
BLOCK
  8
0
  2
*D3
 70
     1
 10
0.0
 20
0.0
 30
0.0
  3
*D3
  1

  0
LINE
  5
55F9
  8
FUTO
 62
     2
 10
12043.476832236511
 20
17279.591385445121
 30
0.0
 11
12043.476832236511
 21
16857.374208495999
 31
0.0
  0
LINE
  5
55FA
  8
FUTO
 62
     2
 10
14443.476832236511
 20
17279.591385445121
 30
0.0
 11
14443.476832236511
 21
16857.374208495999
 31
0.0
  0
LINE
  5
55FB
  8
FUTO
 62
     2
 10
12103.476832236511
 20
16887.374208495999
 30
0.0
 11
14383.476832236511
 21
16887.374208495999
 31
0.0
  0
INSERT
  5
55FC
  8
FUTO
 62
     2
  2
_OPEN30
 10
12043.476832236511
 20
16887.374208495999
 30
0.0
 41
60.0
 42
60.0
 43
60.0
 50
180.0
  0
INSERT
  5
55FD
  8
FUTO
 62
     2
  2
_OPEN30
 10
14443.476832236511
 20
16887.374208495999
 30
0.0
 41
60.0
 42
60.0
 43
60.0
  0
TEXT
  8
0
  40
90
  5
5690
  62
2
  72
0
  71
0
 10
13063.5
 20
16788.1
 30
0.000000
  1
2400
  7
SUNPOU
  0
POINT
  5
55FF
  8
DEFPOINTS
 62
     0
 10
12043.476832236511
 20
17309.591385445121
 30
0.0
  0
POINT
  5
5600
  8
DEFPOINTS
 62
     0
 10
14443.476832236511
 20
17309.591385445121
 30
0.0
  0
POINT
  5
5601
  8
DEFPOINTS
 62
     0
 10
14443.476832236511
 20
16887.374208495999
 30
0.0
  0
ENDBLK
  5
3638
  8
0
  0
BLOCK
  8
0
  2
*D4
 70
     1
 10
0.0
 20
0.0
 30
0.0
  3
*D4
  1

  0
LINE
  5
5602
  8
FUTO
 62
     2
 10
13593.476832236511
 20
17252.509234401361
 30
0.0
 11
13593.476832236511
 21
17040.29152548009
 31
0.0
  0
LINE
  5
5603
  8
FUTO
 62
     2
 10
14443.476832236511
 20
17204.591385445121
 30
0.0
 11
14443.476832236511
 21
17040.29152548009
 31
0.0
  0
LINE
  5
5604
  8
FUTO
 62
     2
 10
13653.476832236511
 20
17070.29152548009
 30
0.0
 11
14383.476832236511
 21
17070.29152548009
 31
0.0
  0
INSERT
  5
5605
  8
FUTO
 62
     2
  2
_OPEN30
 10
13593.476832236511
 20
17070.29152548009
 30
0.0
 41
60.0
 42
60.0
 43
60.0
 50
180.0
  0
INSERT
  5
5606
  8
FUTO
 62
     2
  2
_OPEN30
 10
14443.476832236511
 20
17070.29152548009
 30
0.0
 41
60.0
 42
60.0
 43
60.0
  0
TEXT
  8
0
  40
90
  5
5691
  62
2
  72
0
  71
0
 10
13838.5
 20
16971.0
 30
0.000000
  1
850
  7
SUNPOU
  0
POINT
  5
5608
  8
DEFPOINTS
 62
     0
 10
13593.476832236511
 20
17282.509234401361
 30
0.0
  0
POINT
  5
5609
  8
DEFPOINTS
 62
     0
 10
14443.476832236511
 20
17234.591385445121
 30
0.0
  0
POINT
  5
560A
  8
DEFPOINTS
 62
     0
 10
14443.476832236511
 20
17070.29152548009
 30
0.0
  0
ENDBLK
  5
3667
  8
0
  0
BLOCK
  8
0
  2
*D5
 70
     1
 10
0.0
 20
0.0
 30
0.0
  3
*D5
  1

  0
LINE
  5
562A
  8
FUTO
 62
     2
 10
16086.56824544236
 20
17279.591385445121
 30
0.0
 11
16086.56824544236
 21
16861.55746320316
 31
0.0
  0
LINE
  5
562B
  8
FUTO
 62
     2
 10
18286.568245442359
 20
17279.591385445121
 30
0.0
 11
18286.568245442359
 21
16861.55746320316
 31
0.0
  0
LINE
  5
562C
  8
FUTO
 62
     2
 10
16146.56824544236
 20
16891.55746320316
 30
0.0
 11
18226.568245442359
 21
16891.55746320316
 31
0.0
  0
INSERT
  5
562D
  8
FUTO
 62
     2
  2
_OPEN30
 10
16086.56824544236
 20
16891.55746320316
 30
0.0
 41
60.0
 42
60.0
 43
60.0
 50
180.0
  0
INSERT
  5
562E
  8
FUTO
 62
     2
  2
_OPEN30
 10
18286.568245442359
 20
16891.55746320316
 30
0.0
 41
60.0
 42
60.0
 43
60.0
  0
TEXT
  8
0
  40
90
  5
5692
  62
2
  72
0
  71
0
 10
17006.6
 20
16792.3
 30
0.000000
  1
2200
  7
SUNPOU
  0
POINT
  5
5630
  8
DEFPOINTS
 62
     0
 10
16086.56824544236
 20
17309.591385445121
 30
0.0
  0
POINT
  5
5631
  8
DEFPOINTS
 62
     0
 10
18286.568245442359
 20
17309.591385445121
 30
0.0
  0
POINT
  5
5632
  8
DEFPOINTS
 62
     0
 10
18286.568245442359
 20
16891.55746320316
 30
0.0
  0
ENDBLK
  5
34E6
  8
0
  0
BLOCK
  8
0
  2
*D6
 70
     1
 10
0.0
 20
0.0
 30
0.0
  3
*D6
  1

  0
LINE
  5
5633
  8
FUTO
 62
     2
 10
17674.568245442359
 20
17279.591385445121
 30
0.0
 11
17674.568245442359
 21
17042.887904460749
 31
0.0
  0
LINE
  5
5634
  8
FUTO
 62
     2
 10
18286.568245442359
 20
17279.591385445121
 30
0.0
 11
18286.568245442359
 21
17042.887904460749
 31
0.0
  0
LINE
  5
5635
  8
FUTO
 62
     2
 10
17734.568245442359
 20
17072.887904460749
 30
0.0
 11
18226.568245442359
 21
17072.887904460749
 31
0.0
  0
INSERT
  5
5636
  8
FUTO
 62
     2
  2
_OPEN30
 10
17674.568245442359
 20
17072.887904460749
 30
0.0
 41
60.0
 42
60.0
 43
60.0
 50
180.0
  0
INSERT
  5
5637
  8
FUTO
 62
     2
  2
_OPEN30
 10
18286.568245442359
 20
17072.887904460749
 30
0.0
 41
60.0
 42
60.0
 43
60.0
  0
TEXT
  8
0
  40
90
  5
5693
  62
2
  72
0
  71
0
 10
17800.6
 20
16973.6
 30
0.000000
  1
612
  7
SUNPOU
  0
POINT
  5
5639
  8
DEFPOINTS
 62
     0
 10
17674.568245442359
 20
17309.591385445121
 30
0.0
  0
POINT
  5
563A
  8
DEFPOINTS
 62
     0
 10
18286.568245442359
 20
17309.591385445121
 30
0.0
  0
POINT
  5
563B
  8
DEFPOINTS
 62
     0
 10
18286.568245442359
 20
17072.887904460749
 30
0.0
  0
ENDBLK
  5
393A
  8
0
  0
BLOCK
  8
0
  2
*D7
 70
     1
 10
0.0
 20
0.0
 30
0.0
  3
*D7
  1

  0
LINE
  5
563C
  8
FUTO
 62
     2
 10
17674.568245442359
 20
17279.591385445121
 30
0.0
 11
17674.568245442359
 21
17042.89314538335
 31
0.0
  0
LINE
  5
563D
  8
FUTO
 62
     2
 10
16086.56824544236
 20
17279.591385445121
 30
0.0
 11
16086.56824544236
 21
17042.89314538335
 31
0.0
  0
LINE
  5
563E
  8
FUTO
 62
     2
 10
17614.568245442359
 20
17072.89314538335
 30
0.0
 11
16146.56824544236
 21
17072.89314538335
 31
0.0
  0
INSERT
  5
563F
  8
FUTO
 62
     2
  2
_OPEN30
 10
17674.568245442359
 20
17072.89314538335
 30
0.0
 41
60.0
 42
60.0
 43
60.0
  0
INSERT
  5
5640
  8
FUTO
 62
     2
  2
_OPEN30
 10
16086.56824544236
 20
17072.89314538335
 30
0.0
 41
60.0
 42
60.0
 43
60.0
 50
180.0
  0
TEXT
  8
0
  40
90
  5
5694
  62
2
  72
0
  71
0
 10
16700.6
 20
16973.6
 30
0.000000
  1
1588
  7
SUNPOU
  0
POINT
  5
5642
  8
DEFPOINTS
 62
     0
 10
17674.568245442359
 20
17309.591385445121
 30
0.0
  0
POINT
  5
5643
  8
DEFPOINTS
 62
     0
 10
16086.56824544236
 20
17309.591385445121
 30
0.0
  0
POINT
  5
5644
  8
DEFPOINTS
 62
     0
 10
16086.56824544236
 20
17072.89314538335
 30
0.0
  0
ENDBLK
  5
3947
  8
0
  0
BLOCK
  8
0
  2
_CLOSED
 70
     0
 10
0.0
 20
0.0
 30
0.0
  3
_CLOSED
  1

  0
LINE
  5
3BE3
  8
0
  6
BYBLOCK
 62
     0
 10
-1.0
 20
0.1666666666666666
 30
0.0
 11
0.0
 21
0.0
 31
0.0
  0
LINE
  5
3BE4
  8
0
  6
BYBLOCK
 62
     0
 10
0.0
 20
0.0
 30
0.0
 11
-1.0
 21
-0.1666666666666666
 31
0.0
  0
LINE
  5
3BE5
  8
0
  6
BYBLOCK
 62
     0
 10
-1.0
 20
0.1666666666666666
 30
0.0
 11
-1.0
 21
-0.1666666666666666
 31
0.0
  0
ENDBLK
  5
3BE6
  8
0
  0
BLOCK
  8
0
  2
*D9
 70
     1
 10
0.0
 20
0.0
 30
0.0
  3
*D9
  1

  0
LINE
  5
5648
  8
SP
 62
     2
 10
15854.56824544236
 20
19419.591385445121
 30
0.0
 11
15854.56824544236
 21
20358.214140125259
 31
0.0
  0
LINE
  5
5649
  8
SP
 62
     2
 10
17674.568245442359
 20
20221.308873029309
 30
0.0
 11
17674.568245442359
 21
20358.214140125259
 31
0.0
  0
LINE
  5
564A
  8
SP
 62
     2
 10
15914.56824544236
 20
20328.214140125259
 30
0.0
 11
17614.568245442359
 21
20328.214140125259
 31
0.0
  0
INSERT
  5
564B
  8
SP
 62
     2
  2
_OPEN30
 10
15854.56824544236
 20
20328.214140125259
 30
0.0
 41
60.0
 42
60.0
 43
60.0
 50
180.0
  0
INSERT
  5
564C
  8
SP
 62
     2
  2
_OPEN30
 10
17674.568245442359
 20
20328.214140125259
 30
0.0
 41
60.0
 42
60.0
 43
60.0
  0
TEXT
  8
0
  40
90
  5
5695
  62
2
  72
0
  71
0
 10
16584.6
 20
20228.9
 30
0.000000
  1
1820
  7
SUNPOU
  0
POINT
  5
564E
  8
DEFPOINTS
 62
     0
 10
15854.56824544236
 20
19389.591385445121
 30
0.0
  0
POINT
  5
564F
  8
DEFPOINTS
 62
     0
 10
17674.568245442359
 20
20191.308873029309
 30
0.0
  0
POINT
  5
5650
  8
DEFPOINTS
 62
     0
 10
17674.568245442359
 20
20328.214140125259
 30
0.0
  0
ENDBLK
  5
3C57
  8
0
  0
BLOCK
  8
0
  2
*D10
 70
     1
 10
0.0
 20
0.0
 30
0.0
  3
*D10
  1

  0
LINE
  5
560B
  8
FUTO
 62
     2
 10
18338.568245442359
 20
19709.591385445121
 30
0.0
 11
18704.178107198579
 21
19709.591385445121
 31
0.0
  0
LINE
  5
560C
  8
FUTO
 62
     2
 10
18338.568245442359
 20
18309.591385445121
 30
0.0
 11
18704.178107198579
 21
18309.591385445121
 31
0.0
  0
LINE
  5
560D
  8
FUTO
 62
     2
 10
18674.178107198579
 20
19649.591385445121
 30
0.0
 11
18674.178107198579
 21
18369.591385445121
 31
0.0
  0
INSERT
  5
560E
  8
FUTO
 62
     2
  2
_OPEN30
 10
18674.178107198579
 20
19709.591385445121
 30
0.0
 41
60.0
 42
60.0
 43
60.0
 50
90.0
  0
INSERT
  5
560F
  8
FUTO
 62
     2
  2
_OPEN30
 10
18674.178107198579
 20
18309.591385445121
 30
0.0
 41
60.0
 42
60.0
 43
60.0
 50
270.0
  0
TEXT
  8
0
  40
90
  5
5696
  62
2
  72
0
  71
0
 10
18434.2
 20
18850.3
 30
0.000000
  1
%%C1400
  7
SUNPOU
  0
POINT
  5
5611
  8
DEFPOINTS
 62
     0
 10
18308.568245442359
 20
19709.591385445121
 30
0.0
  0
POINT
  5
5612
  8
DEFPOINTS
 62
     0
 10
18308.568245442359
 20
18309.591385445121
 30
0.0
  0
POINT
  5
5613
  8
DEFPOINTS
 62
     0
 10
18674.178107198579
 20
18309.591385445121
 30
0.0
  0
ENDBLK
  5
4473
  8
0
  0
BLOCK
  8
0
  2
*D11
 70
     1
 10
0.0
 20
0.0
 30
0.0
  3
*D11
  1

  0
LINE
  5
5614
  8
FUTO
 62
     2
 10
17674.568245442359
 20
20191.308873029309
 30
0.0
 11
17674.568245442359
 21
20358.214140125259
 31
0.0
  0
LINE
  5
5615
  8
FUTO
 62
     2
 10
18308.568245442359
 20
19789.591385445121
 30
0.0
 11
18308.568245442359
 21
20358.214140125259
 31
0.0
  0
LINE
  5
5616
  8
FUTO
 62
     2
 10
17734.568245442359
 20
20328.214140125259
 30
0.0
 11
18248.568245442359
 21
20328.214140125259
 31
0.0
  0
INSERT
  5
5617
  8
FUTO
 62
     2
  2
_OPEN30
 10
17674.568245442359
 20
20328.214140125259
 30
0.0
 41
60.0
 42
60.0
 43
60.0
 50
180.0
  0
INSERT
  5
5618
  8
FUTO
 62
     2
  2
_OPEN30
 10
18308.568245442359
 20
20328.214140125259
 30
0.0
 41
60.0
 42
60.0
 43
60.0
  0
TEXT
  8
0
  40
90
  5
5697
  62
2
  72
0
  71
0
 10
17811.6
 20
20228.9
 30
0.000000
  1
634
  7
SUNPOU
  0
POINT
  5
561A
  8
DEFPOINTS
 62
     0
 10
17674.568245442359
 20
20161.308873029309
 30
0.0
  0
POINT
  5
561B
  8
DEFPOINTS
 62
     0
 10
18308.568245442359
 20
19759.591385445121
 30
0.0
  0
POINT
  5
561C
  8
DEFPOINTS
 62
     0
 10
18308.568245442359
 20
20328.214140125259
 30
0.0
  0
ENDBLK
  5
447F
  8
0
  0
BLOCK
  8
0
  2
_OPEN30
 70
     0
 10
0.0
 20
0.0
 30
0.0
  3
_OPEN30
  1

  0
LINE
  5
44D6
  8
FUTO
 62
     0
 10
-1.0
 20
0.26794919
 30
0.0
 11
0.0
 21
0.0
 31
0.0
  0
LINE
  5
44D7
  8
FUTO
 62
     0
 10
0.0
 20
0.0
 30
0.0
 11
-1.0
 21
-0.26794919
 31
0.0
  0
LINE
  5
44D8
  8
FUTO
 62
     0
 10
0.0
 20
0.0
 30
0.0
 11
-1.0
 21
0.0
 31
0.0
  0
ENDBLK
  5
44DA
  8
0
  0
BLOCK
  8
0
  2
*D13
 70
     1
 10
0.0
 20
0.0
 30
0.0
  3
*D13
  1

  0
LINE
  5
5651
  8
FUTO
 62
     2
 10
13593.476832236511
 20
23696.709096240262
 30
0.0
 11
13593.476832236511
 21
23800.272341783551
 31
0.0
  0
LINE
  5
5652
  8
FUTO
 62
     2
 10
12043.476832236511
 20
22170.836518590659
 30
0.0
 11
12043.476832236511
 21
23800.272341783551
 31
0.0
  0
LINE
  5
5653
  8
FUTO
 62
     2
 10
13533.476832236511
 20
23770.272341783551
 30
0.0
 11
12103.476832236511
 21
23770.272341783551
 31
0.0
  0
INSERT
  5
5654
  8
FUTO
 62
     2
  2
_OPEN30
 10
13593.476832236511
 20
23770.272341783551
 30
0.0
 41
60.0
 42
60.0
 43
60.0
  0
INSERT
  5
5655
  8
FUTO
 62
     2
  2
_OPEN30
 10
12043.476832236511
 20
23770.272341783551
 30
0.0
 41
60.0
 42
60.0
 43
60.0
 50
180.0
  0
TEXT
  8
0
  40
90
  5
5698
  62
2
  72
0
  71
0
 10
12638.5
 20
23671.0
 30
0.000000
  1
1550
  7
SUNPOU
  0
POINT
  5
5657
  8
DEFPOINTS
 62
     0
 10
13593.476832236511
 20
23666.709096240262
 30
0.0
  0
POINT
  5
5658
  8
DEFPOINTS
 62
     0
 10
12043.476832236511
 20
22140.836518590659
 30
0.0
  0
POINT
  5
5659
  8
DEFPOINTS
 62
     0
 10
12043.476832236511
 20
23770.272341783551
 30
0.0
  0
ENDBLK
  5
45B4
  8
0
  0
BLOCK
  8
0
  2
*D14
 70
     1
 10
0.0
 20
0.0
 30
0.0
  3
*D14
  1

  0
LINE
  5
565A
  8
FUTO
 62
     2
 10
14800.99683281603
 20
22751.836518590659
 30
0.0
 11
15033.78273507638
 21
22751.836518590659
 31
0.0
  0
LINE
  5
565B
  8
FUTO
 62
     2
 10
14373.476832236511
 20
23385.836518590659
 30
0.0
 11
15033.78273507638
 21
23385.836518590659
 31
0.0
  0
LINE
  5
565C
  8
FUTO
 62
     2
 10
15003.78273507638
 20
22811.836518590659
 30
0.0
 11
15003.78273507638
 21
23325.836518590659
 31
0.0
  0
INSERT
  5
565D
  8
FUTO
 62
     2
  2
_OPEN30
 10
15003.78273507638
 20
22751.836518590659
 30
0.0
 41
60.0
 42
60.0
 43
60.0
 50
270.0
  0
INSERT
  5
565E
  8
FUTO
 62
     2
  2
_OPEN30
 10
15003.78273507638
 20
23385.836518590659
 30
0.0
 41
60.0
 42
60.0
 43
60.0
 50
90.0
  0
TEXT
  8
0
  40
90
  5
5699
  62
2
  72
0
  71
0
 10
14763.8
 20
22909.5
 30
0.000000
  1
634
  7
SUNPOU
  0
POINT
  5
5660
  8
DEFPOINTS
 62
     0
 10
14770.99683281603
 20
22751.836518590659
 30
0.0
  0
POINT
  5
5661
  8
DEFPOINTS
 62
     0
 10
14343.476832236511
 20
23385.836518590659
 30
0.0
  0
POINT
  5
5662
  8
DEFPOINTS
 62
     0
 10
15003.78273507638
 20
23385.836518590659
 30
0.0
  0
ENDBLK
  5
45C1
  8
0
  0
BLOCK
  8
0
  2
*D15
 70
     1
 10
0.0
 20
0.0
 30
0.0
  3
*D15
  1

  0
LINE
  5
5663
  8
FUTO
 62
     2
 10
14003.476832236511
 20
20931.836518590659
 30
0.0
 11
15033.78273507638
 21
20931.836518590659
 31
0.0
  0
LINE
  5
5664
  8
FUTO
 62
     2
 10
15003.78273507638
 20
22691.836518590659
 30
0.0
 11
15003.78273507638
 21
20991.836518590659
 31
0.0
  0
INSERT
  5
5665
  8
FUTO
 62
     2
  2
_OPEN30
 10
15003.78273507638
 20
22751.836518590659
 30
0.0
 41
60.0
 42
60.0
 43
60.0
 50
90.0
  0
INSERT
  5
5666
  8
FUTO
 62
     2
  2
_OPEN30
 10
15003.78273507638
 20
20931.836518590659
 30
0.0
 41
60.0
 42
60.0
 43
60.0
 50
270.0
  0
TEXT
  8
0
  40
90
  5
569A
  62
2
  72
0
  71
0
 10
14763.8
 20
21682.5
 30
0.000000
  1
1820
  7
SUNPOU
  0
POINT
  5
5668
  8
DEFPOINTS
 62
     0
 10
15003.78273507638
 20
22751.836518590659
 30
0.0
  0
POINT
  5
5669
  8
DEFPOINTS
 62
     0
 10
13973.476832236511
 20
20931.836518590659
 30
0.0
  0
POINT
  5
566A
  8
DEFPOINTS
 62
     0
 10
15003.78273507638
 20
20931.836518590659
 30
0.0
  0
ENDBLK
  5
45CD
  8
0
  0
BLOCK
  8
0
  2
*D16
 70
     1
 10
0.0
 20
0.0
 30
0.0
  3
*D16
  1

  0
LINE
  5
566B
  8
FUTO
 62
     2
 10
13593.476832236511
 20
23696.709096240262
 30
0.0
 11
13593.476832236511
 21
23800.272341783551
 31
0.0
  0
LINE
  5
566C
  8
FUTO
 62
     2
 10
14523.476832236511
 20
23365.83651859067
 30
0.0
 11
14523.476832236511
 21
23800.272341783551
 31
0.0
  0
LINE
  5
566D
  8
FUTO
 62
     2
 10
13653.476832236511
 20
23770.272341783551
 30
0.0
 11
14463.476832236511
 21
23770.272341783551
 31
0.0
  0
INSERT
  5
566E
  8
FUTO
 62
     2
  2
_OPEN30
 10
13593.476832236511
 20
23770.272341783551
 30
0.0
 41
60.0
 42
60.0
 43
60.0
 50
180.0
  0
INSERT
  5
566F
  8
FUTO
 62
     2
  2
_OPEN30
 10
14523.476832236511
 20
23770.272341783551
 30
0.0
 41
60.0
 42
60.0
 43
60.0
  0
TEXT
  8
0
  40
90
  5
569B
  62
2
  72
0
  71
0
 10
13878.5
 20
23671.0
 30
0.000000
  1
930
  7
SUNPOU
  0
POINT
  5
5671
  8
DEFPOINTS
 62
     0
 10
13593.476832236511
 20
23666.709096240262
 30
0.0
  0
POINT
  5
5672
  8
DEFPOINTS
 62
     0
 10
14523.476832236511
 20
23335.83651859067
 30
0.0
  0
POINT
  5
5673
  8
DEFPOINTS
 62
     0
 10
14523.476832236511
 20
23770.272341783551
 30
0.0
  0
ENDBLK
  5
471E
  8
0
  0
BLOCK
  8
0
  2
*D17
 70
     1
 10
0.0
 20
0.0
 30
0.0
  3
*D17
  1

  0
LINE
  5
5674
  8
FUTO
 62
     2
 10
14473.476832236511
 20
17309.591385445121
 30
0.0
 11
15101.368631288229
 21
17309.591385445121
 31
0.0
  0
LINE
  5
5675
  8
FUTO
 62
     2
 10
14801.48081088383
 20
19009.591385445121
 30
0.0
 11
15101.368631288229
 21
19009.591385445121
 31
0.0
  0
LINE
  5
5676
  8
FUTO
 62
     2
 10
15071.368631288229
 20
17369.591385445121
 30
0.0
 11
15071.368631288229
 21
18949.591385445121
 31
0.0
  0
INSERT
  5
5677
  8
FUTO
 62
     2
  2
_OPEN30
 10
15071.368631288229
 20
17309.591385445121
 30
0.0
 41
60.0
 42
60.0
 43
60.0
 50
270.0
  0
INSERT
  5
5678
  8
FUTO
 62
     2
  2
_OPEN30
 10
15071.368631288229
 20
19009.591385445121
 30
0.0
 41
60.0
 42
60.0
 43
60.0
 50
90.0
  0
TEXT
  8
0
  40
90
  5
569C
  62
2
  72
0
  71
0
 10
14831.4
 20
18000.3
 30
0.000000
  1
1700
  7
SUNPOU
  0
POINT
  5
567A
  8
DEFPOINTS
 62
     0
 10
14443.476832236511
 20
17309.591385445121
 30
0.0
  0
POINT
  5
567B
  8
DEFPOINTS
 62
     0
 10
14771.480810883841
 20
19009.591385445121
 30
0.0
  0
POINT
  5
567C
  8
DEFPOINTS
 62
     0
 10
15071.368631288229
 20
19009.591385445121
 30
0.0
  0
ENDBLK
  5
4899
  8
0
  0
BLOCK
  8
0
  2
*D18
 70
     1
 10
0.0
 20
0.0
 30
0.0
  3
*D18
  1

  0
LINE
  5
567D
  8
FUTO
 62
     2
 10
14801.48081088383
 20
19009.591385445121
 30
0.0
 11
15101.368631288229
 21
19009.591385445121
 31
0.0
  0
LINE
  5
567E
  8
FUTO
 62
     2
 10
13730.590435079081
 20
20012.59138544511
 30
0.0
 11
15101.368631288229
 21
20012.59138544511
 31
0.0
  0
LINE
  5
567F
  8
FUTO
 62
     2
 10
15071.368631288229
 20
19069.591385445121
 30
0.0
 11
15071.368631288229
 21
19952.591385445121
 31
0.0
  0
INSERT
  5
5680
  8
FUTO
 62
     2
  2
_OPEN30
 10
15071.368631288229
 20
19009.591385445121
 30
0.0
 41
60.0
 42
60.0
 43
60.0
 50
270.0
  0
INSERT
  5
5681
  8
FUTO
 62
     2
  2
_OPEN30
 10
15071.368631288229
 20
20012.59138544511
 30
0.0
 41
60.0
 42
60.0
 43
60.0
 50
90.0
  0
TEXT
  8
0
  40
90
  5
569D
  62
2
  72
0
  71
0
 10
14831.4
 20
19351.8
 30
0.000000
  1
1003
  7
SUNPOU
  0
POINT
  5
5683
  8
DEFPOINTS
 62
     0
 10
14771.480810883841
 20
19009.591385445121
 30
0.0
  0
POINT
  5
5684
  8
DEFPOINTS
 62
     0
 10
13700.590435079081
 20
20012.59138544511
 30
0.0
  0
POINT
  5
5685
  8
DEFPOINTS
 62
     0
 10
15071.368631288229
 20
20012.59138544511
 30
0.0
  0
ENDBLK
  5
48A7
  8
0
  0
BLOCK
  8
0
  2
*D19
 70
     1
 10
0.0
 20
0.0
 30
0.0
  3
*D19
  1

  0
LINE
  5
5686
  8
FUTO
 62
     2
 10
13593.476832236511
 20
20142.621318743171
 30
0.0
 11
13593.476832236511
 21
20343.466879835309
 31
0.0
  0
LINE
  5
5687
  8
FUTO
 62
     2
 10
14523.476832236511
 20
19052.591385445121
 30
0.0
 11
14523.476832236511
 21
20343.466879835309
 31
0.0
  0
LINE
  5
5688
  8
FUTO
 62
     2
 10
13653.476832236511
 20
20313.466879835309
 30
0.0
 11
14463.476832236511
 21
20313.466879835309
 31
0.0
  0
INSERT
  5
5689
  8
FUTO
 62
     2
  2
_OPEN30
 10
13593.476832236511
 20
20313.466879835309
 30
0.0
 41
60.0
 42
60.0
 43
60.0
 50
180.0
  0
INSERT
  5
568A
  8
FUTO
 62
     2
  2
_OPEN30
 10
14523.476832236511
 20
20313.466879835309
 30
0.0
 41
60.0
 42
60.0
 43
60.0
  0
TEXT
  8
0
  40
90
  5
569E
  62
2
  72
0
  71
0
 10
13878.5
 20
20214.2
 30
0.000000
  1
930
  7
SUNPOU
  0
POINT
  5
568C
  8
DEFPOINTS
 62
     0
 10
13593.476832236511
 20
20112.621318743171
 30
0.0
  0
POINT
  5
568D
  8
DEFPOINTS
 62
     0
 10
14523.476832236511
 20
19022.591385445121
 30
0.0
  0
POINT
  5
568E
  8
DEFPOINTS
 62
     0
 10
14523.476832236511
 20
20313.466879835309
 30
0.0
  0
ENDBLK
  5
48B4
  8
0
  0
ENDSEC
  0
SECTION
  2
ENTITIES
  0
LINE
  5
42
  8
FUTO
 10
16086.56824544236
 20
17309.591385445121
 30
0.0
 11
18286.568245442359
 21
17309.591385445121
 31
0.0
1001
ACAD
1000
ASC_BOUNDS
1002
{
1070
    19
1005
3975
1002
}
  0
LINE
  5
116
  8
FUTO
 10
17003.568245442359
 20
19054.591385445121
 30
0.0
 11
17065.068245442359
 21
19054.59138544511
 31
0.0
  0
LINE
  5
117
  8
FUTO
 10
17003.568245442359
 20
18964.591385445121
 30
0.0
 11
17066.368245442362
 21
18964.591385445121
 31
0.0
  0
LINE
  5
118
  8
FUTO
 10
16087.56824544236
 20
17459.591385445121
 30
0.0
 11
18286.768245442359
 21
17459.59138544511
 31
0.0
  0
LINE
  5
119
  8
CT
 10
15803.71811195698
 20
19009.591385445121
 30
0.0
 11
18401.89572341436
 21
19009.591385445121
 31
0.0
  0
ARC
  5
11C
  8
FUTO
 10
13491.476832236511
 20
18907.59138544511
 30
0.0
 40
1125.0
 50
84.798038915108464
 51
174.79803891510829
  0
LINE
  5
14C
  8
SL
 10
16064.56824544236
 20
19089.591385445121
 30
0.0
 11
16064.56824544236
 21
18929.591385445121
 31
0.0
  0
LINE
  5
162
  8
CT
 10
16224.56824544236
 20
19128.094882405239
 30
0.0
 11
16224.56824544236
 21
18846.7607536584
 31
0.0
  0
LINE
  5
163
  8
CT
 10
13738.476832236511
 20
18899.591385445121
 30
0.0
 11
13738.476832236511
 21
18953.591385445121
 31
0.0
  0
ARC
  5
164
  8
FUTO
 10
13704.476832236511
 20
18959.591385445121
 30
0.0
 40
16.0
 50
180.0
 51
270.0
  0
ARC
  5
165
  8
FUTO
 10
13593.476832236511
 20
19009.59138544511
 30
0.0
 40
95.000000000000071
 50
309.05612602761761
 51
330.00000000000051
  0
ARC
  5
168
  8
FUTO
 10
13593.476832236511
 20
19009.59138544511
 30
0.0
 40
94.999999999997485
 50
209.99999999999881
 51
230.94387397238171
  0
LINE
  5
169
  8
CT
 10
13448.476832236511
 20
18899.591385445121
 30
0.0
 11
13448.476832236511
 21
18953.591385445121
 31
0.0
  0
ARC
  5
16A
  8
FUTO
 10
13482.476832236511
 20
18959.591385445121
 30
0.0
 40
16.0
 50
270.0
 51
0.000000000000007
  0
LINE
  5
16B
  8
CT
 10
13593.476832236511
 20
19134.094882405239
 30
0.0
 11
13593.476832236511
 21
18892.350046289521
 31
0.0
  0
ARC
  5
178
  8
KL
 10
13507.976832236511
 20
19095.09138544511
 30
0.0
 40
917.5
 50
359.99999999999989
 51
89.999999999999915
  0
LINE
  5
17D
  8
FUTO
 10
15854.56824544236
 20
19389.591385445121
 30
0.0
 11
15854.56824544236
 21
17499.591385445121
 31
0.0
  0
LINE
  5
17E
  8
SL
 10
15964.56824544236
 20
19259.591385445121
 30
0.0
 11
15964.56824544236
 21
17613.591385445121
 31
0.0
  0
LINE
  5
17F
  8
SL
 10
16042.46824544236
 20
19259.591385445121
 30
0.0
 11
16042.46824544236
 21
17613.591385445121
 31
0.0
  0
ARC
  5
180
  8
FUTO
 10
13695.476832236511
 20
18907.59138544511
 30
0.0
 40
1329.0
 50
232.0868142788778
 51
244.69259211912211
  0
ARC
  5
183
  8
FUTO
 10
13593.476832236511
 20
19009.591385445121
 30
0.0
 40
380.0
 50
311.85960113309602
 51
142.28046017298601
  0
LINE
  5
184
  8
CT
 10
13593.476832236511
 20
20112.621318743171
 30
0.0
 11
13593.476832236511
 21
17091.79362765732
 31
0.0
  0
LINE
  5
185
  8
FUTO
 10
12753.476832236511
 20
19756.697385895
 30
0.0
 11
12753.476832236511
 21
18544.645299616801
 31
0.0
  0
LINE
  5
186
  8
FUTO
 10
12762.476832236511
 20
19764.436762394769
 30
0.0
 11
12762.476832236511
 21
18556.281735053399
 31
0.0
  0
LINE
  5
187
  8
FUTO
 10
14433.4768322365
 20
17459.591385445121
 30
0.0
 11
14433.476832236511
 21
19244.610614977639
 31
0.0
  0
LINE
  5
188
  8
FUTO
 10
14424.476832236511
 20
17459.59138544511
 30
0.0
 11
14424.476832236511
 21
19292.408389273969
 31
0.0
  0
CIRCLE
  5
18B
  8
SL
 10
13593.476832236511
 20
19009.591385445121
 30
0.0
 40
250.0
  0
ARC
  5
18C
  8
KL
 10
13695.476832236511
 20
18907.59138544511
 30
0.0
 40
1309.0
 50
179.99999999999989
 51
264.84585959754298
  0
LINE
  5
19A
  8
CT
 10
16934.568245442359
 20
19128.094882405239
 30
0.0
 11
16934.568245442359
 21
18824.427222229959
 31
0.0
  0
LINE
  5
19B
  8
FUTO
 10
14443.476832236511
 20
17309.591385445121
 30
0.0
 11
12043.476832236511
 21
17309.591385445121
 31
0.0
1001
ACAD
1000
ASC_BOUNDS
1002
{
1070
    19
1005
0
1005
0
1005
0
1005
0
1005
0
1005
0
1005
0
1005
0
1005
0
1005
0
1005
0
1005
0
1005
0
1005
0
1005
0
1005
0
1005
0
1005
0
1005
0
1005
0
1005
0
1002
}
  0
DIMENSION
  5
276
  8
FUTO
  2
*D2
 10
12043.476832236511
 20
17070.29152548009
 30
0.0
 11
12818.476832236511
 21
17130.29152548009
 31
0.0
 70
     0
 13
13593.476832236511
 23
17282.509234401361
 33
0.0
 14
12043.476832236511
 24
17234.591385445121
 34
0.0
1001
ACAD
1000
DSTYLE
1002
{
1070
    40
1040
30.0
1070
   176
1070
     2
1070
   177
1070
     2
1070
   178
1070
     2
1070
   341
1005
44D5
1070
     5
1000
OPEN30
1002
}
  0
DIMENSION
  5
283
  8
FUTO
  2
*D3
 10
14443.476832236511
 20
16887.374208495999
 30
0.0
 11
13243.476832236511
 21
16947.374208495999
 31
0.0
 70
     0
 13
12043.476832236511
 23
17309.591385445121
 33
0.0
 14
14443.476832236511
 24
17309.591385445121
 34
0.0
1001
ACAD
1000
DSTYLE
1002
{
1070
    40
1040
30.0
1070
   176
1070
     2
1070
   177
1070
     2
1070
   178
1070
     2
1070
   341
1005
44D5
1070
     5
1000
OPEN30
1002
}
  0
LINE
  5
293
  8
FUTO
 10
12653.476832236511
 20
17534.085020862582
 30
0.0
 11
12706.67776534065
 21
17534.085020862582
 31
0.0
  0
LINE
  5
294
  8
FUTO
 10
14443.476832236511
 20
17459.591385445121
 30
0.0
 11
12043.476832236511
 21
17459.591385445121
 31
0.0
  0
LINE
  5
2AC
  8
FUTO
 10
12653.476832236511
 20
17459.591385445121
 30
0.0
 11
12653.476832236511
 21
17550.771817787321
 31
0.0
  0
LINE
  5
2AD
  8
FUTO
 10
12653.476832236511
 20
17459.591385445121
 30
0.0
 11
12643.46849632607
 21
17519.591385445121
 31
0.0
  0
LINE
  5
2AE
  8
FUTO
 10
12133.476832236511
 20
17459.591385445121
 30
0.0
 11
12133.476832236511
 21
17550.771817787321
 31
0.0
  0
LINE
  5
2AF
  8
FUTO
 10
12133.476832236511
 20
17459.591385445121
 30
0.0
 11
12143.48516814695
 21
17519.591385445121
 31
0.0
  0
ARC
  5
2B0
  8
FUTO
 10
12393.476832236511
 20
17719.591385445121
 30
0.0
 40
220.0
 50
142.2804601729861
 51
311.85960113309608
  0
LINE
  5
2B6
  8
FUTO
 10
12043.476832236511
 20
17459.591385445121
 30
0.0
 11
12043.476832236511
 21
17309.591385445121
 31
0.0
  0
LINE
  5
2BD
  8
CT
 10
12190.921656236511
 20
17794.591385445121
 30
0.0
 11
12154.48830623651
 21
17794.591385445121
 31
0.0
  0
LINE
  5
2BE
  8
FUTO
 10
12173.476832236511
 20
17734.591385445121
 30
0.0
 11
12190.53029923651
 21
17734.591385445121
 31
0.0
  0
LINE
  5
2BF
  8
FUTO
 10
12173.476832236511
 20
17854.591385445121
 30
0.0
 11
12241.20315023651
 21
17854.591385445121
 31
0.0
  0
ARC
  5
2C0
  8
FUTO
 10
12165.27688123651
 20
17861.057938445108
 30
0.0
 40
8.1999940000000002
 50
0.000000000000007
 51
72.690139999999985
  0
LINE
  5
2C1
  8
FUTO
 10
12143.48516814695
 20
17519.591385445121
 30
0.0
 11
12310.138512658261
 21
17519.591385445121
 31
0.0
  0
LINE
  5
2C2
  8
FUTO
 10
12195.02185964737
 20
17534.085020862582
 30
0.0
 11
12160.207307943259
 21
17534.085020862582
 31
0.0
  0
LINE
  5
2C3
  8
FUTO
 10
12173.20485923651
 20
17720.94929544512
 30
0.0
 11
12162.806300236511
 21
17677.275223445111
 31
0.0
  0
LINE
  5
2C4
  8
FUTO
 10
11996.684229236511
 20
17687.005936445112
 30
0.0
 11
11996.684229236511
 21
17824.798416445112
 31
0.0
  0
LINE
  5
2C5
  8
FUTO
 10
12156.684229236511
 20
17904.453201445111
 30
0.0
 11
12007.934229236511
 21
17646.810623445112
 31
0.0
  0
LINE
  5
2C6
  8
FUTO
 10
12162.226832236511
 20
17901.253250445108
 30
0.0
 11
12013.476832236511
 21
17643.610672445109
 31
0.0
  0
LINE
  5
2C7
  8
FUTO
 10
12150.476832236511
 20
17639.591385445121
 30
0.0
 11
12030.476832236511
 21
17639.591385445121
 31
0.0
  0
LINE
  5
2C8
  8
FUTO
 10
12153.078272236509
 20
17669.591385445121
 30
0.0
 11
12028.476832236511
 21
17669.591385445121
 31
0.0
  0
ARC
  5
2C9
  8
FUTO
 10
12019.95193023651
 20
17671.626053445121
 30
0.0
 40
2.0000450000000001
 50
330.00181599999991
 51
72.686446999999987
  0
LINE
  5
2CA
  8
FUTO
 10
12002.44436123651
 20
17679.17732244511
 30
0.0
 11
12020.547144236511
 21
17673.535477445112
 31
0.0
  0
LINE
  5
2CB
  8
FUTO
 10
12007.934229236511
 20
17646.810623445112
 30
0.0
 11
12013.476832236511
 21
17643.610672445109
 31
0.0
  0
LINE
  5
2CC
  8
FUTO
 10
12030.476832236511
 20
17639.591385445121
 30
0.0
 11
12030.476832236511
 21
17669.591385445121
 31
0.0
  0
ARC
  5
2CD
  8
FUTO
 10
12004.884303236509
 20
17687.005936445112
 30
0.0
 40
8.2000299999999982
 50
180.0
 51
252.6893309999999
  0
LINE
  5
2CE
  8
FUTO
 10
12150.476832236511
 20
17639.591385445121
 30
0.0
 11
12150.476832236511
 21
17669.591385445121
 31
0.0
  0
LINE
  5
2CF
  8
FUTO
 10
12120.476832236511
 20
17639.591385445121
 30
0.0
 11
12120.476832236511
 21
17669.591385445121
 31
0.0
  0
LINE
  5
2D0
  8
FUTO
 10
12117.476832236511
 20
17639.591385445121
 30
0.0
 11
12117.476832236511
 21
17669.591385445121
 31
0.0
  0
ARC
  5
2D1
  8
FUTO
 10
12153.078272236509
 20
17679.591385445121
 30
0.0
 40
9.9999559999999992
 50
270.0
 51
346.60769699999992
  0
LINE
  5
2D2
  8
CT
 10
12090.476832236511
 20
17683.674393445111
 30
0.0
 11
12090.476832236511
 21
17631.452957445112
 31
0.0
  0
LINE
  5
2D3
  8
FUTO
 10
12060.476832236511
 20
17639.591385445121
 30
0.0
 11
12060.476832236511
 21
17669.591385445121
 31
0.0
  0
LINE
  5
2D4
  8
FUTO
 10
12063.476832236511
 20
17639.591385445121
 30
0.0
 11
12063.476832236511
 21
17669.591385445121
 31
0.0
  0
LINE
  5
2D5
  8
FUTO
 10
12133.476832236511
 20
17534.085020862582
 30
0.0
 11
12080.275899132361
 21
17534.085020862582
 31
0.0
  0
LINE
  5
2D6
  8
FUTO
 10
12080.275899132361
 20
17541.540816290792
 30
0.0
 11
12071.394658993549
 21
17541.540816290792
 31
0.0
  0
LINE
  5
2D7
  8
FUTO
 10
12080.275899132361
 20
17527.339291377291
 30
0.0
 11
12080.275899132361
 21
17541.540816290792
 31
0.0
  0
LINE
  5
2D8
  8
FUTO
 10
12071.039408150191
 20
17527.339291377291
 30
0.0
 11
12080.275899132361
 21
17527.339291377291
 31
0.0
  0
LINE
  5
2D9
  8
FUTO
 10
12071.039408150191
 20
17541.185783319332
 30
0.0
 11
12071.039408150191
 21
17527.339291377291
 31
0.0
  0
LINE
  5
2DA
  8
FUTO
 10
12160.207307943259
 20
17550.771817787321
 30
0.0
 11
12160.207307943259
 21
17519.591385445121
 31
0.0
  0
LINE
  5
2DB
  8
FUTO
 10
12133.476832236511
 20
17550.771817787321
 30
0.0
 11
12160.207307943259
 21
17550.771817787321
 31
0.0
  0
LINE
  5
2DC
  8
FUTO
 10
12017.08291123651
 20
17878.472488445121
 30
0.0
 11
12141.684229236511
 21
17878.472488445121
 31
0.0
  0
ARC
  5
2DD
  8
FUTO
 10
12017.08291123651
 20
17868.472488445121
 30
0.0
 40
10.000075000000001
 50
90.0
 51
166.60785899999991
  0
ARC
  5
2DE
  8
FUTO
 10
12006.68496223651
 20
17824.798172445109
 30
0.0
 40
10.000731999999999
 50
166.60730699999991
 51
179.99860099999989
  0
LINE
  5
2DF
  8
FUTO
 10
12007.354762236509
 20
17870.788651445109
 30
0.0
 11
11996.95620223651
 21
17827.114578445118
 31
0.0
  0
LINE
  5
2E0
  8
FUTO
 10
12156.684229236511
 20
17904.453201445111
 30
0.0
 11
12162.226832236511
 21
17901.253250445108
 31
0.0
  0
ARC
  5
2E1
  8
FUTO
 10
12150.20913223651
 20
17876.43782044512
 30
0.0
 40
2.000008999999999
 50
150.00006899999991
 51
252.68978899999999
  0
LINE
  5
2E2
  8
FUTO
 10
12149.614039236511
 20
17874.528397445119
 30
0.0
 11
12167.716700236509
 21
17868.88655144511
 31
0.0
  0
ARC
  5
2E3
  8
FUTO
 10
12163.476832236511
 20
17723.265457445112
 30
0.0
 40
10.0
 50
346.60769699999992
 51
0.000000000000007
  0
LINE
  5
2E4
  8
FUTO
 10
12173.476832236511
 20
17723.265457445112
 30
0.0
 11
12173.476832236511
 21
17861.057938445108
 31
0.0
  0
LINE
  5
2E5
  8
FUTO
 10
12399.726832236511
 20
17933.23835844512
 30
0.0
 11
12399.726832236511
 21
17983.341385445121
 31
0.0
  0
LINE
  5
2E6
  8
FUTO
 10
12387.226832236511
 20
17933.23835844512
 30
0.0
 11
12387.226832236511
 21
17983.341385445121
 31
0.0
  0
LINE
  5
2E7
  8
CT
 10
12393.476832236511
 20
17995.910477445119
 30
0.0
 11
12393.476832236511
 21
17515.88655144511
 31
0.0
  0
CIRCLE
  5
2E8
  8
FUTO
 10
12393.476832236511
 20
17719.591385445121
 30
0.0
 40
40.0
  0
LINE
  5
2E9
  8
FUTO
 10
12338.73879523651
 20
17523.591385445121
 30
0.0
 11
12448.21486923651
 21
17523.591385445121
 31
0.0
  0
LINE
  5
2EA
  8
CT
 10
12608.31594323651
 20
17719.591385445121
 30
0.0
 11
12179.48574323651
 21
17719.591385445121
 31
0.0
  0
LINE
  5
2EB
  8
CT
 10
12580.976832236511
 20
17719.591385445121
 30
0.0
 11
12193.441874890381
 21
17719.591385445121
 31
0.0
  0
CIRCLE
  5
2EC
  8
SL
 10
12393.476832236511
 20
17719.591385445121
 30
0.0
 40
106.0
  0
LINE
  5
2ED
  8
FUTO
 10
12476.815151814761
 20
17510.115040883509
 30
0.0
 11
12393.464051348979
 21
17510.115040883509
 31
0.0
  0
ARC
  5
2EE
  8
FUTO
 10
12393.476832236511
 20
17719.591385445121
 30
0.0
 40
203.5
 50
285.60372899999987
 51
254.39624000000001
  0
CIRCLE
  5
2EF
  8
FUTO
 10
12393.476832236511
 20
17719.591385445121
 30
0.0
 40
7.5
  0
LINE
  5
2F0
  8
CT
 10
12393.476832236511
 20
17507.091385445121
 30
0.0
 11
12393.476832236511
 21
17922.714390795671
 31
0.0
  0
LINE
  5
2F1
  8
FUTO
 10
12242.562769236511
 20
17583.073074445121
 30
0.0
 11
12237.76467423651
 21
17579.038651445109
 31
0.0
  0
LINE
  5
2F2
  8
FUTO
 10
12240.968043236509
 20
17577.123611445109
 30
0.0
 11
12244.560084236509
 21
17580.715652445109
 31
0.0
  0
LINE
  5
2F3
  8
FUTO
 10
12240.968043236509
 20
17576.274979445119
 30
0.0
 11
12240.968043236509
 21
17577.123611445109
 31
0.0
  0
LINE
  5
2F4
  8
FUTO
 10
12243.255396236509
 20
17574.836014445122
 30
0.0
 11
12242.40676423651
 21
17574.836014445122
 31
0.0
  0
LINE
  5
2F5
  8
FUTO
 10
12243.255396236509
 20
17574.836014445122
 30
0.0
 11
12243.255396236509
 21
17573.987625445119
 31
0.0
  0
ARC
  5
2F6
  8
FUTO
 10
12240.982447236511
 20
17575.211746445111
 30
0.0
 40
5.0000339999999994
 50
130.05810899999989
 51
223.436035
  0
LINE
  5
2F7
  8
FUTO
 10
12251.00905823651
 20
17567.082596445121
 30
0.0
 11
12254.60109923651
 21
17570.67463744511
 31
0.0
  0
LINE
  5
2F8
  8
FUTO
 10
12251.00905823651
 20
17567.082596445121
 30
0.0
 11
12250.160426236511
 21
17567.082596445121
 31
0.0
  0
LINE
  5
2F9
  8
FUTO
 10
12248.72170523651
 20
17569.369949445121
 30
0.0
 11
12248.72170523651
 21
17568.52131744512
 31
0.0
  0
LINE
  5
2FA
  8
FUTO
 10
12248.72170523651
 20
17569.369949445121
 30
0.0
 11
12252.31374623651
 21
17572.96199044511
 31
0.0
  0
LINE
  5
2FB
  8
FUTO
 10
12248.72170523651
 20
17569.369949445121
 30
0.0
 11
12247.873072236511
 21
17569.369949445121
 31
0.0
  0
LINE
  5
2FC
  8
FUTO
 10
12244.560084236509
 20
17580.715652445109
 30
0.0
 11
12254.60109923651
 21
17570.67463744511
 31
0.0
  0
LINE
  5
2FD
  8
CT
 10
12245.035914236511
 20
17571.150467445121
 30
0.0
 11
12250.28396123651
 21
17576.398514445122
 31
0.0
  0
LINE
  5
2FE
  8
FUTO
 10
12240.968043236509
 20
17576.274979445119
 30
0.0
 11
12250.160426236511
 21
17567.082596445121
 31
0.0
  0
LINE
  5
2FF
  8
FUTO
 10
12243.255396236509
 20
17574.836014445122
 30
0.0
 11
12246.847437236511
 21
17578.428299445121
 31
0.0
  0
LINE
  5
300
  8
FUTO
 10
12267.290553236509
 20
17539.591385445121
 30
0.0
 11
12271.811915236511
 21
17556.465897445109
 31
0.0
  0
LINE
  5
301
  8
FUTO
 10
12271.81203723651
 20
17556.465897445109
 30
0.0
 11
12267.290553236509
 21
17539.591385445121
 31
0.0
  0
ARC
  5
302
  8
FUTO
 10
12265.692164236511
 20
17552.944901445109
 30
0.0
 40
5.0
 50
232.51797499999989
 51
344.99883999999997
  0
ARC
  5
303
  8
FUTO
 10
12393.476832236511
 20
17719.591385445121
 30
0.0
 40
214.9999849999999
 50
223.434326
 51
232.5189509999999
  0
ARC
  5
304
  8
FUTO
 10
12280.976832236511
 20
17536.591385445121
 30
0.0
 40
3.0
 50
0.000000000000007
 51
90.0
  0
LINE
  5
305
  8
FUTO
 10
12243.726832236511
 20
17531.591385445121
 30
0.0
 11
12243.726832236511
 21
17527.591385445121
 31
0.0
  0
LINE
  5
306
  8
FUTO
 10
12243.726832236511
 20
17523.591385445121
 30
0.0
 11
12243.726832236511
 21
17519.591385445121
 31
0.0
  0
LINE
  5
307
  8
FUTO
 10
12283.976832236511
 20
17536.591385445121
 30
0.0
 11
12283.976832236511
 21
17519.591385445121
 31
0.0
  0
LINE
  5
308
  8
FUTO
 10
12283.976832236511
 20
17524.591385445121
 30
0.0
 11
12289.65188123651
 21
17545.771561445112
 31
0.0
  0
LINE
  5
309
  8
CT
 10
12234.476832236511
 20
17544.01521344512
 30
0.0
 11
12234.476832236511
 21
17514.89949044511
 31
0.0
  0
LINE
  5
30A
  8
FUTO
 10
12243.726832236511
 20
17539.591385445121
 30
0.0
 11
12243.726832236511
 21
17535.591385445121
 31
0.0
  0
ARC
  5
30B
  8
FUTO
 10
12209.476832236511
 20
17593.91804544512
 30
0.0
 40
5.0
 50
124.94366100000001
 51
180.0
  0
ARC
  5
30C
  8
FUTO
 10
12207.476832236511
 20
17536.591385445121
 30
0.0
 40
3.0
 50
90.0
 51
180.0
  0
LINE
  5
30D
  8
FUTO
 10
12225.226832236511
 20
17531.591385445121
 30
0.0
 11
12225.226832236511
 21
17527.591385445121
 31
0.0
  0
LINE
  5
30E
  8
FUTO
 10
12225.226832236511
 20
17523.591385445121
 30
0.0
 11
12225.226832236511
 21
17519.591385445121
 31
0.0
  0
LINE
  5
30F
  8
FUTO
 10
12225.226832236511
 20
17539.591385445121
 30
0.0
 11
12225.226832236511
 21
17535.591385445121
 31
0.0
  0
LINE
  5
310
  8
FUTO
 10
12204.476832236511
 20
17593.91804544512
 30
0.0
 11
12204.476832236511
 21
17519.591385445121
 31
0.0
  0
LINE
  5
311
  8
FUTO
 10
12204.476832236511
 20
17519.591385445121
 30
0.0
 11
12283.976832236511
 21
17519.591385445121
 31
0.0
  0
LINE
  5
312
  8
FUTO
 10
12280.976832236511
 20
17539.591385445121
 30
0.0
 11
12207.476832236511
 21
17539.591385445121
 31
0.0
  0
LINE
  5
313
  8
FUTO
 10
12206.61294023651
 20
17598.016678445121
 30
0.0
 11
12222.55080623651
 21
17609.15315244512
 31
0.0
  0
LINE
  5
314
  8
FUTO
 10
12310.138512658261
 20
17519.591385445121
 30
0.0
 11
12310.138512658261
 21
17510.115040883509
 31
0.0
  0
LINE
  5
315
  8
FUTO
 10
12310.138512658261
 20
17510.115040883509
 30
0.0
 11
12393.489613124029
 21
17510.115040883509
 31
0.0
  0
LINE
  5
316
  8
FUTO
 10
12250.160426236511
 20
17872.100174445121
 30
0.0
 11
12251.008936236511
 21
17872.100174445121
 31
0.0
  0
LINE
  5
317
  8
FUTO
 10
12248.721583236509
 20
17869.81282044512
 30
0.0
 11
12248.721583236509
 21
17870.661453445118
 31
0.0
  0
LINE
  5
318
  8
FUTO
 10
12248.721583236509
 20
17869.81282044512
 30
0.0
 11
12247.873072236511
 21
17869.81282044512
 31
0.0
  0
LINE
  5
319
  8
FUTO
 10
12251.008936236511
 20
17872.100174445121
 30
0.0
 11
12254.60109923651
 21
17868.50813344511
 31
0.0
  0
LINE
  5
31A
  8
FUTO
 10
12240.968043236509
 20
17862.05915844511
 30
0.0
 11
12240.968043236509
 21
17862.907791445112
 31
0.0
  0
LINE
  5
31B
  8
FUTO
 10
12243.255396236509
 20
17864.34651244511
 30
0.0
 11
12242.40676423651
 21
17864.34651244511
 31
0.0
  0
LINE
  5
31C
  8
FUTO
 10
12243.255396236509
 20
17864.34651244511
 30
0.0
 11
12243.255396236509
 21
17865.195145445119
 31
0.0
  0
LINE
  5
31D
  8
FUTO
 10
12243.255396236509
 20
17864.34651244511
 30
0.0
 11
12246.847437236511
 21
17860.754471445121
 31
0.0
  0
LINE
  5
31E
  8
FUTO
 10
12248.721583236509
 20
17869.81282044512
 30
0.0
 11
12252.31374623651
 21
17866.22077944511
 31
0.0
  0
LINE
  5
31F
  8
FUTO
 10
12245.035792236509
 20
17868.032303445121
 30
0.0
 11
12250.28396123651
 21
17862.78425644512
 31
0.0
  0
LINE
  5
320
  8
FUTO
 10
12250.160426236511
 20
17872.100174445121
 30
0.0
 11
12240.968043236509
 21
17862.907791445112
 31
0.0
  0
LINE
  5
321
  8
FUTO
 10
12183.476832236511
 20
17734.591385445121
 30
0.0
 11
12183.476832236511
 21
17854.591385445121
 31
0.0
  0
LINE
  5
322
  8
FUTO
 10
12240.968043236509
 20
17862.05915844511
 30
0.0
 11
12244.560084236509
 21
17858.467117445121
 31
0.0
  0
LINE
  5
323
  8
FUTO
 10
12254.60109923651
 20
17868.50813344511
 30
0.0
 11
12244.560084236509
 21
17858.467117445121
 31
0.0
  0
ARC
  5
324
  8
FUTO
 10
12380.476832236511
 20
17938.781326445111
 30
0.0
 40
2.0
 50
95.710936999999987
 51
180.0
  0
LINE
  5
325
  8
FUTO
 10
12387.01974023651
 20
17941.44563344511
 30
0.0
 11
12380.277796236511
 21
17940.771561445112
 31
0.0
  0
ARC
  5
326
  8
FUTO
 10
12406.476832236511
 20
17938.781326445111
 30
0.0
 40
2.0001619999999991
 50
0.000000000000007
 51
84.289062000000015
  0
LINE
  5
327
  8
FUTO
 10
12399.57693023651
 20
17941.48127744512
 30
0.0
 11
12406.675868236511
 21
17940.771561445112
 31
0.0
  0
ARC
  5
328
  8
FUTO
 10
12393.476832236511
 20
17719.591385445121
 30
0.0
 40
210.0001069999999
 50
93.733031999999994
 51
93.767013999999989
  0
ARC
  5
329
  8
FUTO
 10
12379.87710023651
 20
17926.144119445111
 30
0.0
 40
2.999933
 50
93.767708000000013
 51
182.55609100000001
  0
ARC
  5
32A
  8
FUTO
 10
12379.99953723651
 20
17926.15217644511
 30
0.0
 40
3.0000169999999988
 50
4.9438930000000036
 51
93.732810999999941
  0
LINE
  5
32B
  8
FUTO
 10
12376.88015223651
 20
17926.010330445111
 30
0.0
 11
12377.040064236509
 21
17922.426590445109
 31
0.0
  0
LINE
  5
32C
  8
FUTO
 10
12382.98842923651
 20
17926.410721445121
 30
0.0
 11
12383.297511236509
 21
17922.836746445111
 31
0.0
  0
LINE
  5
32D
  8
FUTO
 10
12403.965113236511
 20
17926.410721445121
 30
0.0
 11
12403.656031236511
 21
17922.836746445111
 31
0.0
  0
ARC
  5
32E
  8
FUTO
 10
12393.476832236511
 20
17719.591385445121
 30
0.0
 40
210.0
 50
86.233025000000026
 51
86.267029000000036
  0
ARC
  5
32F
  8
FUTO
 10
12407.07644123651
 20
17926.144119445111
 30
0.0
 40
3.0001370000000001
 50
357.44401599999992
 51
86.232291999999987
  0
LINE
  5
330
  8
FUTO
 10
12410.073512236509
 20
17926.010330445111
 30
0.0
 11
12409.913477236511
 21
17922.426590445109
 31
0.0
  0
ARC
  5
331
  8
FUTO
 10
12406.95400523651
 20
17926.15217644511
 30
0.0
 40
3.000052999999999
 50
86.267188999999973
 51
175.0561099999999
  0
LINE
  5
332
  8
FUTO
 10
12405.976832236511
 20
17929.591385445121
 30
0.0
 11
12380.976832236511
 21
17929.591385445121
 31
0.0
  0
LINE
  5
333
  8
FUTO
 10
12408.476832236511
 20
17929.591385445121
 30
0.0
 11
12378.476832236511
 21
17929.591385445121
 31
0.0
  0
LINE
  5
334
  8
FUTO
 10
12408.476832236511
 20
17929.591385445121
 30
0.0
 11
12408.476832236511
 21
17938.781326445111
 31
0.0
  0
LINE
  5
335
  8
FUTO
 10
12378.476832236511
 20
17929.591385445121
 30
0.0
 11
12378.476832236511
 21
17938.781326445111
 31
0.0
  0
ARC
  5
336
  8
FUTO
 10
12401.726832236511
 20
17933.23835844512
 30
0.0
 40
2.0
 50
180.0
 51
270.0
  0
ARC
  5
337
  8
FUTO
 10
12385.226832236511
 20
17933.23835844512
 30
0.0
 40
2.0
 50
270.0
 51
0.000000000000007
  0
LINE
  5
338
  8
FUTO
 10
12582.476832236511
 20
17519.591385445121
 30
0.0
 11
12502.976832236511
 21
17519.591385445121
 31
0.0
  0
LINE
  5
339
  8
FUTO
 10
12505.976832236511
 20
17539.591385445121
 30
0.0
 11
12579.476832236511
 21
17539.591385445121
 31
0.0
  0
LINE
  5
33A
  8
FUTO
 10
12532.352564236509
 20
17570.67463744511
 30
0.0
 11
12542.39358023651
 21
17580.715652445109
 31
0.0
  0
LINE
  5
33B
  8
FUTO
 10
12535.944605236509
 20
17567.082596445121
 30
0.0
 11
12532.352564236509
 21
17570.67463744511
 31
0.0
  0
ARC
  5
33C
  8
FUTO
 10
12393.476832236511
 20
17719.591385445121
 30
0.0
 40
214.9999849999999
 50
307.48103299999991
 51
316.565674
  0
LINE
  5
33D
  8
FUTO
 10
12643.46849632607
 20
17519.591385445121
 30
0.0
 11
12476.815151814761
 21
17519.591385445121
 31
0.0
  0
LINE
  5
33E
  8
FUTO
 10
12555.476832236511
 20
17519.591385445121
 30
0.0
 11
12495.476832236511
 21
17519.591385445121
 31
0.0
  0
LINE
  5
33F
  8
FUTO
 10
12515.14162723651
 20
17556.465897445109
 30
0.0
 11
12519.66311123651
 21
17539.591385445121
 31
0.0
  0
ARC
  5
340
  8
FUTO
 10
12521.261500236509
 20
17552.944901445109
 30
0.0
 40
5.0
 50
195.00097699999989
 51
307.48147599999987
  0
ARC
  5
341
  8
FUTO
 10
12505.976832236511
 20
17536.591385445121
 30
0.0
 40
3.0
 50
90.0
 51
180.0
  0
LINE
  5
342
  8
FUTO
 10
12502.976832236511
 20
17536.591385445121
 30
0.0
 11
12502.976832236511
 21
17519.591385445121
 31
0.0
  0
LINE
  5
343
  8
FUTO
 10
12502.976832236511
 20
17524.591385445121
 30
0.0
 11
12497.301539236511
 21
17545.771561445112
 31
0.0
  0
LINE
  5
344
  8
FUTO
 10
12476.815151814761
 20
17519.591385445121
 30
0.0
 11
12476.815151814761
 21
17510.115040883509
 31
0.0
  0
LINE
  5
345
  8
FUTO
 10
12561.726832236511
 20
17531.591385445121
 30
0.0
 11
12561.726832236511
 21
17527.591385445121
 31
0.0
  0
LINE
  5
346
  8
FUTO
 10
12561.726832236511
 20
17523.591385445121
 30
0.0
 11
12561.726832236511
 21
17519.591385445121
 31
0.0
  0
LINE
  5
347
  8
FUTO
 10
12561.726832236511
 20
17539.591385445121
 30
0.0
 11
12561.726832236511
 21
17535.591385445121
 31
0.0
  0
ARC
  5
348
  8
FUTO
 10
12577.476832236511
 20
17593.91804544512
 30
0.0
 40
5.0000669999999987
 50
0.000000000000007
 51
55.056334999999997
  0
ARC
  5
349
  8
FUTO
 10
12579.476832236511
 20
17536.591385445121
 30
0.0
 40
3.0
 50
0.000000000000007
 51
90.0
  0
LINE
  5
34A
  8
FUTO
 10
12582.476832236511
 20
17593.91804544512
 30
0.0
 11
12582.476832236511
 21
17519.591385445121
 31
0.0
  0
LINE
  5
34B
  8
FUTO
 10
12545.98562123651
 20
17577.123611445109
 30
0.0
 11
12542.39358023651
 21
17580.715652445109
 31
0.0
  0
LINE
  5
34C
  8
FUTO
 10
12545.98562123651
 20
17577.123611445109
 30
0.0
 11
12545.98562123651
 21
17576.274979445119
 31
0.0
  0
LINE
  5
34D
  8
FUTO
 10
12543.69826723651
 20
17574.83625844511
 30
0.0
 11
12544.54690023651
 21
17574.83625844511
 31
0.0
  0
LINE
  5
34E
  8
FUTO
 10
12543.69826723651
 20
17574.83625844511
 30
0.0
 11
12540.10622623651
 21
17578.428299445121
 31
0.0
  0
LINE
  5
34F
  8
FUTO
 10
12543.69826723651
 20
17574.83625844511
 30
0.0
 11
12543.69826723651
 21
17573.987625445119
 31
0.0
  0
LINE
  5
350
  8
FUTO
 10
12544.39065023651
 20
17583.073074445121
 30
0.0
 11
12549.18886823651
 21
17579.038651445109
 31
0.0
  0
LINE
  5
351
  8
FUTO
 10
12536.793238236511
 20
17567.082596445121
 30
0.0
 11
12535.944605236509
 21
17567.082596445121
 31
0.0
  0
LINE
  5
352
  8
FUTO
 10
12538.23220323651
 20
17569.369949445121
 30
0.0
 11
12538.23220323651
 21
17568.52131744512
 31
0.0
  0
LINE
  5
353
  8
FUTO
 10
12538.23220323651
 20
17569.369949445121
 30
0.0
 11
12534.639918236509
 21
17572.96199044511
 31
0.0
  0
LINE
  5
354
  8
FUTO
 10
12538.23220323651
 20
17569.369949445121
 30
0.0
 11
12539.080592236511
 21
17569.369949445121
 31
0.0
  0
ARC
  5
355
  8
FUTO
 10
12545.97097323651
 20
17575.211746445111
 30
0.0
 40
5.0000049999999998
 50
316.56494099999998
 51
49.94082599999998
  0
LINE
  5
356
  8
CT
 10
12541.917750236509
 20
17571.150467445121
 30
0.0
 11
12536.66970323651
 21
17576.398514445122
 31
0.0
  0
LINE
  5
357
  8
FUTO
 10
12536.793238236511
 20
17567.082596445121
 30
0.0
 11
12545.98562123651
 21
17576.274979445119
 31
0.0
  0
LINE
  5
358
  8
FUTO
 10
12543.226832236511
 20
17531.591385445121
 30
0.0
 11
12543.226832236511
 21
17527.591385445121
 31
0.0
  0
LINE
  5
359
  8
FUTO
 10
12543.226832236511
 20
17523.591385445121
 30
0.0
 11
12543.226832236511
 21
17519.591385445121
 31
0.0
  0
LINE
  5
35A
  8
CT
 10
12552.476832236511
 20
17544.01521344512
 30
0.0
 11
12552.476832236511
 21
17514.89949044511
 31
0.0
  0
LINE
  5
35B
  8
FUTO
 10
12543.226832236511
 20
17539.591385445121
 30
0.0
 11
12543.226832236511
 21
17535.591385445121
 31
0.0
  0
LINE
  5
35C
  8
FUTO
 10
12653.476832236511
 20
17550.771817787321
 30
0.0
 11
12626.74635652976
 21
17550.771817787321
 31
0.0
  0
LINE
  5
35D
  8
FUTO
 10
12591.931804825639
 20
17534.085020862582
 30
0.0
 11
12626.74635652976
 21
17534.085020862582
 31
0.0
  0
LINE
  5
35E
  8
FUTO
 10
12626.74635652976
 20
17550.771817787321
 30
0.0
 11
12626.74635652976
 21
17519.591385445121
 31
0.0
  0
LINE
  5
35F
  8
FUTO
 10
12580.34060123651
 20
17598.016678445121
 30
0.0
 11
12564.40273523651
 21
17609.15315244512
 31
0.0
  0
LINE
  5
360
  8
FUTO
 10
12535.944605236509
 20
17872.100174445121
 30
0.0
 11
12532.352564236509
 21
17868.50813344511
 31
0.0
  0
LINE
  5
361
  8
FUTO
 10
12542.39358023651
 20
17858.467117445121
 30
0.0
 11
12532.352564236509
 21
17868.50813344511
 31
0.0
  0
ARC
  5
362
  8
FUTO
 10
12393.476832236511
 20
17719.591385445121
 30
0.0
 40
210.00004599999991
 50
48.733032000000009
 51
48.767014000000003
  0
ARC
  5
363
  8
FUTO
 10
12530.00747223651
 20
17875.181717445121
 30
0.0
 40
2.9999169999999991
 50
319.94339000000002
 51
48.733367999999977
  0
ARC
  5
364
  8
FUTO
 10
12529.91530823651
 20
17875.262772445109
 30
0.0
 40
2.999909999999999
 50
48.768021000000012
 51
137.5594439999999
  0
LINE
  5
365
  8
FUTO
 10
12532.30373623651
 20
17873.251053445121
 30
0.0
 11
12529.995020236511
 21
17870.505203445118
 31
0.0
  0
LINE
  5
366
  8
FUTO
 10
12527.70144123651
 20
17877.287186445112
 30
0.0
 11
12525.28029923651
 21
17874.63996944511
 31
0.0
  0
LINE
  5
367
  8
FUTO
 10
12535.944605236509
 20
17872.100174445121
 30
0.0
 11
12536.793238236511
 21
17872.100174445121
 31
0.0
  0
LINE
  5
368
  8
FUTO
 10
12538.231959236509
 20
17869.81282044512
 30
0.0
 11
12538.231959236509
 21
17870.661453445118
 31
0.0
  0
LINE
  5
369
  8
FUTO
 10
12538.231959236509
 20
17869.81282044512
 30
0.0
 11
12539.080592236511
 21
17869.81282044512
 31
0.0
  0
LINE
  5
36A
  8
FUTO
 10
12545.98562123651
 20
17862.907791445112
 30
0.0
 11
12545.98562123651
 21
17862.05915844511
 31
0.0
  0
LINE
  5
36B
  8
FUTO
 10
12543.69826723651
 20
17864.34675644512
 30
0.0
 11
12544.54690023651
 21
17864.34675644512
 31
0.0
  0
LINE
  5
36C
  8
FUTO
 10
12543.69826723651
 20
17864.34675644512
 30
0.0
 11
12540.10622623651
 21
17860.754471445121
 31
0.0
  0
LINE
  5
36D
  8
FUTO
 10
12543.69826723651
 20
17864.34675644512
 30
0.0
 11
12543.69826723651
 21
17865.195145445119
 31
0.0
  0
LINE
  5
36E
  8
FUTO
 10
12541.917750236509
 20
17868.032303445121
 30
0.0
 11
12536.66970323651
 21
17862.78425644512
 31
0.0
  0
LINE
  5
36F
  8
FUTO
 10
12545.98562123651
 20
17862.907791445112
 30
0.0
 11
12536.793238236511
 21
17872.100174445121
 31
0.0
  0
LINE
  5
370
  8
FUTO
 10
12538.231959236509
 20
17869.81282044512
 30
0.0
 11
12534.639918236509
 21
17866.22077944511
 31
0.0
  0
ARC
  5
371
  8
FUTO
 10
12393.476832236511
 20
17719.591385445121
 30
0.0
 40
210.0
 50
41.233032000000009
 51
41.267029000000008
  0
ARC
  5
372
  8
FUTO
 10
12549.067164236511
 20
17856.122147445109
 30
0.0
 40
2.9999560000000001
 50
41.268387000000018
 51
130.05810899999989
  0
LINE
  5
373
  8
FUTO
 10
12551.172633236511
 20
17853.815994445111
 30
0.0
 11
12548.52529423651
 21
17851.395096445121
 31
0.0
  0
ARC
  5
374
  8
FUTO
 10
12549.14797423651
 20
17856.029861445109
 30
0.0
 40
2.9999500000000001
 50
312.44400000000002
 51
41.231979000000003
  0
LINE
  5
375
  8
FUTO
 10
12547.136500236509
 20
17858.418289445111
 30
0.0
 11
12544.39065023651
 21
17856.10969544512
 31
0.0
  0
LINE
  5
376
  8
FUTO
 10
12545.98562123651
 20
17862.05915844511
 30
0.0
 11
12542.39358023651
 21
17858.467117445121
 31
0.0
  0
ARC
  5
377
  8
FUTO
 10
12393.476832236511
 20
17983.341385445121
 30
0.0
 40
6.25
 50
0.000000000000007
 51
90.0
  0
ARC
  5
378
  8
FUTO
 10
12393.476832236511
 20
17983.341385445121
 30
0.0
 40
6.25
 50
90.0
 51
180.0
  0
ARC
  5
396
  8
KL
 10
13491.476832236511
 20
18907.59138544511
 30
0.0
 40
1105.0
 50
89.144420364569726
 51
179.99999999999989
  0
ARC
  5
397
  8
FUTO
 10
13593.476832236511
 20
19009.591385445121
 30
0.0
 40
95.000000000003084
 50
270.0
 51
290.94387397238211
  0
LINE
  5
398
  8
FUTO
 10
13683.476832236511
 20
18912.591385445121
 30
0.0
 11
13593.476832236511
 21
18912.591385445121
 31
0.0
  0
LINE
  5
399
  8
KL
 10
13895.01033184008
 20
18903.591385445121
 30
0.0
 11
13593.476832236511
 21
18903.591385445121
 31
0.0
  0
LINE
  5
39A
  8
FUTO
 10
13793.476832236511
 20
18909.591385445121
 30
0.0
 11
13393.476832236511
 21
18909.591385445121
 31
0.0
  0
DIMENSION
  5
39B
  8
FUTO
  2
*D4
 10
14443.476832236511
 20
17070.29152548009
 30
0.0
 11
14018.476832236511
 21
17130.29152548009
 31
0.0
 70
     0
 13
13593.476832236511
 23
17282.509234401361
 33
0.0
 14
14443.476832236511
 24
17234.591385445121
 34
0.0
1001
ACAD
1000
DSTYLE
1002
{
1070
    40
1040
30.0
1070
   176
1070
     2
1070
   177
1070
     2
1070
   178
1070
     2
1070
   341
1005
44D5
1070
     5
1000
OPEN30
1002
}
  0
LINE
  5
3B5
  8
FUTO
 10
12715.914256322831
 20
17541.185783319332
 30
0.0
 11
12715.914256322831
 21
17527.339291377291
 31
0.0
  0
LINE
  5
3B6
  8
FUTO
 10
12715.914256322831
 20
17527.339291377291
 30
0.0
 11
12706.67776534065
 21
17527.339291377291
 31
0.0
  0
LINE
  5
3B7
  8
FUTO
 10
12706.67776534065
 20
17527.339291377291
 30
0.0
 11
12706.67776534065
 21
17541.540816290792
 31
0.0
  0
LINE
  5
3B8
  8
FUTO
 10
12706.67776534065
 20
17541.540816290792
 30
0.0
 11
12715.55900547947
 21
17541.540816290792
 31
0.0
  0
LINE
  5
3BA
  8
KL
 10
13291.943332632931
 20
18903.591385445121
 30
0.0
 11
13593.476832236511
 21
18903.591385445121
 31
0.0
  0
LINE
  5
3BD
  8
FUTO
 10
13413.476832236511
 20
18909.591385445121
 30
0.0
 11
13503.476832236511
 21
18909.591385445121
 31
0.0
  0
LINE
  5
3BF
  8
FUTO
 10
13393.476832236511
 20
18909.591385445121
 30
0.0
 11
13393.476832236511
 21
18903.591385445121
 31
0.0
  0
ARC
  5
3C0
  8
FUTO
 10
13416.476832236511
 20
18940.591385445121
 30
0.0
 40
2.9999999999999991
 50
90.0
 51
180.0
  0
LINE
  5
3C1
  8
FUTO
 10
13413.476832236511
 20
18940.591385445121
 30
0.0
 11
13413.476832236511
 21
18909.591385445121
 31
0.0
  0
LINE
  5
3C2
  8
FUTO
 10
13482.476832236511
 20
18943.591385445121
 30
0.0
 11
13416.476832236511
 21
18943.591385445121
 31
0.0
  0
ARC
  5
3C3
  8
FUTO
 10
13593.476832236511
 20
19009.59138544511
 30
0.0
 40
94.999999999998295
 50
249.0561260276169
 51
270.0
  0
LINE
  5
3C4
  8
FUTO
 10
13503.476832236511
 20
18909.591385445121
 30
0.0
 11
13503.476832236511
 21
18912.591385445121
 31
0.0
  0
ARC
  5
3C5
  8
FUTO
 10
13545.976832236511
 20
18927.318972085592
 30
0.0
 40
14.999999999999909
 50
145.47193698619009
 51
239.99999999999909
  0
LINE
  5
3C6
  8
FUTO
 10
13503.476832236511
 20
18912.591385445121
 30
0.0
 11
13593.476832236511
 21
18912.591385445121
 31
0.0
  0
ARC
  5
3C7
  8
FUTO
 10
13545.976832236511
 20
18927.318972085599
 30
0.0
 40
15.000000000000419
 50
239.99999999999989
 51
334.52806301381298
  0
LINE
  5
3D0
  8
FUTO
 10
14093.476832236511
 20
17459.591385445121
 30
0.0
 11
14093.476832236511
 21
17309.59138544511
 31
0.0
  0
POINT
  5
3D6
  8
DEFPOINTS
  6
BYBLOCK
 62
     0
 10
14443.476832236511
 20
17309.591385445121
 30
0.0
  0
LINE
  5
3D9
  8
FUTO
 10
14443.476832236511
 20
17459.591385445121
 30
0.0
 11
14443.476832236511
 21
17309.591385445121
 31
0.0
  0
LINE
  5
3DD
  8
FUTO
 10
13704.476832236511
 20
18943.591385445121
 30
0.0
 11
13770.476832236511
 21
18943.591385445121
 31
0.0
  0
LINE
  5
3DE
  8
FUTO
 10
13773.476832236511
 20
18909.591385445121
 30
0.0
 11
13683.476832236511
 21
18909.591385445121
 31
0.0
  0
LINE
  5
3E0
  8
FUTO
 10
13683.476832236511
 20
18909.591385445121
 30
0.0
 11
13683.476832236511
 21
18912.591385445121
 31
0.0
  0
ARC
  5
3E1
  8
FUTO
 10
13640.976832236511
 20
18927.318972085592
 30
0.0
 40
14.99999999999998
 50
299.99999999999932
 51
34.52806301380803
  0
ARC
  5
3E2
  8
FUTO
 10
13640.976832236511
 20
18927.318972085592
 30
0.0
 40
14.99999999999978
 50
205.47193698618671
 51
300.00000000000011
  0
LINE
  5
3E3
  8
FUTO
 10
13793.476832236511
 20
18909.591385445121
 30
0.0
 11
13793.476832236511
 21
18903.591385445121
 31
0.0
  0
ARC
  5
3E5
  8
FUTO
 10
13770.476832236511
 20
18940.591385445121
 30
0.0
 40
2.9999999999999991
 50
0.000000000000007
 51
90.0
  0
LINE
  5
3E6
  8
FUTO
 10
13773.476832236511
 20
18940.591385445121
 30
0.0
 11
13773.476832236511
 21
18909.591385445121
 31
0.0
  0
LINE
  5
405
  8
SL
 10
16042.46824544236
 20
18929.591385445121
 30
0.0
 11
16064.56824544236
 21
18929.591385445121
 31
0.0
  0
LINE
  5
406
  8
CT
 10
15817.611515921641
 20
17719.591385445121
 30
0.0
 11
16120.43019903309
 21
17719.591385445121
 31
0.0
  0
LINE
  5
407
  8
FUTO
 10
15854.56824544236
 20
17499.591385445121
 30
0.0
 11
16109.56824544236
 21
17499.591385445121
 31
0.0
  0
LINE
  5
408
  8
SL
 10
16042.46824544236
 20
17659.591385445121
 30
0.0
 11
16057.56824544236
 21
17659.591385445121
 31
0.0
  0
LINE
  5
409
  8
SL
 10
16042.46824544236
 20
17779.591385445121
 30
0.0
 11
16057.56824544236
 21
17779.591385445121
 31
0.0
  0
LINE
  5
40E
  8
SL
 10
15964.56824544236
 20
17613.591385445121
 30
0.0
 11
16042.46824544236
 21
17613.591385445121
 31
0.0
  0
LINE
  5
40F
  8
SL
 10
15964.56824544236
 20
17825.591385445121
 30
0.0
 11
16042.46824544236
 21
17825.591385445121
 31
0.0
  0
LINE
  5
410
  8
SL
 10
15964.56824544236
 20
18759.591385445121
 30
0.0
 11
16042.46824544236
 21
18759.591385445121
 31
0.0
  0
LINE
  5
415
  8
CT
 10
16121.56824544236
 20
17329.483562044112
 30
0.0
 11
16121.56824544236
 21
17272.699892102341
 31
0.0
1001
ACAD
1000
ASC_BOUNDS
1002
{
1070
    19
1005
0
1005
3975
1005
3975
1002
}
  0
LINE
  5
41A
  8
SL
 10
16057.56824544236
 20
17779.591385445121
 30
0.0
 11
16057.56824544236
 21
17659.591385445121
 31
0.0
  0
LINE
  5
41B
  8
FUTO
 10
16109.56824544236
 20
17666.648811720901
 30
0.0
 11
16109.56824544236
 21
17499.591385445121
 31
0.0
  0
LINE
  5
42E
  8
FUTO
 10
14480.61687135664
 20
19093.731753472632
 30
0.0
 11
13972.239655595949
 21
19040.229982684308
 31
0.0
  0
LINE
  5
42F
  8
FUTO
 10
14478.74833375564
 20
19111.6345065356
 30
0.0
 11
13970.36383351917
 21
19058.131969126862
 31
0.0
  0
LINE
  5
430
  8
FUTO
 10
14523.476832236511
 20
19022.591385445121
 30
0.0
 11
14523.476832236511
 21
17464.591385445121
 31
0.0
  0
LINE
  5
431
  8
HOSO
 10
14523.476832236511
 20
18968.59138544511
 30
0.0
 11
14523.476832236511
 21
17518.59138544511
 31
0.0
  0
LINE
  5
44C
  8
FUTO
 10
14473.476832236511
 20
19022.591385445121
 30
0.0
 11
14473.4768322365
 21
17464.591385445121
 31
0.0
  0
LINE
  5
44D
  8
FUTO
 10
14519.476832236511
 20
19022.591385445121
 30
0.0
 11
14519.4768322365
 21
17464.591385445121
 31
0.0
  0
LINE
  5
44E
  8
CT
 10
14771.480810883841
 20
19009.591385445121
 30
0.0
 11
12063.387253148539
 21
19009.591385445121
 31
0.0
  0
LINE
  5
478
  8
FUTO
 10
14443.476832236511
 20
22140.836518590659
 30
0.0
 11
12043.476832236511
 21
22140.836518590659
 31
0.0
  0
LINE
  5
479
  8
FUTO
 10
14443.476832236511
 20
22215.836518590659
 30
0.0
 11
12386.476832236511
 21
22215.836518590659
 31
0.0
  0
LINE
  5
47A
  8
FUTO
 10
14093.476832236511
 20
21237.836518590659
 30
0.0
 11
12043.476832236511
 21
21237.836518590659
 31
0.0
  0
LINE
  5
488
  8
FUTO
 10
14093.476832236511
 20
21164.836518590659
 30
0.0
 11
12043.476832236511
 21
21164.836518590659
 31
0.0
  0
LINE
  5
489
  8
FUTO
 10
14093.476832236511
 20
21164.836518590659
 30
0.0
 11
12043.476832236511
 21
21164.836518590659
 31
0.0
  0
LINE
  5
4A3
  8
FUTO
 10
12043.476832236511
 20
22215.836518590659
 30
0.0
 11
12043.476832236511
 21
22140.836518590659
 31
0.0
  0
LINE
  5
4A4
  8
FUTO
 10
12258.476832236511
 20
22140.836518590659
 30
0.0
 11
12258.476832236511
 21
21841.336518590659
 31
0.0
  0
LINE
  5
4A5
  8
CT
 10
12393.476832236511
 20
21980.421007790581
 30
0.0
 11
12393.476832236511
 21
20804.704686672649
 31
0.0
  0
LINE
  5
4AD
  8
KL
 10
14523.476832236511
 20
17518.59138544511
 30
0.0
 11
13577.882235501251
 21
17603.884167232882
 31
0.0
  0
LINE
  5
4AE
  8
FUTO
 10
14473.476832236511
 20
17503.02019746698
 30
0.0
 11
14082.662841288709
 21
17538.271681099181
 31
0.0
  0
LINE
  5
4B2
  8
FUTO
 10
14523.476832236511
 20
17464.591385445121
 30
0.0
 11
14473.4768322365
 21
17464.591385445121
 31
0.0
  0
LINE
  5
51D
  8
CT
 10
13593.476832236511
 20
23666.709096240262
 30
0.0
 11
13593.476832236511
 21
20840.976430650921
 31
0.0
  0
LINE
  5
52A
  8
FUTO
 10
14093.476832236511
 20
22140.836518590659
 30
0.0
 11
14093.476832236511
 21
21164.836518590659
 31
0.0
  0
LINE
  5
52C
  8
FUTO
 10
14018.476832236511
 20
22140.836518590659
 30
0.0
 11
14018.476832236511
 21
21231.836518590659
 31
0.0
  0
ARC
  5
559
  8
FUTO
 10
13507.976832236511
 20
19095.09138544511
 30
0.0
 40
937.5
 50
359.99999999999989
 51
84.767354037665385
  0
ARC
  5
577
  8
FUTO
 10
13678.67683223651
 20
19095.09138544511
 30
0.0
 40
766.5
 50
352.01329878217842
 51
359.99999999999989
  0
CIRCLE
  5
578
  8
FUTO
 10
13593.476832236511
 20
19009.591385445121
 30
0.0
 40
36.5
  0
ARC
  5
579
  8
FUTO
 10
13593.476832236511
 20
19009.591385445121
 30
0.0
 40
94.999999999998053
 50
69.056126027617694
 51
90.0
  0
INSERT
  5
57A
  8
FUTO
  2
左回転矢印
 10
13415.467937154641
 20
19523.470205302841
 30
0.0
 41
2.0
 42
2.0
 43
2.0
  0
ARC
  5
585
  8
KL
 10
13678.67683223651
 20
19095.09138544511
 30
0.0
 40
746.49999999999989
 50
324.12150225741459
 51
359.99999999999989
  0
ARC
  5
587
  8
FUTO
 10
13498.476832236511
 20
19009.591385445121
 30
0.0
 40
14.999999999999909
 50
180.0000000000004
 51
274.52806301380861
  0
ARC
  5
588
  8
FUTO
 10
13498.476832236511
 20
19009.591385445121
 30
0.0
 40
15.000000000000121
 50
85.471936986192148
 51
180.0000000000004
  0
LINE
  5
589
  8
FUTO
 10
13577.7951695387
 20
19103.288159429241
 30
0.0
 11
13577.7951695387
 21
19109.591385445121
 31
0.0
  0
LINE
  5
58A
  8
FUTO
 10
13609.158494934311
 20
19103.288159429241
 30
0.0
 11
13609.158494934311
 21
19109.591385445121
 31
0.0
  0
LINE
  5
58B
  8
FUTO
 10
13609.158494934311
 20
19109.591385445121
 30
0.0
 11
13577.7951695387
 21
19109.591385445121
 31
0.0
  0
LINE
  5
58C
  8
FUTO
 10
13498.476832236511
 20
18994.591385445121
 30
0.0
 11
13498.476832236511
 21
18959.591385445121
 31
0.0
  0
ARC
  5
58D
  8
FUTO
 10
13593.476832236511
 20
19009.591385445121
 30
0.0
 40
95.000000000000995
 50
189.05612602761769
 51
210.00000000000071
  0
ARC
  5
58E
  8
FUTO
 10
13593.4768322365
 20
19009.59138544511
 30
0.0
 40
94.999999999997456
 50
149.99999999999849
 51
170.9438739723814
  0
ARC
  5
58F
  8
FUTO
 10
13593.476832236511
 20
19009.59138544511
 30
0.0
 40
95.000000000000071
 50
129.05612602761761
 51
150.00000000000051
  0
ARC
  5
590
  8
FUTO
 10
13593.476832236511
 20
19009.591385445121
 30
0.0
 40
94.999999999998494
 50
90.0
 51
110.9438739723838
  0
ARC
  5
591
  8
FUTO
 10
13545.976832236511
 20
19091.863798804639
 30
0.0
 40
14.99999999999976
 50
120.0000000000004
 51
214.52806301380889
  0
ARC
  5
592
  8
FUTO
 10
13545.976832236511
 20
19091.863798804639
 30
0.0
 40
15.00000000000038
 50
25.4719369861869
 51
120.0000000000004
  0
CIRCLE
  5
593
  8
KL
 10
14298.942508653699
 20
18649.028528982592
 30
0.0
 40
17.407412889793701
  0
LINE
  5
594
  8
FUTO
 10
14473.476832236511
 20
19022.591385445121
 30
0.0
 11
14523.476832236511
 21
19022.591385445121
 31
0.0
  0
LINE
  5
595
  8
KL
 10
14523.476832236511
 20
18968.59138544511
 30
0.0
 11
14414.380576959889
 21
18968.59138544511
 31
0.0
  0
LINE
  5
596
  8
FUTO
 10
14473.476832236511
 20
18988.591385445121
 30
0.0
 11
14437.742046826141
 21
18988.59138544511
 31
0.0
  0
INSERT
  5
597
  8
FUTO
  2
まっすぐの矢印
 10
14753.33478496631
 20
17949.604038952439
 30
0.0
 41
2.0
 42
2.0
 43
2.0
 50
269.99999999999989
  0
LINE
  5
5A2
  8
FUTO
 10
13688.476832236511
 20
18994.591385445121
 30
0.0
 11
13688.476832236511
 21
18959.591385445121
 31
0.0
  0
ARC
  5
5A3
  8
FUTO
 10
13593.476832236511
 20
19009.591385445121
 30
0.0
 40
94.999999999999389
 50
9.0561260276173208
 51
30.000000000000231
  0
ARC
  5
5A4
  8
FUTO
 10
13688.476832236511
 20
19009.591385445121
 30
0.0
 40
15.000000000000121
 50
359.99999999999937
 51
94.528063013807838
  0
ARC
  5
5A5
  8
FUTO
 10
13688.476832236511
 20
19009.591385445121
 30
0.0
 40
14.999999999999909
 50
265.47193698619128
 51
359.9999999999996
  0
ARC
  5
5A6
  8
FUTO
 10
13593.476832236511
 20
19009.591385445121
 30
0.0
 40
94.999999999999389
 50
329.99999999999972
 51
350.94387397238262
  0
ARC
  5
5A7
  8
FUTO
 10
13593.476832236511
 20
19009.59138544511
 30
0.0
 40
94.999999999999915
 50
30.000000000000551
 51
50.943873972383457
  0
ARC
  5
5A8
  8
FUTO
 10
13640.976832236511
 20
19091.863798804639
 30
0.0
 40
15.00000000000038
 50
59.99999999999951
 51
154.52806301381301
  0
ARC
  5
5A9
  8
FUTO
 10
13640.976832236511
 20
19091.863798804639
 30
0.0
 40
15.00000000000006
 50
325.4719369861902
 51
59.999999999999169
  0
LINE
  5
605
  8
FUTO
 10
15854.56824544236
 20
19389.591385445121
 30
0.0
 11
16109.56824544236
 21
19389.59138544511
 31
0.0
  0
LINE
  5
606
  8
SL
 10
16042.46824544236
 20
19089.591385445121
 30
0.0
 11
16064.56824544236
 21
19089.591385445121
 31
0.0
  0
POINT
  5
609
  8
DEFPOINTS
 10
15854.56824544236
 20
19389.591385445121
 30
0.0
  0
LINE
  5
60A
  8
SL
 10
15964.56824544236
 20
19259.591385445121
 30
0.0
 11
16042.46824544236
 21
19259.591385445121
 31
0.0
  0
LINE
  5
60E
  8
FUTO
 10
16294.56824544236
 20
18964.591385445121
 30
0.0
 11
16863.568245442359
 21
18964.591385445121
 31
0.0
  0
LINE
  5
60F
  8
FUTO
 10
16294.56824544236
 20
19054.591385445121
 30
0.0
 11
16863.568245442359
 21
19054.591385445121
 31
0.0
  0
LINE
  5
610
  8
FUTO
 10
16109.56824544236
 20
19389.591385445121
 30
0.0
 11
16109.56824544236
 21
19163.281755350828
 31
0.0
  0
LINE
  5
611
  8
FUTO
 10
16064.56824544236
 20
18967.091385445121
 30
0.0
 11
16154.06824544236
 21
18967.09138544511
 31
0.0
  0
LINE
  5
612
  8
FUTO
 10
16064.56824544236
 20
19052.091385445121
 30
0.0
 11
16154.06824544236
 21
19052.091385445121
 31
0.0
  0
LINE
  5
68C
  8
FUTO
 10
14443.476832236511
 20
23364.836518590659
 30
0.0
 11
12743.476832236511
 21
23364.836518590659
 31
0.0
  0
LINE
  5
68D
  8
FUTO
 10
14523.476832236511
 20
23289.836518590659
 30
0.0
 11
12386.476832236511
 21
23289.836518590659
 31
0.0
  0
LINE
  5
68E
  8
CT
 10
14770.99683281603
 20
22751.836518590659
 30
0.0
 11
12224.475173679741
 21
22751.836518590659
 31
0.0
  0
LINE
  5
68F
  8
FUTO
 10
12743.476832236511
 20
23364.836518590659
 30
0.0
 11
12743.476832236511
 21
23335.836518590659
 31
0.0
  0
LINE
  5
6A9
  8
FUTO
 10
14443.476832236511
 20
23364.836518590659
 30
0.0
 11
14443.476832236511
 21
23335.83651859067
 31
0.0
  0
LINE
  5
6C2
  8
FUTO
 10
17144.568245442359
 20
18968.59138544511
 30
0.0
 11
17144.568245442351
 21
17517.791385445122
 31
0.0
  0
LINE
  5
6C3
  8
FUTO
 10
17140.068245442359
 20
18968.59138544511
 30
0.0
 11
17140.068245442351
 21
17514.591385445121
 31
0.0
  0
LINE
  5
6C5
  8
FUTO
 10
18204.568245442359
 20
18968.59138544511
 30
0.0
 11
18204.568245442359
 21
17514.591385445121
 31
0.0
  0
LINE
  5
6C6
  8
KL
 10
18210.568245442359
 20
19713.904127754151
 30
0.0
 11
18210.568245442359
 21
18305.27864313608
 31
0.0
  0
LINE
  5
6CD
  8
CT
 10
17674.568245442359
 20
20148.258944117471
 30
0.0
 11
17674.568245442359
 21
17096.85134451152
 31
0.0
  0
LINE
  5
6D4
  8
FUTO
 10
17065.068245442359
 20
20012.59138544511
 30
0.0
 11
17065.068245442351
 21
17459.591385445121
 31
0.0
  0
DIMENSION
  5
6D5
  8
FUTO
  2
*D10
 10
18674.178107198579
 20
18309.591385445121
 30
0.0
 11
18614.178107198579
 21
19009.591385445121
 31
0.0
 70
     0
  1
%%C<>
 13
18308.568245442359
 23
19709.591385445121
 33
0.0
 14
18308.568245442359
 24
18309.591385445121
 34
0.0
 50
90.0
1001
ACAD
1000
DSTYLE
1002
{
1070
    40
1040
30.0
1070
   176
1070
     2
1070
   177
1070
     2
1070
   178
1070
     2
1070
   341
1005
44D5
1070
     5
1000
OPEN30
1002
}
  0
LINE
  5
6E2
  8
KL
 10
18213.768245442359
 20
19000.591385445121
 30
0.0
 11
18213.768245442359
 21
18259.591385445121
 31
0.0
  0
LINE
  5
6E6
  8
FUTO
 10
18302.568245442359
 20
19759.591385445121
 30
0.0
 11
18302.568245442359
 21
18259.591385445121
 31
0.0
  0
LINE
  5
6E7
  8
FUTO
 10
18308.568245442359
 20
19759.591385445121
 30
0.0
 11
18308.568245442359
 21
18259.591385445121
 31
0.0
  0
LINE
  5
70B
  8
CT
 10
17095.568245442359
 20
17329.75546657684
 30
0.0
 11
17095.568245442359
 21
17264.222631454129
 31
0.0
1001
ACAD
1000
ASC_BOUNDS
1002
{
1070
    19
1002
}
  0
LINE
  5
724
  8
CT
 10
18251.568245442359
 20
17329.114814376579
 30
0.0
 11
18251.568245442359
 21
17276.144160802622
 31
0.0
1001
ACAD
1000
ASC_BOUNDS
1002
{
1070
    19
1002
}
  0
LINE
  5
72B
  8
KL
 10
18213.768245442359
 20
18303.591385445121
 30
0.0
 11
18282.768245442359
 21
18303.591385445121
 31
0.0
  0
LINE
  5
72C
  8
KL
 10
18207.768245442359
 20
18309.591385445121
 30
0.0
 11
18308.568245442359
 21
18309.591385445121
 31
0.0
  0
LINE
  5
72D
  8
CT
 10
18175.283547847259
 20
18277.091385445121
 30
0.0
 11
18232.326280979301
 21
18277.091385445121
 31
0.0
  0
LINE
  5
72E
  8
KL
 10
18207.768245442359
 20
18259.591385445121
 30
0.0
 11
18213.768245442359
 21
18259.591385445121
 31
0.0
  0
LINE
  5
72F
  8
FUTO
 10
18282.768245442359
 20
18303.591385445121
 30
0.0
 11
18302.568245442359
 21
18303.591385445121
 31
0.0
  0
LINE
  5
730
  8
CT
 10
18279.448510529721
 20
18277.091385445121
 30
0.0
 11
18339.591364283591
 21
18277.091385445121
 31
0.0
  0
LINE
  5
731
  8
FUTO
 10
18302.568245442359
 20
18259.591385445121
 30
0.0
 11
18308.568245442359
 21
18259.591385445121
 31
0.0
  0
DIMENSION
  5
800
  8
FUTO
  2
*D11
 10
18308.568245442359
 20
20328.214140125259
 30
0.0
 11
17991.568245442359
 21
20388.214140125259
 31
0.0
 70
     0
 13
17674.568245442359
 23
20161.308873029309
 33
0.0
 14
18308.568245442359
 24
19759.591385445121
 34
0.0
1001
ACAD
1000
DSTYLE
1002
{
1070
    40
1040
30.0
1070
   176
1070
     2
1070
   177
1070
     2
1070
   178
1070
     2
1070
   341
1005
44D5
1070
     5
1000
OPEN30
1002
}
  0
LINE
  5
826
  8
FUTO
 10
17140.068245442359
 20
20012.59138544511
 30
0.0
 11
17140.068245442351
 21
19022.59138544511
 31
0.0
  0
LINE
  5
827
  8
FUTO
 10
17144.568245442359
 20
20012.59138544511
 30
0.0
 11
17144.568245442359
 21
19022.59138544511
 31
0.0
  0
INSERT
  5
841
  8
FUTO
  2
まっすぐの矢印
 10
18370.415026131759
 20
19565.843273765098
 30
0.0
 41
-2.0
 42
2.0
 43
2.0
 50
90.0
  0
LINE
  5
842
  8
FUTO
 10
18204.568245442351
 20
20012.59138544511
 30
0.0
 11
18204.568245442359
 21
19022.591385445121
 31
0.0
  0
LINE
  5
844
  8
KL
 10
18213.768245442359
 20
19759.591385445121
 30
0.0
 11
18213.768245442359
 21
19018.591385445121
 31
0.0
  0
LINE
  5
845
  8
KL
 10
18213.768245442359
 20
19715.591385445121
 30
0.0
 11
18284.068245442359
 21
19715.59138544511
 31
0.0
  0
LINE
  5
846
  8
KL
 10
18207.768245442359
 20
19709.591385445121
 30
0.0
 11
18308.568245442359
 21
19709.591385445121
 31
0.0
  0
LINE
  5
847
  8
CT
 10
18185.112144198491
 20
19742.091385445121
 30
0.0
 11
18227.817782623752
 21
19742.091385445121
 31
0.0
  0
LINE
  5
848
  8
KL
 10
18207.768245442359
 20
19759.591385445121
 30
0.0
 11
18213.768245442359
 21
19759.591385445121
 31
0.0
  0
LINE
  5
84A
  8
FUTO
 10
18284.068245442359
 20
19715.591385445121
 30
0.0
 11
18302.568245442359
 21
19715.591385445121
 31
0.0
  0
LINE
  5
84B
  8
CT
 10
18279.807258180161
 20
19742.091385445121
 30
0.0
 11
18331.79673373657
 21
19742.091385445121
 31
0.0
  0
LINE
  5
84C
  8
FUTO
 10
18302.568245442359
 20
19759.591385445121
 30
0.0
 11
18308.568245442359
 21
19759.591385445121
 31
0.0
  0
POLYLINE
  8
0
  5
569F
  62
2
  66
     1
 10
0.000000
 20
0.000000
 30
0.000000
  70
     8
  0
VERTEX
  8
0
  5
56A0
 10
12275.3
 20
19133.8
 30
0.000000
  70
    32
  0
VERTEX
  8
0
  5
56A1
 10
12275.3
 20
19009.6
 30
0.000000
  70
    32
  0
SEQEND
  8
0
  5
56A2
  0
POLYLINE
  8
0
  5
56A3
  62
2
  66
     1
 10
0.000000
 20
0.000000
 30
0.000000
  70
     8
  0
VERTEX
  8
0
  5
56A4
 10
12275.3
 20
18885.4
 30
0.000000
  70
    32
  0
VERTEX
  8
0
  5
56A5
 10
12275.3
 20
19009.6
 30
0.000000
  70
    32
  0
SEQEND
  8
0
  5
56A6
  0
LINE
  5
971
  8
KL
 10
13793.330579514441
 20
19021.401537813621
 30
0.0
 11
13791.462041913441
 21
19039.304290876589
 31
0.0
  0
LINE
  5
972
  8
KL
 10
13393.476832236511
 20
19018.59138544511
 30
0.0
 11
13393.476832236511
 21
19000.591385445121
 31
0.0
  0
LINE
  5
973
  8
KL
 10
13393.476832236511
 20
19018.59138544511
 30
0.0
 11
13120.042246164059
 21
19018.59138544511
 31
0.0
  0
LINE
  5
974
  8
KL
 10
13393.476832236511
 20
19000.59138544511
 30
0.0
 11
13106.120457066119
 21
19000.59138544511
 31
0.0
  0
LINE
  5
990
  8
FUTO
 10
14480.61687135664
 20
19093.731753472632
 30
0.0
 11
14478.74833375564
 21
19111.6345065356
 31
0.0
  0
POLYLINE
  5
119F
  8
FUTO
 66
     1
 10
0.0
 20
0.0
 30
0.0
 70
     1
1001
ACAD
1000
ASC_BOUNDS
1002
{
1070
    19
1002
}
  0
VERTEX
  5
561D
  8
FUTO
 10
17060.568245442359
 20
17309.591385445121
 30
0.0
  0
VERTEX
  5
561E
  8
FUTO
 10
17060.568245442359
 20
17312.929574023281
 30
0.0
 42
-0.3888787318529885
  0
VERTEX
  5
561F
  8
FUTO
 10
17064.21962247137
 20
17316.914352815649
 30
0.0
  0
VERTEX
  5
5620
  8
FUTO
 10
17125.416868413351
 20
17322.268418074578
 30
0.0
 42
0.3888787318529894
  0
VERTEX
  5
5621
  8
FUTO
 10
17129.068245442359
 20
17326.25319686695
 30
0.0
  0
VERTEX
  5
5622
  8
FUTO
 10
17129.068245442359
 20
17442.929574023281
 30
0.0
 42
0.3888787318529893
  0
VERTEX
  5
5623
  8
FUTO
 10
17125.416868413351
 20
17446.914352815649
 30
0.0
  0
VERTEX
  5
5624
  8
FUTO
 10
17064.21962247137
 20
17452.268418074578
 30
0.0
 42
-0.3888787318529887
  0
VERTEX
  5
5625
  8
FUTO
 10
17060.568245442359
 20
17456.25319686695
 30
0.0
  0
VERTEX
  5
5626
  8
FUTO
 10
17060.568245442359
 20
17459.591385445121
 30
0.0
  0
VERTEX
  5
5627
  8
FUTO
 10
17135.568245442359
 20
17459.591385445121
 30
0.0
  0
VERTEX
  5
5628
  8
FUTO
 10
17135.568245442359
 20
17309.591385445121
 30
0.0
  0
SEQEND
  5
5629
  8
FUTO
  0
LINE
  5
1840
  8
FUTO
 10
13168.476832236511
 20
22140.836518590659
 30
0.0
 11
13168.476832236511
 21
21231.836518590659
 31
0.0
  0
LINE
  5
1841
  8
FUTO
 10
13093.476832236511
 20
22140.836518590659
 30
0.0
 11
13093.476832236511
 21
21231.83651859067
 31
0.0
  0
LINE
  5
1FF1
  8
FUTO
 10
18207.768245442348
 20
20012.59138544511
 30
0.0
 11
18207.768245442359
 21
19022.591385445121
 31
0.0
  0
LINE
  5
1FF2
  8
FUTO
 10
18207.768245442359
 20
18968.59138544511
 30
0.0
 11
18207.768245442359
 21
17514.591385445121
 31
0.0
  0
LINE
  5
1FF5
  8
FUTO
 10
18282.768245442359
 20
20012.59138544511
 30
0.0
 11
18282.768245442359
 21
17459.59138544511
 31
0.0
  0
DIMENSION
  5
2003
  8
FUTO
  2
*D5
 10
18286.568245442359
 20
16891.55746320316
 30
0.0
 11
17186.568245442359
 21
16951.55746320316
 31
0.0
 70
     0
 13
16086.56824544236
 23
17309.591385445121
 33
0.0
 14
18286.568245442359
 24
17309.591385445121
 34
0.0
1001
ACAD
1000
DSTYLE
1002
{
1070
    40
1040
30.0
1070
   176
1070
     2
1070
   177
1070
     2
1070
   178
1070
     2
1070
   341
1005
44D5
1070
     5
1000
OPEN30
1002
}
  0
LINE
  5
25BB
  8
CT
 10
13593.476832236511
 20
21748.50978731173
 30
0.0
 11
13593.476832236511
 21
21746.45065698056
 31
0.0
  0
TEXT
  5
29E7
  8
SP
 10
9149.8042194081445
 20
6129.2813767066364
 30
0.0
 40
100.0
  1
 
  0
LINE
  5
3235
  8
FUTO
 10
12393.69378155579
 20
18539.192385588129
 30
0.0
 11
12416.444178136069
 21
18546.680370489161
 31
0.0
  0
LINE
  5
3236
  8
FUTO
 10
12432.773488562039
 20
18420.458327709581
 30
0.0
 11
12459.073183559931
 21
18429.114516112761
 31
0.0
  0
LINE
  5
3237
  8
FUTO
 10
12387.321433486009
 20
18526.567284397341
 30
0.0
 11
12420.14838737126
 21
18426.830675779362
 31
0.0
  0
ARC
  5
3238
  8
FUTO
 10
12396.82015811629
 20
18529.693660957841
 30
0.0
 40
10.0
 50
108.2182600027899
 51
198.21826000278989
  0
ARC
  5
3239
  8
FUTO
 10
12429.647112001539
 20
18429.957052339862
 30
0.0
 40
10.0
 50
198.21826000278989
 51
288.21826000278992
  0
LINE
  5
323A
  8
FUTO
 10
12390.56740499529
 20
18548.691110218409
 30
0.0
 11
12413.51678470457
 21
18556.24458772131
 31
0.0
  0
ARC
  5
323B
  8
FUTO
 10
12396.82015811629
 20
18529.693660957841
 30
0.0
 40
20.0
 50
108.2182600027899
 51
198.21826000278989
  0
LINE
  5
323C
  8
FUTO
 10
12377.822708855731
 20
18523.440907836841
 30
0.0
 11
12410.64966274098
 21
18423.704299218862
 31
0.0
  0
ARC
  5
323D
  8
FUTO
 10
12429.647112001539
 20
18429.957052339862
 30
0.0
 40
20.0
 50
198.21826000278989
 51
288.21826000278992
  0
LINE
  5
323E
  8
FUTO
 10
12435.899865122539
 20
18410.9596030793
 30
0.0
 11
12462.96801167549
 21
18419.868716903849
 31
0.0
  0
LINE
  5
3241
  8
CT
 10
12352.253597094459
 20
18459.754603071819
 30
0.0
 11
12535.304382537741
 21
18520.003289844619
 31
0.0
  0
DIMENSION
  5
393B
  8
FUTO
  2
*D6
 10
18286.568245442359
 20
17072.887904460749
 30
0.0
 11
17980.568245442359
 21
17132.887904460749
 31
0.0
 70
     0
 13
17674.568245442359
 23
17309.591385445121
 33
0.0
 14
18286.568245442359
 24
17309.591385445121
 34
0.0
1001
ACAD
1000
DSTYLE
1002
{
1070
    40
1040
30.0
1070
   176
1070
     2
1070
   177
1070
     2
1070
   178
1070
     2
1070
   341
1005
44D5
1070
     5
1000
OPEN30
1002
}
  0
DIMENSION
  5
3948
  8
FUTO
  2
*D7
 10
16086.56824544236
 20
17072.89314538335
 30
0.0
 11
16880.568245442359
 21
17132.893145383339
 31
0.0
 70
     0
 13
17674.568245442359
 23
17309.591385445121
 33
0.0
 14
16086.56824544236
 24
17309.591385445121
 34
0.0
1001
ACAD
1000
DSTYLE
1002
{
1070
    40
1040
30.0
1070
   176
1070
     2
1070
   177
1070
     2
1070
   178
1070
     2
1070
   341
1005
44D5
1070
     5
1000
OPEN30
1002
}
  0
POLYLINE
  5
3949
  8
FUTO
 66
     1
 10
0.0
 20
0.0
 30
0.0
  0
VERTEX
  5
5645
  8
FUTO
 10
17064.568245442359
 20
17459.591385445121
 30
0.0
  0
VERTEX
  5
5646
  8
FUTO
 10
17139.568245442359
 20
17459.591385445121
 30
0.0
  0
SEQEND
  5
5647
  8
FUTO
  0
LINE
  5
3AE6
  8
FUTO
 10
16148.06824544236
 20
18901.591385445121
 30
0.0
 11
16148.06824544236
 21
17459.591385445121
 31
0.0
  0
LINE
  5
3AE7
  8
FUTO
 10
16148.06824544236
 20
18901.591385445121
 30
0.0
 11
16158.06824544236
 21
18901.591385445121
 31
0.0
  0
LINE
  5
3AE8
  8
FUTO
 10
16158.06824544236
 20
18901.591385445121
 30
0.0
 11
16158.06824544236
 21
18891.591385445121
 31
0.0
  0
LINE
  5
3AEA
  8
FUTO
 10
16158.06824544236
 20
18891.591385445121
 30
0.0
 11
17065.068245442351
 21
18891.591385445121
 31
0.0
  0
LINE
  5
3B39
  8
FUTO
 10
16268.56824544236
 20
18946.591385445121
 30
0.0
 11
16180.56824544236
 21
18946.591385445121
 31
0.0
  0
LINE
  5
3B3A
  8
FUTO
 10
16169.56824544236
 20
18909.59138544511
 30
0.0
 11
16279.56824544236
 21
18909.59138544511
 31
0.0
  0
LINE
  5
3B3B
  8
FUTO
 10
16274.56824544236
 20
19102.591385445121
 30
0.0
 11
16174.56824544236
 21
19102.591385445121
 31
0.0
  0
LINE
  5
3B3C
  8
FUTO
 10
16174.56824544236
 20
19102.591385445121
 30
0.0
 11
16174.56824544236
 21
18909.591385445121
 31
0.0
  0
LINE
  5
3B3D
  8
FUTO
 10
16154.06824544236
 20
19084.591385445121
 30
0.0
 11
16154.06824544236
 21
18934.591385445121
 31
0.0
  0
LINE
  5
3B3E
  8
FUTO
 10
16159.56824544236
 20
19093.591385445121
 30
0.0
 11
16159.56824544236
 21
18925.591385445121
 31
0.0
  0
LINE
  5
3B40
  8
FUTO
 10
16154.06824544236
 20
18934.591385445121
 30
0.0
 11
16159.56824544236
 21
18934.591385445121
 31
0.0
  0
ARC
  5
3B41
  8
FUTO
 10
16180.56824544236
 20
18940.591385445121
 30
0.0
 40
6.0
 50
90.0
 51
180.0
  0
LINE
  5
3B42
  8
FUTO
 10
16165.56824544236
 20
18919.591385445121
 30
0.0
 11
16174.56824544236
 21
18919.591385445121
 31
0.0
  0
ARC
  5
3B43
  8
FUTO
 10
16165.56824544236
 20
18925.591385445121
 30
0.0
 40
6.0
 50
180.0
 51
270.0
  0
LINE
  5
3B44
  8
FUTO
 10
16159.56824544236
 20
19084.591385445121
 30
0.0
 11
16154.06824544236
 21
19084.591385445121
 31
0.0
  0
ARC
  5
3B45
  8
FUTO
 10
16165.56824544236
 20
19093.591385445121
 30
0.0
 40
6.0
 50
90.0
 51
180.0
  0
LINE
  5
3B46
  8
FUTO
 10
16174.56824544236
 20
19099.591385445121
 30
0.0
 11
16165.56824544236
 21
19099.591385445121
 31
0.0
  0
LINE
  5
3B47
  8
FUTO
 10
16274.56824544236
 20
18909.591385445121
 30
0.0
 11
16274.56824544236
 21
19102.591385445121
 31
0.0
  0
LINE
  5
3B48
  8
FUTO
 10
16289.56824544236
 20
19093.591385445121
 30
0.0
 11
16289.56824544236
 21
18925.591385445121
 31
0.0
  0
LINE
  5
3B49
  8
FUTO
 10
16295.06824544236
 20
19084.591385445121
 30
0.0
 11
16295.06824544236
 21
18934.591385445121
 31
0.0
  0
LINE
  5
3B4A
  8
FUTO
 10
16283.56824544236
 20
18919.591385445121
 30
0.0
 11
16274.56824544236
 21
18919.591385445121
 31
0.0
  0
ARC
  5
3B4B
  8
FUTO
 10
16268.56824544236
 20
18940.591385445121
 30
0.0
 40
6.0
 50
0.0
 51
90.0
  0
ARC
  5
3B4C
  8
FUTO
 10
16283.56824544236
 20
18925.591385445121
 30
0.0
 40
6.0
 50
270.0
 51
0.0
  0
LINE
  5
3B4D
  8
FUTO
 10
16295.06824544236
 20
18934.591385445121
 30
0.0
 11
16289.56824544236
 21
18934.591385445121
 31
0.0
  0
LINE
  5
3B4E
  8
FUTO
 10
16274.56824544236
 20
19099.591385445121
 30
0.0
 11
16283.56824544236
 21
19099.591385445121
 31
0.0
  0
ARC
  5
3B4F
  8
FUTO
 10
16283.56824544236
 20
19093.591385445121
 30
0.0
 40
6.0
 50
0.0
 51
90.0
  0
LINE
  5
3B50
  8
FUTO
 10
16289.56824544236
 20
19084.591385445121
 30
0.0
 11
16295.06824544236
 21
19084.591385445121
 31
0.0
  0
LINE
  5
3B51
  8
FUTO
 10
16169.56824544236
 20
18909.59138544511
 30
0.0
 11
16169.56824544236
 21
18891.591385445121
 31
0.0
  0
LINE
  5
3B52
  8
FUTO
 10
16279.56824544236
 20
18909.59138544511
 30
0.0
 11
16279.56824544236
 21
18891.591385445121
 31
0.0
  0
LINE
  5
3BBC
  8
FUTO
 10
17001.068245442359
 20
19113.59138544511
 30
0.0
 11
16868.068245442359
 21
19113.59138544511
 31
0.0
  0
LINE
  5
3BBD
  8
FUTO
 10
16983.568245442359
 20
18933.59138544511
 30
0.0
 11
16885.568245442359
 21
18933.59138544511
 31
0.0
  0
LINE
  5
3BBE
  8
FUTO
 10
16869.568245442359
 20
18897.591385445121
 30
0.0
 11
16999.568245442359
 21
18897.591385445121
 31
0.0
  0
LINE
  5
3BC0
  8
FUTO
 10
16879.568245442359
 20
19113.59138544511
 30
0.0
 11
16879.568245442359
 21
18897.59138544511
 31
0.0
  0
LINE
  5
3BC1
  8
FUTO
 10
16857.068245442359
 20
19099.59138544511
 30
0.0
 11
16857.068245442359
 21
18919.59138544511
 31
0.0
  0
LINE
  5
3BC2
  8
FUTO
 10
16862.068245442359
 20
19107.59138544511
 30
0.0
 11
16862.068245442359
 21
18911.59138544511
 31
0.0
  0
LINE
  5
3BC3
  8
FUTO
 10
16857.068245442359
 20
18919.59138544511
 30
0.0
 11
16862.068245442359
 21
18919.59138544511
 31
0.0
  0
ARC
  5
3BC4
  8
FUTO
 10
16885.568245442359
 20
18927.59138544511
 30
0.0
 40
6.0
 50
90.0
 51
180.0
  0
LINE
  5
3BC5
  8
FUTO
 10
16868.068245442359
 20
18905.59138544511
 30
0.0
 11
16879.568245442359
 21
18905.59138544511
 31
0.0
  0
ARC
  5
3BC6
  8
FUTO
 10
16868.068245442359
 20
18911.59138544511
 30
0.0
 40
6.0
 50
180.0
 51
270.0
  0
LINE
  5
3BC7
  8
FUTO
 10
16862.068245442359
 20
19099.59138544511
 30
0.0
 11
16857.068245442359
 21
19099.59138544511
 31
0.0
  0
ARC
  5
3BC8
  8
FUTO
 10
16868.068245442359
 20
19107.59138544511
 30
0.0
 40
6.0
 50
90.0
 51
180.0
  0
LINE
  5
3BC9
  8
FUTO
 10
16989.568245442359
 20
19113.59138544511
 30
0.0
 11
16989.568245442359
 21
18897.59138544511
 31
0.0
  0
LINE
  5
3BCA
  8
FUTO
 10
17007.068245442359
 20
19107.59138544511
 30
0.0
 11
17007.068245442359
 21
18911.59138544511
 31
0.0
  0
LINE
  5
3BCB
  8
FUTO
 10
17012.068245442359
 20
19099.59138544511
 30
0.0
 11
17012.068245442359
 21
18919.59138544511
 31
0.0
  0
ARC
  5
3BCC
  8
FUTO
 10
16983.568245442359
 20
18927.59138544511
 30
0.0
 40
6.0
 50
0.0
 51
90.0
  0
LINE
  5
3BCD
  8
FUTO
 10
17001.068245442359
 20
18905.59138544511
 30
0.0
 11
16989.568245442359
 21
18905.59138544511
 31
0.0
  0
ARC
  5
3BCE
  8
FUTO
 10
17001.068245442359
 20
18911.59138544511
 30
0.0
 40
6.0
 50
270.0
 51
0.0
  0
LINE
  5
3BCF
  8
FUTO
 10
17012.068245442359
 20
18919.59138544511
 30
0.0
 11
17007.068245442359
 21
18919.59138544511
 31
0.0
  0
ARC
  5
3BD0
  8
FUTO
 10
17001.068245442359
 20
19107.59138544511
 30
0.0
 40
6.0
 50
0.0
 51
90.0
  0
LINE
  5
3BD1
  8
FUTO
 10
17007.068245442359
 20
19099.59138544511
 30
0.0
 11
17012.068245442359
 21
19099.59138544511
 31
0.0
  0
LINE
  5
3C31
  8
SL
 10
16338.810262661849
 20
19136.29028847627
 30
0.0
 11
16804.086675547449
 21
19136.29028847627
 31
0.0
  0
LINE
  5
3C32
  8
FUTO
 10
16869.568245442359
 20
18897.591385445121
 30
0.0
 11
16869.568245442359
 21
18891.591385445121
 31
0.0
  0
LINE
  5
3C33
  8
FUTO
 10
16999.568245442359
 20
18897.591385445121
 30
0.0
 11
16999.568245442359
 21
18891.591385445121
 31
0.0
  0
DIMENSION
  5
3C4B
  8
SP
  2
*D9
 10
17674.568245442359
 20
20328.214140125259
 30
0.0
 11
16764.568245442359
 21
20388.214140125259
 31
0.0
 70
     0
 13
15854.56824544236
 23
19389.591385445121
 33
0.0
 14
17674.568245442359
 24
20191.308873029309
 34
0.0
1001
ACAD
1000
DSTYLE
1002
{
1070
    40
1040
30.0
1070
   176
1070
     2
1070
   177
1070
     2
1070
   178
1070
     2
1070
   341
1005
44D5
1070
     5
1000
OPEN30
1002
}
  0
LINE
  5
3C62
  8
SL
 10
16338.810262661849
 20
19136.29028847627
 30
0.0
 11
16338.810262661849
 21
18881.591385445121
 31
0.0
  0
LINE
  5
3C63
  8
SL
 10
16804.086675547449
 20
19136.29028847627
 30
0.0
 11
16804.086675547449
 21
18881.591385445121
 31
0.0
  0
LINE
  5
3C79
  8
FUTO
 10
13638.476832236511
 20
21371.836518590659
 30
0.0
 11
13638.476832236511
 21
21940.836518590659
 31
0.0
  0
LINE
  5
3C7A
  8
FUTO
 10
13548.476832236511
 20
21371.836518590659
 30
0.0
 11
13548.476832236511
 21
21940.836518590659
 31
0.0
  0
LINE
  5
3C7B
  8
FUTO
 10
13973.476832236511
 20
20931.836518590659
 30
0.0
 11
12173.476832236511
 21
20931.836518590659
 31
0.0
  0
LINE
  5
3C7D
  8
SL
 10
13843.476832236511
 20
21119.736518590671
 30
0.0
 11
12287.476832236511
 21
21119.736518590671
 31
0.0
  0
LINE
  5
3C7E
  8
SL
 10
13843.476832236511
 20
21041.836518590659
 30
0.0
 11
12287.476832236511
 21
21041.836518590659
 31
0.0
  0
LINE
  5
3C7F
  8
CT
 10
13711.980329196629
 20
21301.836518590659
 30
0.0
 11
13430.646200449801
 21
21301.836518590659
 31
0.0
  0
LINE
  5
3C80
  8
CT
 10
12393.476832236511
 20
20894.87978906995
 30
0.0
 11
12393.476832236511
 21
21197.698472181401
 31
0.0
  0
LINE
  5
3C81
  8
SL
 10
12499.476832236511
 20
21041.836518590659
 30
0.0
 11
12499.476832236511
 21
21119.736518590671
 31
0.0
  0
LINE
  5
3C82
  8
SL
 10
12287.476832236511
 20
21041.836518590659
 30
0.0
 11
12287.476832236511
 21
21119.736518590671
 31
0.0
  0
LINE
  5
3C83
  8
FUTO
 10
12340.5342585123
 20
21186.836518590659
 30
0.0
 11
12173.476832236511
 21
21186.836518590659
 31
0.0
  0
LINE
  5
3C84
  8
SL
 10
12453.476832236511
 20
21134.836518590659
 30
0.0
 11
12333.476832236511
 21
21134.836518590659
 31
0.0
  0
LINE
  5
3C85
  8
SL
 10
12453.476832236511
 20
21119.736518590671
 30
0.0
 11
12453.476832236511
 21
21134.836518590659
 31
0.0
  0
LINE
  5
3C86
  8
SL
 10
12333.476832236511
 20
21119.736518590671
 30
0.0
 11
12333.476832236511
 21
21134.836518590659
 31
0.0
  0
LINE
  5
3C87
  8
SL
 10
13343.476832236511
 20
21041.836518590659
 30
0.0
 11
13343.476832236511
 21
21119.736518590671
 31
0.0
  0
LINE
  5
3C88
  8
FUTO
 10
13686.476832236511
 20
21351.836518590659
 30
0.0
 11
13686.476832236511
 21
21251.836518590659
 31
0.0
  0
LINE
  5
3C8B
  8
FUTO
 10
13973.476832236511
 20
21186.836518590659
 30
0.0
 11
13747.16720214222
 21
21186.836518590659
 31
0.0
  0
LINE
  5
3C8C
  8
SL
 10
13843.476832236511
 20
21041.836518590659
 30
0.0
 11
13843.476832236511
 21
21119.736518590671
 31
0.0
  0
LINE
  5
3C8D
  8
FUTO
 10
13635.976832236511
 20
21141.836518590659
 30
0.0
 11
13635.976832236511
 21
21231.336518590659
 31
0.0
  0
LINE
  5
3C8E
  8
FUTO
 10
13550.976832236511
 20
21141.836518590659
 30
0.0
 11
13550.976832236511
 21
21231.336518590659
 31
0.0
  0
LINE
  5
3C8F
  8
SL
 10
13673.476832236511
 20
21119.736518590671
 30
0.0
 11
13673.476832236511
 21
21141.836518590659
 31
0.0
  0
LINE
  5
3C90
  8
SL
 10
13513.476832236511
 20
21119.736518590671
 30
0.0
 11
13513.476832236511
 21
21141.836518590659
 31
0.0
  0
LINE
  5
3C91
  8
SL
 10
13673.476832236511
 20
21141.836518590659
 30
0.0
 11
13513.476832236511
 21
21141.836518590659
 31
0.0
  0
LINE
  5
3C94
  8
FUTO
 10
13683.476832236511
 20
21251.836518590659
 30
0.0
 11
13683.476832236511
 21
21242.836518590659
 31
0.0
  0
ARC
  5
3C95
  8
FUTO
 10
13677.476832236511
 20
21242.836518590659
 30
0.0
 40
6.0
 50
270.0
 51
0.000000000000007
  0
LINE
  5
3C96
  8
FUTO
 10
13668.476832236511
 20
21236.836518590659
 30
0.0
 11
13668.476832236511
 21
21231.336518590659
 31
0.0
  0
ARC
  5
3C97
  8
FUTO
 10
13509.476832236511
 20
21242.836518590659
 30
0.0
 40
6.0
 50
180.0
 51
270.0
  0
LINE
  5
3C98
  8
FUTO
 10
13503.476832236511
 20
21242.836518590659
 30
0.0
 11
13503.476832236511
 21
21251.836518590659
 31
0.0
  0
LINE
  5
3C9A
  8
FUTO
 10
13518.476832236511
 20
21231.336518590659
 30
0.0
 11
13518.476832236511
 21
21236.836518590659
 31
0.0
  0
LINE
  5
3C9B
  8
FUTO
 10
13677.476832236511
 20
21236.836518590659
 30
0.0
 11
13509.476832236511
 21
21236.836518590659
 31
0.0
  0
LINE
  5
3C9C
  8
FUTO
 10
13668.476832236511
 20
21231.336518590659
 30
0.0
 11
13518.476832236511
 21
21231.336518590659
 31
0.0
  0
LINE
  5
3C9D
  8
FUTO
 10
13686.476832236511
 20
21251.836518590659
 30
0.0
 11
13500.476832236511
 21
21251.836518590659
 31
0.0
  0
LINE
  5
3C9F
  8
FUTO
 10
13973.476832236511
 20
20931.836518590659
 30
0.0
 11
13973.476832236511
 21
21186.836518590659
 31
0.0
  0
POINT
  5
3CA0
  8
DEFPOINTS
 10
13973.476832236511
 20
20931.836518590659
 30
0.0
  0
LINE
  5
3CA3
  8
FUTO
 10
13668.476832236511
 20
21366.836518590659
 30
0.0
 11
13668.476832236511
 21
21372.336518590659
 31
0.0
  0
ARC
  5
3CA4
  8
FUTO
 10
13677.476832236511
 20
21360.836518590659
 30
0.0
 40
6.0
 50
0.000000000000007
 51
90.0
  0
LINE
  5
3CA5
  8
FUTO
 10
13683.476832236511
 20
21351.836518590659
 30
0.0
 11
13683.476832236511
 21
21360.836518590659
 31
0.0
  0
LINE
  5
3CA6
  8
FUTO
 10
13518.476832236511
 20
21372.336518590659
 30
0.0
 11
13518.476832236511
 21
21366.836518590659
 31
0.0
  0
ARC
  5
3CA7
  8
FUTO
 10
13509.476832236511
 20
21360.836518590659
 30
0.0
 40
6.0
 50
90.0
 51
180.0
  0
LINE
  5
3CA9
  8
FUTO
 10
13503.476832236511
 20
21360.836518590659
 30
0.0
 11
13503.476832236511
 21
21351.836518590659
 31
0.0
  0
LINE
  5
3CAA
  8
FUTO
 10
13668.476832236511
 20
21372.336518590659
 30
0.0
 11
13518.476832236511
 21
21372.336518590659
 31
0.0
  0
LINE
  5
3CAB
  8
FUTO
 10
13677.476832236511
 20
21366.836518590659
 30
0.0
 11
13509.476832236511
 21
21366.836518590659
 31
0.0
  0
LINE
  5
3CAC
  8
FUTO
 10
13500.476832236511
 20
21351.836518590659
 30
0.0
 11
13686.476832236511
 21
21351.836518590659
 31
0.0
  0
LINE
  5
3CAF
  8
FUTO
 10
14343.476832236511
 20
23385.836518590659
 30
0.0
 11
12843.476832236511
 21
23385.836518590659
 31
0.0
  0
LINE
  5
3CB0
  8
FUTO
 10
14343.476832236511
 20
23379.836518590659
 30
0.0
 11
12843.476832236511
 21
23379.836518590659
 31
0.0
  0
LINE
  5
3CB1
  8
KL
 10
13584.476832236511
 20
23291.036518590659
 30
0.0
 11
12843.476832236511
 21
23291.03651859067
 31
0.0
  0
LINE
  5
3CB5
  8
KL
 10
14297.789574545541
 20
23287.836518590659
 30
0.0
 11
12889.164089927481
 21
23287.836518590659
 31
0.0
  0
LINE
  5
3CB9
  8
CT
 10
13711.980329196629
 20
22011.836518590659
 30
0.0
 11
13408.31266902135
 21
22011.836518590659
 31
0.0
  0
LINE
  5
3CBA
  8
KL
 10
12893.476832236511
 20
23285.03651859067
 30
0.0
 11
12893.476832236511
 21
23385.836518590659
 31
0.0
  0
LINE
  5
3CBB
  8
KL
 10
12887.476832236511
 20
23291.03651859067
 30
0.0
 11
12887.476832236511
 21
23360.036518590659
 31
0.0
  0
LINE
  5
3CBC
  8
KL
 10
12843.476832236511
 20
23285.03651859067
 30
0.0
 11
12843.476832236511
 21
23291.03651859067
 31
0.0
  0
LINE
  5
3CBD
  8
CT
 10
12860.976832236511
 20
23252.551820995559
 30
0.0
 11
12860.976832236511
 21
23309.594554127601
 31
0.0
  0
LINE
  5
3CBE
  8
FUTO
 10
12843.476832236511
 20
23379.836518590659
 30
0.0
 11
12843.476832236511
 21
23385.836518590659
 31
0.0
  0
LINE
  5
3CBF
  8
CT
 10
12860.976832236511
 20
23356.716783678021
 30
0.0
 11
12860.976832236511
 21
23416.859637431899
 31
0.0
  0
LINE
  5
3CC0
  8
FUTO
 10
12887.476832236511
 20
23360.036518590659
 30
0.0
 11
12887.476832236511
 21
23379.836518590659
 31
0.0
  0
LINE
  5
3CC7
  8
FUTO
 10
13697.476832236511
 20
22078.336518590659
 30
0.0
 11
13697.476832236511
 21
21945.336518590659
 31
0.0
  0
ARC
  5
3CCA
  8
FUTO
 10
13691.476832236511
 20
21945.336518590659
 30
0.0
 40
6.0
 50
270.0
 51
0.000000000000007
  0
LINE
  5
3CCB
  8
FUTO
 10
13683.476832236511
 20
21939.336518590659
 30
0.0
 11
13683.476832236511
 21
21934.336518590659
 31
0.0
  0
ARC
  5
3CCC
  8
FUTO
 10
13495.476832236511
 20
21945.336518590659
 30
0.0
 40
6.0
 50
180.0
 51
270.0
  0
LINE
  5
3CCD
  8
FUTO
 10
13489.476832236511
 20
21945.336518590659
 30
0.0
 11
13489.476832236511
 21
21956.836518590659
 31
0.0
  0
LINE
  5
3CCF
  8
FUTO
 10
13503.476832236511
 20
21934.336518590659
 30
0.0
 11
13503.476832236511
 21
21939.336518590659
 31
0.0
  0
LINE
  5
3CD0
  8
FUTO
 10
13691.476832236511
 20
21939.336518590659
 30
0.0
 11
13495.476832236511
 21
21939.336518590659
 31
0.0
  0
LINE
  5
3CD1
  8
FUTO
 10
13683.476832236511
 20
21934.336518590659
 30
0.0
 11
13503.476832236511
 21
21934.336518590659
 31
0.0
  0
LINE
  5
3CD2
  8
FUTO
 10
13697.476832236511
 20
21956.836518590659
 30
0.0
 11
13489.476832236511
 21
21956.836518590659
 31
0.0
  0
LINE
  5
3CD4
  8
FUTO
 10
13683.476832236511
 20
22084.336518590659
 30
0.0
 11
13683.476832236511
 21
22089.336518590659
 31
0.0
  0
ARC
  5
3CD5
  8
FUTO
 10
13691.476832236511
 20
22078.336518590659
 30
0.0
 40
6.0
 50
0.000000000000007
 51
90.0
  0
LINE
  5
3CD6
  8
FUTO
 10
13503.476832236511
 20
22089.336518590659
 30
0.0
 11
13503.476832236511
 21
22084.336518590659
 31
0.0
  0
ARC
  5
3CD7
  8
FUTO
 10
13495.476832236511
 20
22078.336518590659
 30
0.0
 40
6.0
 50
90.0
 51
180.0
  0
LINE
  5
3CD8
  8
FUTO
 10
13489.476832236511
 20
22078.336518590659
 30
0.0
 11
13489.476832236511
 21
22066.836518590659
 31
0.0
  0
LINE
  5
3CDA
  8
FUTO
 10
13683.476832236511
 20
22089.336518590659
 30
0.0
 11
13503.476832236511
 21
22089.336518590659
 31
0.0
  0
LINE
  5
3CDB
  8
FUTO
 10
13691.476832236511
 20
22084.336518590659
 30
0.0
 11
13495.476832236511
 21
22084.336518590659
 31
0.0
  0
LINE
  5
3CDC
  8
FUTO
 10
13697.476832236511
 20
22066.836518590659
 30
0.0
 11
13489.476832236511
 21
22066.836518590659
 31
0.0
  0
LINE
  5
3CDD
  8
FUTO
 10
13548.476832236511
 20
22080.836518590659
 30
0.0
 11
13548.476832236511
 21
22143.636518590662
 31
0.0
  0
LINE
  5
3CDE
  8
FUTO
 10
13638.476832236511
 20
22080.836518590659
 30
0.0
 11
13638.476832236511
 21
22142.336518590659
 31
0.0
  0
LINE
  5
3CE2
  8
KL
 10
14343.476832236511
 20
23291.03651859067
 30
0.0
 11
13602.476832236511
 21
23291.036518590659
 31
0.0
  0
INSERT
  5
3CE3
  8
FUTO
  2
まっすぐの矢印
 10
14149.72872055649
 20
23447.68329928007
 30
0.0
 41
2.0
 42
2.0
 43
2.0
 50
180.0
  0
LINE
  5
3CE4
  8
KL
 10
14293.476832236511
 20
23285.03651859067
 30
0.0
 11
14293.476832236511
 21
23385.836518590659
 31
0.0
  0
LINE
  5
3CE5
  8
KL
 10
14299.476832236511
 20
23291.03651859067
 30
0.0
 11
14299.476832236511
 21
23361.336518590659
 31
0.0
  0
LINE
  5
3CE6
  8
KL
 10
14343.476832236511
 20
23285.03651859067
 30
0.0
 11
14343.476832236511
 21
23291.03651859067
 31
0.0
  0
LINE
  5
3CE7
  8
CT
 10
14325.976832236511
 20
23262.380417346802
 30
0.0
 11
14325.976832236511
 21
23305.086055772059
 31
0.0
  0
LINE
  5
3CE8
  8
FUTO
 10
14343.476832236511
 20
23379.836518590659
 30
0.0
 11
14343.476832236511
 21
23385.836518590659
 31
0.0
  0
LINE
  5
3CE9
  8
CT
 10
14325.976832236511
 20
23357.075531328461
 30
0.0
 11
14325.976832236511
 21
23409.06500688487
 31
0.0
  0
LINE
  5
3CEA
  8
FUTO
 10
14299.476832236511
 20
23361.336518590659
 30
0.0
 11
14299.476832236511
 21
23379.836518590659
 31
0.0
  0
LINE
  5
3D2A
  8
FUTO
 10
13489.476832236511
 20
22078.336518590659
 30
0.0
 11
13489.476832236511
 21
21945.336518590659
 31
0.0
  0
LINE
  5
3D2B
  8
FUTO
 10
13500.476832236511
 20
21351.836518590659
 30
0.0
 11
13500.476832236511
 21
21251.836518590659
 31
0.0
  0
ARC
  5
4030
  8
FUTO
 10
12393.476832236511
 20
21142.836518590659
 30
0.0
 40
9.0
 50
0.000000000000007
 51
180.0
  0
LINE
  5
4031
  8
FUTO
 10
12384.476832236511
 20
21041.836518590659
 30
0.0
 11
12384.476832236511
 21
21142.836518590659
 31
0.0
  0
LINE
  5
4032
  8
FUTO
 10
12402.476832236511
 20
21041.836518590659
 30
0.0
 11
12402.476832236511
 21
21142.836518590659
 31
0.0
  0
LINE
  5
4033
  8
FUTO
 10
12136.47689323651
 20
21556.336457590671
 30
0.0
 11
12136.47689323651
 21
21592.336518590659
 31
0.0
  0
LINE
  5
4034
  8
FUTO
 10
12133.47689323651
 20
21556.336457590671
 30
0.0
 11
12133.47689323651
 21
21592.336518590659
 31
0.0
  0
LINE
  5
4035
  8
FUTO
 10
12141.47689323651
 20
21556.336457590671
 30
0.0
 11
12141.47689323651
 21
21603.336518590659
 31
0.0
  0
LINE
  5
4036
  8
FUTO
 10
12183.476832236511
 20
21217.336518590659
 30
0.0
 11
12183.476832236511
 21
21264.211518590659
 31
0.0
  0
LINE
  5
4037
  8
FUTO
 10
12235.78519724099
 20
21212.336518590659
 30
0.0
 11
12188.476832236511
 21
21212.336518590659
 31
0.0
  0
ARC
  5
4038
  8
FUTO
 10
12188.476832236511
 20
21217.336518590659
 30
0.0
 40
5.0
 50
180.0
 51
270.0
  0
LINE
  5
4039
  8
FUTO
 10
12203.79548701808
 20
21264.211518590659
 30
0.0
 11
12183.476832236511
 21
21264.211518590659
 31
0.0
  0
LINE
  5
403A
  8
FUTO
 10
12183.476832236511
 20
21262.336518590659
 30
0.0
 11
12136.47689323651
 21
21262.336518590659
 31
0.0
  0
LINE
  5
403B
  8
FUTO
 10
12183.476832236511
 20
21259.336518590659
 30
0.0
 11
12133.47689323651
 21
21259.336518590659
 31
0.0
  0
LINE
  5
403C
  8
FUTO
 10
12203.68635866823
 20
21267.336518590659
 30
0.0
 11
12141.47689323651
 21
21267.336518590659
 31
0.0
  0
LINE
  5
403D
  8
FUTO
 10
12141.47689323651
 20
21267.336518590659
 30
0.0
 11
12136.47689323651
 21
21262.336518590659
 31
0.0
  0
LINE
  5
403E
  8
FUTO
 10
12108.47689323651
 20
21302.336518590659
 30
0.0
 11
12108.47689323651
 21
21342.336518590659
 31
0.0
  0
LINE
  5
403F
  8
FUTO
 10
12138.47689323651
 20
21302.336518590659
 30
0.0
 11
12138.47689323651
 21
21342.336518590659
 31
0.0
  0
LINE
  5
4040
  8
FUTO
 10
12108.47689323651
 20
21342.336518590659
 30
0.0
 11
12138.47689323651
 21
21342.336518590659
 31
0.0
  0
LINE
  5
4041
  8
FUTO
 10
12138.47689323651
 20
21302.336518590659
 30
0.0
 11
12108.47689323651
 21
21302.336518590659
 31
0.0
  0
LINE
  5
4042
  8
CT
 10
12189.976832236511
 20
21322.336518590659
 30
0.0
 11
12022.42245023651
 21
21322.336518590659
 31
0.0
  0
LINE
  5
4043
  8
FUTO
 10
12034.02242523651
 20
21339.926362590661
 30
0.0
 11
12046.122401236509
 21
21339.926362590661
 31
0.0
  0
LINE
  5
4044
  8
FUTO
 10
12034.02242523651
 20
21304.746675590672
 30
0.0
 11
12046.122401236509
 21
21304.746675590672
 31
0.0
  0
LINE
  5
4045
  8
FUTO
 10
12034.02242523651
 20
21332.041596590661
 30
0.0
 11
12046.122401236509
 21
21332.041596590661
 31
0.0
  0
LINE
  5
4046
  8
FUTO
 10
12034.02242523651
 20
21312.63144059066
 30
0.0
 11
12046.122401236509
 21
21312.63144059066
 31
0.0
  0
LINE
  5
4047
  8
FUTO
 10
12032.42245023651
 20
21338.326753590671
 30
0.0
 11
12032.42245023651
 21
21306.347260590661
 31
0.0
  0
LINE
  5
4048
  8
FUTO
 10
12034.02242523651
 20
21304.746675590672
 30
0.0
 11
12032.42245023651
 21
21306.347260590661
 31
0.0
  0
LINE
  5
4049
  8
FUTO
 10
12034.02242523651
 20
21312.63144059066
 30
0.0
 11
12032.42245023651
 21
21311.031831590659
 31
0.0
  0
LINE
  5
404A
  8
FUTO
 10
12034.02242523651
 20
21312.63144059066
 30
0.0
 11
12032.42245023651
 21
21314.23202659066
 31
0.0
  0
LINE
  5
404B
  8
FUTO
 10
12032.42245023651
 20
21338.326753590671
 30
0.0
 11
12034.02242523651
 21
21339.926362590661
 31
0.0
  0
LINE
  5
404C
  8
FUTO
 10
12034.02242523651
 20
21332.041596590661
 30
0.0
 11
12032.42245023651
 21
21333.642182590658
 31
0.0
  0
LINE
  5
404D
  8
FUTO
 10
12034.02242523651
 20
21332.041596590661
 30
0.0
 11
12032.42245023651
 21
21330.441987590661
 31
0.0
  0
LINE
  5
404E
  8
FUTO
 10
12046.122401236509
 20
21339.926362590661
 30
0.0
 11
12046.122401236509
 21
21304.746675590672
 31
0.0
  0
LINE
  5
404F
  8
FUTO
 10
12046.122401236509
 20
21313.336518590659
 30
0.0
 11
12108.47689323651
 21
21313.336518590659
 31
0.0
  0
LINE
  5
4050
  8
HOSO
 10
12108.47689323651
 20
21315.336518590659
 30
0.0
 11
12046.12234023651
 21
21315.336518590659
 31
0.0
  0
LINE
  5
4051
  8
HOSO
 10
12046.122401236509
 20
21329.336518590659
 30
0.0
 11
12108.47689323651
 21
21329.336518590659
 31
0.0
  0
LINE
  5
4052
  8
FUTO
 10
12108.47689323651
 20
21331.336518590659
 30
0.0
 11
12046.12234023651
 21
21331.336518590659
 31
0.0
  0
LINE
  5
4053
  8
FUTO
 10
12138.47689323651
 20
21313.336518590659
 30
0.0
 11
12189.976832236511
 21
21313.336518590659
 31
0.0
  0
LINE
  5
4054
  8
HOSO
 10
12189.976832236511
 20
21315.336518590659
 30
0.0
 11
12138.47689323651
 21
21315.336518590659
 31
0.0
  0
LINE
  5
4055
  8
FUTO
 10
12189.976832236511
 20
21331.336518590659
 30
0.0
 11
12138.47689323651
 21
21331.336518590659
 31
0.0
  0
LINE
  5
4056
  8
HOSO
 10
12138.47689323651
 20
21329.336518590659
 30
0.0
 11
12189.976832236511
 21
21329.336518590659
 31
0.0
  0
LINE
  5
4057
  8
FUTO
 10
12133.47689323651
 20
21259.336518590659
 30
0.0
 11
12133.47689323651
 21
21302.336518590659
 31
0.0
  0
LINE
  5
4058
  8
FUTO
 10
12136.47689323651
 20
21262.336518590659
 30
0.0
 11
12136.47689323651
 21
21302.336518590659
 31
0.0
  0
LINE
  5
4059
  8
FUTO
 10
12141.47689323651
 20
21267.336518590659
 30
0.0
 11
12141.47689323651
 21
21313.336518590659
 31
0.0
  0
LINE
  5
405A
  8
FUTO
 10
12133.47689323651
 20
21342.336518590659
 30
0.0
 11
12133.47689323651
 21
21378.336518590659
 31
0.0
  0
LINE
  5
405B
  8
FUTO
 10
12136.47689323651
 20
21342.336518590659
 30
0.0
 11
12136.47689323651
 21
21378.336518590659
 31
0.0
  0
LINE
  5
405C
  8
FUTO
 10
12141.47689323651
 20
21331.336518590659
 30
0.0
 11
12141.47689323651
 21
21378.336518590659
 31
0.0
  0
LINE
  5
405D
  8
FUTO
 10
12108.47689323651
 20
21603.336518590659
 30
0.0
 11
12046.12234023651
 21
21603.336518590659
 31
0.0
  0
LINE
  5
405E
  8
HOSO
 10
12046.122401236509
 20
21605.336518590659
 30
0.0
 11
12108.47689323651
 21
21605.336518590659
 31
0.0
  0
LINE
  5
405F
  8
HOSO
 10
12108.47689323651
 20
21619.336518590659
 30
0.0
 11
12046.12234023651
 21
21619.336518590659
 31
0.0
  0
LINE
  5
4060
  8
FUTO
 10
12046.122401236509
 20
21621.336518590659
 30
0.0
 11
12108.47689323651
 21
21621.336518590659
 31
0.0
  0
LINE
  5
4061
  8
FUTO
 10
12046.122401236509
 20
21594.746674590671
 30
0.0
 11
12046.122401236509
 21
21629.92636159066
 31
0.0
  0
LINE
  5
4062
  8
FUTO
 10
12034.02242523651
 20
21602.63144059066
 30
0.0
 11
12032.42245023651
 21
21604.23104959066
 31
0.0
  0
LINE
  5
4063
  8
FUTO
 10
12034.02242523651
 20
21602.63144059066
 30
0.0
 11
12032.42245023651
 21
21601.030854590659
 31
0.0
  0
LINE
  5
4064
  8
FUTO
 10
12032.42245023651
 20
21596.346283590668
 30
0.0
 11
12034.02242523651
 21
21594.746674590671
 31
0.0
  0
LINE
  5
4065
  8
FUTO
 10
12034.02242523651
 20
21622.041596590661
 30
0.0
 11
12032.42245023651
 21
21620.441010590661
 31
0.0
  0
LINE
  5
4066
  8
FUTO
 10
12034.02242523651
 20
21622.041596590661
 30
0.0
 11
12032.42245023651
 21
21623.641205590659
 31
0.0
  0
LINE
  5
4067
  8
FUTO
 10
12034.02242523651
 20
21629.92636159066
 30
0.0
 11
12032.42245023651
 21
21628.32577659066
 31
0.0
  0
LINE
  5
4068
  8
FUTO
 10
12032.42245023651
 20
21596.346283590668
 30
0.0
 11
12032.42245023651
 21
21628.32577659066
 31
0.0
  0
LINE
  5
4069
  8
FUTO
 10
12034.02242523651
 20
21622.041596590661
 30
0.0
 11
12046.122401236509
 21
21622.041596590661
 31
0.0
  0
LINE
  5
406A
  8
FUTO
 10
12034.02242523651
 20
21602.63144059066
 30
0.0
 11
12046.122401236509
 21
21602.63144059066
 31
0.0
  0
LINE
  5
406B
  8
FUTO
 10
12034.02242523651
 20
21629.92636159066
 30
0.0
 11
12046.122401236509
 21
21629.92636159066
 31
0.0
  0
LINE
  5
406C
  8
FUTO
 10
12034.02242523651
 20
21594.746674590671
 30
0.0
 11
12046.122401236509
 21
21594.746674590671
 31
0.0
  0
LINE
  5
406D
  8
FUTO
 10
12138.47689323651
 20
21632.336518590659
 30
0.0
 11
12108.47689323651
 21
21632.336518590659
 31
0.0
  0
LINE
  5
406E
  8
FUTO
 10
12108.47689323651
 20
21592.336518590659
 30
0.0
 11
12138.47689323651
 21
21592.336518590659
 31
0.0
  0
LINE
  5
406F
  8
FUTO
 10
12138.47689323651
 20
21632.336518590659
 30
0.0
 11
12138.47689323651
 21
21592.336518590659
 31
0.0
  0
LINE
  5
4070
  8
FUTO
 10
12108.47689323651
 20
21632.336518590659
 30
0.0
 11
12108.47689323651
 21
21592.336518590659
 31
0.0
  0
LINE
  5
4071
  8
HOSO
 10
12138.47689323651
 20
21605.336518590659
 30
0.0
 11
12189.976832236511
 21
21605.336518590659
 31
0.0
  0
LINE
  5
4072
  8
FUTO
 10
12189.976832236511
 20
21603.336518590659
 30
0.0
 11
12138.47689323651
 21
21603.336518590659
 31
0.0
  0
LINE
  5
4073
  8
HOSO
 10
12189.976832236511
 20
21619.336518590659
 30
0.0
 11
12138.47689323651
 21
21619.336518590659
 31
0.0
  0
LINE
  5
4074
  8
FUTO
 10
12138.47689323651
 20
21621.336518590659
 30
0.0
 11
12189.976832236511
 21
21621.336518590659
 31
0.0
  0
LINE
  5
4075
  8
CT
 10
12189.976832236511
 20
21612.336518590659
 30
0.0
 11
12022.42245023651
 21
21612.336518590659
 31
0.0
  0
LINE
  5
4076
  8
FUTO
 10
12141.47689323651
 20
21667.336518590659
 30
0.0
 11
12136.47689323651
 21
21672.336518590659
 31
0.0
  0
LINE
  5
4077
  8
FUTO
 10
12183.476832236511
 20
21675.336518590659
 30
0.0
 11
12133.47689323651
 21
21675.336518590659
 31
0.0
  0
LINE
  5
4078
  8
FUTO
 10
12183.476832236511
 20
21672.336518590659
 30
0.0
 11
12136.47689323651
 21
21672.336518590659
 31
0.0
  0
LINE
  5
4079
  8
FUTO
 10
12189.976832236511
 20
21670.461518590659
 30
0.0
 11
12183.476832236511
 21
21670.461518590659
 31
0.0
  0
LINE
  5
407A
  8
FUTO
 10
12189.976832236511
 20
21667.336518590659
 30
0.0
 11
12141.47689323651
 21
21667.336518590659
 31
0.0
  0
LINE
  5
407B
  8
FUTO
 10
12141.47689323651
 20
21667.336518590659
 30
0.0
 11
12141.47689323651
 21
21621.336518590659
 31
0.0
  0
LINE
  5
407C
  8
FUTO
 10
12136.47689323651
 20
21672.336518590659
 30
0.0
 11
12136.47689323651
 21
21632.336518590659
 31
0.0
  0
LINE
  5
407D
  8
FUTO
 10
12133.47689323651
 20
21675.336518590659
 30
0.0
 11
12133.47689323651
 21
21632.336518590659
 31
0.0
  0
ARC
  5
407E
  8
FUTO
 10
12188.476832236511
 20
21717.336518590659
 30
0.0
 40
5.0
 50
89.999999999999986
 51
180.0
  0
LINE
  5
407F
  8
FUTO
 10
12183.476832236511
 20
21717.336518590659
 30
0.0
 11
12183.476832236511
 21
21670.461518590659
 31
0.0
  0
LINE
  5
4080
  8
FUTO
 10
12200.976832236511
 20
21722.336518590659
 30
0.0
 11
12188.476832236511
 21
21722.336518590659
 31
0.0
  0
LINE
  5
4081
  8
CT
 10
12596.976832236511
 20
21612.336518590659
 30
0.0
 11
12764.531214236509
 21
21612.336518590659
 31
0.0
  0
LINE
  5
4082
  8
FUTO
 10
12648.47677123651
 20
21621.336518590659
 30
0.0
 11
12596.976832236511
 21
21621.336518590659
 31
0.0
  0
LINE
  5
4083
  8
HOSO
 10
12596.976832236511
 20
21619.336518590659
 30
0.0
 11
12648.47677123651
 21
21619.336518590659
 31
0.0
  0
LINE
  5
4084
  8
FUTO
 10
12596.976832236511
 20
21603.336518590659
 30
0.0
 11
12648.47677123651
 21
21603.336518590659
 31
0.0
  0
LINE
  5
4085
  8
HOSO
 10
12648.47677123651
 20
21605.336518590659
 30
0.0
 11
12596.976832236511
 21
21605.336518590659
 31
0.0
  0
LINE
  5
4086
  8
FUTO
 10
12678.47677123651
 20
21632.336518590659
 30
0.0
 11
12678.47677123651
 21
21592.336518590659
 31
0.0
  0
LINE
  5
4087
  8
FUTO
 10
12648.47677123651
 20
21632.336518590659
 30
0.0
 11
12648.47677123651
 21
21592.336518590659
 31
0.0
  0
LINE
  5
4088
  8
FUTO
 10
12678.47677123651
 20
21592.336518590659
 30
0.0
 11
12648.47677123651
 21
21592.336518590659
 31
0.0
  0
LINE
  5
4089
  8
FUTO
 10
12648.47677123651
 20
21632.336518590659
 30
0.0
 11
12678.47677123651
 21
21632.336518590659
 31
0.0
  0
LINE
  5
408A
  8
FUTO
 10
12752.93123923651
 20
21594.746674590671
 30
0.0
 11
12740.83126323651
 21
21594.746674590671
 31
0.0
  0
LINE
  5
408B
  8
FUTO
 10
12752.93123923651
 20
21629.92636159066
 30
0.0
 11
12740.83126323651
 21
21629.92636159066
 31
0.0
  0
LINE
  5
408C
  8
FUTO
 10
12752.93123923651
 20
21602.63144059066
 30
0.0
 11
12740.83126323651
 21
21602.63144059066
 31
0.0
  0
LINE
  5
408D
  8
FUTO
 10
12752.93123923651
 20
21622.041596590661
 30
0.0
 11
12740.83126323651
 21
21622.041596590661
 31
0.0
  0
LINE
  5
408E
  8
FUTO
 10
12754.531214236509
 20
21596.346283590668
 30
0.0
 11
12754.531214236509
 21
21628.32577659066
 31
0.0
  0
LINE
  5
408F
  8
FUTO
 10
12752.93123923651
 20
21629.92636159066
 30
0.0
 11
12754.531214236509
 21
21628.32577659066
 31
0.0
  0
LINE
  5
4090
  8
FUTO
 10
12752.93123923651
 20
21622.041596590661
 30
0.0
 11
12754.531214236509
 21
21623.641205590659
 31
0.0
  0
LINE
  5
4091
  8
FUTO
 10
12752.93123923651
 20
21622.041596590661
 30
0.0
 11
12754.531214236509
 21
21620.441010590661
 31
0.0
  0
LINE
  5
4092
  8
FUTO
 10
12754.531214236509
 20
21596.346283590668
 30
0.0
 11
12752.93123923651
 21
21594.746674590671
 31
0.0
  0
LINE
  5
4093
  8
FUTO
 10
12752.93123923651
 20
21602.63144059066
 30
0.0
 11
12754.531214236509
 21
21601.030854590659
 31
0.0
  0
LINE
  5
4094
  8
FUTO
 10
12752.93123923651
 20
21602.63144059066
 30
0.0
 11
12754.531214236509
 21
21604.23104959066
 31
0.0
  0
LINE
  5
4095
  8
FUTO
 10
12740.83126323651
 20
21594.746674590671
 30
0.0
 11
12740.83126323651
 21
21629.92636159066
 31
0.0
  0
LINE
  5
4096
  8
FUTO
 10
12740.83126323651
 20
21621.336518590659
 30
0.0
 11
12678.47677123651
 21
21621.336518590659
 31
0.0
  0
LINE
  5
4097
  8
HOSO
 10
12678.47677123651
 20
21619.336518590659
 30
0.0
 11
12740.831324236509
 21
21619.336518590659
 31
0.0
  0
LINE
  5
4098
  8
HOSO
 10
12740.83126323651
 20
21605.336518590659
 30
0.0
 11
12678.47677123651
 21
21605.336518590659
 31
0.0
  0
LINE
  5
4099
  8
FUTO
 10
12678.47677123651
 20
21603.336518590659
 30
0.0
 11
12740.831324236509
 21
21603.336518590659
 31
0.0
  0
LINE
  5
409A
  8
FUTO
 10
12653.47677123651
 20
21675.336518590659
 30
0.0
 11
12653.47677123651
 21
21632.336518590659
 31
0.0
  0
LINE
  5
409B
  8
FUTO
 10
12650.47677123651
 20
21672.336518590659
 30
0.0
 11
12650.47677123651
 21
21632.336518590659
 31
0.0
  0
LINE
  5
409C
  8
FUTO
 10
12645.47677123651
 20
21667.336518590659
 30
0.0
 11
12645.47677123651
 21
21621.336518590659
 31
0.0
  0
LINE
  5
409D
  8
FUTO
 10
12585.976832236511
 20
21722.336518590659
 30
0.0
 11
12598.476832236511
 21
21722.336518590659
 31
0.0
  0
LINE
  5
409E
  8
FUTO
 10
12596.976832236511
 20
21667.336518590659
 30
0.0
 11
12645.47677123651
 21
21667.336518590659
 31
0.0
  0
LINE
  5
409F
  8
FUTO
 10
12596.976832236511
 20
21670.461518590659
 30
0.0
 11
12603.476832236511
 21
21670.461518590659
 31
0.0
  0
LINE
  5
40A0
  8
FUTO
 10
12603.476832236511
 20
21717.336518590659
 30
0.0
 11
12603.476832236511
 21
21670.461518590659
 31
0.0
  0
LINE
  5
40A1
  8
FUTO
 10
12603.476832236511
 20
21672.336518590659
 30
0.0
 11
12650.47677123651
 21
21672.336518590659
 31
0.0
  0
LINE
  5
40A2
  8
FUTO
 10
12603.476832236511
 20
21675.336518590659
 30
0.0
 11
12653.47677123651
 21
21675.336518590659
 31
0.0
  0
ARC
  5
40A3
  8
FUTO
 10
12598.476832236511
 20
21717.336518590659
 30
0.0
 40
5.0
 50
0.000000000000007
 51
89.999999999999986
  0
LINE
  5
40A4
  8
FUTO
 10
12645.47677123651
 20
21667.336518590659
 30
0.0
 11
12650.47677123651
 21
21672.336518590659
 31
0.0
  0
LINE
  5
40A5
  8
FUTO
 10
12583.15817745494
 20
21264.211518590659
 30
0.0
 11
12603.476832236511
 21
21264.211518590659
 31
0.0
  0
LINE
  5
40A6
  8
FUTO
 10
12645.47677123651
 20
21331.336518590659
 30
0.0
 11
12645.47677123651
 21
21603.336518590659
 31
0.0
  0
LINE
  5
40A7
  8
FUTO
 10
12645.47677123651
 20
21267.336518590659
 30
0.0
 11
12650.47677123651
 21
21262.336518590659
 31
0.0
  0
LINE
  5
40A8
  8
FUTO
 10
12645.47677123651
 20
21267.336518590659
 30
0.0
 11
12645.47677123651
 21
21313.336518590659
 31
0.0
  0
LINE
  5
40A9
  8
FUTO
 10
12583.267305804789
 20
21267.336518590659
 30
0.0
 11
12645.47677123651
 21
21267.336518590659
 31
0.0
  0
ARC
  5
40AA
  8
FUTO
 10
12598.476832236511
 20
21217.336518590659
 30
0.0
 40
5.0
 50
270.0
 51
0.000000000000007
  0
LINE
  5
40AB
  8
FUTO
 10
12603.476832236511
 20
21259.336518590659
 30
0.0
 11
12653.47677123651
 21
21259.336518590659
 31
0.0
  0
LINE
  5
40AC
  8
FUTO
 10
12603.476832236511
 20
21262.336518590659
 30
0.0
 11
12650.47677123651
 21
21262.336518590659
 31
0.0
  0
LINE
  5
40AD
  8
FUTO
 10
12551.16846723203
 20
21212.336518590659
 30
0.0
 11
12598.476832236511
 21
21212.336518590659
 31
0.0
  0
LINE
  5
40AE
  8
FUTO
 10
12603.476832236511
 20
21217.336518590659
 30
0.0
 11
12603.476832236511
 21
21264.211518590659
 31
0.0
  0
LINE
  5
40AF
  8
FUTO
 10
12650.47677123651
 20
21342.336518590659
 30
0.0
 11
12650.47677123651
 21
21592.336518590659
 31
0.0
  0
LINE
  5
40B0
  8
FUTO
 10
12653.47677123651
 20
21342.336518590659
 30
0.0
 11
12653.47677123651
 21
21592.336518590659
 31
0.0
  0
LINE
  5
40B1
  8
FUTO
 10
12650.47677123651
 20
21262.336518590659
 30
0.0
 11
12650.47677123651
 21
21302.336518590659
 31
0.0
  0
LINE
  5
40B2
  8
FUTO
 10
12653.47677123651
 20
21259.336518590659
 30
0.0
 11
12653.47677123651
 21
21302.336518590659
 31
0.0
  0
LINE
  5
40B3
  8
HOSO
 10
12648.47677123651
 20
21329.336518590659
 30
0.0
 11
12596.976832236511
 21
21329.336518590659
 31
0.0
  0
LINE
  5
40B4
  8
FUTO
 10
12596.976832236511
 20
21331.336518590659
 30
0.0
 11
12648.47677123651
 21
21331.336518590659
 31
0.0
  0
LINE
  5
40B5
  8
HOSO
 10
12596.976832236511
 20
21315.336518590659
 30
0.0
 11
12648.47677123651
 21
21315.336518590659
 31
0.0
  0
LINE
  5
40B6
  8
FUTO
 10
12648.47677123651
 20
21313.336518590659
 30
0.0
 11
12596.976832236511
 21
21313.336518590659
 31
0.0
  0
LINE
  5
40B7
  8
FUTO
 10
12678.47677123651
 20
21331.336518590659
 30
0.0
 11
12740.831324236509
 21
21331.336518590659
 31
0.0
  0
LINE
  5
40B8
  8
HOSO
 10
12740.83126323651
 20
21329.336518590659
 30
0.0
 11
12678.47677123651
 21
21329.336518590659
 31
0.0
  0
LINE
  5
40B9
  8
HOSO
 10
12678.47677123651
 20
21315.336518590659
 30
0.0
 11
12740.831324236509
 21
21315.336518590659
 31
0.0
  0
LINE
  5
40BA
  8
FUTO
 10
12740.83126323651
 20
21313.336518590659
 30
0.0
 11
12678.47677123651
 21
21313.336518590659
 31
0.0
  0
LINE
  5
40BB
  8
FUTO
 10
12740.83126323651
 20
21339.926362590661
 30
0.0
 11
12740.83126323651
 21
21304.746675590672
 31
0.0
  0
LINE
  5
40BC
  8
FUTO
 10
12752.93123923651
 20
21332.041596590661
 30
0.0
 11
12754.531214236509
 21
21330.441987590661
 31
0.0
  0
LINE
  5
40BD
  8
FUTO
 10
12752.93123923651
 20
21332.041596590661
 30
0.0
 11
12754.531214236509
 21
21333.642182590658
 31
0.0
  0
LINE
  5
40BE
  8
FUTO
 10
12754.531214236509
 20
21338.326753590671
 30
0.0
 11
12752.93123923651
 21
21339.926362590661
 31
0.0
  0
LINE
  5
40BF
  8
FUTO
 10
12752.93123923651
 20
21312.63144059066
 30
0.0
 11
12754.531214236509
 21
21314.23202659066
 31
0.0
  0
LINE
  5
40C0
  8
FUTO
 10
12752.93123923651
 20
21312.63144059066
 30
0.0
 11
12754.531214236509
 21
21311.031831590659
 31
0.0
  0
LINE
  5
40C1
  8
FUTO
 10
12752.93123923651
 20
21304.746675590672
 30
0.0
 11
12754.531214236509
 21
21306.347260590661
 31
0.0
  0
LINE
  5
40C2
  8
FUTO
 10
12754.531214236509
 20
21338.326753590671
 30
0.0
 11
12754.531214236509
 21
21306.347260590661
 31
0.0
  0
LINE
  5
40C3
  8
FUTO
 10
12752.93123923651
 20
21312.63144059066
 30
0.0
 11
12740.83126323651
 21
21312.63144059066
 31
0.0
  0
LINE
  5
40C4
  8
FUTO
 10
12752.93123923651
 20
21332.041596590661
 30
0.0
 11
12740.83126323651
 21
21332.041596590661
 31
0.0
  0
LINE
  5
40C5
  8
FUTO
 10
12752.93123923651
 20
21304.746675590672
 30
0.0
 11
12740.83126323651
 21
21304.746675590672
 31
0.0
  0
LINE
  5
40C6
  8
FUTO
 10
12752.93123923651
 20
21339.926362590661
 30
0.0
 11
12740.83126323651
 21
21339.926362590661
 31
0.0
  0
LINE
  5
40C7
  8
CT
 10
12596.976832236511
 20
21322.336518590659
 30
0.0
 11
12764.531214236509
 21
21322.336518590659
 31
0.0
  0
LINE
  5
40C8
  8
FUTO
 10
12648.47677123651
 20
21302.336518590659
 30
0.0
 11
12678.47677123651
 21
21302.336518590659
 31
0.0
  0
LINE
  5
40C9
  8
FUTO
 10
12678.47677123651
 20
21342.336518590659
 30
0.0
 11
12648.47677123651
 21
21342.336518590659
 31
0.0
  0
LINE
  5
40CA
  8
FUTO
 10
12648.47677123651
 20
21302.336518590659
 30
0.0
 11
12648.47677123651
 21
21342.336518590659
 31
0.0
  0
LINE
  5
40CB
  8
FUTO
 10
12678.47677123651
 20
21302.336518590659
 30
0.0
 11
12678.47677123651
 21
21342.336518590659
 31
0.0
  0
ARC
  5
40CC
  8
FUTO
 10
12061.84768223651
 20
21529.33645759066
 30
0.0
 40
20.0
 50
89.999999999999986
 51
180.0
  0
ARC
  5
40CD
  8
FUTO
 10
12061.84768223651
 20
21405.336518590659
 30
0.0
 40
20.0
 50
180.0
 51
270.0
  0
ARC
  5
40CE
  8
FUTO
 10
12051.84768223651
 20
21388.336518590659
 30
0.0
 40
10.0
 50
180.0
 51
270.0
  0
ARC
  5
40CF
  8
FUTO
 10
12051.84768223651
 20
21546.33645759066
 30
0.0
 40
10.0
 50
89.999999999999986
 51
180.0
  0
ARC
  5
40D0
  8
FUTO
 10
12154.704407135399
 20
21388.336518590659
 30
0.0
 40
10.0
 50
270.0
 51
0.000000000000007
  0
ARC
  5
40D1
  8
FUTO
 10
12151.537291597069
 20
21388.336518590659
 30
0.0
 40
10.0
 50
270.0
 51
0.000000000000007
  0
ARC
  5
40D2
  8
FUTO
 10
12154.704407135399
 20
21546.33645759066
 30
0.0
 40
10.0
 50
0.000000000000007
 51
89.999999999999986
  0
ARC
  5
40D3
  8
FUTO
 10
12151.537291597069
 20
21546.33645759066
 30
0.0
 40
10.0
 50
0.000000000000007
 51
89.999999999999986
  0
LINE
  5
40D4
  8
FUTO
 10
12154.34068831761
 20
21385.336518590659
 30
0.0
 11
12061.84768223651
 21
21385.336518590659
 31
0.0
  0
LINE
  5
40D5
  8
FUTO
 10
12154.34068831761
 20
21549.33645759066
 30
0.0
 11
12061.84768223651
 21
21549.33645759066
 31
0.0
  0
ARC
  5
40D6
  8
FUTO
 10
12168.476832236511
 20
21390.336518590659
 30
0.0
 40
5.0
 50
270.0
 51
0.000000000000007
  0
ARC
  5
40D7
  8
FUTO
 10
12168.476832236511
 20
21544.33645759066
 30
0.0
 40
5.0
 50
0.000000000000007
 51
89.999999999999986
  0
ARC
  5
40D8
  8
FUTO
 10
12154.34068831761
 20
21390.336518590659
 30
0.0
 40
5.0
 50
270.0
 51
0.000000000000007
  0
ARC
  5
40D9
  8
FUTO
 10
12154.34068831761
 20
21544.33645759066
 30
0.0
 40
5.0
 50
0.000000000000007
 51
89.999999999999986
  0
LINE
  5
40DA
  8
FUTO
 10
12154.704407135399
 20
21378.336518590659
 30
0.0
 11
12051.84768223651
 21
21378.336518590659
 31
0.0
  0
LINE
  5
40DB
  8
FUTO
 10
12168.476832236511
 20
21385.336518590659
 30
0.0
 11
12164.704407135399
 21
21385.336518590659
 31
0.0
  0
LINE
  5
40DC
  8
FUTO
 10
12154.704407135399
 20
21556.336457590671
 30
0.0
 11
12051.84768223651
 21
21556.336457590671
 31
0.0
  0
LINE
  5
40DD
  8
FUTO
 10
12168.476832236511
 20
21549.33645759066
 30
0.0
 11
12164.704407135399
 21
21549.33645759066
 31
0.0
  0
LINE
  5
40DE
  8
FUTO
 10
12189.976832236511
 20
21527.336518590659
 30
0.0
 11
12189.976832236511
 21
21634.1472893397
 31
0.0
  0
LINE
  5
40DF
  8
FUTO
 10
12173.476832236511
 20
21407.336518590659
 30
0.0
 11
12241.203229796691
 21
21407.336518590659
 31
0.0
  0
LINE
  5
40E0
  8
FUTO
 10
12173.476832236511
 20
21527.336518590659
 30
0.0
 11
12241.203229796691
 21
21527.336518590659
 31
0.0
  0
LINE
  5
40E1
  8
FUTO
 10
12083.15749623651
 20
21405.336518590659
 30
0.0
 11
12083.15749623651
 21
21529.33645759066
 31
0.0
  0
LINE
  5
40E2
  8
FUTO
 10
12159.34068831761
 20
21390.336518590659
 30
0.0
 11
12159.34068831761
 21
21544.33645759066
 31
0.0
  0
LINE
  5
40E3
  8
FUTO
 10
12161.537291597069
 20
21388.336518590659
 30
0.0
 11
12161.537291597069
 21
21546.33645759066
 31
0.0
  0
LINE
  5
40E4
  8
FUTO
 10
12164.704407135399
 20
21388.336518590659
 30
0.0
 11
12164.704407135399
 21
21546.33645759066
 31
0.0
  0
LINE
  5
40E5
  8
FUTO
 10
12173.476832236511
 20
21390.336518590659
 30
0.0
 11
12173.476832236511
 21
21544.33645759066
 31
0.0
  0
LINE
  5
40E6
  8
FUTO
 10
12183.476832236511
 20
21407.336518590659
 30
0.0
 11
12183.476832236511
 21
21527.336518590659
 31
0.0
  0
LINE
  5
40E7
  8
FUTO
 10
12241.203229796691
 20
21407.336518590659
 30
0.0
 11
12241.203229796691
 21
21527.336518590659
 31
0.0
  0
LINE
  5
40E8
  8
FUTO
 10
12041.84768223651
 20
21388.336518590659
 30
0.0
 11
12041.84768223651
 21
21546.33645759066
 31
0.0
  0
LINE
  5
40E9
  8
FUTO
 10
12387.226832236511
 20
21443.586518590659
 30
0.0
 11
12387.226832236511
 21
21491.086518590659
 31
0.0
  0
ARC
  5
40EA
  8
FUTO
 10
12393.476832236511
 20
21443.586518590659
 30
0.0
 40
6.25
 50
180.0
 51
0.000000000000007
  0
ARC
  5
40EB
  8
FUTO
 10
12393.476832236511
 20
21491.086518590659
 30
0.0
 40
6.25
 50
0.000000000000007
 51
180.0
  0
LINE
  5
40EC
  8
CT
 10
12021.84768223651
 20
21467.336518590659
 30
0.0
 11
12673.47677123651
 21
21467.336518590659
 31
0.0
  0
LINE
  5
40ED
  8
FUTO
 10
12399.726832236511
 20
21443.586518590659
 30
0.0
 11
12399.726832236511
 21
21491.086518590659
 31
0.0
  0
LINE
  5
40EE
  8
FUTO
 10
12189.976832236511
 20
21634.1472893397
 30
0.0
 11
12191.79860923651
 21
21636.336457590671
 31
0.0
  0
LINE
  5
40EF
  8
FUTO
 10
12189.976832236511
 20
21300.525605590661
 30
0.0
 11
12196.476832236511
 21
21292.71469259066
 31
0.0
  0
LINE
  5
40F0
  8
FUTO
 10
12189.976832236511
 20
21300.525605590661
 30
0.0
 11
12189.976832236511
 21
21407.336518590659
 31
0.0
  0
LINE
  5
40F1
  8
FUTO
 10
12596.976832236511
 20
21300.525605590661
 30
0.0
 11
12596.976832236511
 21
21634.1472893397
 31
0.0
  0
ARC
  5
40F2
  8
FUTO
 10
12315.476832236511
 20
21193.836518590659
 30
0.0
 40
2.0
 50
180.0
 51
270.0
  0
ARC
  5
40F3
  8
FUTO
 10
12310.476832236511
 20
21203.989594590668
 30
0.0
 40
2.9999599999999988
 50
0.000000000000007
 51
87.000442999965941
  0
LINE
  5
40F4
  8
FUTO
 10
12313.476832236511
 20
21203.989594590668
 30
0.0
 11
12313.476832236511
 21
21193.836518590659
 31
0.0
  0
ARC
  5
40F5
  8
FUTO
 10
12214.380884236511
 20
21247.62216359067
 30
0.0
 40
9.9999679999999991
 50
181.99932899999791
 51
225.0
  0
ARC
  5
40F6
  8
FUTO
 10
12241.37404823651
 20
21220.628998590659
 30
0.0
 40
10.000024
 50
225.0
 51
267.00096100006488
  0
LINE
  5
40F7
  8
FUTO
 10
12207.30983923651
 20
21240.551118590662
 30
0.0
 11
12234.30300423651
 21
21213.557954590658
 31
0.0
  0
LINE
  5
40F8
  8
FUTO
 10
12203.476832236511
 20
21273.336518590659
 30
0.0
 11
12204.386988236511
 21
21247.273286590658
 31
0.0
  0
LINE
  5
40F9
  8
FUTO
 10
12240.850855236509
 20
21210.642670590671
 30
0.0
 11
12329.442164236511
 21
21205.999848590669
 31
0.0
  0
LINE
  5
40FA
  8
FUTO
 10
12231.476832236511
 20
21283.336518590659
 30
0.0
 11
12555.476832236511
 21
21283.336518590659
 31
0.0
  0
LINE
  5
40FB
  8
FUTO
 10
12231.476832236511
 20
21273.336518590659
 30
0.0
 11
12231.476832236511
 21
21278.336518590659
 31
0.0
  0
LINE
  5
40FC
  8
FUTO
 10
12231.476832236511
 20
21278.336518590659
 30
0.0
 11
12231.476832236511
 21
21283.336518590659
 31
0.0
  0
LINE
  5
40FD
  8
FUTO
 10
12196.476832236511
 20
21292.71469259066
 30
0.0
 11
12231.476832236511
 21
21283.336518590659
 31
0.0
  0
ARC
  5
40FE
  8
FUTO
 10
12209.976832236511
 20
21682.809846590659
 30
0.0
 40
20.0
 50
159.99995399999131
 51
180.0
  0
ARC
  5
40FF
  8
FUTO
 10
12180.976832236511
 20
21720.085236590669
 30
0.0
 40
20.0
 50
340.00027499999669
 51
0.000000000000007
  0
LINE
  5
4100
  8
FUTO
 10
12245.827906236511
 20
21664.83645759066
 30
0.0
 11
12242.07497623651
 21
21671.33645759066
 31
0.0
  0
LINE
  5
4101
  8
FUTO
 10
12242.07497623651
 20
21671.33645759066
 30
0.0
 11
12245.827906236511
 21
21677.83645759066
 31
0.0
  0
LINE
  5
4102
  8
FUTO
 10
12191.182886236509
 20
21689.650300590671
 30
0.0
 11
12199.77077723651
 21
21713.244904590661
 31
0.0
  0
LINE
  5
4103
  8
FUTO
 10
12189.976832236511
 20
21636.336457590671
 30
0.0
 11
12189.976832236511
 21
21682.809846590659
 31
0.0
  0
LINE
  5
4104
  8
FUTO
 10
12257.086207236511
 20
21671.33645759066
 30
0.0
 11
12253.33327723651
 21
21677.83645759066
 31
0.0
  0
LINE
  5
4105
  8
FUTO
 10
12253.33327723651
 20
21664.83645759066
 30
0.0
 11
12257.086207236511
 21
21671.33645759066
 31
0.0
  0
LINE
  5
4106
  8
CT
 10
12249.58059123651
 20
21663.894318590661
 30
0.0
 11
12249.58059123651
 21
21678.350373590671
 31
0.0
  0
LINE
  5
4107
  8
CT
 10
12257.97121623651
 20
21671.33645759066
 30
0.0
 11
12241.14968323651
 21
21671.33645759066
 31
0.0
  0
LINE
  5
4108
  8
FUTO
 10
12253.33327723651
 20
21677.83645759066
 30
0.0
 11
12245.827906236511
 21
21677.83645759066
 31
0.0
  0
LINE
  5
4109
  8
FUTO
 10
12253.33327723651
 20
21664.83645759066
 30
0.0
 11
12245.827906236511
 21
21664.83645759066
 31
0.0
  0
CIRCLE
  5
410A
  8
FUTO
 10
12249.58059123651
 20
21671.33645759066
 30
0.0
 40
6.5
  0
ARC
  5
410B
  8
FUTO
 10
12215.976832236511
 20
21781.025544590659
 30
0.0
 40
15.0
 50
150.0001830000181
 51
180.0
  0
ARC
  5
410C
  8
FUTO
 10
12236.36355023651
 20
21836.33645759066
 30
0.0
 40
4.9999580000000003
 50
89.999999999999986
 51
149.9997180000272
  0
LINE
  5
410D
  8
FUTO
 10
12232.03347223651
 20
21838.83645759066
 30
0.0
 11
12202.986353236511
 21
21788.525544590659
 31
0.0
  0
LINE
  5
410E
  8
FUTO
 10
12200.976832236511
 20
21720.085236590669
 30
0.0
 11
12200.976832236511
 21
21781.025544590659
 31
0.0
  0
LINE
  5
410F
  8
FUTO
 10
12585.976832236511
 20
21720.085236590669
 30
0.0
 11
12585.976832236511
 21
21781.025544590659
 31
0.0
  0
LINE
  5
4110
  8
CT
 10
12393.476832236511
 20
21021.836518590659
 30
0.0
 11
12393.476832236511
 21
21861.336518590659
 31
0.0
  0
LINE
  5
4111
  8
FUTO
 10
12551.126796236509
 20
21841.336518590659
 30
0.0
 11
12236.336482236509
 21
21841.336518590659
 31
0.0
  0
LINE
  5
4112
  8
FUTO
 10
12200.976832236511
 20
21782.236481590659
 30
0.0
 11
12585.927760236509
 21
21782.236481590659
 31
0.0
  0
LINE
  5
4113
  8
FUTO
 10
12554.92019223651
 20
21838.83645759066
 30
0.0
 11
12583.967311236511
 21
21788.525544590659
 31
0.0
  0
ARC
  5
4114
  8
FUTO
 10
12550.590114236509
 20
21836.33645759066
 30
0.0
 40
4.9999580000000003
 50
30.000281999972739
 51
89.999999999999986
  0
ARC
  5
4115
  8
FUTO
 10
12570.976832236511
 20
21781.025544590659
 30
0.0
 40
15.0
 50
0.000000000000007
 51
29.999816999981789
  0
LINE
  5
4116
  8
FUTO
 10
12315.476832236511
 20
21191.836518590659
 30
0.0
 11
12393.476832236511
 21
21191.836518590659
 31
0.0
  0
LINE
  5
4117
  8
FUTO
 10
12203.476832236511
 20
21273.336518590659
 30
0.0
 11
12393.476832236511
 21
21273.336518590659
 31
0.0
  0
LINE
  5
4118
  8
FUTO
 10
12231.476832236511
 20
21278.336518590659
 30
0.0
 11
12393.476832236511
 21
21278.336518590659
 31
0.0
  0
LINE
  5
4119
  8
FUTO
 10
12586.29421523651
 20
21716.536408590669
 30
0.0
 11
12200.976832236511
 21
21716.536408590669
 31
0.0
  0
LINE
  5
411A
  8
FUTO
 10
12596.66335623651
 20
21686.33645759066
 30
0.0
 11
12190.290212037629
 21
21686.33645759066
 31
0.0
  0
LINE
  5
411B
  8
FUTO
 10
12596.976832236511
 20
21636.336457590671
 30
0.0
 11
12191.79860923651
 21
21636.336457590671
 31
0.0
  0
LINE
  5
411C
  8
FUTO
 10
12231.476832236511
 20
21278.336518590659
 30
0.0
 11
12393.476832236511
 21
21278.336518590659
 31
0.0
  0
CIRCLE
  5
411D
  8
FUTO
 10
12537.373073236509
 20
21671.33645759066
 30
0.0
 40
6.5
  0
LINE
  5
411E
  8
FUTO
 10
12533.620387236509
 20
21664.83645759066
 30
0.0
 11
12541.125758236511
 21
21664.83645759066
 31
0.0
  0
LINE
  5
411F
  8
FUTO
 10
12533.620387236509
 20
21677.83645759066
 30
0.0
 11
12541.125758236511
 21
21677.83645759066
 31
0.0
  0
LINE
  5
4120
  8
CT
 10
12528.982448236509
 20
21671.33645759066
 30
0.0
 11
12545.80398123651
 21
21671.33645759066
 31
0.0
  0
LINE
  5
4121
  8
CT
 10
12537.373073236509
 20
21663.894318590661
 30
0.0
 11
12537.373073236509
 21
21678.350373590671
 31
0.0
  0
LINE
  5
4122
  8
FUTO
 10
12533.620387236509
 20
21664.83645759066
 30
0.0
 11
12529.867457236511
 21
21671.33645759066
 31
0.0
  0
LINE
  5
4123
  8
FUTO
 10
12529.867457236511
 20
21671.33645759066
 30
0.0
 11
12533.620387236509
 21
21677.83645759066
 31
0.0
  0
LINE
  5
4124
  8
FUTO
 10
12596.976832236511
 20
21636.336457590671
 30
0.0
 11
12596.976832236511
 21
21682.809846590659
 31
0.0
  0
LINE
  5
4125
  8
FUTO
 10
12595.770778236511
 20
21689.650300590671
 30
0.0
 11
12587.182887236509
 21
21713.244904590661
 31
0.0
  0
LINE
  5
4126
  8
FUTO
 10
12544.878688236509
 20
21671.33645759066
 30
0.0
 11
12541.125758236511
 21
21677.83645759066
 31
0.0
  0
LINE
  5
4127
  8
FUTO
 10
12541.125758236511
 20
21664.83645759066
 30
0.0
 11
12544.878688236509
 21
21671.33645759066
 31
0.0
  0
ARC
  5
4128
  8
FUTO
 10
12605.976832236511
 20
21720.085236590669
 30
0.0
 40
20.0
 50
180.0
 51
199.99972500000311
  0
ARC
  5
4129
  8
FUTO
 10
12576.976832236511
 20
21682.809846590659
 30
0.0
 40
20.0
 50
0.000000000000007
 51
20.000046000008609
  0
LINE
  5
412A
  8
FUTO
 10
12596.976832236511
 20
21634.1472893397
 30
0.0
 11
12595.15505523651
 21
21636.336457590671
 31
0.0
  0
LINE
  5
412B
  8
FUTO
 10
12555.476832236511
 20
21278.336518590659
 30
0.0
 11
12393.476832236511
 21
21278.336518590659
 31
0.0
  0
LINE
  5
412C
  8
FUTO
 10
12546.10280923651
 20
21210.642670590671
 30
0.0
 11
12457.511500236509
 21
21205.999848590669
 31
0.0
  0
LINE
  5
412D
  8
FUTO
 10
12583.476832236511
 20
21273.336518590659
 30
0.0
 11
12393.476832236511
 21
21273.336518590659
 31
0.0
  0
LINE
  5
412E
  8
FUTO
 10
12555.476832236511
 20
21278.336518590659
 30
0.0
 11
12393.476832236511
 21
21278.336518590659
 31
0.0
  0
LINE
  5
412F
  8
FUTO
 10
12363.476832236511
 20
21181.836518590659
 30
0.0
 11
12363.476832236511
 21
21041.836518590659
 31
0.0
  0
LINE
  5
4130
  8
FUTO
 10
12423.476832236511
 20
21181.836518590659
 30
0.0
 11
12423.476832236511
 21
21041.836518590659
 31
0.0
  0
LINE
  5
4131
  8
FUTO
 10
12471.476832236511
 20
21191.836518590659
 30
0.0
 11
12393.476832236511
 21
21191.836518590659
 31
0.0
  0
LINE
  5
4132
  8
FUTO
 10
12360.976832236511
 20
21181.836518590659
 30
0.0
 11
12425.976832236511
 21
21181.836518590659
 31
0.0
  0
LINE
  5
4133
  8
FUTO
 10
12360.976832236511
 20
21181.836518590659
 30
0.0
 11
12360.976832236511
 21
21191.836518590659
 31
0.0
  0
LINE
  5
4134
  8
FUTO
 10
12425.976832236511
 20
21181.836518590659
 30
0.0
 11
12425.976832236511
 21
21191.836518590659
 31
0.0
  0
LINE
  5
4135
  8
FUTO
 10
12473.476832236511
 20
21203.989594590668
 30
0.0
 11
12473.476832236511
 21
21193.836518590659
 31
0.0
  0
ARC
  5
4136
  8
FUTO
 10
12476.476832236511
 20
21203.989594590668
 30
0.0
 40
2.9999599999999988
 50
92.999557000034059
 51
180.0
  0
ARC
  5
4137
  8
FUTO
 10
12471.476832236511
 20
21193.836518590659
 30
0.0
 40
2.0
 50
270.0
 51
0.000000000000007
  0
LINE
  5
4138
  8
FUTO
 10
12423.476832236511
 20
21041.836518590659
 30
0.0
 11
12363.476832236511
 21
21041.836518590659
 31
0.0
  0
LINE
  5
4139
  8
FUTO
 10
12596.976832236511
 20
21300.525605590661
 30
0.0
 11
12590.476832236511
 21
21292.71469259066
 31
0.0
  0
LINE
  5
413A
  8
FUTO
 10
12583.476832236511
 20
21273.336518590659
 30
0.0
 11
12582.566676236511
 21
21247.273286590658
 31
0.0
  0
LINE
  5
413B
  8
FUTO
 10
12590.476832236511
 20
21292.71469259066
 30
0.0
 11
12555.476832236511
 21
21283.336518590659
 31
0.0
  0
LINE
  5
413C
  8
FUTO
 10
12555.476832236511
 20
21278.336518590659
 30
0.0
 11
12555.476832236511
 21
21283.336518590659
 31
0.0
  0
LINE
  5
413D
  8
FUTO
 10
12555.476832236511
 20
21273.336518590659
 30
0.0
 11
12555.476832236511
 21
21278.336518590659
 31
0.0
  0
LINE
  5
413E
  8
FUTO
 10
12579.64382523651
 20
21240.551118590662
 30
0.0
 11
12552.65066023651
 21
21213.557954590658
 31
0.0
  0
ARC
  5
413F
  8
FUTO
 10
12545.57961623651
 20
21220.628998590659
 30
0.0
 40
10.000024
 50
272.99903899993501
 51
314.99999999999989
  0
ARC
  5
4140
  8
FUTO
 10
12572.572780236511
 20
21247.62216359067
 30
0.0
 40
9.9999679999999991
 50
314.99999999999989
 51
358.000671000002
  0
LINE
  5
4142
  8
KL
 10
16552.388753518051
 20
17539.591385445121
 30
0.0
 11
16567.068184442349
 21
17539.591385445121
 31
0.0
  0
LINE
  5
4143
  8
KL
 10
16555.068245442359
 20
17519.591385445121
 30
0.0
 11
16590.068245442359
 21
17519.591385445121
 31
0.0
  0
LINE
  5
4144
  8
KL
 10
16227.74773736667
 20
17539.591385445121
 30
0.0
 11
16213.06824544236
 21
17539.591385445121
 31
0.0
  0
LINE
  5
4145
  8
KL
 10
16225.06824544236
 20
17519.591385445121
 30
0.0
 11
16190.06824544236
 21
17519.591385445121
 31
0.0
  0
LINE
  5
4147
  8
KL
 10
16290.06824544236
 20
17514.591385445121
 30
0.0
 11
16290.06824544236
 21
17519.591385445121
 31
0.0
  0
LINE
  5
4148
  8
KL
 10
16490.068245442359
 20
17519.591385445121
 30
0.0
 11
16490.068245442359
 21
17514.591385445121
 31
0.0
  0
LINE
  5
4153
  8
KL
 10
16245.06824544236
 20
17548.066971445121
 30
0.0
 11
16229.06824544236
 21
17538.829667445108
 31
0.0
  0
LINE
  5
4154
  8
KL
 10
16261.06824544236
 20
17538.829667445108
 30
0.0
 11
16245.06824544236
 21
17548.066971445121
 31
0.0
  0
LINE
  5
4155
  8
KL
 10
16245.06824544236
 20
17511.11677644512
 30
0.0
 11
16229.06824544236
 21
17520.354081445119
 31
0.0
  0
LINE
  5
4156
  8
KL
 10
16261.06824544236
 20
17520.354081445119
 30
0.0
 11
16245.06824544236
 21
17511.11677644512
 31
0.0
  0
LINE
  5
4157
  8
CT
 10
16215.06824544236
 20
17529.591385445121
 30
0.0
 11
16275.06824544236
 21
17529.591385445121
 31
0.0
  0
CIRCLE
  5
4158
  8
KL
 10
16245.06824544236
 20
17529.591385445121
 30
0.0
 40
16.0
  0
LINE
  5
4159
  8
KL
 10
16261.06824544236
 20
17520.354081445119
 30
0.0
 11
16261.06824544236
 21
17538.829667445108
 31
0.0
  0
LINE
  5
415A
  8
KL
 10
16229.06824544236
 20
17520.354081445119
 30
0.0
 11
16229.06824544236
 21
17538.829667445108
 31
0.0
  0
ARC
  5
415B
  8
KL
 10
16245.06824544236
 20
17529.591385445121
 30
0.0
 40
20.0
 50
0.000000000000007
 51
180.0
  0
ARC
  5
415C
  8
FUTO
 10
16138.06824544236
 20
17486.591385445121
 30
0.0
 40
3.0
 50
90.0
 51
180.0
  0
LINE
  5
415D
  8
KL
 10
16186.94324544236
 20
17489.591385445121
 30
0.0
 11
16138.06824544236
 21
17489.591385445121
 31
0.0
  0
LINE
  5
415E
  8
KL
 10
16192.06824544236
 20
17459.591385445121
 30
0.0
 11
16192.06824544236
 21
17464.591385445121
 31
0.0
  0
LINE
  5
415F
  8
KL
 10
16182.06824544236
 20
17471.591385445121
 30
0.0
 11
16182.06824544236
 21
17464.591385445121
 31
0.0
  0
LINE
  5
4160
  8
FUTO
 10
16192.06824544236
 20
17459.591385445121
 30
0.0
 11
16135.06824544236
 21
17459.591385445121
 31
0.0
  0
LINE
  5
4161
  8
FUTO
 10
16135.06824544236
 20
17459.591385445121
 30
0.0
 11
16135.06824544236
 21
17486.591385445121
 31
0.0
  0
LINE
  5
4162
  8
CT
 10
16160.06824544236
 20
17509.591385445121
 30
0.0
 11
16160.06824544236
 21
17439.591385445121
 31
0.0
  0
LINE
  5
4163
  8
KL
 10
16182.06824544236
 20
17471.591385445121
 30
0.0
 11
16225.06824544236
 21
17471.591385445121
 31
0.0
  0
LINE
  5
4164
  8
KL
 10
16190.06824544236
 20
17519.591385445121
 30
0.0
 11
16185.06824544236
 21
17471.591385445121
 31
0.0
  0
LINE
  5
4165
  8
KL
 10
16265.06824544236
 20
17529.591385445121
 30
0.0
 11
16265.06824544236
 21
17464.591385445121
 31
0.0
  0
LINE
  5
4166
  8
KL
 10
16225.06824544236
 20
17464.591385445121
 30
0.0
 11
16225.06824544236
 21
17529.591385445121
 31
0.0
  0
LINE
  5
4167
  8
CT
 10
16245.06824544236
 20
17454.591385445121
 30
0.0
 11
16245.06824544236
 21
17559.591385445121
 31
0.0
  0
LINE
  5
4168
  8
KL
 10
16519.068245442359
 20
17538.829667445108
 30
0.0
 11
16535.068245442359
 21
17548.066971445121
 31
0.0
  0
LINE
  5
4169
  8
KL
 10
16519.068245442359
 20
17520.354081445119
 30
0.0
 11
16535.068245442359
 21
17511.11677644512
 31
0.0
  0
LINE
  5
416A
  8
KL
 10
16519.068245442359
 20
17520.354081445119
 30
0.0
 11
16519.068245442359
 21
17538.829667445108
 31
0.0
  0
LINE
  5
416B
  8
KL
 10
16551.068245442359
 20
17520.354081445119
 30
0.0
 11
16551.068245442359
 21
17538.829667445108
 31
0.0
  0
CIRCLE
  5
416C
  8
KL
 10
16535.068245442359
 20
17529.591385445121
 30
0.0
 40
16.0
  0
LINE
  5
416D
  8
KL
 10
16535.068245442359
 20
17548.066971445121
 30
0.0
 11
16551.068245442359
 21
17538.829667445108
 31
0.0
  0
LINE
  5
416E
  8
KL
 10
16535.068245442359
 20
17511.11677644512
 30
0.0
 11
16551.068245442359
 21
17520.354081445119
 31
0.0
  0
ARC
  5
416F
  8
KL
 10
16535.068245442359
 20
17529.591385445121
 30
0.0
 40
20.0
 50
0.000000000000007
 51
180.0
  0
LINE
  5
4170
  8
CT
 10
16565.068245442359
 20
17529.591385445121
 30
0.0
 11
16505.068245442359
 21
17529.591385445121
 31
0.0
  0
LINE
  5
4171
  8
KL
 10
16290.06824544236
 20
17514.591385445121
 30
0.0
 11
16490.068245442359
 21
17514.591385445121
 31
0.0
  0
LINE
  5
4172
  8
KL
 10
16588.068245442359
 20
17459.591385445121
 30
0.0
 11
16588.068245442359
 21
17464.591385445121
 31
0.0
  0
LINE
  5
4173
  8
KL
 10
16598.068245442359
 20
17471.591385445121
 30
0.0
 11
16598.068245442359
 21
17464.591385445121
 31
0.0
  0
LINE
  5
4174
  8
KL
 10
16598.068245442359
 20
17471.591385445121
 30
0.0
 11
16555.068245442359
 21
17471.591385445121
 31
0.0
  0
LINE
  5
4175
  8
CT
 10
16620.068245442359
 20
17509.591385445121
 30
0.0
 11
16620.068245442359
 21
17439.591385445121
 31
0.0
  0
ARC
  5
4176
  8
KL
 10
16642.068245442359
 20
17486.591385445121
 30
0.0
 40
3.0
 50
0.000000000000007
 51
90.0
  0
LINE
  5
4177
  8
KL
 10
16645.068245442359
 20
17459.591385445121
 30
0.0
 11
16645.068245442359
 21
17486.591385445121
 31
0.0
  0
LINE
  5
4178
  8
KL
 10
16593.193245442359
 20
17489.591385445121
 30
0.0
 11
16642.068245442359
 21
17489.591385445121
 31
0.0
  0
LINE
  5
4179
  8
KL
 10
16588.068245442359
 20
17459.591385445121
 30
0.0
 11
16645.068245442359
 21
17459.591385445121
 31
0.0
  0
LINE
  5
417A
  8
KL
 10
16590.068245442359
 20
17519.591385445121
 30
0.0
 11
16595.068245442359
 21
17471.591385445121
 31
0.0
  0
LINE
  5
417B
  8
KL
 10
16515.068245442359
 20
17529.591385445121
 30
0.0
 11
16515.068245442359
 21
17464.591385445121
 31
0.0
  0
LINE
  5
417C
  8
KL
 10
16555.068245442359
 20
17464.591385445121
 30
0.0
 11
16555.068245442359
 21
17529.591385445121
 31
0.0
  0
LINE
  5
417D
  8
CT
 10
16535.068245442359
 20
17454.591385445121
 30
0.0
 11
16535.068245442359
 21
17559.591385445121
 31
0.0
  0
LINE
  5
41CF
  8
KL
 10
16265.06824544236
 20
17471.591385445121
 30
0.0
 11
16515.068245442359
 21
17471.591385445121
 31
0.0
  0
LINE
  5
41D0
  8
KL
 10
16182.06824544236
 20
17464.591385445121
 30
0.0
 11
16598.068245442359
 21
17464.591385445121
 31
0.0
  0
LINE
  5
41D1
  8
KL
 10
16206.06824544236
 20
17881.591385445121
 30
0.0
 11
16206.06824544236
 21
17844.591385445121
 31
0.0
  0
ARC
  5
41D2
  8
FUTO
 10
16170.35389044236
 20
17898.687333445119
 30
0.0
 40
9.9999679999999991
 50
91.999328999997914
 51
135.0
  0
ARC
  5
41D3
  8
FUTO
 10
16143.36072544236
 20
17871.69416944512
 30
0.0
 40
10.000024
 50
135.0
 51
177.00096100006479
  0
LINE
  5
41D4
  8
FUTO
 10
16163.28284544236
 20
17905.75837844512
 30
0.0
 11
16136.28968144236
 21
17878.76521344512
 31
0.0
  0
LINE
  5
41D5
  8
KL
 10
16196.06824544236
 20
17881.591385445121
 30
0.0
 11
16201.06824544236
 21
17881.591385445121
 31
0.0
  0
LINE
  5
41D6
  8
KL
 10
16201.06824544236
 20
17881.591385445121
 30
0.0
 11
16206.06824544236
 21
17881.591385445121
 31
0.0
  0
LINE
  5
41D7
  8
KL
 10
16215.44641944236
 20
17916.591385445121
 30
0.0
 11
16206.06824544236
 21
17881.591385445121
 31
0.0
  0
LINE
  5
41D8
  8
KL
 10
16196.06824544236
 20
17909.591385445121
 30
0.0
 11
16170.00501344236
 21
17908.681229445119
 31
0.0
  0
LINE
  5
41DA
  8
KL
 10
16231.06824544236
 20
17929.591385445121
 30
0.0
 11
16215.44641944236
 21
17916.591385445121
 31
0.0
  0
LINE
  5
41DB
  8
FUTO
 10
15964.56824544236
 20
17753.591385445121
 30
0.0
 11
15964.56824544236
 21
17689.591385445121
 31
0.0
  0
ARC
  5
41DC
  8
FUTO
 10
16116.56824544236
 20
17797.591385445121
 30
0.0
 40
2.0
 50
90.0
 51
180.0
  0
ARC
  5
41EB
  8
KL
 10
16216.06824544236
 20
17844.591385445121
 30
0.0
 40
10.0
 50
90.0
 51
180.0
  0
ARC
  5
41EE
  8
FUTO
 10
16126.721321442359
 20
17802.591385445121
 30
0.0
 40
2.9999599999999988
 50
270.0
 51
357.00044299996591
  0
LINE
  5
41EF
  8
FUTO
 10
16126.721321442359
 20
17799.591385445121
 30
0.0
 11
16116.56824544236
 21
17799.591385445121
 31
0.0
  0
LINE
  5
41F0
  8
FUTO
 10
16074.56824544236
 20
17753.591385445121
 30
0.0
 11
16074.56824544236
 21
17749.591385445121
 31
0.0
  0
LINE
  5
41F1
  8
FUTO
 10
16104.56824544236
 20
17752.091385445121
 30
0.0
 11
16114.56824544236
 21
17752.091385445121
 31
0.0
  0
LINE
  5
41F2
  8
FUTO
 10
16104.56824544236
 20
17687.091385445121
 30
0.0
 11
16114.56824544236
 21
17687.091385445121
 31
0.0
  0
LINE
  5
41F3
  8
FUTO
 10
16104.56824544236
 20
17687.091385445121
 30
0.0
 11
16104.56824544236
 21
17752.091385445121
 31
0.0
  0
ARC
  5
41F4
  8
KL
 10
16216.06824544236
 20
17744.591385445121
 30
0.0
 40
10.0
 50
180.0
 51
270.0
  0
LINE
  5
41F5
  8
FUTO
 10
16114.56824544236
 20
17797.591385445121
 30
0.0
 11
16114.56824544236
 21
17719.591385445121
 31
0.0
  0
LINE
  5
41F6
  8
KL
 10
16206.06824544236
 20
17744.591385445121
 30
0.0
 11
16206.06824544236
 21
17844.591385445121
 31
0.0
  0
LINE
  5
41F7
  8
FUTO
 10
16104.56824544236
 20
17749.591385445121
 30
0.0
 11
15964.56824544236
 21
17749.591385445121
 31
0.0
  0
LINE
  5
41F8
  8
FUTO
 10
16104.56824544236
 20
17689.591385445121
 30
0.0
 11
15964.56824544236
 21
17689.591385445121
 31
0.0
  0
LINE
  5
41F9
  8
FUTO
 10
16074.56824544236
 20
17753.591385445121
 30
0.0
 11
15964.56824544236
 21
17753.591385445121
 31
0.0
  0
LINE
  5
41FA
  8
KL
 10
16201.06824544236
 20
17881.591385445121
 30
0.0
 11
16201.06824544236
 21
17719.591385445121
 31
0.0
  0
LINE
  5
41FB
  8
KL
 10
16196.06824544236
 20
17909.591385445121
 30
0.0
 11
16196.06824544236
 21
17719.591385445121
 31
0.0
  0
LINE
  5
41FC
  8
FUTO
 10
16133.37439744236
 20
17872.21736244511
 30
0.0
 11
16128.73157544236
 21
17783.626053445121
 31
0.0
  0
LINE
  5
41FE
  8
KL
 10
16201.06824544236
 20
17881.591385445121
 30
0.0
 11
16201.06824544236
 21
17719.591385445121
 31
0.0
  0
ARC
  5
41FF
  8
KL
 10
16378.833260442359
 20
17937.870499445111
 30
0.0
 40
2.9999909999999992
 50
96.115172999988943
 51
174.80557100002201
  0
LINE
  5
4200
  8
KL
 10
16375.845589442361
 20
17938.142106445121
 30
0.0
 11
16375.06824544236
 21
17929.591385445121
 31
0.0
  0
ARC
  5
4201
  8
KL
 10
16369.109871442361
 20
17930.321183445121
 30
0.0
 40
5.9999760000000002
 50
354.8055729999931
 51
54.396262999995557
  0
ARC
  5
4202
  8
KL
 10
16401.303230442361
 20
17937.870499445111
 30
0.0
 40
2.999981
 50
5.194427000006832
 51
83.884827000011072
  0
ARC
  5
4203
  8
KL
 10
16390.068245442359
 20
17959.591385445121
 30
0.0
 40
30.0
 50
305.19004800000442
 51
305.60386699997889
  0
LINE
  5
4204
  8
KL
 10
16390.068245442359
 20
17942.091385445121
 30
0.0
 11
16401.622810442361
 21
17940.85340944511
 31
0.0
  0
LINE
  5
4205
  8
KL
 10
16404.29090144236
 20
17938.142106445121
 30
0.0
 11
16405.068245442359
 21
17929.591385445121
 31
0.0
  0
ARC
  5
4206
  8
KL
 10
16411.02661944236
 20
17930.321183445121
 30
0.0
 40
5.9999820000000001
 50
125.6037370000044
 51
185.19442700000681
  0
LINE
  5
4207
  8
KL
 10
16390.068245442359
 20
17942.091385445121
 30
0.0
 11
16378.51368044236
 21
17940.85340944511
 31
0.0
  0
LINE
  5
4208
  8
KL
 10
16378.51368044236
 20
17940.85340944511
 30
0.0
 11
16401.622810442361
 21
17940.85340944511
 31
0.0
  0
LINE
  5
4209
  8
CT
 10
16430.068245442359
 20
17959.591385445121
 30
0.0
 11
16350.06824544236
 21
17959.591385445121
 31
0.0
  0
LINE
  5
420A
  8
KL
 10
16331.06824544236
 20
17868.591385445121
 30
0.0
 11
16449.068245442359
 21
17868.591385445121
 31
0.0
  0
CIRCLE
  5
420B
  8
KL
 10
16390.068245442359
 20
17959.591385445121
 30
0.0
 40
17.5
  0
ARC
  5
420C
  8
KL
 10
16390.068245442359
 20
17959.591385445121
 30
0.0
 40
30.0
 50
305.60386699997889
 51
234.39614899998969
  0
LINE
  5
420D
  8
KL
 10
16549.06818444236
 20
17929.591385445121
 30
0.0
 11
16559.068184442349
 21
17921.26960844512
 31
0.0
  0
ARC
  5
420E
  8
KL
 10
16605.541573442359
 20
17903.091385445121
 30
0.0
 40
20.0
 50
69.999953999991405
 51
90.0
  0
ARC
  5
420F
  8
KL
 10
16642.816963442361
 20
17932.091385445121
 30
0.0
 40
20.0
 50
250.0002749999968
 51
270.0
  0
LINE
  5
4212
  8
KL
 10
16612.38202744236
 20
17921.885331445112
 30
0.0
 11
16635.976631442361
 21
17913.297440445109
 31
0.0
  0
LINE
  5
4213
  8
KL
 10
16559.068184442349
 20
17923.091385445121
 30
0.0
 11
16605.541573442359
 21
17923.091385445121
 31
0.0
  0
LINE
  5
4214
  8
KL
 10
16549.06818444236
 20
17929.591385445121
 30
0.0
 11
16390.068245442359
 21
17929.591385445121
 31
0.0
  0
LINE
  5
4215
  8
KL
 10
16452.06818444236
 20
17861.591385445121
 30
0.0
 11
16328.06824544236
 21
17861.591385445121
 31
0.0
  0
ARC
  5
4216
  8
KL
 10
16328.06824544236
 20
17686.89363144512
 30
0.0
 40
20.0
 50
180.0
 51
270.0
  0
CIRCLE
  5
4217
  8
KL
 10
16390.068245442359
 20
17653.89363144512
 30
0.0
 40
3.5
  0
LINE
  5
4218
  8
KL
 10
16396.52112644236
 20
17653.89363144512
 30
0.0
 11
16381.93201544236
 21
17653.89363144512
 31
0.0
  0
LINE
  5
4219
  8
KL
 10
16328.06824544236
 20
17666.89363144512
 30
0.0
 11
16452.068245442359
 21
17666.89363144512
 31
0.0
  0
LINE
  5
421A
  8
KL
 10
16449.06818444236
 20
17646.89363144512
 30
0.0
 11
16331.06824544236
 21
17646.89363144512
 31
0.0
  0
LINE
  5
421B
  8
KL
 10
16308.06824544236
 20
17841.591385445121
 30
0.0
 11
16308.06824544236
 21
17686.89363144512
 31
0.0
  0
LINE
  5
421C
  8
KL
 10
16301.06824544236
 20
17838.591385445121
 30
0.0
 11
16301.06824544236
 21
17676.89363144512
 31
0.0
  0
LINE
  5
421D
  8
KL
 10
16559.068184442349
 20
17854.591385445121
 30
0.0
 11
16474.445381442361
 21
17854.591385445121
 31
0.0
  0
LINE
  5
4221
  8
KL
 10
16559.068184442349
 20
17734.591385445121
 30
0.0
 11
16479.068184442349
 21
17734.591385445121
 31
0.0
  0
LINE
  5
4222
  8
KL
 10
16472.06818444236
 20
17841.591385445121
 30
0.0
 11
16472.06818444236
 21
17686.89363144512
 31
0.0
  0
LINE
  5
4223
  8
KL
 10
16479.068184442349
 20
17838.591385445121
 30
0.0
 11
16479.068184442349
 21
17676.89363144512
 31
0.0
  0
ARC
  5
4224
  8
KL
 10
16452.06818444236
 20
17686.89363144512
 30
0.0
 40
20.0
 50
270.0
 51
0.000000000000007
  0
LINE
  5
4225
  8
CT
 10
16499.06818444236
 20
17794.591385445121
 30
0.0
 11
16281.06824544236
 21
17794.591385445121
 31
0.0
  0
ARC
  5
4226
  8
KL
 10
16452.06818444236
 20
17841.591385445121
 30
0.0
 40
20.0
 50
0.000000000000007
 51
90.0
  0
ARC
  5
4227
  8
KL
 10
16328.06824544236
 20
17841.591385445121
 30
0.0
 40
20.0
 50
90.0
 51
180.0
  0
ARC
  5
4228
  8
KL
 10
16331.06824544236
 20
17838.591385445121
 30
0.0
 40
30.0
 50
90.0
 51
180.0
  0
ARC
  5
4229
  8
KL
 10
16449.06818444236
 20
17838.591385445121
 30
0.0
 40
30.0
 50
0.000000000000007
 51
90.0
  0
LINE
  5
422E
  8
KL
 10
16231.06824544236
 20
17929.591385445121
 30
0.0
 11
16390.068245442359
 21
17929.591385445121
 31
0.0
  0
LINE
  5
422F
  8
KL
 10
16216.06824544236
 20
17854.591385445121
 30
0.0
 11
16305.691048442361
 21
17854.591385445121
 31
0.0
  0
LINE
  5
4230
  8
KL
 10
16216.06824544236
 20
17734.591385445121
 30
0.0
 11
16301.06824544236
 21
17734.591385445121
 31
0.0
  0
ARC
  5
4231
  8
FUTO
 10
16116.56824544236
 20
17641.591385445121
 30
0.0
 40
2.0
 50
180.0
 51
270.0
  0
ARC
  5
4232
  8
FUTO
 10
16126.721321442359
 20
17636.591385445121
 30
0.0
 40
3.0
 50
2.9995570000340721
 51
90.0
  0
ARC
  5
4233
  8
FUTO
 10
16141.417854442359
 20
17604.559647445109
 30
0.0
 40
10.000139999999989
 50
183.00042699998181
 51
225.00097700000649
  0
ARC
  5
4241
  8
FUTO
 10
16170.21033544236
 20
17575.767167445108
 30
0.0
 40
10.0
 50
225.0
 51
270.0
  0
ARC
  5
4242
  8
FUTO
 10
16143.36072544236
 20
17567.488602445119
 30
0.0
 40
9.9999679999999991
 50
182.9990539999759
 51
225.0
  0
LINE
  5
4243
  8
KL
 10
16206.06824544236
 20
17567.830643445111
 30
0.0
 11
16225.15686844236
 21
17567.830643445111
 31
0.0
  0
LINE
  5
4244
  8
KL
 10
16207.104134442359
 20
17557.591385445121
 30
0.0
 11
16201.06824544236
 21
17557.591385445121
 31
0.0
  0
LINE
  5
4245
  8
KL
 10
16196.06824544236
 20
17557.591385445121
 30
0.0
 11
16201.06824544236
 21
17557.591385445121
 31
0.0
  0
ARC
  5
4246
  8
KL
 10
16213.06824544236
 20
17536.591385445121
 30
0.0
 40
3.0
 50
90.0
 51
180.0
  0
ARC
  5
4247
  8
KL
 10
16220.15686844236
 20
17544.591385445121
 30
0.0
 40
5.0
 50
270.0
 51
0.000000000000007
  0
LINE
  5
4248
  8
KL
 10
16206.06824544236
 20
17560.717850445119
 30
0.0
 11
16208.626839442361
 21
17560.717850445119
 31
0.0
  0
LINE
  5
4249
  8
KL
 10
16213.06824544236
 20
17539.591385445121
 30
0.0
 11
16206.06824544236
 21
17560.717850445119
 31
0.0
  0
LINE
  5
424A
  8
KL
 10
16225.15686844236
 20
17544.591385445121
 30
0.0
 11
16225.15686844236
 21
17567.830643445111
 31
0.0
  0
LINE
  5
424B
  8
KL
 10
16216.226448442359
 20
17539.591385445121
 30
0.0
 11
16206.06824544236
 21
17567.830643445111
 31
0.0
  0
LINE
  5
424C
  8
KL
 10
16170.21033544236
 20
17565.767167445119
 30
0.0
 11
16196.06824544236
 21
17565.767167445119
 31
0.0
  0
LINE
  5
424E
  8
FUTO
 10
16129.699593442359
 20
17637.086625445121
 30
0.0
 11
16133.37439744236
 21
17566.965409445111
 31
0.0
  0
LINE
  5
4250
  8
FUTO
 10
16163.139290442359
 20
17568.696122445112
 30
0.0
 11
16134.346809442361
 21
17597.48835844512
 31
0.0
  0
LINE
  5
4253
  8
FUTO
 10
16126.721321442359
 20
17639.591385445121
 30
0.0
 11
16116.56824544236
 21
17639.591385445121
 31
0.0
  0
ARC
  5
4254
  8
FUTO
 10
16170.35389044236
 20
17540.495438445119
 30
0.0
 40
9.9999839999999995
 50
225.0
 51
268.00067100000211
  0
LINE
  5
4255
  8
KL
 10
16196.06824544236
 20
17529.591385445121
 30
0.0
 11
16170.00501344236
 21
17530.501542445119
 31
0.0
  0
LINE
  5
4256
  8
KL
 10
16210.06824544236
 20
17519.591385445121
 30
0.0
 11
16210.06824544236
 21
17536.591385445121
 31
0.0
  0
LINE
  5
4257
  8
KL
 10
16163.28284544236
 20
17533.424393445119
 30
0.0
 11
16136.28968144236
 21
17560.417557445118
 31
0.0
  0
LINE
  5
4258
  8
KL
 10
16350.46814744236
 20
17541.199296445109
 30
0.0
 11
16270.06824544236
 21
17539.591385445121
 31
0.0
  0
ARC
  5
4259
  8
KL
 10
16365.06824544236
 20
17602.087479445119
 30
0.0
 40
5.0
 50
0.000000000000007
 51
90.0
  0
ARC
  5
425A
  8
KL
 10
16415.068245442359
 20
17602.087479445119
 30
0.0
 40
5.0
 50
90.0
 51
180.0
  0
ARC
  5
425B
  8
KL
 10
16430.06818444236
 20
17561.195389445122
 30
0.0
 40
20.000091999999999
 50
180.0
 51
268.85427899999138
  0
LINE
  5
425C
  8
KL
 10
16410.068245442359
 20
17602.087479445119
 30
0.0
 11
16410.068245442359
 21
17561.195389445122
 31
0.0
  0
LINE
  5
425D
  8
KL
 10
16370.06824544236
 20
17602.087479445119
 30
0.0
 11
16370.06824544236
 21
17561.195389445122
 31
0.0
  0
ARC
  5
425E
  8
KL
 10
16350.06824544236
 20
17561.195389445122
 30
0.0
 40
20.0
 50
271.14572100000839
 51
0.000000000000007
  0
LINE
  5
425F
  8
KL
 10
16290.06824544236
 20
17519.591385445121
 30
0.0
 11
16290.06824544236
 21
17520.591385445121
 31
0.0
  0
ARC
  5
4260
  8
KL
 10
16295.06824544236
 20
17520.591385445121
 30
0.0
 40
5.0
 50
90.0
 51
180.0
  0
LINE
  5
4261
  8
KL
 10
16295.06824544236
 20
17525.591385445121
 30
0.0
 11
16390.068245442359
 21
17525.591385445121
 31
0.0
  0
ARC
  5
4262
  8
KL
 10
16567.068184442349
 20
17536.591385445121
 30
0.0
 40
3.0
 50
0.000000000000007
 51
90.0
  0
LINE
  5
4263
  8
KL
 10
16510.06818444236
 20
17539.591385445121
 30
0.0
 11
16517.74773736667
 21
17539.591385445121
 31
0.0
  0
ARC
  5
426D
  8
KL
 10
16485.06818444236
 20
17520.591385445121
 30
0.0
 40
5.0
 50
0.000000000000007
 51
90.0
  0
LINE
  5
426E
  8
KL
 10
16490.06818444236
 20
17519.591385445121
 30
0.0
 11
16490.06818444236
 21
17520.591385445121
 31
0.0
  0
LINE
  5
426F
  8
KL
 10
16490.06818444236
 20
17519.591385445121
 30
0.0
 11
16515.068245442359
 21
17519.591385445121
 31
0.0
  0
LINE
  5
4270
  8
KL
 10
16629.674263442361
 20
17523.591385445121
 30
0.0
 11
16639.290230442359
 21
17527.091385445121
 31
0.0
  0
LINE
  5
4271
  8
KL
 10
16629.674263442361
 20
17523.591385445121
 30
0.0
 11
16570.06818444236
 21
17523.591385445121
 31
0.0
  0
LINE
  5
4272
  8
KL
 10
16570.06818444236
 20
17519.591385445121
 30
0.0
 11
16570.06818444236
 21
17536.591385445121
 31
0.0
  0
LINE
  5
4273
  8
KL
 10
16429.668282442359
 20
17541.199296445109
 30
0.0
 11
16510.06818444236
 21
17539.591385445121
 31
0.0
  0
LINE
  5
4274
  8
KL
 10
16485.06818444236
 20
17525.591385445121
 30
0.0
 11
16390.068245442359
 21
17525.591385445121
 31
0.0
  0
LINE
  5
4275
  8
KL
 10
16270.06824544236
 20
17539.591385445121
 30
0.0
 11
16262.388753518049
 21
17539.591385445121
 31
0.0
  0
LINE
  5
4276
  8
KL
 10
16290.06824544236
 20
17519.591385445121
 30
0.0
 11
16265.06824544236
 21
17519.591385445121
 31
0.0
  0
ARC
  5
4277
  8
KL
 10
16449.06818444236
 20
17676.89363144512
 30
0.0
 40
30.0
 50
270.0
 51
0.000000000000007
  0
ARC
  5
4278
  8
KL
 10
16331.06824544236
 20
17676.89363144512
 30
0.0
 40
30.0
 50
180.0
 51
270.0
  0
LINE
  5
4279
  8
CT
 10
16390.068245442359
 20
18009.591385445121
 30
0.0
 11
16390.068245442359
 21
17439.591385445121
 31
0.0
  0
LINE
  5
427A
  8
KL
 10
16201.06824544236
 20
17557.591385445121
 30
0.0
 11
16201.06824544236
 21
17719.591385445121
 31
0.0
  0
LINE
  5
427B
  8
KL
 10
16559.068184442349
 20
17923.091385445121
 30
0.0
 11
16559.068184442349
 21
17539.591385445121
 31
0.0
  0
LINE
  5
427C
  8
KL
 10
16609.06818444236
 20
17922.777909445111
 30
0.0
 11
16609.06818444236
 21
17523.591385445121
 31
0.0
  0
LINE
  5
427D
  8
KL
 10
16639.268135442358
 20
17912.408768445119
 30
0.0
 11
16639.268135442358
 21
17527.091385445121
 31
0.0
  0
LINE
  5
427E
  8
KL
 10
16201.06824544236
 20
17557.591385445121
 30
0.0
 11
16201.06824544236
 21
17719.591385445121
 31
0.0
  0
LINE
  5
427F
  8
KL
 10
16196.06824544236
 20
17529.591385445121
 30
0.0
 11
16196.06824544236
 21
17719.591385445121
 31
0.0
  0
LINE
  5
4280
  8
FUTO
 10
16114.56824544236
 20
17641.591385445121
 30
0.0
 11
16114.56824544236
 21
17719.591385445121
 31
0.0
  0
ARC
  5
4281
  8
KL
 10
16703.757271442359
 20
17897.091385445121
 30
0.0
 40
15.0
 50
60.00018300001819
 51
90.0
  0
ARC
  5
4282
  8
KL
 10
16759.06818444236
 20
17876.704667445108
 30
0.0
 40
4.9999580000000003
 50
0.000000000000007
 51
59.999718000027237
  0
LINE
  5
4283
  8
KL
 10
16761.56818444236
 20
17881.034745445111
 30
0.0
 11
16711.257271442359
 21
17910.081864445121
 31
0.0
  0
ARC
  5
42CC
  8
KL
 10
16759.06818444236
 20
17562.478104445119
 30
0.0
 40
5.0
 50
300.00027500002068
 51
0.000000000000007
  0
ARC
  5
42CE
  8
KL
 10
16703.757271442359
 20
17542.091385445121
 30
0.0
 40
15.000085
 50
270.0
 51
299.99981699998182
  0
LINE
  5
42CF
  8
KL
 10
16761.56818444236
 20
17558.14802644512
 30
0.0
 11
16711.257271442359
 21
17529.100907445121
 31
0.0
  0
LINE
  5
4301
  8
KL
 10
16704.968208442358
 20
17527.091385445121
 30
0.0
 11
16704.968208442358
 21
17912.042313445119
 31
0.0
  0
LINE
  5
4305
  8
KL
 10
16764.068245442359
 20
17877.24134944511
 30
0.0
 11
16764.068245442359
 21
17562.451035445119
 31
0.0
  0
LINE
  5
4306
  8
CT
 10
15944.56824544236
 20
17719.591385445121
 30
0.0
 11
16784.068245442359
 21
17719.591385445121
 31
0.0
  0
LINE
  5
4307
  8
KL
 10
16642.816963442361
 20
17912.091385445121
 30
0.0
 11
16703.757271442359
 21
17912.091385445121
 31
0.0
  0
LINE
  5
4308
  8
KL
 10
16639.268135442358
 20
17527.091385445121
 30
0.0
 11
16703.757271442359
 21
17527.091385445121
 31
0.0
  0
LINE
  5
430D
  8
CT
 10
12528.476832236511
 20
21237.336518590659
 30
0.0
 11
12578.476832236511
 21
21237.336518590659
 31
0.0
  0
LINE
  5
430E
  8
CT
 10
12553.476832236511
 20
21212.336518590659
 30
0.0
 11
12553.476832236511
 21
21262.336518590659
 31
0.0
  0
LINE
  5
430F
  8
CT
 10
12233.476832236511
 20
21212.336518590659
 30
0.0
 11
12233.476832236511
 21
21262.336518590659
 31
0.0
  0
LINE
  5
4310
  8
CT
 10
12258.476832236511
 20
21237.336518590659
 30
0.0
 11
12208.476832236511
 21
21237.336518590659
 31
0.0
  0
LINE
  5
4311
  8
CT
 10
12258.476832236511
 20
21697.336518590659
 30
0.0
 11
12208.476832236511
 21
21697.336518590659
 31
0.0
  0
LINE
  5
4312
  8
CT
 10
12233.476832236511
 20
21722.336518590659
 30
0.0
 11
12233.476832236511
 21
21672.336518590659
 31
0.0
  0
LINE
  5
4313
  8
CT
 10
12553.476832236511
 20
21722.336518590659
 30
0.0
 11
12553.476832236511
 21
21672.336518590659
 31
0.0
  0
LINE
  5
4314
  8
CT
 10
12528.476832236511
 20
21697.336518590659
 30
0.0
 11
12578.476832236511
 21
21697.336518590659
 31
0.0
  0
LINE
  5
4315
  8
FUTO
 10
12173.476832236511
 20
21186.836518590659
 30
0.0
 11
12173.476832236511
 21
20931.836518590659
 31
0.0
  0
LINE
  5
4316
  8
FUTO
 10
12043.476832236511
 20
21237.836518590659
 30
0.0
 11
12043.476832236511
 21
21164.836518590659
 31
0.0
  0
LINE
  5
4317
  8
FUTO
 10
12183.476832236511
 20
22140.836518590659
 30
0.0
 11
12183.476832236511
 21
21237.836518590659
 31
0.0
  0
LINE
  5
4319
  8
FUTO
 10
12528.476832236511
 20
22140.836518590659
 30
0.0
 11
12528.476832236511
 21
21841.336518590659
 31
0.0
  0
LINE
  5
431A
  8
FUTO
 10
12603.476832236511
 20
22140.836518590659
 30
0.0
 11
12603.476832236511
 21
21237.836518590659
 31
0.0
  0
LINE
  5
431B
  8
SL
 10
12258.476832236511
 20
21841.336518590659
 30
0.0
 11
12258.476832236511
 21
21231.836518590659
 31
0.0
  0
LINE
  5
431C
  8
SL
 10
12528.476832236511
 20
21841.336518590659
 30
0.0
 11
12528.476832236511
 21
21231.836518590659
 31
0.0
  0
LINE
  5
432D
  8
FUTO
 10
14523.476832236511
 20
23335.83651859067
 30
0.0
 11
12336.476832236511
 21
23335.83651859067
 31
0.0
  0
LINE
  5
4341
  8
FUTO
 10
14523.476832236511
 20
22167.836518590659
 30
0.0
 11
12336.476832236511
 21
22167.836518590659
 31
0.0
  0
LINE
  5
4342
  8
FUTO
 10
14523.476832236511
 20
22213.836518590659
 30
0.0
 11
12743.476832236511
 21
22213.836518590659
 31
0.0
  0
LINE
  5
4347
  8
FUTO
 10
14443.476832236511
 20
22167.836518590659
 30
0.0
 11
14443.476832236511
 21
22140.836518590659
 31
0.0
  0
LINE
  5
4348
  8
FUTO
 10
12138.25313387566
 20
22215.83651859063
 30
0.0
 11
12043.476832236511
 21
22215.836518590659
 31
0.0
  0
LINE
  5
4349
  8
FUTO
 10
13291.943332632931
 20
21237.83651859067
 30
0.0
 11
13291.943332632931
 21
22167.836518590659
 31
0.0
  0
LINE
  5
434A
  8
FUTO
 10
13895.01033184008
 20
21237.83651859067
 30
0.0
 11
13895.01033184008
 21
22167.836518590659
 31
0.0
  0
LINE
  5
457C
  8
FUTO
 62
     2
 10
14473.476832236511
 20
17309.591385445121
 30
0.0
 11
15101.368631288229
 21
17309.591385445121
 31
0.0
  0
LINE
  5
457E
  8
FUTO
 62
     2
 10
15071.368631288229
 20
17369.591385445121
 30
0.0
 11
15071.368631288229
 21
17429.591385445121
 31
0.0
  0
INSERT
  5
4581
  8
FUTO
 62
     2
  2
_OPEN30
 10
15071.368631288229
 20
17309.591385445121
 30
0.0
 41
60.0
 42
60.0
 43
60.0
 50
270.0
  0
LINE
  5
4597
  8
FUTO
 10
12762.476832236511
 20
17754.818456651308
 30
0.0
 11
12762.476832236511
 21
17459.591385445121
 31
0.0
  0
LINE
  5
4598
  8
FUTO
 10
12753.476832236511
 20
17746.75466584356
 30
0.0
 11
12753.476832236511
 21
17459.591385445121
 31
0.0
  0
DIMENSION
  5
45A8
  8
FUTO
  2
*D13
 10
12043.476832236511
 20
23770.272341783551
 30
0.0
 11
12818.476832236511
 21
23830.272341783559
 31
0.0
 70
     0
 13
13593.476832236511
 23
23666.709096240262
 33
0.0
 14
12043.476832236511
 24
22140.836518590659
 34
0.0
1001
ACAD
1000
DSTYLE
1002
{
1070
    40
1040
30.0
1070
   176
1070
     2
1070
   177
1070
     2
1070
   178
1070
     2
1070
   341
1005
44D5
1070
     5
1000
OPEN30
1002
}
  0
DIMENSION
  5
45B5
  8
FUTO
  2
*D14
 10
15003.78273507638
 20
23385.836518590659
 30
0.0
 11
14943.78273507638
 21
23068.83651859067
 31
0.0
 70
     0
 13
14770.99683281603
 23
22751.836518590659
 33
0.0
 14
14343.476832236511
 24
23385.836518590659
 34
0.0
 50
90.0
1001
ACAD
1000
DSTYLE
1002
{
1070
    40
1040
30.0
1070
   176
1070
     2
1070
   177
1070
     2
1070
   178
1070
     2
1070
   341
1005
44D5
1070
     5
1000
OPEN30
1002
}
  0
DIMENSION
  5
45C2
  8
FUTO
  2
*D15
 10
15003.78273507638
 20
20931.836518590659
 30
0.0
 11
14943.78273507638
 21
21841.83651859067
 31
0.0
 70
     0
 13
15003.78273507638
 23
22751.836518590659
 33
0.0
 14
13973.476832236511
 24
20931.836518590659
 34
0.0
 50
90.0
1001
ACAD
1000
DSTYLE
1002
{
1070
    40
1040
30.0
1070
   176
1070
     2
1070
   177
1070
     2
1070
   178
1070
     2
1070
   341
1005
44D5
1070
     5
1000
OPEN30
1002
}
  0
LINE
  5
466E
  8
CT
 10
14516.085954273411
 20
19106.512887957251
 30
0.0
 11
13593.476832236511
 21
19009.59138544511
 31
0.0
  0
LINE
  5
4670
  8
FUTO
 10
12391.19459571717
 20
19009.591385445121
 30
0.0
 11
12391.19459571717
 21
19139.539544105031
 31
0.0
  0
LINE
  5
4671
  8
FUTO
 10
12341.19459571717
 20
19000.591385445121
 30
0.0
 11
12341.19459571717
 21
19018.59138544511
 31
0.0
  0
LINE
  5
46AB
  8
KL
 10
12762.476832236511
 20
18556.281735053391
 30
0.0
 11
12762.476832236511
 21
17754.818456651308
 31
0.0
  0
LINE
  5
46AC
  8
KL
 10
12753.476832236511
 20
18544.645299616801
 30
0.0
 11
12753.476832236511
 21
17746.75466584356
 31
0.0
  0
LINE
  5
46AD
  8
FUTO
 10
13120.042246164059
 20
19018.59138544511
 30
0.0
 11
12341.19459571717
 21
19018.59138544511
 31
0.0
  0
LINE
  5
46AE
  8
FUTO
 10
13106.120457066119
 20
19000.591385445121
 30
0.0
 11
12341.19459571717
 21
19000.59138544511
 31
0.0
  0
LINE
  5
46AF
  8
KL
 10
13972.239655595949
 20
19040.229982684308
 30
0.0
 11
13793.330579514441
 21
19021.401537813621
 31
0.0
  0
LINE
  5
46B0
  8
KL
 10
13970.36383351917
 20
19058.131969126862
 30
0.0
 11
13791.462041913441
 21
19039.304290876589
 31
0.0
  0
LINE
  5
470A
  8
FUTO
 10
14523.476832236511
 20
22167.836518590659
 30
0.0
 11
14523.476832236511
 21
23335.83651859067
 31
0.0
  0
LINE
  5
470B
  8
HOSO
 10
14523.476832236511
 20
22167.836518590659
 30
0.0
 11
14523.476832236511
 21
23335.83651859067
 31
0.0
  0
LINE
  5
470C
  8
FUTO
 10
14473.476832236511
 20
22167.836518590659
 30
0.0
 11
14473.476832236511
 21
23335.83651859067
 31
0.0
  0
LINE
  5
470D
  8
FUTO
 10
14519.476832236511
 20
22167.836518590659
 30
0.0
 11
14519.476832236511
 21
23335.83651859067
 31
0.0
  0
LINE
  5
470E
  8
FUTO
 10
12386.476832236511
 20
23289.83651859067
 30
0.0
 11
12386.476832236511
 21
22215.836518590659
 31
0.0
  0
LINE
  5
470F
  8
FUTO
 10
12336.476832236511
 20
23335.83651859067
 30
0.0
 11
12336.476832236511
 21
22167.836518590659
 31
0.0
  0
LINE
  5
4710
  8
FUTO
 10
12336.476832236511
 20
22215.836518590659
 30
0.0
 11
12102.476832236511
 21
22215.836518590659
 31
0.0
  0
DIMENSION
  5
4712
  8
FUTO
  2
*D16
 10
14523.476832236511
 20
23770.272341783551
 30
0.0
 11
14058.476832236511
 21
23830.272341783559
 31
0.0
 70
     0
 13
13593.476832236511
 23
23666.709096240262
 33
0.0
 14
14523.476832236511
 24
23335.83651859067
 34
0.0
1001
ACAD
1000
DSTYLE
1002
{
1070
    40
1040
30.0
1070
   176
1070
     2
1070
   177
1070
     2
1070
   178
1070
     2
1070
   341
1005
44D5
1070
     5
1000
OPEN30
1002
}
  0
LINE
  5
485C
  8
FUTO
 10
17090.068245442359
 20
17464.591385445121
 30
0.0
 11
18259.06824544238
 21
17464.591385445121
 31
0.0
  0
LINE
  5
485D
  8
FUTO
 10
17140.068245442351
 20
17514.591385445121
 30
0.0
 11
18207.768245442348
 21
17514.591385445121
 31
0.0
  0
LINE
  5
485E
  8
FUTO
 10
17090.068245442359
 20
17464.591385445121
 30
0.0
 11
17090.0682454423
 21
19022.591385445121
 31
0.0
  0
LINE
  5
485F
  8
FUTO
 10
18259.06824544238
 20
17464.591385445121
 30
0.0
 11
18259.0682454423
 21
19022.591385445121
 31
0.0
  0
LINE
  5
4872
  8
SL
 10
13397.125488735781
 20
19164.336821259742
 30
0.0
 11
12310.2238625922
 21
17785.203450230521
 31
0.0
  0
LINE
  5
4873
  8
FUTO
 10
13292.89115684004
 20
19242.07418426354
 30
0.0
 11
12219.453546480659
 21
17854.186690024198
 31
0.0
  0
LINE
  5
4874
  8
SL
 10
12464.928120233961
 20
17641.29251288934
 30
0.0
 11
13761.994020909749
 21
18824.924233190941
 31
0.0
  0
LINE
  5
4875
  8
FUTO
 10
13847.05371281322
 20
18726.574132195448
 30
0.0
 11
12540.28449993882
 21
17555.739291458471
 31
0.0
  0
LINE
  5
4876
  8
FUTO
 10
13895.01033184008
 20
18903.591385445121
 30
0.0
 11
14093.476832236511
 21
17459.591385445121
 31
0.0
  0
LINE
  5
4877
  8
KL
 10
13291.94333263294
 20
18903.591385445128
 30
0.0
 11
13186.23748612469
 21
18134.498152819251
 31
0.0
  0
LINE
  5
4878
  8
FUTO
 10
13186.23748612469
 20
18134.498152819251
 30
0.0
 11
13093.47683223642
 21
17459.59138544515
 31
0.0
  0
LINE
  5
4879
  8
FUTO
 10
17065.068245442359
 20
20012.59138544511
 30
0.0
 11
18282.768245442359
 21
20012.59138544511
 31
0.0
  0
DIMENSION
  5
488D
  8
FUTO
  2
*D17
 10
15071.368631288229
 20
19009.591385445121
 30
0.0
 11
15011.368631288229
 21
18159.591385445121
 31
0.0
 70
     0
 13
14443.476832236511
 23
17309.591385445121
 33
0.0
 14
14771.480810883841
 24
19009.591385445121
 34
0.0
 50
90.0
1001
ACAD
1000
DSTYLE
1002
{
1070
    40
1040
30.0
1070
   176
1070
     2
1070
   177
1070
     2
1070
   178
1070
     2
1070
   341
1005
44D5
1070
     5
1000
OPEN30
1002
}
  0
LINE
  5
489A
  8
CT
 10
13700.590435079081
 20
20012.59138544511
 30
0.0
 11
13593.476832236511
 21
20012.59138544511
 31
0.0
  0
DIMENSION
  5
489B
  8
FUTO
  2
*D18
 10
15071.368631288229
 20
20012.59138544511
 30
0.0
 11
15011.368631288229
 21
19511.091385445121
 31
0.0
 70
     0
 13
14771.480810883841
 23
19009.591385445121
 33
0.0
 14
13700.590435079081
 24
20012.59138544511
 34
0.0
 50
90.0
1001
ACAD
1000
DSTYLE
1002
{
1070
    40
1040
30.0
1070
   176
1070
     2
1070
   177
1070
     2
1070
   178
1070
     2
1070
   341
1005
44D5
1070
     5
1000
OPEN30
1002
}
  0
DIMENSION
  5
48A8
  8
FUTO
  2
*D19
 10
14523.476832236511
 20
20313.466879835309
 30
0.0
 11
14058.476832236511
 21
20373.466879835309
 31
0.0
 70
     0
 13
13593.476832236511
 23
20112.621318743171
 33
0.0
 14
14523.476832236511
 24
19022.591385445121
 34
0.0
 50
180.0
1001
ACAD
1000
DSTYLE
1002
{
1070
    40
1040
30.0
1070
   176
1070
     2
1070
   177
1070
     2
1070
   178
1070
     2
1070
   341
1005
44D5
1070
     5
1000
OPEN30
1002
}
  0
ARC
  5
48C7
  8
FUTO
 10
13695.476832236511
 20
18907.59138544511
 30
0.0
 40
1329.0
 50
175.59825262435081
 51
209.10212833318641
  0
LINE
  5
48C8
  8
FUTO
 10
17140.068245442351
 20
17517.791385445111
 30
0.0
 11
18207.768245442348
 21
17517.791385445111
 31
0.0
  0
LINE
  5
4989
  8
FUTO
 10
17065.068245442359
 20
19102.688600081601
 30
0.0
 11
18282.768245442359
 21
19102.688600081601
 31
0.0
  0
LINE
  5
498A
  8
FUTO
 10
17065.068245442359
 20
19111.688600081601
 30
0.0
 11
18282.768245442359
 21
19111.688600081601
 31
0.0
  0
LINE
  5
498B
  8
FUTO
 10
17065.068245442359
 20
19093.688600081601
 30
0.0
 11
18282.768245442359
 21
19093.688600081601
 31
0.0
  0
LINE
  5
498C
  8
CT
 10
17065.068245442359
 20
19102.688600081601
 30
0.0
 11
18282.768245442359
 21
19102.688600081601
 31
0.0
  0
LINE
  5
498D
  8
FUTO
 10
17140.068245442359
 20
18968.59138544511
 30
0.0
 11
18207.768245442359
 21
18968.59138544511
 31
0.0
  0
LINE
  5
498E
  8
FUTO
 10
17090.0682454423
 20
19022.591385445121
 30
0.0
 11
18259.0682454423
 21
19022.591385445121
 31
0.0
  0
LINE
  5
498F
  8
FUTO
 10
17140.068245442351
 20
17464.591385445121
 30
0.0
 11
17140.068245442351
 21
17459.591385445121
 31
0.0
  0
LINE
  5
4990
  8
FUTO
 10
17144.568245442351
 20
17464.591385445121
 30
0.0
 11
17144.568245442351
 21
17459.591385445121
 31
0.0
  0
LINE
  5
4991
  8
FUTO
 10
18204.568245442359
 20
17464.591385445121
 30
0.0
 11
18204.568245442359
 21
17459.591385445121
 31
0.0
  0
LINE
  5
4992
  8
FUTO
 10
18207.768245442348
 20
17464.591385445121
 30
0.0
 11
18207.768245442348
 21
17459.591385445121
 31
0.0
  0
LINE
  5
4999
  8
FUTO
 10
18211.568245442359
 20
17309.591385445121
 30
0.0
 11
18211.568245442359
 21
17459.591385445121
 31
0.0
1001
ACAD
1000
ASC_BOUNDS
1002
{
1070
    19
1002
}
  0
LINE
  5
499A
  8
FUTO
 10
18211.568245442359
 20
17459.591385445121
 30
0.0
 11
18286.568245442359
 21
17459.591385445121
 31
0.0
1001
ACAD
1000
ASC_BOUNDS
1002
{
1070
    19
1002
}
  0
LINE
  5
499B
  8
FUTO
 10
18286.568245442359
 20
17459.591385445121
 30
0.0
 11
18286.568245442359
 21
17456.25319686695
 31
0.0
1001
ACAD
1000
ASC_BOUNDS
1002
{
1070
    19
1002
}
  0
ARC
  5
499C
  8
FUTO
 10
18282.568245442359
 20
17456.25319686695
 30
0.0
 40
4.0000000000009086
 50
274.99999999998528
 51
359.99999999994782
1001
ACAD
1000
ASC_BOUNDS
1002
{
1070
    19
1002
}
  0
LINE
  5
499D
  8
FUTO
 10
18282.916868413351
 20
17452.268418074578
 30
0.0
 11
18221.71962247137
 21
17446.914352815649
 31
0.0
1001
ACAD
1000
ASC_BOUNDS
1002
{
1070
    19
1002
}
  0
ARC
  5
499E
  8
FUTO
 10
18222.068245442359
 20
17442.929574023281
 30
0.0
 40
4.0000000000002656
 50
94.99999999999946
 51
180.0
1001
ACAD
1000
ASC_BOUNDS
1002
{
1070
    19
1002
}
  0
LINE
  5
499F
  8
FUTO
 10
18218.068245442359
 20
17442.929574023281
 30
0.0
 11
18218.068245442359
 21
17326.25319686695
 31
0.0
1001
ACAD
1000
ASC_BOUNDS
1002
{
1070
    19
1002
}
  0
ARC
  5
49A0
  8
FUTO
 10
18222.068245442359
 20
17326.253196866939
 30
0.0
 40
3.9999999999990901
 50
179.9999999999869
 51
264.99999999998641
1001
ACAD
1000
ASC_BOUNDS
1002
{
1070
    19
1002
}
  0
LINE
  5
49A1
  8
FUTO
 10
18221.71962247137
 20
17322.268418074578
 30
0.0
 11
18282.916868413351
 21
17316.914352815649
 31
0.0
1001
ACAD
1000
ASC_BOUNDS
1002
{
1070
    19
1002
}
  0
ARC
  5
49A2
  8
FUTO
 10
18282.568245442359
 20
17312.929574023281
 30
0.0
 40
4.0000000000010933
 50
0.0000000000260551
 51
85.000000000014666
1001
ACAD
1000
ASC_BOUNDS
1002
{
1070
    19
1002
}
  0
LINE
  5
49A3
  8
FUTO
 10
18286.568245442359
 20
17312.929574023281
 30
0.0
 11
18286.568245442359
 21
17309.591385445121
 31
0.0
1001
ACAD
1000
ASC_BOUNDS
1002
{
1070
    19
1002
}
  0
LINE
  5
49A4
  8
FUTO
 10
18286.568245442359
 20
17309.591385445121
 30
0.0
 11
18211.568245442359
 21
17309.591385445121
 31
0.0
1001
ACAD
1000
ASC_BOUNDS
1002
{
1070
    19
1002
}
  0
LINE
  5
49A5
  8
FUTO
 10
16161.56824544236
 20
17459.591385445121
 30
0.0
 11
16086.56824544236
 21
17459.591385445121
 31
0.0
  0
LINE
  5
49A6
  8
FUTO
 10
16151.416868413349
 20
17446.914352815649
 30
0.0
 11
16090.21962247137
 21
17452.268418074578
 31
0.0
  0
LINE
  5
49A7
  8
FUTO
 10
16161.56824544236
 20
17309.591385445121
 30
0.0
 11
16086.56824544236
 21
17309.591385445121
 31
0.0
  0
LINE
  5
49A8
  8
FUTO
 10
16151.416868413349
 20
17322.268418074578
 30
0.0
 11
16090.21962247137
 21
17316.914352815649
 31
0.0
  0
LINE
  5
49A9
  8
FUTO
 10
16155.06824544236
 20
17326.25319686695
 30
0.0
 11
16155.06824544236
 21
17442.929574023281
 31
0.0
  0
ARC
  5
49AA
  8
FUTO
 10
16151.06824544236
 20
17442.929574023281
 30
0.0
 40
4.0
 50
0.0
 51
84.999999999975714
  0
LINE
  5
49AB
  8
FUTO
 10
16161.56824544236
 20
17309.591385445121
 30
0.0
 11
16161.56824544236
 21
17459.591385445121
 31
0.0
  0
ARC
  5
49AC
  8
FUTO
 10
16151.06824544236
 20
17326.25319686695
 30
0.0
 40
4.0
 50
275.00000000002422
 51
0.0
  0
ARC
  5
49AD
  8
FUTO
 10
16090.56824544236
 20
17456.25319686695
 30
0.0
 40
4.0
 50
180.0
 51
264.99999999997573
  0
LINE
  5
49AE
  8
FUTO
 10
16086.56824544236
 20
17459.591385445121
 30
0.0
 11
16086.56824544236
 21
17456.25319686695
 31
0.0
  0
LINE
  5
49AF
  8
FUTO
 10
16086.56824544236
 20
17309.591385445121
 30
0.0
 11
16086.56824544236
 21
17312.929574023281
 31
0.0
  0
ARC
  5
49B0
  8
FUTO
 10
16090.56824544236
 20
17312.929574023281
 30
0.0
 40
4.0
 50
95.000000000024286
 51
180.0
  0
TEXT
  5
510C
  8
SP
 10
6166.7672442928124
 20
8989.8262755745236
 30
0.0
 40
100.0
  1
 
  0
TEXT
  5
53C7
  8
SP
 10
10327.62274491811
 20
11669.98972451484
 30
0.0
 40
100.0
  1
 
  0
TEXT
  5
53C8
  8
SP
 10
19884.57417492157
 20
19098.58739660967
 30
0.0
 40
100.0
  1
 
  0
LINE
  5
53C9
  8
4
 10
18985.824605948401
 20
15497.534169321139
 30
0.0
 11
18985.824605948401
 21
14497.534169321139
 31
0.0
  0
LINE
  5
53CA
  8
4
 10
15485.824605948401
 20
15497.534169321139
 30
0.0
 11
15485.824605948401
 21
14497.534169321139
 31
0.0
  0
LINE
  5
53CB
  8
4
 10
12985.824605948401
 20
15497.534169321139
 30
0.0
 11
12985.824605948401
 21
14497.534169321139
 31
0.0
  0
LINE
  5
53CE
  8
4
 10
12985.824605948401
 20
14497.534169321139
 30
0.0
 11
18985.824605948401
 21
14497.534169321139
 31
0.0
  0
LINE
  5
53CF
  8
4
 10
12985.824605948401
 20
14997.534169321139
 30
0.0
 11
18985.824605948401
 21
14997.534169321139
 31
0.0
  0
TEXT
  5
53D0
  8
4
 10
13178.33501018292
 20
15155.2492986542
 30
0.0
 40
250.0
  1
機器名称
  0
TEXT
  5
53D1
  8
4
 10
13167.1151360724
 20
14605.759952981191
 30
0.0
 40
250.0
  1
機器型番
  0
TEXT
  5
53D2
  8
4
 10
15509.78991445361
 20
15108.47068110587
 30
0.0
 40
225.0
  1
ミツヤリミットロードファン
  0
TEXT
  5
53D3
  8
4
 10
15669.09708387582
 20
14583.332090720851
 30
0.0
 40
250.0
  1
LL#9-1
  0
TEXT
  5
53D5
  8
4
 10
13610.98634791728
 20
24914.67837598372
 30
0.0
 40
270.0
  1
床置ベット
  0
TEXT
  5
53D6
  8
4
 10
11316.662572595629
 20
25666.939050317629
 30
0.0
 40
360.0
  1
遠心式片吸込片持リミットロードファン
  0
LINE
  5
53D7
  8
4
 10
10985.824605948401
 20
25344.577940645158
 30
0.0
 11
18985.824605948401
 21
25344.577940645158
 31
0.0
  0
LINE
  5
53D8
  8
4
 10
10985.824605948401
 20
26344.577940645169
 30
0.0
 11
18985.824605948401
 21
26344.577940645169
 31
0.0
  0
LINE
  5
53D9
  8
4
 10
12985.824605948401
 20
15497.534169321139
 30
0.0
 11
18985.824605948401
 21
15497.534169321139
 31
0.0
  0
LINE
  5
53DA
  8
4
 10
10985.824605948401
 20
26344.577940645169
 30
0.0
 11
10985.824605948401
 21
25344.577940645158
 31
0.0
  0
TEXT
  5
53DB
  8
4
 10
11431.692186703771
 20
24909.13155705286
 30
0.0
 40
270.0
  1
左回転右横向
  0
TEXT
  5
53DC
  8
4
 10
17080.67240219485
 20
26527.83957679768
 30
0.0
 40
280.0
  1
No.
  0
TEXT
  5
53DD
  8
4
 10
17147.603829205171
 20
24418.413532973522
 30
0.0
 40
270.0
  1
縮尺：1/50
  0
LINE
  5
53DE
  8
4
 10
18985.824605948401
 20
26344.577940645169
 30
0.0
 11
18985.824605948401
 21
25344.577940645158
 31
0.0
  0
LINE
  5
53DF
  8
4
 10
20235.824605948401
 20
27747.534169321141
 30
0.0
 11
20235.824605948401
 21
27747.534169321141
 31
0.0
  0
LINE
  5
53E0
  8
4
 10
16938.91171774772
 20
26403.852084948139
 30
0.0
 11
16938.91171774772
 21
26930.7954770699
 31
0.0
  0
LINE
  5
53E1
  8
4
 10
16938.91171774772
 20
26930.7954770699
 30
0.0
 11
18985.824605948401
 21
26930.7954770699
 31
0.0
  0
LINE
  5
53E2
  8
4
 10
18985.824605948401
 20
26930.7954770699
 30
0.0
 11
18985.824605948401
 21
26403.852084948139
 31
0.0
  0
LINE
  5
53E3
  8
4
 10
18985.824605948401
 20
26403.852084948139
 30
0.0
 11
16938.91171774772
 21
26403.852084948139
 31
0.0
  0
LINE
  5
53E4
  8
4
 10
9735.8246059484045
 20
12997.534169321139
 30
0.0
 11
9735.8246059484045
 21
27747.534169321141
 31
0.0
  0
LINE
  5
53E5
  8
4
 10
9735.8246059484045
 20
27747.534169321141
 30
0.0
 11
20235.824605948401
 21
27747.534169321141
 31
0.0
  0
LINE
  5
53E6
  8
4
 10
20235.824605948401
 20
27747.534169321141
 30
0.0
 11
20235.824605948401
 21
12997.534169321139
 31
0.0
  0
LINE
  5
53E7
  8
4
 10
20235.824605948401
 20
12997.534169321139
 30
0.0
 11
9735.8246059484045
 21
12997.534169321139
 31
0.0
  0
ENDSEC
  0
EOF
