  0
SECTION
  2
HEADER
  9
$ACADVER
  1
AC1009
  9
$INSBASE
 10
0.0
 20
0.0
 30
0.0
  9
$EXTMIN
 10
7611.0269468803262
 20
16934.13278043125
 30
0.0
  9
$EXTMAX
 10
18111.02694688032
 20
31684.13278043126
 30
0.0
  9
$LIMMIN
 10
0.0
 20
0.0
  9
$LIMMAX
 10
420.0
 20
297.0
  9
$ORTHOMODE
 70
     0
  9
$REGENMODE
 70
     1
  9
$FILLMODE
 70
     1
  9
$QTEXTMODE
 70
     0
  9
$MIRRTEXT
 70
     0
  9
$DRAGMODE
 70
     2
  9
$LTSCALE
 40
150.0
  9
$OSMODE
 70
    37
  9
$ATTMODE
 70
     1
  9
$TEXTSIZE
 40
90.0
  9
$TRACEWID
 40
0.05
  9
$TEXTSTYLE
  7
STANDARD
  9
$CLAYER
  8
FUTO
  9
$CELTYPE
  6
BYLAYER
  9
$CECOLOR
 62
   256
  9
$DIMSCALE
 40
30.0
  9
$DIMASZ
 40
2.0
  9
$DIMEXO
 40
1.0
  9
$DIMDLI
 40
10.0
  9
$DIMRND
 40
0.0
  9
$DIMDLE
 40
0.0
  9
$DIMEXE
 40
1.0
  9
$DIMTP
 40
0.0
  9
$DIMTM
 40
0.0
  9
$DIMTXT
 40
3.0
  9
$DIMCEN
 40
0.0
  9
$DIMTSZ
 40
0.0
  9
$DIMTOL
 70
     0
  9
$DIMLIM
 70
     0
  9
$DIMTIH
 70
     0
  9
$DIMTOH
 70
     0
  9
$DIMSE1
 70
     0
  9
$DIMSE2
 70
     0
  9
$DIMTAD
 70
     1
  9
$DIMZIN
 70
     8
  9
$DIMBLK
  1
OPEN30
  9
$DIMASO
 70
     1
  9
$DIMSHO
 70
     1
  9
$DIMPOST
  1

  9
$DIMAPOST
  1

  9
$DIMALT
 70
     0
  9
$DIMALTD
 70
     2
  9
$DIMALTF
 40
0.03937
  9
$DIMLFAC
 40
1.0
  9
$DIMTOFL
 70
     1
  9
$DIMTVP
 40
0.0
  9
$DIMTIX
 70
     0
  9
$DIMSOXD
 70
     0
  9
$DIMSAH
 70
     0
  9
$DIMBLK1
  1

  9
$DIMBLK2
  1

  9
$DIMSTYLE
  2
MATSU
  9
$DIMCLRD
 70
     2
  9
$DIMCLRE
 70
     2
  9
$DIMCLRT
 70
     2
  9
$DIMTFAC
 40
1.0
  9
$DIMGAP
 40
0.5
  9
$LUNITS
 70
     2
  9
$LUPREC
 70
     1
  9
$SKETCHINC
 40
0.1
  9
$FILLETRAD
 40
0.0
  9
$AUNITS
 70
     0
  9
$AUPREC
 70
     0
  9
$MENU
  1
SSMENU
  9
$ELEVATION
 40
0.0
  9
$PELEVATION
 40
0.0
  9
$THICKNESS
 40
0.0
  9
$LIMCHECK
 70
     0
  9
$BLIPMODE
 70
     0
  9
$CHAMFERA
 40
20.0
  9
$CHAMFERB
 40
20.0
  9
$SKPOLY
 70
     0
  9
$TDCREATE
 40
2450714.9573032409
  9
$TDUPDATE
 40
2454953.6482698489
  9
$TDINDWG
 40
1.3815527198999999
  9
$TDUSRTIMER
 40
1.3815527198999999
  9
$USRTIMER
 70
     1
  9
$ANGBASE
 50
0.0
  9
$ANGDIR
 70
     0
  9
$PDMODE
 70
     0
  9
$PDSIZE
 40
1.0
  9
$PLINEWID
 40
0.0
  9
$COORDS
 70
     1
  9
$SPLFRAME
 70
     0
  9
$SPLINETYPE
 70
     6
  9
$SPLINESEGS
 70
     8
  9
$ATTDIA
 70
     0
  9
$ATTREQ
 70
     1
  9
$HANDLING
 70
 10241
  9
$HANDSEED
  5
53A4
  9
$SURFTAB1
 70
     6
  9
$SURFTAB2
 70
     6
  9
$SURFTYPE
 70
     6
  9
$SURFU
 70
     6
  9
$SURFV
 70
     6
  9
$UCSNAME
  2

  9
$UCSORG
 10
0.0
 20
0.0
 30
0.0
  9
$UCSXDIR
 10
1.0
 20
0.0
 30
0.0
  9
$UCSYDIR
 10
0.0
 20
1.0
 30
0.0
  9
$PUCSNAME
  2

  9
$PUCSORG
 10
0.0
 20
0.0
 30
0.0
  9
$PUCSXDIR
 10
1.0
 20
0.0
 30
0.0
  9
$PUCSYDIR
 10
0.0
 20
1.0
 30
0.0
  9
$USERI1
 70
     0
  9
$USERI2
 70
     0
  9
$USERI3
 70
     0
  9
$USERI4
 70
     0
  9
$USERI5
 70
     0
  9
$USERR1
 40
0.0
  9
$USERR2
 40
0.0
  9
$USERR3
 40
0.0
  9
$USERR4
 40
0.0
  9
$USERR5
 40
0.0
  9
$WORLDVIEW
 70
     1
  9
$SHADEDGE
 70
     3
  9
$SHADEDIF
 70
    70
  9
$TILEMODE
 70
     1
  9
$MAXACTVP
 70
    16
  9
$PLIMCHECK
 70
     0
  9
$PEXTMIN
 10
0.0
 20
0.0
 30
0.0
  9
$PEXTMAX
 10
12.561051004636781
 20
9.0
 30
0.0
  9
$PLIMMIN
 10
0.0
 20
0.0
  9
$PLIMMAX
 10
12.0
 20
9.0
  9
$UNITMODE
 70
     0
  9
$VISRETAIN
 70
     0
  9
$PLINEGEN
 70
     0
  9
$PSLTSCALE
 70
     0
  0
ENDSEC
  0
SECTION
  2
TABLES
  0
TABLE
  2
VPORT
 70
     2
  0
VPORT
  2
*ACTIVE
 70
     0
 10
0.0
 20
0.0
 11
1.0
 21
1.0
 12
17307.750691765501
 22
18552.449462966651
 13
0.0
 23
0.0
 14
5.0
 24
5.0
 15
0.0
 25
0.0
 16
0.0
 26
0.0
 36
1.0
 17
0.0
 27
0.0
 37
0.0
 40
4441.1167863702367
 41
3.1666666666666661
 42
50.0
 43
0.0
 44
0.0
 50
0.0
 51
0.0
 71
     0
 72
   500
 73
     1
 74
     0
 75
     0
 76
     0
 77
     0
 78
     0
  0
ENDTAB
  0
TABLE
  2
LTYPE
 70
     4
  0
LTYPE
  2
CONTINUOUS
 70
     0
  3
実線
 72
    65
 73
     0
 40
0.0
  0
LTYPE
  2
CENTER
 70
     0
  3
____ _ ____ _ ____ _ ____ _ ____ _ ____ _ ____ 
 72
    65
 73
     4
 40
2.0
 49
1.25
 49
-0.25
 49
0.25
 49
-0.25
  0
LTYPE
  2
HIDDEN
 70
     0
  3
__ __ __ __ __ __ __ __ __ __ __ __ __ __ __ __
 72
    65
 73
     2
 40
0.375
 49
0.25
 49
-0.125
  0
LTYPE
  2
PHANTOM
 70
     0
  3
______  __  __  ______  __  __  ______  __  __ 
 72
    65
 73
     6
 40
2.5
 49
1.25
 49
-0.25
 49
0.25
 49
-0.25
 49
0.25
 49
-0.25
  0
ENDTAB
  0
TABLE
  2
LAYER
 70
     9
  0
LAYER
  2
0
 70
     0
 62
     7
  6
CONTINUOUS
  0
LAYER
  2
FUTO
 70
     0
 62
     4
  6
CONTINUOUS
  0
LAYER
  2
CT
 70
     0
 62
     3
  6
CENTER
  0
LAYER
  2
HOSO
 70
     0
 62
     7
  6
CONTINUOUS
  0
LAYER
  2
KL
 70
     0
 62
     7
  6
HIDDEN
  0
LAYER
  2
SL
 70
     0
 62
     1
  6
PHANTOM
  0
LAYER
  2
SP
 70
     0
 62
     2
  6
CONTINUOUS
  0
LAYER
  2
DEFPOINTS
 70
     0
 62
     7
  6
CONTINUOUS
  0
LAYER
  2
4
 70
     0
 62
     7
  6
CONTINUOUS
  0
ENDTAB
  0
TABLE
  2
STYLE
 70
     2
  0
STYLE
  2
STANDARD
 70
     0
 40
0.0
 41
1.0
 50
15.0
 71
     0
 42
90.0
  3
SIMPLEX
  4
EXTFONT
  0
STYLE
  2
SUNPOU
 70
     0
 40
0.0
 41
1.0
 50
15.0
 71
     0
 42
5.0
  3
simplex.shx
  4
extfont.shx
  0
ENDTAB
  0
TABLE
  2
VIEW
 70
     0
  0
ENDTAB
  0
TABLE
  2
UCS
 70
     0
  0
ENDTAB
  0
TABLE
  2
APPID
 70
     1
  0
APPID
  2
ACAD
 70
     0
  0
ENDTAB
  0
TABLE
  2
DIMSTYLE
 70
     1
  0
DIMSTYLE
  2
MATSU
 70
     0
  3

  4

  5
CLOSED
  6

  7

 40
10.0
 41
2.0
 42
1.0
 43
10.0
 44
1.0
 45
0.0
 46
0.0
 47
0.0
 48
0.0
140
3.0
141
0.0
142
0.0
143
0.03937
144
1.0
145
0.0
146
1.0
147
0.5
 71
     0
 72
     0
 73
     0
 74
     0
 75
     0
 76
     0
 77
     1
 78
     8
170
     0
171
     2
172
     1
173
     0
174
     0
175
     0
176
   256
177
   256
178
   256
  0
ENDTAB
  0
ENDSEC
  0
SECTION
  2
BLOCKS
  0
BLOCK
  8
0
  2
$MODEL_SPACE
 70
     0
 10
0.0
 20
0.0
 30
0.0
  3
$MODEL_SPACE
  1

  0
ENDBLK
  5
7
  8
0
  0
BLOCK
 67
     1
  8
0
  2
$PAPER_SPACE
 70
     0
 10
0.0
 20
0.0
 30
0.0
  3
$PAPER_SPACE
  1

  0
ENDBLK
  5
A
 67
     1
  8
0
  0
BLOCK
  8
0
  2
まっすぐの矢印
 70
     0
 10
0.0
 20
0.0
 30
0.0
  3
まっすぐの矢印
  1

  0
LINE
  5
599
  8
SP
 10
13.01863531255526
 20
-41.453946163708451
 30
0.0
 11
13.01863531255526
 21
-93.495696758840026
 31
0.0
  0
LINE
  5
59A
  8
SP
 10
13.01863531255526
 20
-93.495696758840026
 30
0.0
 11
-13.01863531255526
 21
-93.495696758840026
 31
0.0
  0
LINE
  5
59B
  8
SP
 10
-13.01863531255526
 20
-93.495696758840026
 30
0.0
 11
-13.01863531255526
 21
-41.453946163708451
 31
0.0
  0
LINE
  5
59C
  8
SP
 10
-13.01863531255526
 20
-41.453946163708451
 30
0.0
 11
-32.06015471115802
 21
-41.453946163708451
 31
0.0
  0
LINE
  5
59D
  8
SP
 10
-32.06015471115802
 20
-41.453946163708451
 30
0.0
 11
0.0
 21
0.0
 31
0.0
  0
LINE
  5
59E
  8
SP
 10
0.0
 20
0.0
 30
0.0
 11
32.06015471115802
 21
-41.453946163708451
 31
0.0
  0
LINE
  5
59F
  8
SP
 10
32.06015471115802
 20
-41.453946163708451
 30
0.0
 11
13.01863531255526
 21
-41.453946163708451
 31
0.0
  0
ENDBLK
  5
5A1
  8
0
  0
BLOCK
  8
0
  2
左回転矢印
 70
     0
 10
0.0
 20
0.0
 30
0.0
  3
左回転矢印
  1

  0
LINE
  5
57C
  8
SP
 10
43.930449171819873
 20
24.859487323637271
 30
0.0
 11
38.511878498580238
 21
44.478978865188871
 31
0.0
  0
LINE
  5
57D
  8
SP
 10
38.511878498580238
 20
44.478978865188871
 30
0.0
 11
0.0
 21
0.0
 31
0.0
  0
LINE
  5
57E
  8
SP
 10
0.0
 20
0.0
 30
0.0
 11
52.57968174421967
 21
-6.4575435924972453
 31
0.0
  0
LINE
  5
57F
  8
SP
 10
52.57968174421967
 20
-6.4575435924972453
 30
0.0
 11
48.189912989015284
 21
9.436875093862227
 31
0.0
  0
ARC
  5
580
  8
SP
 10
93.893649146691985
 20
-156.0466295121104
 30
0.0
 40
171.67883327727239
 50
67.881388989212894
 51
105.4392492786835
  0
LINE
  5
581
  8
SP
 10
158.53505643637521
 20
2.997736182040398
 30
0.0
 11
164.55945966006539
 21
17.820238190756751
 31
0.0
  0
ARC
  5
582
  8
SP
 10
93.893649146692198
 20
-156.04662951211091
 30
0.0
 40
187.67883327727299
 50
67.881388989212994
 51
105.4392492786836
  0
ENDBLK
  5
584
  8
0
  0
BLOCK
  8
0
  2
*D2
 70
     1
 10
0.0
 20
0.0
 30
0.0
  3
*D2
  1

  0
LINE
  5
52DB
  8
FUTO
 62
     2
 10
10174.577018583919
 20
22669.16364631959
 30
0.0
 11
9874.689198179527
 21
22669.16364631959
 31
0.0
  0
LINE
  5
52DC
  8
FUTO
 62
     2
 10
10502.580997231251
 20
21429.16364631959
 30
0.0
 11
9874.689198179527
 21
21429.16364631959
 31
0.0
  0
LINE
  5
52DD
  8
FUTO
 62
     2
 10
9904.689198179527
 20
22609.16364631959
 30
0.0
 11
9904.689198179527
 21
21489.16364631959
 31
0.0
  0
INSERT
  5
52DE
  8
FUTO
 62
     2
  2
_OPEN30
 10
9904.689198179527
 20
22669.16364631959
 30
0.0
 41
60.0
 42
60.0
 43
60.0
 50
90.0
  0
INSERT
  5
52DF
  8
FUTO
 62
     2
  2
_OPEN30
 10
9904.689198179527
 20
21429.16364631959
 30
0.0
 41
60.0
 42
60.0
 43
60.0
 50
270.0
  0
TEXT
  8
0
  40
90
  5
5383
  62
2
  72
0
  71
0
 10
9664.69
 20
21889.9
 30
0.000000
  1
1240
  7
SUNPOU
  0
POINT
  5
52E1
  8
DEFPOINTS
 62
     0
 10
10204.577018583919
 20
22669.16364631959
 30
0.0
  0
POINT
  5
52E2
  8
DEFPOINTS
 62
     0
 10
10532.58099723124
 20
21429.16364631959
 30
0.0
  0
POINT
  5
52E3
  8
DEFPOINTS
 62
     0
 10
9904.689198179527
 20
21429.16364631959
 30
0.0
  0
ENDBLK
  5
2BCE
  8
0
  0
BLOCK
  8
0
  2
*D3
 70
     1
 10
0.0
 20
0.0
 30
0.0
  3
*D3
  1

  0
LINE
  5
52E4
  8
FUTO
 62
     2
 10
11382.58099723124
 20
21372.081495275841
 30
0.0
 11
11382.58099723124
 21
21159.863786354559
 31
0.0
  0
LINE
  5
52E5
  8
FUTO
 62
     2
 10
12932.58099723124
 20
21324.16364631959
 30
0.0
 11
12932.58099723124
 21
21159.863786354559
 31
0.0
  0
LINE
  5
52E6
  8
FUTO
 62
     2
 10
11442.58099723124
 20
21189.863786354559
 30
0.0
 11
12872.58099723124
 21
21189.863786354559
 31
0.0
  0
INSERT
  5
52E7
  8
FUTO
 62
     2
  2
_OPEN30
 10
11382.58099723124
 20
21189.863786354559
 30
0.0
 41
60.0
 42
60.0
 43
60.0
 50
180.0
  0
INSERT
  5
52E8
  8
FUTO
 62
     2
  2
_OPEN30
 10
12932.58099723124
 20
21189.863786354559
 30
0.0
 41
60.0
 42
60.0
 43
60.0
  0
TEXT
  8
0
  40
90
  5
5384
  62
2
  72
0
  71
0
 10
11977.6
 20
21090.6
 30
0.000000
  1
1550
  7
SUNPOU
  0
POINT
  5
52EA
  8
DEFPOINTS
 62
     0
 10
11382.58099723124
 20
21402.081495275841
 30
0.0
  0
POINT
  5
52EB
  8
DEFPOINTS
 62
     0
 10
12932.58099723124
 20
21354.16364631959
 30
0.0
  0
POINT
  5
52EC
  8
DEFPOINTS
 62
     0
 10
12932.58099723124
 20
21189.863786354559
 30
0.0
  0
ENDBLK
  5
3643
  8
0
  0
BLOCK
  8
0
  2
*D4
 70
     1
 10
0.0
 20
0.0
 30
0.0
  3
*D4
  1

  0
LINE
  5
52ED
  8
FUTO
 62
     2
 10
12932.58099723124
 20
21399.16364631959
 30
0.0
 11
12932.58099723124
 21
20976.946469370479
 31
0.0
  0
LINE
  5
52EE
  8
FUTO
 62
     2
 10
10532.58099723124
 20
21399.16364631959
 30
0.0
 11
10532.58099723124
 21
20976.946469370479
 31
0.0
  0
LINE
  5
52EF
  8
FUTO
 62
     2
 10
12872.58099723124
 20
21006.946469370479
 30
0.0
 11
10592.58099723124
 21
21006.946469370479
 31
0.0
  0
INSERT
  5
52F0
  8
FUTO
 62
     2
  2
_OPEN30
 10
12932.58099723124
 20
21006.946469370479
 30
0.0
 41
60.0
 42
60.0
 43
60.0
  0
INSERT
  5
52F1
  8
FUTO
 62
     2
  2
_OPEN30
 10
10532.58099723124
 20
21006.946469370479
 30
0.0
 41
60.0
 42
60.0
 43
60.0
 50
180.0
  0
TEXT
  8
0
  40
90
  5
5385
  62
2
  72
0
  71
0
 10
11552.6
 20
20907.6
 30
0.000000
  1
2400
  7
SUNPOU
  0
POINT
  5
52F3
  8
DEFPOINTS
 62
     0
 10
12932.58099723124
 20
21429.16364631959
 30
0.0
  0
POINT
  5
52F4
  8
DEFPOINTS
 62
     0
 10
10532.58099723124
 20
21429.16364631959
 30
0.0
  0
POINT
  5
52F5
  8
DEFPOINTS
 62
     0
 10
10532.58099723124
 20
21006.946469370479
 30
0.0
  0
ENDBLK
  5
3638
  8
0
  0
BLOCK
  8
0
  2
*D5
 70
     1
 10
0.0
 20
0.0
 30
0.0
  3
*D5
  1

  0
LINE
  5
52F6
  8
FUTO
 62
     2
 10
11382.58099723124
 20
21372.081495275841
 30
0.0
 11
11382.58099723124
 21
21159.863786354559
 31
0.0
  0
LINE
  5
52F7
  8
FUTO
 62
     2
 10
10532.58099723124
 20
21324.16364631959
 30
0.0
 11
10532.58099723124
 21
21159.863786354559
 31
0.0
  0
LINE
  5
52F8
  8
FUTO
 62
     2
 10
11322.58099723124
 20
21189.863786354559
 30
0.0
 11
10592.58099723124
 21
21189.863786354559
 31
0.0
  0
INSERT
  5
52F9
  8
FUTO
 62
     2
  2
_OPEN30
 10
11382.58099723124
 20
21189.863786354559
 30
0.0
 41
60.0
 42
60.0
 43
60.0
  0
INSERT
  5
52FA
  8
FUTO
 62
     2
  2
_OPEN30
 10
10532.58099723124
 20
21189.863786354559
 30
0.0
 41
60.0
 42
60.0
 43
60.0
 50
180.0
  0
TEXT
  8
0
  40
90
  5
5386
  62
2
  72
0
  71
0
 10
10777.6
 20
21090.6
 30
0.000000
  1
850
  7
SUNPOU
  0
POINT
  5
52FC
  8
DEFPOINTS
 62
     0
 10
11382.58099723124
 20
21402.081495275841
 30
0.0
  0
POINT
  5
52FD
  8
DEFPOINTS
 62
     0
 10
10532.58099723124
 20
21354.16364631959
 30
0.0
  0
POINT
  5
52FE
  8
DEFPOINTS
 62
     0
 10
10532.58099723124
 20
21189.863786354559
 30
0.0
  0
ENDBLK
  5
3667
  8
0
  0
BLOCK
  8
0
  2
*D6
 70
     1
 10
0.0
 20
0.0
 30
0.0
  3
*D6
  1

  0
LINE
  5
5327
  8
FUTO
 62
     2
 10
10174.577018583919
 20
22669.16364631959
 30
0.0
 11
9874.689198179527
 21
22669.16364631959
 31
0.0
  0
LINE
  5
5328
  8
FUTO
 62
     2
 10
11360.598797192481
 20
23599.16364631959
 30
0.0
 11
9874.689198179527
 21
23599.16364631959
 31
0.0
  0
LINE
  5
5329
  8
FUTO
 62
     2
 10
9904.689198179527
 20
22729.16364631959
 30
0.0
 11
9904.689198179527
 21
23539.16364631959
 31
0.0
  0
INSERT
  5
532A
  8
FUTO
 62
     2
  2
_OPEN30
 10
9904.689198179527
 20
22669.16364631959
 30
0.0
 41
60.0
 42
60.0
 43
60.0
 50
270.0
  0
INSERT
  5
532B
  8
FUTO
 62
     2
  2
_OPEN30
 10
9904.689198179527
 20
23599.16364631959
 30
0.0
 41
60.0
 42
60.0
 43
60.0
 50
90.0
  0
TEXT
  8
0
  40
90
  5
5387
  62
2
  72
0
  71
0
 10
9664.69
 20
22974.9
 30
0.000000
  1
930
  7
SUNPOU
  0
POINT
  5
532D
  8
DEFPOINTS
 62
     0
 10
10204.577018583919
 20
22669.16364631959
 30
0.0
  0
POINT
  5
532E
  8
DEFPOINTS
 62
     0
 10
11390.598797192481
 20
23599.16364631959
 30
0.0
  0
POINT
  5
532F
  8
DEFPOINTS
 62
     0
 10
9904.689198179527
 20
23599.16364631959
 30
0.0
  0
ENDBLK
  5
2BF1
  8
0
  0
BLOCK
  8
0
  2
*D7
 70
     1
 10
0.0
 20
0.0
 30
0.0
  3
*D7
  1

  0
LINE
  5
5330
  8
FUTO
 62
     2
 10
13964.839984154531
 20
21399.16364631959
 30
0.0
 11
13964.839984154531
 21
20981.12972407764
 31
0.0
  0
LINE
  5
5331
  8
FUTO
 62
     2
 10
16164.839984154531
 20
21399.16364631959
 30
0.0
 11
16164.839984154531
 21
20981.12972407764
 31
0.0
  0
LINE
  5
5332
  8
FUTO
 62
     2
 10
14024.839984154531
 20
21011.12972407764
 30
0.0
 11
16104.839984154531
 21
21011.12972407764
 31
0.0
  0
INSERT
  5
5333
  8
FUTO
 62
     2
  2
_OPEN30
 10
13964.839984154531
 20
21011.12972407764
 30
0.0
 41
60.0
 42
60.0
 43
60.0
 50
180.0
  0
INSERT
  5
5334
  8
FUTO
 62
     2
  2
_OPEN30
 10
16164.839984154531
 20
21011.12972407764
 30
0.0
 41
60.0
 42
60.0
 43
60.0
  0
TEXT
  8
0
  40
90
  5
5388
  62
2
  72
0
  71
0
 10
14884.8
 20
20911.8
 30
0.000000
  1
2200
  7
SUNPOU
  0
POINT
  5
5336
  8
DEFPOINTS
 62
     0
 10
13964.839984154531
 20
21429.16364631959
 30
0.0
  0
POINT
  5
5337
  8
DEFPOINTS
 62
     0
 10
16164.839984154531
 20
21429.16364631959
 30
0.0
  0
POINT
  5
5338
  8
DEFPOINTS
 62
     0
 10
16164.839984154531
 20
21011.12972407764
 30
0.0
  0
ENDBLK
  5
34E6
  8
0
  0
BLOCK
  8
0
  2
*D8
 70
     1
 10
0.0
 20
0.0
 30
0.0
  3
*D8
  1

  0
LINE
  5
5339
  8
FUTO
 62
     2
 10
15552.839984154531
 20
21399.16364631959
 30
0.0
 11
15552.839984154531
 21
21162.460165335218
 31
0.0
  0
LINE
  5
533A
  8
FUTO
 62
     2
 10
16164.839984154531
 20
21399.16364631959
 30
0.0
 11
16164.839984154531
 21
21162.460165335218
 31
0.0
  0
LINE
  5
533B
  8
FUTO
 62
     2
 10
15612.839984154531
 20
21192.460165335218
 30
0.0
 11
16104.839984154531
 21
21192.460165335218
 31
0.0
  0
INSERT
  5
533C
  8
FUTO
 62
     2
  2
_OPEN30
 10
15552.839984154531
 20
21192.460165335218
 30
0.0
 41
60.0
 42
60.0
 43
60.0
 50
180.0
  0
INSERT
  5
533D
  8
FUTO
 62
     2
  2
_OPEN30
 10
16164.839984154531
 20
21192.460165335218
 30
0.0
 41
60.0
 42
60.0
 43
60.0
  0
TEXT
  8
0
  40
90
  5
5389
  62
2
  72
0
  71
0
 10
15678.8
 20
21093.2
 30
0.000000
  1
612
  7
SUNPOU
  0
POINT
  5
533F
  8
DEFPOINTS
 62
     0
 10
15552.839984154531
 20
21429.16364631959
 30
0.0
  0
POINT
  5
5340
  8
DEFPOINTS
 62
     0
 10
16164.839984154531
 20
21429.16364631959
 30
0.0
  0
POINT
  5
5341
  8
DEFPOINTS
 62
     0
 10
16164.839984154531
 20
21192.460165335218
 30
0.0
  0
ENDBLK
  5
393A
  8
0
  0
BLOCK
  8
0
  2
*D9
 70
     1
 10
0.0
 20
0.0
 30
0.0
  3
*D9
  1

  0
LINE
  5
5342
  8
FUTO
 62
     2
 10
15552.839984154531
 20
21399.16364631959
 30
0.0
 11
15552.839984154531
 21
21162.465406257819
 31
0.0
  0
LINE
  5
5343
  8
FUTO
 62
     2
 10
13964.839984154531
 20
21399.16364631959
 30
0.0
 11
13964.839984154531
 21
21162.465406257819
 31
0.0
  0
LINE
  5
5344
  8
FUTO
 62
     2
 10
15492.839984154531
 20
21192.465406257819
 30
0.0
 11
14024.839984154531
 21
21192.465406257819
 31
0.0
  0
INSERT
  5
5345
  8
FUTO
 62
     2
  2
_OPEN30
 10
15552.839984154531
 20
21192.465406257819
 30
0.0
 41
60.0
 42
60.0
 43
60.0
  0
INSERT
  5
5346
  8
FUTO
 62
     2
  2
_OPEN30
 10
13964.839984154531
 20
21192.465406257819
 30
0.0
 41
60.0
 42
60.0
 43
60.0
 50
180.0
  0
TEXT
  8
0
  40
90
  5
538A
  62
2
  72
0
  71
0
 10
14578.8
 20
21093.2
 30
0.000000
  1
1588
  7
SUNPOU
  0
POINT
  5
5348
  8
DEFPOINTS
 62
     0
 10
15552.839984154531
 20
21429.16364631959
 30
0.0
  0
POINT
  5
5349
  8
DEFPOINTS
 62
     0
 10
13964.839984154531
 20
21429.16364631959
 30
0.0
  0
POINT
  5
534A
  8
DEFPOINTS
 62
     0
 10
13964.839984154531
 20
21192.465406257819
 30
0.0
  0
ENDBLK
  5
3947
  8
0
  0
BLOCK
  8
0
  2
_CLOSED
 70
     0
 10
0.0
 20
0.0
 30
0.0
  3
_CLOSED
  1

  0
LINE
  5
3BE3
  8
0
  6
BYBLOCK
 62
     0
 10
-1.0
 20
0.1666666666666666
 30
0.0
 11
0.0
 21
0.0
 31
0.0
  0
LINE
  5
3BE4
  8
0
  6
BYBLOCK
 62
     0
 10
0.0
 20
0.0
 30
0.0
 11
-1.0
 21
-0.1666666666666666
 31
0.0
  0
LINE
  5
3BE5
  8
0
  6
BYBLOCK
 62
     0
 10
-1.0
 20
0.1666666666666666
 30
0.0
 11
-1.0
 21
-0.1666666666666666
 31
0.0
  0
ENDBLK
  5
3BE6
  8
0
  0
BLOCK
  8
0
  2
*D11
 70
     1
 10
0.0
 20
0.0
 30
0.0
  3
*D11
  1

  0
LINE
  5
534E
  8
SP
 62
     2
 10
13732.839984154531
 20
23079.16364631959
 30
0.0
 11
13732.839984154531
 21
24104.147204765912
 31
0.0
  0
LINE
  5
534F
  8
SP
 62
     2
 10
15552.839984154531
 20
23979.76011042525
 30
0.0
 11
15552.839984154531
 21
24104.147204765912
 31
0.0
  0
LINE
  5
5350
  8
SP
 62
     2
 10
13792.839984154531
 20
24074.147204765912
 30
0.0
 11
15492.839984154531
 21
24074.147204765912
 31
0.0
  0
INSERT
  5
5351
  8
SP
 62
     2
  2
_OPEN30
 10
13732.839984154531
 20
24074.147204765912
 30
0.0
 41
60.0
 42
60.0
 43
60.0
 50
180.0
  0
INSERT
  5
5352
  8
SP
 62
     2
  2
_OPEN30
 10
15552.839984154531
 20
24074.147204765912
 30
0.0
 41
60.0
 42
60.0
 43
60.0
  0
TEXT
  8
0
  40
90
  5
538B
  62
2
  72
0
  71
0
 10
14462.8
 20
23974.8
 30
0.000000
  1
1820
  7
SUNPOU
  0
POINT
  5
5354
  8
DEFPOINTS
 62
     0
 10
13732.839984154531
 20
23049.16364631959
 30
0.0
  0
POINT
  5
5355
  8
DEFPOINTS
 62
     0
 10
15552.839984154531
 20
23949.760110425239
 30
0.0
  0
POINT
  5
5356
  8
DEFPOINTS
 62
     0
 10
15552.839984154531
 20
24074.147204765912
 30
0.0
  0
ENDBLK
  5
3C57
  8
0
  0
BLOCK
  8
0
  2
*D12
 70
     1
 10
0.0
 20
0.0
 30
0.0
  3
*D12
  1

  0
LINE
  5
5357
  8
FUTO
 62
     2
 10
12927.58099723124
 20
23629.16364631959
 30
0.0
 11
12927.58099723124
 21
23962.994029868831
 31
0.0
  0
LINE
  5
5358
  8
FUTO
 62
     2
 10
11382.58099723124
 20
23700.725040639551
 30
0.0
 11
11382.58099723124
 21
23962.994029868831
 31
0.0
  0
LINE
  5
5359
  8
FUTO
 62
     2
 10
12867.58099723124
 20
23932.994029868831
 30
0.0
 11
11442.58099723124
 21
23932.994029868831
 31
0.0
  0
INSERT
  5
535A
  8
FUTO
 62
     2
  2
_OPEN30
 10
12927.58099723124
 20
23932.994029868831
 30
0.0
 41
60.0
 42
60.0
 43
60.0
  0
INSERT
  5
535B
  8
FUTO
 62
     2
  2
_OPEN30
 10
11382.58099723124
 20
23932.994029868831
 30
0.0
 41
60.0
 42
60.0
 43
60.0
 50
180.0
  0
TEXT
  8
0
  40
90
  5
538C
  62
2
  72
0
  71
0
 10
11975.1
 20
23833.7
 30
0.000000
  1
1545
  7
SUNPOU
  0
POINT
  5
535D
  8
DEFPOINTS
 62
     0
 10
12927.58099723124
 20
23599.16364631959
 30
0.0
  0
POINT
  5
535E
  8
DEFPOINTS
 62
     0
 10
11382.58099723124
 20
23670.725040639551
 30
0.0
  0
POINT
  5
535F
  8
DEFPOINTS
 62
     0
 10
11382.58099723124
 20
23932.994029868831
 30
0.0
  0
ENDBLK
  5
4374
  8
0
  0
BLOCK
  8
0
  2
*D13
 70
     1
 10
0.0
 20
0.0
 30
0.0
  3
*D13
  1

  0
LINE
  5
52FF
  8
FUTO
 62
     2
 10
16216.839984154531
 20
23369.16364631959
 30
0.0
 11
16582.44984591076
 21
23369.16364631959
 31
0.0
  0
LINE
  5
5300
  8
FUTO
 62
     2
 10
16216.839984154531
 20
21969.16364631959
 30
0.0
 11
16582.44984591076
 21
21969.16364631959
 31
0.0
  0
LINE
  5
5301
  8
FUTO
 62
     2
 10
16552.44984591076
 20
23309.16364631959
 30
0.0
 11
16552.44984591076
 21
22029.16364631959
 31
0.0
  0
INSERT
  5
5302
  8
FUTO
 62
     2
  2
_OPEN30
 10
16552.44984591076
 20
23369.16364631959
 30
0.0
 41
60.0
 42
60.0
 43
60.0
 50
90.0
  0
INSERT
  5
5303
  8
FUTO
 62
     2
  2
_OPEN30
 10
16552.44984591076
 20
21969.16364631959
 30
0.0
 41
60.0
 42
60.0
 43
60.0
 50
270.0
  0
TEXT
  8
0
  40
90
  5
538D
  62
2
  72
0
  71
0
 10
16312.4
 20
22509.9
 30
0.000000
  1
%%C1400
  7
SUNPOU
  0
POINT
  5
5305
  8
DEFPOINTS
 62
     0
 10
16186.839984154531
 20
23369.16364631959
 30
0.0
  0
POINT
  5
5306
  8
DEFPOINTS
 62
     0
 10
16186.839984154531
 20
21969.16364631959
 30
0.0
  0
POINT
  5
5307
  8
DEFPOINTS
 62
     0
 10
16552.44984591076
 20
21969.16364631959
 30
0.0
  0
ENDBLK
  5
4473
  8
0
  0
BLOCK
  8
0
  2
*D14
 70
     1
 10
0.0
 20
0.0
 30
0.0
  3
*D14
  1

  0
LINE
  5
5308
  8
FUTO
 62
     2
 10
15552.839984154531
 20
23949.760110425239
 30
0.0
 11
15552.839984154531
 21
24104.147204765912
 31
0.0
  0
LINE
  5
5309
  8
FUTO
 62
     2
 10
16186.839984154531
 20
23449.16364631959
 30
0.0
 11
16186.839984154531
 21
24104.147204765912
 31
0.0
  0
LINE
  5
530A
  8
FUTO
 62
     2
 10
15612.839984154531
 20
24074.147204765912
 30
0.0
 11
16126.839984154531
 21
24074.147204765912
 31
0.0
  0
INSERT
  5
530B
  8
FUTO
 62
     2
  2
_OPEN30
 10
15552.839984154531
 20
24074.147204765912
 30
0.0
 41
60.0
 42
60.0
 43
60.0
 50
180.0
  0
INSERT
  5
530C
  8
FUTO
 62
     2
  2
_OPEN30
 10
16186.839984154531
 20
24074.147204765912
 30
0.0
 41
60.0
 42
60.0
 43
60.0
  0
TEXT
  8
0
  40
90
  5
538E
  62
2
  72
0
  71
0
 10
15689.8
 20
23974.8
 30
0.000000
  1
634
  7
SUNPOU
  0
POINT
  5
530E
  8
DEFPOINTS
 62
     0
 10
15552.839984154531
 20
23919.76011042525
 30
0.0
  0
POINT
  5
530F
  8
DEFPOINTS
 62
     0
 10
16186.839984154531
 20
23419.16364631959
 30
0.0
  0
POINT
  5
5310
  8
DEFPOINTS
 62
     0
 10
16186.839984154531
 20
24074.147204765912
 30
0.0
  0
ENDBLK
  5
447F
  8
0
  0
BLOCK
  8
0
  2
*D15
 70
     1
 10
0.0
 20
0.0
 30
0.0
  3
*D15
  1

  0
LINE
  5
5311
  8
FUTO
 62
     2
 10
15022.839984154531
 20
23579.16364631959
 30
0.0
 11
15022.839984154531
 21
23842.286638413942
 31
0.0
  0
LINE
  5
5312
  8
FUTO
 62
     2
 10
16082.839984154531
 20
23579.16364631959
 30
0.0
 11
16082.839984154531
 21
23842.286638413942
 31
0.0
  0
LINE
  5
5313
  8
FUTO
 62
     2
 10
15082.839984154531
 20
23812.286638413942
 30
0.0
 11
16022.839984154531
 21
23812.286638413942
 31
0.0
  0
INSERT
  5
5314
  8
FUTO
 62
     2
  2
_OPEN30
 10
15022.839984154531
 20
23812.286638413942
 30
0.0
 41
60.0
 42
60.0
 43
60.0
 50
180.0
  0
INSERT
  5
5315
  8
FUTO
 62
     2
  2
_OPEN30
 10
16082.839984154531
 20
23812.286638413942
 30
0.0
 41
60.0
 42
60.0
 43
60.0
  0
TEXT
  8
0
  40
90
  5
538F
  62
2
  72
0
  71
0
 10
15372.8
 20
23713.0
 30
0.000000
  1
1060
  7
SUNPOU
  0
POINT
  5
5317
  8
DEFPOINTS
 62
     0
 10
15022.839984154531
 20
23549.16364631959
 30
0.0
  0
POINT
  5
5318
  8
DEFPOINTS
 62
     0
 10
16082.839984154531
 20
23549.16364631959
 30
0.0
  0
POINT
  5
5319
  8
DEFPOINTS
 62
     0
 10
16082.839984154531
 20
23812.286638413942
 30
0.0
  0
ENDBLK
  5
448B
  8
0
  0
BLOCK
  8
0
  2
_OPEN30
 70
     0
 10
0.0
 20
0.0
 30
0.0
  3
_OPEN30
  1

  0
LINE
  5
44D6
  8
FUTO
 62
     0
 10
-1.0
 20
0.26794919
 30
0.0
 11
0.0
 21
0.0
 31
0.0
  0
LINE
  5
44D7
  8
FUTO
 62
     0
 10
0.0
 20
0.0
 30
0.0
 11
-1.0
 21
-0.26794919
 31
0.0
  0
LINE
  5
44D8
  8
FUTO
 62
     0
 10
0.0
 20
0.0
 30
0.0
 11
-1.0
 21
0.0
 31
0.0
  0
ENDBLK
  5
44DA
  8
0
  0
BLOCK
  8
0
  2
*D17
 70
     1
 10
0.0
 20
0.0
 30
0.0
  3
*D17
  1

  0
LINE
  5
5360
  8
FUTO
 62
     2
 10
11382.58099723124
 20
27309.424920163099
 30
0.0
 11
11382.58099723124
 21
27412.988165706389
 31
0.0
  0
LINE
  5
5361
  8
FUTO
 62
     2
 10
10329.58099723124
 20
26978.552342513511
 30
0.0
 11
10329.58099723124
 21
27412.988165706389
 31
0.0
  0
LINE
  5
5362
  8
FUTO
 62
     2
 10
11322.58099723124
 20
27382.988165706389
 30
0.0
 11
10389.58099723124
 21
27382.988165706389
 31
0.0
  0
INSERT
  5
5363
  8
FUTO
 62
     2
  2
_OPEN30
 10
11382.58099723124
 20
27382.988165706389
 30
0.0
 41
60.0
 42
60.0
 43
60.0
  0
INSERT
  5
5364
  8
FUTO
 62
     2
  2
_OPEN30
 10
10329.58099723124
 20
27382.988165706389
 30
0.0
 41
60.0
 42
60.0
 43
60.0
 50
180.0
  0
TEXT
  8
0
  40
90
  5
5390
  62
2
  72
0
  71
0
 10
10676.1
 20
27283.7
 30
0.000000
  1
1053
  7
SUNPOU
  0
POINT
  5
5366
  8
DEFPOINTS
 62
     0
 10
11382.58099723124
 20
27279.424920163099
 30
0.0
  0
POINT
  5
5367
  8
DEFPOINTS
 62
     0
 10
10329.58099723124
 20
26948.552342513511
 30
0.0
  0
POINT
  5
5368
  8
DEFPOINTS
 62
     0
 10
10329.58099723124
 20
27382.988165706389
 30
0.0
  0
ENDBLK
  5
45A7
  8
0
  0
BLOCK
  8
0
  2
*D18
 70
     1
 10
0.0
 20
0.0
 30
0.0
  3
*D18
  1

  0
LINE
  5
5369
  8
FUTO
 62
     2
 10
11382.58099723124
 20
27309.424920163099
 30
0.0
 11
11382.58099723124
 21
27412.988165706389
 31
0.0
  0
LINE
  5
536A
  8
FUTO
 62
     2
 10
12932.58099723124
 20
25783.5523425135
 30
0.0
 11
12932.58099723124
 21
27412.988165706389
 31
0.0
  0
LINE
  5
536B
  8
FUTO
 62
     2
 10
11442.58099723124
 20
27382.988165706389
 30
0.0
 11
12872.58099723124
 21
27382.988165706389
 31
0.0
  0
INSERT
  5
536C
  8
FUTO
 62
     2
  2
_OPEN30
 10
11382.58099723124
 20
27382.988165706389
 30
0.0
 41
60.0
 42
60.0
 43
60.0
 50
180.0
  0
INSERT
  5
536D
  8
FUTO
 62
     2
  2
_OPEN30
 10
12932.58099723124
 20
27382.988165706389
 30
0.0
 41
60.0
 42
60.0
 43
60.0
  0
TEXT
  8
0
  40
90
  5
5391
  62
2
  72
0
  71
0
 10
11977.6
 20
27283.7
 30
0.000000
  1
1550
  7
SUNPOU
  0
POINT
  5
536F
  8
DEFPOINTS
 62
     0
 10
11382.58099723124
 20
27279.424920163099
 30
0.0
  0
POINT
  5
5370
  8
DEFPOINTS
 62
     0
 10
12932.58099723124
 20
25753.5523425135
 30
0.0
  0
POINT
  5
5371
  8
DEFPOINTS
 62
     0
 10
12932.58099723124
 20
27382.988165706389
 30
0.0
  0
ENDBLK
  5
45B4
  8
0
  0
BLOCK
  8
0
  2
*D19
 70
     1
 10
0.0
 20
0.0
 30
0.0
  3
*D19
  1

  0
LINE
  5
5372
  8
FUTO
 62
     2
 10
10175.06099665173
 20
26364.5523425135
 30
0.0
 11
9942.2750943913779
 21
26364.5523425135
 31
0.0
  0
LINE
  5
5373
  8
FUTO
 62
     2
 10
10602.580997231251
 20
26998.5523425135
 30
0.0
 11
9942.2750943913779
 21
26998.5523425135
 31
0.0
  0
LINE
  5
5374
  8
FUTO
 62
     2
 10
9972.2750943913779
 20
26424.5523425135
 30
0.0
 11
9972.2750943913779
 21
26938.5523425135
 31
0.0
  0
INSERT
  5
5375
  8
FUTO
 62
     2
  2
_OPEN30
 10
9972.2750943913779
 20
26364.5523425135
 30
0.0
 41
60.0
 42
60.0
 43
60.0
 50
270.0
  0
INSERT
  5
5376
  8
FUTO
 62
     2
  2
_OPEN30
 10
9972.2750943913779
 20
26998.5523425135
 30
0.0
 41
60.0
 42
60.0
 43
60.0
 50
90.0
  0
TEXT
  8
0
  40
90
  5
5392
  62
2
  72
0
  71
0
 10
9732.28
 20
26522.3
 30
0.000000
  1
634
  7
SUNPOU
  0
POINT
  5
5378
  8
DEFPOINTS
 62
     0
 10
10205.06099665172
 20
26364.5523425135
 30
0.0
  0
POINT
  5
5379
  8
DEFPOINTS
 62
     0
 10
10632.58099723124
 20
26998.5523425135
 30
0.0
  0
POINT
  5
537A
  8
DEFPOINTS
 62
     0
 10
9972.2750943913779
 20
26998.5523425135
 30
0.0
  0
ENDBLK
  5
45C1
  8
0
  0
BLOCK
  8
0
  2
*D20
 70
     1
 10
0.0
 20
0.0
 30
0.0
  3
*D20
  1

  0
LINE
  5
537B
  8
FUTO
 62
     2
 10
10972.58099723124
 20
24544.552342513511
 30
0.0
 11
9942.2750943913779
 21
24544.552342513511
 31
0.0
  0
LINE
  5
537C
  8
FUTO
 62
     2
 10
9972.2750943913779
 20
26304.5523425135
 30
0.0
 11
9972.2750943913779
 21
24604.5523425135
 31
0.0
  0
INSERT
  5
537D
  8
FUTO
 62
     2
  2
_OPEN30
 10
9972.2750943913779
 20
26364.5523425135
 30
0.0
 41
60.0
 42
60.0
 43
60.0
 50
90.0
  0
INSERT
  5
537E
  8
FUTO
 62
     2
  2
_OPEN30
 10
9972.2750943913779
 20
24544.552342513511
 30
0.0
 41
60.0
 42
60.0
 43
60.0
 50
270.0
  0
TEXT
  8
0
  40
90
  5
5393
  62
2
  72
0
  71
0
 10
9732.28
 20
25295.3
 30
0.000000
  1
1820
  7
SUNPOU
  0
POINT
  5
5380
  8
DEFPOINTS
 62
     0
 10
9972.2750943913779
 20
26364.5523425135
 30
0.0
  0
POINT
  5
5381
  8
DEFPOINTS
 62
     0
 10
11002.580997231251
 20
24544.552342513511
 30
0.0
  0
POINT
  5
5382
  8
DEFPOINTS
 62
     0
 10
9972.2750943913779
 20
24544.552342513511
 30
0.0
  0
ENDBLK
  5
45CD
  8
0
  0
ENDSEC
  0
SECTION
  2
ENTITIES
  0
LINE
  5
42
  8
FUTO
 10
13964.839984154531
 20
21429.16364631959
 30
0.0
 11
16164.839984154531
 21
21429.16364631959
 31
0.0
1001
ACAD
1000
ASC_BOUNDS
1002
{
1070
    19
1005
3975
1002
}
  0
LINE
  5
116
  8
FUTO
 10
14881.839984154531
 20
22714.16364631959
 30
0.0
 11
14943.339984154531
 21
22714.16364631959
 31
0.0
  0
LINE
  5
117
  8
FUTO
 10
14881.839984154531
 20
22624.16364631959
 30
0.0
 11
14944.63998415453
 21
22624.16364631959
 31
0.0
  0
LINE
  5
118
  8
FUTO
 10
13965.839984154531
 20
21579.16364631959
 30
0.0
 11
16165.03998415453
 21
21579.16364631959
 31
0.0
  0
LINE
  5
119
  8
CT
 10
13681.98985066915
 20
22669.16364631959
 30
0.0
 11
16280.167462126539
 21
22669.16364631959
 31
0.0
  0
ARC
  5
11C
  8
FUTO
 10
11484.580997231251
 20
22567.16364631959
 30
0.0
 40
1125.0
 50
175.25813759379739
 51
238.05363545715079
  0
LINE
  5
14C
  8
SL
 10
13942.839984154531
 20
22749.16364631959
 30
0.0
 11
13942.839984154531
 21
22589.16364631959
 31
0.0
  0
LINE
  5
162
  8
CT
 10
14102.839984154531
 20
22787.667143279708
 30
0.0
 11
14102.839984154531
 21
22506.33301453288
 31
0.0
  0
LINE
  5
163
  8
CT
 10
11237.58099723124
 20
22559.16364631959
 30
0.0
 11
11237.58099723124
 21
22613.16364631959
 31
0.0
  0
ARC
  5
164
  8
FUTO
 10
11271.58099723124
 20
22619.16364631959
 30
0.0
 40
16.0
 50
270.0
 51
0.000000000000007
  0
ARC
  5
165
  8
FUTO
 10
11382.580997231251
 20
22669.16364631959
 30
0.0
 40
95.000000000000071
 50
209.9999999999994
 51
230.94387397238239
  0
ARC
  5
168
  8
FUTO
 10
11382.580997231251
 20
22669.16364631959
 30
0.0
 40
94.999999999997485
 50
309.05612602761818
 51
330.00000000000108
  0
LINE
  5
169
  8
CT
 10
11527.580997231251
 20
22559.16364631959
 30
0.0
 11
11527.580997231251
 21
22613.16364631959
 31
0.0
  0
ARC
  5
16A
  8
FUTO
 10
11493.58099723124
 20
22619.16364631959
 30
0.0
 40
16.0
 50
180.0
 51
270.0
  0
LINE
  5
16B
  8
CT
 10
11382.58099723124
 20
22793.667143279708
 30
0.0
 11
11382.58099723124
 21
22551.92230716399
 31
0.0
  0
ARC
  5
178
  8
KL
 10
11297.080997231251
 20
22583.66364631959
 30
0.0
 40
917.5
 50
90.0
 51
180.0
  0
LINE
  5
17D
  8
FUTO
 10
13732.839984154531
 20
23049.16364631959
 30
0.0
 11
13732.839984154531
 21
21619.16364631959
 31
0.0
  0
LINE
  5
17E
  8
SL
 10
13842.839984154531
 20
22919.16364631959
 30
0.0
 11
13842.839984154531
 21
21733.16364631959
 31
0.0
  0
LINE
  5
17F
  8
SL
 10
13920.73998415453
 20
22919.16364631959
 30
0.0
 11
13920.73998415453
 21
21733.16364631959
 31
0.0
  0
ARC
  5
180
  8
FUTO
 10
11484.580997231251
 20
22771.16364631959
 30
0.0
 40
1329.0
 50
329.29372122440577
 51
354.84585959754298
  0
LINE
  5
181
  8
SL
 10
11524.80545164869
 20
22874.76570021415
 30
0.0
 11
12637.846454680641
 21
21929.61655789744
 31
0.0
  0
LINE
  5
182
  8
FUTO
 10
12733.11792349881
 20
22000.697251216781
 30
0.0
 11
11635.387750646911
 21
22952.869031230472
 31
0.0
  0
ARC
  5
183
  8
FUTO
 10
11382.58099723124
 20
22669.16364631959
 30
0.0
 40
380.0
 50
48.296118811314891
 51
240.76413685388491
  0
LINE
  5
184
  8
CT
 10
11382.58099723124
 20
23670.725040639551
 30
0.0
 11
11382.58099723124
 21
21259.16364631959
 31
0.0
  0
LINE
  5
185
  8
FUTO
 10
12222.58099723124
 20
23549.16364631959
 30
0.0
 11
12222.58099723124
 21
22443.537273172238
 31
0.0
  0
LINE
  5
186
  8
FUTO
 10
12213.580997231251
 20
23549.16364631959
 30
0.0
 11
12213.580997231251
 21
22451.343878321721
 31
0.0
  0
LINE
  5
187
  8
FUTO
 10
10542.580997231251
 20
23119.16364631959
 30
0.0
 11
10542.580997231251
 21
21579.16364631959
 31
0.0
  0
LINE
  5
188
  8
FUTO
 10
10551.58099723124
 20
23119.16364631959
 30
0.0
 11
10551.58099723124
 21
21579.16364631959
 31
0.0
  0
CIRCLE
  5
18B
  8
SL
 10
11382.58099723124
 20
22669.16364631959
 30
0.0
 40
250.0
  0
ARC
  5
18C
  8
KL
 10
11484.580997231251
 20
22771.16364631959
 30
0.0
 40
1309.0
 50
270.0
 51
354.84585959754298
  0
DIMENSION
  5
18D
  8
FUTO
  2
*D2
 10
9904.689198179527
 20
21429.16364631959
 30
0.0
 11
9844.6891981795234
 21
22049.163646319601
 31
0.0
 70
     0
 13
10204.577018583919
 23
22669.16364631959
 33
0.0
 14
10532.58099723124
 24
21429.16364631959
 34
0.0
 50
90.0
1001
ACAD
1000
DSTYLE
1002
{
1070
    40
1040
30.0
1070
   176
1070
     2
1070
   177
1070
     2
1070
   178
1070
     2
1070
   341
1005
44D5
1070
     5
1000
OPEN30
1002
}
  0
LINE
  5
19A
  8
CT
 10
14812.839984154531
 20
22787.667143279708
 30
0.0
 11
14812.839984154531
 21
22483.999483104431
 31
0.0
  0
LINE
  5
19B
  8
FUTO
 10
10532.58099723124
 20
21429.16364631959
 30
0.0
 11
12932.58099723124
 21
21429.16364631959
 31
0.0
1001
ACAD
1000
ASC_BOUNDS
1002
{
1070
    19
1005
0
1005
0
1005
0
1005
0
1005
0
1005
0
1005
0
1005
0
1005
0
1005
0
1005
0
1005
0
1005
0
1005
0
1005
0
1005
0
1005
0
1005
0
1005
0
1005
0
1005
0
1002
}
  0
DIMENSION
  5
276
  8
FUTO
  2
*D3
 10
12932.58099723124
 20
21189.863786354559
 30
0.0
 11
12157.58099723124
 21
21249.863786354559
 31
0.0
 70
     0
 13
11382.58099723124
 23
21402.081495275841
 33
0.0
 14
12932.58099723124
 24
21354.16364631959
 34
0.0
 50
180.0
1001
ACAD
1000
DSTYLE
1002
{
1070
    40
1040
30.0
1070
   176
1070
     2
1070
   177
1070
     2
1070
   178
1070
     2
1070
   341
1005
44D5
1070
     5
1000
OPEN30
1002
}
  0
DIMENSION
  5
283
  8
FUTO
  2
*D4
 10
10532.58099723124
 20
21006.946469370479
 30
0.0
 11
11732.580997231251
 21
21066.946469370469
 31
0.0
 70
     0
 13
12932.58099723124
 23
21429.16364631959
 33
0.0
 14
10532.58099723124
 24
21429.16364631959
 34
0.0
 50
180.0
1001
ACAD
1000
DSTYLE
1002
{
1070
    40
1040
30.0
1070
   176
1070
     2
1070
   177
1070
     2
1070
   178
1070
     2
1070
   341
1005
44D5
1070
     5
1000
OPEN30
1002
}
  0
LINE
  5
291
  8
SL
 10
11286.58385384495
 20
22438.32918515386
 30
0.0
 11
12521.52234159527
 21
21752.515850202621
 31
0.0
  0
LINE
  5
292
  8
FUTO
 10
12490.929483332129
 20
21639.16364631959
 30
0.0
 11
11196.98673561093
 21
22337.56936100452
 31
0.0
  0
LINE
  5
293
  8
FUTO
 10
12322.58099723124
 20
21653.657281737062
 30
0.0
 11
12269.380064127099
 21
21653.657281737062
 31
0.0
  0
LINE
  5
294
  8
FUTO
 10
10532.58099723124
 20
21579.16364631959
 30
0.0
 11
12932.58099723124
 21
21579.16364631959
 31
0.0
  0
LINE
  5
2AC
  8
FUTO
 10
12322.58099723124
 20
21579.16364631959
 30
0.0
 11
12322.58099723124
 21
21670.344078661801
 31
0.0
  0
LINE
  5
2AD
  8
FUTO
 10
12322.58099723124
 20
21579.16364631959
 30
0.0
 11
12332.589333141679
 21
21639.16364631959
 31
0.0
  0
LINE
  5
2AE
  8
FUTO
 10
12842.580997231251
 20
21579.16364631959
 30
0.0
 11
12842.580997231251
 21
21670.344078661801
 31
0.0
  0
LINE
  5
2AF
  8
FUTO
 10
12842.580997231251
 20
21579.16364631959
 30
0.0
 11
12832.57266132081
 21
21639.16364631959
 31
0.0
  0
ARC
  5
2B0
  8
FUTO
 10
12582.58099723124
 20
21839.16364631959
 30
0.0
 40
220.0
 50
240.76413685388491
 51
48.296118811314997
  0
LINE
  5
2B6
  8
FUTO
 10
12932.58099723124
 20
21579.16364631959
 30
0.0
 11
12932.58099723124
 21
21429.16364631959
 31
0.0
  0
LINE
  5
2BD
  8
CT
 10
12785.13617323124
 20
21914.16364631959
 30
0.0
 11
12821.56952323125
 21
21914.16364631959
 31
0.0
  0
LINE
  5
2BE
  8
FUTO
 10
12802.58099723124
 20
21854.16364631959
 30
0.0
 11
12785.527530231249
 21
21854.16364631959
 31
0.0
  0
LINE
  5
2BF
  8
FUTO
 10
12802.58099723124
 20
21974.16364631959
 30
0.0
 11
12734.854679231241
 21
21974.16364631959
 31
0.0
  0
ARC
  5
2C0
  8
FUTO
 10
12810.78094823125
 20
21980.630199319588
 30
0.0
 40
8.1999940000000002
 50
107.30986
 51
180.0
  0
LINE
  5
2C1
  8
FUTO
 10
12832.57266132081
 20
21639.16364631959
 30
0.0
 11
12665.91931680949
 21
21639.16364631959
 31
0.0
  0
LINE
  5
2C2
  8
FUTO
 10
12781.035969820379
 20
21653.657281737062
 30
0.0
 11
12815.8505215245
 21
21653.657281737062
 31
0.0
  0
LINE
  5
2C3
  8
FUTO
 10
12802.852970231241
 20
21840.521556319589
 30
0.0
 11
12813.25152923124
 21
21796.847484319591
 31
0.0
  0
LINE
  5
2C4
  8
FUTO
 10
12979.37360023124
 20
21806.578197319592
 30
0.0
 11
12979.37360023124
 21
21944.370677319592
 31
0.0
  0
LINE
  5
2C5
  8
FUTO
 10
12819.37360023124
 20
22024.025462319591
 30
0.0
 11
12968.12360023124
 21
21766.382884319592
 31
0.0
  0
LINE
  5
2C6
  8
FUTO
 10
12813.830997231251
 20
22020.825511319588
 30
0.0
 11
12962.58099723124
 21
21763.182933319589
 31
0.0
  0
LINE
  5
2C7
  8
FUTO
 10
12825.58099723124
 20
21759.16364631959
 30
0.0
 11
12945.58099723124
 21
21759.16364631959
 31
0.0
  0
LINE
  5
2C8
  8
FUTO
 10
12822.97955723124
 20
21789.16364631959
 30
0.0
 11
12947.58099723124
 21
21789.16364631959
 31
0.0
  0
ARC
  5
2C9
  8
FUTO
 10
12956.10589923125
 20
21791.19831431959
 30
0.0
 40
2.0000450000000001
 50
107.313553
 51
209.99818400000001
  0
LINE
  5
2CA
  8
FUTO
 10
12973.613468231249
 20
21798.74958331959
 30
0.0
 11
12955.510685231249
 21
21793.107738319592
 31
0.0
  0
LINE
  5
2CB
  8
FUTO
 10
12968.12360023124
 20
21766.382884319592
 30
0.0
 11
12962.58099723124
 21
21763.182933319589
 31
0.0
  0
LINE
  5
2CC
  8
FUTO
 10
12945.58099723124
 20
21759.16364631959
 30
0.0
 11
12945.58099723124
 21
21789.16364631959
 31
0.0
  0
ARC
  5
2CD
  8
FUTO
 10
12971.17352623124
 20
21806.578197319592
 30
0.0
 40
8.2000299999999982
 50
287.31066900000002
 51
0.000000000000007
  0
LINE
  5
2CE
  8
FUTO
 10
12825.58099723124
 20
21759.16364631959
 30
0.0
 11
12825.58099723124
 21
21789.16364631959
 31
0.0
  0
LINE
  5
2CF
  8
FUTO
 10
12855.580997231251
 20
21759.16364631959
 30
0.0
 11
12855.580997231251
 21
21789.16364631959
 31
0.0
  0
LINE
  5
2D0
  8
FUTO
 10
12858.580997231251
 20
21759.16364631959
 30
0.0
 11
12858.580997231251
 21
21789.16364631959
 31
0.0
  0
ARC
  5
2D1
  8
FUTO
 10
12822.97955723124
 20
21799.16364631959
 30
0.0
 40
9.9999559999999992
 50
193.392303
 51
270.0
  0
LINE
  5
2D2
  8
CT
 10
12885.58099723124
 20
21803.246654319591
 30
0.0
 11
12885.58099723124
 21
21751.025218319592
 31
0.0
  0
LINE
  5
2D3
  8
FUTO
 10
12915.580997231251
 20
21759.16364631959
 30
0.0
 11
12915.580997231251
 21
21789.16364631959
 31
0.0
  0
LINE
  5
2D4
  8
FUTO
 10
12912.58099723124
 20
21759.16364631959
 30
0.0
 11
12912.58099723124
 21
21789.16364631959
 31
0.0
  0
LINE
  5
2D5
  8
FUTO
 10
12842.580997231251
 20
21653.657281737062
 30
0.0
 11
12895.78193033539
 21
21653.657281737062
 31
0.0
  0
LINE
  5
2D6
  8
FUTO
 10
12895.78193033539
 20
21661.113077165261
 30
0.0
 11
12904.663170474199
 21
21661.113077165261
 31
0.0
  0
LINE
  5
2D7
  8
FUTO
 10
12895.78193033539
 20
21646.911552251771
 30
0.0
 11
12895.78193033539
 21
21661.113077165261
 31
0.0
  0
LINE
  5
2D8
  8
FUTO
 10
12905.01842131756
 20
21646.911552251771
 30
0.0
 11
12895.78193033539
 21
21646.911552251771
 31
0.0
  0
LINE
  5
2D9
  8
FUTO
 10
12905.01842131756
 20
21660.758044193812
 30
0.0
 11
12905.01842131756
 21
21646.911552251771
 31
0.0
  0
LINE
  5
2DA
  8
FUTO
 10
12815.8505215245
 20
21670.344078661801
 30
0.0
 11
12815.8505215245
 21
21639.16364631959
 31
0.0
  0
LINE
  5
2DB
  8
FUTO
 10
12842.580997231251
 20
21670.344078661801
 30
0.0
 11
12815.8505215245
 21
21670.344078661801
 31
0.0
  0
LINE
  5
2DC
  8
FUTO
 10
12958.974918231241
 20
21998.04474931959
 30
0.0
 11
12834.373600231251
 21
21998.04474931959
 31
0.0
  0
ARC
  5
2DD
  8
FUTO
 10
12958.974918231241
 20
21988.04474931959
 30
0.0
 40
10.000075000000001
 50
13.392141000000001
 51
90.0
  0
ARC
  5
2DE
  8
FUTO
 10
12969.37286723125
 20
21944.370433319589
 30
0.0
 40
10.000731999999999
 50
0.0013990000000172
 51
13.392693
  0
LINE
  5
2DF
  8
FUTO
 10
12968.703067231239
 20
21990.360912319589
 30
0.0
 11
12979.101627231241
 21
21946.686839319591
 31
0.0
  0
LINE
  5
2E0
  8
FUTO
 10
12819.37360023124
 20
22024.025462319591
 30
0.0
 11
12813.830997231251
 21
22020.825511319588
 31
0.0
  0
ARC
  5
2E1
  8
FUTO
 10
12825.848697231249
 20
21996.01008131959
 30
0.0
 40
2.000008999999999
 50
287.31021099999992
 51
29.999931000000021
  0
LINE
  5
2E2
  8
FUTO
 10
12826.443790231249
 20
21994.100658319589
 30
0.0
 11
12808.341129231239
 21
21988.45881231959
 31
0.0
  0
ARC
  5
2E3
  8
FUTO
 10
12812.58099723124
 20
21842.837718319592
 30
0.0
 40
10.0
 50
180.0
 51
193.392303
  0
LINE
  5
2E4
  8
FUTO
 10
12802.58099723124
 20
21842.837718319592
 30
0.0
 11
12802.58099723124
 21
21980.630199319588
 31
0.0
  0
LINE
  5
2E5
  8
FUTO
 10
12576.33099723124
 20
22052.810619319589
 30
0.0
 11
12576.33099723124
 21
22102.91364631959
 31
0.0
  0
LINE
  5
2E6
  8
FUTO
 10
12588.830997231251
 20
22052.810619319589
 30
0.0
 11
12588.830997231251
 21
22102.91364631959
 31
0.0
  0
LINE
  5
2E7
  8
CT
 10
12582.58099723124
 20
22115.482738319592
 30
0.0
 11
12582.58099723124
 21
21635.45881231959
 31
0.0
  0
CIRCLE
  5
2E8
  8
FUTO
 10
12582.58099723124
 20
21839.16364631959
 30
0.0
 40
40.0
  0
LINE
  5
2E9
  8
FUTO
 10
12637.319034231239
 20
21643.16364631959
 30
0.0
 11
12527.84296023125
 21
21643.16364631959
 31
0.0
  0
LINE
  5
2EA
  8
CT
 10
12367.741886231241
 20
21839.16364631959
 30
0.0
 11
12796.572086231239
 21
21839.16364631959
 31
0.0
  0
LINE
  5
2EB
  8
CT
 10
12395.08099723124
 20
21839.16364631959
 30
0.0
 11
12782.61595457737
 21
21839.16364631959
 31
0.0
  0
CIRCLE
  5
2EC
  8
SL
 10
12582.58099723124
 20
21839.16364631959
 30
0.0
 40
106.0
  0
LINE
  5
2ED
  8
FUTO
 10
12499.242677652999
 20
21629.687301757989
 30
0.0
 11
12582.593778118769
 21
21629.687301757989
 31
0.0
  0
ARC
  5
2EE
  8
FUTO
 10
12582.58099723124
 20
21839.16364631959
 30
0.0
 40
203.5
 50
285.60376000000002
 51
254.3962709999999
  0
CIRCLE
  5
2EF
  8
FUTO
 10
12582.58099723124
 20
21839.16364631959
 30
0.0
 40
7.5
  0
LINE
  5
2F0
  8
CT
 10
12582.58099723124
 20
21626.66364631959
 30
0.0
 11
12582.58099723124
 21
22042.28665167014
 31
0.0
  0
LINE
  5
2F1
  8
FUTO
 10
12733.495060231249
 20
21702.64533531959
 30
0.0
 11
12738.293155231249
 21
21698.610912319589
 31
0.0
  0
LINE
  5
2F2
  8
FUTO
 10
12735.089786231239
 20
21696.695872319589
 30
0.0
 11
12731.49774523124
 21
21700.287913319589
 31
0.0
  0
LINE
  5
2F3
  8
FUTO
 10
12735.089786231239
 20
21695.847240319588
 30
0.0
 11
12735.089786231239
 21
21696.695872319589
 31
0.0
  0
LINE
  5
2F4
  8
FUTO
 10
12732.80243323124
 20
21694.408275319591
 30
0.0
 11
12733.65106523125
 21
21694.408275319591
 31
0.0
  0
LINE
  5
2F5
  8
FUTO
 10
12732.80243323124
 20
21694.408275319591
 30
0.0
 11
12732.80243323124
 21
21693.559886319588
 31
0.0
  0
ARC
  5
2F6
  8
FUTO
 10
12735.07538223124
 20
21694.784007319591
 30
0.0
 40
5.0000339999999994
 50
316.563965
 51
49.941891000000027
  0
LINE
  5
2F7
  8
FUTO
 10
12725.04877123125
 20
21686.654857319591
 30
0.0
 11
12721.45673023125
 21
21690.24689831959
 31
0.0
  0
LINE
  5
2F8
  8
FUTO
 10
12725.04877123125
 20
21686.654857319591
 30
0.0
 11
12725.89740323124
 21
21686.654857319591
 31
0.0
  0
LINE
  5
2F9
  8
FUTO
 10
12727.33612423124
 20
21688.94221031959
 30
0.0
 11
12727.33612423124
 21
21688.093578319589
 31
0.0
  0
LINE
  5
2FA
  8
FUTO
 10
12727.33612423124
 20
21688.94221031959
 30
0.0
 11
12723.74408323124
 21
21692.53425131959
 31
0.0
  0
LINE
  5
2FB
  8
FUTO
 10
12727.33612423124
 20
21688.94221031959
 30
0.0
 11
12728.18475723124
 21
21688.94221031959
 31
0.0
  0
LINE
  5
2FC
  8
FUTO
 10
12731.49774523124
 20
21700.287913319589
 30
0.0
 11
12721.45673023125
 21
21690.24689831959
 31
0.0
  0
LINE
  5
2FD
  8
CT
 10
12731.021915231249
 20
21690.72272831959
 30
0.0
 11
12725.773868231239
 21
21695.970775319591
 31
0.0
  0
LINE
  5
2FE
  8
FUTO
 10
12735.089786231239
 20
21695.847240319588
 30
0.0
 11
12725.89740323124
 21
21686.654857319591
 31
0.0
  0
LINE
  5
2FF
  8
FUTO
 10
12732.80243323124
 20
21694.408275319591
 30
0.0
 11
12729.21039223124
 21
21698.00056031959
 31
0.0
  0
LINE
  5
300
  8
FUTO
 10
12708.76727623124
 20
21659.16364631959
 30
0.0
 11
12704.24591423124
 21
21676.038158319589
 31
0.0
  0
LINE
  5
301
  8
FUTO
 10
12704.24579223125
 20
21676.038158319589
 30
0.0
 11
12708.76727623124
 21
21659.16364631959
 31
0.0
  0
ARC
  5
302
  8
FUTO
 10
12710.36566523124
 20
21672.517162319589
 30
0.0
 40
5.0
 50
195.00116
 51
307.48202500000008
  0
ARC
  5
303
  8
FUTO
 10
12582.58099723124
 20
21839.16364631959
 30
0.0
 40
214.9999849999999
 50
307.48104899999998
 51
316.565674
  0
ARC
  5
304
  8
FUTO
 10
12695.08099723124
 20
21656.16364631959
 30
0.0
 40
3.0
 50
90.0
 51
180.0
  0
LINE
  5
305
  8
FUTO
 10
12732.33099723124
 20
21651.16364631959
 30
0.0
 11
12732.33099723124
 21
21647.16364631959
 31
0.0
  0
LINE
  5
306
  8
FUTO
 10
12732.33099723124
 20
21643.16364631959
 30
0.0
 11
12732.33099723124
 21
21639.16364631959
 31
0.0
  0
LINE
  5
307
  8
FUTO
 10
12692.08099723124
 20
21656.16364631959
 30
0.0
 11
12692.08099723124
 21
21639.16364631959
 31
0.0
  0
LINE
  5
308
  8
FUTO
 10
12692.08099723124
 20
21644.16364631959
 30
0.0
 11
12686.40594823124
 21
21665.343822319592
 31
0.0
  0
LINE
  5
309
  8
CT
 10
12741.58099723124
 20
21663.587474319589
 30
0.0
 11
12741.58099723124
 21
21634.47175131959
 31
0.0
  0
LINE
  5
30A
  8
FUTO
 10
12732.33099723124
 20
21659.16364631959
 30
0.0
 11
12732.33099723124
 21
21655.16364631959
 31
0.0
  0
ARC
  5
30B
  8
FUTO
 10
12766.58099723124
 20
21713.490306319589
 30
0.0
 40
5.0
 50
0.000000000000007
 51
55.056338999999987
  0
ARC
  5
30C
  8
FUTO
 10
12768.58099723124
 20
21656.16364631959
 30
0.0
 40
3.0
 50
0.000000000000007
 51
90.0
  0
LINE
  5
30D
  8
FUTO
 10
12750.830997231251
 20
21651.16364631959
 30
0.0
 11
12750.830997231251
 21
21647.16364631959
 31
0.0
  0
LINE
  5
30E
  8
FUTO
 10
12750.830997231251
 20
21643.16364631959
 30
0.0
 11
12750.830997231251
 21
21639.16364631959
 31
0.0
  0
LINE
  5
30F
  8
FUTO
 10
12750.830997231251
 20
21659.16364631959
 30
0.0
 11
12750.830997231251
 21
21655.16364631959
 31
0.0
  0
LINE
  5
310
  8
FUTO
 10
12771.58099723124
 20
21713.490306319589
 30
0.0
 11
12771.58099723124
 21
21639.16364631959
 31
0.0
  0
LINE
  5
311
  8
FUTO
 10
12771.58099723124
 20
21639.16364631959
 30
0.0
 11
12692.08099723124
 21
21639.16364631959
 31
0.0
  0
LINE
  5
312
  8
FUTO
 10
12695.08099723124
 20
21659.16364631959
 30
0.0
 11
12768.58099723124
 21
21659.16364631959
 31
0.0
  0
LINE
  5
313
  8
FUTO
 10
12769.44488923125
 20
21717.58893931959
 30
0.0
 11
12753.507023231239
 21
21728.725413319589
 31
0.0
  0
LINE
  5
314
  8
FUTO
 10
12665.91931680949
 20
21639.16364631959
 30
0.0
 11
12665.91931680949
 21
21629.687301757989
 31
0.0
  0
LINE
  5
315
  8
FUTO
 10
12665.91931680949
 20
21629.687301757989
 30
0.0
 11
12582.56821634372
 21
21629.687301757989
 31
0.0
  0
LINE
  5
316
  8
FUTO
 10
12725.89740323124
 20
21991.67243531959
 30
0.0
 11
12725.04889323124
 21
21991.67243531959
 31
0.0
  0
LINE
  5
317
  8
FUTO
 10
12727.33624623124
 20
21989.38508131959
 30
0.0
 11
12727.33624623124
 21
21990.233714319591
 31
0.0
  0
LINE
  5
318
  8
FUTO
 10
12727.33624623124
 20
21989.38508131959
 30
0.0
 11
12728.18475723124
 21
21989.38508131959
 31
0.0
  0
LINE
  5
319
  8
FUTO
 10
12725.04889323124
 20
21991.67243531959
 30
0.0
 11
12721.45673023125
 21
21988.08039431959
 31
0.0
  0
LINE
  5
31A
  8
FUTO
 10
12735.089786231239
 20
21981.63141931959
 30
0.0
 11
12735.089786231239
 21
21982.480052319592
 31
0.0
  0
LINE
  5
31B
  8
FUTO
 10
12732.80243323124
 20
21983.91877331959
 30
0.0
 11
12733.65106523125
 21
21983.91877331959
 31
0.0
  0
LINE
  5
31C
  8
FUTO
 10
12732.80243323124
 20
21983.91877331959
 30
0.0
 11
12732.80243323124
 21
21984.767406319588
 31
0.0
  0
LINE
  5
31D
  8
FUTO
 10
12732.80243323124
 20
21983.91877331959
 30
0.0
 11
12729.21039223124
 21
21980.326732319591
 31
0.0
  0
LINE
  5
31E
  8
FUTO
 10
12727.33624623124
 20
21989.38508131959
 30
0.0
 11
12723.74408323124
 21
21985.79304031959
 31
0.0
  0
LINE
  5
31F
  8
FUTO
 10
12731.02203723124
 20
21987.60456431959
 30
0.0
 11
12725.773868231239
 21
21982.356517319589
 31
0.0
  0
LINE
  5
320
  8
FUTO
 10
12725.89740323124
 20
21991.67243531959
 30
0.0
 11
12735.089786231239
 21
21982.480052319592
 31
0.0
  0
LINE
  5
321
  8
FUTO
 10
12792.58099723124
 20
21854.16364631959
 30
0.0
 11
12792.58099723124
 21
21974.16364631959
 31
0.0
  0
LINE
  5
322
  8
FUTO
 10
12735.089786231239
 20
21981.63141931959
 30
0.0
 11
12731.49774523124
 21
21978.03937831959
 31
0.0
  0
LINE
  5
323
  8
FUTO
 10
12721.45673023125
 20
21988.08039431959
 30
0.0
 11
12731.49774523124
 21
21978.03937831959
 31
0.0
  0
ARC
  5
324
  8
FUTO
 10
12595.580997231251
 20
22058.353587319591
 30
0.0
 40
2.0
 50
0.000000000000007
 51
84.289063000000013
  0
LINE
  5
325
  8
FUTO
 10
12589.03808923125
 20
22061.01789431959
 30
0.0
 11
12595.78003323124
 21
22060.343822319592
 31
0.0
  0
ARC
  5
326
  8
FUTO
 10
12569.58099723124
 20
22058.353587319591
 30
0.0
 40
2.0001619999999991
 50
95.710937999999985
 51
180.0
  0
LINE
  5
327
  8
FUTO
 10
12576.48089923125
 20
22061.053538319589
 30
0.0
 11
12569.38196123124
 21
22060.343822319592
 31
0.0
  0
ARC
  5
328
  8
FUTO
 10
12582.58099723124
 20
21839.16364631959
 30
0.0
 40
210.0001069999999
 50
86.232985999999997
 51
86.266968000000006
  0
ARC
  5
329
  8
FUTO
 10
12596.180729231241
 20
22045.716380319591
 30
0.0
 40
2.999933
 50
357.44390900000002
 51
86.232291999999973
  0
ARC
  5
32A
  8
FUTO
 10
12596.058292231241
 20
22045.72443731959
 30
0.0
 40
3.0000169999999988
 50
86.267189000000045
 51
175.056107
  0
LINE
  5
32B
  8
FUTO
 10
12599.17767723125
 20
22045.582591319591
 30
0.0
 11
12599.01776523124
 21
22041.998851319589
 31
0.0
  0
LINE
  5
32C
  8
FUTO
 10
12593.069400231239
 20
22045.982982319591
 30
0.0
 11
12592.76031823124
 21
22042.409007319591
 31
0.0
  0
LINE
  5
32D
  8
FUTO
 10
12572.09271623124
 20
22045.982982319591
 30
0.0
 11
12572.40179823124
 21
22042.409007319591
 31
0.0
  0
ARC
  5
32E
  8
FUTO
 10
12582.58099723124
 20
21839.16364631959
 30
0.0
 40
210.0
 50
93.732971000000006
 51
93.766974999999974
  0
ARC
  5
32F
  8
FUTO
 10
12568.981388231239
 20
22045.716380319591
 30
0.0
 40
3.0001370000000001
 50
93.767708000000013
 51
182.555984
  0
LINE
  5
330
  8
FUTO
 10
12565.984317231239
 20
22045.582591319591
 30
0.0
 11
12566.14435223124
 21
22041.998851319589
 31
0.0
  0
ARC
  5
331
  8
FUTO
 10
12569.10382423125
 20
22045.72443731959
 30
0.0
 40
3.000052999999999
 50
4.9438900000000174
 51
93.732811000000027
  0
LINE
  5
332
  8
FUTO
 10
12570.08099723124
 20
22049.16364631959
 30
0.0
 11
12595.08099723124
 21
22049.16364631959
 31
0.0
  0
LINE
  5
333
  8
FUTO
 10
12567.58099723124
 20
22049.16364631959
 30
0.0
 11
12597.580997231251
 21
22049.16364631959
 31
0.0
  0
LINE
  5
334
  8
FUTO
 10
12567.58099723124
 20
22049.16364631959
 30
0.0
 11
12567.58099723124
 21
22058.353587319591
 31
0.0
  0
LINE
  5
335
  8
FUTO
 10
12597.580997231251
 20
22049.16364631959
 30
0.0
 11
12597.580997231251
 21
22058.353587319591
 31
0.0
  0
ARC
  5
336
  8
FUTO
 10
12574.33099723124
 20
22052.810619319589
 30
0.0
 40
2.0
 50
270.0
 51
0.000000000000007
  0
ARC
  5
337
  8
FUTO
 10
12590.830997231251
 20
22052.810619319589
 30
0.0
 40
2.0
 50
180.0
 51
270.0
  0
LINE
  5
338
  8
FUTO
 10
12393.580997231251
 20
21639.16364631959
 30
0.0
 11
12473.08099723124
 21
21639.16364631959
 31
0.0
  0
LINE
  5
339
  8
FUTO
 10
12470.08099723124
 20
21659.16364631959
 30
0.0
 11
12396.580997231251
 21
21659.16364631959
 31
0.0
  0
LINE
  5
33A
  8
FUTO
 10
12443.70526523124
 20
21690.24689831959
 30
0.0
 11
12433.664249231249
 21
21700.287913319589
 31
0.0
  0
LINE
  5
33B
  8
FUTO
 10
12440.11322423124
 20
21686.654857319591
 30
0.0
 11
12443.70526523124
 21
21690.24689831959
 31
0.0
  0
ARC
  5
33C
  8
FUTO
 10
12582.58099723124
 20
21839.16364631959
 30
0.0
 40
214.9999849999999
 50
223.43432599999991
 51
232.51896699999989
  0
LINE
  5
33D
  8
FUTO
 10
12332.589333141679
 20
21639.16364631959
 30
0.0
 11
12499.242677652999
 21
21639.16364631959
 31
0.0
  0
LINE
  5
33E
  8
FUTO
 10
12420.58099723124
 20
21639.16364631959
 30
0.0
 11
12480.58099723124
 21
21639.16364631959
 31
0.0
  0
LINE
  5
33F
  8
FUTO
 10
12460.916202231239
 20
21676.038158319589
 30
0.0
 11
12456.39471823124
 21
21659.16364631959
 31
0.0
  0
ARC
  5
340
  8
FUTO
 10
12454.796329231251
 20
21672.517162319589
 30
0.0
 40
5.0
 50
232.51852400000001
 51
344.99902300000002
  0
ARC
  5
341
  8
FUTO
 10
12470.08099723124
 20
21656.16364631959
 30
0.0
 40
3.0
 50
0.000000000000007
 51
90.0
  0
LINE
  5
342
  8
FUTO
 10
12473.08099723124
 20
21656.16364631959
 30
0.0
 11
12473.08099723124
 21
21639.16364631959
 31
0.0
  0
LINE
  5
343
  8
FUTO
 10
12473.08099723124
 20
21644.16364631959
 30
0.0
 11
12478.75629023124
 21
21665.343822319592
 31
0.0
  0
LINE
  5
344
  8
FUTO
 10
12499.242677652999
 20
21639.16364631959
 30
0.0
 11
12499.242677652999
 21
21629.687301757989
 31
0.0
  0
LINE
  5
345
  8
FUTO
 10
12414.33099723124
 20
21651.16364631959
 30
0.0
 11
12414.33099723124
 21
21647.16364631959
 31
0.0
  0
LINE
  5
346
  8
FUTO
 10
12414.33099723124
 20
21643.16364631959
 30
0.0
 11
12414.33099723124
 21
21639.16364631959
 31
0.0
  0
LINE
  5
347
  8
FUTO
 10
12414.33099723124
 20
21659.16364631959
 30
0.0
 11
12414.33099723124
 21
21655.16364631959
 31
0.0
  0
ARC
  5
348
  8
FUTO
 10
12398.58099723124
 20
21713.490306319589
 30
0.0
 40
5.0000669999999987
 50
124.943665
 51
180.0
  0
ARC
  5
349
  8
FUTO
 10
12396.580997231251
 20
21656.16364631959
 30
0.0
 40
3.0
 50
90.0
 51
180.0
  0
LINE
  5
34A
  8
FUTO
 10
12393.580997231251
 20
21713.490306319589
 30
0.0
 11
12393.580997231251
 21
21639.16364631959
 31
0.0
  0
LINE
  5
34B
  8
FUTO
 10
12430.07220823125
 20
21696.695872319589
 30
0.0
 11
12433.664249231249
 21
21700.287913319589
 31
0.0
  0
LINE
  5
34C
  8
FUTO
 10
12430.07220823125
 20
21696.695872319589
 30
0.0
 11
12430.07220823125
 21
21695.847240319588
 31
0.0
  0
LINE
  5
34D
  8
FUTO
 10
12432.35956223124
 20
21694.40851931959
 30
0.0
 11
12431.510929231241
 21
21694.40851931959
 31
0.0
  0
LINE
  5
34E
  8
FUTO
 10
12432.35956223124
 20
21694.40851931959
 30
0.0
 11
12435.951603231249
 21
21698.00056031959
 31
0.0
  0
LINE
  5
34F
  8
FUTO
 10
12432.35956223124
 20
21694.40851931959
 30
0.0
 11
12432.35956223124
 21
21693.559886319588
 31
0.0
  0
LINE
  5
350
  8
FUTO
 10
12431.667179231241
 20
21702.64533531959
 30
0.0
 11
12426.868961231239
 21
21698.610912319589
 31
0.0
  0
LINE
  5
351
  8
FUTO
 10
12439.26459123124
 20
21686.654857319591
 30
0.0
 11
12440.11322423124
 21
21686.654857319591
 31
0.0
  0
LINE
  5
352
  8
FUTO
 10
12437.82562623125
 20
21688.94221031959
 30
0.0
 11
12437.82562623125
 21
21688.093578319589
 31
0.0
  0
LINE
  5
353
  8
FUTO
 10
12437.82562623125
 20
21688.94221031959
 30
0.0
 11
12441.417911231239
 21
21692.53425131959
 31
0.0
  0
LINE
  5
354
  8
FUTO
 10
12437.82562623125
 20
21688.94221031959
 30
0.0
 11
12436.977237231249
 21
21688.94221031959
 31
0.0
  0
ARC
  5
355
  8
FUTO
 10
12430.08685623125
 20
21694.784007319591
 30
0.0
 40
5.0000049999999998
 50
130.05917400000001
 51
223.43505899999991
  0
LINE
  5
356
  8
CT
 10
12434.14007923124
 20
21690.72272831959
 30
0.0
 11
12439.38812623125
 21
21695.970775319591
 31
0.0
  0
LINE
  5
357
  8
FUTO
 10
12439.26459123124
 20
21686.654857319591
 30
0.0
 11
12430.07220823125
 21
21695.847240319588
 31
0.0
  0
LINE
  5
358
  8
FUTO
 10
12432.830997231251
 20
21651.16364631959
 30
0.0
 11
12432.830997231251
 21
21647.16364631959
 31
0.0
  0
LINE
  5
359
  8
FUTO
 10
12432.830997231251
 20
21643.16364631959
 30
0.0
 11
12432.830997231251
 21
21639.16364631959
 31
0.0
  0
LINE
  5
35A
  8
CT
 10
12423.58099723124
 20
21663.587474319589
 30
0.0
 11
12423.58099723124
 21
21634.47175131959
 31
0.0
  0
LINE
  5
35B
  8
FUTO
 10
12432.830997231251
 20
21659.16364631959
 30
0.0
 11
12432.830997231251
 21
21655.16364631959
 31
0.0
  0
LINE
  5
35C
  8
FUTO
 10
12322.58099723124
 20
21670.344078661801
 30
0.0
 11
12349.31147293799
 21
21670.344078661801
 31
0.0
  0
LINE
  5
35D
  8
FUTO
 10
12384.12602464211
 20
21653.657281737062
 30
0.0
 11
12349.31147293799
 21
21653.657281737062
 31
0.0
  0
LINE
  5
35E
  8
FUTO
 10
12349.31147293799
 20
21670.344078661801
 30
0.0
 11
12349.31147293799
 21
21639.16364631959
 31
0.0
  0
LINE
  5
35F
  8
FUTO
 10
12395.717228231249
 20
21717.58893931959
 30
0.0
 11
12411.65509423125
 21
21728.725413319589
 31
0.0
  0
LINE
  5
360
  8
FUTO
 10
12440.11322423124
 20
21991.67243531959
 30
0.0
 11
12443.70526523124
 21
21988.08039431959
 31
0.0
  0
LINE
  5
361
  8
FUTO
 10
12433.664249231249
 20
21978.03937831959
 30
0.0
 11
12443.70526523124
 21
21988.08039431959
 31
0.0
  0
ARC
  5
362
  8
FUTO
 10
12582.58099723124
 20
21839.16364631959
 30
0.0
 40
210.00004599999991
 50
131.23298600000001
 51
131.26696799999991
  0
ARC
  5
363
  8
FUTO
 10
12446.050357231239
 20
21994.75397831959
 30
0.0
 40
2.9999169999999991
 50
131.26663199999999
 51
220.05661000000001
  0
ARC
  5
364
  8
FUTO
 10
12446.142521231241
 20
21994.835033319589
 30
0.0
 40
2.999909999999999
 50
42.440556000000022
 51
131.23197899999991
  0
LINE
  5
365
  8
FUTO
 10
12443.75409323124
 20
21992.82331431959
 30
0.0
 11
12446.06280923124
 21
21990.077464319591
 31
0.0
  0
LINE
  5
366
  8
FUTO
 10
12448.356388231239
 20
21996.859447319592
 30
0.0
 11
12450.77753023124
 21
21994.21223031959
 31
0.0
  0
LINE
  5
367
  8
FUTO
 10
12440.11322423124
 20
21991.67243531959
 30
0.0
 11
12439.26459123124
 21
21991.67243531959
 31
0.0
  0
LINE
  5
368
  8
FUTO
 10
12437.82587023124
 20
21989.38508131959
 30
0.0
 11
12437.82587023124
 21
21990.233714319591
 31
0.0
  0
LINE
  5
369
  8
FUTO
 10
12437.82587023124
 20
21989.38508131959
 30
0.0
 11
12436.977237231249
 21
21989.38508131959
 31
0.0
  0
LINE
  5
36A
  8
FUTO
 10
12430.07220823125
 20
21982.480052319592
 30
0.0
 11
12430.07220823125
 21
21981.63141931959
 31
0.0
  0
LINE
  5
36B
  8
FUTO
 10
12432.35956223124
 20
21983.919017319589
 30
0.0
 11
12431.510929231241
 21
21983.919017319589
 31
0.0
  0
LINE
  5
36C
  8
FUTO
 10
12432.35956223124
 20
21983.919017319589
 30
0.0
 11
12435.951603231249
 21
21980.326732319591
 31
0.0
  0
LINE
  5
36D
  8
FUTO
 10
12432.35956223124
 20
21983.919017319589
 30
0.0
 11
12432.35956223124
 21
21984.767406319588
 31
0.0
  0
LINE
  5
36E
  8
FUTO
 10
12434.14007923124
 20
21987.60456431959
 30
0.0
 11
12439.38812623125
 21
21982.356517319589
 31
0.0
  0
LINE
  5
36F
  8
FUTO
 10
12430.07220823125
 20
21982.480052319592
 30
0.0
 11
12439.26459123124
 21
21991.67243531959
 31
0.0
  0
LINE
  5
370
  8
FUTO
 10
12437.82587023124
 20
21989.38508131959
 30
0.0
 11
12441.417911231239
 21
21985.79304031959
 31
0.0
  0
ARC
  5
371
  8
FUTO
 10
12582.58099723124
 20
21839.16364631959
 30
0.0
 40
210.0
 50
138.73297099999991
 51
138.76696799999991
  0
ARC
  5
372
  8
FUTO
 10
12426.990665231249
 20
21975.694408319589
 30
0.0
 40
2.9999560000000001
 50
49.941890999999998
 51
138.7316129999999
  0
LINE
  5
373
  8
FUTO
 10
12424.885196231249
 20
21973.388255319591
 30
0.0
 11
12427.53253523125
 21
21970.967357319591
 31
0.0
  0
ARC
  5
374
  8
FUTO
 10
12426.909855231241
 20
21975.602122319589
 30
0.0
 40
2.9999500000000001
 50
138.768021
 51
227.55600000000001
  0
LINE
  5
375
  8
FUTO
 10
12428.92132923124
 20
21977.990550319591
 30
0.0
 11
12431.667179231241
 21
21975.68195631959
 31
0.0
  0
LINE
  5
376
  8
FUTO
 10
12430.07220823125
 20
21981.63141931959
 30
0.0
 11
12433.664249231249
 21
21978.03937831959
 31
0.0
  0
ARC
  5
377
  8
FUTO
 10
12582.58099723124
 20
22102.91364631959
 30
0.0
 40
6.25
 50
90.0
 51
180.0
  0
ARC
  5
378
  8
FUTO
 10
12582.58099723124
 20
22102.91364631959
 30
0.0
 40
6.25
 50
0.000000000000007
 51
90.0
  0
ARC
  5
396
  8
KL
 10
11484.580997231251
 20
22567.16364631959
 30
0.0
 40
1105.0
 50
179.1444203645697
 51
270.0
  0
ARC
  5
397
  8
FUTO
 10
11382.58099723124
 20
22669.16364631959
 30
0.0
 40
95.000000000003084
 50
249.05612602761781
 51
270.0
  0
LINE
  5
398
  8
FUTO
 10
11292.58099723124
 20
22572.16364631959
 30
0.0
 11
11382.58099723124
 21
22572.16364631959
 31
0.0
  0
LINE
  5
399
  8
KL
 10
11081.047497627669
 20
22563.16364631959
 30
0.0
 11
11382.58099723124
 21
22563.16364631959
 31
0.0
  0
LINE
  5
39A
  8
FUTO
 10
11182.580997231251
 20
22569.16364631959
 30
0.0
 11
11582.58099723124
 21
22569.16364631959
 31
0.0
  0
DIMENSION
  5
39B
  8
FUTO
  2
*D5
 10
10532.58099723124
 20
21189.863786354559
 30
0.0
 11
10957.58099723124
 21
21249.863786354559
 31
0.0
 70
     0
 13
11382.58099723124
 23
21402.081495275841
 33
0.0
 14
10532.58099723124
 24
21354.16364631959
 34
0.0
 50
180.0
1001
ACAD
1000
DSTYLE
1002
{
1070
    40
1040
30.0
1070
   176
1070
     2
1070
   177
1070
     2
1070
   178
1070
     2
1070
   341
1005
44D5
1070
     5
1000
OPEN30
1002
}
  0
LINE
  5
3AA
  8
KL
 10
11684.11449683482
 20
22563.16364631959
 30
0.0
 11
11794.68312156982
 21
22014.96268282237
 31
0.0
  0
LINE
  5
3B5
  8
FUTO
 10
12260.143573144929
 20
21660.758044193812
 30
0.0
 11
12260.143573144929
 21
21646.911552251771
 31
0.0
  0
LINE
  5
3B6
  8
FUTO
 10
12260.143573144929
 20
21646.911552251771
 30
0.0
 11
12269.380064127099
 21
21646.911552251771
 31
0.0
  0
LINE
  5
3B7
  8
FUTO
 10
12269.380064127099
 20
21646.911552251771
 30
0.0
 11
12269.380064127099
 21
21661.113077165261
 31
0.0
  0
LINE
  5
3B8
  8
FUTO
 10
12269.380064127099
 20
21661.113077165261
 30
0.0
 11
12260.49882398829
 21
21661.113077165261
 31
0.0
  0
LINE
  5
3BA
  8
KL
 10
11684.11449683482
 20
22563.16364631959
 30
0.0
 11
11382.58099723124
 21
22563.16364631959
 31
0.0
  0
LINE
  5
3BD
  8
FUTO
 10
11562.58099723124
 20
22569.16364631959
 30
0.0
 11
11472.58099723124
 21
22569.16364631959
 31
0.0
  0
LINE
  5
3BF
  8
FUTO
 10
11582.58099723124
 20
22569.16364631959
 30
0.0
 11
11582.58099723124
 21
22563.16364631959
 31
0.0
  0
ARC
  5
3C0
  8
FUTO
 10
11559.58099723124
 20
22600.16364631959
 30
0.0
 40
2.9999999999999991
 50
0.000000000000007
 51
90.0
  0
LINE
  5
3C1
  8
FUTO
 10
11562.58099723124
 20
22600.16364631959
 30
0.0
 11
11562.58099723124
 21
22569.16364631959
 31
0.0
  0
LINE
  5
3C2
  8
FUTO
 10
11493.58099723124
 20
22603.16364631959
 30
0.0
 11
11559.58099723124
 21
22603.16364631959
 31
0.0
  0
ARC
  5
3C3
  8
FUTO
 10
11382.580997231251
 20
22669.16364631959
 30
0.0
 40
94.999999999998295
 50
270.0
 51
290.94387397238302
  0
LINE
  5
3C4
  8
FUTO
 10
11472.58099723124
 20
22569.16364631959
 30
0.0
 11
11472.58099723124
 21
22572.16364631959
 31
0.0
  0
ARC
  5
3C5
  8
FUTO
 10
11430.080997231251
 20
22586.891232960072
 30
0.0
 40
14.999999999999909
 50
300.0000000000008
 51
34.528063013809827
  0
LINE
  5
3C6
  8
FUTO
 10
11472.58099723124
 20
22572.16364631959
 30
0.0
 11
11382.58099723124
 21
22572.16364631959
 31
0.0
  0
ARC
  5
3C7
  8
FUTO
 10
11430.080997231251
 20
22586.891232960072
 30
0.0
 40
15.000000000000419
 50
205.4719369861869
 51
300.00000000000011
  0
LINE
  5
3CB
  8
KL
 10
11081.047497627669
 20
22563.16364631959
 30
0.0
 11
11061.45038093509
 21
22466.000836540708
 31
0.0
  0
LINE
  5
3D0
  8
FUTO
 10
10882.580997231251
 20
21579.16364631959
 30
0.0
 11
10882.580997231251
 21
21429.163646319579
 31
0.0
  0
POINT
  5
3D6
  8
DEFPOINTS
  6
BYBLOCK
 62
     0
 10
10532.58099723124
 20
21429.16364631959
 30
0.0
  0
LINE
  5
3D9
  8
FUTO
 10
10532.58099723124
 20
21579.16364631959
 30
0.0
 11
10532.58099723124
 21
21429.16364631959
 31
0.0
  0
LINE
  5
3DD
  8
FUTO
 10
11271.58099723124
 20
22603.16364631959
 30
0.0
 11
11205.580997231251
 21
22603.16364631959
 31
0.0
  0
LINE
  5
3DE
  8
FUTO
 10
11202.580997231251
 20
22569.16364631959
 30
0.0
 11
11292.58099723124
 21
22569.16364631959
 31
0.0
  0
LINE
  5
3E0
  8
FUTO
 10
11292.58099723124
 20
22569.16364631959
 30
0.0
 11
11292.58099723124
 21
22572.16364631959
 31
0.0
  0
ARC
  5
3E1
  8
FUTO
 10
11335.080997231251
 20
22586.891232960072
 30
0.0
 40
14.99999999999998
 50
145.47193698619191
 51
240.0000000000006
  0
ARC
  5
3E2
  8
FUTO
 10
11335.080997231251
 20
22586.891232960072
 30
0.0
 40
14.99999999999978
 50
239.99999999999989
 51
334.52806301381321
  0
LINE
  5
3E3
  8
FUTO
 10
11182.580997231251
 20
22569.16364631959
 30
0.0
 11
11182.580997231251
 21
22563.16364631959
 31
0.0
  0
ARC
  5
3E5
  8
FUTO
 10
11205.580997231251
 20
22600.16364631959
 30
0.0
 40
2.9999999999999991
 50
90.0
 51
180.0
  0
LINE
  5
3E6
  8
FUTO
 10
11202.580997231251
 20
22600.16364631959
 30
0.0
 11
11202.580997231251
 21
22569.16364631959
 31
0.0
  0
LINE
  5
405
  8
SL
 10
13920.73998415453
 20
22589.16364631959
 30
0.0
 11
13942.839984154531
 21
22589.16364631959
 31
0.0
  0
LINE
  5
406
  8
CT
 10
13695.88325463382
 20
21839.16364631959
 30
0.0
 11
13998.701937745271
 21
21839.16364631959
 31
0.0
  0
LINE
  5
407
  8
FUTO
 10
13732.839984154531
 20
21619.16364631959
 30
0.0
 11
13987.839984154531
 21
21619.16364631959
 31
0.0
  0
LINE
  5
408
  8
SL
 10
13920.73998415453
 20
21779.16364631959
 30
0.0
 11
13935.839984154531
 21
21779.16364631959
 31
0.0
  0
LINE
  5
409
  8
SL
 10
13920.73998415453
 20
21899.16364631959
 30
0.0
 11
13935.839984154531
 21
21899.16364631959
 31
0.0
  0
LINE
  5
40E
  8
SL
 10
13842.839984154531
 20
21733.16364631959
 30
0.0
 11
13920.73998415453
 21
21733.16364631959
 31
0.0
  0
LINE
  5
40F
  8
SL
 10
13842.839984154531
 20
21945.16364631959
 30
0.0
 11
13920.73998415453
 21
21945.16364631959
 31
0.0
  0
LINE
  5
410
  8
SL
 10
13842.839984154531
 20
22419.16364631959
 30
0.0
 11
13920.73998415453
 21
22419.16364631959
 31
0.0
  0
LINE
  5
415
  8
CT
 10
13999.839984154531
 20
21449.055822918581
 30
0.0
 11
13999.839984154531
 21
21392.27215297681
 31
0.0
1001
ACAD
1000
ASC_BOUNDS
1002
{
1070
    19
1005
0
1005
3975
1005
3975
1002
}
  0
LINE
  5
41A
  8
SL
 10
13935.839984154531
 20
21899.16364631959
 30
0.0
 11
13935.839984154531
 21
21779.16364631959
 31
0.0
  0
LINE
  5
41B
  8
FUTO
 10
13987.839984154531
 20
21786.221072595381
 30
0.0
 11
13987.839984154531
 21
21619.16364631959
 31
0.0
  0
LINE
  5
42E
  8
FUTO
 10
10329.58099723124
 20
22678.163646319601
 30
0.0
 11
11182.580997231251
 21
22678.16364631959
 31
0.0
  0
LINE
  5
42F
  8
FUTO
 10
10329.58099723124
 20
22660.16364631959
 30
0.0
 11
11182.580997231251
 21
22660.16364631959
 31
0.0
  0
LINE
  5
430
  8
FUTO
 10
11369.58099723124
 20
23599.16364631959
 30
0.0
 11
12927.58099723124
 21
23599.16364631959
 31
0.0
  0
LINE
  5
431
  8
HOSO
 10
11423.58099723124
 20
23599.16364631959
 30
0.0
 11
12873.58099723124
 21
23599.16364631959
 31
0.0
  0
LINE
  5
44C
  8
FUTO
 10
11369.58099723124
 20
23549.16364631959
 30
0.0
 11
12927.58099723124
 21
23549.16364631959
 31
0.0
  0
LINE
  5
44D
  8
FUTO
 10
11369.58099723124
 20
23595.16364631959
 30
0.0
 11
12927.58099723124
 21
23595.16364631959
 31
0.0
  0
LINE
  5
44E
  8
CT
 10
10204.577018583919
 20
22669.16364631959
 30
0.0
 11
12912.67057631922
 21
22669.16364631959
 31
0.0
  0
LINE
  5
478
  8
FUTO
 10
10532.58099723124
 20
25753.5523425135
 30
0.0
 11
12932.58099723124
 21
25753.5523425135
 31
0.0
  0
LINE
  5
479
  8
FUTO
 10
10532.58099723124
 20
25828.5523425135
 30
0.0
 11
12873.58099723124
 21
25828.5523425135
 31
0.0
  0
LINE
  5
47A
  8
FUTO
 10
10882.580997231251
 20
24850.5523425135
 30
0.0
 11
12932.58099723124
 21
24850.5523425135
 31
0.0
  0
LINE
  5
488
  8
FUTO
 10
10882.580997231251
 20
24777.5523425135
 30
0.0
 11
12932.58099723124
 21
24777.5523425135
 31
0.0
  0
LINE
  5
489
  8
FUTO
 10
10882.580997231251
 20
24777.5523425135
 30
0.0
 11
12932.58099723124
 21
24777.5523425135
 31
0.0
  0
LINE
  5
4A3
  8
FUTO
 10
12932.58099723124
 20
25828.5523425135
 30
0.0
 11
12932.58099723124
 21
25753.5523425135
 31
0.0
  0
LINE
  5
4A4
  8
FUTO
 10
12717.580997231251
 20
25753.5523425135
 30
0.0
 11
12717.580997231251
 21
25454.0523425135
 31
0.0
  0
LINE
  5
4A5
  8
CT
 10
12582.58099723124
 20
25593.136831713418
 30
0.0
 11
12582.58099723124
 21
24417.42051059549
 31
0.0
  0
LINE
  5
4AD
  8
KL
 10
12873.58099723124
 20
23599.16364631959
 30
0.0
 11
12788.28821544347
 21
22653.569049584341
 31
0.0
  0
LINE
  5
4AE
  8
FUTO
 10
12889.152185209379
 20
23549.16364631959
 30
0.0
 11
12810.587847814009
 21
22678.16364631959
 31
0.0
  0
LINE
  5
4AF
  8
FUTO
 10
12808.96424497461
 20
22660.16364631959
 30
0.0
 11
12808.20734788369
 21
22651.772340696101
 31
0.0
  0
LINE
  5
4B0
  8
FUTO
 10
12840.709641612049
 20
22678.16364631959
 30
0.0
 11
12840.709641612049
 21
22660.16364631959
 31
0.0
  0
LINE
  5
4B2
  8
FUTO
 10
12927.58099723124
 20
23599.16364631959
 30
0.0
 11
12927.58099723124
 21
23549.16364631959
 31
0.0
  0
LINE
  5
51D
  8
CT
 10
11382.58099723124
 20
27279.424920163099
 30
0.0
 11
11382.58099723124
 21
24453.692254573762
 31
0.0
  0
LINE
  5
52A
  8
FUTO
 10
10882.580997231251
 20
25753.5523425135
 30
0.0
 11
10882.580997231251
 21
24777.5523425135
 31
0.0
  0
LINE
  5
52C
  8
FUTO
 10
10957.58099723124
 20
25753.5523425135
 30
0.0
 11
10957.58099723124
 21
24844.5523425135
 31
0.0
  0
ARC
  5
559
  8
FUTO
 10
11297.080997231251
 20
22583.66364631959
 30
0.0
 40
937.5
 50
90.0
 51
174.2147601162512
  0
ARC
  5
577
  8
FUTO
 10
11297.080997231251
 20
22754.363646319591
 30
0.0
 40
766.5
 50
82.013298782178524
 51
90.0
  0
CIRCLE
  5
578
  8
FUTO
 10
11382.58099723124
 20
22669.16364631959
 30
0.0
 40
36.5
  0
ARC
  5
579
  8
FUTO
 10
11382.58099723124
 20
22669.16364631959
 30
0.0
 40
94.999999999998053
 50
90.0
 51
110.94387397238231
  0
INSERT
  5
57A
  8
FUTO
  2
左回転矢印
 10
11204.572102149379
 20
23183.042466177321
 30
0.0
 41
2.0
 42
2.0
 43
2.0
  0
ARC
  5
585
  8
KL
 10
11297.080997231251
 20
22754.363646319591
 30
0.0
 40
746.49999999999989
 50
54.121502257414733
 51
90.0
  0
ARC
  5
587
  8
FUTO
 10
11477.58099723124
 20
22669.16364631959
 30
0.0
 40
14.999999999999909
 50
265.47193698619128
 51
359.9999999999996
  0
ARC
  5
588
  8
FUTO
 10
11477.58099723124
 20
22669.16364631959
 30
0.0
 40
15.000000000000121
 50
359.9999999999996
 51
94.528063013807852
  0
LINE
  5
589
  8
FUTO
 10
11398.262659929051
 20
22762.86042030371
 30
0.0
 11
11398.262659929051
 21
22769.16364631959
 31
0.0
  0
LINE
  5
58A
  8
FUTO
 10
11366.89933453344
 20
22762.86042030371
 30
0.0
 11
11366.89933453344
 21
22769.16364631959
 31
0.0
  0
LINE
  5
58B
  8
FUTO
 10
11366.89933453344
 20
22769.16364631959
 30
0.0
 11
11398.262659929051
 21
22769.16364631959
 31
0.0
  0
LINE
  5
58C
  8
FUTO
 10
11477.58099723124
 20
22654.16364631959
 30
0.0
 11
11477.58099723124
 21
22619.16364631959
 31
0.0
  0
ARC
  5
58D
  8
FUTO
 10
11382.58099723124
 20
22669.16364631959
 30
0.0
 40
95.000000000000995
 50
329.99999999999932
 51
350.94387397238222
  0
ARC
  5
58E
  8
FUTO
 10
11382.580997231251
 20
22669.16364631959
 30
0.0
 40
94.999999999997456
 50
9.0561260276185163
 51
30.000000000001421
  0
ARC
  5
58F
  8
FUTO
 10
11382.58099723124
 20
22669.16364631959
 30
0.0
 40
95.000000000000071
 50
29.999999999999481
 51
50.943873972382391
  0
ARC
  5
590
  8
FUTO
 10
11382.58099723124
 20
22669.16364631959
 30
0.0
 40
94.999999999998494
 50
69.056126027616216
 51
90.0
  0
ARC
  5
591
  8
FUTO
 10
11430.08099723124
 20
22751.436059679108
 30
0.0
 40
14.99999999999976
 50
325.47193698619111
 51
59.999999999999517
  0
ARC
  5
592
  8
FUTO
 10
11430.08099723124
 20
22751.436059679108
 30
0.0
 40
15.00000000000038
 50
59.999999999999517
 51
154.52806301381301
  0
CIRCLE
  5
593
  8
KL
 10
11743.143853693769
 20
23374.62932273679
 30
0.0
 40
17.407412889793701
  0
LINE
  5
594
  8
FUTO
 10
11369.58099723124
 20
23549.16364631959
 30
0.0
 11
11369.58099723124
 21
23599.16364631959
 31
0.0
  0
LINE
  5
595
  8
KL
 10
11423.58099723124
 20
23599.16364631959
 30
0.0
 11
11423.58099723124
 21
23490.067391042969
 31
0.0
  0
LINE
  5
596
  8
FUTO
 10
11403.58099723124
 20
23549.16364631959
 30
0.0
 11
11403.58099723124
 21
23513.428860909218
 31
0.0
  0
INSERT
  5
597
  8
FUTO
  2
まっすぐの矢印
 10
12442.56834372392
 20
23829.0215990494
 30
0.0
 41
2.0
 42
2.0
 43
2.0
  0
LINE
  5
5A2
  8
FUTO
 10
11287.580997231251
 20
22654.16364631959
 30
0.0
 11
11287.580997231251
 21
22619.16364631959
 31
0.0
  0
ARC
  5
5A3
  8
FUTO
 10
11382.58099723124
 20
22669.16364631959
 30
0.0
 40
94.999999999999389
 50
149.99999999999969
 51
170.94387397238259
  0
ARC
  5
5A4
  8
FUTO
 10
11287.580997231251
 20
22669.16364631959
 30
0.0
 40
15.000000000000121
 50
85.471936986192148
 51
180.00000000000051
  0
ARC
  5
5A5
  8
FUTO
 10
11287.580997231251
 20
22669.16364631959
 30
0.0
 40
14.999999999999909
 50
180.0000000000004
 51
274.52806301380861
  0
ARC
  5
5A6
  8
FUTO
 10
11382.58099723124
 20
22669.16364631959
 30
0.0
 40
94.999999999999389
 50
189.0561260276173
 51
210.0000000000002
  0
ARC
  5
5A7
  8
FUTO
 10
11382.58099723124
 20
22669.16364631959
 30
0.0
 40
94.999999999999915
 50
129.0561260276165
 51
149.9999999999994
  0
ARC
  5
5A8
  8
FUTO
 10
11335.080997231251
 20
22751.436059679108
 30
0.0
 40
15.00000000000038
 50
25.4719369861869
 51
120.0000000000005
  0
ARC
  5
5A9
  8
FUTO
 10
11335.080997231251
 20
22751.436059679108
 30
0.0
 40
15.00000000000006
 50
120.0000000000008
 51
214.5280630138098
  0
LINE
  5
605
  8
FUTO
 10
13732.839984154531
 20
23049.16364631959
 30
0.0
 11
13987.839984154531
 21
23049.16364631959
 31
0.0
  0
LINE
  5
606
  8
SL
 10
13920.73998415453
 20
22749.16364631959
 30
0.0
 11
13942.839984154531
 21
22749.16364631959
 31
0.0
  0
POINT
  5
609
  8
DEFPOINTS
 10
13732.839984154531
 20
23049.16364631959
 30
0.0
  0
LINE
  5
60A
  8
SL
 10
13842.839984154531
 20
22919.16364631959
 30
0.0
 11
13920.73998415453
 21
22919.16364631959
 31
0.0
  0
LINE
  5
60E
  8
FUTO
 10
14172.839984154531
 20
22624.16364631959
 30
0.0
 11
14741.839984154531
 21
22624.16364631959
 31
0.0
  0
LINE
  5
60F
  8
FUTO
 10
14172.839984154531
 20
22714.16364631959
 30
0.0
 11
14741.839984154531
 21
22714.16364631959
 31
0.0
  0
LINE
  5
610
  8
FUTO
 10
13987.839984154531
 20
23049.16364631959
 30
0.0
 11
13987.839984154531
 21
22822.854016225308
 31
0.0
  0
LINE
  5
611
  8
FUTO
 10
13942.839984154531
 20
22626.66364631959
 30
0.0
 11
14032.339984154531
 21
22626.66364631959
 31
0.0
  0
LINE
  5
612
  8
FUTO
 10
13942.839984154531
 20
22711.66364631959
 30
0.0
 11
14032.339984154531
 21
22711.66364631959
 31
0.0
  0
LINE
  5
68C
  8
FUTO
 10
10532.58099723124
 20
26977.5523425135
 30
0.0
 11
12232.580997231251
 21
26977.5523425135
 31
0.0
  0
LINE
  5
68D
  8
FUTO
 10
10379.580997231251
 20
26902.5523425135
 30
0.0
 11
12873.58099723124
 21
26902.552342513511
 31
0.0
  0
LINE
  5
68E
  8
CT
 10
10205.06099665172
 20
26364.5523425135
 30
0.0
 11
13108.305813133549
 21
26364.5523425135
 31
0.0
  0
LINE
  5
68F
  8
FUTO
 10
12232.580997231251
 20
26977.5523425135
 30
0.0
 11
12232.580997231251
 21
26948.5523425135
 31
0.0
  0
LINE
  5
6A9
  8
FUTO
 10
10532.58099723124
 20
26977.5523425135
 30
0.0
 11
10532.58099723124
 21
26948.552342513511
 31
0.0
  0
LINE
  5
6C2
  8
FUTO
 10
15022.839984154531
 20
22660.16364631959
 30
0.0
 11
15022.839984154531
 21
21579.16364631959
 31
0.0
  0
LINE
  5
6C3
  8
FUTO
 10
15018.339984154531
 20
22660.16364631959
 30
0.0
 11
15018.339984154531
 21
21579.16364631959
 31
0.0
  0
LINE
  5
6C5
  8
FUTO
 10
16082.839984154531
 20
22660.16364631959
 30
0.0
 11
16082.839984154531
 21
21579.16364631959
 31
0.0
  0
LINE
  5
6C6
  8
KL
 10
16088.839984154531
 20
23373.47638862862
 30
0.0
 11
16088.839984154531
 21
21964.85090401056
 31
0.0
  0
LINE
  5
6CD
  8
CT
 10
15552.839984154531
 20
23791.649062997451
 30
0.0
 11
15552.839984154531
 21
21259.16364631959
 31
0.0
  0
LINE
  5
6D4
  8
FUTO
 10
14943.339984154531
 20
23549.16364631959
 30
0.0
 11
14943.339984154531
 21
21579.16364631959
 31
0.0
  0
DIMENSION
  5
6D5
  8
FUTO
  2
*D13
 10
16552.44984591076
 20
21969.16364631959
 30
0.0
 11
16492.449845910749
 21
22669.16364631959
 31
0.0
 70
     0
  1
%%C<>
 13
16186.839984154531
 23
23369.16364631959
 33
0.0
 14
16186.839984154531
 24
21969.16364631959
 34
0.0
 50
90.0
1001
ACAD
1000
DSTYLE
1002
{
1070
    40
1040
30.0
1070
   176
1070
     2
1070
   177
1070
     2
1070
   178
1070
     2
1070
   341
1005
44D5
1070
     5
1000
OPEN30
1002
}
  0
LINE
  5
6E2
  8
KL
 10
16092.03998415453
 20
22660.16364631959
 30
0.0
 11
16092.03998415453
 21
21919.16364631959
 31
0.0
  0
LINE
  5
6E6
  8
FUTO
 10
16180.839984154531
 20
23419.16364631959
 30
0.0
 11
16180.839984154531
 21
21919.16364631959
 31
0.0
  0
LINE
  5
6E7
  8
FUTO
 10
16186.839984154531
 20
23419.16364631959
 30
0.0
 11
16186.839984154531
 21
21919.16364631959
 31
0.0
  0
LINE
  5
703
  8
KL
 10
15018.339984154531
 20
21466.258683250089
 30
0.0
 11
16086.03998415453
 21
21466.258683250089
 31
0.0
  0
LINE
  5
70B
  8
CT
 10
14973.839984154531
 20
21449.327727451309
 30
0.0
 11
14973.839984154531
 21
21383.794892328599
 31
0.0
1001
ACAD
1000
ASC_BOUNDS
1002
{
1070
    19
1002
}
  0
LINE
  5
70E
  8
KL
 10
15018.339984154531
 20
21579.16364631959
 30
0.0
 11
15018.339984154531
 21
21466.258683250089
 31
0.0
  0
LINE
  5
70F
  8
KL
 10
15022.839984154531
 20
21579.16364631959
 30
0.0
 11
15022.839984154531
 21
21466.258683250089
 31
0.0
  0
LINE
  5
724
  8
CT
 10
16129.839984154531
 20
21448.687075251051
 30
0.0
 11
16129.839984154531
 21
21395.716421677102
 31
0.0
1001
ACAD
1000
ASC_BOUNDS
1002
{
1070
    19
1002
}
  0
LINE
  5
725
  8
KL
 10
16082.839984154531
 20
21579.16364631959
 30
0.0
 11
16082.839984154531
 21
21466.258683250089
 31
0.0
  0
LINE
  5
72B
  8
KL
 10
16092.03998415453
 20
21963.16364631959
 30
0.0
 11
16161.03998415453
 21
21963.16364631959
 31
0.0
  0
LINE
  5
72C
  8
KL
 10
16086.03998415453
 20
21969.16364631959
 30
0.0
 11
16186.839984154531
 21
21969.16364631959
 31
0.0
  0
LINE
  5
72D
  8
CT
 10
16053.555286559431
 20
21936.66364631959
 30
0.0
 11
16110.59801969147
 21
21936.66364631959
 31
0.0
  0
LINE
  5
72E
  8
KL
 10
16086.03998415453
 20
21919.16364631959
 30
0.0
 11
16092.03998415453
 21
21919.16364631959
 31
0.0
  0
LINE
  5
72F
  8
FUTO
 10
16161.03998415453
 20
21963.16364631959
 30
0.0
 11
16180.839984154531
 21
21963.16364631959
 31
0.0
  0
LINE
  5
730
  8
CT
 10
16157.720249241889
 20
21936.66364631959
 30
0.0
 11
16217.863102995771
 21
21936.66364631959
 31
0.0
  0
LINE
  5
731
  8
FUTO
 10
16180.839984154531
 20
21919.16364631959
 30
0.0
 11
16186.839984154531
 21
21919.16364631959
 31
0.0
  0
LINE
  5
7FD
  8
FUTO
 10
14943.339984154531
 20
22660.16364631959
 30
0.0
 11
16161.03998415453
 21
22660.16364631959
 31
0.0
  0
LINE
  5
7FE
  8
FUTO
 10
14943.339984154531
 20
22678.163646319601
 30
0.0
 11
16161.03998415453
 21
22678.16364631959
 31
0.0
  0
LINE
  5
7FF
  8
FUTO
 10
14943.339984154531
 20
23549.16364631959
 30
0.0
 11
16161.03998415453
 21
23549.16364631959
 31
0.0
  0
DIMENSION
  5
800
  8
FUTO
  2
*D14
 10
16186.839984154531
 20
24074.147204765912
 30
0.0
 11
15869.839984154531
 21
24134.147204765912
 31
0.0
 70
     0
 13
15552.839984154531
 23
23919.76011042525
 33
0.0
 14
16186.839984154531
 24
23419.16364631959
 34
0.0
1001
ACAD
1000
DSTYLE
1002
{
1070
    40
1040
30.0
1070
   176
1070
     2
1070
   177
1070
     2
1070
   178
1070
     2
1070
   341
1005
44D5
1070
     5
1000
OPEN30
1002
}
  0
DIMENSION
  5
80D
  8
FUTO
  2
*D15
 10
16082.839984154531
 20
23812.286638413942
 30
0.0
 11
15552.839984154531
 21
23812.286638413942
 31
0.0
 70
   128
 13
15022.839984154531
 23
23549.16364631959
 33
0.0
 14
16082.839984154531
 24
23549.16364631959
 34
0.0
1001
ACAD
1000
DSTYLE
1002
{
1070
    40
1040
30.0
1070
   176
1070
     2
1070
   177
1070
     2
1070
   178
1070
     2
1070
   341
1005
44D5
1070
     5
1000
OPEN30
1002
}
  0
LINE
  5
81F
  8
FUTO
 10
14968.339984154531
 20
23599.16364631959
 30
0.0
 11
16137.339984154531
 21
23599.163646319579
 31
0.0
  0
LINE
  5
820
  8
FUTO
 10
14968.339984154531
 20
23594.66364631959
 30
0.0
 11
16137.339984154531
 21
23594.66364631959
 31
0.0
  0
LINE
  5
826
  8
FUTO
 10
15018.339984154531
 20
23549.16364631959
 30
0.0
 11
15018.339984154531
 21
22678.16364631959
 31
0.0
  0
LINE
  5
827
  8
FUTO
 10
15022.839984154531
 20
23549.16364631959
 30
0.0
 11
15022.839984154531
 21
22678.16364631959
 31
0.0
  0
LINE
  5
831
  8
FUTO
 10
14968.339984154531
 20
23599.16364631959
 30
0.0
 11
14968.339984154531
 21
23549.16364631959
 31
0.0
  0
INSERT
  5
841
  8
FUTO
  2
まっすぐの矢印
 10
16248.686764843929
 20
23225.415534639571
 30
0.0
 41
-2.0
 42
2.0
 43
2.0
 50
90.0
  0
LINE
  5
842
  8
FUTO
 10
16082.839984154531
 20
23549.16364631959
 30
0.0
 11
16082.839984154531
 21
22678.16364631959
 31
0.0
  0
LINE
  5
844
  8
KL
 10
16092.03998415453
 20
23419.16364631959
 30
0.0
 11
16092.03998415453
 21
22678.16364631959
 31
0.0
  0
LINE
  5
845
  8
KL
 10
16092.03998415453
 20
23375.16364631959
 30
0.0
 11
16162.339984154531
 21
23375.16364631959
 31
0.0
  0
LINE
  5
846
  8
KL
 10
16086.03998415453
 20
23369.16364631959
 30
0.0
 11
16186.839984154531
 21
23369.16364631959
 31
0.0
  0
LINE
  5
847
  8
CT
 10
16063.38388291067
 20
23401.66364631959
 30
0.0
 11
16106.08952133592
 21
23401.66364631959
 31
0.0
  0
LINE
  5
848
  8
KL
 10
16086.03998415453
 20
23419.16364631959
 30
0.0
 11
16092.03998415453
 21
23419.16364631959
 31
0.0
  0
LINE
  5
849
  8
FUTO
 10
16137.339984154531
 20
23599.163646319579
 30
0.0
 11
16137.339984154531
 21
23549.16364631959
 31
0.0
  0
LINE
  5
84A
  8
FUTO
 10
16162.339984154531
 20
23375.16364631959
 30
0.0
 11
16180.839984154531
 21
23375.16364631959
 31
0.0
  0
LINE
  5
84B
  8
CT
 10
16158.078996892331
 20
23401.66364631959
 30
0.0
 11
16210.06847244874
 21
23401.66364631959
 31
0.0
  0
LINE
  5
84C
  8
FUTO
 10
16180.839984154531
 20
23419.16364631959
 30
0.0
 11
16186.839984154531
 21
23419.16364631959
 31
0.0
  0
POLYLINE
  8
0
  5
5394
  62
2
  66
     1
 10
0.000000
 20
0.000000
 30
0.000000
  70
     8
  0
VERTEX
  8
0
  5
5395
 10
10252.7
 20
22793.3
 30
0.000000
  70
    32
  0
VERTEX
  8
0
  5
5396
 10
10252.7
 20
22669.2
 30
0.000000
  70
    32
  0
SEQEND
  8
0
  5
5397
  0
POLYLINE
  8
0
  5
5398
  62
2
  66
     1
 10
0.000000
 20
0.000000
 30
0.000000
  70
     8
  0
VERTEX
  8
0
  5
5399
 10
10252.7
 20
22545.0
 30
0.000000
  70
    32
  0
VERTEX
  8
0
  5
539A
 10
10252.7
 20
22669.2
 30
0.000000
  70
    32
  0
SEQEND
  8
0
  5
539B
  0
POLYLINE
  8
0
  5
539C
  62
2
  66
     1
 10
0.000000
 20
0.000000
 30
0.000000
  70
     8
  0
VERTEX
  8
0
  5
539D
 10
12896.6
 20
22793.3
 30
0.000000
  70
    32
  0
VERTEX
  8
0
  5
539E
 10
12896.6
 20
22669.2
 30
0.000000
  70
    32
  0
SEQEND
  8
0
  5
539F
  0
POLYLINE
  8
0
  5
53A0
  62
2
  66
     1
 10
0.000000
 20
0.000000
 30
0.000000
  70
     8
  0
VERTEX
  8
0
  5
53A1
 10
12896.6
 20
22545.0
 30
0.000000
  70
    32
  0
VERTEX
  8
0
  5
53A2
 10
12896.6
 20
22669.2
 30
0.000000
  70
    32
  0
SEQEND
  8
0
  5
53A3
  0
LINE
  5
971
  8
FUTO
 10
11182.580997231251
 20
22678.163646319601
 30
0.0
 11
11182.580997231251
 21
22660.16364631959
 31
0.0
  0
LINE
  5
972
  8
FUTO
 10
11582.58099723124
 20
22678.16364631959
 30
0.0
 11
11582.58099723124
 21
22660.16364631959
 31
0.0
  0
LINE
  5
973
  8
FUTO
 10
11582.58099723124
 20
22678.16364631959
 30
0.0
 11
12840.709641612049
 21
22678.16364631959
 31
0.0
  0
LINE
  5
974
  8
FUTO
 10
11582.58099723124
 20
22660.16364631959
 30
0.0
 11
12840.709641612049
 21
22660.16364631959
 31
0.0
  0
LINE
  5
990
  8
FUTO
 10
10329.58099723124
 20
22678.163646319601
 30
0.0
 11
10329.58099723124
 21
22660.16364631959
 31
0.0
  0
POLYLINE
  5
119F
  8
FUTO
 66
     1
 10
0.0
 20
0.0
 30
0.0
 70
     1
1001
ACAD
1000
ASC_BOUNDS
1002
{
1070
    19
1002
}
  0
VERTEX
  5
531A
  8
FUTO
 10
14938.839984154531
 20
21429.16364631959
 30
0.0
  0
VERTEX
  5
531B
  8
FUTO
 10
14938.839984154531
 20
21432.501834897761
 30
0.0
 42
-0.3888787318529885
  0
VERTEX
  5
531C
  8
FUTO
 10
14942.49136118354
 20
21436.486613690129
 30
0.0
  0
VERTEX
  5
531D
  8
FUTO
 10
15003.688607125519
 20
21441.840678949058
 30
0.0
 42
0.3888787318529894
  0
VERTEX
  5
531E
  8
FUTO
 10
15007.339984154531
 20
21445.825457741419
 30
0.0
  0
VERTEX
  5
531F
  8
FUTO
 10
15007.339984154531
 20
21562.501834897761
 30
0.0
 42
0.3888787318529893
  0
VERTEX
  5
5320
  8
FUTO
 10
15003.688607125519
 20
21566.486613690129
 30
0.0
  0
VERTEX
  5
5321
  8
FUTO
 10
14942.49136118354
 20
21571.840678949058
 30
0.0
 42
-0.3888787318529887
  0
VERTEX
  5
5322
  8
FUTO
 10
14938.839984154531
 20
21575.825457741419
 30
0.0
  0
VERTEX
  5
5323
  8
FUTO
 10
14938.839984154531
 20
21579.16364631959
 30
0.0
  0
VERTEX
  5
5324
  8
FUTO
 10
15013.839984154531
 20
21579.16364631959
 30
0.0
  0
VERTEX
  5
5325
  8
FUTO
 10
15013.839984154531
 20
21429.16364631959
 30
0.0
  0
SEQEND
  5
5326
  8
FUTO
  0
LINE
  5
1840
  8
FUTO
 10
11807.580997231251
 20
25753.5523425135
 30
0.0
 11
11807.580997231251
 21
24844.5523425135
 31
0.0
  0
LINE
  5
1841
  8
FUTO
 10
11882.58099723124
 20
25753.5523425135
 30
0.0
 11
11882.58099723124
 21
24844.552342513511
 31
0.0
  0
DIMENSION
  5
1F4D
  8
FUTO
  2
*D6
 10
9904.689198179527
 20
23599.16364631959
 30
0.0
 11
9844.6891981795234
 21
23134.16364631959
 31
0.0
 70
     0
 13
10204.577018583919
 23
22669.16364631959
 33
0.0
 14
11390.598797192481
 24
23599.16364631959
 34
0.0
 50
270.0
1001
ACAD
1000
DSTYLE
1002
{
1070
    40
1040
30.0
1070
   176
1070
     2
1070
   177
1070
     2
1070
   178
1070
     2
1070
   341
1005
44D5
1070
     5
1000
OPEN30
1002
}
  0
LINE
  5
1FF1
  8
FUTO
 10
16086.03998415453
 20
23549.16364631959
 30
0.0
 11
16086.03998415453
 21
22678.16364631959
 31
0.0
  0
LINE
  5
1FF2
  8
FUTO
 10
16086.03998415453
 20
22660.16364631959
 30
0.0
 11
16086.03998415453
 21
21579.16364631959
 31
0.0
  0
LINE
  5
1FF3
  8
KL
 10
16086.03998415453
 20
21579.16364631959
 30
0.0
 11
16086.03998415453
 21
21466.258683250089
 31
0.0
  0
LINE
  5
1FF5
  8
FUTO
 10
16161.03998415453
 20
23549.16364631959
 30
0.0
 11
16161.03998415453
 21
21579.16364631959
 31
0.0
  0
DIMENSION
  5
2003
  8
FUTO
  2
*D7
 10
16164.839984154531
 20
21011.12972407764
 30
0.0
 11
15064.839984154531
 21
21071.129724077629
 31
0.0
 70
     0
 13
13964.839984154531
 23
21429.16364631959
 33
0.0
 14
16164.839984154531
 24
21429.16364631959
 34
0.0
1001
ACAD
1000
DSTYLE
1002
{
1070
    40
1040
30.0
1070
   176
1070
     2
1070
   177
1070
     2
1070
   178
1070
     2
1070
   341
1005
44D5
1070
     5
1000
OPEN30
1002
}
  0
ARC
  5
256F
  8
FUTO
 10
11484.580997231251
 20
22771.16364631959
 30
0.0
 40
1329.0
 50
303.7317071076418
 51
304.2531445519902
  0
ARC
  5
2570
  8
FUTO
 10
11484.580997231251
 20
22771.16364631959
 30
0.0
 40
1329.0
 50
296.24452855732062
 51
303.26641033301621
  0
LINE
  5
25BB
  8
CT
 10
11382.58099723124
 20
25361.225611234571
 30
0.0
 11
11382.58099723124
 21
25359.16648090339
 31
0.0
  0
TEXT
  5
29E7
  8
SP
 10
9149.8042194081445
 20
6129.2813767066364
 30
0.0
 40
100.0
  1
 
  0
LINE
  5
3207
  8
FUTO
 10
16086.11540281562
 20
21512.063782486279
 30
0.0
 11
16229.31540281562
 21
21512.063782486301
 31
0.0
  0
LINE
  5
3208
  8
FUTO
 10
16086.115402815631
 20
21478.063782486279
 30
0.0
 11
16229.31540281563
 21
21478.063782486301
 31
0.0
  0
LINE
  5
320D
  8
FUTO
 10
16229.31540281564
 20
21473.063782486312
 30
0.0
 11
16259.31540281564
 21
21473.063782486312
 31
0.0
  0
LINE
  5
320E
  8
FUTO
 10
16229.31540281562
 20
21517.063782486301
 30
0.0
 11
16259.31540281562
 21
21517.063782486312
 31
0.0
  0
LINE
  5
320F
  8
FUTO
 10
16229.31540281562
 20
21517.063782486301
 30
0.0
 11
16229.31540281563
 21
21473.063782486312
 31
0.0
  0
LINE
  5
3210
  8
FUTO
 10
16259.31540281562
 20
21517.063782486312
 30
0.0
 11
16259.31540281564
 21
21473.063782486312
 31
0.0
  0
LINE
  5
3235
  8
FUTO
 10
12787.577599420711
 20
22394.016651139558
 30
0.0
 11
12764.82720284043
 21
22401.50463604059
 31
0.0
  0
LINE
  5
3236
  8
FUTO
 10
12748.49789241446
 20
22275.28259326101
 30
0.0
 11
12722.19819741657
 21
22283.93878166419
 31
0.0
  0
LINE
  5
3237
  8
FUTO
 10
12793.94994749049
 20
22381.39154994877
 30
0.0
 11
12761.12299360524
 21
22281.654941330791
 31
0.0
  0
ARC
  5
3238
  8
FUTO
 10
12784.451222860211
 20
22384.51792650927
 30
0.0
 40
10.0
 50
341.78173999721008
 51
71.781739997210067
  0
ARC
  5
3239
  8
FUTO
 10
12751.62426897496
 20
22284.781317891291
 30
0.0
 40
10.0
 50
251.78173999721
 51
341.78173999721008
  0
LINE
  5
323A
  8
FUTO
 10
12790.703975981211
 20
22403.515375769839
 30
0.0
 11
12767.75459627193
 21
22411.06885327274
 31
0.0
  0
ARC
  5
323B
  8
FUTO
 10
12784.451222860211
 20
22384.51792650927
 30
0.0
 40
20.0
 50
341.78173999721008
 51
71.781739997210067
  0
LINE
  5
323C
  8
FUTO
 10
12803.44867212078
 20
22378.26517338827
 30
0.0
 11
12770.621718235519
 21
22278.528564770299
 31
0.0
  0
ARC
  5
323D
  8
FUTO
 10
12751.62426897496
 20
22284.781317891291
 30
0.0
 40
20.0
 50
251.78173999721
 51
341.78173999721008
  0
LINE
  5
323E
  8
FUTO
 10
12745.37151585396
 20
22265.78386863073
 30
0.0
 11
12718.303369301009
 21
22274.692982455279
 31
0.0
  0
LINE
  5
3241
  8
CT
 10
12829.01778388204
 20
22314.578868623259
 30
0.0
 11
12560.91058474049
 21
22402.822721953329
 31
0.0
  0
DIMENSION
  5
393B
  8
FUTO
  2
*D8
 10
16164.839984154531
 20
21192.460165335218
 30
0.0
 11
15858.839984154531
 21
21252.460165335229
 31
0.0
 70
     0
 13
15552.839984154531
 23
21429.16364631959
 33
0.0
 14
16164.839984154531
 24
21429.16364631959
 34
0.0
1001
ACAD
1000
DSTYLE
1002
{
1070
    40
1040
30.0
1070
   176
1070
     2
1070
   177
1070
     2
1070
   178
1070
     2
1070
   341
1005
44D5
1070
     5
1000
OPEN30
1002
}
  0
DIMENSION
  5
3948
  8
FUTO
  2
*D9
 10
13964.839984154531
 20
21192.465406257819
 30
0.0
 11
14758.839984154531
 21
21252.465406257819
 31
0.0
 70
     0
 13
15552.839984154531
 23
21429.16364631959
 33
0.0
 14
13964.839984154531
 24
21429.16364631959
 34
0.0
1001
ACAD
1000
DSTYLE
1002
{
1070
    40
1040
30.0
1070
   176
1070
     2
1070
   177
1070
     2
1070
   178
1070
     2
1070
   341
1005
44D5
1070
     5
1000
OPEN30
1002
}
  0
POLYLINE
  5
3949
  8
FUTO
 66
     1
 10
0.0
 20
0.0
 30
0.0
  0
VERTEX
  5
534B
  8
FUTO
 10
14942.839984154531
 20
21579.16364631959
 30
0.0
  0
VERTEX
  5
534C
  8
FUTO
 10
15017.839984154531
 20
21579.16364631959
 30
0.0
  0
SEQEND
  5
534D
  8
FUTO
  0
LINE
  5
3AE6
  8
FUTO
 10
14026.339984154531
 20
22561.16364631959
 30
0.0
 11
14026.339984154531
 21
21579.16364631959
 31
0.0
  0
LINE
  5
3AE7
  8
FUTO
 10
14026.339984154531
 20
22561.16364631959
 30
0.0
 11
14036.339984154531
 21
22561.16364631959
 31
0.0
  0
LINE
  5
3AE8
  8
FUTO
 10
14036.339984154531
 20
22561.16364631959
 30
0.0
 11
14036.339984154531
 21
22551.16364631959
 31
0.0
  0
LINE
  5
3AEA
  8
FUTO
 10
14036.339984154531
 20
22551.16364631959
 30
0.0
 11
14943.339984154531
 21
22551.16364631959
 31
0.0
  0
LINE
  5
3B39
  8
FUTO
 10
14146.839984154531
 20
22606.16364631959
 30
0.0
 11
14058.839984154531
 21
22606.16364631959
 31
0.0
  0
LINE
  5
3B3A
  8
FUTO
 10
14047.839984154531
 20
22569.16364631959
 30
0.0
 11
14157.839984154531
 21
22569.16364631959
 31
0.0
  0
LINE
  5
3B3B
  8
FUTO
 10
14152.839984154531
 20
22762.16364631959
 30
0.0
 11
14052.839984154531
 21
22762.16364631959
 31
0.0
  0
LINE
  5
3B3C
  8
FUTO
 10
14052.839984154531
 20
22762.16364631959
 30
0.0
 11
14052.839984154531
 21
22569.16364631959
 31
0.0
  0
LINE
  5
3B3D
  8
FUTO
 10
14032.339984154531
 20
22744.16364631959
 30
0.0
 11
14032.339984154531
 21
22594.16364631959
 31
0.0
  0
LINE
  5
3B3E
  8
FUTO
 10
14037.839984154531
 20
22753.16364631959
 30
0.0
 11
14037.839984154531
 21
22585.16364631959
 31
0.0
  0
LINE
  5
3B40
  8
FUTO
 10
14032.339984154531
 20
22594.16364631959
 30
0.0
 11
14037.839984154531
 21
22594.16364631959
 31
0.0
  0
ARC
  5
3B41
  8
FUTO
 10
14058.839984154531
 20
22600.16364631959
 30
0.0
 40
6.0
 50
90.0
 51
180.0
  0
LINE
  5
3B42
  8
FUTO
 10
14043.839984154531
 20
22579.16364631959
 30
0.0
 11
14052.839984154531
 21
22579.16364631959
 31
0.0
  0
ARC
  5
3B43
  8
FUTO
 10
14043.839984154531
 20
22585.16364631959
 30
0.0
 40
6.0
 50
180.0
 51
270.0
  0
LINE
  5
3B44
  8
FUTO
 10
14037.839984154531
 20
22744.16364631959
 30
0.0
 11
14032.339984154531
 21
22744.16364631959
 31
0.0
  0
ARC
  5
3B45
  8
FUTO
 10
14043.839984154531
 20
22753.16364631959
 30
0.0
 40
6.0
 50
90.0
 51
180.0
  0
LINE
  5
3B46
  8
FUTO
 10
14052.839984154531
 20
22759.16364631959
 30
0.0
 11
14043.839984154531
 21
22759.16364631959
 31
0.0
  0
LINE
  5
3B47
  8
FUTO
 10
14152.839984154531
 20
22569.16364631959
 30
0.0
 11
14152.839984154531
 21
22762.16364631959
 31
0.0
  0
LINE
  5
3B48
  8
FUTO
 10
14167.839984154531
 20
22753.16364631959
 30
0.0
 11
14167.839984154531
 21
22585.16364631959
 31
0.0
  0
LINE
  5
3B49
  8
FUTO
 10
14173.339984154531
 20
22744.16364631959
 30
0.0
 11
14173.339984154531
 21
22594.16364631959
 31
0.0
  0
LINE
  5
3B4A
  8
FUTO
 10
14161.839984154531
 20
22579.16364631959
 30
0.0
 11
14152.839984154531
 21
22579.16364631959
 31
0.0
  0
ARC
  5
3B4B
  8
FUTO
 10
14146.839984154531
 20
22600.16364631959
 30
0.0
 40
6.0
 50
0.0
 51
90.0
  0
ARC
  5
3B4C
  8
FUTO
 10
14161.839984154531
 20
22585.16364631959
 30
0.0
 40
6.0
 50
270.0
 51
0.0
  0
LINE
  5
3B4D
  8
FUTO
 10
14173.339984154531
 20
22594.16364631959
 30
0.0
 11
14167.839984154531
 21
22594.16364631959
 31
0.0
  0
LINE
  5
3B4E
  8
FUTO
 10
14152.839984154531
 20
22759.16364631959
 30
0.0
 11
14161.839984154531
 21
22759.16364631959
 31
0.0
  0
ARC
  5
3B4F
  8
FUTO
 10
14161.839984154531
 20
22753.16364631959
 30
0.0
 40
6.0
 50
0.0
 51
90.0
  0
LINE
  5
3B50
  8
FUTO
 10
14167.839984154531
 20
22744.16364631959
 30
0.0
 11
14173.339984154531
 21
22744.16364631959
 31
0.0
  0
LINE
  5
3B51
  8
FUTO
 10
14047.839984154531
 20
22569.16364631959
 30
0.0
 11
14047.839984154531
 21
22551.16364631959
 31
0.0
  0
LINE
  5
3B52
  8
FUTO
 10
14157.839984154531
 20
22569.16364631959
 30
0.0
 11
14157.839984154531
 21
22551.16364631959
 31
0.0
  0
LINE
  5
3BBC
  8
FUTO
 10
14879.339984154531
 20
22773.16364631959
 30
0.0
 11
14746.339984154531
 21
22773.16364631959
 31
0.0
  0
LINE
  5
3BBD
  8
FUTO
 10
14861.839984154531
 20
22593.16364631959
 30
0.0
 11
14763.839984154531
 21
22593.16364631959
 31
0.0
  0
LINE
  5
3BBE
  8
FUTO
 10
14747.839984154531
 20
22557.16364631959
 30
0.0
 11
14877.839984154531
 21
22557.16364631959
 31
0.0
  0
LINE
  5
3BC0
  8
FUTO
 10
14757.839984154531
 20
22773.16364631959
 30
0.0
 11
14757.839984154531
 21
22557.16364631959
 31
0.0
  0
LINE
  5
3BC1
  8
FUTO
 10
14735.339984154531
 20
22759.16364631959
 30
0.0
 11
14735.339984154531
 21
22579.16364631959
 31
0.0
  0
LINE
  5
3BC2
  8
FUTO
 10
14740.339984154531
 20
22767.16364631959
 30
0.0
 11
14740.339984154531
 21
22571.16364631959
 31
0.0
  0
LINE
  5
3BC3
  8
FUTO
 10
14735.339984154531
 20
22579.16364631959
 30
0.0
 11
14740.339984154531
 21
22579.16364631959
 31
0.0
  0
ARC
  5
3BC4
  8
FUTO
 10
14763.839984154531
 20
22587.16364631959
 30
0.0
 40
6.0
 50
90.0
 51
180.0
  0
LINE
  5
3BC5
  8
FUTO
 10
14746.339984154531
 20
22565.16364631959
 30
0.0
 11
14757.839984154531
 21
22565.16364631959
 31
0.0
  0
ARC
  5
3BC6
  8
FUTO
 10
14746.339984154531
 20
22571.16364631959
 30
0.0
 40
6.0
 50
180.0
 51
270.0
  0
LINE
  5
3BC7
  8
FUTO
 10
14740.339984154531
 20
22759.16364631959
 30
0.0
 11
14735.339984154531
 21
22759.16364631959
 31
0.0
  0
ARC
  5
3BC8
  8
FUTO
 10
14746.339984154531
 20
22767.16364631959
 30
0.0
 40
6.0
 50
90.0
 51
180.0
  0
LINE
  5
3BC9
  8
FUTO
 10
14867.839984154531
 20
22773.16364631959
 30
0.0
 11
14867.839984154531
 21
22557.16364631959
 31
0.0
  0
LINE
  5
3BCA
  8
FUTO
 10
14885.339984154531
 20
22767.16364631959
 30
0.0
 11
14885.339984154531
 21
22571.16364631959
 31
0.0
  0
LINE
  5
3BCB
  8
FUTO
 10
14890.339984154531
 20
22759.16364631959
 30
0.0
 11
14890.339984154531
 21
22579.16364631959
 31
0.0
  0
ARC
  5
3BCC
  8
FUTO
 10
14861.839984154531
 20
22587.16364631959
 30
0.0
 40
6.0
 50
0.0
 51
90.0
  0
LINE
  5
3BCD
  8
FUTO
 10
14879.339984154531
 20
22565.16364631959
 30
0.0
 11
14867.839984154531
 21
22565.16364631959
 31
0.0
  0
ARC
  5
3BCE
  8
FUTO
 10
14879.339984154531
 20
22571.16364631959
 30
0.0
 40
6.0
 50
270.0
 51
0.0
  0
LINE
  5
3BCF
  8
FUTO
 10
14890.339984154531
 20
22579.16364631959
 30
0.0
 11
14885.339984154531
 21
22579.16364631959
 31
0.0
  0
ARC
  5
3BD0
  8
FUTO
 10
14879.339984154531
 20
22767.16364631959
 30
0.0
 40
6.0
 50
0.0
 51
90.0
  0
LINE
  5
3BD1
  8
FUTO
 10
14885.339984154531
 20
22759.16364631959
 30
0.0
 11
14890.339984154531
 21
22759.16364631959
 31
0.0
  0
LINE
  5
3C31
  8
SL
 10
14217.082001374019
 20
22795.862549350739
 30
0.0
 11
14682.358414259619
 21
22795.862549350739
 31
0.0
  0
LINE
  5
3C32
  8
FUTO
 10
14747.839984154531
 20
22557.16364631959
 30
0.0
 11
14747.839984154531
 21
22551.16364631959
 31
0.0
  0
LINE
  5
3C33
  8
FUTO
 10
14877.839984154531
 20
22557.16364631959
 30
0.0
 11
14877.839984154531
 21
22551.16364631959
 31
0.0
  0
DIMENSION
  5
3C4B
  8
SP
  2
*D11
 10
15552.839984154531
 20
24074.147204765912
 30
0.0
 11
14642.839984154531
 21
24134.147204765912
 31
0.0
 70
     0
 13
13732.839984154531
 23
23049.16364631959
 33
0.0
 14
15552.839984154531
 24
23949.760110425239
 34
0.0
1001
ACAD
1000
DSTYLE
1002
{
1070
    40
1040
30.0
1070
   176
1070
     2
1070
   177
1070
     2
1070
   178
1070
     2
1070
   341
1005
44D5
1070
     5
1000
OPEN30
1002
}
  0
LINE
  5
3C62
  8
SL
 10
14217.082001374019
 20
22795.862549350739
 30
0.0
 11
14217.082001374019
 21
22541.16364631959
 31
0.0
  0
LINE
  5
3C63
  8
SL
 10
14682.358414259619
 20
22795.862549350739
 30
0.0
 11
14682.358414259619
 21
22541.16364631959
 31
0.0
  0
ARC
  5
3C73
  8
FUTO
 10
11484.580997231251
 20
22771.16364631959
 30
0.0
 40
1329.0
 50
304.64232485469063
 51
308.69442652076913
  0
LINE
  5
3C79
  8
FUTO
 10
11337.58099723124
 20
24984.5523425135
 30
0.0
 11
11337.58099723124
 21
25553.5523425135
 31
0.0
  0
LINE
  5
3C7A
  8
FUTO
 10
11427.580997231251
 20
24984.5523425135
 30
0.0
 11
11427.580997231251
 21
25553.5523425135
 31
0.0
  0
LINE
  5
3C7B
  8
FUTO
 10
11002.580997231251
 20
24544.552342513511
 30
0.0
 11
12802.58099723124
 21
24544.552342513511
 31
0.0
  0
LINE
  5
3C7D
  8
SL
 10
11132.58099723124
 20
24732.452342513501
 30
0.0
 11
12688.58099723124
 21
24732.452342513501
 31
0.0
  0
LINE
  5
3C7E
  8
SL
 10
11132.58099723124
 20
24654.5523425135
 30
0.0
 11
12688.58099723124
 21
24654.5523425135
 31
0.0
  0
LINE
  5
3C7F
  8
CT
 10
11264.07750027112
 20
24914.5523425135
 30
0.0
 11
11545.411629017961
 21
24914.5523425135
 31
0.0
  0
LINE
  5
3C80
  8
CT
 10
12582.58099723124
 20
24507.595612992791
 30
0.0
 11
12582.58099723124
 21
24810.414296104242
 31
0.0
  0
LINE
  5
3C81
  8
SL
 10
12476.580997231251
 20
24654.5523425135
 30
0.0
 11
12476.580997231251
 21
24732.452342513501
 31
0.0
  0
LINE
  5
3C82
  8
SL
 10
12688.58099723124
 20
24654.5523425135
 30
0.0
 11
12688.58099723124
 21
24732.452342513501
 31
0.0
  0
LINE
  5
3C83
  8
FUTO
 10
12635.523570955451
 20
24799.5523425135
 30
0.0
 11
12802.58099723124
 21
24799.5523425135
 31
0.0
  0
LINE
  5
3C84
  8
SL
 10
12522.58099723124
 20
24747.5523425135
 30
0.0
 11
12642.58099723124
 21
24747.5523425135
 31
0.0
  0
LINE
  5
3C85
  8
SL
 10
12522.58099723124
 20
24732.452342513501
 30
0.0
 11
12522.58099723124
 21
24747.5523425135
 31
0.0
  0
LINE
  5
3C86
  8
SL
 10
12642.58099723124
 20
24732.452342513501
 30
0.0
 11
12642.58099723124
 21
24747.5523425135
 31
0.0
  0
LINE
  5
3C87
  8
SL
 10
11632.58099723124
 20
24654.5523425135
 30
0.0
 11
11632.58099723124
 21
24732.452342513501
 31
0.0
  0
LINE
  5
3C88
  8
FUTO
 10
11289.58099723124
 20
24964.5523425135
 30
0.0
 11
11289.58099723124
 21
24864.5523425135
 31
0.0
  0
LINE
  5
3C8B
  8
FUTO
 10
11002.580997231251
 20
24799.5523425135
 30
0.0
 11
11228.890627325531
 21
24799.5523425135
 31
0.0
  0
LINE
  5
3C8C
  8
SL
 10
11132.58099723124
 20
24654.5523425135
 30
0.0
 11
11132.58099723124
 21
24732.452342513501
 31
0.0
  0
LINE
  5
3C8D
  8
FUTO
 10
11340.08099723124
 20
24754.5523425135
 30
0.0
 11
11340.08099723124
 21
24844.0523425135
 31
0.0
  0
LINE
  5
3C8E
  8
FUTO
 10
11425.08099723124
 20
24754.5523425135
 30
0.0
 11
11425.08099723124
 21
24844.0523425135
 31
0.0
  0
LINE
  5
3C8F
  8
SL
 10
11302.58099723124
 20
24732.452342513501
 30
0.0
 11
11302.58099723124
 21
24754.5523425135
 31
0.0
  0
LINE
  5
3C90
  8
SL
 10
11462.58099723124
 20
24732.452342513501
 30
0.0
 11
11462.58099723124
 21
24754.5523425135
 31
0.0
  0
LINE
  5
3C91
  8
SL
 10
11302.58099723124
 20
24754.5523425135
 30
0.0
 11
11462.58099723124
 21
24754.5523425135
 31
0.0
  0
LINE
  5
3C94
  8
FUTO
 10
11292.58099723124
 20
24864.5523425135
 30
0.0
 11
11292.58099723124
 21
24855.5523425135
 31
0.0
  0
ARC
  5
3C95
  8
FUTO
 10
11298.58099723124
 20
24855.5523425135
 30
0.0
 40
6.0
 50
180.0
 51
270.0
  0
LINE
  5
3C96
  8
FUTO
 10
11307.580997231251
 20
24849.552342513511
 30
0.0
 11
11307.580997231251
 21
24844.0523425135
 31
0.0
  0
ARC
  5
3C97
  8
FUTO
 10
11466.580997231251
 20
24855.5523425135
 30
0.0
 40
6.0
 50
270.0
 51
0.000000000000007
  0
LINE
  5
3C98
  8
FUTO
 10
11472.58099723124
 20
24855.5523425135
 30
0.0
 11
11472.58099723124
 21
24864.5523425135
 31
0.0
  0
LINE
  5
3C9A
  8
FUTO
 10
11457.58099723124
 20
24844.0523425135
 30
0.0
 11
11457.58099723124
 21
24849.552342513511
 31
0.0
  0
LINE
  5
3C9B
  8
FUTO
 10
11298.58099723124
 20
24849.552342513511
 30
0.0
 11
11466.580997231251
 21
24849.552342513511
 31
0.0
  0
LINE
  5
3C9C
  8
FUTO
 10
11307.580997231251
 20
24844.0523425135
 30
0.0
 11
11457.58099723124
 21
24844.0523425135
 31
0.0
  0
LINE
  5
3C9D
  8
FUTO
 10
11289.58099723124
 20
24864.5523425135
 30
0.0
 11
11475.58099723124
 21
24864.5523425135
 31
0.0
  0
LINE
  5
3C9F
  8
FUTO
 10
11002.580997231251
 20
24544.5523425135
 30
0.0
 11
11002.580997231251
 21
24799.5523425135
 31
0.0
  0
POINT
  5
3CA0
  8
DEFPOINTS
 10
11002.580997231251
 20
24544.552342513511
 30
0.0
  0
LINE
  5
3CA3
  8
FUTO
 10
11307.580997231251
 20
24979.5523425135
 30
0.0
 11
11307.580997231251
 21
24985.0523425135
 31
0.0
  0
ARC
  5
3CA4
  8
FUTO
 10
11298.58099723124
 20
24973.5523425135
 30
0.0
 40
6.0
 50
90.0
 51
180.0
  0
LINE
  5
3CA5
  8
FUTO
 10
11292.58099723124
 20
24964.5523425135
 30
0.0
 11
11292.58099723124
 21
24973.5523425135
 31
0.0
  0
LINE
  5
3CA6
  8
FUTO
 10
11457.58099723124
 20
24985.0523425135
 30
0.0
 11
11457.58099723124
 21
24979.5523425135
 31
0.0
  0
ARC
  5
3CA7
  8
FUTO
 10
11466.580997231251
 20
24973.5523425135
 30
0.0
 40
6.0
 50
0.000000000000007
 51
90.0
  0
LINE
  5
3CA9
  8
FUTO
 10
11472.58099723124
 20
24973.5523425135
 30
0.0
 11
11472.58099723124
 21
24964.5523425135
 31
0.0
  0
LINE
  5
3CAA
  8
FUTO
 10
11307.580997231251
 20
24985.0523425135
 30
0.0
 11
11457.58099723124
 21
24985.0523425135
 31
0.0
  0
LINE
  5
3CAB
  8
FUTO
 10
11298.58099723124
 20
24979.5523425135
 30
0.0
 11
11466.580997231251
 21
24979.5523425135
 31
0.0
  0
LINE
  5
3CAC
  8
FUTO
 10
11475.58099723124
 20
24964.5523425135
 30
0.0
 11
11289.58099723124
 21
24964.5523425135
 31
0.0
  0
LINE
  5
3CAF
  8
FUTO
 10
10632.58099723124
 20
26998.5523425135
 30
0.0
 11
12132.580997231251
 21
26998.5523425135
 31
0.0
  0
LINE
  5
3CB0
  8
FUTO
 10
10632.58099723124
 20
26992.5523425135
 30
0.0
 11
12132.580997231251
 21
26992.5523425135
 31
0.0
  0
LINE
  5
3CB1
  8
KL
 10
11391.58099723124
 20
26903.7523425135
 30
0.0
 11
12132.580997231251
 21
26903.7523425135
 31
0.0
  0
LINE
  5
3CB5
  8
KL
 10
10678.26825492221
 20
26900.5523425135
 30
0.0
 11
12086.893739540281
 21
26900.5523425135
 31
0.0
  0
LINE
  5
3CB9
  8
CT
 10
11264.07750027112
 20
25624.5523425135
 30
0.0
 11
11567.7451604464
 21
25624.5523425135
 31
0.0
  0
LINE
  5
3CBA
  8
KL
 10
12082.58099723124
 20
26897.7523425135
 30
0.0
 11
12082.58099723124
 21
26998.5523425135
 31
0.0
  0
LINE
  5
3CBB
  8
KL
 10
12088.58099723124
 20
26903.7523425135
 30
0.0
 11
12088.58099723124
 21
26972.752342513511
 31
0.0
  0
LINE
  5
3CBC
  8
KL
 10
12132.580997231251
 20
26897.7523425135
 30
0.0
 11
12132.580997231251
 21
26903.7523425135
 31
0.0
  0
LINE
  5
3CBD
  8
CT
 10
12115.08099723124
 20
26865.2676449184
 30
0.0
 11
12115.08099723124
 21
26922.310378050439
 31
0.0
  0
LINE
  5
3CBE
  8
FUTO
 10
12132.580997231251
 20
26992.5523425135
 30
0.0
 11
12132.580997231251
 21
26998.5523425135
 31
0.0
  0
LINE
  5
3CBF
  8
CT
 10
12115.08099723124
 20
26969.432607600858
 30
0.0
 11
12115.08099723124
 21
27029.57546135474
 31
0.0
  0
LINE
  5
3CC0
  8
FUTO
 10
12088.58099723124
 20
26972.752342513511
 30
0.0
 11
12088.58099723124
 21
26992.5523425135
 31
0.0
  0
LINE
  5
3CC7
  8
FUTO
 10
11278.58099723124
 20
25691.0523425135
 30
0.0
 11
11278.58099723124
 21
25558.0523425135
 31
0.0
  0
ARC
  5
3CCA
  8
FUTO
 10
11284.580997231251
 20
25558.0523425135
 30
0.0
 40
6.0
 50
180.0
 51
270.0
  0
LINE
  5
3CCB
  8
FUTO
 10
11292.58099723124
 20
25552.0523425135
 30
0.0
 11
11292.58099723124
 21
25547.0523425135
 31
0.0
  0
ARC
  5
3CCC
  8
FUTO
 10
11480.58099723124
 20
25558.0523425135
 30
0.0
 40
6.0
 50
270.0
 51
0.000000000000007
  0
LINE
  5
3CCD
  8
FUTO
 10
11486.580997231251
 20
25558.0523425135
 30
0.0
 11
11486.580997231251
 21
25569.5523425135
 31
0.0
  0
LINE
  5
3CCF
  8
FUTO
 10
11472.58099723124
 20
25547.0523425135
 30
0.0
 11
11472.58099723124
 21
25552.0523425135
 31
0.0
  0
LINE
  5
3CD0
  8
FUTO
 10
11284.580997231251
 20
25552.0523425135
 30
0.0
 11
11480.58099723124
 21
25552.0523425135
 31
0.0
  0
LINE
  5
3CD1
  8
FUTO
 10
11292.58099723124
 20
25547.0523425135
 30
0.0
 11
11472.58099723124
 21
25547.0523425135
 31
0.0
  0
LINE
  5
3CD2
  8
FUTO
 10
11278.58099723124
 20
25569.5523425135
 30
0.0
 11
11486.580997231251
 21
25569.5523425135
 31
0.0
  0
LINE
  5
3CD4
  8
FUTO
 10
11292.58099723124
 20
25697.0523425135
 30
0.0
 11
11292.58099723124
 21
25702.0523425135
 31
0.0
  0
ARC
  5
3CD5
  8
FUTO
 10
11284.580997231251
 20
25691.0523425135
 30
0.0
 40
6.0
 50
90.0
 51
180.0
  0
LINE
  5
3CD6
  8
FUTO
 10
11472.58099723124
 20
25702.0523425135
 30
0.0
 11
11472.58099723124
 21
25697.0523425135
 31
0.0
  0
ARC
  5
3CD7
  8
FUTO
 10
11480.58099723124
 20
25691.0523425135
 30
0.0
 40
6.0
 50
0.000000000000007
 51
90.0
  0
LINE
  5
3CD8
  8
FUTO
 10
11486.580997231251
 20
25691.0523425135
 30
0.0
 11
11486.580997231251
 21
25679.5523425135
 31
0.0
  0
LINE
  5
3CDA
  8
FUTO
 10
11292.58099723124
 20
25702.0523425135
 30
0.0
 11
11472.58099723124
 21
25702.0523425135
 31
0.0
  0
LINE
  5
3CDB
  8
FUTO
 10
11284.580997231251
 20
25697.0523425135
 30
0.0
 11
11480.58099723124
 21
25697.0523425135
 31
0.0
  0
LINE
  5
3CDC
  8
FUTO
 10
11278.58099723124
 20
25679.5523425135
 30
0.0
 11
11486.580997231251
 21
25679.5523425135
 31
0.0
  0
LINE
  5
3CDD
  8
FUTO
 10
11427.580997231251
 20
25693.552342513511
 30
0.0
 11
11427.580997231251
 21
25756.352342513499
 31
0.0
  0
LINE
  5
3CDE
  8
FUTO
 10
11337.58099723124
 20
25693.552342513511
 30
0.0
 11
11337.58099723124
 21
25755.0523425135
 31
0.0
  0
LINE
  5
3CE2
  8
KL
 10
10632.58099723124
 20
26903.7523425135
 30
0.0
 11
11373.58099723124
 21
26903.7523425135
 31
0.0
  0
INSERT
  5
3CE3
  8
FUTO
  2
まっすぐの矢印
 10
10826.329108911261
 20
27060.3991232029
 30
0.0
 41
-2.0
 42
2.0
 43
2.0
 50
180.0
  0
LINE
  5
3CE4
  8
KL
 10
10682.580997231251
 20
26897.7523425135
 30
0.0
 11
10682.580997231251
 21
26998.5523425135
 31
0.0
  0
LINE
  5
3CE5
  8
KL
 10
10676.58099723124
 20
26903.7523425135
 30
0.0
 11
10676.580997231251
 21
26974.052342513511
 31
0.0
  0
LINE
  5
3CE6
  8
KL
 10
10632.58099723124
 20
26897.7523425135
 30
0.0
 11
10632.58099723124
 21
26903.7523425135
 31
0.0
  0
LINE
  5
3CE7
  8
CT
 10
10650.080997231251
 20
26875.096241269639
 30
0.0
 11
10650.080997231251
 21
26917.8018796949
 31
0.0
  0
LINE
  5
3CE8
  8
FUTO
 10
10632.58099723124
 20
26992.5523425135
 30
0.0
 11
10632.58099723124
 21
26998.5523425135
 31
0.0
  0
LINE
  5
3CE9
  8
CT
 10
10650.080997231251
 20
26969.791355251298
 30
0.0
 11
10650.080997231251
 21
27021.780830807718
 31
0.0
  0
LINE
  5
3CEA
  8
FUTO
 10
10676.58099723124
 20
26974.052342513511
 30
0.0
 11
10676.58099723124
 21
26992.5523425135
 31
0.0
  0
LINE
  5
3D2A
  8
FUTO
 10
11486.580997231251
 20
25691.0523425135
 30
0.0
 11
11486.580997231251
 21
25558.0523425135
 31
0.0
  0
LINE
  5
3D2B
  8
FUTO
 10
11475.58099723124
 20
24964.5523425135
 30
0.0
 11
11475.58099723124
 21
24864.5523425135
 31
0.0
  0
ARC
  5
4030
  8
FUTO
 10
12582.58099723124
 20
24755.5523425135
 30
0.0
 40
9.0
 50
0.000000000000007
 51
180.0
  0
LINE
  5
4031
  8
FUTO
 10
12591.58099723124
 20
24654.5523425135
 30
0.0
 11
12591.58099723124
 21
24755.5523425135
 31
0.0
  0
LINE
  5
4032
  8
FUTO
 10
12573.580997231251
 20
24654.5523425135
 30
0.0
 11
12573.580997231251
 21
24755.5523425135
 31
0.0
  0
LINE
  5
4033
  8
FUTO
 10
12839.580936231239
 20
25169.052281513501
 30
0.0
 11
12839.580936231239
 21
25205.0523425135
 31
0.0
  0
LINE
  5
4034
  8
FUTO
 10
12842.580936231239
 20
25169.052281513501
 30
0.0
 11
12842.580936231239
 21
25205.0523425135
 31
0.0
  0
LINE
  5
4035
  8
FUTO
 10
12834.580936231239
 20
25169.052281513501
 30
0.0
 11
12834.580936231239
 21
25216.0523425135
 31
0.0
  0
LINE
  5
4036
  8
FUTO
 10
12792.58099723124
 20
24830.0523425135
 30
0.0
 11
12792.58099723124
 21
24876.9273425135
 31
0.0
  0
LINE
  5
4037
  8
FUTO
 10
12740.27263222677
 20
24825.0523425135
 30
0.0
 11
12787.58099723124
 21
24825.0523425135
 31
0.0
  0
ARC
  5
4038
  8
FUTO
 10
12787.58099723124
 20
24830.0523425135
 30
0.0
 40
5.0
 50
270.0
 51
0.000000000000007
  0
LINE
  5
4039
  8
FUTO
 10
12772.262342449671
 20
24876.9273425135
 30
0.0
 11
12792.58099723124
 21
24876.9273425135
 31
0.0
  0
LINE
  5
403A
  8
FUTO
 10
12792.58099723124
 20
24875.0523425135
 30
0.0
 11
12839.580936231239
 21
24875.0523425135
 31
0.0
  0
LINE
  5
403B
  8
FUTO
 10
12792.58099723124
 20
24872.0523425135
 30
0.0
 11
12842.580936231239
 21
24872.0523425135
 31
0.0
  0
LINE
  5
403C
  8
FUTO
 10
12772.37147079953
 20
24880.052342513511
 30
0.0
 11
12834.580936231239
 21
24880.052342513511
 31
0.0
  0
LINE
  5
403D
  8
FUTO
 10
12834.580936231239
 20
24880.052342513511
 30
0.0
 11
12839.580936231239
 21
24875.0523425135
 31
0.0
  0
LINE
  5
403E
  8
FUTO
 10
12867.580936231239
 20
24915.0523425135
 30
0.0
 11
12867.580936231239
 21
24955.0523425135
 31
0.0
  0
LINE
  5
403F
  8
FUTO
 10
12837.580936231239
 20
24915.0523425135
 30
0.0
 11
12837.580936231239
 21
24955.0523425135
 31
0.0
  0
LINE
  5
4040
  8
FUTO
 10
12867.580936231239
 20
24955.0523425135
 30
0.0
 11
12837.580936231239
 21
24955.0523425135
 31
0.0
  0
LINE
  5
4041
  8
FUTO
 10
12837.580936231239
 20
24915.0523425135
 30
0.0
 11
12867.580936231239
 21
24915.0523425135
 31
0.0
  0
LINE
  5
4042
  8
CT
 10
12786.080997231251
 20
24935.0523425135
 30
0.0
 11
12953.63537923124
 21
24935.0523425135
 31
0.0
  0
LINE
  5
4043
  8
FUTO
 10
12942.035404231239
 20
24952.642186513502
 30
0.0
 11
12929.93542823124
 21
24952.642186513502
 31
0.0
  0
LINE
  5
4044
  8
FUTO
 10
12942.035404231239
 20
24917.462499513509
 30
0.0
 11
12929.93542823124
 21
24917.462499513509
 31
0.0
  0
LINE
  5
4045
  8
FUTO
 10
12942.035404231239
 20
24944.757420513499
 30
0.0
 11
12929.93542823124
 21
24944.757420513499
 31
0.0
  0
LINE
  5
4046
  8
FUTO
 10
12942.035404231239
 20
24925.347264513512
 30
0.0
 11
12929.93542823124
 21
24925.347264513512
 31
0.0
  0
LINE
  5
4047
  8
FUTO
 10
12943.63537923124
 20
24951.042577513501
 30
0.0
 11
12943.63537923124
 21
24919.063084513498
 31
0.0
  0
LINE
  5
4048
  8
FUTO
 10
12942.035404231239
 20
24917.462499513509
 30
0.0
 11
12943.63537923124
 21
24919.063084513498
 31
0.0
  0
LINE
  5
4049
  8
FUTO
 10
12942.035404231239
 20
24925.347264513512
 30
0.0
 11
12943.63537923124
 21
24923.7476555135
 31
0.0
  0
LINE
  5
404A
  8
FUTO
 10
12942.035404231239
 20
24925.347264513512
 30
0.0
 11
12943.63537923124
 21
24926.947850513501
 31
0.0
  0
LINE
  5
404B
  8
FUTO
 10
12943.63537923124
 20
24951.042577513501
 30
0.0
 11
12942.035404231239
 21
24952.642186513502
 31
0.0
  0
LINE
  5
404C
  8
FUTO
 10
12942.035404231239
 20
24944.757420513499
 30
0.0
 11
12943.63537923124
 21
24946.358006513499
 31
0.0
  0
LINE
  5
404D
  8
FUTO
 10
12942.035404231239
 20
24944.757420513499
 30
0.0
 11
12943.63537923124
 21
24943.157811513502
 31
0.0
  0
LINE
  5
404E
  8
FUTO
 10
12929.93542823124
 20
24952.642186513502
 30
0.0
 11
12929.93542823124
 21
24917.462499513509
 31
0.0
  0
LINE
  5
404F
  8
FUTO
 10
12929.93542823124
 20
24926.0523425135
 30
0.0
 11
12867.580936231239
 21
24926.0523425135
 31
0.0
  0
LINE
  5
4050
  8
HOSO
 10
12867.580936231239
 20
24928.0523425135
 30
0.0
 11
12929.93548923124
 21
24928.0523425135
 31
0.0
  0
LINE
  5
4051
  8
HOSO
 10
12929.93542823124
 20
24942.0523425135
 30
0.0
 11
12867.580936231239
 21
24942.0523425135
 31
0.0
  0
LINE
  5
4052
  8
FUTO
 10
12867.580936231239
 20
24944.0523425135
 30
0.0
 11
12929.93548923124
 21
24944.0523425135
 31
0.0
  0
LINE
  5
4053
  8
FUTO
 10
12837.580936231239
 20
24926.0523425135
 30
0.0
 11
12786.080997231251
 21
24926.0523425135
 31
0.0
  0
LINE
  5
4054
  8
HOSO
 10
12786.080997231251
 20
24928.0523425135
 30
0.0
 11
12837.580936231239
 21
24928.0523425135
 31
0.0
  0
LINE
  5
4055
  8
FUTO
 10
12786.080997231251
 20
24944.0523425135
 30
0.0
 11
12837.580936231239
 21
24944.0523425135
 31
0.0
  0
LINE
  5
4056
  8
HOSO
 10
12837.580936231239
 20
24942.0523425135
 30
0.0
 11
12786.080997231251
 21
24942.0523425135
 31
0.0
  0
LINE
  5
4057
  8
FUTO
 10
12842.580936231239
 20
24872.0523425135
 30
0.0
 11
12842.580936231239
 21
24915.0523425135
 31
0.0
  0
LINE
  5
4058
  8
FUTO
 10
12839.580936231239
 20
24875.0523425135
 30
0.0
 11
12839.580936231239
 21
24915.0523425135
 31
0.0
  0
LINE
  5
4059
  8
FUTO
 10
12834.580936231239
 20
24880.052342513511
 30
0.0
 11
12834.580936231239
 21
24926.0523425135
 31
0.0
  0
LINE
  5
405A
  8
FUTO
 10
12842.580936231239
 20
24955.0523425135
 30
0.0
 11
12842.580936231239
 21
24991.0523425135
 31
0.0
  0
LINE
  5
405B
  8
FUTO
 10
12839.580936231239
 20
24955.0523425135
 30
0.0
 11
12839.580936231239
 21
24991.0523425135
 31
0.0
  0
LINE
  5
405C
  8
FUTO
 10
12834.580936231239
 20
24944.0523425135
 30
0.0
 11
12834.580936231239
 21
24991.0523425135
 31
0.0
  0
LINE
  5
405D
  8
FUTO
 10
12867.580936231239
 20
25216.0523425135
 30
0.0
 11
12929.93548923124
 21
25216.0523425135
 31
0.0
  0
LINE
  5
405E
  8
HOSO
 10
12929.93542823124
 20
25218.0523425135
 30
0.0
 11
12867.580936231239
 21
25218.0523425135
 31
0.0
  0
LINE
  5
405F
  8
HOSO
 10
12867.580936231239
 20
25232.0523425135
 30
0.0
 11
12929.93548923124
 21
25232.0523425135
 31
0.0
  0
LINE
  5
4060
  8
FUTO
 10
12929.93542823124
 20
25234.0523425135
 30
0.0
 11
12867.580936231239
 21
25234.0523425135
 31
0.0
  0
LINE
  5
4061
  8
FUTO
 10
12929.93542823124
 20
25207.462498513509
 30
0.0
 11
12929.93542823124
 21
25242.642185513501
 31
0.0
  0
LINE
  5
4062
  8
FUTO
 10
12942.035404231239
 20
25215.347264513512
 30
0.0
 11
12943.63537923124
 21
25216.946873513509
 31
0.0
  0
LINE
  5
4063
  8
FUTO
 10
12942.035404231239
 20
25215.347264513512
 30
0.0
 11
12943.63537923124
 21
25213.7466785135
 31
0.0
  0
LINE
  5
4064
  8
FUTO
 10
12943.63537923124
 20
25209.062107513499
 30
0.0
 11
12942.035404231239
 21
25207.462498513509
 31
0.0
  0
LINE
  5
4065
  8
FUTO
 10
12942.035404231239
 20
25234.757420513499
 30
0.0
 11
12943.63537923124
 21
25233.156834513509
 31
0.0
  0
LINE
  5
4066
  8
FUTO
 10
12942.035404231239
 20
25234.757420513499
 30
0.0
 11
12943.63537923124
 21
25236.3570295135
 31
0.0
  0
LINE
  5
4067
  8
FUTO
 10
12942.035404231239
 20
25242.642185513501
 30
0.0
 11
12943.63537923124
 21
25241.041600513501
 31
0.0
  0
LINE
  5
4068
  8
FUTO
 10
12943.63537923124
 20
25209.062107513499
 30
0.0
 11
12943.63537923124
 21
25241.041600513501
 31
0.0
  0
LINE
  5
4069
  8
FUTO
 10
12942.035404231239
 20
25234.757420513499
 30
0.0
 11
12929.93542823124
 21
25234.757420513499
 31
0.0
  0
LINE
  5
406A
  8
FUTO
 10
12942.035404231239
 20
25215.347264513512
 30
0.0
 11
12929.93542823124
 21
25215.347264513512
 31
0.0
  0
LINE
  5
406B
  8
FUTO
 10
12942.035404231239
 20
25242.642185513501
 30
0.0
 11
12929.93542823124
 21
25242.642185513501
 31
0.0
  0
LINE
  5
406C
  8
FUTO
 10
12942.035404231239
 20
25207.462498513509
 30
0.0
 11
12929.93542823124
 21
25207.462498513509
 31
0.0
  0
LINE
  5
406D
  8
FUTO
 10
12837.580936231239
 20
25245.0523425135
 30
0.0
 11
12867.580936231239
 21
25245.0523425135
 31
0.0
  0
LINE
  5
406E
  8
FUTO
 10
12867.580936231239
 20
25205.0523425135
 30
0.0
 11
12837.580936231239
 21
25205.0523425135
 31
0.0
  0
LINE
  5
406F
  8
FUTO
 10
12837.580936231239
 20
25245.0523425135
 30
0.0
 11
12837.580936231239
 21
25205.0523425135
 31
0.0
  0
LINE
  5
4070
  8
FUTO
 10
12867.580936231239
 20
25245.0523425135
 30
0.0
 11
12867.580936231239
 21
25205.0523425135
 31
0.0
  0
LINE
  5
4071
  8
HOSO
 10
12837.580936231239
 20
25218.0523425135
 30
0.0
 11
12786.080997231251
 21
25218.0523425135
 31
0.0
  0
LINE
  5
4072
  8
FUTO
 10
12786.080997231251
 20
25216.0523425135
 30
0.0
 11
12837.580936231239
 21
25216.0523425135
 31
0.0
  0
LINE
  5
4073
  8
HOSO
 10
12786.080997231251
 20
25232.0523425135
 30
0.0
 11
12837.580936231239
 21
25232.0523425135
 31
0.0
  0
LINE
  5
4074
  8
FUTO
 10
12837.580936231239
 20
25234.0523425135
 30
0.0
 11
12786.080997231251
 21
25234.0523425135
 31
0.0
  0
LINE
  5
4075
  8
CT
 10
12786.080997231251
 20
25225.0523425135
 30
0.0
 11
12953.63537923124
 21
25225.0523425135
 31
0.0
  0
LINE
  5
4076
  8
FUTO
 10
12834.580936231239
 20
25280.052342513511
 30
0.0
 11
12839.580936231239
 21
25285.0523425135
 31
0.0
  0
LINE
  5
4077
  8
FUTO
 10
12792.58099723124
 20
25288.0523425135
 30
0.0
 11
12842.580936231239
 21
25288.0523425135
 31
0.0
  0
LINE
  5
4078
  8
FUTO
 10
12792.58099723124
 20
25285.0523425135
 30
0.0
 11
12839.580936231239
 21
25285.0523425135
 31
0.0
  0
LINE
  5
4079
  8
FUTO
 10
12786.08099723124
 20
25283.1773425135
 30
0.0
 11
12792.58099723124
 21
25283.1773425135
 31
0.0
  0
LINE
  5
407A
  8
FUTO
 10
12786.080997231251
 20
25280.052342513511
 30
0.0
 11
12834.580936231239
 21
25280.052342513511
 31
0.0
  0
LINE
  5
407B
  8
FUTO
 10
12834.580936231239
 20
25280.052342513511
 30
0.0
 11
12834.580936231239
 21
25234.0523425135
 31
0.0
  0
LINE
  5
407C
  8
FUTO
 10
12839.580936231239
 20
25285.0523425135
 30
0.0
 11
12839.580936231239
 21
25245.0523425135
 31
0.0
  0
LINE
  5
407D
  8
FUTO
 10
12842.580936231239
 20
25288.0523425135
 30
0.0
 11
12842.580936231239
 21
25245.0523425135
 31
0.0
  0
ARC
  5
407E
  8
FUTO
 10
12787.58099723124
 20
25330.0523425135
 30
0.0
 40
5.0
 50
0.000000000000007
 51
90.000000000000028
  0
LINE
  5
407F
  8
FUTO
 10
12792.58099723124
 20
25330.0523425135
 30
0.0
 11
12792.58099723124
 21
25283.1773425135
 31
0.0
  0
LINE
  5
4080
  8
FUTO
 10
12775.08099723124
 20
25335.0523425135
 30
0.0
 11
12787.58099723124
 21
25335.0523425135
 31
0.0
  0
LINE
  5
4081
  8
CT
 10
12379.08099723124
 20
25225.0523425135
 30
0.0
 11
12211.52661523124
 21
25225.0523425135
 31
0.0
  0
LINE
  5
4082
  8
FUTO
 10
12327.581058231241
 20
25234.0523425135
 30
0.0
 11
12379.08099723124
 21
25234.0523425135
 31
0.0
  0
LINE
  5
4083
  8
HOSO
 10
12379.08099723124
 20
25232.0523425135
 30
0.0
 11
12327.581058231241
 21
25232.0523425135
 31
0.0
  0
LINE
  5
4084
  8
FUTO
 10
12379.08099723124
 20
25216.0523425135
 30
0.0
 11
12327.581058231241
 21
25216.0523425135
 31
0.0
  0
LINE
  5
4085
  8
HOSO
 10
12327.581058231241
 20
25218.0523425135
 30
0.0
 11
12379.08099723124
 21
25218.0523425135
 31
0.0
  0
LINE
  5
4086
  8
FUTO
 10
12297.581058231241
 20
25245.0523425135
 30
0.0
 11
12297.581058231241
 21
25205.0523425135
 31
0.0
  0
LINE
  5
4087
  8
FUTO
 10
12327.581058231241
 20
25245.0523425135
 30
0.0
 11
12327.581058231241
 21
25205.0523425135
 31
0.0
  0
LINE
  5
4088
  8
FUTO
 10
12297.581058231241
 20
25205.0523425135
 30
0.0
 11
12327.581058231241
 21
25205.0523425135
 31
0.0
  0
LINE
  5
4089
  8
FUTO
 10
12327.581058231241
 20
25245.0523425135
 30
0.0
 11
12297.581058231241
 21
25245.0523425135
 31
0.0
  0
LINE
  5
408A
  8
FUTO
 10
12223.126590231241
 20
25207.462498513509
 30
0.0
 11
12235.22656623124
 21
25207.462498513509
 31
0.0
  0
LINE
  5
408B
  8
FUTO
 10
12223.126590231241
 20
25242.642185513501
 30
0.0
 11
12235.22656623124
 21
25242.642185513501
 31
0.0
  0
LINE
  5
408C
  8
FUTO
 10
12223.126590231241
 20
25215.347264513512
 30
0.0
 11
12235.22656623124
 21
25215.347264513512
 31
0.0
  0
LINE
  5
408D
  8
FUTO
 10
12223.126590231241
 20
25234.757420513499
 30
0.0
 11
12235.22656623124
 21
25234.757420513499
 31
0.0
  0
LINE
  5
408E
  8
FUTO
 10
12221.52661523124
 20
25209.062107513499
 30
0.0
 11
12221.52661523124
 21
25241.041600513501
 31
0.0
  0
LINE
  5
408F
  8
FUTO
 10
12223.126590231241
 20
25242.642185513501
 30
0.0
 11
12221.52661523124
 21
25241.041600513501
 31
0.0
  0
LINE
  5
4090
  8
FUTO
 10
12223.126590231241
 20
25234.757420513499
 30
0.0
 11
12221.52661523124
 21
25236.3570295135
 31
0.0
  0
LINE
  5
4091
  8
FUTO
 10
12223.126590231241
 20
25234.757420513499
 30
0.0
 11
12221.52661523124
 21
25233.156834513509
 31
0.0
  0
LINE
  5
4092
  8
FUTO
 10
12221.52661523124
 20
25209.062107513499
 30
0.0
 11
12223.126590231241
 21
25207.462498513509
 31
0.0
  0
LINE
  5
4093
  8
FUTO
 10
12223.126590231241
 20
25215.347264513512
 30
0.0
 11
12221.52661523124
 21
25213.7466785135
 31
0.0
  0
LINE
  5
4094
  8
FUTO
 10
12223.126590231241
 20
25215.347264513512
 30
0.0
 11
12221.52661523124
 21
25216.946873513509
 31
0.0
  0
LINE
  5
4095
  8
FUTO
 10
12235.22656623124
 20
25207.462498513509
 30
0.0
 11
12235.22656623124
 21
25242.642185513501
 31
0.0
  0
LINE
  5
4096
  8
FUTO
 10
12235.22656623124
 20
25234.0523425135
 30
0.0
 11
12297.581058231241
 21
25234.0523425135
 31
0.0
  0
LINE
  5
4097
  8
HOSO
 10
12297.581058231241
 20
25232.0523425135
 30
0.0
 11
12235.22650523124
 21
25232.0523425135
 31
0.0
  0
LINE
  5
4098
  8
HOSO
 10
12235.22656623124
 20
25218.0523425135
 30
0.0
 11
12297.581058231241
 21
25218.0523425135
 31
0.0
  0
LINE
  5
4099
  8
FUTO
 10
12297.581058231241
 20
25216.0523425135
 30
0.0
 11
12235.22650523124
 21
25216.0523425135
 31
0.0
  0
LINE
  5
409A
  8
FUTO
 10
12322.581058231241
 20
25288.0523425135
 30
0.0
 11
12322.581058231241
 21
25245.0523425135
 31
0.0
  0
LINE
  5
409B
  8
FUTO
 10
12325.581058231241
 20
25285.0523425135
 30
0.0
 11
12325.581058231241
 21
25245.0523425135
 31
0.0
  0
LINE
  5
409C
  8
FUTO
 10
12330.581058231241
 20
25280.052342513511
 30
0.0
 11
12330.581058231241
 21
25234.0523425135
 31
0.0
  0
LINE
  5
409D
  8
FUTO
 10
12390.08099723124
 20
25335.0523425135
 30
0.0
 11
12377.580997231251
 21
25335.0523425135
 31
0.0
  0
LINE
  5
409E
  8
FUTO
 10
12379.08099723124
 20
25280.052342513511
 30
0.0
 11
12330.581058231241
 21
25280.052342513511
 31
0.0
  0
LINE
  5
409F
  8
FUTO
 10
12379.08099723124
 20
25283.1773425135
 30
0.0
 11
12372.580997231251
 21
25283.1773425135
 31
0.0
  0
LINE
  5
40A0
  8
FUTO
 10
12372.580997231251
 20
25330.0523425135
 30
0.0
 11
12372.580997231251
 21
25283.1773425135
 31
0.0
  0
LINE
  5
40A1
  8
FUTO
 10
12372.580997231251
 20
25285.0523425135
 30
0.0
 11
12325.581058231241
 21
25285.0523425135
 31
0.0
  0
LINE
  5
40A2
  8
FUTO
 10
12372.580997231251
 20
25288.0523425135
 30
0.0
 11
12322.581058231241
 21
25288.0523425135
 31
0.0
  0
ARC
  5
40A3
  8
FUTO
 10
12377.580997231251
 20
25330.0523425135
 30
0.0
 40
5.0
 50
90.000000000000028
 51
180.0
  0
LINE
  5
40A4
  8
FUTO
 10
12330.581058231241
 20
25280.052342513511
 30
0.0
 11
12325.581058231241
 21
25285.0523425135
 31
0.0
  0
LINE
  5
40A5
  8
FUTO
 10
12392.89965201282
 20
24876.9273425135
 30
0.0
 11
12372.580997231251
 21
24876.9273425135
 31
0.0
  0
LINE
  5
40A6
  8
FUTO
 10
12330.581058231241
 20
24944.0523425135
 30
0.0
 11
12330.581058231241
 21
25216.0523425135
 31
0.0
  0
LINE
  5
40A7
  8
FUTO
 10
12330.581058231241
 20
24880.052342513511
 30
0.0
 11
12325.581058231241
 21
24875.0523425135
 31
0.0
  0
LINE
  5
40A8
  8
FUTO
 10
12330.581058231241
 20
24880.052342513511
 30
0.0
 11
12330.581058231241
 21
24926.0523425135
 31
0.0
  0
LINE
  5
40A9
  8
FUTO
 10
12392.790523662959
 20
24880.052342513511
 30
0.0
 11
12330.581058231241
 21
24880.052342513511
 31
0.0
  0
ARC
  5
40AA
  8
FUTO
 10
12377.580997231251
 20
24830.0523425135
 30
0.0
 40
5.0
 50
180.0
 51
270.0
  0
LINE
  5
40AB
  8
FUTO
 10
12372.580997231251
 20
24872.0523425135
 30
0.0
 11
12322.581058231241
 21
24872.0523425135
 31
0.0
  0
LINE
  5
40AC
  8
FUTO
 10
12372.580997231251
 20
24875.0523425135
 30
0.0
 11
12325.581058231241
 21
24875.0523425135
 31
0.0
  0
LINE
  5
40AD
  8
FUTO
 10
12424.889362235719
 20
24825.0523425135
 30
0.0
 11
12377.580997231251
 21
24825.0523425135
 31
0.0
  0
LINE
  5
40AE
  8
FUTO
 10
12372.580997231251
 20
24830.0523425135
 30
0.0
 11
12372.580997231251
 21
24876.9273425135
 31
0.0
  0
LINE
  5
40AF
  8
FUTO
 10
12325.581058231241
 20
24955.0523425135
 30
0.0
 11
12325.581058231241
 21
25205.0523425135
 31
0.0
  0
LINE
  5
40B0
  8
FUTO
 10
12322.581058231241
 20
24955.0523425135
 30
0.0
 11
12322.581058231241
 21
25205.0523425135
 31
0.0
  0
LINE
  5
40B1
  8
FUTO
 10
12325.581058231241
 20
24875.0523425135
 30
0.0
 11
12325.581058231241
 21
24915.0523425135
 31
0.0
  0
LINE
  5
40B2
  8
FUTO
 10
12322.581058231241
 20
24872.0523425135
 30
0.0
 11
12322.581058231241
 21
24915.0523425135
 31
0.0
  0
LINE
  5
40B3
  8
HOSO
 10
12327.581058231241
 20
24942.0523425135
 30
0.0
 11
12379.08099723124
 21
24942.0523425135
 31
0.0
  0
LINE
  5
40B4
  8
FUTO
 10
12379.08099723124
 20
24944.0523425135
 30
0.0
 11
12327.581058231241
 21
24944.0523425135
 31
0.0
  0
LINE
  5
40B5
  8
HOSO
 10
12379.08099723124
 20
24928.0523425135
 30
0.0
 11
12327.581058231241
 21
24928.0523425135
 31
0.0
  0
LINE
  5
40B6
  8
FUTO
 10
12327.581058231241
 20
24926.0523425135
 30
0.0
 11
12379.08099723124
 21
24926.0523425135
 31
0.0
  0
LINE
  5
40B7
  8
FUTO
 10
12297.581058231241
 20
24944.0523425135
 30
0.0
 11
12235.22650523124
 21
24944.0523425135
 31
0.0
  0
LINE
  5
40B8
  8
HOSO
 10
12235.22656623124
 20
24942.0523425135
 30
0.0
 11
12297.581058231241
 21
24942.0523425135
 31
0.0
  0
LINE
  5
40B9
  8
HOSO
 10
12297.581058231241
 20
24928.0523425135
 30
0.0
 11
12235.22650523124
 21
24928.0523425135
 31
0.0
  0
LINE
  5
40BA
  8
FUTO
 10
12235.22656623124
 20
24926.0523425135
 30
0.0
 11
12297.581058231241
 21
24926.0523425135
 31
0.0
  0
LINE
  5
40BB
  8
FUTO
 10
12235.22656623124
 20
24952.642186513502
 30
0.0
 11
12235.22656623124
 21
24917.462499513509
 31
0.0
  0
LINE
  5
40BC
  8
FUTO
 10
12223.126590231241
 20
24944.757420513499
 30
0.0
 11
12221.52661523124
 21
24943.157811513502
 31
0.0
  0
LINE
  5
40BD
  8
FUTO
 10
12223.126590231241
 20
24944.757420513499
 30
0.0
 11
12221.52661523124
 21
24946.358006513499
 31
0.0
  0
LINE
  5
40BE
  8
FUTO
 10
12221.52661523124
 20
24951.042577513501
 30
0.0
 11
12223.126590231241
 21
24952.642186513502
 31
0.0
  0
LINE
  5
40BF
  8
FUTO
 10
12223.126590231241
 20
24925.347264513512
 30
0.0
 11
12221.52661523124
 21
24926.947850513501
 31
0.0
  0
LINE
  5
40C0
  8
FUTO
 10
12223.126590231241
 20
24925.347264513512
 30
0.0
 11
12221.52661523124
 21
24923.7476555135
 31
0.0
  0
LINE
  5
40C1
  8
FUTO
 10
12223.126590231241
 20
24917.462499513509
 30
0.0
 11
12221.52661523124
 21
24919.063084513498
 31
0.0
  0
LINE
  5
40C2
  8
FUTO
 10
12221.52661523124
 20
24951.042577513501
 30
0.0
 11
12221.52661523124
 21
24919.063084513498
 31
0.0
  0
LINE
  5
40C3
  8
FUTO
 10
12223.126590231241
 20
24925.347264513512
 30
0.0
 11
12235.22656623124
 21
24925.347264513512
 31
0.0
  0
LINE
  5
40C4
  8
FUTO
 10
12223.126590231241
 20
24944.757420513499
 30
0.0
 11
12235.22656623124
 21
24944.757420513499
 31
0.0
  0
LINE
  5
40C5
  8
FUTO
 10
12223.126590231241
 20
24917.462499513509
 30
0.0
 11
12235.22656623124
 21
24917.462499513509
 31
0.0
  0
LINE
  5
40C6
  8
FUTO
 10
12223.126590231241
 20
24952.642186513502
 30
0.0
 11
12235.22656623124
 21
24952.642186513502
 31
0.0
  0
LINE
  5
40C7
  8
CT
 10
12379.08099723124
 20
24935.0523425135
 30
0.0
 11
12211.52661523124
 21
24935.0523425135
 31
0.0
  0
LINE
  5
40C8
  8
FUTO
 10
12327.581058231241
 20
24915.0523425135
 30
0.0
 11
12297.581058231241
 21
24915.0523425135
 31
0.0
  0
LINE
  5
40C9
  8
FUTO
 10
12297.581058231241
 20
24955.0523425135
 30
0.0
 11
12327.581058231241
 21
24955.0523425135
 31
0.0
  0
LINE
  5
40CA
  8
FUTO
 10
12327.581058231241
 20
24915.0523425135
 30
0.0
 11
12327.581058231241
 21
24955.0523425135
 31
0.0
  0
LINE
  5
40CB
  8
FUTO
 10
12297.581058231241
 20
24915.0523425135
 30
0.0
 11
12297.581058231241
 21
24955.0523425135
 31
0.0
  0
ARC
  5
40CC
  8
FUTO
 10
12914.210147231241
 20
25142.052281513501
 30
0.0
 40
20.0
 50
0.000000000000007
 51
90.000000000000028
  0
ARC
  5
40CD
  8
FUTO
 10
12914.210147231241
 20
25018.0523425135
 30
0.0
 40
20.0
 50
270.0
 51
0.000000000000007
  0
ARC
  5
40CE
  8
FUTO
 10
12924.210147231241
 20
25001.0523425135
 30
0.0
 40
10.0
 50
270.0
 51
0.000000000000007
  0
ARC
  5
40CF
  8
FUTO
 10
12924.210147231241
 20
25159.052281513501
 30
0.0
 40
10.0
 50
0.000000000000007
 51
90.000000000000028
  0
ARC
  5
40D0
  8
FUTO
 10
12821.35342233235
 20
25001.0523425135
 30
0.0
 40
10.0
 50
180.0
 51
270.0
  0
ARC
  5
40D1
  8
FUTO
 10
12824.52053787068
 20
25001.0523425135
 30
0.0
 40
10.0
 50
180.0
 51
270.0
  0
ARC
  5
40D2
  8
FUTO
 10
12821.35342233235
 20
25159.052281513501
 30
0.0
 40
10.0
 50
90.000000000000028
 51
180.0
  0
ARC
  5
40D3
  8
FUTO
 10
12824.52053787068
 20
25159.052281513501
 30
0.0
 40
10.0
 50
90.000000000000028
 51
180.0
  0
LINE
  5
40D4
  8
FUTO
 10
12821.71714115014
 20
24998.052342513511
 30
0.0
 11
12914.210147231241
 21
24998.052342513511
 31
0.0
  0
LINE
  5
40D5
  8
FUTO
 10
12821.71714115014
 20
25162.052281513501
 30
0.0
 11
12914.210147231241
 21
25162.052281513501
 31
0.0
  0
ARC
  5
40D6
  8
FUTO
 10
12807.58099723124
 20
25003.0523425135
 30
0.0
 40
5.0
 50
180.0
 51
270.0
  0
ARC
  5
40D7
  8
FUTO
 10
12807.58099723124
 20
25157.052281513501
 30
0.0
 40
5.0
 50
90.000000000000028
 51
180.0
  0
ARC
  5
40D8
  8
FUTO
 10
12821.71714115014
 20
25003.0523425135
 30
0.0
 40
5.0
 50
180.0
 51
270.0
  0
ARC
  5
40D9
  8
FUTO
 10
12821.71714115014
 20
25157.052281513501
 30
0.0
 40
5.0
 50
90.000000000000028
 51
180.0
  0
LINE
  5
40DA
  8
FUTO
 10
12821.35342233235
 20
24991.0523425135
 30
0.0
 11
12924.210147231241
 21
24991.0523425135
 31
0.0
  0
LINE
  5
40DB
  8
FUTO
 10
12807.58099723124
 20
24998.052342513511
 30
0.0
 11
12811.35342233235
 21
24998.052342513511
 31
0.0
  0
LINE
  5
40DC
  8
FUTO
 10
12821.35342233235
 20
25169.052281513501
 30
0.0
 11
12924.210147231241
 21
25169.052281513501
 31
0.0
  0
LINE
  5
40DD
  8
FUTO
 10
12807.58099723124
 20
25162.052281513501
 30
0.0
 11
12811.35342233235
 21
25162.052281513501
 31
0.0
  0
LINE
  5
40DE
  8
FUTO
 10
12786.080997231251
 20
25140.0523425135
 30
0.0
 11
12786.080997231251
 21
25246.863113262541
 31
0.0
  0
LINE
  5
40DF
  8
FUTO
 10
12802.58099723124
 20
25020.0523425135
 30
0.0
 11
12734.85459967106
 21
25020.0523425135
 31
0.0
  0
LINE
  5
40E0
  8
FUTO
 10
12802.58099723124
 20
25140.0523425135
 30
0.0
 11
12734.85459967106
 21
25140.0523425135
 31
0.0
  0
LINE
  5
40E1
  8
FUTO
 10
12892.90033323124
 20
25018.0523425135
 30
0.0
 11
12892.90033323124
 21
25142.052281513501
 31
0.0
  0
LINE
  5
40E2
  8
FUTO
 10
12816.71714115014
 20
25003.0523425135
 30
0.0
 11
12816.71714115014
 21
25157.052281513501
 31
0.0
  0
LINE
  5
40E3
  8
FUTO
 10
12814.52053787068
 20
25001.0523425135
 30
0.0
 11
12814.52053787068
 21
25159.052281513501
 31
0.0
  0
LINE
  5
40E4
  8
FUTO
 10
12811.35342233235
 20
25001.0523425135
 30
0.0
 11
12811.35342233235
 21
25159.052281513501
 31
0.0
  0
LINE
  5
40E5
  8
FUTO
 10
12802.58099723124
 20
25003.0523425135
 30
0.0
 11
12802.58099723124
 21
25157.052281513501
 31
0.0
  0
LINE
  5
40E6
  8
FUTO
 10
12792.58099723124
 20
25020.0523425135
 30
0.0
 11
12792.58099723124
 21
25140.0523425135
 31
0.0
  0
LINE
  5
40E7
  8
FUTO
 10
12734.85459967106
 20
25020.0523425135
 30
0.0
 11
12734.85459967106
 21
25140.0523425135
 31
0.0
  0
LINE
  5
40E8
  8
FUTO
 10
12934.210147231241
 20
25001.0523425135
 30
0.0
 11
12934.210147231241
 21
25159.052281513501
 31
0.0
  0
LINE
  5
40E9
  8
FUTO
 10
12588.830997231251
 20
25056.3023425135
 30
0.0
 11
12588.830997231251
 21
25103.8023425135
 31
0.0
  0
ARC
  5
40EA
  8
FUTO
 10
12582.58099723124
 20
25056.3023425135
 30
0.0
 40
6.25
 50
180.0
 51
0.000000000000007
  0
ARC
  5
40EB
  8
FUTO
 10
12582.58099723124
 20
25103.8023425135
 30
0.0
 40
6.25
 50
0.000000000000007
 51
180.0
  0
LINE
  5
40EC
  8
CT
 10
12954.210147231241
 20
25080.052342513511
 30
0.0
 11
12302.581058231241
 21
25080.052342513511
 31
0.0
  0
LINE
  5
40ED
  8
FUTO
 10
12576.33099723124
 20
25056.3023425135
 30
0.0
 11
12576.33099723124
 21
25103.8023425135
 31
0.0
  0
LINE
  5
40EE
  8
FUTO
 10
12786.08099723124
 20
25246.863113262541
 30
0.0
 11
12784.259220231241
 21
25249.052281513501
 31
0.0
  0
LINE
  5
40EF
  8
FUTO
 10
12786.080997231251
 20
24913.241429513499
 30
0.0
 11
12779.580997231251
 21
24905.430516513501
 31
0.0
  0
LINE
  5
40F0
  8
FUTO
 10
12786.080997231251
 20
24913.241429513499
 30
0.0
 11
12786.080997231251
 21
25020.0523425135
 31
0.0
  0
LINE
  5
40F1
  8
FUTO
 10
12379.08099723124
 20
24913.241429513499
 30
0.0
 11
12379.08099723124
 21
25246.863113262541
 31
0.0
  0
ARC
  5
40F2
  8
FUTO
 10
12660.58099723124
 20
24806.5523425135
 30
0.0
 40
2.0
 50
270.0
 51
0.000000000000007
  0
ARC
  5
40F3
  8
FUTO
 10
12665.58099723124
 20
24816.705418513498
 30
0.0
 40
2.9999599999999988
 50
92.999557000034059
 51
180.0
  0
LINE
  5
40F4
  8
FUTO
 10
12662.58099723124
 20
24816.705418513498
 30
0.0
 11
12662.58099723124
 21
24806.5523425135
 31
0.0
  0
ARC
  5
40F5
  8
FUTO
 10
12761.67694523124
 20
24860.3379875135
 30
0.0
 40
9.9999679999999991
 50
315.0
 51
358.00067100000211
  0
ARC
  5
40F6
  8
FUTO
 10
12734.683781231241
 20
24833.344822513511
 30
0.0
 40
10.000024
 50
272.99903899993512
 51
315.0
  0
LINE
  5
40F7
  8
FUTO
 10
12768.747990231241
 20
24853.266942513499
 30
0.0
 11
12741.754825231241
 21
24826.27377851351
 31
0.0
  0
LINE
  5
40F8
  8
FUTO
 10
12772.58099723124
 20
24886.0523425135
 30
0.0
 11
12771.67084123124
 21
24859.989110513499
 31
0.0
  0
LINE
  5
40F9
  8
FUTO
 10
12735.206974231251
 20
24823.358494513501
 30
0.0
 11
12646.61566523124
 21
24818.715672513499
 31
0.0
  0
LINE
  5
40FA
  8
FUTO
 10
12744.58099723124
 20
24896.0523425135
 30
0.0
 11
12420.58099723124
 21
24896.0523425135
 31
0.0
  0
LINE
  5
40FB
  8
FUTO
 10
12744.58099723124
 20
24886.0523425135
 30
0.0
 11
12744.58099723124
 21
24891.0523425135
 31
0.0
  0
LINE
  5
40FC
  8
FUTO
 10
12744.58099723124
 20
24891.0523425135
 30
0.0
 11
12744.58099723124
 21
24896.0523425135
 31
0.0
  0
LINE
  5
40FD
  8
FUTO
 10
12779.580997231251
 20
24905.430516513501
 30
0.0
 11
12744.58099723124
 21
24896.0523425135
 31
0.0
  0
ARC
  5
40FE
  8
FUTO
 10
12766.080997231251
 20
25295.525670513511
 30
0.0
 40
20.0
 50
0.000000000000007
 51
20.000046000008609
  0
ARC
  5
40FF
  8
FUTO
 10
12795.08099723124
 20
25332.801060513499
 30
0.0
 40
20.0
 50
180.0
 51
199.9997250000032
  0
LINE
  5
4100
  8
FUTO
 10
12730.22992323124
 20
25277.552281513501
 30
0.0
 11
12733.98285323124
 21
25284.052281513501
 31
0.0
  0
LINE
  5
4101
  8
FUTO
 10
12733.98285323124
 20
25284.052281513501
 30
0.0
 11
12730.22992323124
 21
25290.552281513501
 31
0.0
  0
LINE
  5
4102
  8
FUTO
 10
12784.87494323124
 20
25302.366124513501
 30
0.0
 11
12776.287052231241
 21
25325.960728513499
 31
0.0
  0
LINE
  5
4103
  8
FUTO
 10
12786.080997231251
 20
25249.052281513501
 30
0.0
 11
12786.080997231251
 21
25295.525670513511
 31
0.0
  0
LINE
  5
4104
  8
FUTO
 10
12718.97162223124
 20
25284.052281513501
 30
0.0
 11
12722.724552231241
 21
25290.552281513501
 31
0.0
  0
LINE
  5
4105
  8
FUTO
 10
12722.724552231241
 20
25277.552281513501
 30
0.0
 11
12718.97162223124
 21
25284.052281513501
 31
0.0
  0
LINE
  5
4106
  8
CT
 10
12726.47723823124
 20
25276.610142513498
 30
0.0
 11
12726.47723823124
 21
25291.066197513501
 31
0.0
  0
LINE
  5
4107
  8
CT
 10
12718.08661323124
 20
25284.052281513501
 30
0.0
 11
12734.908146231241
 21
25284.052281513501
 31
0.0
  0
LINE
  5
4108
  8
FUTO
 10
12722.724552231241
 20
25290.552281513501
 30
0.0
 11
12730.22992323124
 21
25290.552281513501
 31
0.0
  0
LINE
  5
4109
  8
FUTO
 10
12722.724552231241
 20
25277.552281513501
 30
0.0
 11
12730.22992323124
 21
25277.552281513501
 31
0.0
  0
CIRCLE
  5
410A
  8
FUTO
 10
12726.47723823124
 20
25284.052281513501
 30
0.0
 40
6.5
  0
ARC
  5
410B
  8
FUTO
 10
12760.08099723124
 20
25393.7413685135
 30
0.0
 40
15.0
 50
0.000000000000007
 51
29.999816999981821
  0
ARC
  5
410C
  8
FUTO
 10
12739.69427923124
 20
25449.052281513501
 30
0.0
 40
4.9999580000000003
 50
30.000281999972739
 51
90.000000000000028
  0
LINE
  5
410D
  8
FUTO
 10
12744.024357231239
 20
25451.552281513501
 30
0.0
 11
12773.071476231249
 21
25401.2413685135
 31
0.0
  0
LINE
  5
410E
  8
FUTO
 10
12775.08099723124
 20
25332.801060513499
 30
0.0
 11
12775.08099723124
 21
25393.7413685135
 31
0.0
  0
LINE
  5
410F
  8
FUTO
 10
12390.08099723124
 20
25332.801060513499
 30
0.0
 11
12390.08099723124
 21
25393.7413685135
 31
0.0
  0
LINE
  5
4110
  8
CT
 10
12582.58099723124
 20
24634.5523425135
 30
0.0
 11
12582.58099723124
 21
25474.0523425135
 31
0.0
  0
LINE
  5
4111
  8
FUTO
 10
12424.931033231251
 20
25454.0523425135
 30
0.0
 11
12739.72134723124
 21
25454.0523425135
 31
0.0
  0
LINE
  5
4112
  8
FUTO
 10
12775.08099723124
 20
25394.9523055135
 30
0.0
 11
12390.13006923124
 21
25394.9523055135
 31
0.0
  0
LINE
  5
4113
  8
FUTO
 10
12421.137637231241
 20
25451.552281513501
 30
0.0
 11
12392.09051823124
 21
25401.2413685135
 31
0.0
  0
ARC
  5
4114
  8
FUTO
 10
12425.46771523124
 20
25449.052281513501
 30
0.0
 40
4.9999580000000003
 50
90.000000000000028
 51
149.9997180000272
  0
ARC
  5
4115
  8
FUTO
 10
12405.080997231251
 20
25393.7413685135
 30
0.0
 40
15.0
 50
150.00018300001821
 51
180.0
  0
LINE
  5
4116
  8
FUTO
 10
12660.58099723124
 20
24804.5523425135
 30
0.0
 11
12582.58099723124
 21
24804.5523425135
 31
0.0
  0
LINE
  5
4117
  8
FUTO
 10
12772.58099723124
 20
24886.0523425135
 30
0.0
 11
12582.58099723124
 21
24886.0523425135
 31
0.0
  0
LINE
  5
4118
  8
FUTO
 10
12744.58099723124
 20
24891.0523425135
 30
0.0
 11
12582.58099723124
 21
24891.0523425135
 31
0.0
  0
LINE
  5
4119
  8
FUTO
 10
12389.76361423124
 20
25329.2522325135
 30
0.0
 11
12775.08099723124
 21
25329.2522325135
 31
0.0
  0
LINE
  5
411A
  8
FUTO
 10
12379.394473231239
 20
25299.052281513501
 30
0.0
 11
12785.76761743012
 21
25299.052281513501
 31
0.0
  0
LINE
  5
411B
  8
FUTO
 10
12379.08099723124
 20
25249.052281513501
 30
0.0
 11
12784.259220231241
 21
25249.052281513501
 31
0.0
  0
LINE
  5
411C
  8
FUTO
 10
12744.58099723124
 20
24891.0523425135
 30
0.0
 11
12582.58099723124
 21
24891.0523425135
 31
0.0
  0
CIRCLE
  5
411D
  8
FUTO
 10
12438.68475623124
 20
25284.052281513501
 30
0.0
 40
6.5
  0
LINE
  5
411E
  8
FUTO
 10
12442.437442231239
 20
25277.552281513501
 30
0.0
 11
12434.93207123124
 21
25277.552281513501
 31
0.0
  0
LINE
  5
411F
  8
FUTO
 10
12442.437442231239
 20
25290.552281513501
 30
0.0
 11
12434.93207123124
 21
25290.552281513501
 31
0.0
  0
LINE
  5
4120
  8
CT
 10
12447.07538123124
 20
25284.052281513501
 30
0.0
 11
12430.253848231239
 21
25284.052281513501
 31
0.0
  0
LINE
  5
4121
  8
CT
 10
12438.68475623124
 20
25276.610142513498
 30
0.0
 11
12438.68475623124
 21
25291.066197513501
 31
0.0
  0
LINE
  5
4122
  8
FUTO
 10
12442.437442231239
 20
25277.552281513501
 30
0.0
 11
12446.19037223124
 21
25284.052281513501
 31
0.0
  0
LINE
  5
4123
  8
FUTO
 10
12446.19037223124
 20
25284.052281513501
 30
0.0
 11
12442.437442231239
 21
25290.552281513501
 31
0.0
  0
LINE
  5
4124
  8
FUTO
 10
12379.08099723124
 20
25249.052281513501
 30
0.0
 11
12379.08099723124
 21
25295.525670513511
 31
0.0
  0
LINE
  5
4125
  8
FUTO
 10
12380.28705123124
 20
25302.366124513501
 30
0.0
 11
12388.874942231239
 21
25325.960728513499
 31
0.0
  0
LINE
  5
4126
  8
FUTO
 10
12431.17914123125
 20
25284.052281513501
 30
0.0
 11
12434.93207123124
 21
25290.552281513501
 31
0.0
  0
LINE
  5
4127
  8
FUTO
 10
12434.93207123124
 20
25277.552281513501
 30
0.0
 11
12431.17914123125
 21
25284.052281513501
 31
0.0
  0
ARC
  5
4128
  8
FUTO
 10
12370.08099723124
 20
25332.801060513499
 30
0.0
 40
20.0
 50
340.0002749999968
 51
0.000000000000007
  0
ARC
  5
4129
  8
FUTO
 10
12399.08099723124
 20
25295.525670513511
 30
0.0
 40
20.0
 50
159.99995399999131
 51
180.0
  0
LINE
  5
412A
  8
FUTO
 10
12379.08099723124
 20
25246.863113262541
 30
0.0
 11
12380.902774231239
 21
25249.052281513501
 31
0.0
  0
LINE
  5
412B
  8
FUTO
 10
12420.58099723124
 20
24891.0523425135
 30
0.0
 11
12582.58099723124
 21
24891.0523425135
 31
0.0
  0
LINE
  5
412C
  8
FUTO
 10
12429.95502023124
 20
24823.358494513501
 30
0.0
 11
12518.546329231251
 21
24818.715672513499
 31
0.0
  0
LINE
  5
412D
  8
FUTO
 10
12392.580997231251
 20
24886.0523425135
 30
0.0
 11
12582.58099723124
 21
24886.0523425135
 31
0.0
  0
LINE
  5
412E
  8
FUTO
 10
12420.58099723124
 20
24891.0523425135
 30
0.0
 11
12582.58099723124
 21
24891.0523425135
 31
0.0
  0
LINE
  5
412F
  8
FUTO
 10
12612.58099723124
 20
24794.5523425135
 30
0.0
 11
12612.58099723124
 21
24654.5523425135
 31
0.0
  0
LINE
  5
4130
  8
FUTO
 10
12552.580997231251
 20
24794.5523425135
 30
0.0
 11
12552.580997231251
 21
24654.5523425135
 31
0.0
  0
LINE
  5
4131
  8
FUTO
 10
12504.58099723124
 20
24804.5523425135
 30
0.0
 11
12582.58099723124
 21
24804.5523425135
 31
0.0
  0
LINE
  5
4132
  8
FUTO
 10
12615.08099723124
 20
24794.5523425135
 30
0.0
 11
12550.08099723124
 21
24794.5523425135
 31
0.0
  0
LINE
  5
4133
  8
FUTO
 10
12615.08099723124
 20
24794.5523425135
 30
0.0
 11
12615.08099723124
 21
24804.5523425135
 31
0.0
  0
LINE
  5
4134
  8
FUTO
 10
12550.08099723124
 20
24794.5523425135
 30
0.0
 11
12550.08099723124
 21
24804.5523425135
 31
0.0
  0
LINE
  5
4135
  8
FUTO
 10
12502.58099723124
 20
24816.705418513498
 30
0.0
 11
12502.58099723124
 21
24806.5523425135
 31
0.0
  0
ARC
  5
4136
  8
FUTO
 10
12499.58099723124
 20
24816.705418513498
 30
0.0
 40
2.9999599999999988
 50
0.000000000000007
 51
87.000442999965941
  0
ARC
  5
4137
  8
FUTO
 10
12504.58099723124
 20
24806.5523425135
 30
0.0
 40
2.0
 50
180.0
 51
270.0
  0
LINE
  5
4138
  8
FUTO
 10
12552.580997231251
 20
24654.5523425135
 30
0.0
 11
12612.58099723124
 21
24654.5523425135
 31
0.0
  0
LINE
  5
4139
  8
FUTO
 10
12379.08099723124
 20
24913.241429513499
 30
0.0
 11
12385.58099723124
 21
24905.430516513501
 31
0.0
  0
LINE
  5
413A
  8
FUTO
 10
12392.580997231251
 20
24886.0523425135
 30
0.0
 11
12393.49115323124
 21
24859.989110513499
 31
0.0
  0
LINE
  5
413B
  8
FUTO
 10
12385.58099723124
 20
24905.430516513501
 30
0.0
 11
12420.58099723124
 21
24896.0523425135
 31
0.0
  0
LINE
  5
413C
  8
FUTO
 10
12420.58099723124
 20
24891.0523425135
 30
0.0
 11
12420.58099723124
 21
24896.0523425135
 31
0.0
  0
LINE
  5
413D
  8
FUTO
 10
12420.58099723124
 20
24886.0523425135
 30
0.0
 11
12420.58099723124
 21
24891.0523425135
 31
0.0
  0
LINE
  5
413E
  8
FUTO
 10
12396.414004231239
 20
24853.266942513499
 30
0.0
 11
12423.407169231239
 21
24826.27377851351
 31
0.0
  0
ARC
  5
413F
  8
FUTO
 10
12430.478213231239
 20
24833.344822513511
 30
0.0
 40
10.000024
 50
225.0
 51
267.00096100006488
  0
ARC
  5
4140
  8
FUTO
 10
12403.48504923124
 20
24860.3379875135
 30
0.0
 40
9.9999679999999991
 50
181.99932899999791
 51
225.0
  0
LINE
  5
4142
  8
FUTO
 10
14430.660492230219
 20
21659.16364631959
 30
0.0
 11
14445.33992315453
 21
21659.16364631959
 31
0.0
  0
LINE
  5
4143
  8
FUTO
 10
14433.339984154531
 20
21639.16364631959
 30
0.0
 11
14468.339984154531
 21
21639.16364631959
 31
0.0
  0
LINE
  5
4144
  8
FUTO
 10
14106.01947607884
 20
21659.16364631959
 30
0.0
 11
14091.339984154531
 21
21659.16364631959
 31
0.0
  0
LINE
  5
4145
  8
FUTO
 10
14103.339984154531
 20
21639.16364631959
 30
0.0
 11
14068.339984154531
 21
21639.16364631959
 31
0.0
  0
LINE
  5
4147
  8
FUTO
 10
14168.339984154531
 20
21634.16364631959
 30
0.0
 11
14168.339984154531
 21
21639.16364631959
 31
0.0
  0
LINE
  5
4148
  8
FUTO
 10
14368.339984154531
 20
21639.16364631959
 30
0.0
 11
14368.339984154531
 21
21634.16364631959
 31
0.0
  0
LINE
  5
4153
  8
FUTO
 10
14123.339984154531
 20
21667.639232319591
 30
0.0
 11
14107.339984154531
 21
21658.401928319588
 31
0.0
  0
LINE
  5
4154
  8
FUTO
 10
14139.339984154531
 20
21658.401928319588
 30
0.0
 11
14123.339984154531
 21
21667.639232319591
 31
0.0
  0
LINE
  5
4155
  8
FUTO
 10
14123.339984154531
 20
21630.689037319589
 30
0.0
 11
14107.339984154531
 21
21639.926342319592
 31
0.0
  0
LINE
  5
4156
  8
FUTO
 10
14139.339984154531
 20
21639.926342319592
 30
0.0
 11
14123.339984154531
 21
21630.689037319589
 31
0.0
  0
LINE
  5
4157
  8
CT
 10
14093.339984154531
 20
21649.16364631959
 30
0.0
 11
14153.339984154531
 21
21649.16364631959
 31
0.0
  0
CIRCLE
  5
4158
  8
FUTO
 10
14123.339984154531
 20
21649.16364631959
 30
0.0
 40
16.0
  0
LINE
  5
4159
  8
FUTO
 10
14139.339984154531
 20
21639.926342319592
 30
0.0
 11
14139.339984154531
 21
21658.401928319588
 31
0.0
  0
LINE
  5
415A
  8
FUTO
 10
14107.339984154531
 20
21639.926342319592
 30
0.0
 11
14107.339984154531
 21
21658.401928319588
 31
0.0
  0
ARC
  5
415B
  8
FUTO
 10
14123.339984154531
 20
21649.16364631959
 30
0.0
 40
20.0
 50
0.000000000000007
 51
180.0
  0
ARC
  5
415C
  8
FUTO
 10
14016.339984154531
 20
21606.16364631959
 30
0.0
 40
3.0
 50
90.0
 51
180.0
  0
LINE
  5
415D
  8
FUTO
 10
14065.214984154531
 20
21609.16364631959
 30
0.0
 11
14016.339984154531
 21
21609.16364631959
 31
0.0
  0
LINE
  5
415E
  8
FUTO
 10
14070.339984154531
 20
21579.16364631959
 30
0.0
 11
14070.339984154531
 21
21584.16364631959
 31
0.0
  0
LINE
  5
415F
  8
FUTO
 10
14060.339984154531
 20
21591.16364631959
 30
0.0
 11
14060.339984154531
 21
21584.16364631959
 31
0.0
  0
LINE
  5
4160
  8
FUTO
 10
14070.339984154531
 20
21579.16364631959
 30
0.0
 11
14013.339984154531
 21
21579.16364631959
 31
0.0
  0
LINE
  5
4161
  8
FUTO
 10
14013.339984154531
 20
21579.16364631959
 30
0.0
 11
14013.339984154531
 21
21606.16364631959
 31
0.0
  0
LINE
  5
4162
  8
CT
 10
14038.339984154531
 20
21629.16364631959
 30
0.0
 11
14038.339984154531
 21
21559.16364631959
 31
0.0
  0
LINE
  5
4163
  8
FUTO
 10
14060.339984154531
 20
21591.16364631959
 30
0.0
 11
14103.339984154531
 21
21591.16364631959
 31
0.0
  0
LINE
  5
4164
  8
FUTO
 10
14068.339984154531
 20
21639.16364631959
 30
0.0
 11
14063.339984154531
 21
21591.16364631959
 31
0.0
  0
LINE
  5
4165
  8
FUTO
 10
14143.339984154531
 20
21649.16364631959
 30
0.0
 11
14143.339984154531
 21
21584.16364631959
 31
0.0
  0
LINE
  5
4166
  8
FUTO
 10
14103.339984154531
 20
21584.16364631959
 30
0.0
 11
14103.339984154531
 21
21649.16364631959
 31
0.0
  0
LINE
  5
4167
  8
CT
 10
14123.339984154531
 20
21574.16364631959
 30
0.0
 11
14123.339984154531
 21
21679.16364631959
 31
0.0
  0
LINE
  5
4168
  8
FUTO
 10
14397.339984154531
 20
21658.401928319588
 30
0.0
 11
14413.339984154531
 21
21667.639232319591
 31
0.0
  0
LINE
  5
4169
  8
FUTO
 10
14397.339984154531
 20
21639.926342319592
 30
0.0
 11
14413.339984154531
 21
21630.689037319589
 31
0.0
  0
LINE
  5
416A
  8
FUTO
 10
14397.339984154531
 20
21639.926342319592
 30
0.0
 11
14397.339984154531
 21
21658.401928319588
 31
0.0
  0
LINE
  5
416B
  8
FUTO
 10
14429.339984154531
 20
21639.926342319592
 30
0.0
 11
14429.339984154531
 21
21658.401928319588
 31
0.0
  0
CIRCLE
  5
416C
  8
FUTO
 10
14413.339984154531
 20
21649.16364631959
 30
0.0
 40
16.0
  0
LINE
  5
416D
  8
FUTO
 10
14413.339984154531
 20
21667.639232319591
 30
0.0
 11
14429.339984154531
 21
21658.401928319588
 31
0.0
  0
LINE
  5
416E
  8
FUTO
 10
14413.339984154531
 20
21630.689037319589
 30
0.0
 11
14429.339984154531
 21
21639.926342319592
 31
0.0
  0
ARC
  5
416F
  8
FUTO
 10
14413.339984154531
 20
21649.16364631959
 30
0.0
 40
20.0
 50
0.000000000000007
 51
180.0
  0
LINE
  5
4170
  8
CT
 10
14443.339984154531
 20
21649.16364631959
 30
0.0
 11
14383.339984154531
 21
21649.16364631959
 31
0.0
  0
LINE
  5
4171
  8
FUTO
 10
14168.339984154531
 20
21634.16364631959
 30
0.0
 11
14368.339984154531
 21
21634.16364631959
 31
0.0
  0
LINE
  5
4172
  8
FUTO
 10
14466.339984154531
 20
21579.16364631959
 30
0.0
 11
14466.339984154531
 21
21584.16364631959
 31
0.0
  0
LINE
  5
4173
  8
FUTO
 10
14476.339984154531
 20
21591.16364631959
 30
0.0
 11
14476.339984154531
 21
21584.16364631959
 31
0.0
  0
LINE
  5
4174
  8
FUTO
 10
14476.339984154531
 20
21591.16364631959
 30
0.0
 11
14433.339984154531
 21
21591.16364631959
 31
0.0
  0
LINE
  5
4175
  8
CT
 10
14498.339984154531
 20
21629.16364631959
 30
0.0
 11
14498.339984154531
 21
21559.16364631959
 31
0.0
  0
ARC
  5
4176
  8
FUTO
 10
14520.339984154531
 20
21606.16364631959
 30
0.0
 40
3.0
 50
0.000000000000007
 51
90.0
  0
LINE
  5
4177
  8
FUTO
 10
14523.339984154531
 20
21579.16364631959
 30
0.0
 11
14523.339984154531
 21
21606.16364631959
 31
0.0
  0
LINE
  5
4178
  8
FUTO
 10
14471.464984154531
 20
21609.16364631959
 30
0.0
 11
14520.339984154531
 21
21609.16364631959
 31
0.0
  0
LINE
  5
4179
  8
FUTO
 10
14466.339984154531
 20
21579.16364631959
 30
0.0
 11
14523.339984154531
 21
21579.16364631959
 31
0.0
  0
LINE
  5
417A
  8
FUTO
 10
14468.339984154531
 20
21639.16364631959
 30
0.0
 11
14473.339984154531
 21
21591.16364631959
 31
0.0
  0
LINE
  5
417B
  8
FUTO
 10
14393.339984154531
 20
21649.16364631959
 30
0.0
 11
14393.339984154531
 21
21584.16364631959
 31
0.0
  0
LINE
  5
417C
  8
FUTO
 10
14433.339984154531
 20
21584.16364631959
 30
0.0
 11
14433.339984154531
 21
21649.16364631959
 31
0.0
  0
LINE
  5
417D
  8
CT
 10
14413.339984154531
 20
21574.16364631959
 30
0.0
 11
14413.339984154531
 21
21679.16364631959
 31
0.0
  0
LINE
  5
41CF
  8
FUTO
 10
14143.339984154531
 20
21591.16364631959
 30
0.0
 11
14393.339984154531
 21
21591.16364631959
 31
0.0
  0
LINE
  5
41D0
  8
FUTO
 10
14060.339984154531
 20
21584.16364631959
 30
0.0
 11
14476.339984154531
 21
21584.16364631959
 31
0.0
  0
LINE
  5
41D1
  8
FUTO
 10
14084.339984154531
 20
22001.16364631959
 30
0.0
 11
14084.339984154531
 21
21964.16364631959
 31
0.0
  0
ARC
  5
41D2
  8
FUTO
 10
14048.625629154531
 20
22018.259594319588
 30
0.0
 40
9.9999679999999991
 50
91.999328999997914
 51
135.0
  0
ARC
  5
41D3
  8
FUTO
 10
14021.632464154531
 20
21991.266430319589
 30
0.0
 40
10.000024
 50
135.0
 51
177.00096100006479
  0
LINE
  5
41D4
  8
FUTO
 10
14041.55458415453
 20
22025.330639319589
 30
0.0
 11
14014.56142015453
 21
21998.337474319589
 31
0.0
  0
LINE
  5
41D5
  8
FUTO
 10
14074.339984154531
 20
22001.16364631959
 30
0.0
 11
14079.339984154531
 21
22001.16364631959
 31
0.0
  0
LINE
  5
41D6
  8
FUTO
 10
14079.339984154531
 20
22001.16364631959
 30
0.0
 11
14084.339984154531
 21
22001.16364631959
 31
0.0
  0
LINE
  5
41D7
  8
FUTO
 10
14093.71815815453
 20
22036.16364631959
 30
0.0
 11
14084.339984154531
 21
22001.16364631959
 31
0.0
  0
LINE
  5
41D8
  8
FUTO
 10
14074.339984154531
 20
22029.16364631959
 30
0.0
 11
14048.27675215453
 21
22028.253490319588
 31
0.0
  0
LINE
  5
41DA
  8
FUTO
 10
14109.339984154531
 20
22049.16364631959
 30
0.0
 11
14093.71815815453
 21
22036.16364631959
 31
0.0
  0
LINE
  5
41DB
  8
FUTO
 10
13842.839984154531
 20
21873.16364631959
 30
0.0
 11
13842.839984154531
 21
21809.16364631959
 31
0.0
  0
ARC
  5
41DC
  8
FUTO
 10
13994.839984154531
 20
21917.16364631959
 30
0.0
 40
2.0
 50
90.0
 51
180.0
  0
ARC
  5
41EB
  8
FUTO
 10
14094.339984154531
 20
21964.16364631959
 30
0.0
 40
10.0
 50
90.0
 51
180.0
  0
ARC
  5
41EE
  8
FUTO
 10
14004.993060154529
 20
21922.16364631959
 30
0.0
 40
2.9999599999999988
 50
270.0
 51
357.00044299996591
  0
LINE
  5
41EF
  8
FUTO
 10
14004.993060154529
 20
21919.16364631959
 30
0.0
 11
13994.839984154531
 21
21919.16364631959
 31
0.0
  0
LINE
  5
41F0
  8
FUTO
 10
13952.839984154531
 20
21873.16364631959
 30
0.0
 11
13952.839984154531
 21
21869.16364631959
 31
0.0
  0
LINE
  5
41F1
  8
FUTO
 10
13982.839984154531
 20
21871.66364631959
 30
0.0
 11
13992.839984154531
 21
21871.66364631959
 31
0.0
  0
LINE
  5
41F2
  8
FUTO
 10
13982.839984154531
 20
21806.66364631959
 30
0.0
 11
13992.839984154531
 21
21806.66364631959
 31
0.0
  0
LINE
  5
41F3
  8
FUTO
 10
13982.839984154531
 20
21806.66364631959
 30
0.0
 11
13982.839984154531
 21
21871.66364631959
 31
0.0
  0
ARC
  5
41F4
  8
FUTO
 10
14094.339984154531
 20
21864.16364631959
 30
0.0
 40
10.0
 50
180.0
 51
270.0
  0
LINE
  5
41F5
  8
FUTO
 10
13992.839984154531
 20
21917.16364631959
 30
0.0
 11
13992.839984154531
 21
21839.16364631959
 31
0.0
  0
LINE
  5
41F6
  8
FUTO
 10
14084.339984154531
 20
21864.16364631959
 30
0.0
 11
14084.339984154531
 21
21964.16364631959
 31
0.0
  0
LINE
  5
41F7
  8
FUTO
 10
13982.839984154531
 20
21869.16364631959
 30
0.0
 11
13842.839984154531
 21
21869.16364631959
 31
0.0
  0
LINE
  5
41F8
  8
FUTO
 10
13982.839984154531
 20
21809.16364631959
 30
0.0
 11
13842.839984154531
 21
21809.16364631959
 31
0.0
  0
LINE
  5
41F9
  8
FUTO
 10
13952.839984154531
 20
21873.16364631959
 30
0.0
 11
13842.839984154531
 21
21873.16364631959
 31
0.0
  0
LINE
  5
41FA
  8
FUTO
 10
14079.339984154531
 20
22001.16364631959
 30
0.0
 11
14079.339984154531
 21
21839.16364631959
 31
0.0
  0
LINE
  5
41FB
  8
FUTO
 10
14074.339984154531
 20
22029.16364631959
 30
0.0
 11
14074.339984154531
 21
21839.16364631959
 31
0.0
  0
LINE
  5
41FC
  8
FUTO
 10
14011.64613615453
 20
21991.78962331959
 30
0.0
 11
14007.00331415453
 21
21903.19831431959
 31
0.0
  0
LINE
  5
41FE
  8
FUTO
 10
14079.339984154531
 20
22001.16364631959
 30
0.0
 11
14079.339984154531
 21
21839.16364631959
 31
0.0
  0
ARC
  5
41FF
  8
FUTO
 10
14257.10499915453
 20
22057.442760319591
 30
0.0
 40
2.9999909999999992
 50
96.115172999988943
 51
174.80557100002201
  0
LINE
  5
4200
  8
FUTO
 10
14254.117328154531
 20
22057.71436731959
 30
0.0
 11
14253.339984154531
 21
22049.16364631959
 31
0.0
  0
ARC
  5
4201
  8
FUTO
 10
14247.381610154531
 20
22049.89344431959
 30
0.0
 40
5.9999760000000002
 50
354.8055729999931
 51
54.396262999995557
  0
ARC
  5
4202
  8
FUTO
 10
14279.57496915453
 20
22057.442760319591
 30
0.0
 40
2.999981
 50
5.194427000006832
 51
83.884827000011072
  0
ARC
  5
4203
  8
FUTO
 10
14268.339984154531
 20
22079.16364631959
 30
0.0
 40
30.0
 50
305.19004800000442
 51
305.60386699997889
  0
LINE
  5
4204
  8
FUTO
 10
14268.339984154531
 20
22061.66364631959
 30
0.0
 11
14279.894549154529
 21
22060.42567031959
 31
0.0
  0
LINE
  5
4205
  8
FUTO
 10
14282.562640154531
 20
22057.71436731959
 30
0.0
 11
14283.339984154531
 21
22049.16364631959
 31
0.0
  0
ARC
  5
4206
  8
FUTO
 10
14289.29835815453
 20
22049.89344431959
 30
0.0
 40
5.9999820000000001
 50
125.6037370000044
 51
185.19442700000681
  0
LINE
  5
4207
  8
FUTO
 10
14268.339984154531
 20
22061.66364631959
 30
0.0
 11
14256.78541915453
 21
22060.42567031959
 31
0.0
  0
LINE
  5
4208
  8
FUTO
 10
14256.78541915453
 20
22060.42567031959
 30
0.0
 11
14279.894549154529
 21
22060.42567031959
 31
0.0
  0
LINE
  5
4209
  8
CT
 10
14308.339984154531
 20
22079.16364631959
 30
0.0
 11
14228.339984154531
 21
22079.16364631959
 31
0.0
  0
LINE
  5
420A
  8
FUTO
 10
14209.339984154531
 20
21988.16364631959
 30
0.0
 11
14327.339984154531
 21
21988.16364631959
 31
0.0
  0
CIRCLE
  5
420B
  8
FUTO
 10
14268.339984154531
 20
22079.16364631959
 30
0.0
 40
17.5
  0
ARC
  5
420C
  8
FUTO
 10
14268.339984154531
 20
22079.16364631959
 30
0.0
 40
30.0
 50
305.60386699997889
 51
234.39614899998969
  0
LINE
  5
420D
  8
FUTO
 10
14427.33992315453
 20
22049.16364631959
 30
0.0
 11
14437.33992315453
 21
22040.841869319589
 31
0.0
  0
ARC
  5
420E
  8
FUTO
 10
14483.813312154531
 20
22022.66364631959
 30
0.0
 40
20.0
 50
69.999953999991405
 51
90.0
  0
ARC
  5
420F
  8
FUTO
 10
14521.08870215453
 20
22051.66364631959
 30
0.0
 40
20.0
 50
250.0002749999968
 51
270.0
  0
LINE
  5
4212
  8
FUTO
 10
14490.65376615453
 20
22041.457592319592
 30
0.0
 11
14514.24837015453
 21
22032.869701319589
 31
0.0
  0
LINE
  5
4213
  8
FUTO
 10
14437.33992315453
 20
22042.66364631959
 30
0.0
 11
14483.813312154531
 21
22042.66364631959
 31
0.0
  0
LINE
  5
4214
  8
FUTO
 10
14427.33992315453
 20
22049.16364631959
 30
0.0
 11
14268.339984154531
 21
22049.16364631959
 31
0.0
  0
LINE
  5
4215
  8
FUTO
 10
14330.33992315453
 20
21981.16364631959
 30
0.0
 11
14206.339984154531
 21
21981.16364631959
 31
0.0
  0
ARC
  5
4216
  8
FUTO
 10
14206.339984154531
 20
21806.465892319589
 30
0.0
 40
20.0
 50
180.0
 51
270.0
  0
CIRCLE
  5
4217
  8
FUTO
 10
14268.339984154531
 20
21773.465892319589
 30
0.0
 40
3.5
  0
LINE
  5
4218
  8
CT
 10
14274.79286515453
 20
21773.465892319589
 30
0.0
 11
14260.203754154531
 21
21773.465892319589
 31
0.0
  0
LINE
  5
4219
  8
FUTO
 10
14206.339984154531
 20
21786.465892319589
 30
0.0
 11
14330.339984154531
 21
21786.465892319589
 31
0.0
  0
LINE
  5
421A
  8
FUTO
 10
14327.33992315453
 20
21766.465892319589
 30
0.0
 11
14209.339984154531
 21
21766.465892319589
 31
0.0
  0
LINE
  5
421B
  8
FUTO
 10
14186.339984154531
 20
21961.16364631959
 30
0.0
 11
14186.339984154531
 21
21806.465892319589
 31
0.0
  0
LINE
  5
421C
  8
FUTO
 10
14179.339984154531
 20
21958.16364631959
 30
0.0
 11
14179.339984154531
 21
21796.465892319589
 31
0.0
  0
LINE
  5
421D
  8
FUTO
 10
14437.33992315453
 20
21974.16364631959
 30
0.0
 11
14352.71712015453
 21
21974.16364631959
 31
0.0
  0
LINE
  5
4221
  8
FUTO
 10
14437.33992315453
 20
21854.16364631959
 30
0.0
 11
14357.33992315453
 21
21854.16364631959
 31
0.0
  0
LINE
  5
4222
  8
FUTO
 10
14350.33992315453
 20
21961.16364631959
 30
0.0
 11
14350.33992315453
 21
21806.465892319589
 31
0.0
  0
LINE
  5
4223
  8
FUTO
 10
14357.33992315453
 20
21958.16364631959
 30
0.0
 11
14357.33992315453
 21
21796.465892319589
 31
0.0
  0
ARC
  5
4224
  8
FUTO
 10
14330.33992315453
 20
21806.465892319589
 30
0.0
 40
20.0
 50
270.0
 51
0.000000000000007
  0
LINE
  5
4225
  8
CT
 10
14377.33992315453
 20
21914.16364631959
 30
0.0
 11
14159.339984154531
 21
21914.16364631959
 31
0.0
  0
ARC
  5
4226
  8
FUTO
 10
14330.33992315453
 20
21961.16364631959
 30
0.0
 40
20.0
 50
0.000000000000007
 51
90.0
  0
ARC
  5
4227
  8
FUTO
 10
14206.339984154531
 20
21961.16364631959
 30
0.0
 40
20.0
 50
90.0
 51
180.0
  0
ARC
  5
4228
  8
FUTO
 10
14209.339984154531
 20
21958.16364631959
 30
0.0
 40
30.0
 50
90.0
 51
180.0
  0
ARC
  5
4229
  8
FUTO
 10
14327.33992315453
 20
21958.16364631959
 30
0.0
 40
30.0
 50
0.000000000000007
 51
90.0
  0
LINE
  5
422E
  8
FUTO
 10
14109.339984154531
 20
22049.16364631959
 30
0.0
 11
14268.339984154531
 21
22049.16364631959
 31
0.0
  0
LINE
  5
422F
  8
FUTO
 10
14094.339984154531
 20
21974.16364631959
 30
0.0
 11
14183.962787154531
 21
21974.16364631959
 31
0.0
  0
LINE
  5
4230
  8
FUTO
 10
14094.339984154531
 20
21854.16364631959
 30
0.0
 11
14179.339984154531
 21
21854.16364631959
 31
0.0
  0
ARC
  5
4231
  8
FUTO
 10
13994.839984154531
 20
21761.16364631959
 30
0.0
 40
2.0
 50
180.0
 51
270.0
  0
ARC
  5
4232
  8
FUTO
 10
14004.993060154529
 20
21756.16364631959
 30
0.0
 40
3.0
 50
2.9995570000340721
 51
90.0
  0
ARC
  5
4233
  8
FUTO
 10
14019.68959315453
 20
21724.131908319589
 30
0.0
 40
10.000139999999989
 50
183.00042699998181
 51
225.00097700000649
  0
ARC
  5
4241
  8
FUTO
 10
14048.48207415453
 20
21695.339428319588
 30
0.0
 40
10.0
 50
225.0
 51
270.0
  0
ARC
  5
4242
  8
FUTO
 10
14021.632464154531
 20
21687.060863319592
 30
0.0
 40
9.9999679999999991
 50
182.9990539999759
 51
225.0
  0
LINE
  5
4243
  8
FUTO
 10
14084.339984154531
 20
21687.402904319591
 30
0.0
 11
14103.42860715453
 21
21687.402904319591
 31
0.0
  0
LINE
  5
4244
  8
FUTO
 10
14085.375873154529
 20
21677.16364631959
 30
0.0
 11
14079.339984154531
 21
21677.16364631959
 31
0.0
  0
LINE
  5
4245
  8
FUTO
 10
14074.339984154531
 20
21677.16364631959
 30
0.0
 11
14079.339984154531
 21
21677.16364631959
 31
0.0
  0
ARC
  5
4246
  8
FUTO
 10
14091.339984154531
 20
21656.16364631959
 30
0.0
 40
3.0
 50
90.0
 51
180.0
  0
ARC
  5
4247
  8
FUTO
 10
14098.42860715453
 20
21664.16364631959
 30
0.0
 40
5.0
 50
270.0
 51
0.000000000000007
  0
LINE
  5
4248
  8
FUTO
 10
14084.339984154531
 20
21680.290111319591
 30
0.0
 11
14086.898578154531
 21
21680.290111319591
 31
0.0
  0
LINE
  5
4249
  8
FUTO
 10
14091.339984154531
 20
21659.16364631959
 30
0.0
 11
14084.339984154531
 21
21680.290111319591
 31
0.0
  0
LINE
  5
424A
  8
FUTO
 10
14103.42860715453
 20
21664.16364631959
 30
0.0
 11
14103.42860715453
 21
21687.402904319591
 31
0.0
  0
LINE
  5
424B
  8
FUTO
 10
14094.49818715453
 20
21659.16364631959
 30
0.0
 11
14084.339984154531
 21
21687.402904319591
 31
0.0
  0
LINE
  5
424C
  8
FUTO
 10
14048.48207415453
 20
21685.339428319588
 30
0.0
 11
14074.339984154531
 21
21685.339428319588
 31
0.0
  0
LINE
  5
424E
  8
FUTO
 10
14007.97133215453
 20
21756.65888631959
 30
0.0
 11
14011.64613615453
 21
21686.537670319591
 31
0.0
  0
LINE
  5
4250
  8
FUTO
 10
14041.411029154529
 20
21688.268383319592
 30
0.0
 11
14012.618548154531
 21
21717.060619319589
 31
0.0
  0
LINE
  5
4253
  8
FUTO
 10
14004.993060154529
 20
21759.16364631959
 30
0.0
 11
13994.839984154531
 21
21759.16364631959
 31
0.0
  0
ARC
  5
4254
  8
FUTO
 10
14048.625629154531
 20
21660.067699319588
 30
0.0
 40
9.9999839999999995
 50
225.0
 51
268.00067100000211
  0
LINE
  5
4255
  8
FUTO
 10
14074.339984154531
 20
21649.16364631959
 30
0.0
 11
14048.27675215453
 21
21650.073803319588
 31
0.0
  0
LINE
  5
4256
  8
FUTO
 10
14088.339984154531
 20
21639.16364631959
 30
0.0
 11
14088.339984154531
 21
21656.16364631959
 31
0.0
  0
LINE
  5
4257
  8
FUTO
 10
14041.55458415453
 20
21652.996654319591
 30
0.0
 11
14014.56142015453
 21
21679.989818319591
 31
0.0
  0
LINE
  5
4258
  8
FUTO
 10
14228.73988615453
 20
21660.771557319589
 30
0.0
 11
14148.339984154531
 21
21659.16364631959
 31
0.0
  0
ARC
  5
4259
  8
FUTO
 10
14243.339984154531
 20
21721.659740319588
 30
0.0
 40
5.0
 50
0.000000000000007
 51
90.0
  0
ARC
  5
425A
  8
FUTO
 10
14293.339984154531
 20
21721.659740319588
 30
0.0
 40
5.0
 50
90.0
 51
180.0
  0
ARC
  5
425B
  8
FUTO
 10
14308.33992315453
 20
21680.767650319591
 30
0.0
 40
20.000091999999999
 50
180.0
 51
268.85427899999138
  0
LINE
  5
425C
  8
FUTO
 10
14288.339984154531
 20
21721.659740319588
 30
0.0
 11
14288.339984154531
 21
21680.767650319591
 31
0.0
  0
LINE
  5
425D
  8
FUTO
 10
14248.339984154531
 20
21721.659740319588
 30
0.0
 11
14248.339984154531
 21
21680.767650319591
 31
0.0
  0
ARC
  5
425E
  8
FUTO
 10
14228.339984154531
 20
21680.767650319591
 30
0.0
 40
20.0
 50
271.14572100000839
 51
0.000000000000007
  0
LINE
  5
425F
  8
FUTO
 10
14168.339984154531
 20
21639.16364631959
 30
0.0
 11
14168.339984154531
 21
21640.16364631959
 31
0.0
  0
ARC
  5
4260
  8
FUTO
 10
14173.339984154531
 20
21640.16364631959
 30
0.0
 40
5.0
 50
90.0
 51
180.0
  0
LINE
  5
4261
  8
FUTO
 10
14173.339984154531
 20
21645.16364631959
 30
0.0
 11
14268.339984154531
 21
21645.16364631959
 31
0.0
  0
ARC
  5
4262
  8
FUTO
 10
14445.33992315453
 20
21656.16364631959
 30
0.0
 40
3.0
 50
0.000000000000007
 51
90.0
  0
LINE
  5
4263
  8
FUTO
 10
14388.33992315453
 20
21659.16364631959
 30
0.0
 11
14396.01947607884
 21
21659.16364631959
 31
0.0
  0
ARC
  5
426D
  8
FUTO
 10
14363.33992315453
 20
21640.16364631959
 30
0.0
 40
5.0
 50
0.000000000000007
 51
90.0
  0
LINE
  5
426E
  8
FUTO
 10
14368.33992315453
 20
21639.16364631959
 30
0.0
 11
14368.33992315453
 21
21640.16364631959
 31
0.0
  0
LINE
  5
426F
  8
FUTO
 10
14368.33992315453
 20
21639.16364631959
 30
0.0
 11
14393.339984154531
 21
21639.16364631959
 31
0.0
  0
LINE
  5
4270
  8
FUTO
 10
14507.946002154529
 20
21643.16364631959
 30
0.0
 11
14517.561969154531
 21
21646.66364631959
 31
0.0
  0
LINE
  5
4271
  8
FUTO
 10
14507.946002154529
 20
21643.16364631959
 30
0.0
 11
14448.33992315453
 21
21643.16364631959
 31
0.0
  0
LINE
  5
4272
  8
FUTO
 10
14448.33992315453
 20
21639.16364631959
 30
0.0
 11
14448.33992315453
 21
21656.16364631959
 31
0.0
  0
LINE
  5
4273
  8
FUTO
 10
14307.940021154531
 20
21660.771557319589
 30
0.0
 11
14388.33992315453
 21
21659.16364631959
 31
0.0
  0
LINE
  5
4274
  8
FUTO
 10
14363.33992315453
 20
21645.16364631959
 30
0.0
 11
14268.339984154531
 21
21645.16364631959
 31
0.0
  0
LINE
  5
4275
  8
FUTO
 10
14148.339984154531
 20
21659.16364631959
 30
0.0
 11
14140.660492230219
 21
21659.16364631959
 31
0.0
  0
LINE
  5
4276
  8
FUTO
 10
14168.339984154531
 20
21639.16364631959
 30
0.0
 11
14143.339984154531
 21
21639.16364631959
 31
0.0
  0
ARC
  5
4277
  8
FUTO
 10
14327.33992315453
 20
21796.465892319589
 30
0.0
 40
30.0
 50
270.0
 51
0.000000000000007
  0
ARC
  5
4278
  8
FUTO
 10
14209.339984154531
 20
21796.465892319589
 30
0.0
 40
30.0
 50
180.0
 51
270.0
  0
LINE
  5
4279
  8
CT
 10
14268.339984154531
 20
22129.16364631959
 30
0.0
 11
14268.339984154531
 21
21559.16364631959
 31
0.0
  0
LINE
  5
427A
  8
FUTO
 10
14079.339984154531
 20
21677.16364631959
 30
0.0
 11
14079.339984154531
 21
21839.16364631959
 31
0.0
  0
LINE
  5
427B
  8
FUTO
 10
14437.33992315453
 20
22042.66364631959
 30
0.0
 11
14437.33992315453
 21
21659.16364631959
 31
0.0
  0
LINE
  5
427C
  8
FUTO
 10
14487.33992315453
 20
22042.350170319591
 30
0.0
 11
14487.33992315453
 21
21643.16364631959
 31
0.0
  0
LINE
  5
427D
  8
FUTO
 10
14517.53987415453
 20
22031.981029319591
 30
0.0
 11
14517.53987415453
 21
21646.66364631959
 31
0.0
  0
LINE
  5
427E
  8
FUTO
 10
14079.339984154531
 20
21677.16364631959
 30
0.0
 11
14079.339984154531
 21
21839.16364631959
 31
0.0
  0
LINE
  5
427F
  8
FUTO
 10
14074.339984154531
 20
21649.16364631959
 30
0.0
 11
14074.339984154531
 21
21839.16364631959
 31
0.0
  0
LINE
  5
4280
  8
FUTO
 10
13992.839984154531
 20
21761.16364631959
 30
0.0
 11
13992.839984154531
 21
21839.16364631959
 31
0.0
  0
ARC
  5
4281
  8
FUTO
 10
14582.029010154531
 20
22016.66364631959
 30
0.0
 40
15.0
 50
60.00018300001819
 51
90.0
  0
ARC
  5
4282
  8
FUTO
 10
14637.33992315453
 20
21996.276928319588
 30
0.0
 40
4.9999580000000003
 50
0.000000000000007
 51
59.999718000027237
  0
LINE
  5
4283
  8
FUTO
 10
14639.83992315453
 20
22000.607006319591
 30
0.0
 11
14589.529010154531
 21
22029.65412531959
 31
0.0
  0
ARC
  5
42CC
  8
FUTO
 10
14637.33992315453
 20
21682.050365319588
 30
0.0
 40
5.0
 50
300.00027500002068
 51
0.000000000000007
  0
ARC
  5
42CE
  8
FUTO
 10
14582.029010154531
 20
21661.66364631959
 30
0.0
 40
15.000085
 50
270.0
 51
299.99981699998182
  0
LINE
  5
42CF
  8
FUTO
 10
14639.83992315453
 20
21677.720287319589
 30
0.0
 11
14589.529010154531
 21
21648.67316831959
 31
0.0
  0
LINE
  5
4301
  8
FUTO
 10
14583.23994715453
 20
21646.66364631959
 30
0.0
 11
14583.23994715453
 21
22031.614574319588
 31
0.0
  0
LINE
  5
4305
  8
FUTO
 10
14642.339984154531
 20
21996.81361031959
 30
0.0
 11
14642.339984154531
 21
21682.023296319589
 31
0.0
  0
LINE
  5
4306
  8
CT
 10
13822.839984154531
 20
21839.16364631959
 30
0.0
 11
14662.339984154531
 21
21839.16364631959
 31
0.0
  0
LINE
  5
4307
  8
FUTO
 10
14521.08870215453
 20
22031.66364631959
 30
0.0
 11
14582.029010154531
 21
22031.66364631959
 31
0.0
  0
LINE
  5
4308
  8
FUTO
 10
14517.53987415453
 20
21646.66364631959
 30
0.0
 11
14582.029010154531
 21
21646.66364631959
 31
0.0
  0
LINE
  5
430D
  8
CT
 10
12447.58099723124
 20
24850.0523425135
 30
0.0
 11
12397.58099723124
 21
24850.0523425135
 31
0.0
  0
LINE
  5
430E
  8
CT
 10
12422.58099723124
 20
24825.0523425135
 30
0.0
 11
12422.58099723124
 21
24875.0523425135
 31
0.0
  0
LINE
  5
430F
  8
CT
 10
12742.58099723124
 20
24825.0523425135
 30
0.0
 11
12742.58099723124
 21
24875.0523425135
 31
0.0
  0
LINE
  5
4310
  8
CT
 10
12717.58099723124
 20
24850.0523425135
 30
0.0
 11
12767.58099723124
 21
24850.0523425135
 31
0.0
  0
LINE
  5
4311
  8
CT
 10
12717.58099723124
 20
25310.0523425135
 30
0.0
 11
12767.58099723124
 21
25310.0523425135
 31
0.0
  0
LINE
  5
4312
  8
CT
 10
12742.58099723124
 20
25335.0523425135
 30
0.0
 11
12742.58099723124
 21
25285.0523425135
 31
0.0
  0
LINE
  5
4313
  8
CT
 10
12422.58099723124
 20
25335.0523425135
 30
0.0
 11
12422.58099723124
 21
25285.0523425135
 31
0.0
  0
LINE
  5
4314
  8
CT
 10
12447.58099723124
 20
25310.0523425135
 30
0.0
 11
12397.58099723124
 21
25310.0523425135
 31
0.0
  0
LINE
  5
4315
  8
FUTO
 10
12802.58099723124
 20
24799.5523425135
 30
0.0
 11
12802.58099723124
 21
24544.552342513511
 31
0.0
  0
LINE
  5
4316
  8
FUTO
 10
12932.58099723124
 20
24850.5523425135
 30
0.0
 11
12932.58099723124
 21
24777.5523425135
 31
0.0
  0
LINE
  5
4317
  8
FUTO
 10
12792.58099723124
 20
25753.5523425135
 30
0.0
 11
12792.58099723124
 21
24850.5523425135
 31
0.0
  0
LINE
  5
4319
  8
FUTO
 10
12447.58099723124
 20
25753.5523425135
 30
0.0
 11
12447.58099723124
 21
25454.0523425135
 31
0.0
  0
LINE
  5
431A
  8
FUTO
 10
12372.580997231251
 20
25753.5523425135
 30
0.0
 11
12372.580997231251
 21
24850.5523425135
 31
0.0
  0
LINE
  5
431B
  8
SL
 10
12717.580997231251
 20
25454.0523425135
 30
0.0
 11
12717.580997231251
 21
24844.5523425135
 31
0.0
  0
LINE
  5
431C
  8
SL
 10
12447.58099723124
 20
25454.0523425135
 30
0.0
 11
12447.58099723124
 21
24844.5523425135
 31
0.0
  0
LINE
  5
431D
  8
FUTO
 10
10379.580997231251
 20
26902.5523425135
 30
0.0
 11
10379.580997231251
 21
26364.5523425135
 31
0.0
  0
LINE
  5
431F
  8
FUTO
 10
10329.58099723124
 20
26948.552342513511
 30
0.0
 11
10329.58099723124
 21
26364.5523425135
 31
0.0
  0
LINE
  5
432D
  8
FUTO
 10
10329.58099723124
 20
26948.552342513511
 30
0.0
 11
12927.58099723124
 21
26948.5523425135
 31
0.0
  0
LINE
  5
433D
  8
FUTO
 10
12927.58099723124
 20
25780.5523425135
 30
0.0
 11
12927.58099723124
 21
26948.5523425135
 31
0.0
  0
LINE
  5
433E
  8
FUTO
 10
11423.58099723124
 20
25780.5523425135
 30
0.0
 11
11423.58099723124
 21
26902.552342513511
 31
0.0
  0
LINE
  5
433F
  8
FUTO
 10
11369.580997231251
 20
25780.5523425135
 30
0.0
 11
11369.580997231251
 21
26948.5523425135
 31
0.0
  0
LINE
  5
4341
  8
FUTO
 10
10329.58099723124
 20
25780.5523425135
 30
0.0
 11
12927.58099723124
 21
25780.5523425135
 31
0.0
  0
LINE
  5
4342
  8
FUTO
 10
10379.580997231251
 20
25826.552342513511
 30
0.0
 11
12232.580997231251
 21
25826.5523425135
 31
0.0
  0
LINE
  5
4343
  8
FUTO
 10
10379.580997231251
 20
25826.5523425135
 30
0.0
 11
10379.580997231251
 21
26364.5523425135
 31
0.0
  0
LINE
  5
4344
  8
FUTO
 10
10329.58099723124
 20
25780.5523425135
 30
0.0
 11
10329.58099723124
 21
26364.5523425135
 31
0.0
  0
LINE
  5
4345
  8
FUTO
 10
12873.58099723124
 20
25828.5523425135
 30
0.0
 11
12873.58099723124
 21
26902.552342513511
 31
0.0
  0
LINE
  5
4347
  8
FUTO
 10
10532.58099723124
 20
25780.5523425135
 30
0.0
 11
10532.58099723124
 21
25753.5523425135
 31
0.0
  0
LINE
  5
4348
  8
FUTO
 10
12927.58099723124
 20
25828.5523425135
 30
0.0
 11
12932.58099723124
 21
25828.5523425135
 31
0.0
  0
LINE
  5
4349
  8
FUTO
 10
11684.11449683482
 20
24850.552342513511
 30
0.0
 11
11684.11449683482
 21
25780.5523425135
 31
0.0
  0
LINE
  5
434A
  8
FUTO
 10
11081.047497627669
 20
24850.552342513511
 30
0.0
 11
11081.047497627669
 21
25780.5523425135
 31
0.0
  0
LINE
  5
434B
  8
SL
 10
12873.58099723124
 20
26902.552342513511
 30
0.0
 11
11423.58099723124
 21
25828.5523425135
 31
0.0
  0
LINE
  5
434C
  8
SL
 10
11423.58099723124
 20
26902.5523425135
 30
0.0
 11
12873.58099723124
 21
25828.5523425135
 31
0.0
  0
DIMENSION
  5
4368
  8
FUTO
  2
*D12
 10
11382.58099723124
 20
23932.994029868831
 30
0.0
 11
12155.08099723124
 21
23992.994029868831
 31
0.0
 70
     0
 13
12927.58099723124
 23
23599.16364631959
 33
0.0
 14
11382.58099723124
 24
23670.725040639551
 34
0.0
 50
180.0
1001
ACAD
1000
DSTYLE
1002
{
1070
    40
1040
30.0
1070
   176
1070
     2
1070
   177
1070
     2
1070
   178
1070
     2
1070
   341
1005
44D5
1070
     5
1000
OPEN30
1002
}
  0
LINE
  5
457C
  8
FUTO
 62
     2
 10
10502.580997231251
 20
21429.16364631959
 30
0.0
 11
9874.689198179527
 21
21429.16364631959
 31
0.0
  0
LINE
  5
457E
  8
FUTO
 62
     2
 10
9904.689198179527
 20
21489.16364631959
 30
0.0
 11
9904.689198179527
 21
21549.16364631959
 31
0.0
  0
INSERT
  5
4581
  8
FUTO
 62
     2
  2
_OPEN30
 10
9904.689198179527
 20
21429.16364631959
 30
0.0
 41
-60.0
 42
60.0
 43
60.0
 50
90.0
  0
LINE
  5
4593
  8
FUTO
 10
11794.68312156982
 20
22014.96268282237
 30
0.0
 11
11882.58099723124
 21
21579.16364631959
 31
0.0
  0
LINE
  5
4594
  8
FUTO
 10
11061.45038093509
 20
22466.000836540708
 30
0.0
 11
10882.580997231251
 21
21579.16364631959
 31
0.0
  0
LINE
  5
4595
  8
KL
 10
12213.580997231251
 20
22451.343878321721
 30
0.0
 11
12213.580997231251
 21
21788.862516685542
 31
0.0
  0
LINE
  5
4596
  8
KL
 10
12222.58099723124
 20
22443.537273172238
 30
0.0
 11
12222.58099723124
 21
21784.00476587451
 31
0.0
  0
LINE
  5
4597
  8
FUTO
 10
12213.580997231251
 20
21788.862516685542
 30
0.0
 11
12213.580997231251
 21
21579.16364631959
 31
0.0
  0
LINE
  5
4598
  8
FUTO
 10
12222.58099723124
 20
21784.00476587451
 30
0.0
 11
12222.58099723124
 21
21579.16364631959
 31
0.0
  0
DIMENSION
  5
459B
  8
FUTO
  2
*D17
 10
10329.58099723124
 20
27382.988165706389
 30
0.0
 11
10856.08099723124
 21
27442.988165706389
 31
0.0
 70
     0
 13
11382.58099723124
 23
27279.424920163099
 33
0.0
 14
10329.58099723124
 24
26948.552342513511
 34
0.0
 50
180.0
1001
ACAD
1000
DSTYLE
1002
{
1070
    40
1040
30.0
1070
   176
1070
     2
1070
   177
1070
     2
1070
   178
1070
     2
1070
   341
1005
44D5
1070
     5
1000
OPEN30
1002
}
  0
DIMENSION
  5
45A8
  8
FUTO
  2
*D18
 10
12932.58099723124
 20
27382.988165706389
 30
0.0
 11
12157.58099723124
 21
27442.988165706389
 31
0.0
 70
     0
 13
11382.58099723124
 23
27279.424920163099
 33
0.0
 14
12932.58099723124
 24
25753.5523425135
 34
0.0
 50
180.0
1001
ACAD
1000
DSTYLE
1002
{
1070
    40
1040
30.0
1070
   176
1070
     2
1070
   177
1070
     2
1070
   178
1070
     2
1070
   341
1005
44D5
1070
     5
1000
OPEN30
1002
}
  0
DIMENSION
  5
45B5
  8
FUTO
  2
*D19
 10
9972.2750943913779
 20
26998.5523425135
 30
0.0
 11
9912.2750943913743
 21
26681.552342513511
 31
0.0
 70
     0
 13
10205.06099665172
 23
26364.5523425135
 33
0.0
 14
10632.58099723124
 24
26998.5523425135
 34
0.0
 50
90.0
1001
ACAD
1000
DSTYLE
1002
{
1070
    40
1040
30.0
1070
   176
1070
     2
1070
   177
1070
     2
1070
   178
1070
     2
1070
   341
1005
44D5
1070
     5
1000
OPEN30
1002
}
  0
DIMENSION
  5
45C2
  8
FUTO
  2
*D20
 10
9972.2750943913779
 20
24544.552342513511
 30
0.0
 11
9912.2750943913743
 21
25454.552342513511
 31
0.0
 70
     0
 13
9972.2750943913779
 23
26364.5523425135
 33
0.0
 14
11002.580997231251
 24
24544.552342513511
 34
0.0
 50
90.0
1001
ACAD
1000
DSTYLE
1002
{
1070
    40
1040
30.0
1070
   176
1070
     2
1070
   177
1070
     2
1070
   178
1070
     2
1070
   341
1005
44D5
1070
     5
1000
OPEN30
1002
}
  0
LINE
  5
46F2
  8
FUTO
 10
16089.839984154531
 20
21429.16364631959
 30
0.0
 11
16089.839984154531
 21
21579.16364631959
 31
0.0
1001
ACAD
1000
ASC_BOUNDS
1002
{
1070
    19
1002
}
  0
LINE
  5
46F3
  8
FUTO
 10
16089.839984154531
 20
21579.16364631959
 30
0.0
 11
16164.839984154531
 21
21579.16364631959
 31
0.0
1001
ACAD
1000
ASC_BOUNDS
1002
{
1070
    19
1002
}
  0
LINE
  5
46F4
  8
FUTO
 10
16164.839984154531
 20
21579.16364631959
 30
0.0
 11
16164.839984154531
 21
21575.825457741419
 31
0.0
1001
ACAD
1000
ASC_BOUNDS
1002
{
1070
    19
1002
}
  0
ARC
  5
46F5
  8
FUTO
 10
16160.839984154531
 20
21575.825457741419
 30
0.0
 40
4.0
 50
274.99999999999949
 51
359.99999999996078
1001
ACAD
1000
ASC_BOUNDS
1002
{
1070
    19
1002
}
  0
LINE
  5
46F6
  8
FUTO
 10
16161.188607125519
 20
21571.840678949058
 30
0.0
 11
16099.99136118354
 21
21566.486613690129
 31
0.0
1001
ACAD
1000
ASC_BOUNDS
1002
{
1070
    19
1002
}
  0
ARC
  5
46F7
  8
FUTO
 10
16100.339984154531
 20
21562.501834897761
 30
0.0
 40
4.0000000000002656
 50
94.99999999999946
 51
180.0
1001
ACAD
1000
ASC_BOUNDS
1002
{
1070
    19
1002
}
  0
LINE
  5
46F8
  8
FUTO
 10
16096.339984154531
 20
21562.501834897761
 30
0.0
 11
16096.339984154531
 21
21445.825457741419
 31
0.0
1001
ACAD
1000
ASC_BOUNDS
1002
{
1070
    19
1002
}
  0
ARC
  5
46F9
  8
FUTO
 10
16100.339984154531
 20
21445.825457741419
 30
0.0
 40
4.0
 50
180.0
 51
265.00000000000051
1001
ACAD
1000
ASC_BOUNDS
1002
{
1070
    19
1002
}
  0
LINE
  5
46FA
  8
FUTO
 10
16099.99136118354
 20
21441.840678949058
 30
0.0
 11
16161.188607125519
 21
21436.486613690129
 31
0.0
1001
ACAD
1000
ASC_BOUNDS
1002
{
1070
    19
1002
}
  0
ARC
  5
46FB
  8
FUTO
 10
16160.839984154531
 20
21432.501834897761
 30
0.0
 40
4.0000000000002656
 50
0.0000000000130276
 51
85.000000000000554
1001
ACAD
1000
ASC_BOUNDS
1002
{
1070
    19
1002
}
  0
LINE
  5
46FC
  8
FUTO
 10
16164.839984154531
 20
21432.501834897761
 30
0.0
 11
16164.839984154531
 21
21429.16364631959
 31
0.0
1001
ACAD
1000
ASC_BOUNDS
1002
{
1070
    19
1002
}
  0
LINE
  5
46FD
  8
FUTO
 10
16164.839984154531
 20
21429.16364631959
 30
0.0
 11
16089.839984154531
 21
21429.16364631959
 31
0.0
1001
ACAD
1000
ASC_BOUNDS
1002
{
1070
    19
1002
}
  0
LINE
  5
46FE
  8
FUTO
 10
14039.839984154531
 20
21579.16364631959
 30
0.0
 11
13964.839984154531
 21
21579.16364631959
 31
0.0
  0
LINE
  5
46FF
  8
FUTO
 10
14029.688607125519
 20
21566.486613690129
 30
0.0
 11
13968.49136118354
 21
21571.840678949058
 31
0.0
  0
LINE
  5
4700
  8
FUTO
 10
14039.839984154531
 20
21429.16364631959
 30
0.0
 11
13964.839984154531
 21
21429.16364631959
 31
0.0
  0
LINE
  5
4701
  8
FUTO
 10
14029.688607125519
 20
21441.840678949058
 30
0.0
 11
13968.49136118354
 21
21436.486613690129
 31
0.0
  0
LINE
  5
4702
  8
FUTO
 10
14033.339984154531
 20
21445.825457741419
 30
0.0
 11
14033.339984154531
 21
21562.501834897761
 31
0.0
  0
ARC
  5
4703
  8
FUTO
 10
14029.339984154531
 20
21562.501834897761
 30
0.0
 40
4.0
 50
0.0
 51
84.999999999975714
  0
LINE
  5
4704
  8
FUTO
 10
14039.839984154531
 20
21429.16364631959
 30
0.0
 11
14039.839984154531
 21
21579.16364631959
 31
0.0
  0
ARC
  5
4705
  8
FUTO
 10
14029.339984154531
 20
21445.825457741419
 30
0.0
 40
4.0
 50
275.00000000002422
 51
0.0
  0
ARC
  5
4706
  8
FUTO
 10
13968.839984154531
 20
21575.825457741419
 30
0.0
 40
4.0
 50
180.0
 51
264.99999999997573
  0
LINE
  5
4707
  8
FUTO
 10
13964.839984154531
 20
21579.16364631959
 30
0.0
 11
13964.839984154531
 21
21575.825457741419
 31
0.0
  0
LINE
  5
4708
  8
FUTO
 10
13964.839984154531
 20
21429.16364631959
 30
0.0
 11
13964.839984154531
 21
21432.501834897761
 31
0.0
  0
ARC
  5
4709
  8
FUTO
 10
13968.839984154531
 20
21432.501834897761
 30
0.0
 40
4.0
 50
95.000000000024286
 51
180.0
  0
TEXT
  5
4DF8
  8
SP
 10
7025.0065603400662
 20
10065.879987816739
 30
0.0
 40
100.0
  1
 
  0
TEXT
  5
50C0
  8
SP
 10
4041.9695852247351
 20
12926.42488668463
 30
0.0
 40
100.0
  1
 
  0
TEXT
  5
50C1
  8
SP
 10
8202.8250858500396
 20
15606.588335624951
 30
0.0
 40
100.0
  1
 
  0
TEXT
  5
50C2
  8
SP
 10
17759.776515853489
 20
23035.186007719782
 30
0.0
 40
100.0
  1
 
  0
LINE
  5
50C3
  8
4
 10
16861.02694688032
 20
19434.13278043125
 30
0.0
 11
16861.02694688032
 21
18434.13278043125
 31
0.0
  0
LINE
  5
50C4
  8
4
 10
13361.02694688032
 20
19434.13278043125
 30
0.0
 11
13361.02694688032
 21
18434.13278043125
 31
0.0
  0
LINE
  5
50C5
  8
4
 10
10861.02694688032
 20
19434.13278043125
 30
0.0
 11
10861.02694688032
 21
18434.13278043125
 31
0.0
  0
LINE
  5
50C8
  8
4
 10
10861.02694688032
 20
18434.13278043125
 30
0.0
 11
16861.02694688032
 21
18434.13278043125
 31
0.0
  0
LINE
  5
50C9
  8
4
 10
10861.02694688032
 20
18934.13278043125
 30
0.0
 11
16861.02694688032
 21
18934.13278043125
 31
0.0
  0
TEXT
  5
50CA
  8
4
 10
11053.537351114839
 20
19091.847909764321
 30
0.0
 40
250.0
  1
機器名称
  0
TEXT
  5
50CB
  8
4
 10
11042.317477004321
 20
18542.358564091301
 30
0.0
 40
250.0
  1
機器型番
  0
TEXT
  5
50CC
  8
4
 10
13384.99225538553
 20
19045.06929221598
 30
0.0
 40
225.0
  1
ミツヤリミットロードファン
  0
TEXT
  5
50CD
  8
4
 10
13544.299424807739
 20
18519.93070183097
 30
0.0
 40
250.0
  1
LL#9-1
  0
TEXT
  5
50CF
  8
4
 10
11486.18868884921
 20
28851.276987093828
 30
0.0
 40
270.0
  1
床置ベット
  0
TEXT
  5
50D0
  8
4
 10
9191.8649135275573
 20
29603.537661427741
 30
0.0
 40
360.0
  1
遠心式片吸込片持リミットロードファン
  0
LINE
  5
50D1
  8
4
 10
8861.0269468803272
 20
29281.176551755281
 30
0.0
 11
16861.02694688032
 21
29281.176551755281
 31
0.0
  0
LINE
  5
50D2
  8
4
 10
8861.0269468803272
 20
30281.176551755281
 30
0.0
 11
16861.02694688032
 21
30281.176551755281
 31
0.0
  0
LINE
  5
50D3
  8
4
 10
10861.02694688032
 20
19434.13278043125
 30
0.0
 11
16861.02694688032
 21
19434.13278043125
 31
0.0
  0
LINE
  5
50D4
  8
4
 10
8861.0269468803272
 20
30281.176551755281
 30
0.0
 11
8861.0269468803272
 21
29281.176551755281
 31
0.0
  0
TEXT
  5
50D5
  8
4
 10
9306.8945276356935
 20
28845.730168162969
 30
0.0
 40
270.0
  1
左回転上向
  0
TEXT
  5
50D6
  8
4
 10
14955.87474312678
 20
30464.438187907788
 30
0.0
 40
280.0
  1
No.
  0
TEXT
  5
50D7
  8
4
 10
15022.806170137101
 20
28355.01214408363
 30
0.0
 40
270.0
  1
縮尺：1/50
  0
LINE
  5
50D8
  8
4
 10
16861.02694688032
 20
30281.176551755281
 30
0.0
 11
16861.02694688032
 21
29281.176551755281
 31
0.0
  0
LINE
  5
50D9
  8
4
 10
18111.02694688032
 20
31684.13278043126
 30
0.0
 11
18111.02694688032
 21
31684.13278043126
 31
0.0
  0
LINE
  5
50DA
  8
4
 10
14814.11405867965
 20
30340.450696058258
 30
0.0
 11
14814.11405867965
 21
30867.394088180019
 31
0.0
  0
LINE
  5
50DB
  8
4
 10
14814.11405867965
 20
30867.394088180019
 30
0.0
 11
16861.02694688032
 21
30867.394088180019
 31
0.0
  0
LINE
  5
50DC
  8
4
 10
16861.02694688032
 20
30867.394088180019
 30
0.0
 11
16861.02694688032
 21
30340.450696058258
 31
0.0
  0
LINE
  5
50DD
  8
4
 10
16861.02694688032
 20
30340.450696058258
 30
0.0
 11
14814.11405867965
 21
30340.450696058258
 31
0.0
  0
LINE
  5
50DE
  8
4
 10
7611.0269468803262
 20
16934.13278043125
 30
0.0
 11
7611.0269468803262
 21
31684.13278043126
 31
0.0
  0
LINE
  5
50DF
  8
4
 10
7611.0269468803262
 20
31684.13278043126
 30
0.0
 11
18111.02694688032
 21
31684.13278043126
 31
0.0
  0
LINE
  5
50E0
  8
4
 10
18111.02694688032
 20
31684.13278043126
 30
0.0
 11
18111.02694688032
 21
16934.13278043125
 31
0.0
  0
LINE
  5
50E1
  8
4
 10
18111.02694688032
 20
16934.13278043125
 30
0.0
 11
7611.0269468803262
 21
16934.13278043125
 31
0.0
  0
ENDSEC
  0
EOF
