  0
SECTION
  2
HEADER
  9
$ACADVER
  1
AC1009
  9
$INSBASE
 10
0.0
 20
0.0
 30
0.0
  9
$EXTMIN
 10
8116.8259963911123
 20
10517.778449601339
 30
0.0
  9
$EXTMAX
 10
18616.825996391111
 20
25267.778449601341
 30
0.0
  9
$LIMMIN
 10
0.0
 20
0.0
  9
$LIMMAX
 10
420.0
 20
297.0
  9
$ORTHOMODE
 70
     0
  9
$REGENMODE
 70
     1
  9
$FILLMODE
 70
     1
  9
$QTEXTMODE
 70
     0
  9
$MIRRTEXT
 70
     0
  9
$DRAGMODE
 70
     2
  9
$LTSCALE
 40
150.0
  9
$OSMODE
 70
    37
  9
$ATTMODE
 70
     1
  9
$TEXTSIZE
 40
90.0
  9
$TRACEWID
 40
0.05
  9
$TEXTSTYLE
  7
STANDARD
  9
$CLAYER
  8
FUTO
  9
$CELTYPE
  6
BYLAYER
  9
$CECOLOR
 62
   256
  9
$DIMSCALE
 40
30.0
  9
$DIMASZ
 40
2.0
  9
$DIMEXO
 40
1.0
  9
$DIMDLI
 40
10.0
  9
$DIMRND
 40
0.0
  9
$DIMDLE
 40
0.0
  9
$DIMEXE
 40
1.0
  9
$DIMTP
 40
0.0
  9
$DIMTM
 40
0.0
  9
$DIMTXT
 40
3.0
  9
$DIMCEN
 40
0.0
  9
$DIMTSZ
 40
0.0
  9
$DIMTOL
 70
     0
  9
$DIMLIM
 70
     0
  9
$DIMTIH
 70
     0
  9
$DIMTOH
 70
     0
  9
$DIMSE1
 70
     0
  9
$DIMSE2
 70
     0
  9
$DIMTAD
 70
     1
  9
$DIMZIN
 70
     8
  9
$DIMBLK
  1
OPEN30
  9
$DIMASO
 70
     1
  9
$DIMSHO
 70
     1
  9
$DIMPOST
  1

  9
$DIMAPOST
  1

  9
$DIMALT
 70
     0
  9
$DIMALTD
 70
     2
  9
$DIMALTF
 40
0.03937
  9
$DIMLFAC
 40
1.0
  9
$DIMTOFL
 70
     1
  9
$DIMTVP
 40
0.0
  9
$DIMTIX
 70
     0
  9
$DIMSOXD
 70
     0
  9
$DIMSAH
 70
     0
  9
$DIMBLK1
  1

  9
$DIMBLK2
  1

  9
$DIMSTYLE
  2
MATSU
  9
$DIMCLRD
 70
     2
  9
$DIMCLRE
 70
     2
  9
$DIMCLRT
 70
     2
  9
$DIMTFAC
 40
1.0
  9
$DIMGAP
 40
0.5
  9
$LUNITS
 70
     2
  9
$LUPREC
 70
     1
  9
$SKETCHINC
 40
0.1
  9
$FILLETRAD
 40
0.0
  9
$AUNITS
 70
     0
  9
$AUPREC
 70
     0
  9
$MENU
  1
SSMENU
  9
$ELEVATION
 40
0.0
  9
$PELEVATION
 40
0.0
  9
$THICKNESS
 40
0.0
  9
$LIMCHECK
 70
     0
  9
$BLIPMODE
 70
     0
  9
$CHAMFERA
 40
20.0
  9
$CHAMFERB
 40
20.0
  9
$SKPOLY
 70
     0
  9
$TDCREATE
 40
2450714.9573032409
  9
$TDUPDATE
 40
2454953.6482146988
  9
$TDINDWG
 40
1.4230029397999999
  9
$TDUSRTIMER
 40
1.4230029397999999
  9
$USRTIMER
 70
     1
  9
$ANGBASE
 50
0.0
  9
$ANGDIR
 70
     0
  9
$PDMODE
 70
     0
  9
$PDSIZE
 40
1.0
  9
$PLINEWID
 40
0.0
  9
$COORDS
 70
     1
  9
$SPLFRAME
 70
     0
  9
$SPLINETYPE
 70
     6
  9
$SPLINESEGS
 70
     8
  9
$ATTDIA
 70
     0
  9
$ATTREQ
 70
     1
  9
$HANDLING
 70
 10241
  9
$HANDSEED
  5
54FA
  9
$SURFTAB1
 70
     6
  9
$SURFTAB2
 70
     6
  9
$SURFTYPE
 70
     6
  9
$SURFU
 70
     6
  9
$SURFV
 70
     6
  9
$UCSNAME
  2

  9
$UCSORG
 10
0.0
 20
0.0
 30
0.0
  9
$UCSXDIR
 10
1.0
 20
0.0
 30
0.0
  9
$UCSYDIR
 10
0.0
 20
1.0
 30
0.0
  9
$PUCSNAME
  2

  9
$PUCSORG
 10
0.0
 20
0.0
 30
0.0
  9
$PUCSXDIR
 10
1.0
 20
0.0
 30
0.0
  9
$PUCSYDIR
 10
0.0
 20
1.0
 30
0.0
  9
$USERI1
 70
     0
  9
$USERI2
 70
     0
  9
$USERI3
 70
     0
  9
$USERI4
 70
     0
  9
$USERI5
 70
     0
  9
$USERR1
 40
0.0
  9
$USERR2
 40
0.0
  9
$USERR3
 40
0.0
  9
$USERR4
 40
0.0
  9
$USERR5
 40
0.0
  9
$WORLDVIEW
 70
     1
  9
$SHADEDGE
 70
     3
  9
$SHADEDIF
 70
    70
  9
$TILEMODE
 70
     1
  9
$MAXACTVP
 70
    16
  9
$PLIMCHECK
 70
     0
  9
$PEXTMIN
 10
0.0
 20
0.0
 30
0.0
  9
$PEXTMAX
 10
12.561051004636781
 20
9.0
 30
0.0
  9
$PLIMMIN
 10
0.0
 20
0.0
  9
$PLIMMAX
 10
12.0
 20
9.0
  9
$UNITMODE
 70
     0
  9
$VISRETAIN
 70
     0
  9
$PLINEGEN
 70
     0
  9
$PSLTSCALE
 70
     0
  0
ENDSEC
  0
SECTION
  2
TABLES
  0
TABLE
  2
VPORT
 70
     2
  0
VPORT
  2
*ACTIVE
 70
     0
 10
0.0
 20
0.0
 11
1.0
 21
1.0
 12
18129.42272138664
 22
12292.98280367034
 13
0.0
 23
0.0
 14
5.0
 24
5.0
 15
0.0
 25
0.0
 16
0.0
 26
0.0
 36
1.0
 17
0.0
 27
0.0
 37
0.0
 40
4527.8080165014862
 41
3.1666666666666661
 42
50.0
 43
0.0
 44
0.0
 50
0.0
 51
0.0
 71
     0
 72
   500
 73
     1
 74
     0
 75
     0
 76
     1
 77
     0
 78
     0
  0
ENDTAB
  0
TABLE
  2
LTYPE
 70
     4
  0
LTYPE
  2
CONTINUOUS
 70
     0
  3
実線
 72
    65
 73
     0
 40
0.0
  0
LTYPE
  2
CENTER
 70
     0
  3
____ _ ____ _ ____ _ ____ _ ____ _ ____ _ ____ 
 72
    65
 73
     4
 40
2.0
 49
1.25
 49
-0.25
 49
0.25
 49
-0.25
  0
LTYPE
  2
HIDDEN
 70
     0
  3
__ __ __ __ __ __ __ __ __ __ __ __ __ __ __ __
 72
    65
 73
     2
 40
0.375
 49
0.25
 49
-0.125
  0
LTYPE
  2
PHANTOM
 70
     0
  3
______  __  __  ______  __  __  ______  __  __ 
 72
    65
 73
     6
 40
2.5
 49
1.25
 49
-0.25
 49
0.25
 49
-0.25
 49
0.25
 49
-0.25
  0
ENDTAB
  0
TABLE
  2
LAYER
 70
     9
  0
LAYER
  2
0
 70
     0
 62
     7
  6
CONTINUOUS
  0
LAYER
  2
FUTO
 70
     0
 62
     4
  6
CONTINUOUS
  0
LAYER
  2
CT
 70
     0
 62
     3
  6
CENTER
  0
LAYER
  2
HOSO
 70
     0
 62
     7
  6
CONTINUOUS
  0
LAYER
  2
KL
 70
     0
 62
     7
  6
HIDDEN
  0
LAYER
  2
SL
 70
     0
 62
     1
  6
PHANTOM
  0
LAYER
  2
SP
 70
     0
 62
     2
  6
CONTINUOUS
  0
LAYER
  2
DEFPOINTS
 70
     0
 62
     7
  6
CONTINUOUS
  0
LAYER
  2
4
 70
     0
 62
     7
  6
CONTINUOUS
  0
ENDTAB
  0
TABLE
  2
STYLE
 70
     2
  0
STYLE
  2
STANDARD
 70
     0
 40
0.0
 41
1.0
 50
15.0
 71
     0
 42
90.0
  3
SIMPLEX
  4
EXTFONT
  0
STYLE
  2
SUNPOU
 70
     0
 40
0.0
 41
1.0
 50
15.0
 71
     0
 42
5.0
  3
simplex.shx
  4
extfont.shx
  0
ENDTAB
  0
TABLE
  2
VIEW
 70
     0
  0
ENDTAB
  0
TABLE
  2
UCS
 70
     0
  0
ENDTAB
  0
TABLE
  2
APPID
 70
     1
  0
APPID
  2
ACAD
 70
     0
  0
ENDTAB
  0
TABLE
  2
DIMSTYLE
 70
     1
  0
DIMSTYLE
  2
MATSU
 70
     0
  3

  4

  5
CLOSED
  6

  7

 40
10.0
 41
2.0
 42
1.0
 43
10.0
 44
1.0
 45
0.0
 46
0.0
 47
0.0
 48
0.0
140
3.0
141
0.0
142
0.0
143
0.03937
144
1.0
145
0.0
146
1.0
147
0.5
 71
     0
 72
     0
 73
     0
 74
     0
 75
     0
 76
     0
 77
     1
 78
     8
170
     0
171
     2
172
     1
173
     0
174
     0
175
     0
176
   256
177
   256
178
   256
  0
ENDTAB
  0
ENDSEC
  0
SECTION
  2
BLOCKS
  0
BLOCK
  8
0
  2
$MODEL_SPACE
 70
     0
 10
0.0
 20
0.0
 30
0.0
  3
$MODEL_SPACE
  1

  0
ENDBLK
  5
7
  8
0
  0
BLOCK
 67
     1
  8
0
  2
$PAPER_SPACE
 70
     0
 10
0.0
 20
0.0
 30
0.0
  3
$PAPER_SPACE
  1

  0
ENDBLK
  5
A
 67
     1
  8
0
  0
BLOCK
  8
0
  2
まっすぐの矢印
 70
     0
 10
0.0
 20
0.0
 30
0.0
  3
まっすぐの矢印
  1

  0
LINE
  5
599
  8
SP
 10
13.01863531255526
 20
-41.453946163708451
 30
0.0
 11
13.01863531255526
 21
-93.495696758840026
 31
0.0
  0
LINE
  5
59A
  8
SP
 10
13.01863531255526
 20
-93.495696758840026
 30
0.0
 11
-13.01863531255526
 21
-93.495696758840026
 31
0.0
  0
LINE
  5
59B
  8
SP
 10
-13.01863531255526
 20
-93.495696758840026
 30
0.0
 11
-13.01863531255526
 21
-41.453946163708451
 31
0.0
  0
LINE
  5
59C
  8
SP
 10
-13.01863531255526
 20
-41.453946163708451
 30
0.0
 11
-32.06015471115802
 21
-41.453946163708451
 31
0.0
  0
LINE
  5
59D
  8
SP
 10
-32.06015471115802
 20
-41.453946163708451
 30
0.0
 11
0.0
 21
0.0
 31
0.0
  0
LINE
  5
59E
  8
SP
 10
0.0
 20
0.0
 30
0.0
 11
32.06015471115802
 21
-41.453946163708451
 31
0.0
  0
LINE
  5
59F
  8
SP
 10
32.06015471115802
 20
-41.453946163708451
 30
0.0
 11
13.01863531255526
 21
-41.453946163708451
 31
0.0
  0
ENDBLK
  5
5A1
  8
0
  0
BLOCK
  8
0
  2
左回転矢印
 70
     0
 10
0.0
 20
0.0
 30
0.0
  3
左回転矢印
  1

  0
LINE
  5
57C
  8
SP
 10
43.930449171819873
 20
24.859487323637271
 30
0.0
 11
38.511878498580238
 21
44.478978865188871
 31
0.0
  0
LINE
  5
57D
  8
SP
 10
38.511878498580238
 20
44.478978865188871
 30
0.0
 11
0.0
 21
0.0
 31
0.0
  0
LINE
  5
57E
  8
SP
 10
0.0
 20
0.0
 30
0.0
 11
52.57968174421967
 21
-6.4575435924972453
 31
0.0
  0
LINE
  5
57F
  8
SP
 10
52.57968174421967
 20
-6.4575435924972453
 30
0.0
 11
48.189912989015284
 21
9.436875093862227
 31
0.0
  0
ARC
  5
580
  8
SP
 10
93.893649146691985
 20
-156.0466295121104
 30
0.0
 40
171.67883327727239
 50
67.881388989212894
 51
105.4392492786835
  0
LINE
  5
581
  8
SP
 10
158.53505643637521
 20
2.997736182040398
 30
0.0
 11
164.55945966006539
 21
17.820238190756751
 31
0.0
  0
ARC
  5
582
  8
SP
 10
93.893649146692198
 20
-156.04662951211091
 30
0.0
 40
187.67883327727299
 50
67.881388989212994
 51
105.4392492786836
  0
ENDBLK
  5
584
  8
0
  0
BLOCK
  8
0
  2
*D2
 70
     1
 10
0.0
 20
0.0
 30
0.0
  3
*D2
  1

  0
LINE
  5
5443
  8
FUTO
 62
     2
 10
11602.099970152
 20
15052.80928993411
 30
0.0
 11
11602.099970152
 21
14840.591581012841
 31
0.0
  0
LINE
  5
5444
  8
FUTO
 62
     2
 10
13152.099970152
 20
15004.891440977861
 30
0.0
 11
13152.099970152
 21
14840.591581012841
 31
0.0
  0
LINE
  5
5445
  8
FUTO
 62
     2
 10
11662.099970152
 20
14870.59158101283
 30
0.0
 11
13092.099970152
 21
14870.59158101283
 31
0.0
  0
INSERT
  5
5446
  8
FUTO
 62
     2
  2
_OPEN30
 10
11602.099970152
 20
14870.59158101283
 30
0.0
 41
60.0
 42
60.0
 43
60.0
 50
180.0
  0
INSERT
  5
5447
  8
FUTO
 62
     2
  2
_OPEN30
 10
13152.099970152
 20
14870.59158101283
 30
0.0
 41
60.0
 42
60.0
 43
60.0
  0
TEXT
  8
0
  40
90
  5
54E2
  62
2
  72
0
  71
0
 10
12197.1
 20
14771.3
 30
0.000000
  1
1550
  7
SUNPOU
  0
POINT
  5
5449
  8
DEFPOINTS
 62
     0
 10
11602.099970152
 20
15082.80928993411
 30
0.0
  0
POINT
  5
544A
  8
DEFPOINTS
 62
     0
 10
13152.099970152
 20
15034.891440977861
 30
0.0
  0
POINT
  5
544B
  8
DEFPOINTS
 62
     0
 10
13152.099970152
 20
14870.59158101283
 30
0.0
  0
ENDBLK
  5
3643
  8
0
  0
BLOCK
  8
0
  2
*D3
 70
     1
 10
0.0
 20
0.0
 30
0.0
  3
*D3
  1

  0
LINE
  5
544C
  8
FUTO
 62
     2
 10
13152.099970152
 20
15079.891440977861
 30
0.0
 11
13152.099970152
 21
14657.67426402875
 31
0.0
  0
LINE
  5
544D
  8
FUTO
 62
     2
 10
10752.099970152
 20
15079.891440977861
 30
0.0
 11
10752.099970152
 21
14657.67426402875
 31
0.0
  0
LINE
  5
544E
  8
FUTO
 62
     2
 10
13092.099970152
 20
14687.67426402875
 30
0.0
 11
10812.099970152
 21
14687.67426402875
 31
0.0
  0
INSERT
  5
544F
  8
FUTO
 62
     2
  2
_OPEN30
 10
13152.099970152
 20
14687.67426402875
 30
0.0
 41
60.0
 42
60.0
 43
60.0
  0
INSERT
  5
5450
  8
FUTO
 62
     2
  2
_OPEN30
 10
10752.099970152
 20
14687.67426402875
 30
0.0
 41
60.0
 42
60.0
 43
60.0
 50
180.0
  0
TEXT
  8
0
  40
90
  5
54E3
  62
2
  72
0
  71
0
 10
11772.1
 20
14588.4
 30
0.000000
  1
2400
  7
SUNPOU
  0
POINT
  5
5452
  8
DEFPOINTS
 62
     0
 10
13152.099970152
 20
15109.891440977861
 30
0.0
  0
POINT
  5
5453
  8
DEFPOINTS
 62
     0
 10
10752.099970152
 20
15109.891440977861
 30
0.0
  0
POINT
  5
5454
  8
DEFPOINTS
 62
     0
 10
10752.099970152
 20
14687.67426402875
 30
0.0
  0
ENDBLK
  5
3638
  8
0
  0
BLOCK
  8
0
  2
*D4
 70
     1
 10
0.0
 20
0.0
 30
0.0
  3
*D4
  1

  0
LINE
  5
5455
  8
FUTO
 62
     2
 10
11602.099970152
 20
15052.80928993411
 30
0.0
 11
11602.099970152
 21
14840.591581012841
 31
0.0
  0
LINE
  5
5456
  8
FUTO
 62
     2
 10
10752.099970152
 20
15004.891440977861
 30
0.0
 11
10752.099970152
 21
14840.591581012841
 31
0.0
  0
LINE
  5
5457
  8
FUTO
 62
     2
 10
11542.099970152
 20
14870.59158101283
 30
0.0
 11
10812.099970152
 21
14870.59158101283
 31
0.0
  0
INSERT
  5
5458
  8
FUTO
 62
     2
  2
_OPEN30
 10
11602.099970152
 20
14870.59158101283
 30
0.0
 41
60.0
 42
60.0
 43
60.0
  0
INSERT
  5
5459
  8
FUTO
 62
     2
  2
_OPEN30
 10
10752.099970152
 20
14870.59158101283
 30
0.0
 41
60.0
 42
60.0
 43
60.0
 50
180.0
  0
TEXT
  8
0
  40
90
  5
54E4
  62
2
  72
0
  71
0
 10
10997.1
 20
14771.3
 30
0.000000
  1
850
  7
SUNPOU
  0
POINT
  5
545B
  8
DEFPOINTS
 62
     0
 10
11602.099970152
 20
15082.80928993411
 30
0.0
  0
POINT
  5
545C
  8
DEFPOINTS
 62
     0
 10
10752.099970152
 20
15034.891440977861
 30
0.0
  0
POINT
  5
545D
  8
DEFPOINTS
 62
     0
 10
10752.099970152
 20
14870.59158101283
 30
0.0
  0
ENDBLK
  5
3667
  8
0
  0
BLOCK
  8
0
  2
*D5
 70
     1
 10
0.0
 20
0.0
 30
0.0
  3
*D5
  1

  0
LINE
  5
547D
  8
FUTO
 62
     2
 10
14590.043382190641
 20
15074.891440977861
 30
0.0
 11
14590.043382190641
 21
14656.857518735909
 31
0.0
  0
LINE
  5
547E
  8
FUTO
 62
     2
 10
16790.043382190641
 20
15074.891440977861
 30
0.0
 11
16790.043382190641
 21
14656.857518735909
 31
0.0
  0
LINE
  5
547F
  8
FUTO
 62
     2
 10
14650.043382190641
 20
14686.8575187359
 30
0.0
 11
16730.043382190641
 21
14686.8575187359
 31
0.0
  0
INSERT
  5
5480
  8
FUTO
 62
     2
  2
_OPEN30
 10
14590.043382190641
 20
14686.8575187359
 30
0.0
 41
60.0
 42
60.0
 43
60.0
 50
180.0
  0
INSERT
  5
5481
  8
FUTO
 62
     2
  2
_OPEN30
 10
16790.043382190641
 20
14686.8575187359
 30
0.0
 41
60.0
 42
60.0
 43
60.0
  0
TEXT
  8
0
  40
90
  5
54E5
  62
2
  72
0
  71
0
 10
15510.0
 20
14587.6
 30
0.000000
  1
2200
  7
SUNPOU
  0
POINT
  5
5483
  8
DEFPOINTS
 62
     0
 10
14590.043382190641
 20
15104.891440977861
 30
0.0
  0
POINT
  5
5484
  8
DEFPOINTS
 62
     0
 10
16790.043382190641
 20
15104.891440977861
 30
0.0
  0
POINT
  5
5485
  8
DEFPOINTS
 62
     0
 10
16790.043382190641
 20
14686.8575187359
 30
0.0
  0
ENDBLK
  5
34E6
  8
0
  0
BLOCK
  8
0
  2
*D6
 70
     1
 10
0.0
 20
0.0
 30
0.0
  3
*D6
  1

  0
LINE
  5
5486
  8
FUTO
 62
     2
 10
16178.043382190641
 20
15074.891440977861
 30
0.0
 11
16178.043382190641
 21
14838.187959993489
 31
0.0
  0
LINE
  5
5487
  8
FUTO
 62
     2
 10
16790.043382190641
 20
15074.891440977861
 30
0.0
 11
16790.043382190641
 21
14838.187959993489
 31
0.0
  0
LINE
  5
5488
  8
FUTO
 62
     2
 10
16238.043382190641
 20
14868.187959993489
 30
0.0
 11
16730.043382190641
 21
14868.187959993489
 31
0.0
  0
INSERT
  5
5489
  8
FUTO
 62
     2
  2
_OPEN30
 10
16178.043382190641
 20
14868.187959993489
 30
0.0
 41
60.0
 42
60.0
 43
60.0
 50
180.0
  0
INSERT
  5
548A
  8
FUTO
 62
     2
  2
_OPEN30
 10
16790.043382190641
 20
14868.187959993489
 30
0.0
 41
60.0
 42
60.0
 43
60.0
  0
TEXT
  8
0
  40
90
  5
54E6
  62
2
  72
0
  71
0
 10
16304.0
 20
14768.9
 30
0.000000
  1
612
  7
SUNPOU
  0
POINT
  5
548C
  8
DEFPOINTS
 62
     0
 10
16178.043382190641
 20
15104.891440977861
 30
0.0
  0
POINT
  5
548D
  8
DEFPOINTS
 62
     0
 10
16790.043382190641
 20
15104.891440977861
 30
0.0
  0
POINT
  5
548E
  8
DEFPOINTS
 62
     0
 10
16790.043382190641
 20
14868.187959993489
 30
0.0
  0
ENDBLK
  5
393A
  8
0
  0
BLOCK
  8
0
  2
*D7
 70
     1
 10
0.0
 20
0.0
 30
0.0
  3
*D7
  1

  0
LINE
  5
548F
  8
FUTO
 62
     2
 10
16178.043382190641
 20
15074.891440977861
 30
0.0
 11
16178.043382190641
 21
14838.19320091609
 31
0.0
  0
LINE
  5
5490
  8
FUTO
 62
     2
 10
14590.043382190641
 20
15074.891440977861
 30
0.0
 11
14590.043382190641
 21
14838.19320091609
 31
0.0
  0
LINE
  5
5491
  8
FUTO
 62
     2
 10
16118.043382190641
 20
14868.19320091609
 30
0.0
 11
14650.043382190641
 21
14868.19320091609
 31
0.0
  0
INSERT
  5
5492
  8
FUTO
 62
     2
  2
_OPEN30
 10
16178.043382190641
 20
14868.19320091609
 30
0.0
 41
60.0
 42
60.0
 43
60.0
  0
INSERT
  5
5493
  8
FUTO
 62
     2
  2
_OPEN30
 10
14590.043382190641
 20
14868.19320091609
 30
0.0
 41
60.0
 42
60.0
 43
60.0
 50
180.0
  0
TEXT
  8
0
  40
90
  5
54E7
  62
2
  72
0
  71
0
 10
15204.0
 20
14768.9
 30
0.000000
  1
1588
  7
SUNPOU
  0
POINT
  5
5495
  8
DEFPOINTS
 62
     0
 10
16178.043382190641
 20
15104.891440977861
 30
0.0
  0
POINT
  5
5496
  8
DEFPOINTS
 62
     0
 10
14590.043382190641
 20
15104.891440977861
 30
0.0
  0
POINT
  5
5497
  8
DEFPOINTS
 62
     0
 10
14590.043382190641
 20
14868.19320091609
 30
0.0
  0
ENDBLK
  5
3947
  8
0
  0
BLOCK
  8
0
  2
_CLOSED
 70
     0
 10
0.0
 20
0.0
 30
0.0
  3
_CLOSED
  1

  0
LINE
  5
3BE3
  8
0
  6
BYBLOCK
 62
     0
 10
-1.0
 20
0.1666666666666666
 30
0.0
 11
0.0
 21
0.0
 31
0.0
  0
LINE
  5
3BE4
  8
0
  6
BYBLOCK
 62
     0
 10
0.0
 20
0.0
 30
0.0
 11
-1.0
 21
-0.1666666666666666
 31
0.0
  0
LINE
  5
3BE5
  8
0
  6
BYBLOCK
 62
     0
 10
-1.0
 20
0.1666666666666666
 30
0.0
 11
-1.0
 21
-0.1666666666666666
 31
0.0
  0
ENDBLK
  5
3BE6
  8
0
  0
BLOCK
  8
0
  2
*D9
 70
     1
 10
0.0
 20
0.0
 30
0.0
  3
*D9
  1

  0
LINE
  5
549B
  8
SP
 62
     2
 10
14358.043382190641
 20
16554.891440977859
 30
0.0
 11
14358.043382190641
 21
17997.43787326145
 31
0.0
  0
LINE
  5
549C
  8
SP
 62
     2
 10
16178.043382190641
 20
17873.050778920791
 30
0.0
 11
16178.043382190641
 21
17997.43787326145
 31
0.0
  0
LINE
  5
549D
  8
SP
 62
     2
 10
14418.043382190641
 20
17967.43787326145
 30
0.0
 11
16118.043382190641
 21
17967.43787326145
 31
0.0
  0
INSERT
  5
549E
  8
SP
 62
     2
  2
_OPEN30
 10
14358.043382190641
 20
17967.43787326145
 30
0.0
 41
60.0
 42
60.0
 43
60.0
 50
180.0
  0
INSERT
  5
549F
  8
SP
 62
     2
  2
_OPEN30
 10
16178.043382190641
 20
17967.43787326145
 30
0.0
 41
60.0
 42
60.0
 43
60.0
  0
TEXT
  8
0
  40
90
  5
54E8
  62
2
  72
0
  71
0
 10
15088.0
 20
17868.1
 30
0.000000
  1
1820
  7
SUNPOU
  0
POINT
  5
54A1
  8
DEFPOINTS
 62
     0
 10
14358.043382190641
 20
16524.891440977859
 30
0.0
  0
POINT
  5
54A2
  8
DEFPOINTS
 62
     0
 10
16178.043382190641
 20
17843.050778920791
 30
0.0
  0
POINT
  5
54A3
  8
DEFPOINTS
 62
     0
 10
16178.043382190641
 20
17967.43787326145
 30
0.0
  0
ENDBLK
  5
3C57
  8
0
  0
BLOCK
  8
0
  2
*D10
 70
     1
 10
0.0
 20
0.0
 30
0.0
  3
*D10
  1

  0
LINE
  5
54A4
  8
FUTO
 62
     2
 10
10642.099970152
 20
17689.891440977859
 30
0.0
 11
10094.208171100279
 21
17689.891440977859
 31
0.0
  0
LINE
  5
54A5
  8
FUTO
 62
     2
 10
10570.538575832041
 20
16144.891440977861
 30
0.0
 11
10094.208171100279
 21
16144.891440977861
 31
0.0
  0
LINE
  5
54A6
  8
FUTO
 62
     2
 10
10124.208171100279
 20
17629.891440977859
 30
0.0
 11
10124.208171100279
 21
16204.891440977861
 31
0.0
  0
INSERT
  5
54A7
  8
FUTO
 62
     2
  2
_OPEN30
 10
10124.208171100279
 20
17689.891440977859
 30
0.0
 41
60.0
 42
60.0
 43
60.0
 50
90.0
  0
INSERT
  5
54A8
  8
FUTO
 62
     2
  2
_OPEN30
 10
10124.208171100279
 20
16144.891440977861
 30
0.0
 41
60.0
 42
60.0
 43
60.0
 50
270.0
  0
TEXT
  8
0
  40
90
  5
54E9
  62
2
  72
0
  71
0
 10
9884.21
 20
16758.1
 30
0.000000
  1
1545
  7
SUNPOU
  0
POINT
  5
54AA
  8
DEFPOINTS
 62
     0
 10
10672.099970152
 20
17689.891440977859
 30
0.0
  0
POINT
  5
54AB
  8
DEFPOINTS
 62
     0
 10
10600.538575832041
 20
16144.891440977861
 30
0.0
  0
POINT
  5
54AC
  8
DEFPOINTS
 62
     0
 10
10124.208171100279
 20
16144.891440977861
 30
0.0
  0
ENDBLK
  5
4374
  8
0
  0
BLOCK
  8
0
  2
*D11
 70
     1
 10
0.0
 20
0.0
 30
0.0
  3
*D11
  1

  0
LINE
  5
545E
  8
FUTO
 62
     2
 10
16842.043382190641
 20
16844.891440977859
 30
0.0
 11
17207.653243946868
 21
16844.891440977859
 31
0.0
  0
LINE
  5
545F
  8
FUTO
 62
     2
 10
16842.043382190641
 20
15444.891440977861
 30
0.0
 11
17207.653243946868
 21
15444.891440977861
 31
0.0
  0
LINE
  5
5460
  8
FUTO
 62
     2
 10
17177.653243946861
 20
16784.891440977859
 30
0.0
 11
17177.653243946861
 21
15504.891440977861
 31
0.0
  0
INSERT
  5
5461
  8
FUTO
 62
     2
  2
_OPEN30
 10
17177.653243946861
 20
16844.891440977859
 30
0.0
 41
60.0
 42
60.0
 43
60.0
 50
90.0
  0
INSERT
  5
5462
  8
FUTO
 62
     2
  2
_OPEN30
 10
17177.653243946861
 20
15444.891440977861
 30
0.0
 41
60.0
 42
60.0
 43
60.0
 50
270.0
  0
TEXT
  8
0
  40
90
  5
54EA
  62
2
  72
0
  71
0
 10
16937.7
 20
15985.6
 30
0.000000
  1
%%C1400
  7
SUNPOU
  0
POINT
  5
5464
  8
DEFPOINTS
 62
     0
 10
16812.043382190641
 20
16844.891440977859
 30
0.0
  0
POINT
  5
5465
  8
DEFPOINTS
 62
     0
 10
16812.043382190641
 20
15444.891440977861
 30
0.0
  0
POINT
  5
5466
  8
DEFPOINTS
 62
     0
 10
17177.653243946861
 20
15444.891440977861
 30
0.0
  0
ENDBLK
  5
4473
  8
0
  0
BLOCK
  8
0
  2
*D12
 70
     1
 10
0.0
 20
0.0
 30
0.0
  3
*D12
  1

  0
LINE
  5
5467
  8
FUTO
 62
     2
 10
16178.043382190641
 20
17843.050778920791
 30
0.0
 11
16178.043382190641
 21
17997.43787326145
 31
0.0
  0
LINE
  5
5468
  8
FUTO
 62
     2
 10
16812.043382190641
 20
16924.891440977859
 30
0.0
 11
16812.043382190641
 21
17997.43787326145
 31
0.0
  0
LINE
  5
5469
  8
FUTO
 62
     2
 10
16238.043382190641
 20
17967.43787326145
 30
0.0
 11
16752.043382190641
 21
17967.43787326145
 31
0.0
  0
INSERT
  5
546A
  8
FUTO
 62
     2
  2
_OPEN30
 10
16178.043382190641
 20
17967.43787326145
 30
0.0
 41
60.0
 42
60.0
 43
60.0
 50
180.0
  0
INSERT
  5
546B
  8
FUTO
 62
     2
  2
_OPEN30
 10
16812.043382190641
 20
17967.43787326145
 30
0.0
 41
60.0
 42
60.0
 43
60.0
  0
TEXT
  8
0
  40
90
  5
54EB
  62
2
  72
0
  71
0
 10
16315.0
 20
17868.1
 30
0.000000
  1
634
  7
SUNPOU
  0
POINT
  5
546D
  8
DEFPOINTS
 62
     0
 10
16178.043382190641
 20
17813.050778920791
 30
0.0
  0
POINT
  5
546E
  8
DEFPOINTS
 62
     0
 10
16812.043382190641
 20
16894.891440977859
 30
0.0
  0
POINT
  5
546F
  8
DEFPOINTS
 62
     0
 10
16812.043382190641
 20
17967.43787326145
 30
0.0
  0
ENDBLK
  5
447F
  8
0
  0
BLOCK
  8
0
  2
_OPEN30
 70
     0
 10
0.0
 20
0.0
 30
0.0
  3
_OPEN30
  1

  0
LINE
  5
44D6
  8
FUTO
 62
     0
 10
-1.0
 20
0.26794919
 30
0.0
 11
0.0
 21
0.0
 31
0.0
  0
LINE
  5
44D7
  8
FUTO
 62
     0
 10
0.0
 20
0.0
 30
0.0
 11
-1.0
 21
-0.26794919
 31
0.0
  0
LINE
  5
44D8
  8
FUTO
 62
     0
 10
0.0
 20
0.0
 30
0.0
 11
-1.0
 21
0.0
 31
0.0
  0
ENDBLK
  5
44DA
  8
0
  0
BLOCK
  8
0
  2
*D14
 70
     1
 10
0.0
 20
0.0
 30
0.0
  3
*D14
  1

  0
LINE
  5
54AD
  8
FUTO
 62
     2
 10
11602.099970152
 20
21288.464155349091
 30
0.0
 11
11602.099970152
 21
21392.027400892381
 31
0.0
  0
LINE
  5
54AE
  8
FUTO
 62
     2
 10
13152.099970152
 20
19762.591577699492
 30
0.0
 11
13152.099970152
 21
21392.027400892381
 31
0.0
  0
LINE
  5
54AF
  8
FUTO
 62
     2
 10
11662.099970152
 20
21362.027400892381
 30
0.0
 11
13092.099970152
 21
21362.027400892381
 31
0.0
  0
INSERT
  5
54B0
  8
FUTO
 62
     2
  2
_OPEN30
 10
11602.099970152
 20
21362.027400892381
 30
0.0
 41
60.0
 42
60.0
 43
60.0
 50
180.0
  0
INSERT
  5
54B1
  8
FUTO
 62
     2
  2
_OPEN30
 10
13152.099970152
 20
21362.027400892381
 30
0.0
 41
60.0
 42
60.0
 43
60.0
  0
TEXT
  8
0
  40
90
  5
54EC
  62
2
  72
0
  71
0
 10
12197.1
 20
21262.7
 30
0.000000
  1
1550
  7
SUNPOU
  0
POINT
  5
54B3
  8
DEFPOINTS
 62
     0
 10
11602.099970152
 20
21258.464155349091
 30
0.0
  0
POINT
  5
54B4
  8
DEFPOINTS
 62
     0
 10
13152.099970152
 20
19732.591577699492
 30
0.0
  0
POINT
  5
54B5
  8
DEFPOINTS
 62
     0
 10
13152.099970152
 20
21362.027400892381
 30
0.0
  0
ENDBLK
  5
45B4
  8
0
  0
BLOCK
  8
0
  2
*D15
 70
     1
 10
0.0
 20
0.0
 30
0.0
  3
*D15
  1

  0
LINE
  5
54B6
  8
FUTO
 62
     2
 10
10394.57996957248
 20
20343.591577699492
 30
0.0
 11
10161.79406731213
 21
20343.591577699492
 31
0.0
  0
LINE
  5
54B7
  8
FUTO
 62
     2
 10
10822.099970152
 20
20977.591577699492
 30
0.0
 11
10161.79406731213
 21
20977.591577699492
 31
0.0
  0
LINE
  5
54B8
  8
FUTO
 62
     2
 10
10191.79406731213
 20
20403.591577699492
 30
0.0
 11
10191.79406731213
 21
20917.591577699492
 31
0.0
  0
INSERT
  5
54B9
  8
FUTO
 62
     2
  2
_OPEN30
 10
10191.79406731213
 20
20343.591577699492
 30
0.0
 41
60.0
 42
60.0
 43
60.0
 50
270.0
  0
INSERT
  5
54BA
  8
FUTO
 62
     2
  2
_OPEN30
 10
10191.79406731213
 20
20977.591577699492
 30
0.0
 41
60.0
 42
60.0
 43
60.0
 50
90.0
  0
TEXT
  8
0
  40
90
  5
54ED
  62
2
  72
0
  71
0
 10
9951.79
 20
20501.3
 30
0.000000
  1
634
  7
SUNPOU
  0
POINT
  5
54BC
  8
DEFPOINTS
 62
     0
 10
10424.57996957248
 20
20343.591577699492
 30
0.0
  0
POINT
  5
54BD
  8
DEFPOINTS
 62
     0
 10
10852.099970152
 20
20977.591577699492
 30
0.0
  0
POINT
  5
54BE
  8
DEFPOINTS
 62
     0
 10
10191.79406731213
 20
20977.591577699492
 30
0.0
  0
ENDBLK
  5
45C1
  8
0
  0
BLOCK
  8
0
  2
*D16
 70
     1
 10
0.0
 20
0.0
 30
0.0
  3
*D16
  1

  0
LINE
  5
54BF
  8
FUTO
 62
     2
 10
11192.099970152
 20
18523.591577699492
 30
0.0
 11
10161.79406731213
 21
18523.591577699492
 31
0.0
  0
LINE
  5
54C0
  8
FUTO
 62
     2
 10
10191.79406731213
 20
20283.591577699492
 30
0.0
 11
10191.79406731213
 21
18583.591577699492
 31
0.0
  0
INSERT
  5
54C1
  8
FUTO
 62
     2
  2
_OPEN30
 10
10191.79406731213
 20
20343.591577699492
 30
0.0
 41
60.0
 42
60.0
 43
60.0
 50
90.0
  0
INSERT
  5
54C2
  8
FUTO
 62
     2
  2
_OPEN30
 10
10191.79406731213
 20
18523.591577699492
 30
0.0
 41
60.0
 42
60.0
 43
60.0
 50
270.0
  0
TEXT
  8
0
  40
90
  5
54EE
  62
2
  72
0
  71
0
 10
9951.79
 20
19274.3
 30
0.000000
  1
1820
  7
SUNPOU
  0
POINT
  5
54C4
  8
DEFPOINTS
 62
     0
 10
10191.79406731213
 20
20343.591577699492
 30
0.0
  0
POINT
  5
54C5
  8
DEFPOINTS
 62
     0
 10
11222.099970152
 20
18523.591577699492
 30
0.0
  0
POINT
  5
54C6
  8
DEFPOINTS
 62
     0
 10
10191.79406731213
 20
18523.591577699492
 30
0.0
  0
ENDBLK
  5
45CD
  8
0
  0
BLOCK
  8
0
  2
*D17
 70
     1
 10
0.0
 20
0.0
 30
0.0
  3
*D17
  1

  0
LINE
  5
54C7
  8
FUTO
 62
     2
 10
11602.099970152
 20
17699.318186235301
 30
0.0
 11
11602.099970152
 21
17997.43787326145
 31
0.0
  0
LINE
  5
54C8
  8
FUTO
 62
     2
 10
10672.099970152
 20
17719.891440977859
 30
0.0
 11
10672.099970152
 21
17997.43787326145
 31
0.0
  0
LINE
  5
54C9
  8
FUTO
 62
     2
 10
11542.099970152
 20
17967.43787326145
 30
0.0
 11
10732.099970152
 21
17967.43787326145
 31
0.0
  0
INSERT
  5
54CA
  8
FUTO
 62
     2
  2
_OPEN30
 10
11602.099970152
 20
17967.43787326145
 30
0.0
 41
60.0
 42
60.0
 43
60.0
  0
INSERT
  5
54CB
  8
FUTO
 62
     2
  2
_OPEN30
 10
10672.099970152
 20
17967.43787326145
 30
0.0
 41
60.0
 42
60.0
 43
60.0
 50
180.0
  0
TEXT
  8
0
  40
90
  5
54EF
  62
2
  72
0
  71
0
 10
10957.1
 20
17868.1
 30
0.000000
  1
930
  7
SUNPOU
  0
POINT
  5
54CD
  8
DEFPOINTS
 62
     0
 10
11602.099970152
 20
17669.318186235301
 30
0.0
  0
POINT
  5
54CE
  8
DEFPOINTS
 62
     0
 10
10672.099970152
 20
17689.891440977859
 30
0.0
  0
POINT
  5
54CF
  8
DEFPOINTS
 62
     0
 10
10672.099970152
 20
17967.43787326145
 30
0.0
  0
ENDBLK
  5
46F2
  8
0
  0
BLOCK
  8
0
  2
*D18
 70
     1
 10
0.0
 20
0.0
 30
0.0
  3
*D18
  1

  0
LINE
  5
54D0
  8
FUTO
 62
     2
 10
10540.538575832041
 20
16144.891440977861
 30
0.0
 11
10094.208171100279
 21
16144.891440977861
 31
0.0
  0
LINE
  5
54D1
  8
FUTO
 62
     2
 10
10722.099970152
 20
15104.891440977861
 30
0.0
 11
10094.208171100279
 21
15104.891440977861
 31
0.0
  0
LINE
  5
54D2
  8
FUTO
 62
     2
 10
10124.208171100279
 20
16084.891440977861
 30
0.0
 11
10124.208171100279
 21
15164.891440977861
 31
0.0
  0
INSERT
  5
54D3
  8
FUTO
 62
     2
  2
_OPEN30
 10
10124.208171100279
 20
16144.891440977861
 30
0.0
 41
60.0
 42
60.0
 43
60.0
 50
90.0
  0
INSERT
  5
54D4
  8
FUTO
 62
     2
  2
_OPEN30
 10
10124.208171100279
 20
15104.891440977861
 30
0.0
 41
60.0
 42
60.0
 43
60.0
 50
270.0
  0
TEXT
  8
0
  40
90
  5
54F0
  62
2
  72
0
  71
0
 10
9884.21
 20
15465.6
 30
0.000000
  1
1040
  7
SUNPOU
  0
POINT
  5
54D6
  8
DEFPOINTS
 62
     0
 10
10570.538575832041
 20
16144.891440977861
 30
0.0
  0
POINT
  5
54D7
  8
DEFPOINTS
 62
     0
 10
10752.099970152
 20
15104.891440977861
 30
0.0
  0
POINT
  5
54D8
  8
DEFPOINTS
 62
     0
 10
10124.208171100279
 20
15104.891440977861
 30
0.0
  0
ENDBLK
  5
4700
  8
0
  0
BLOCK
  8
0
  2
*D19
 70
     1
 10
0.0
 20
0.0
 30
0.0
  3
*D19
  1

  0
LINE
  5
54D9
  8
FUTO
 62
     2
 10
11602.099970152
 20
21288.464155349091
 30
0.0
 11
11602.099970152
 21
21392.027400892381
 31
0.0
  0
LINE
  5
54DA
  8
FUTO
 62
     2
 10
10672.099970152
 20
20957.591577699499
 30
0.0
 11
10672.099970152
 21
21392.027400892381
 31
0.0
  0
LINE
  5
54DB
  8
FUTO
 62
     2
 10
11542.099970152
 20
21362.027400892381
 30
0.0
 11
10732.099970152
 21
21362.027400892381
 31
0.0
  0
INSERT
  5
54DC
  8
FUTO
 62
     2
  2
_OPEN30
 10
11602.099970152
 20
21362.027400892381
 30
0.0
 41
60.0
 42
60.0
 43
60.0
  0
INSERT
  5
54DD
  8
FUTO
 62
     2
  2
_OPEN30
 10
10672.099970152
 20
21362.027400892381
 30
0.0
 41
60.0
 42
60.0
 43
60.0
 50
180.0
  0
TEXT
  8
0
  40
90
  5
54F1
  62
2
  72
0
  71
0
 10
10957.1
 20
21262.7
 30
0.000000
  1
930
  7
SUNPOU
  0
POINT
  5
54DF
  8
DEFPOINTS
 62
     0
 10
11602.099970152
 20
21258.464155349091
 30
0.0
  0
POINT
  5
54E0
  8
DEFPOINTS
 62
     0
 10
10672.099970152
 20
20927.591577699499
 30
0.0
  0
POINT
  5
54E1
  8
DEFPOINTS
 62
     0
 10
10672.099970152
 20
21362.027400892381
 30
0.0
  0
ENDBLK
  5
471E
  8
0
  0
ENDSEC
  0
SECTION
  2
ENTITIES
  0
LINE
  5
42
  8
FUTO
 10
14590.043382190641
 20
15104.891440977861
 30
0.0
 11
16790.043382190641
 21
15104.891440977861
 31
0.0
1001
ACAD
1000
ASC_BOUNDS
1002
{
1070
    19
1005
3975
1002
}
  0
LINE
  5
116
  8
FUTO
 10
15507.043382190641
 20
16189.891440977861
 30
0.0
 11
15568.543382190641
 21
16189.891440977861
 31
0.0
  0
LINE
  5
117
  8
FUTO
 10
15507.043382190641
 20
16099.891440977861
 30
0.0
 11
15569.84338219064
 21
16099.891440977861
 31
0.0
  0
LINE
  5
118
  8
FUTO
 10
14591.043382190641
 20
15254.891440977861
 30
0.0
 11
16790.243382190642
 21
15254.891440977861
 31
0.0
  0
LINE
  5
119
  8
CT
 10
14307.19324870526
 20
16144.891440977861
 30
0.0
 11
16905.370860162649
 21
16144.891440977861
 31
0.0
  0
ARC
  5
11C
  8
FUTO
 10
11704.099970152
 20
16246.891440977861
 30
0.0
 40
1125.0
 50
337.74343389962638
 51
354.79803891510841
  0
LINE
  5
14C
  8
SL
 10
14568.043382190641
 20
16224.891440977861
 30
0.0
 11
14568.043382190641
 21
16064.891440977861
 31
0.0
  0
LINE
  5
162
  8
CT
 10
14728.043382190641
 20
16263.394937937979
 30
0.0
 11
14728.043382190641
 21
15982.060809191151
 31
0.0
  0
LINE
  5
163
  8
CT
 10
11457.099970152
 20
16034.891440977861
 30
0.0
 11
11457.099970152
 21
16088.891440977861
 31
0.0
  0
ARC
  5
164
  8
FUTO
 10
11491.099970152
 20
16094.891440977861
 30
0.0
 40
16.0
 50
270.0
 51
0.000000000000007
  0
ARC
  5
165
  8
FUTO
 10
11602.099970152
 20
16144.891440977861
 30
0.0
 40
95.000000000000071
 50
209.9999999999994
 51
230.94387397238239
  0
ARC
  5
168
  8
FUTO
 10
11602.099970152
 20
16144.891440977861
 30
0.0
 40
94.999999999997485
 50
309.05612602761818
 51
330.00000000000108
  0
LINE
  5
169
  8
CT
 10
11747.099970152
 20
16034.891440977861
 30
0.0
 11
11747.099970152
 21
16088.891440977861
 31
0.0
  0
ARC
  5
16A
  8
FUTO
 10
11713.099970152
 20
16094.891440977861
 30
0.0
 40
16.0
 50
180.0
 51
270.0
  0
LINE
  5
16B
  8
CT
 10
11602.099970152
 20
16269.394937937979
 30
0.0
 11
11602.099970152
 21
16027.650101822261
 31
0.0
  0
ARC
  5
178
  8
KL
 10
11687.599970152
 20
16059.391440977861
 30
0.0
 40
917.5
 50
180.0
 51
270.0
  0
LINE
  5
17D
  8
FUTO
 10
14358.043382190641
 20
16524.891440977859
 30
0.0
 11
14358.043382190641
 21
15294.891440977861
 31
0.0
  0
LINE
  5
17E
  8
SL
 10
14468.043382190641
 20
16394.891440977859
 30
0.0
 11
14468.043382190641
 21
15408.891440977861
 31
0.0
  0
LINE
  5
17F
  8
SL
 10
14545.94338219064
 20
16394.891440977859
 30
0.0
 11
14545.94338219064
 21
15408.891440977861
 31
0.0
  0
ARC
  5
180
  8
FUTO
 10
11500.099970152
 20
16246.891440977861
 30
0.0
 40
1329.0
 50
355.59825262435089
 51
85.598252624351105
  0
ARC
  5
183
  8
FUTO
 10
11602.099970152
 20
16144.891440977861
 30
0.0
 40
380.0
 50
55.52077512793651
 51
249.0802792559534
  0
LINE
  5
184
  8
CT
 10
11602.099970152
 20
17744.318186235301
 30
0.0
 11
11602.099970152
 21
14809.891440977861
 31
0.0
  0
LINE
  5
185
  8
FUTO
 10
12442.099970152
 20
17184.375840848072
 30
0.0
 11
12442.099970152
 21
16029.003360995421
 31
0.0
  0
LINE
  5
186
  8
FUTO
 10
12433.099970152
 20
17193.333198298409
 30
0.0
 11
12433.099970152
 21
16035.18408601042
 31
0.0
  0
LINE
  5
187
  8
FUTO
 10
10762.099970152
 20
17647.85462264622
 30
0.0
 11
10762.099970152
 21
15254.891440977861
 31
0.0
  0
LINE
  5
188
  8
FUTO
 10
10771.099970152
 20
17647.042821226521
 30
0.0
 11
10771.099970152
 21
15254.891440977861
 31
0.0
  0
CIRCLE
  5
18B
  8
SL
 10
11602.099970152
 20
16144.891440977861
 30
0.0
 40
250.0
  0
ARC
  5
18C
  8
KL
 10
11500.099970152
 20
16246.891440977861
 30
0.0
 40
1309.0
 50
0.000000000000007
 51
84.845859597543125
  0
LINE
  5
19A
  8
CT
 10
15438.043382190641
 20
16263.394937937979
 30
0.0
 11
15438.043382190641
 21
15959.7272777627
 31
0.0
  0
LINE
  5
19B
  8
FUTO
 10
10752.099970152
 20
15104.891440977861
 30
0.0
 11
13152.099970152
 21
15104.891440977861
 31
0.0
1001
ACAD
1000
ASC_BOUNDS
1002
{
1070
    19
1005
0
1005
0
1005
0
1005
0
1005
0
1005
0
1005
0
1005
0
1005
0
1005
0
1005
0
1005
0
1005
0
1005
0
1005
0
1005
0
1005
0
1005
0
1005
0
1005
0
1005
0
1002
}
  0
DIMENSION
  5
276
  8
FUTO
  2
*D2
 10
13152.099970152
 20
14870.59158101283
 30
0.0
 11
12377.099970152
 21
14930.59158101283
 31
0.0
 70
     0
 13
11602.099970152
 23
15082.80928993411
 33
0.0
 14
13152.099970152
 24
15034.891440977861
 34
0.0
 50
180.0
1001
ACAD
1000
DSTYLE
1002
{
1070
    40
1040
30.0
1070
   176
1070
     2
1070
   177
1070
     2
1070
   178
1070
     2
1070
   341
1005
44D5
1070
     5
1000
OPEN30
1002
}
  0
DIMENSION
  5
283
  8
FUTO
  2
*D3
 10
10752.099970152
 20
14687.67426402875
 30
0.0
 11
11952.099970152
 21
14747.67426402875
 31
0.0
 70
     0
 13
13152.099970152
 23
15109.891440977861
 33
0.0
 14
10752.099970152
 24
15109.891440977861
 34
0.0
 50
180.0
1001
ACAD
1000
DSTYLE
1002
{
1070
    40
1040
30.0
1070
   176
1070
     2
1070
   177
1070
     2
1070
   178
1070
     2
1070
   341
1005
44D5
1070
     5
1000
OPEN30
1002
}
  0
LINE
  5
293
  8
FUTO
 10
12542.099970152
 20
15329.385076395331
 30
0.0
 11
12488.89903704786
 21
15329.385076395331
 31
0.0
  0
LINE
  5
294
  8
FUTO
 10
10752.099970152
 20
15254.891440977861
 30
0.0
 11
13152.099970152
 21
15254.891440977861
 31
0.0
  0
LINE
  5
2AC
  8
FUTO
 10
12542.099970152
 20
15254.891440977861
 30
0.0
 11
12542.099970152
 21
15346.07187332007
 31
0.0
  0
LINE
  5
2AD
  8
FUTO
 10
12542.099970152
 20
15254.891440977861
 30
0.0
 11
12552.108306062441
 21
15314.891440977861
 31
0.0
  0
LINE
  5
2AE
  8
FUTO
 10
13062.099970152
 20
15254.891440977861
 30
0.0
 11
13062.099970152
 21
15346.07187332007
 31
0.0
  0
LINE
  5
2AF
  8
FUTO
 10
13062.099970152
 20
15254.891440977861
 30
0.0
 11
13052.09163424156
 21
15314.891440977861
 31
0.0
  0
ARC
  5
2B0
  8
FUTO
 10
12802.099970152
 20
15514.891440977861
 30
0.0
 40
220.0
 50
249.08027925595351
 51
55.520775127936567
  0
LINE
  5
2B6
  8
FUTO
 10
13152.099970152
 20
15254.891440977861
 30
0.0
 11
13152.099970152
 21
15104.891440977861
 31
0.0
  0
LINE
  5
2BD
  8
CT
 10
13004.655146151999
 20
15589.891440977861
 30
0.0
 11
13041.088496152001
 21
15589.891440977861
 31
0.0
  0
LINE
  5
2BE
  8
FUTO
 10
13022.099970152
 20
15529.891440977861
 30
0.0
 11
13005.046503152
 21
15529.891440977861
 31
0.0
  0
LINE
  5
2BF
  8
FUTO
 10
13022.099970152
 20
15649.891440977861
 30
0.0
 11
12954.373652152
 21
15649.891440977861
 31
0.0
  0
ARC
  5
2C0
  8
FUTO
 10
13030.299921152
 20
15656.357993977859
 30
0.0
 40
8.1999940000000002
 50
107.30986
 51
180.0
  0
LINE
  5
2C1
  8
FUTO
 10
13052.09163424156
 20
15314.891440977861
 30
0.0
 11
12885.438289730249
 21
15314.891440977861
 31
0.0
  0
LINE
  5
2C2
  8
FUTO
 10
13000.554942741141
 20
15329.385076395331
 30
0.0
 11
13035.369494445251
 21
15329.385076395331
 31
0.0
  0
LINE
  5
2C3
  8
FUTO
 10
13022.371943152
 20
15516.24935097786
 30
0.0
 11
13032.770502152
 21
15472.57527897786
 31
0.0
  0
LINE
  5
2C4
  8
FUTO
 10
13198.892573151999
 20
15482.305991977861
 30
0.0
 11
13198.892573151999
 21
15620.098471977861
 31
0.0
  0
LINE
  5
2C5
  8
FUTO
 10
13038.892573151999
 20
15699.75325697786
 30
0.0
 11
13187.642573151999
 21
15442.110678977861
 31
0.0
  0
LINE
  5
2C6
  8
FUTO
 10
13033.349970152
 20
15696.553305977861
 30
0.0
 11
13182.099970152
 21
15438.91072797786
 31
0.0
  0
LINE
  5
2C7
  8
FUTO
 10
13045.099970152
 20
15434.891440977861
 30
0.0
 11
13165.099970152
 21
15434.891440977861
 31
0.0
  0
LINE
  5
2C8
  8
FUTO
 10
13042.498530151999
 20
15464.891440977861
 30
0.0
 11
13167.099970152
 21
15464.891440977861
 31
0.0
  0
ARC
  5
2C9
  8
FUTO
 10
13175.624872152001
 20
15466.926108977859
 30
0.0
 40
2.0000450000000001
 50
107.313553
 51
209.99818400000001
  0
LINE
  5
2CA
  8
FUTO
 10
13193.132441152
 20
15474.477377977861
 30
0.0
 11
13175.029658152
 21
15468.835532977861
 31
0.0
  0
LINE
  5
2CB
  8
FUTO
 10
13187.642573151999
 20
15442.110678977861
 30
0.0
 11
13182.099970152
 21
15438.91072797786
 31
0.0
  0
LINE
  5
2CC
  8
FUTO
 10
13165.099970152
 20
15434.891440977861
 30
0.0
 11
13165.099970152
 21
15464.891440977861
 31
0.0
  0
ARC
  5
2CD
  8
FUTO
 10
13190.692499152001
 20
15482.305991977861
 30
0.0
 40
8.2000299999999982
 50
287.31066900000002
 51
0.000000000000007
  0
LINE
  5
2CE
  8
FUTO
 10
13045.099970152
 20
15434.891440977861
 30
0.0
 11
13045.099970152
 21
15464.891440977861
 31
0.0
  0
LINE
  5
2CF
  8
FUTO
 10
13075.099970152
 20
15434.891440977861
 30
0.0
 11
13075.099970152
 21
15464.891440977861
 31
0.0
  0
LINE
  5
2D0
  8
FUTO
 10
13078.099970152
 20
15434.891440977861
 30
0.0
 11
13078.099970152
 21
15464.891440977861
 31
0.0
  0
ARC
  5
2D1
  8
FUTO
 10
13042.498530151999
 20
15474.891440977861
 30
0.0
 40
9.9999559999999992
 50
193.392303
 51
270.0
  0
LINE
  5
2D2
  8
CT
 10
13105.099970152
 20
15478.97444897786
 30
0.0
 11
13105.099970152
 21
15426.753012977861
 31
0.0
  0
LINE
  5
2D3
  8
FUTO
 10
13135.099970152
 20
15434.891440977861
 30
0.0
 11
13135.099970152
 21
15464.891440977861
 31
0.0
  0
LINE
  5
2D4
  8
FUTO
 10
13132.099970152
 20
15434.891440977861
 30
0.0
 11
13132.099970152
 21
15464.891440977861
 31
0.0
  0
LINE
  5
2D5
  8
FUTO
 10
13062.099970152
 20
15329.385076395331
 30
0.0
 11
13115.300903256149
 21
15329.385076395331
 31
0.0
  0
LINE
  5
2D6
  8
FUTO
 10
13115.300903256149
 20
15336.840871823541
 30
0.0
 11
13124.182143394961
 21
15336.840871823541
 31
0.0
  0
LINE
  5
2D7
  8
FUTO
 10
13115.300903256149
 20
15322.63934691004
 30
0.0
 11
13115.300903256149
 21
15336.840871823541
 31
0.0
  0
LINE
  5
2D8
  8
FUTO
 10
13124.537394238319
 20
15322.63934691004
 30
0.0
 11
13115.300903256149
 21
15322.63934691004
 31
0.0
  0
LINE
  5
2D9
  8
FUTO
 10
13124.537394238319
 20
15336.485838852081
 30
0.0
 11
13124.537394238319
 21
15322.63934691004
 31
0.0
  0
LINE
  5
2DA
  8
FUTO
 10
13035.369494445251
 20
15346.07187332007
 30
0.0
 11
13035.369494445251
 21
15314.891440977861
 31
0.0
  0
LINE
  5
2DB
  8
FUTO
 10
13062.099970152
 20
15346.07187332007
 30
0.0
 11
13035.369494445251
 21
15346.07187332007
 31
0.0
  0
LINE
  5
2DC
  8
FUTO
 10
13178.493891152
 20
15673.772543977861
 30
0.0
 11
13053.892573151999
 21
15673.772543977861
 31
0.0
  0
ARC
  5
2DD
  8
FUTO
 10
13178.493891152
 20
15663.772543977861
 30
0.0
 40
10.000075000000001
 50
13.392141000000001
 51
90.0
  0
ARC
  5
2DE
  8
FUTO
 10
13188.891840152
 20
15620.09822797786
 30
0.0
 40
10.000731999999999
 50
0.0013990000000172
 51
13.392693
  0
LINE
  5
2DF
  8
FUTO
 10
13188.222040152001
 20
15666.08870697786
 30
0.0
 11
13198.620600152
 21
15622.41463397786
 31
0.0
  0
LINE
  5
2E0
  8
FUTO
 10
13038.892573151999
 20
15699.75325697786
 30
0.0
 11
13033.349970152
 21
15696.553305977861
 31
0.0
  0
ARC
  5
2E1
  8
FUTO
 10
13045.367670152
 20
15671.73787597786
 30
0.0
 40
2.000008999999999
 50
287.31021099999992
 51
29.999931000000021
  0
LINE
  5
2E2
  8
FUTO
 10
13045.962763152
 20
15669.828452977859
 30
0.0
 11
13027.860102152001
 21
15664.186606977861
 31
0.0
  0
ARC
  5
2E3
  8
FUTO
 10
13032.099970152
 20
15518.565512977861
 30
0.0
 40
10.0
 50
180.0
 51
193.392303
  0
LINE
  5
2E4
  8
FUTO
 10
13022.099970152
 20
15518.565512977861
 30
0.0
 11
13022.099970152
 21
15656.357993977859
 31
0.0
  0
LINE
  5
2E5
  8
FUTO
 10
12795.849970152
 20
15728.53841397786
 30
0.0
 11
12795.849970152
 21
15778.641440977861
 31
0.0
  0
LINE
  5
2E6
  8
FUTO
 10
12808.349970152
 20
15728.53841397786
 30
0.0
 11
12808.349970152
 21
15778.641440977861
 31
0.0
  0
LINE
  5
2E7
  8
CT
 10
12802.099970152
 20
15791.210532977861
 30
0.0
 11
12802.099970152
 21
15311.186606977861
 31
0.0
  0
CIRCLE
  5
2E8
  8
FUTO
 10
12802.099970152
 20
15514.891440977861
 30
0.0
 40
40.0
  0
LINE
  5
2E9
  8
FUTO
 10
12856.838007152001
 20
15318.891440977861
 30
0.0
 11
12747.361933152
 21
15318.891440977861
 31
0.0
  0
LINE
  5
2EA
  8
CT
 10
12587.260859152
 20
15514.891440977861
 30
0.0
 11
13016.091059152001
 21
15514.891440977861
 31
0.0
  0
LINE
  5
2EB
  8
CT
 10
12614.599970152
 20
15514.891440977861
 30
0.0
 11
13002.134927498129
 21
15514.891440977861
 31
0.0
  0
CIRCLE
  5
2EC
  8
SL
 10
12802.099970152
 20
15514.891440977861
 30
0.0
 40
106.0
  0
LINE
  5
2ED
  8
FUTO
 10
12718.76165057375
 20
15305.41509641626
 30
0.0
 11
12802.112751039531
 21
15305.41509641626
 31
0.0
  0
ARC
  5
2EE
  8
FUTO
 10
12802.099970152
 20
15514.891440977861
 30
0.0
 40
203.5
 50
285.60376000000002
 51
254.3962709999999
  0
CIRCLE
  5
2EF
  8
FUTO
 10
12802.099970152
 20
15514.891440977861
 30
0.0
 40
7.5
  0
LINE
  5
2F0
  8
CT
 10
12802.099970152
 20
15302.391440977861
 30
0.0
 11
12802.099970152
 21
15718.01444632841
 31
0.0
  0
LINE
  5
2F1
  8
FUTO
 10
12953.014033152
 20
15378.373129977859
 30
0.0
 11
12957.812128152
 21
15374.33870697786
 31
0.0
  0
LINE
  5
2F2
  8
FUTO
 10
12954.608759152001
 20
15372.42366697786
 30
0.0
 11
12951.016718151999
 21
15376.01570797786
 31
0.0
  0
LINE
  5
2F3
  8
FUTO
 10
12954.608759152001
 20
15371.575034977859
 30
0.0
 11
12954.608759152001
 21
15372.42366697786
 31
0.0
  0
LINE
  5
2F4
  8
FUTO
 10
12952.321406151999
 20
15370.13606997786
 30
0.0
 11
12953.170038152
 21
15370.13606997786
 31
0.0
  0
LINE
  5
2F5
  8
FUTO
 10
12952.321406151999
 20
15370.13606997786
 30
0.0
 11
12952.321406151999
 21
15369.287680977861
 31
0.0
  0
ARC
  5
2F6
  8
FUTO
 10
12954.594355151999
 20
15370.51180197786
 30
0.0
 40
5.0000339999999994
 50
316.563965
 51
49.941891000000027
  0
LINE
  5
2F7
  8
FUTO
 10
12944.567744152
 20
15362.382651977859
 30
0.0
 11
12940.975703152
 21
15365.974692977859
 31
0.0
  0
LINE
  5
2F8
  8
FUTO
 10
12944.567744152
 20
15362.382651977859
 30
0.0
 11
12945.416376151999
 21
15362.382651977859
 31
0.0
  0
LINE
  5
2F9
  8
FUTO
 10
12946.855097152
 20
15364.670004977859
 30
0.0
 11
12946.855097152
 21
15363.82137297786
 31
0.0
  0
LINE
  5
2FA
  8
FUTO
 10
12946.855097152
 20
15364.670004977859
 30
0.0
 11
12943.263056152
 21
15368.262045977861
 31
0.0
  0
LINE
  5
2FB
  8
FUTO
 10
12946.855097152
 20
15364.670004977859
 30
0.0
 11
12947.703730151999
 21
15364.670004977859
 31
0.0
  0
LINE
  5
2FC
  8
FUTO
 10
12951.016718151999
 20
15376.01570797786
 30
0.0
 11
12940.975703152
 21
15365.974692977859
 31
0.0
  0
LINE
  5
2FD
  8
CT
 10
12950.540888152
 20
15366.450522977861
 30
0.0
 11
12945.292841152001
 21
15371.69856997786
 31
0.0
  0
LINE
  5
2FE
  8
FUTO
 10
12954.608759152001
 20
15371.575034977859
 30
0.0
 11
12945.416376151999
 21
15362.382651977859
 31
0.0
  0
LINE
  5
2FF
  8
FUTO
 10
12952.321406151999
 20
15370.13606997786
 30
0.0
 11
12948.729365151999
 21
15373.72835497786
 31
0.0
  0
LINE
  5
300
  8
FUTO
 10
12928.286249152001
 20
15334.891440977861
 30
0.0
 11
12923.764887152
 21
15351.765952977859
 31
0.0
  0
LINE
  5
301
  8
FUTO
 10
12923.764765152
 20
15351.765952977859
 30
0.0
 11
12928.286249152001
 21
15334.891440977861
 31
0.0
  0
ARC
  5
302
  8
FUTO
 10
12929.884638152
 20
15348.24495697786
 30
0.0
 40
5.0
 50
195.00116
 51
307.48202500000008
  0
ARC
  5
303
  8
FUTO
 10
12802.099970152
 20
15514.891440977861
 30
0.0
 40
214.9999849999999
 50
307.48104899999998
 51
316.565674
  0
ARC
  5
304
  8
FUTO
 10
12914.599970152
 20
15331.891440977861
 30
0.0
 40
3.0
 50
90.0
 51
180.0
  0
LINE
  5
305
  8
FUTO
 10
12951.849970152
 20
15326.891440977861
 30
0.0
 11
12951.849970152
 21
15322.891440977861
 31
0.0
  0
LINE
  5
306
  8
FUTO
 10
12951.849970152
 20
15318.891440977861
 30
0.0
 11
12951.849970152
 21
15314.891440977861
 31
0.0
  0
LINE
  5
307
  8
FUTO
 10
12911.599970152
 20
15331.891440977861
 30
0.0
 11
12911.599970152
 21
15314.891440977861
 31
0.0
  0
LINE
  5
308
  8
FUTO
 10
12911.599970152
 20
15319.891440977861
 30
0.0
 11
12905.924921152
 21
15341.071616977861
 31
0.0
  0
LINE
  5
309
  8
CT
 10
12961.099970152
 20
15339.31526897786
 30
0.0
 11
12961.099970152
 21
15310.199545977861
 31
0.0
  0
LINE
  5
30A
  8
FUTO
 10
12951.849970152
 20
15334.891440977861
 30
0.0
 11
12951.849970152
 21
15330.891440977861
 31
0.0
  0
ARC
  5
30B
  8
FUTO
 10
12986.099970152
 20
15389.21810097786
 30
0.0
 40
5.0
 50
0.000000000000007
 51
55.056338999999987
  0
ARC
  5
30C
  8
FUTO
 10
12988.099970152
 20
15331.891440977861
 30
0.0
 40
3.0
 50
0.000000000000007
 51
90.0
  0
LINE
  5
30D
  8
FUTO
 10
12970.349970152
 20
15326.891440977861
 30
0.0
 11
12970.349970152
 21
15322.891440977861
 31
0.0
  0
LINE
  5
30E
  8
FUTO
 10
12970.349970152
 20
15318.891440977861
 30
0.0
 11
12970.349970152
 21
15314.891440977861
 31
0.0
  0
LINE
  5
30F
  8
FUTO
 10
12970.349970152
 20
15334.891440977861
 30
0.0
 11
12970.349970152
 21
15330.891440977861
 31
0.0
  0
LINE
  5
310
  8
FUTO
 10
12991.099970152
 20
15389.21810097786
 30
0.0
 11
12991.099970152
 21
15314.891440977861
 31
0.0
  0
LINE
  5
311
  8
FUTO
 10
12991.099970152
 20
15314.891440977861
 30
0.0
 11
12911.599970152
 21
15314.891440977861
 31
0.0
  0
LINE
  5
312
  8
FUTO
 10
12914.599970152
 20
15334.891440977861
 30
0.0
 11
12988.099970152
 21
15334.891440977861
 31
0.0
  0
LINE
  5
313
  8
FUTO
 10
12988.963862152001
 20
15393.316733977859
 30
0.0
 11
12973.025996152001
 21
15404.45320797786
 31
0.0
  0
LINE
  5
314
  8
FUTO
 10
12885.438289730249
 20
15314.891440977861
 30
0.0
 11
12885.438289730249
 21
15305.41509641626
 31
0.0
  0
LINE
  5
315
  8
FUTO
 10
12885.438289730249
 20
15305.41509641626
 30
0.0
 11
12802.08718926447
 21
15305.41509641626
 31
0.0
  0
LINE
  5
316
  8
FUTO
 10
12945.416376151999
 20
15667.40022997786
 30
0.0
 11
12944.567866152
 21
15667.40022997786
 31
0.0
  0
LINE
  5
317
  8
FUTO
 10
12946.855219151999
 20
15665.11287597786
 30
0.0
 11
12946.855219151999
 21
15665.96150897786
 31
0.0
  0
LINE
  5
318
  8
FUTO
 10
12946.855219151999
 20
15665.11287597786
 30
0.0
 11
12947.703730151999
 21
15665.11287597786
 31
0.0
  0
LINE
  5
319
  8
FUTO
 10
12944.567866152
 20
15667.40022997786
 30
0.0
 11
12940.975703152
 21
15663.80818897786
 31
0.0
  0
LINE
  5
31A
  8
FUTO
 10
12954.608759152001
 20
15657.359213977859
 30
0.0
 11
12954.608759152001
 21
15658.207846977861
 31
0.0
  0
LINE
  5
31B
  8
FUTO
 10
12952.321406151999
 20
15659.646567977859
 30
0.0
 11
12953.170038152
 21
15659.646567977859
 31
0.0
  0
LINE
  5
31C
  8
FUTO
 10
12952.321406151999
 20
15659.646567977859
 30
0.0
 11
12952.321406151999
 21
15660.495200977861
 31
0.0
  0
LINE
  5
31D
  8
FUTO
 10
12952.321406151999
 20
15659.646567977859
 30
0.0
 11
12948.729365151999
 21
15656.054526977859
 31
0.0
  0
LINE
  5
31E
  8
FUTO
 10
12946.855219151999
 20
15665.11287597786
 30
0.0
 11
12943.263056152
 21
15661.52083497786
 31
0.0
  0
LINE
  5
31F
  8
FUTO
 10
12950.541010151999
 20
15663.332358977859
 30
0.0
 11
12945.292841152001
 21
15658.08431197786
 31
0.0
  0
LINE
  5
320
  8
FUTO
 10
12945.416376151999
 20
15667.40022997786
 30
0.0
 11
12954.608759152001
 21
15658.207846977861
 31
0.0
  0
LINE
  5
321
  8
FUTO
 10
13012.099970152
 20
15529.891440977861
 30
0.0
 11
13012.099970152
 21
15649.891440977861
 31
0.0
  0
LINE
  5
322
  8
FUTO
 10
12954.608759152001
 20
15657.359213977859
 30
0.0
 11
12951.016718151999
 21
15653.767172977859
 31
0.0
  0
LINE
  5
323
  8
FUTO
 10
12940.975703152
 20
15663.80818897786
 30
0.0
 11
12951.016718151999
 21
15653.767172977859
 31
0.0
  0
ARC
  5
324
  8
FUTO
 10
12815.099970152
 20
15734.08138197786
 30
0.0
 40
2.0
 50
0.000000000000007
 51
84.289063000000013
  0
LINE
  5
325
  8
FUTO
 10
12808.557062152
 20
15736.74568897786
 30
0.0
 11
12815.299006151999
 21
15736.071616977861
 31
0.0
  0
ARC
  5
326
  8
FUTO
 10
12789.099970152
 20
15734.08138197786
 30
0.0
 40
2.0001619999999991
 50
95.710937999999985
 51
180.0
  0
LINE
  5
327
  8
FUTO
 10
12795.999872152001
 20
15736.78133297786
 30
0.0
 11
12788.900934152
 21
15736.071616977861
 31
0.0
  0
ARC
  5
328
  8
FUTO
 10
12802.099970152
 20
15514.891440977861
 30
0.0
 40
210.0001069999999
 50
86.232985999999997
 51
86.266968000000006
  0
ARC
  5
329
  8
FUTO
 10
12815.699702152
 20
15721.44417497786
 30
0.0
 40
2.999933
 50
357.44390900000002
 51
86.232291999999973
  0
ARC
  5
32A
  8
FUTO
 10
12815.577265152
 20
15721.452231977861
 30
0.0
 40
3.0000169999999988
 50
86.267189000000045
 51
175.056107
  0
LINE
  5
32B
  8
FUTO
 10
12818.696650152
 20
15721.31038597786
 30
0.0
 11
12818.536738152001
 21
15717.72664597786
 31
0.0
  0
LINE
  5
32C
  8
FUTO
 10
12812.588373152001
 20
15721.710776977859
 30
0.0
 11
12812.279291151999
 21
15718.13680197786
 31
0.0
  0
LINE
  5
32D
  8
FUTO
 10
12791.611689152
 20
15721.710776977859
 30
0.0
 11
12791.920771151999
 21
15718.13680197786
 31
0.0
  0
ARC
  5
32E
  8
FUTO
 10
12802.099970152
 20
15514.891440977861
 30
0.0
 40
210.0
 50
93.732971000000006
 51
93.766974999999974
  0
ARC
  5
32F
  8
FUTO
 10
12788.500361152001
 20
15721.44417497786
 30
0.0
 40
3.0001370000000001
 50
93.767708000000013
 51
182.555984
  0
LINE
  5
330
  8
FUTO
 10
12785.503290152001
 20
15721.31038597786
 30
0.0
 11
12785.663325152
 21
15717.72664597786
 31
0.0
  0
ARC
  5
331
  8
FUTO
 10
12788.622797152
 20
15721.452231977861
 30
0.0
 40
3.000052999999999
 50
4.9438900000000174
 51
93.732811000000027
  0
LINE
  5
332
  8
FUTO
 10
12789.599970152
 20
15724.891440977861
 30
0.0
 11
12814.599970152
 21
15724.891440977861
 31
0.0
  0
LINE
  5
333
  8
FUTO
 10
12787.099970152
 20
15724.891440977861
 30
0.0
 11
12817.099970152
 21
15724.891440977861
 31
0.0
  0
LINE
  5
334
  8
FUTO
 10
12787.099970152
 20
15724.891440977861
 30
0.0
 11
12787.099970152
 21
15734.08138197786
 31
0.0
  0
LINE
  5
335
  8
FUTO
 10
12817.099970152
 20
15724.891440977861
 30
0.0
 11
12817.099970152
 21
15734.08138197786
 31
0.0
  0
ARC
  5
336
  8
FUTO
 10
12793.849970152
 20
15728.53841397786
 30
0.0
 40
2.0
 50
270.0
 51
0.000000000000007
  0
ARC
  5
337
  8
FUTO
 10
12810.349970152
 20
15728.53841397786
 30
0.0
 40
2.0
 50
180.0
 51
270.0
  0
LINE
  5
338
  8
FUTO
 10
12613.099970152
 20
15314.891440977861
 30
0.0
 11
12692.599970152
 21
15314.891440977861
 31
0.0
  0
LINE
  5
339
  8
FUTO
 10
12689.599970152
 20
15334.891440977861
 30
0.0
 11
12616.099970152
 21
15334.891440977861
 31
0.0
  0
LINE
  5
33A
  8
FUTO
 10
12663.224238152001
 20
15365.974692977859
 30
0.0
 11
12653.183222152
 21
15376.01570797786
 31
0.0
  0
LINE
  5
33B
  8
FUTO
 10
12659.632197151999
 20
15362.382651977859
 30
0.0
 11
12663.224238152001
 21
15365.974692977859
 31
0.0
  0
ARC
  5
33C
  8
FUTO
 10
12802.099970152
 20
15514.891440977861
 30
0.0
 40
214.9999849999999
 50
223.43432599999991
 51
232.51896699999989
  0
LINE
  5
33D
  8
FUTO
 10
12552.108306062441
 20
15314.891440977861
 30
0.0
 11
12718.76165057375
 21
15314.891440977861
 31
0.0
  0
LINE
  5
33E
  8
FUTO
 10
12640.099970152
 20
15314.891440977861
 30
0.0
 11
12700.099970152
 21
15314.891440977861
 31
0.0
  0
LINE
  5
33F
  8
FUTO
 10
12680.435175152001
 20
15351.765952977859
 30
0.0
 11
12675.913691152
 21
15334.891440977861
 31
0.0
  0
ARC
  5
340
  8
FUTO
 10
12674.315302151999
 20
15348.24495697786
 30
0.0
 40
5.0
 50
232.51852400000001
 51
344.99902300000002
  0
ARC
  5
341
  8
FUTO
 10
12689.599970152
 20
15331.891440977861
 30
0.0
 40
3.0
 50
0.000000000000007
 51
90.0
  0
LINE
  5
342
  8
FUTO
 10
12692.599970152
 20
15331.891440977861
 30
0.0
 11
12692.599970152
 21
15314.891440977861
 31
0.0
  0
LINE
  5
343
  8
FUTO
 10
12692.599970152
 20
15319.891440977861
 30
0.0
 11
12698.275263152
 21
15341.071616977861
 31
0.0
  0
LINE
  5
344
  8
FUTO
 10
12718.76165057375
 20
15314.891440977861
 30
0.0
 11
12718.76165057375
 21
15305.41509641626
 31
0.0
  0
LINE
  5
345
  8
FUTO
 10
12633.849970152
 20
15326.891440977861
 30
0.0
 11
12633.849970152
 21
15322.891440977861
 31
0.0
  0
LINE
  5
346
  8
FUTO
 10
12633.849970152
 20
15318.891440977861
 30
0.0
 11
12633.849970152
 21
15314.891440977861
 31
0.0
  0
LINE
  5
347
  8
FUTO
 10
12633.849970152
 20
15334.891440977861
 30
0.0
 11
12633.849970152
 21
15330.891440977861
 31
0.0
  0
ARC
  5
348
  8
FUTO
 10
12618.099970152
 20
15389.21810097786
 30
0.0
 40
5.0000669999999987
 50
124.943665
 51
180.0
  0
ARC
  5
349
  8
FUTO
 10
12616.099970152
 20
15331.891440977861
 30
0.0
 40
3.0
 50
90.0
 51
180.0
  0
LINE
  5
34A
  8
FUTO
 10
12613.099970152
 20
15389.21810097786
 30
0.0
 11
12613.099970152
 21
15314.891440977861
 31
0.0
  0
LINE
  5
34B
  8
FUTO
 10
12649.591181152
 20
15372.42366697786
 30
0.0
 11
12653.183222152
 21
15376.01570797786
 31
0.0
  0
LINE
  5
34C
  8
FUTO
 10
12649.591181152
 20
15372.42366697786
 30
0.0
 11
12649.591181152
 21
15371.575034977859
 31
0.0
  0
LINE
  5
34D
  8
FUTO
 10
12651.878535152
 20
15370.13631397786
 30
0.0
 11
12651.029902152
 21
15370.13631397786
 31
0.0
  0
LINE
  5
34E
  8
FUTO
 10
12651.878535152
 20
15370.13631397786
 30
0.0
 11
12655.470576152
 21
15373.72835497786
 31
0.0
  0
LINE
  5
34F
  8
FUTO
 10
12651.878535152
 20
15370.13631397786
 30
0.0
 11
12651.878535152
 21
15369.287680977861
 31
0.0
  0
LINE
  5
350
  8
FUTO
 10
12651.186152152
 20
15378.373129977859
 30
0.0
 11
12646.387934152001
 21
15374.33870697786
 31
0.0
  0
LINE
  5
351
  8
FUTO
 10
12658.783564152
 20
15362.382651977859
 30
0.0
 11
12659.632197151999
 21
15362.382651977859
 31
0.0
  0
LINE
  5
352
  8
FUTO
 10
12657.344599152
 20
15364.670004977859
 30
0.0
 11
12657.344599152
 21
15363.82137297786
 31
0.0
  0
LINE
  5
353
  8
FUTO
 10
12657.344599152
 20
15364.670004977859
 30
0.0
 11
12660.936884152001
 21
15368.262045977861
 31
0.0
  0
LINE
  5
354
  8
FUTO
 10
12657.344599152
 20
15364.670004977859
 30
0.0
 11
12656.496210152
 21
15364.670004977859
 31
0.0
  0
ARC
  5
355
  8
FUTO
 10
12649.605829152
 20
15370.51180197786
 30
0.0
 40
5.0000049999999998
 50
130.05917400000001
 51
223.43505899999991
  0
LINE
  5
356
  8
CT
 10
12653.659052151999
 20
15366.450522977861
 30
0.0
 11
12658.907099152
 21
15371.69856997786
 31
0.0
  0
LINE
  5
357
  8
FUTO
 10
12658.783564152
 20
15362.382651977859
 30
0.0
 11
12649.591181152
 21
15371.575034977859
 31
0.0
  0
LINE
  5
358
  8
FUTO
 10
12652.349970152
 20
15326.891440977861
 30
0.0
 11
12652.349970152
 21
15322.891440977861
 31
0.0
  0
LINE
  5
359
  8
FUTO
 10
12652.349970152
 20
15318.891440977861
 30
0.0
 11
12652.349970152
 21
15314.891440977861
 31
0.0
  0
LINE
  5
35A
  8
CT
 10
12643.099970152
 20
15339.31526897786
 30
0.0
 11
12643.099970152
 21
15310.199545977861
 31
0.0
  0
LINE
  5
35B
  8
FUTO
 10
12652.349970152
 20
15334.891440977861
 30
0.0
 11
12652.349970152
 21
15330.891440977861
 31
0.0
  0
LINE
  5
35C
  8
FUTO
 10
12542.099970152
 20
15346.07187332007
 30
0.0
 11
12568.83044585875
 21
15346.07187332007
 31
0.0
  0
LINE
  5
35D
  8
FUTO
 10
12603.644997562869
 20
15329.385076395331
 30
0.0
 11
12568.83044585875
 21
15329.385076395331
 31
0.0
  0
LINE
  5
35E
  8
FUTO
 10
12568.83044585875
 20
15346.07187332007
 30
0.0
 11
12568.83044585875
 21
15314.891440977861
 31
0.0
  0
LINE
  5
35F
  8
FUTO
 10
12615.236201152
 20
15393.316733977859
 30
0.0
 11
12631.174067152
 21
15404.45320797786
 31
0.0
  0
LINE
  5
360
  8
FUTO
 10
12659.632197151999
 20
15667.40022997786
 30
0.0
 11
12663.224238152001
 21
15663.80818897786
 31
0.0
  0
LINE
  5
361
  8
FUTO
 10
12653.183222152
 20
15653.767172977859
 30
0.0
 11
12663.224238152001
 21
15663.80818897786
 31
0.0
  0
ARC
  5
362
  8
FUTO
 10
12802.099970152
 20
15514.891440977861
 30
0.0
 40
210.00004599999991
 50
131.23298600000001
 51
131.26696799999991
  0
ARC
  5
363
  8
FUTO
 10
12665.569330152
 20
15670.481772977861
 30
0.0
 40
2.9999169999999991
 50
131.26663199999999
 51
220.05661000000001
  0
ARC
  5
364
  8
FUTO
 10
12665.661494152
 20
15670.562827977859
 30
0.0
 40
2.999909999999999
 50
42.440556000000022
 51
131.23197899999991
  0
LINE
  5
365
  8
FUTO
 10
12663.273066152
 20
15668.551108977859
 30
0.0
 11
12665.581782152
 21
15665.80525897786
 31
0.0
  0
LINE
  5
366
  8
FUTO
 10
12667.875361152001
 20
15672.587241977861
 30
0.0
 11
12670.296503152
 21
15669.940024977859
 31
0.0
  0
LINE
  5
367
  8
FUTO
 10
12659.632197151999
 20
15667.40022997786
 30
0.0
 11
12658.783564152
 21
15667.40022997786
 31
0.0
  0
LINE
  5
368
  8
FUTO
 10
12657.344843151999
 20
15665.11287597786
 30
0.0
 11
12657.344843151999
 21
15665.96150897786
 31
0.0
  0
LINE
  5
369
  8
FUTO
 10
12657.344843151999
 20
15665.11287597786
 30
0.0
 11
12656.496210152
 21
15665.11287597786
 31
0.0
  0
LINE
  5
36A
  8
FUTO
 10
12649.591181152
 20
15658.207846977861
 30
0.0
 11
12649.591181152
 21
15657.359213977859
 31
0.0
  0
LINE
  5
36B
  8
FUTO
 10
12651.878535152
 20
15659.64681197786
 30
0.0
 11
12651.029902152
 21
15659.64681197786
 31
0.0
  0
LINE
  5
36C
  8
FUTO
 10
12651.878535152
 20
15659.64681197786
 30
0.0
 11
12655.470576152
 21
15656.054526977859
 31
0.0
  0
LINE
  5
36D
  8
FUTO
 10
12651.878535152
 20
15659.64681197786
 30
0.0
 11
12651.878535152
 21
15660.495200977861
 31
0.0
  0
LINE
  5
36E
  8
FUTO
 10
12653.659052151999
 20
15663.332358977859
 30
0.0
 11
12658.907099152
 21
15658.08431197786
 31
0.0
  0
LINE
  5
36F
  8
FUTO
 10
12649.591181152
 20
15658.207846977861
 30
0.0
 11
12658.783564152
 21
15667.40022997786
 31
0.0
  0
LINE
  5
370
  8
FUTO
 10
12657.344843151999
 20
15665.11287597786
 30
0.0
 11
12660.936884152001
 21
15661.52083497786
 31
0.0
  0
ARC
  5
371
  8
FUTO
 10
12802.099970152
 20
15514.891440977861
 30
0.0
 40
210.0
 50
138.73297099999991
 51
138.76696799999991
  0
ARC
  5
372
  8
FUTO
 10
12646.509638152
 20
15651.422202977859
 30
0.0
 40
2.9999560000000001
 50
49.941890999999998
 51
138.7316129999999
  0
LINE
  5
373
  8
FUTO
 10
12644.404169152
 20
15649.11604997786
 30
0.0
 11
12647.051508152001
 21
15646.695151977859
 31
0.0
  0
ARC
  5
374
  8
FUTO
 10
12646.428828152
 20
15651.32991697786
 30
0.0
 40
2.9999500000000001
 50
138.768021
 51
227.55600000000001
  0
LINE
  5
375
  8
FUTO
 10
12648.440302151999
 20
15653.71834497786
 30
0.0
 11
12651.186152152
 21
15651.40975097786
 31
0.0
  0
LINE
  5
376
  8
FUTO
 10
12649.591181152
 20
15657.359213977859
 30
0.0
 11
12653.183222152
 21
15653.767172977859
 31
0.0
  0
ARC
  5
377
  8
FUTO
 10
12802.099970152
 20
15778.641440977861
 30
0.0
 40
6.25
 50
90.0
 51
180.0
  0
ARC
  5
378
  8
FUTO
 10
12802.099970152
 20
15778.641440977861
 30
0.0
 40
6.25
 50
0.000000000000007
 51
90.0
  0
ARC
  5
396
  8
KL
 10
11704.099970152
 20
16246.891440977861
 30
0.0
 40
1105.0
 50
269.14442036456973
 51
0.000000000000007
  0
ARC
  5
397
  8
FUTO
 10
11602.099970152
 20
16144.891440977861
 30
0.0
 40
95.000000000003084
 50
249.05612602761781
 51
270.0
  0
LINE
  5
398
  8
FUTO
 10
11512.099970152
 20
16047.891440977861
 30
0.0
 11
11602.099970152
 21
16047.891440977861
 31
0.0
  0
LINE
  5
399
  8
KL
 10
11300.566470548431
 20
16038.891440977861
 30
0.0
 11
11602.099970152
 21
16038.891440977861
 31
0.0
  0
LINE
  5
39A
  8
FUTO
 10
11402.099970152
 20
16044.891440977861
 30
0.0
 11
11802.099970152
 21
16044.891440977861
 31
0.0
  0
DIMENSION
  5
39B
  8
FUTO
  2
*D4
 10
10752.099970152
 20
14870.59158101283
 30
0.0
 11
11177.099970152
 21
14930.59158101283
 31
0.0
 70
     0
 13
11602.099970152
 23
15082.80928993411
 33
0.0
 14
10752.099970152
 24
15034.891440977861
 34
0.0
 50
180.0
1001
ACAD
1000
DSTYLE
1002
{
1070
    40
1040
30.0
1070
   176
1070
     2
1070
   177
1070
     2
1070
   178
1070
     2
1070
   341
1005
44D5
1070
     5
1000
OPEN30
1002
}
  0
LINE
  5
3B5
  8
FUTO
 10
12479.66254606568
 20
15336.485838852081
 30
0.0
 11
12479.66254606568
 21
15322.63934691004
 31
0.0
  0
LINE
  5
3B6
  8
FUTO
 10
12479.66254606568
 20
15322.63934691004
 30
0.0
 11
12488.89903704786
 21
15322.63934691004
 31
0.0
  0
LINE
  5
3B7
  8
FUTO
 10
12488.89903704786
 20
15322.63934691004
 30
0.0
 11
12488.89903704786
 21
15336.840871823541
 31
0.0
  0
LINE
  5
3B8
  8
FUTO
 10
12488.89903704786
 20
15336.840871823541
 30
0.0
 11
12480.01779690904
 21
15336.840871823541
 31
0.0
  0
LINE
  5
3BA
  8
KL
 10
11903.633469755579
 20
16038.891440977861
 30
0.0
 11
11602.099970152
 21
16038.891440977861
 31
0.0
  0
LINE
  5
3BD
  8
FUTO
 10
11782.099970152
 20
16044.891440977861
 30
0.0
 11
11692.099970152
 21
16044.891440977861
 31
0.0
  0
LINE
  5
3BF
  8
FUTO
 10
11802.099970152
 20
16044.891440977861
 30
0.0
 11
11802.099970152
 21
16038.891440977861
 31
0.0
  0
ARC
  5
3C0
  8
FUTO
 10
11779.099970152
 20
16075.891440977861
 30
0.0
 40
2.9999999999999991
 50
0.000000000000007
 51
90.0
  0
LINE
  5
3C1
  8
FUTO
 10
11782.099970152
 20
16075.891440977861
 30
0.0
 11
11782.099970152
 21
16044.891440977861
 31
0.0
  0
LINE
  5
3C2
  8
FUTO
 10
11713.099970152
 20
16078.891440977861
 30
0.0
 11
11779.099970152
 21
16078.891440977861
 31
0.0
  0
ARC
  5
3C3
  8
FUTO
 10
11602.099970152
 20
16144.891440977861
 30
0.0
 40
94.999999999998295
 50
270.0
 51
290.94387397238302
  0
LINE
  5
3C4
  8
FUTO
 10
11692.099970152
 20
16044.891440977861
 30
0.0
 11
11692.099970152
 21
16047.891440977861
 31
0.0
  0
ARC
  5
3C5
  8
FUTO
 10
11649.599970152
 20
16062.619027618341
 30
0.0
 40
14.999999999999909
 50
300.0000000000008
 51
34.528063013809827
  0
LINE
  5
3C6
  8
FUTO
 10
11692.099970152
 20
16047.891440977861
 30
0.0
 11
11602.099970152
 21
16047.891440977861
 31
0.0
  0
ARC
  5
3C7
  8
FUTO
 10
11649.599970152
 20
16062.619027618341
 30
0.0
 40
15.000000000000419
 50
205.4719369861869
 51
300.00000000000011
  0
LINE
  5
3D0
  8
FUTO
 10
11102.099970152
 20
15254.891440977861
 30
0.0
 11
11102.099970152
 21
15104.891440977861
 31
0.0
  0
POINT
  5
3D6
  8
DEFPOINTS
  6
BYBLOCK
 62
     0
 10
10752.099970152
 20
15104.891440977861
 30
0.0
  0
LINE
  5
3D9
  8
FUTO
 10
10752.099970152
 20
15254.891440977861
 30
0.0
 11
10752.099970152
 21
15104.891440977861
 31
0.0
  0
LINE
  5
3DD
  8
FUTO
 10
11491.099970152
 20
16078.891440977861
 30
0.0
 11
11425.099970152
 21
16078.891440977861
 31
0.0
  0
LINE
  5
3DE
  8
FUTO
 10
11422.099970152
 20
16044.891440977861
 30
0.0
 11
11512.099970152
 21
16044.891440977861
 31
0.0
  0
LINE
  5
3E0
  8
FUTO
 10
11512.099970152
 20
16044.891440977861
 30
0.0
 11
11512.099970152
 21
16047.891440977861
 31
0.0
  0
ARC
  5
3E1
  8
FUTO
 10
11554.599970152
 20
16062.619027618341
 30
0.0
 40
14.99999999999998
 50
145.47193698619191
 51
240.0000000000006
  0
ARC
  5
3E2
  8
FUTO
 10
11554.599970152
 20
16062.619027618341
 30
0.0
 40
14.99999999999978
 50
239.99999999999989
 51
334.52806301381321
  0
LINE
  5
3E3
  8
FUTO
 10
11402.099970152
 20
16044.891440977861
 30
0.0
 11
11402.099970152
 21
16038.891440977861
 31
0.0
  0
ARC
  5
3E5
  8
FUTO
 10
11425.099970152
 20
16075.891440977861
 30
0.0
 40
2.9999999999999991
 50
90.0
 51
180.0
  0
LINE
  5
3E6
  8
FUTO
 10
11422.099970152
 20
16075.891440977861
 30
0.0
 11
11422.099970152
 21
16044.891440977861
 31
0.0
  0
LINE
  5
405
  8
SL
 10
14545.94338219064
 20
16064.891440977861
 30
0.0
 11
14568.043382190641
 21
16064.891440977861
 31
0.0
  0
LINE
  5
406
  8
CT
 10
14321.086652669919
 20
15514.891440977861
 30
0.0
 11
14623.905335781379
 21
15514.891440977861
 31
0.0
  0
LINE
  5
407
  8
FUTO
 10
14358.043382190641
 20
15294.891440977861
 30
0.0
 11
14613.043382190641
 21
15294.891440977861
 31
0.0
  0
LINE
  5
408
  8
SL
 10
14545.94338219064
 20
15454.891440977861
 30
0.0
 11
14561.043382190641
 21
15454.891440977861
 31
0.0
  0
LINE
  5
409
  8
SL
 10
14545.94338219064
 20
15574.891440977861
 30
0.0
 11
14561.043382190641
 21
15574.891440977861
 31
0.0
  0
LINE
  5
40E
  8
SL
 10
14468.043382190641
 20
15408.891440977861
 30
0.0
 11
14545.94338219064
 21
15408.891440977861
 31
0.0
  0
LINE
  5
40F
  8
SL
 10
14468.043382190641
 20
15620.891440977861
 30
0.0
 11
14545.94338219064
 21
15620.891440977861
 31
0.0
  0
LINE
  5
410
  8
SL
 10
14468.043382190641
 20
15894.891440977861
 30
0.0
 11
14545.94338219064
 21
15894.891440977861
 31
0.0
  0
LINE
  5
41A
  8
SL
 10
14561.043382190641
 20
15574.891440977861
 30
0.0
 11
14561.043382190641
 21
15454.891440977861
 31
0.0
  0
LINE
  5
41B
  8
FUTO
 10
14613.043382190641
 20
15461.94886725365
 30
0.0
 11
14613.043382190641
 21
15294.891440977861
 31
0.0
  0
LINE
  5
42E
  8
FUTO
 10
10714.95993103187
 20
16060.751072950339
 30
0.0
 11
11223.337146792561
 21
16114.252843738661
 31
0.0
  0
LINE
  5
42F
  8
FUTO
 10
10716.82846863287
 20
16042.848319887369
 30
0.0
 11
11225.21296886934
 21
16096.350857296109
 31
0.0
  0
LINE
  5
430
  8
FUTO
 10
10672.099970152
 20
16131.891440977861
 30
0.0
 11
10672.099970152
 21
17689.891440977859
 31
0.0
  0
LINE
  5
431
  8
HOSO
 10
10672.099970152
 20
16185.891440977861
 30
0.0
 11
10672.099970152
 21
17635.891440977859
 31
0.0
  0
LINE
  5
44C
  8
FUTO
 10
10722.099970152
 20
16131.891440977861
 30
0.0
 11
10722.099970152
 21
17689.891440977859
 31
0.0
  0
LINE
  5
44D
  8
FUTO
 10
10676.099970152
 20
16131.891440977861
 30
0.0
 11
10676.099970152
 21
17689.891440977859
 31
0.0
  0
LINE
  5
44E
  8
CT
 10
10424.09599150467
 20
16144.891440977861
 30
0.0
 11
13132.189549239971
 21
16144.891440977861
 31
0.0
  0
LINE
  5
478
  8
FUTO
 10
10752.099970152
 20
19732.591577699492
 30
0.0
 11
13152.099970152
 21
19732.591577699492
 31
0.0
  0
LINE
  5
479
  8
FUTO
 10
10752.099970152
 20
19807.591577699492
 30
0.0
 11
12809.099970152
 21
19807.591577699492
 31
0.0
  0
LINE
  5
47A
  8
FUTO
 10
11102.099970152
 20
18829.591577699492
 30
0.0
 11
13152.099970152
 21
18829.591577699492
 31
0.0
  0
LINE
  5
488
  8
FUTO
 10
11102.099970152
 20
18756.591577699492
 30
0.0
 11
13152.099970152
 21
18756.591577699492
 31
0.0
  0
LINE
  5
489
  8
FUTO
 10
11102.099970152
 20
18756.591577699492
 30
0.0
 11
13152.099970152
 21
18756.591577699492
 31
0.0
  0
LINE
  5
4A3
  8
FUTO
 10
13152.099970152
 20
19807.591577699492
 30
0.0
 11
13152.099970152
 21
19732.591577699492
 31
0.0
  0
LINE
  5
4A4
  8
FUTO
 10
12937.099970152
 20
19732.591577699492
 30
0.0
 11
12937.099970152
 21
19433.091577699492
 31
0.0
  0
LINE
  5
4A5
  8
CT
 10
12802.099970152
 20
19572.17606689941
 30
0.0
 11
12802.099970152
 21
18396.459745781482
 31
0.0
  0
LINE
  5
4AD
  8
KL
 10
10672.099970152
 20
17635.891440977859
 30
0.0
 11
11617.69456688725
 21
17550.598659190091
 31
0.0
  0
LINE
  5
4AE
  8
FUTO
 10
10722.099970152
 20
17651.462628956
 30
0.0
 11
11602.099970152
 21
17572.08649014093
 31
0.0
  0
LINE
  5
4B2
  8
FUTO
 10
10672.099970152
 20
17689.891440977859
 30
0.0
 11
10722.099970152
 21
17689.891440977859
 31
0.0
  0
LINE
  5
51D
  8
CT
 10
11602.099970152
 20
21258.464155349091
 30
0.0
 11
11602.099970152
 21
18432.73148975975
 31
0.0
  0
LINE
  5
52A
  8
FUTO
 10
11102.099970152
 20
19732.591577699492
 30
0.0
 11
11102.099970152
 21
18756.591577699492
 31
0.0
  0
LINE
  5
52C
  8
FUTO
 10
11177.099970152
 20
19732.591577699492
 30
0.0
 11
11177.099970152
 21
18823.591577699492
 31
0.0
  0
ARC
  5
559
  8
FUTO
 10
11687.599970152
 20
16059.391440977861
 30
0.0
 40
937.5
 50
180.0
 51
232.53790487866371
  0
ARC
  5
577
  8
FUTO
 10
11516.899970152001
 20
16059.391440977861
 30
0.0
 40
766.5
 50
172.0132987821784
 51
180.0
  0
CIRCLE
  5
578
  8
FUTO
 10
11602.099970152
 20
16144.891440977861
 30
0.0
 40
36.5
  0
ARC
  5
579
  8
FUTO
 10
11602.099970152
 20
16144.891440977861
 30
0.0
 40
94.999999999998053
 50
90.0
 51
110.94387397238231
  0
INSERT
  5
57A
  8
FUTO
  2
左回転矢印
 10
11424.091075070141
 20
16658.77026083559
 30
0.0
 41
2.0
 42
2.0
 43
2.0
  0
ARC
  5
585
  8
KL
 10
11516.899970152001
 20
16059.391440977861
 30
0.0
 40
746.49999999999989
 50
144.1215022574147
 51
180.0
  0
ARC
  5
587
  8
FUTO
 10
11697.099970152
 20
16144.891440977861
 30
0.0
 40
14.999999999999909
 50
265.47193698619128
 51
359.9999999999996
  0
ARC
  5
588
  8
FUTO
 10
11697.099970152
 20
16144.891440977861
 30
0.0
 40
15.000000000000121
 50
359.9999999999996
 51
94.528063013807852
  0
LINE
  5
589
  8
FUTO
 10
11617.781632849799
 20
16238.58821496199
 30
0.0
 11
11617.781632849799
 21
16244.891440977861
 31
0.0
  0
LINE
  5
58A
  8
FUTO
 10
11586.4183074542
 20
16238.58821496199
 30
0.0
 11
11586.4183074542
 21
16244.891440977861
 31
0.0
  0
LINE
  5
58B
  8
FUTO
 10
11586.4183074542
 20
16244.891440977861
 30
0.0
 11
11617.781632849799
 21
16244.891440977861
 31
0.0
  0
LINE
  5
58C
  8
FUTO
 10
11697.099970152
 20
16129.891440977861
 30
0.0
 11
11697.099970152
 21
16094.891440977861
 31
0.0
  0
ARC
  5
58D
  8
FUTO
 10
11602.099970152
 20
16144.891440977861
 30
0.0
 40
95.000000000000995
 50
329.99999999999932
 51
350.94387397238222
  0
ARC
  5
58E
  8
FUTO
 10
11602.099970152
 20
16144.891440977861
 30
0.0
 40
94.999999999997456
 50
9.0561260276185163
 51
30.000000000001421
  0
ARC
  5
58F
  8
FUTO
 10
11602.099970152
 20
16144.891440977861
 30
0.0
 40
95.000000000000071
 50
29.999999999999481
 51
50.943873972382391
  0
ARC
  5
590
  8
FUTO
 10
11602.099970152
 20
16144.891440977861
 30
0.0
 40
94.999999999998494
 50
69.056126027616216
 51
90.0
  0
ARC
  5
591
  8
FUTO
 10
11649.599970152
 20
16227.163854337379
 30
0.0
 40
14.99999999999976
 50
325.47193698619111
 51
59.999999999999517
  0
ARC
  5
592
  8
FUTO
 10
11649.599970152
 20
16227.163854337379
 30
0.0
 40
15.00000000000038
 50
59.999999999999517
 51
154.52806301381301
  0
CIRCLE
  5
593
  8
KL
 10
10896.6342937348
 20
16505.454297440381
 30
0.0
 40
17.407412889793701
  0
LINE
  5
594
  8
FUTO
 10
10722.099970152
 20
16131.891440977861
 30
0.0
 11
10672.099970152
 21
16131.891440977861
 31
0.0
  0
LINE
  5
595
  8
KL
 10
10672.099970152
 20
16185.891440977861
 30
0.0
 11
10781.196225428621
 21
16185.891440977861
 31
0.0
  0
LINE
  5
596
  8
FUTO
 10
10722.099970152
 20
16165.891440977861
 30
0.0
 11
10757.83475556237
 21
16165.891440977861
 31
0.0
  0
INSERT
  5
597
  8
FUTO
  2
まっすぐの矢印
 10
10442.24201742219
 20
17204.87878747053
 30
0.0
 41
2.0
 42
2.0
 43
2.0
 50
90.0
  0
LINE
  5
5A2
  8
FUTO
 10
11507.099970152
 20
16129.891440977861
 30
0.0
 11
11507.099970152
 21
16094.891440977861
 31
0.0
  0
ARC
  5
5A3
  8
FUTO
 10
11602.099970152
 20
16144.891440977861
 30
0.0
 40
94.999999999999389
 50
149.99999999999969
 51
170.94387397238259
  0
ARC
  5
5A4
  8
FUTO
 10
11507.099970152
 20
16144.891440977861
 30
0.0
 40
15.000000000000121
 50
85.471936986192148
 51
180.00000000000051
  0
ARC
  5
5A5
  8
FUTO
 10
11507.099970152
 20
16144.891440977861
 30
0.0
 40
14.999999999999909
 50
180.0000000000004
 51
274.52806301380861
  0
ARC
  5
5A6
  8
FUTO
 10
11602.099970152
 20
16144.891440977861
 30
0.0
 40
94.999999999999389
 50
189.0561260276173
 51
210.0000000000002
  0
ARC
  5
5A7
  8
FUTO
 10
11602.099970152
 20
16144.891440977861
 30
0.0
 40
94.999999999999915
 50
129.0561260276165
 51
149.9999999999994
  0
ARC
  5
5A8
  8
FUTO
 10
11554.599970152
 20
16227.163854337379
 30
0.0
 40
15.00000000000038
 50
25.4719369861869
 51
120.0000000000005
  0
ARC
  5
5A9
  8
FUTO
 10
11554.599970152
 20
16227.163854337379
 30
0.0
 40
15.00000000000006
 50
120.0000000000008
 51
214.5280630138098
  0
LINE
  5
605
  8
FUTO
 10
14358.043382190641
 20
16524.891440977859
 30
0.0
 11
14613.043382190641
 21
16524.891440977859
 31
0.0
  0
LINE
  5
606
  8
SL
 10
14545.94338219064
 20
16224.891440977861
 30
0.0
 11
14568.043382190641
 21
16224.891440977861
 31
0.0
  0
POINT
  5
609
  8
DEFPOINTS
 10
14358.043382190641
 20
16524.891440977859
 30
0.0
  0
LINE
  5
60A
  8
SL
 10
14468.043382190641
 20
16394.891440977859
 30
0.0
 11
14545.94338219064
 21
16394.891440977859
 31
0.0
  0
LINE
  5
60E
  8
FUTO
 10
14798.043382190641
 20
16099.891440977861
 30
0.0
 11
15367.043382190641
 21
16099.891440977861
 31
0.0
  0
LINE
  5
60F
  8
FUTO
 10
14798.043382190641
 20
16189.891440977861
 30
0.0
 11
15367.043382190641
 21
16189.891440977861
 31
0.0
  0
LINE
  5
610
  8
FUTO
 10
14613.043382190641
 20
16524.891440977859
 30
0.0
 11
14613.043382190641
 21
16298.58181088357
 31
0.0
  0
LINE
  5
611
  8
FUTO
 10
14568.043382190641
 20
16102.391440977861
 30
0.0
 11
14657.543382190641
 21
16102.391440977861
 31
0.0
  0
LINE
  5
612
  8
FUTO
 10
14568.043382190641
 20
16187.391440977861
 30
0.0
 11
14657.543382190641
 21
16187.391440977861
 31
0.0
  0
LINE
  5
68C
  8
FUTO
 10
10752.099970152
 20
20956.591577699492
 30
0.0
 11
12452.099970152
 21
20956.591577699492
 31
0.0
  0
LINE
  5
68D
  8
FUTO
 10
10672.099970152
 20
20881.591577699492
 30
0.0
 11
12809.099970152
 21
20881.591577699492
 31
0.0
  0
LINE
  5
68E
  8
CT
 10
10424.57996957248
 20
20343.591577699492
 30
0.0
 11
13517.31204292745
 21
20343.591577699492
 31
0.0
  0
LINE
  5
68F
  8
FUTO
 10
12452.099970152
 20
20956.591577699492
 30
0.0
 11
12452.099970152
 21
20927.591577699492
 31
0.0
  0
LINE
  5
6A9
  8
FUTO
 10
10752.099970152
 20
20956.591577699492
 30
0.0
 11
10752.099970152
 21
20927.591577699499
 31
0.0
  0
LINE
  5
6C2
  8
FUTO
 10
15648.043382190641
 20
16135.891440977861
 30
0.0
 11
15648.043382190641
 21
15254.891440977861
 31
0.0
  0
LINE
  5
6C3
  8
FUTO
 10
15643.543382190641
 20
16135.891440977861
 30
0.0
 11
15643.543382190641
 21
15254.891440977861
 31
0.0
  0
LINE
  5
6C5
  8
FUTO
 10
16708.043382190641
 20
16135.891440977861
 30
0.0
 11
16708.043382190641
 21
15254.891440977861
 31
0.0
  0
LINE
  5
6C6
  8
KL
 10
16714.043382190641
 20
16849.204183286889
 30
0.0
 11
16714.043382190641
 21
15440.578698668831
 31
0.0
  0
LINE
  5
6CD
  8
CT
 10
16178.043382190641
 20
17849.813555107889
 30
0.0
 11
16178.043382190641
 21
14734.891440977861
 31
0.0
  0
LINE
  5
6D4
  8
FUTO
 10
15568.543382190641
 20
17639.891440977859
 30
0.0
 11
15568.543382190641
 21
15254.891440977861
 31
0.0
  0
DIMENSION
  5
6D5
  8
FUTO
  2
*D11
 10
17177.653243946861
 20
15444.891440977861
 30
0.0
 11
17117.653243946861
 21
16144.891440977861
 31
0.0
 70
     0
  1
%%C<>
 13
16812.043382190641
 23
16844.891440977859
 33
0.0
 14
16812.043382190641
 24
15444.891440977861
 34
0.0
 50
90.0
1001
ACAD
1000
DSTYLE
1002
{
1070
    40
1040
30.0
1070
   176
1070
     2
1070
   177
1070
     2
1070
   178
1070
     2
1070
   341
1005
44D5
1070
     5
1000
OPEN30
1002
}
  0
LINE
  5
6E2
  8
KL
 10
16717.243382190642
 20
16135.891440977861
 30
0.0
 11
16717.243382190642
 21
15394.891440977861
 31
0.0
  0
LINE
  5
6E6
  8
FUTO
 10
16806.043382190641
 20
16894.891440977859
 30
0.0
 11
16806.043382190641
 21
15394.891440977861
 31
0.0
  0
LINE
  5
6E7
  8
FUTO
 10
16812.043382190641
 20
16894.891440977859
 30
0.0
 11
16812.043382190641
 21
15394.891440977861
 31
0.0
  0
LINE
  5
703
  8
KL
 10
15643.543382190641
 20
15141.98647790836
 30
0.0
 11
16711.243382190642
 21
15141.98647790836
 31
0.0
  0
LINE
  5
70B
  8
CT
 10
15599.043382190641
 20
15125.05552210958
 30
0.0
 11
15599.043382190641
 21
15059.52268698688
 31
0.0
1001
ACAD
1000
ASC_BOUNDS
1002
{
1070
    19
1002
}
  0
LINE
  5
70E
  8
KL
 10
15643.543382190641
 20
15254.891440977861
 30
0.0
 11
15643.543382190641
 21
15141.98647790836
 31
0.0
  0
LINE
  5
70F
  8
KL
 10
15648.043382190641
 20
15254.891440977861
 30
0.0
 11
15648.043382190641
 21
15141.98647790836
 31
0.0
  0
LINE
  5
724
  8
CT
 10
16755.043382190641
 20
15124.414869909329
 30
0.0
 11
16755.043382190641
 21
15071.444216335371
 31
0.0
1001
ACAD
1000
ASC_BOUNDS
1002
{
1070
    19
1002
}
  0
LINE
  5
725
  8
KL
 10
16708.043382190641
 20
15254.891440977861
 30
0.0
 11
16708.043382190641
 21
15141.98647790836
 31
0.0
  0
LINE
  5
72B
  8
KL
 10
16717.243382190642
 20
15438.891440977861
 30
0.0
 11
16786.243382190642
 21
15438.891440977861
 31
0.0
  0
LINE
  5
72C
  8
KL
 10
16711.243382190642
 20
15444.891440977861
 30
0.0
 11
16812.043382190641
 21
15444.891440977861
 31
0.0
  0
LINE
  5
72D
  8
CT
 10
16678.758684595541
 20
15412.391440977861
 30
0.0
 11
16735.80141772758
 21
15412.391440977861
 31
0.0
  0
LINE
  5
72E
  8
KL
 10
16711.243382190642
 20
15394.891440977861
 30
0.0
 11
16717.243382190642
 21
15394.891440977861
 31
0.0
  0
LINE
  5
72F
  8
FUTO
 10
16786.243382190642
 20
15438.891440977861
 30
0.0
 11
16806.043382190641
 21
15438.891440977861
 31
0.0
  0
LINE
  5
730
  8
CT
 10
16782.923647277999
 20
15412.391440977861
 30
0.0
 11
16843.066501031881
 21
15412.391440977861
 31
0.0
  0
LINE
  5
731
  8
FUTO
 10
16806.043382190641
 20
15394.891440977861
 30
0.0
 11
16812.043382190641
 21
15394.891440977861
 31
0.0
  0
DIMENSION
  5
800
  8
FUTO
  2
*D12
 10
16812.043382190641
 20
17967.43787326145
 30
0.0
 11
16495.043382190641
 21
18027.43787326145
 31
0.0
 70
     0
 13
16178.043382190641
 23
17813.050778920791
 33
0.0
 14
16812.043382190641
 24
16894.891440977859
 34
0.0
1001
ACAD
1000
DSTYLE
1002
{
1070
    40
1040
30.0
1070
   176
1070
     2
1070
   177
1070
     2
1070
   178
1070
     2
1070
   341
1005
44D5
1070
     5
1000
OPEN30
1002
}
  0
LINE
  5
826
  8
FUTO
 10
15643.543382190641
 20
17639.891440977859
 30
0.0
 11
15643.543382190641
 21
16153.891440977861
 31
0.0
  0
LINE
  5
827
  8
FUTO
 10
15648.043382190641
 20
17639.891440977859
 30
0.0
 11
15648.043382190641
 21
16153.891440977861
 31
0.0
  0
LINE
  5
831
  8
FUTO
 10
15593.543382190641
 20
17689.891440977859
 30
0.0
 11
15593.543382190641
 21
17639.891440977859
 31
0.0
  0
INSERT
  5
841
  8
FUTO
  2
まっすぐの矢印
 10
16873.890162880041
 20
16701.14332929784
 30
0.0
 41
-2.0
 42
2.0
 43
2.0
 50
90.0
  0
LINE
  5
842
  8
FUTO
 10
16708.043382190641
 20
17639.891440977859
 30
0.0
 11
16708.043382190641
 21
16153.891440977861
 31
0.0
  0
LINE
  5
844
  8
KL
 10
16717.243382190642
 20
16894.891440977859
 30
0.0
 11
16717.243382190642
 21
16153.891440977861
 31
0.0
  0
LINE
  5
845
  8
KL
 10
16717.243382190642
 20
16850.891440977859
 30
0.0
 11
16787.543382190641
 21
16850.891440977859
 31
0.0
  0
LINE
  5
846
  8
KL
 10
16711.243382190642
 20
16844.891440977859
 30
0.0
 11
16812.043382190641
 21
16844.891440977859
 31
0.0
  0
LINE
  5
847
  8
CT
 10
16688.58728094678
 20
16877.391440977859
 30
0.0
 11
16731.29291937203
 21
16877.391440977859
 31
0.0
  0
LINE
  5
848
  8
KL
 10
16711.243382190642
 20
16894.891440977859
 30
0.0
 11
16717.243382190642
 21
16894.891440977859
 31
0.0
  0
LINE
  5
849
  8
FUTO
 10
16762.543382190659
 20
17689.891440977859
 30
0.0
 11
16762.543382190659
 21
17639.891440977859
 31
0.0
  0
LINE
  5
84A
  8
FUTO
 10
16787.543382190641
 20
16850.891440977859
 30
0.0
 11
16806.043382190641
 21
16850.891440977859
 31
0.0
  0
LINE
  5
84B
  8
CT
 10
16783.282394928439
 20
16877.391440977859
 30
0.0
 11
16835.271870484848
 21
16877.391440977859
 31
0.0
  0
LINE
  5
84C
  8
FUTO
 10
16806.043382190641
 20
16894.891440977859
 30
0.0
 11
16812.043382190641
 21
16894.891440977859
 31
0.0
  0
POLYLINE
  8
0
  5
54F2
  62
2
  66
     1
 10
0.000000
 20
0.000000
 30
0.000000
  70
     8
  0
VERTEX
  8
0
  5
54F3
 10
12920.2
 20
16269.1
 30
0.000000
  70
    32
  0
VERTEX
  8
0
  5
54F4
 10
12920.2
 20
16144.9
 30
0.000000
  70
    32
  0
SEQEND
  8
0
  5
54F5
  0
POLYLINE
  8
0
  5
54F6
  62
2
  66
     1
 10
0.000000
 20
0.000000
 30
0.000000
  70
     8
  0
VERTEX
  8
0
  5
54F7
 10
12920.2
 20
16020.7
 30
0.000000
  70
    32
  0
VERTEX
  8
0
  5
54F8
 10
12920.2
 20
16144.9
 30
0.000000
  70
    32
  0
SEQEND
  8
0
  5
54F9
  0
LINE
  5
971
  8
KL
 10
11402.24622287407
 20
16133.08128860935
 30
0.0
 11
11404.114760475069
 21
16115.17853554638
 31
0.0
  0
LINE
  5
972
  8
KL
 10
11802.099970152
 20
16153.891440977861
 30
0.0
 11
11802.099970152
 21
16135.891440977861
 31
0.0
  0
LINE
  5
973
  8
KL
 10
11802.099970152
 20
16153.891440977861
 30
0.0
 11
12260.245460023591
 21
16153.891440977861
 31
0.0
  0
LINE
  5
974
  8
KL
 10
11802.099970152
 20
16135.891440977861
 30
0.0
 11
12286.455977334541
 21
16135.891440977861
 31
0.0
  0
LINE
  5
990
  8
FUTO
 10
10714.95993103187
 20
16060.751072950339
 30
0.0
 11
10716.82846863287
 21
16042.848319887369
 31
0.0
  0
POLYLINE
  5
119F
  8
FUTO
 66
     1
 10
0.0
 20
0.0
 30
0.0
 70
     1
1001
ACAD
1000
ASC_BOUNDS
1002
{
1070
    19
1002
}
  0
VERTEX
  5
5470
  8
FUTO
 10
15564.043382190641
 20
15104.891440977861
 30
0.0
  0
VERTEX
  5
5471
  8
FUTO
 10
15564.043382190641
 20
15108.22962955603
 30
0.0
 42
-0.3888787318529885
  0
VERTEX
  5
5472
  8
FUTO
 10
15567.69475921965
 20
15112.2144083484
 30
0.0
  0
VERTEX
  5
5473
  8
FUTO
 10
15628.89200516163
 20
15117.568473607331
 30
0.0
 42
0.3888787318529894
  0
VERTEX
  5
5474
  8
FUTO
 10
15632.543382190641
 20
15121.55325239969
 30
0.0
  0
VERTEX
  5
5475
  8
FUTO
 10
15632.543382190641
 20
15238.22962955603
 30
0.0
 42
0.3888787318529893
  0
VERTEX
  5
5476
  8
FUTO
 10
15628.89200516163
 20
15242.2144083484
 30
0.0
  0
VERTEX
  5
5477
  8
FUTO
 10
15567.69475921965
 20
15247.568473607331
 30
0.0
 42
-0.3888787318529887
  0
VERTEX
  5
5478
  8
FUTO
 10
15564.043382190641
 20
15251.55325239969
 30
0.0
  0
VERTEX
  5
5479
  8
FUTO
 10
15564.043382190641
 20
15254.891440977861
 30
0.0
  0
VERTEX
  5
547A
  8
FUTO
 10
15639.043382190641
 20
15254.891440977861
 30
0.0
  0
VERTEX
  5
547B
  8
FUTO
 10
15639.043382190641
 20
15104.891440977861
 30
0.0
  0
SEQEND
  5
547C
  8
FUTO
  0
LINE
  5
1840
  8
FUTO
 10
12027.099970152
 20
19732.591577699492
 30
0.0
 11
12027.099970152
 21
18823.591577699492
 31
0.0
  0
LINE
  5
1841
  8
FUTO
 10
12102.099970152
 20
19732.591577699492
 30
0.0
 11
12102.099970152
 21
18823.591577699492
 31
0.0
  0
LINE
  5
1FF1
  8
FUTO
 10
16711.243382190631
 20
17639.891440977859
 30
0.0
 11
16711.243382190642
 21
16153.891440977861
 31
0.0
  0
LINE
  5
1FF2
  8
FUTO
 10
16711.243382190642
 20
16135.891440977861
 30
0.0
 11
16711.243382190642
 21
15254.891440977861
 31
0.0
  0
LINE
  5
1FF3
  8
KL
 10
16711.243382190642
 20
15254.891440977861
 30
0.0
 11
16711.243382190642
 21
15141.98647790836
 31
0.0
  0
LINE
  5
1FF5
  8
FUTO
 10
16786.243382190642
 20
17639.891440977859
 30
0.0
 11
16786.243382190642
 21
15254.891440977861
 31
0.0
  0
DIMENSION
  5
2003
  8
FUTO
  2
*D5
 10
16790.043382190641
 20
14686.8575187359
 30
0.0
 11
15690.043382190641
 21
14746.8575187359
 31
0.0
 70
     0
 13
14590.043382190641
 23
15104.891440977861
 33
0.0
 14
16790.043382190641
 24
15104.891440977861
 34
0.0
1001
ACAD
1000
DSTYLE
1002
{
1070
    40
1040
30.0
1070
   176
1070
     2
1070
   177
1070
     2
1070
   178
1070
     2
1070
   341
1005
44D5
1070
     5
1000
OPEN30
1002
}
  0
LINE
  5
25BB
  8
CT
 10
11602.099970152
 20
19340.264846420559
 30
0.0
 11
11602.099970152
 21
19338.205716089378
 31
0.0
  0
TEXT
  5
29E7
  8
SP
 10
9149.8042194081445
 20
6129.2813767066364
 30
0.0
 40
100.0
  1
 
  0
LINE
  5
3207
  8
FUTO
 10
16711.318800851732
 20
15187.79157714454
 30
0.0
 11
16854.518800851729
 21
15187.79157714457
 31
0.0
  0
LINE
  5
3208
  8
FUTO
 10
16711.318800851739
 20
15153.79157714454
 30
0.0
 11
16854.51880085174
 21
15153.791577144581
 31
0.0
  0
LINE
  5
320D
  8
FUTO
 10
16854.518800851751
 20
15148.791577144581
 30
0.0
 11
16884.518800851751
 21
15148.791577144581
 31
0.0
  0
LINE
  5
320E
  8
FUTO
 10
16854.518800851729
 20
15192.791577144581
 30
0.0
 11
16884.518800851729
 21
15192.791577144581
 31
0.0
  0
LINE
  5
320F
  8
FUTO
 10
16854.518800851729
 20
15192.791577144581
 30
0.0
 11
16854.51880085174
 21
15148.791577144581
 31
0.0
  0
LINE
  5
3210
  8
FUTO
 10
16884.518800851729
 20
15192.791577144581
 30
0.0
 11
16884.518800851751
 21
15148.791577144581
 31
0.0
  0
LINE
  5
3235
  8
FUTO
 10
12812.59622933581
 20
15936.28184012294
 30
0.0
 11
12789.84583275554
 21
15943.76982502397
 31
0.0
  0
LINE
  5
3236
  8
FUTO
 10
12773.516522329561
 20
15817.54778224439
 30
0.0
 11
12747.216827331669
 21
15826.20397064757
 31
0.0
  0
LINE
  5
3237
  8
FUTO
 10
12818.968577405591
 20
15923.65673893215
 30
0.0
 11
12786.14162352034
 21
15823.92013031418
 31
0.0
  0
ARC
  5
3238
  8
FUTO
 10
12809.46985277531
 20
15926.78311549265
 30
0.0
 40
10.0
 50
341.78173999721008
 51
71.781739997210067
  0
ARC
  5
3239
  8
FUTO
 10
12776.642898890061
 20
15827.046506874671
 30
0.0
 40
10.0
 50
251.78173999721
 51
341.78173999721008
  0
LINE
  5
323A
  8
FUTO
 10
12815.72260589631
 20
15945.78056475322
 30
0.0
 11
12792.77322618703
 21
15953.33404225612
 31
0.0
  0
ARC
  5
323B
  8
FUTO
 10
12809.46985277531
 20
15926.78311549265
 30
0.0
 40
20.0
 50
341.78173999721008
 51
71.781739997210067
  0
LINE
  5
323C
  8
FUTO
 10
12828.46730203588
 20
15920.53036237165
 30
0.0
 11
12795.64034815063
 21
15820.793753753671
 31
0.0
  0
ARC
  5
323D
  8
FUTO
 10
12776.642898890061
 20
15827.046506874671
 30
0.0
 40
20.0
 50
251.78173999721
 51
341.78173999721008
  0
LINE
  5
323E
  8
FUTO
 10
12770.390145769061
 20
15808.049057614109
 30
0.0
 11
12743.321999216119
 21
15816.95817143866
 31
0.0
  0
LINE
  5
3241
  8
CT
 10
12854.036413797139
 20
15856.84405760664
 30
0.0
 11
12670.985628353859
 21
15917.09274437943
 31
0.0
  0
DIMENSION
  5
393B
  8
FUTO
  2
*D6
 10
16790.043382190641
 20
14868.187959993489
 30
0.0
 11
16484.043382190641
 21
14928.187959993489
 31
0.0
 70
     0
 13
16178.043382190641
 23
15104.891440977861
 33
0.0
 14
16790.043382190641
 24
15104.891440977861
 34
0.0
1001
ACAD
1000
DSTYLE
1002
{
1070
    40
1040
30.0
1070
   176
1070
     2
1070
   177
1070
     2
1070
   178
1070
     2
1070
   341
1005
44D5
1070
     5
1000
OPEN30
1002
}
  0
DIMENSION
  5
3948
  8
FUTO
  2
*D7
 10
14590.043382190641
 20
14868.19320091609
 30
0.0
 11
15384.043382190641
 21
14928.19320091609
 31
0.0
 70
     0
 13
16178.043382190641
 23
15104.891440977861
 33
0.0
 14
14590.043382190641
 24
15104.891440977861
 34
0.0
1001
ACAD
1000
DSTYLE
1002
{
1070
    40
1040
30.0
1070
   176
1070
     2
1070
   177
1070
     2
1070
   178
1070
     2
1070
   341
1005
44D5
1070
     5
1000
OPEN30
1002
}
  0
POLYLINE
  5
3949
  8
FUTO
 66
     1
 10
0.0
 20
0.0
 30
0.0
  0
VERTEX
  5
5498
  8
FUTO
 10
15568.043382190641
 20
15254.891440977861
 30
0.0
  0
VERTEX
  5
5499
  8
FUTO
 10
15643.043382190641
 20
15254.891440977861
 30
0.0
  0
SEQEND
  5
549A
  8
FUTO
  0
LINE
  5
3AE6
  8
FUTO
 10
14651.543382190641
 20
16036.891440977861
 30
0.0
 11
14651.543382190641
 21
15254.891440977861
 31
0.0
  0
LINE
  5
3AE7
  8
FUTO
 10
14651.543382190641
 20
16036.891440977861
 30
0.0
 11
14661.543382190641
 21
16036.891440977861
 31
0.0
  0
LINE
  5
3AE8
  8
FUTO
 10
14661.543382190641
 20
16036.891440977861
 30
0.0
 11
14661.543382190641
 21
16026.891440977861
 31
0.0
  0
LINE
  5
3AEA
  8
FUTO
 10
14661.543382190641
 20
16026.891440977861
 30
0.0
 11
15568.543382190641
 21
16026.891440977861
 31
0.0
  0
LINE
  5
3B39
  8
FUTO
 10
14772.043382190641
 20
16081.891440977861
 30
0.0
 11
14684.043382190641
 21
16081.891440977861
 31
0.0
  0
LINE
  5
3B3A
  8
FUTO
 10
14673.043382190641
 20
16044.891440977861
 30
0.0
 11
14783.043382190641
 21
16044.891440977861
 31
0.0
  0
LINE
  5
3B3B
  8
FUTO
 10
14778.043382190641
 20
16237.891440977861
 30
0.0
 11
14678.043382190641
 21
16237.891440977861
 31
0.0
  0
LINE
  5
3B3C
  8
FUTO
 10
14678.043382190641
 20
16237.891440977861
 30
0.0
 11
14678.043382190641
 21
16044.891440977861
 31
0.0
  0
LINE
  5
3B3D
  8
FUTO
 10
14657.543382190641
 20
16219.891440977861
 30
0.0
 11
14657.543382190641
 21
16069.891440977861
 31
0.0
  0
LINE
  5
3B3E
  8
FUTO
 10
14663.043382190641
 20
16228.891440977861
 30
0.0
 11
14663.043382190641
 21
16060.891440977861
 31
0.0
  0
LINE
  5
3B40
  8
FUTO
 10
14657.543382190641
 20
16069.891440977861
 30
0.0
 11
14663.043382190641
 21
16069.891440977861
 31
0.0
  0
ARC
  5
3B41
  8
FUTO
 10
14684.043382190641
 20
16075.891440977861
 30
0.0
 40
6.0
 50
90.0
 51
180.0
  0
LINE
  5
3B42
  8
FUTO
 10
14669.043382190641
 20
16054.891440977861
 30
0.0
 11
14678.043382190641
 21
16054.891440977861
 31
0.0
  0
ARC
  5
3B43
  8
FUTO
 10
14669.043382190641
 20
16060.891440977861
 30
0.0
 40
6.0
 50
180.0
 51
270.0
  0
LINE
  5
3B44
  8
FUTO
 10
14663.043382190641
 20
16219.891440977861
 30
0.0
 11
14657.543382190641
 21
16219.891440977861
 31
0.0
  0
ARC
  5
3B45
  8
FUTO
 10
14669.043382190641
 20
16228.891440977861
 30
0.0
 40
6.0
 50
90.0
 51
180.0
  0
LINE
  5
3B46
  8
FUTO
 10
14678.043382190641
 20
16234.891440977861
 30
0.0
 11
14669.043382190641
 21
16234.891440977861
 31
0.0
  0
LINE
  5
3B47
  8
FUTO
 10
14778.043382190641
 20
16044.891440977861
 30
0.0
 11
14778.043382190641
 21
16237.891440977861
 31
0.0
  0
LINE
  5
3B48
  8
FUTO
 10
14793.043382190641
 20
16228.891440977861
 30
0.0
 11
14793.043382190641
 21
16060.891440977861
 31
0.0
  0
LINE
  5
3B49
  8
FUTO
 10
14798.543382190641
 20
16219.891440977861
 30
0.0
 11
14798.543382190641
 21
16069.891440977861
 31
0.0
  0
LINE
  5
3B4A
  8
FUTO
 10
14787.043382190641
 20
16054.891440977861
 30
0.0
 11
14778.043382190641
 21
16054.891440977861
 31
0.0
  0
ARC
  5
3B4B
  8
FUTO
 10
14772.043382190641
 20
16075.891440977861
 30
0.0
 40
6.0
 50
0.0
 51
90.0
  0
ARC
  5
3B4C
  8
FUTO
 10
14787.043382190641
 20
16060.891440977861
 30
0.0
 40
6.0
 50
270.0
 51
0.0
  0
LINE
  5
3B4D
  8
FUTO
 10
14798.543382190641
 20
16069.891440977861
 30
0.0
 11
14793.043382190641
 21
16069.891440977861
 31
0.0
  0
LINE
  5
3B4E
  8
FUTO
 10
14778.043382190641
 20
16234.891440977861
 30
0.0
 11
14787.043382190641
 21
16234.891440977861
 31
0.0
  0
ARC
  5
3B4F
  8
FUTO
 10
14787.043382190641
 20
16228.891440977861
 30
0.0
 40
6.0
 50
0.0
 51
90.0
  0
LINE
  5
3B50
  8
FUTO
 10
14793.043382190641
 20
16219.891440977861
 30
0.0
 11
14798.543382190641
 21
16219.891440977861
 31
0.0
  0
LINE
  5
3B51
  8
FUTO
 10
14673.043382190641
 20
16044.891440977861
 30
0.0
 11
14673.043382190641
 21
16026.891440977861
 31
0.0
  0
LINE
  5
3B52
  8
FUTO
 10
14783.043382190641
 20
16044.891440977861
 30
0.0
 11
14783.043382190641
 21
16026.891440977861
 31
0.0
  0
LINE
  5
3BBC
  8
FUTO
 10
15504.543382190641
 20
16248.891440977861
 30
0.0
 11
15371.543382190641
 21
16248.891440977861
 31
0.0
  0
LINE
  5
3BBD
  8
FUTO
 10
15487.043382190641
 20
16068.891440977861
 30
0.0
 11
15389.043382190641
 21
16068.891440977861
 31
0.0
  0
LINE
  5
3BBE
  8
FUTO
 10
15373.043382190641
 20
16032.891440977861
 30
0.0
 11
15503.043382190641
 21
16032.891440977861
 31
0.0
  0
LINE
  5
3BC0
  8
FUTO
 10
15383.043382190641
 20
16248.891440977861
 30
0.0
 11
15383.043382190641
 21
16032.891440977861
 31
0.0
  0
LINE
  5
3BC1
  8
FUTO
 10
15360.543382190641
 20
16234.891440977861
 30
0.0
 11
15360.543382190641
 21
16054.891440977861
 31
0.0
  0
LINE
  5
3BC2
  8
FUTO
 10
15365.543382190641
 20
16242.891440977861
 30
0.0
 11
15365.543382190641
 21
16046.891440977861
 31
0.0
  0
LINE
  5
3BC3
  8
FUTO
 10
15360.543382190641
 20
16054.891440977861
 30
0.0
 11
15365.543382190641
 21
16054.891440977861
 31
0.0
  0
ARC
  5
3BC4
  8
FUTO
 10
15389.043382190641
 20
16062.891440977861
 30
0.0
 40
6.0
 50
90.0
 51
180.0
  0
LINE
  5
3BC5
  8
FUTO
 10
15371.543382190641
 20
16040.891440977861
 30
0.0
 11
15383.043382190641
 21
16040.891440977861
 31
0.0
  0
ARC
  5
3BC6
  8
FUTO
 10
15371.543382190641
 20
16046.891440977861
 30
0.0
 40
6.0
 50
180.0
 51
270.0
  0
LINE
  5
3BC7
  8
FUTO
 10
15365.543382190641
 20
16234.891440977861
 30
0.0
 11
15360.543382190641
 21
16234.891440977861
 31
0.0
  0
ARC
  5
3BC8
  8
FUTO
 10
15371.543382190641
 20
16242.891440977861
 30
0.0
 40
6.0
 50
90.0
 51
180.0
  0
LINE
  5
3BC9
  8
FUTO
 10
15493.043382190641
 20
16248.891440977861
 30
0.0
 11
15493.043382190641
 21
16032.891440977861
 31
0.0
  0
LINE
  5
3BCA
  8
FUTO
 10
15510.543382190641
 20
16242.891440977861
 30
0.0
 11
15510.543382190641
 21
16046.891440977861
 31
0.0
  0
LINE
  5
3BCB
  8
FUTO
 10
15515.543382190641
 20
16234.891440977861
 30
0.0
 11
15515.543382190641
 21
16054.891440977861
 31
0.0
  0
ARC
  5
3BCC
  8
FUTO
 10
15487.043382190641
 20
16062.891440977861
 30
0.0
 40
6.0
 50
0.0
 51
90.0
  0
LINE
  5
3BCD
  8
FUTO
 10
15504.543382190641
 20
16040.891440977861
 30
0.0
 11
15493.043382190641
 21
16040.891440977861
 31
0.0
  0
ARC
  5
3BCE
  8
FUTO
 10
15504.543382190641
 20
16046.891440977861
 30
0.0
 40
6.0
 50
270.0
 51
0.0
  0
LINE
  5
3BCF
  8
FUTO
 10
15515.543382190641
 20
16054.891440977861
 30
0.0
 11
15510.543382190641
 21
16054.891440977861
 31
0.0
  0
ARC
  5
3BD0
  8
FUTO
 10
15504.543382190641
 20
16242.891440977861
 30
0.0
 40
6.0
 50
0.0
 51
90.0
  0
LINE
  5
3BD1
  8
FUTO
 10
15510.543382190641
 20
16234.891440977861
 30
0.0
 11
15515.543382190641
 21
16234.891440977861
 31
0.0
  0
LINE
  5
3C31
  8
SL
 10
14842.28539941013
 20
16271.59034400901
 30
0.0
 11
15307.561812295729
 21
16271.59034400901
 31
0.0
  0
LINE
  5
3C32
  8
FUTO
 10
15373.043382190641
 20
16032.891440977861
 30
0.0
 11
15373.043382190641
 21
16026.891440977861
 31
0.0
  0
LINE
  5
3C33
  8
FUTO
 10
15503.043382190641
 20
16032.891440977861
 30
0.0
 11
15503.043382190641
 21
16026.891440977861
 31
0.0
  0
DIMENSION
  5
3C4B
  8
SP
  2
*D9
 10
16178.043382190641
 20
17967.43787326145
 30
0.0
 11
15268.043382190641
 21
18027.43787326145
 31
0.0
 70
     0
 13
14358.043382190641
 23
16524.891440977859
 33
0.0
 14
16178.043382190641
 24
17843.050778920791
 34
0.0
1001
ACAD
1000
DSTYLE
1002
{
1070
    40
1040
30.0
1070
   176
1070
     2
1070
   177
1070
     2
1070
   178
1070
     2
1070
   341
1005
44D5
1070
     5
1000
OPEN30
1002
}
  0
LINE
  5
3C62
  8
SL
 10
14842.28539941013
 20
16271.59034400901
 30
0.0
 11
14842.28539941013
 21
16016.891440977861
 31
0.0
  0
LINE
  5
3C63
  8
SL
 10
15307.561812295729
 20
16271.59034400901
 30
0.0
 11
15307.561812295729
 21
16016.891440977861
 31
0.0
  0
LINE
  5
3C79
  8
FUTO
 10
11557.099970152
 20
18963.591577699492
 30
0.0
 11
11557.099970152
 21
19532.591577699492
 31
0.0
  0
LINE
  5
3C7A
  8
FUTO
 10
11647.099970152
 20
18963.591577699492
 30
0.0
 11
11647.099970152
 21
19532.591577699492
 31
0.0
  0
LINE
  5
3C7B
  8
FUTO
 10
11222.099970152
 20
18523.591577699492
 30
0.0
 11
13022.099970152
 21
18523.591577699492
 31
0.0
  0
LINE
  5
3C7D
  8
SL
 10
11352.099970152
 20
18711.491577699489
 30
0.0
 11
12908.099970152
 21
18711.491577699489
 31
0.0
  0
LINE
  5
3C7E
  8
SL
 10
11352.099970152
 20
18633.591577699492
 30
0.0
 11
12908.099970152
 21
18633.591577699492
 31
0.0
  0
LINE
  5
3C7F
  8
CT
 10
11483.596473191879
 20
18893.591577699492
 30
0.0
 11
11764.93060193871
 21
18893.591577699492
 31
0.0
  0
LINE
  5
3C80
  8
CT
 10
12802.099970152
 20
18486.634848178779
 30
0.0
 11
12802.099970152
 21
18789.453531290219
 31
0.0
  0
LINE
  5
3C81
  8
SL
 10
12696.099970152
 20
18633.591577699492
 30
0.0
 11
12696.099970152
 21
18711.491577699489
 31
0.0
  0
LINE
  5
3C82
  8
SL
 10
12908.099970152
 20
18633.591577699492
 30
0.0
 11
12908.099970152
 21
18711.491577699489
 31
0.0
  0
LINE
  5
3C83
  8
FUTO
 10
12855.04254387621
 20
18778.591577699492
 30
0.0
 11
13022.099970152
 21
18778.591577699492
 31
0.0
  0
LINE
  5
3C84
  8
SL
 10
12742.099970152
 20
18726.591577699492
 30
0.0
 11
12862.099970152
 21
18726.591577699492
 31
0.0
  0
LINE
  5
3C85
  8
SL
 10
12742.099970152
 20
18711.491577699489
 30
0.0
 11
12742.099970152
 21
18726.591577699492
 31
0.0
  0
LINE
  5
3C86
  8
SL
 10
12862.099970152
 20
18711.491577699489
 30
0.0
 11
12862.099970152
 21
18726.591577699492
 31
0.0
  0
LINE
  5
3C87
  8
SL
 10
11852.099970152
 20
18633.591577699492
 30
0.0
 11
11852.099970152
 21
18711.491577699489
 31
0.0
  0
LINE
  5
3C88
  8
FUTO
 10
11509.099970152
 20
18943.591577699492
 30
0.0
 11
11509.099970152
 21
18843.591577699492
 31
0.0
  0
LINE
  5
3C8B
  8
FUTO
 10
11222.099970152
 20
18778.591577699492
 30
0.0
 11
11448.409600246279
 21
18778.591577699492
 31
0.0
  0
LINE
  5
3C8C
  8
SL
 10
11352.099970152
 20
18633.591577699492
 30
0.0
 11
11352.099970152
 21
18711.491577699489
 31
0.0
  0
LINE
  5
3C8D
  8
FUTO
 10
11559.599970152
 20
18733.591577699492
 30
0.0
 11
11559.599970152
 21
18823.091577699492
 31
0.0
  0
LINE
  5
3C8E
  8
FUTO
 10
11644.599970152
 20
18733.591577699492
 30
0.0
 11
11644.599970152
 21
18823.091577699492
 31
0.0
  0
LINE
  5
3C8F
  8
SL
 10
11522.099970152
 20
18711.491577699489
 30
0.0
 11
11522.099970152
 21
18733.591577699492
 31
0.0
  0
LINE
  5
3C90
  8
SL
 10
11682.099970152
 20
18711.491577699489
 30
0.0
 11
11682.099970152
 21
18733.591577699492
 31
0.0
  0
LINE
  5
3C91
  8
SL
 10
11522.099970152
 20
18733.591577699492
 30
0.0
 11
11682.099970152
 21
18733.591577699492
 31
0.0
  0
LINE
  5
3C94
  8
FUTO
 10
11512.099970152
 20
18843.591577699492
 30
0.0
 11
11512.099970152
 21
18834.591577699492
 31
0.0
  0
ARC
  5
3C95
  8
FUTO
 10
11518.099970152
 20
18834.591577699492
 30
0.0
 40
6.0
 50
180.0
 51
270.0
  0
LINE
  5
3C96
  8
FUTO
 10
11527.099970152
 20
18828.591577699492
 30
0.0
 11
11527.099970152
 21
18823.091577699492
 31
0.0
  0
ARC
  5
3C97
  8
FUTO
 10
11686.099970152
 20
18834.591577699492
 30
0.0
 40
6.0
 50
270.0
 51
0.000000000000007
  0
LINE
  5
3C98
  8
FUTO
 10
11692.099970152
 20
18834.591577699492
 30
0.0
 11
11692.099970152
 21
18843.591577699492
 31
0.0
  0
LINE
  5
3C9A
  8
FUTO
 10
11677.099970152
 20
18823.091577699492
 30
0.0
 11
11677.099970152
 21
18828.591577699492
 31
0.0
  0
LINE
  5
3C9B
  8
FUTO
 10
11518.099970152
 20
18828.591577699492
 30
0.0
 11
11686.099970152
 21
18828.591577699492
 31
0.0
  0
LINE
  5
3C9C
  8
FUTO
 10
11527.099970152
 20
18823.091577699492
 30
0.0
 11
11677.099970152
 21
18823.091577699492
 31
0.0
  0
LINE
  5
3C9D
  8
FUTO
 10
11509.099970152
 20
18843.591577699492
 30
0.0
 11
11695.099970152
 21
18843.591577699492
 31
0.0
  0
LINE
  5
3C9F
  8
FUTO
 10
11222.099970152
 20
18523.591577699492
 30
0.0
 11
11222.099970152
 21
18778.591577699492
 31
0.0
  0
POINT
  5
3CA0
  8
DEFPOINTS
 10
11222.099970152
 20
18523.591577699492
 30
0.0
  0
LINE
  5
3CA3
  8
FUTO
 10
11527.099970152
 20
18958.591577699492
 30
0.0
 11
11527.099970152
 21
18964.091577699492
 31
0.0
  0
ARC
  5
3CA4
  8
FUTO
 10
11518.099970152
 20
18952.591577699492
 30
0.0
 40
6.0
 50
90.0
 51
180.0
  0
LINE
  5
3CA5
  8
FUTO
 10
11512.099970152
 20
18943.591577699492
 30
0.0
 11
11512.099970152
 21
18952.591577699492
 31
0.0
  0
LINE
  5
3CA6
  8
FUTO
 10
11677.099970152
 20
18964.091577699492
 30
0.0
 11
11677.099970152
 21
18958.591577699492
 31
0.0
  0
ARC
  5
3CA7
  8
FUTO
 10
11686.099970152
 20
18952.591577699492
 30
0.0
 40
6.0
 50
0.000000000000007
 51
90.0
  0
LINE
  5
3CA9
  8
FUTO
 10
11692.099970152
 20
18952.591577699492
 30
0.0
 11
11692.099970152
 21
18943.591577699492
 31
0.0
  0
LINE
  5
3CAA
  8
FUTO
 10
11527.099970152
 20
18964.091577699492
 30
0.0
 11
11677.099970152
 21
18964.091577699492
 31
0.0
  0
LINE
  5
3CAB
  8
FUTO
 10
11518.099970152
 20
18958.591577699492
 30
0.0
 11
11686.099970152
 21
18958.591577699492
 31
0.0
  0
LINE
  5
3CAC
  8
FUTO
 10
11695.099970152
 20
18943.591577699492
 30
0.0
 11
11509.099970152
 21
18943.591577699492
 31
0.0
  0
LINE
  5
3CAF
  8
FUTO
 10
10852.099970152
 20
20977.591577699492
 30
0.0
 11
12352.099970152
 21
20977.591577699492
 31
0.0
  0
LINE
  5
3CB0
  8
FUTO
 10
10852.099970152
 20
20971.591577699492
 30
0.0
 11
12352.099970152
 21
20971.591577699492
 31
0.0
  0
LINE
  5
3CB1
  8
KL
 10
11611.099970152
 20
20882.791577699489
 30
0.0
 11
12352.099970152
 21
20882.791577699489
 31
0.0
  0
LINE
  5
3CB5
  8
KL
 10
10897.78722784297
 20
20879.591577699492
 30
0.0
 11
12306.41271246103
 21
20879.591577699492
 31
0.0
  0
LINE
  5
3CB9
  8
CT
 10
11483.596473191879
 20
19603.591577699492
 30
0.0
 11
11787.26413336716
 21
19603.591577699492
 31
0.0
  0
LINE
  5
3CBA
  8
KL
 10
12302.099970152
 20
20876.7915776995
 30
0.0
 11
12302.099970152
 21
20977.591577699492
 31
0.0
  0
LINE
  5
3CBB
  8
KL
 10
12308.099970152
 20
20882.791577699489
 30
0.0
 11
12308.099970152
 21
20951.791577699489
 31
0.0
  0
LINE
  5
3CBC
  8
KL
 10
12352.099970152
 20
20876.7915776995
 30
0.0
 11
12352.099970152
 21
20882.791577699489
 31
0.0
  0
LINE
  5
3CBD
  8
CT
 10
12334.599970152
 20
20844.306880104388
 30
0.0
 11
12334.599970152
 21
20901.349613236431
 31
0.0
  0
LINE
  5
3CBE
  8
FUTO
 10
12352.099970152
 20
20971.591577699492
 30
0.0
 11
12352.099970152
 21
20977.591577699492
 31
0.0
  0
LINE
  5
3CBF
  8
CT
 10
12334.599970152
 20
20948.47184278685
 30
0.0
 11
12334.599970152
 21
21008.614696540732
 31
0.0
  0
LINE
  5
3CC0
  8
FUTO
 10
12308.099970152
 20
20951.791577699489
 30
0.0
 11
12308.099970152
 21
20971.591577699492
 31
0.0
  0
LINE
  5
3CC7
  8
FUTO
 10
11498.099970152
 20
19670.091577699492
 30
0.0
 11
11498.099970152
 21
19537.091577699492
 31
0.0
  0
ARC
  5
3CCA
  8
FUTO
 10
11504.099970152
 20
19537.091577699492
 30
0.0
 40
6.0
 50
180.0
 51
270.0
  0
LINE
  5
3CCB
  8
FUTO
 10
11512.099970152
 20
19531.091577699492
 30
0.0
 11
11512.099970152
 21
19526.091577699492
 31
0.0
  0
ARC
  5
3CCC
  8
FUTO
 10
11700.099970152
 20
19537.091577699492
 30
0.0
 40
6.0
 50
270.0
 51
0.000000000000007
  0
LINE
  5
3CCD
  8
FUTO
 10
11706.099970152
 20
19537.091577699492
 30
0.0
 11
11706.099970152
 21
19548.591577699492
 31
0.0
  0
LINE
  5
3CCF
  8
FUTO
 10
11692.099970152
 20
19526.091577699492
 30
0.0
 11
11692.099970152
 21
19531.091577699492
 31
0.0
  0
LINE
  5
3CD0
  8
FUTO
 10
11504.099970152
 20
19531.091577699492
 30
0.0
 11
11700.099970152
 21
19531.091577699492
 31
0.0
  0
LINE
  5
3CD1
  8
FUTO
 10
11512.099970152
 20
19526.091577699492
 30
0.0
 11
11692.099970152
 21
19526.091577699492
 31
0.0
  0
LINE
  5
3CD2
  8
FUTO
 10
11498.099970152
 20
19548.591577699492
 30
0.0
 11
11706.099970152
 21
19548.591577699492
 31
0.0
  0
LINE
  5
3CD4
  8
FUTO
 10
11512.099970152
 20
19676.091577699492
 30
0.0
 11
11512.099970152
 21
19681.091577699492
 31
0.0
  0
ARC
  5
3CD5
  8
FUTO
 10
11504.099970152
 20
19670.091577699492
 30
0.0
 40
6.0
 50
90.0
 51
180.0
  0
LINE
  5
3CD6
  8
FUTO
 10
11692.099970152
 20
19681.091577699492
 30
0.0
 11
11692.099970152
 21
19676.091577699492
 31
0.0
  0
ARC
  5
3CD7
  8
FUTO
 10
11700.099970152
 20
19670.091577699492
 30
0.0
 40
6.0
 50
0.000000000000007
 51
90.0
  0
LINE
  5
3CD8
  8
FUTO
 10
11706.099970152
 20
19670.091577699492
 30
0.0
 11
11706.099970152
 21
19658.591577699492
 31
0.0
  0
LINE
  5
3CDA
  8
FUTO
 10
11512.099970152
 20
19681.091577699492
 30
0.0
 11
11692.099970152
 21
19681.091577699492
 31
0.0
  0
LINE
  5
3CDB
  8
FUTO
 10
11504.099970152
 20
19676.091577699492
 30
0.0
 11
11700.099970152
 21
19676.091577699492
 31
0.0
  0
LINE
  5
3CDC
  8
FUTO
 10
11498.099970152
 20
19658.591577699492
 30
0.0
 11
11706.099970152
 21
19658.591577699492
 31
0.0
  0
LINE
  5
3CDD
  8
FUTO
 10
11647.099970152
 20
19672.591577699492
 30
0.0
 11
11647.099970152
 21
19735.391577699491
 31
0.0
  0
LINE
  5
3CDE
  8
FUTO
 10
11557.099970152
 20
19672.591577699492
 30
0.0
 11
11557.099970152
 21
19734.091577699492
 31
0.0
  0
LINE
  5
3CE2
  8
KL
 10
10852.099970152
 20
20882.791577699489
 30
0.0
 11
11593.099970152
 21
20882.791577699489
 31
0.0
  0
INSERT
  5
3CE3
  8
FUTO
  2
まっすぐの矢印
 10
11045.84808183202
 20
21039.438358388899
 30
0.0
 41
-2.0
 42
2.0
 43
2.0
 50
180.0
  0
LINE
  5
3CE4
  8
KL
 10
10902.099970152
 20
20876.7915776995
 30
0.0
 11
10902.099970152
 21
20977.591577699492
 31
0.0
  0
LINE
  5
3CE5
  8
KL
 10
10896.099970152
 20
20882.791577699489
 30
0.0
 11
10896.099970152
 21
20953.091577699492
 31
0.0
  0
LINE
  5
3CE6
  8
KL
 10
10852.099970152
 20
20876.7915776995
 30
0.0
 11
10852.099970152
 21
20882.791577699489
 31
0.0
  0
LINE
  5
3CE7
  8
CT
 10
10869.599970152
 20
20854.135476455631
 30
0.0
 11
10869.599970152
 21
20896.841114880888
 31
0.0
  0
LINE
  5
3CE8
  8
FUTO
 10
10852.099970152
 20
20971.591577699492
 30
0.0
 11
10852.099970152
 21
20977.591577699492
 31
0.0
  0
LINE
  5
3CE9
  8
CT
 10
10869.599970152
 20
20948.83059043729
 30
0.0
 11
10869.599970152
 21
21000.820065993699
 31
0.0
  0
LINE
  5
3CEA
  8
FUTO
 10
10896.099970152
 20
20953.091577699492
 30
0.0
 11
10896.099970152
 21
20971.591577699492
 31
0.0
  0
LINE
  5
3D2A
  8
FUTO
 10
11706.099970152
 20
19670.091577699492
 30
0.0
 11
11706.099970152
 21
19537.091577699492
 31
0.0
  0
LINE
  5
3D2B
  8
FUTO
 10
11695.099970152
 20
18943.591577699492
 30
0.0
 11
11695.099970152
 21
18843.591577699492
 31
0.0
  0
ARC
  5
4030
  8
FUTO
 10
12802.099970152
 20
18734.591577699492
 30
0.0
 40
9.0
 50
0.000000000000007
 51
180.0
  0
LINE
  5
4031
  8
FUTO
 10
12811.099970152
 20
18633.591577699492
 30
0.0
 11
12811.099970152
 21
18734.591577699492
 31
0.0
  0
LINE
  5
4032
  8
FUTO
 10
12793.099970152
 20
18633.591577699492
 30
0.0
 11
12793.099970152
 21
18734.591577699492
 31
0.0
  0
LINE
  5
4033
  8
FUTO
 10
13059.099909152001
 20
19148.091516699489
 30
0.0
 11
13059.099909152001
 21
19184.091577699492
 31
0.0
  0
LINE
  5
4034
  8
FUTO
 10
13062.099909152001
 20
19148.091516699489
 30
0.0
 11
13062.099909152001
 21
19184.091577699492
 31
0.0
  0
LINE
  5
4035
  8
FUTO
 10
13054.099909152001
 20
19148.091516699489
 30
0.0
 11
13054.099909152001
 21
19195.091577699492
 31
0.0
  0
LINE
  5
4036
  8
FUTO
 10
13012.099970152
 20
18809.091577699492
 30
0.0
 11
13012.099970152
 21
18855.966577699492
 31
0.0
  0
LINE
  5
4037
  8
FUTO
 10
12959.79160514752
 20
18804.091577699492
 30
0.0
 11
13007.099970152
 21
18804.091577699492
 31
0.0
  0
ARC
  5
4038
  8
FUTO
 10
13007.099970152
 20
18809.091577699492
 30
0.0
 40
5.0
 50
270.0
 51
0.000000000000007
  0
LINE
  5
4039
  8
FUTO
 10
12991.78131537043
 20
18855.966577699492
 30
0.0
 11
13012.099970152
 21
18855.966577699492
 31
0.0
  0
LINE
  5
403A
  8
FUTO
 10
13012.099970152
 20
18854.091577699492
 30
0.0
 11
13059.099909152001
 21
18854.091577699492
 31
0.0
  0
LINE
  5
403B
  8
FUTO
 10
13012.099970152
 20
18851.091577699492
 30
0.0
 11
13062.099909152001
 21
18851.091577699492
 31
0.0
  0
LINE
  5
403C
  8
FUTO
 10
12991.89044372028
 20
18859.091577699492
 30
0.0
 11
13054.099909152001
 21
18859.091577699492
 31
0.0
  0
LINE
  5
403D
  8
FUTO
 10
13054.099909152001
 20
18859.091577699492
 30
0.0
 11
13059.099909152001
 21
18854.091577699492
 31
0.0
  0
LINE
  5
403E
  8
FUTO
 10
13087.099909152001
 20
18894.091577699492
 30
0.0
 11
13087.099909152001
 21
18934.091577699492
 31
0.0
  0
LINE
  5
403F
  8
FUTO
 10
13057.099909152001
 20
18894.091577699492
 30
0.0
 11
13057.099909152001
 21
18934.091577699492
 31
0.0
  0
LINE
  5
4040
  8
FUTO
 10
13087.099909152001
 20
18934.091577699492
 30
0.0
 11
13057.099909152001
 21
18934.091577699492
 31
0.0
  0
LINE
  5
4041
  8
FUTO
 10
13057.099909152001
 20
18894.091577699492
 30
0.0
 11
13087.099909152001
 21
18894.091577699492
 31
0.0
  0
LINE
  5
4042
  8
CT
 10
13005.599970152
 20
18914.091577699492
 30
0.0
 11
13173.154352152
 21
18914.091577699492
 31
0.0
  0
LINE
  5
4043
  8
FUTO
 10
13161.554377152001
 20
18931.68142169949
 30
0.0
 11
13149.454401151999
 21
18931.68142169949
 31
0.0
  0
LINE
  5
4044
  8
FUTO
 10
13161.554377152001
 20
18896.50173469949
 30
0.0
 11
13149.454401151999
 21
18896.50173469949
 31
0.0
  0
LINE
  5
4045
  8
FUTO
 10
13161.554377152001
 20
18923.796655699491
 30
0.0
 11
13149.454401151999
 21
18923.796655699491
 31
0.0
  0
LINE
  5
4046
  8
FUTO
 10
13161.554377152001
 20
18904.386499699489
 30
0.0
 11
13149.454401151999
 21
18904.386499699489
 31
0.0
  0
LINE
  5
4047
  8
FUTO
 10
13163.154352152
 20
18930.0818126995
 30
0.0
 11
13163.154352152
 21
18898.10231969949
 31
0.0
  0
LINE
  5
4048
  8
FUTO
 10
13161.554377152001
 20
18896.50173469949
 30
0.0
 11
13163.154352152
 21
18898.10231969949
 31
0.0
  0
LINE
  5
4049
  8
FUTO
 10
13161.554377152001
 20
18904.386499699489
 30
0.0
 11
13163.154352152
 21
18902.786890699492
 31
0.0
  0
LINE
  5
404A
  8
FUTO
 10
13161.554377152001
 20
18904.386499699489
 30
0.0
 11
13163.154352152
 21
18905.987085699489
 31
0.0
  0
LINE
  5
404B
  8
FUTO
 10
13163.154352152
 20
18930.0818126995
 30
0.0
 11
13161.554377152001
 21
18931.68142169949
 31
0.0
  0
LINE
  5
404C
  8
FUTO
 10
13161.554377152001
 20
18923.796655699491
 30
0.0
 11
13163.154352152
 21
18925.397241699491
 31
0.0
  0
LINE
  5
404D
  8
FUTO
 10
13161.554377152001
 20
18923.796655699491
 30
0.0
 11
13163.154352152
 21
18922.19704669949
 31
0.0
  0
LINE
  5
404E
  8
FUTO
 10
13149.454401151999
 20
18931.68142169949
 30
0.0
 11
13149.454401151999
 21
18896.50173469949
 31
0.0
  0
LINE
  5
404F
  8
FUTO
 10
13149.454401151999
 20
18905.091577699492
 30
0.0
 11
13087.099909152001
 21
18905.091577699492
 31
0.0
  0
LINE
  5
4050
  8
HOSO
 10
13087.099909152001
 20
18907.091577699492
 30
0.0
 11
13149.454462152
 21
18907.091577699492
 31
0.0
  0
LINE
  5
4051
  8
HOSO
 10
13149.454401151999
 20
18921.091577699492
 30
0.0
 11
13087.099909152001
 21
18921.091577699492
 31
0.0
  0
LINE
  5
4052
  8
FUTO
 10
13087.099909152001
 20
18923.091577699492
 30
0.0
 11
13149.454462152
 21
18923.091577699492
 31
0.0
  0
LINE
  5
4053
  8
FUTO
 10
13057.099909152001
 20
18905.091577699492
 30
0.0
 11
13005.599970152
 21
18905.091577699492
 31
0.0
  0
LINE
  5
4054
  8
HOSO
 10
13005.599970152
 20
18907.091577699492
 30
0.0
 11
13057.099909152001
 21
18907.091577699492
 31
0.0
  0
LINE
  5
4055
  8
FUTO
 10
13005.599970152
 20
18923.091577699492
 30
0.0
 11
13057.099909152001
 21
18923.091577699492
 31
0.0
  0
LINE
  5
4056
  8
HOSO
 10
13057.099909152001
 20
18921.091577699492
 30
0.0
 11
13005.599970152
 21
18921.091577699492
 31
0.0
  0
LINE
  5
4057
  8
FUTO
 10
13062.099909152001
 20
18851.091577699492
 30
0.0
 11
13062.099909152001
 21
18894.091577699492
 31
0.0
  0
LINE
  5
4058
  8
FUTO
 10
13059.099909152001
 20
18854.091577699492
 30
0.0
 11
13059.099909152001
 21
18894.091577699492
 31
0.0
  0
LINE
  5
4059
  8
FUTO
 10
13054.099909152001
 20
18859.091577699492
 30
0.0
 11
13054.099909152001
 21
18905.091577699492
 31
0.0
  0
LINE
  5
405A
  8
FUTO
 10
13062.099909152001
 20
18934.091577699492
 30
0.0
 11
13062.099909152001
 21
18970.091577699492
 31
0.0
  0
LINE
  5
405B
  8
FUTO
 10
13059.099909152001
 20
18934.091577699492
 30
0.0
 11
13059.099909152001
 21
18970.091577699492
 31
0.0
  0
LINE
  5
405C
  8
FUTO
 10
13054.099909152001
 20
18923.091577699492
 30
0.0
 11
13054.099909152001
 21
18970.091577699492
 31
0.0
  0
LINE
  5
405D
  8
FUTO
 10
13087.099909152001
 20
19195.091577699492
 30
0.0
 11
13149.454462152
 21
19195.091577699492
 31
0.0
  0
LINE
  5
405E
  8
HOSO
 10
13149.454401151999
 20
19197.091577699492
 30
0.0
 11
13087.099909152001
 21
19197.091577699492
 31
0.0
  0
LINE
  5
405F
  8
HOSO
 10
13087.099909152001
 20
19211.091577699492
 30
0.0
 11
13149.454462152
 21
19211.091577699492
 31
0.0
  0
LINE
  5
4060
  8
FUTO
 10
13149.454401151999
 20
19213.091577699492
 30
0.0
 11
13087.099909152001
 21
19213.091577699492
 31
0.0
  0
LINE
  5
4061
  8
FUTO
 10
13149.454401151999
 20
19186.50173369949
 30
0.0
 11
13149.454401151999
 21
19221.68142069949
 31
0.0
  0
LINE
  5
4062
  8
FUTO
 10
13161.554377152001
 20
19194.386499699489
 30
0.0
 11
13163.154352152
 21
19195.98610869949
 31
0.0
  0
LINE
  5
4063
  8
FUTO
 10
13161.554377152001
 20
19194.386499699489
 30
0.0
 11
13163.154352152
 21
19192.785913699488
 31
0.0
  0
LINE
  5
4064
  8
FUTO
 10
13163.154352152
 20
19188.101342699501
 30
0.0
 11
13161.554377152001
 21
19186.50173369949
 31
0.0
  0
LINE
  5
4065
  8
FUTO
 10
13161.554377152001
 20
19213.796655699491
 30
0.0
 11
13163.154352152
 21
19212.19606969949
 31
0.0
  0
LINE
  5
4066
  8
FUTO
 10
13161.554377152001
 20
19213.796655699491
 30
0.0
 11
13163.154352152
 21
19215.396264699491
 31
0.0
  0
LINE
  5
4067
  8
FUTO
 10
13161.554377152001
 20
19221.68142069949
 30
0.0
 11
13163.154352152
 21
19220.080835699489
 31
0.0
  0
LINE
  5
4068
  8
FUTO
 10
13163.154352152
 20
19188.101342699501
 30
0.0
 11
13163.154352152
 21
19220.080835699489
 31
0.0
  0
LINE
  5
4069
  8
FUTO
 10
13161.554377152001
 20
19213.796655699491
 30
0.0
 11
13149.454401151999
 21
19213.796655699491
 31
0.0
  0
LINE
  5
406A
  8
FUTO
 10
13161.554377152001
 20
19194.386499699489
 30
0.0
 11
13149.454401151999
 21
19194.386499699489
 31
0.0
  0
LINE
  5
406B
  8
FUTO
 10
13161.554377152001
 20
19221.68142069949
 30
0.0
 11
13149.454401151999
 21
19221.68142069949
 31
0.0
  0
LINE
  5
406C
  8
FUTO
 10
13161.554377152001
 20
19186.50173369949
 30
0.0
 11
13149.454401151999
 21
19186.50173369949
 31
0.0
  0
LINE
  5
406D
  8
FUTO
 10
13057.099909152001
 20
19224.091577699492
 30
0.0
 11
13087.099909152001
 21
19224.091577699492
 31
0.0
  0
LINE
  5
406E
  8
FUTO
 10
13087.099909152001
 20
19184.091577699492
 30
0.0
 11
13057.099909152001
 21
19184.091577699492
 31
0.0
  0
LINE
  5
406F
  8
FUTO
 10
13057.099909152001
 20
19224.091577699492
 30
0.0
 11
13057.099909152001
 21
19184.091577699492
 31
0.0
  0
LINE
  5
4070
  8
FUTO
 10
13087.099909152001
 20
19224.091577699492
 30
0.0
 11
13087.099909152001
 21
19184.091577699492
 31
0.0
  0
LINE
  5
4071
  8
HOSO
 10
13057.099909152001
 20
19197.091577699492
 30
0.0
 11
13005.599970152
 21
19197.091577699492
 31
0.0
  0
LINE
  5
4072
  8
FUTO
 10
13005.599970152
 20
19195.091577699492
 30
0.0
 11
13057.099909152001
 21
19195.091577699492
 31
0.0
  0
LINE
  5
4073
  8
HOSO
 10
13005.599970152
 20
19211.091577699492
 30
0.0
 11
13057.099909152001
 21
19211.091577699492
 31
0.0
  0
LINE
  5
4074
  8
FUTO
 10
13057.099909152001
 20
19213.091577699492
 30
0.0
 11
13005.599970152
 21
19213.091577699492
 31
0.0
  0
LINE
  5
4075
  8
CT
 10
13005.599970152
 20
19204.091577699492
 30
0.0
 11
13173.154352152
 21
19204.091577699492
 31
0.0
  0
LINE
  5
4076
  8
FUTO
 10
13054.099909152001
 20
19259.091577699492
 30
0.0
 11
13059.099909152001
 21
19264.091577699492
 31
0.0
  0
LINE
  5
4077
  8
FUTO
 10
13012.099970152
 20
19267.091577699492
 30
0.0
 11
13062.099909152001
 21
19267.091577699492
 31
0.0
  0
LINE
  5
4078
  8
FUTO
 10
13012.099970152
 20
19264.091577699492
 30
0.0
 11
13059.099909152001
 21
19264.091577699492
 31
0.0
  0
LINE
  5
4079
  8
FUTO
 10
13005.599970152
 20
19262.216577699492
 30
0.0
 11
13012.099970152
 21
19262.216577699492
 31
0.0
  0
LINE
  5
407A
  8
FUTO
 10
13005.599970152
 20
19259.091577699492
 30
0.0
 11
13054.099909152001
 21
19259.091577699492
 31
0.0
  0
LINE
  5
407B
  8
FUTO
 10
13054.099909152001
 20
19259.091577699492
 30
0.0
 11
13054.099909152001
 21
19213.091577699492
 31
0.0
  0
LINE
  5
407C
  8
FUTO
 10
13059.099909152001
 20
19264.091577699492
 30
0.0
 11
13059.099909152001
 21
19224.091577699492
 31
0.0
  0
LINE
  5
407D
  8
FUTO
 10
13062.099909152001
 20
19267.091577699492
 30
0.0
 11
13062.099909152001
 21
19224.091577699492
 31
0.0
  0
ARC
  5
407E
  8
FUTO
 10
13007.099970152
 20
19309.091577699492
 30
0.0
 40
5.0
 50
0.000000000000007
 51
90.000000000000028
  0
LINE
  5
407F
  8
FUTO
 10
13012.099970152
 20
19309.091577699492
 30
0.0
 11
13012.099970152
 21
19262.216577699492
 31
0.0
  0
LINE
  5
4080
  8
FUTO
 10
12994.599970152
 20
19314.091577699492
 30
0.0
 11
13007.099970152
 21
19314.091577699492
 31
0.0
  0
LINE
  5
4081
  8
CT
 10
12598.599970152
 20
19204.091577699492
 30
0.0
 11
12431.045588151999
 21
19204.091577699492
 31
0.0
  0
LINE
  5
4082
  8
FUTO
 10
12547.100031152
 20
19213.091577699492
 30
0.0
 11
12598.599970152
 21
19213.091577699492
 31
0.0
  0
LINE
  5
4083
  8
HOSO
 10
12598.599970152
 20
19211.091577699492
 30
0.0
 11
12547.100031152
 21
19211.091577699492
 31
0.0
  0
LINE
  5
4084
  8
FUTO
 10
12598.599970152
 20
19195.091577699492
 30
0.0
 11
12547.100031152
 21
19195.091577699492
 31
0.0
  0
LINE
  5
4085
  8
HOSO
 10
12547.100031152
 20
19197.091577699492
 30
0.0
 11
12598.599970152
 21
19197.091577699492
 31
0.0
  0
LINE
  5
4086
  8
FUTO
 10
12517.100031152
 20
19224.091577699492
 30
0.0
 11
12517.100031152
 21
19184.091577699492
 31
0.0
  0
LINE
  5
4087
  8
FUTO
 10
12547.100031152
 20
19224.091577699492
 30
0.0
 11
12547.100031152
 21
19184.091577699492
 31
0.0
  0
LINE
  5
4088
  8
FUTO
 10
12517.100031152
 20
19184.091577699492
 30
0.0
 11
12547.100031152
 21
19184.091577699492
 31
0.0
  0
LINE
  5
4089
  8
FUTO
 10
12547.100031152
 20
19224.091577699492
 30
0.0
 11
12517.100031152
 21
19224.091577699492
 31
0.0
  0
LINE
  5
408A
  8
FUTO
 10
12442.645563152
 20
19186.50173369949
 30
0.0
 11
12454.745539152
 21
19186.50173369949
 31
0.0
  0
LINE
  5
408B
  8
FUTO
 10
12442.645563152
 20
19221.68142069949
 30
0.0
 11
12454.745539152
 21
19221.68142069949
 31
0.0
  0
LINE
  5
408C
  8
FUTO
 10
12442.645563152
 20
19194.386499699489
 30
0.0
 11
12454.745539152
 21
19194.386499699489
 31
0.0
  0
LINE
  5
408D
  8
FUTO
 10
12442.645563152
 20
19213.796655699491
 30
0.0
 11
12454.745539152
 21
19213.796655699491
 31
0.0
  0
LINE
  5
408E
  8
FUTO
 10
12441.045588151999
 20
19188.101342699501
 30
0.0
 11
12441.045588151999
 21
19220.080835699489
 31
0.0
  0
LINE
  5
408F
  8
FUTO
 10
12442.645563152
 20
19221.68142069949
 30
0.0
 11
12441.045588151999
 21
19220.080835699489
 31
0.0
  0
LINE
  5
4090
  8
FUTO
 10
12442.645563152
 20
19213.796655699491
 30
0.0
 11
12441.045588151999
 21
19215.396264699491
 31
0.0
  0
LINE
  5
4091
  8
FUTO
 10
12442.645563152
 20
19213.796655699491
 30
0.0
 11
12441.045588151999
 21
19212.19606969949
 31
0.0
  0
LINE
  5
4092
  8
FUTO
 10
12441.045588151999
 20
19188.101342699501
 30
0.0
 11
12442.645563152
 21
19186.50173369949
 31
0.0
  0
LINE
  5
4093
  8
FUTO
 10
12442.645563152
 20
19194.386499699489
 30
0.0
 11
12441.045588151999
 21
19192.785913699488
 31
0.0
  0
LINE
  5
4094
  8
FUTO
 10
12442.645563152
 20
19194.386499699489
 30
0.0
 11
12441.045588151999
 21
19195.98610869949
 31
0.0
  0
LINE
  5
4095
  8
FUTO
 10
12454.745539152
 20
19186.50173369949
 30
0.0
 11
12454.745539152
 21
19221.68142069949
 31
0.0
  0
LINE
  5
4096
  8
FUTO
 10
12454.745539152
 20
19213.091577699492
 30
0.0
 11
12517.100031152
 21
19213.091577699492
 31
0.0
  0
LINE
  5
4097
  8
HOSO
 10
12517.100031152
 20
19211.091577699492
 30
0.0
 11
12454.745478151999
 21
19211.091577699492
 31
0.0
  0
LINE
  5
4098
  8
HOSO
 10
12454.745539152
 20
19197.091577699492
 30
0.0
 11
12517.100031152
 21
19197.091577699492
 31
0.0
  0
LINE
  5
4099
  8
FUTO
 10
12517.100031152
 20
19195.091577699492
 30
0.0
 11
12454.745478151999
 21
19195.091577699492
 31
0.0
  0
LINE
  5
409A
  8
FUTO
 10
12542.100031152
 20
19267.091577699492
 30
0.0
 11
12542.100031152
 21
19224.091577699492
 31
0.0
  0
LINE
  5
409B
  8
FUTO
 10
12545.100031152
 20
19264.091577699492
 30
0.0
 11
12545.100031152
 21
19224.091577699492
 31
0.0
  0
LINE
  5
409C
  8
FUTO
 10
12550.100031152
 20
19259.091577699492
 30
0.0
 11
12550.100031152
 21
19213.091577699492
 31
0.0
  0
LINE
  5
409D
  8
FUTO
 10
12609.599970152
 20
19314.091577699492
 30
0.0
 11
12597.099970152
 21
19314.091577699492
 31
0.0
  0
LINE
  5
409E
  8
FUTO
 10
12598.599970152
 20
19259.091577699492
 30
0.0
 11
12550.100031152
 21
19259.091577699492
 31
0.0
  0
LINE
  5
409F
  8
FUTO
 10
12598.599970152
 20
19262.216577699492
 30
0.0
 11
12592.099970152
 21
19262.216577699492
 31
0.0
  0
LINE
  5
40A0
  8
FUTO
 10
12592.099970152
 20
19309.091577699492
 30
0.0
 11
12592.099970152
 21
19262.216577699492
 31
0.0
  0
LINE
  5
40A1
  8
FUTO
 10
12592.099970152
 20
19264.091577699492
 30
0.0
 11
12545.100031152
 21
19264.091577699492
 31
0.0
  0
LINE
  5
40A2
  8
FUTO
 10
12592.099970152
 20
19267.091577699492
 30
0.0
 11
12542.100031152
 21
19267.091577699492
 31
0.0
  0
ARC
  5
40A3
  8
FUTO
 10
12597.099970152
 20
19309.091577699492
 30
0.0
 40
5.0
 50
90.000000000000028
 51
180.0
  0
LINE
  5
40A4
  8
FUTO
 10
12550.100031152
 20
19259.091577699492
 30
0.0
 11
12545.100031152
 21
19264.091577699492
 31
0.0
  0
LINE
  5
40A5
  8
FUTO
 10
12612.418624933571
 20
18855.966577699492
 30
0.0
 11
12592.099970152
 21
18855.966577699492
 31
0.0
  0
LINE
  5
40A6
  8
FUTO
 10
12550.100031152
 20
18923.091577699492
 30
0.0
 11
12550.100031152
 21
19195.091577699492
 31
0.0
  0
LINE
  5
40A7
  8
FUTO
 10
12550.100031152
 20
18859.091577699492
 30
0.0
 11
12545.100031152
 21
18854.091577699492
 31
0.0
  0
LINE
  5
40A8
  8
FUTO
 10
12550.100031152
 20
18859.091577699492
 30
0.0
 11
12550.100031152
 21
18905.091577699492
 31
0.0
  0
LINE
  5
40A9
  8
FUTO
 10
12612.309496583721
 20
18859.091577699492
 30
0.0
 11
12550.100031152
 21
18859.091577699492
 31
0.0
  0
ARC
  5
40AA
  8
FUTO
 10
12597.099970152
 20
18809.091577699492
 30
0.0
 40
5.0
 50
180.0
 51
270.0
  0
LINE
  5
40AB
  8
FUTO
 10
12592.099970152
 20
18851.091577699492
 30
0.0
 11
12542.100031152
 21
18851.091577699492
 31
0.0
  0
LINE
  5
40AC
  8
FUTO
 10
12592.099970152
 20
18854.091577699492
 30
0.0
 11
12545.100031152
 21
18854.091577699492
 31
0.0
  0
LINE
  5
40AD
  8
FUTO
 10
12644.40833515648
 20
18804.091577699492
 30
0.0
 11
12597.099970152
 21
18804.091577699492
 31
0.0
  0
LINE
  5
40AE
  8
FUTO
 10
12592.099970152
 20
18809.091577699492
 30
0.0
 11
12592.099970152
 21
18855.966577699492
 31
0.0
  0
LINE
  5
40AF
  8
FUTO
 10
12545.100031152
 20
18934.091577699492
 30
0.0
 11
12545.100031152
 21
19184.091577699492
 31
0.0
  0
LINE
  5
40B0
  8
FUTO
 10
12542.100031152
 20
18934.091577699492
 30
0.0
 11
12542.100031152
 21
19184.091577699492
 31
0.0
  0
LINE
  5
40B1
  8
FUTO
 10
12545.100031152
 20
18854.091577699492
 30
0.0
 11
12545.100031152
 21
18894.091577699492
 31
0.0
  0
LINE
  5
40B2
  8
FUTO
 10
12542.100031152
 20
18851.091577699492
 30
0.0
 11
12542.100031152
 21
18894.091577699492
 31
0.0
  0
LINE
  5
40B3
  8
HOSO
 10
12547.100031152
 20
18921.091577699492
 30
0.0
 11
12598.599970152
 21
18921.091577699492
 31
0.0
  0
LINE
  5
40B4
  8
FUTO
 10
12598.599970152
 20
18923.091577699492
 30
0.0
 11
12547.100031152
 21
18923.091577699492
 31
0.0
  0
LINE
  5
40B5
  8
HOSO
 10
12598.599970152
 20
18907.091577699492
 30
0.0
 11
12547.100031152
 21
18907.091577699492
 31
0.0
  0
LINE
  5
40B6
  8
FUTO
 10
12547.100031152
 20
18905.091577699492
 30
0.0
 11
12598.599970152
 21
18905.091577699492
 31
0.0
  0
LINE
  5
40B7
  8
FUTO
 10
12517.100031152
 20
18923.091577699492
 30
0.0
 11
12454.745478151999
 21
18923.091577699492
 31
0.0
  0
LINE
  5
40B8
  8
HOSO
 10
12454.745539152
 20
18921.091577699492
 30
0.0
 11
12517.100031152
 21
18921.091577699492
 31
0.0
  0
LINE
  5
40B9
  8
HOSO
 10
12517.100031152
 20
18907.091577699492
 30
0.0
 11
12454.745478151999
 21
18907.091577699492
 31
0.0
  0
LINE
  5
40BA
  8
FUTO
 10
12454.745539152
 20
18905.091577699492
 30
0.0
 11
12517.100031152
 21
18905.091577699492
 31
0.0
  0
LINE
  5
40BB
  8
FUTO
 10
12454.745539152
 20
18931.68142169949
 30
0.0
 11
12454.745539152
 21
18896.50173469949
 31
0.0
  0
LINE
  5
40BC
  8
FUTO
 10
12442.645563152
 20
18923.796655699491
 30
0.0
 11
12441.045588151999
 21
18922.19704669949
 31
0.0
  0
LINE
  5
40BD
  8
FUTO
 10
12442.645563152
 20
18923.796655699491
 30
0.0
 11
12441.045588151999
 21
18925.397241699491
 31
0.0
  0
LINE
  5
40BE
  8
FUTO
 10
12441.045588151999
 20
18930.0818126995
 30
0.0
 11
12442.645563152
 21
18931.68142169949
 31
0.0
  0
LINE
  5
40BF
  8
FUTO
 10
12442.645563152
 20
18904.386499699489
 30
0.0
 11
12441.045588151999
 21
18905.987085699489
 31
0.0
  0
LINE
  5
40C0
  8
FUTO
 10
12442.645563152
 20
18904.386499699489
 30
0.0
 11
12441.045588151999
 21
18902.786890699492
 31
0.0
  0
LINE
  5
40C1
  8
FUTO
 10
12442.645563152
 20
18896.50173469949
 30
0.0
 11
12441.045588151999
 21
18898.10231969949
 31
0.0
  0
LINE
  5
40C2
  8
FUTO
 10
12441.045588151999
 20
18930.0818126995
 30
0.0
 11
12441.045588151999
 21
18898.10231969949
 31
0.0
  0
LINE
  5
40C3
  8
FUTO
 10
12442.645563152
 20
18904.386499699489
 30
0.0
 11
12454.745539152
 21
18904.386499699489
 31
0.0
  0
LINE
  5
40C4
  8
FUTO
 10
12442.645563152
 20
18923.796655699491
 30
0.0
 11
12454.745539152
 21
18923.796655699491
 31
0.0
  0
LINE
  5
40C5
  8
FUTO
 10
12442.645563152
 20
18896.50173469949
 30
0.0
 11
12454.745539152
 21
18896.50173469949
 31
0.0
  0
LINE
  5
40C6
  8
FUTO
 10
12442.645563152
 20
18931.68142169949
 30
0.0
 11
12454.745539152
 21
18931.68142169949
 31
0.0
  0
LINE
  5
40C7
  8
CT
 10
12598.599970152
 20
18914.091577699492
 30
0.0
 11
12431.045588151999
 21
18914.091577699492
 31
0.0
  0
LINE
  5
40C8
  8
FUTO
 10
12547.100031152
 20
18894.091577699492
 30
0.0
 11
12517.100031152
 21
18894.091577699492
 31
0.0
  0
LINE
  5
40C9
  8
FUTO
 10
12517.100031152
 20
18934.091577699492
 30
0.0
 11
12547.100031152
 21
18934.091577699492
 31
0.0
  0
LINE
  5
40CA
  8
FUTO
 10
12547.100031152
 20
18894.091577699492
 30
0.0
 11
12547.100031152
 21
18934.091577699492
 31
0.0
  0
LINE
  5
40CB
  8
FUTO
 10
12517.100031152
 20
18894.091577699492
 30
0.0
 11
12517.100031152
 21
18934.091577699492
 31
0.0
  0
ARC
  5
40CC
  8
FUTO
 10
13133.729120152
 20
19121.091516699489
 30
0.0
 40
20.0
 50
0.000000000000007
 51
90.000000000000028
  0
ARC
  5
40CD
  8
FUTO
 10
13133.729120152
 20
18997.091577699492
 30
0.0
 40
20.0
 50
270.0
 51
0.000000000000007
  0
ARC
  5
40CE
  8
FUTO
 10
13143.729120152
 20
18980.091577699492
 30
0.0
 40
10.0
 50
270.0
 51
0.000000000000007
  0
ARC
  5
40CF
  8
FUTO
 10
13143.729120152
 20
19138.091516699489
 30
0.0
 40
10.0
 50
0.000000000000007
 51
90.000000000000028
  0
ARC
  5
40D0
  8
FUTO
 10
13040.872395253111
 20
18980.091577699492
 30
0.0
 40
10.0
 50
180.0
 51
270.0
  0
ARC
  5
40D1
  8
FUTO
 10
13044.039510791439
 20
18980.091577699492
 30
0.0
 40
10.0
 50
180.0
 51
270.0
  0
ARC
  5
40D2
  8
FUTO
 10
13040.872395253111
 20
19138.091516699489
 30
0.0
 40
10.0
 50
90.000000000000028
 51
180.0
  0
ARC
  5
40D3
  8
FUTO
 10
13044.039510791439
 20
19138.091516699489
 30
0.0
 40
10.0
 50
90.000000000000028
 51
180.0
  0
LINE
  5
40D4
  8
FUTO
 10
13041.2361140709
 20
18977.091577699492
 30
0.0
 11
13133.729120152
 21
18977.091577699492
 31
0.0
  0
LINE
  5
40D5
  8
FUTO
 10
13041.2361140709
 20
19141.091516699489
 30
0.0
 11
13133.729120152
 21
19141.091516699489
 31
0.0
  0
ARC
  5
40D6
  8
FUTO
 10
13027.099970152
 20
18982.091577699492
 30
0.0
 40
5.0
 50
180.0
 51
270.0
  0
ARC
  5
40D7
  8
FUTO
 10
13027.099970152
 20
19136.091516699489
 30
0.0
 40
5.0
 50
90.000000000000028
 51
180.0
  0
ARC
  5
40D8
  8
FUTO
 10
13041.2361140709
 20
18982.091577699492
 30
0.0
 40
5.0
 50
180.0
 51
270.0
  0
ARC
  5
40D9
  8
FUTO
 10
13041.2361140709
 20
19136.091516699489
 30
0.0
 40
5.0
 50
90.000000000000028
 51
180.0
  0
LINE
  5
40DA
  8
FUTO
 10
13040.872395253111
 20
18970.091577699492
 30
0.0
 11
13143.729120152
 21
18970.091577699492
 31
0.0
  0
LINE
  5
40DB
  8
FUTO
 10
13027.099970152
 20
18977.091577699492
 30
0.0
 11
13030.872395253111
 21
18977.091577699492
 31
0.0
  0
LINE
  5
40DC
  8
FUTO
 10
13040.872395253111
 20
19148.091516699489
 30
0.0
 11
13143.729120152
 21
19148.091516699489
 31
0.0
  0
LINE
  5
40DD
  8
FUTO
 10
13027.099970152
 20
19141.091516699489
 30
0.0
 11
13030.872395253111
 21
19141.091516699489
 31
0.0
  0
LINE
  5
40DE
  8
FUTO
 10
13005.599970152
 20
19119.091577699492
 30
0.0
 11
13005.599970152
 21
19225.90234844853
 31
0.0
  0
LINE
  5
40DF
  8
FUTO
 10
13022.099970152
 20
18999.091577699492
 30
0.0
 11
12954.37357259182
 21
18999.091577699492
 31
0.0
  0
LINE
  5
40E0
  8
FUTO
 10
13022.099970152
 20
19119.091577699492
 30
0.0
 11
12954.37357259182
 21
19119.091577699492
 31
0.0
  0
LINE
  5
40E1
  8
FUTO
 10
13112.419306152
 20
18997.091577699492
 30
0.0
 11
13112.419306152
 21
19121.091516699489
 31
0.0
  0
LINE
  5
40E2
  8
FUTO
 10
13036.2361140709
 20
18982.091577699492
 30
0.0
 11
13036.2361140709
 21
19136.091516699489
 31
0.0
  0
LINE
  5
40E3
  8
FUTO
 10
13034.039510791439
 20
18980.091577699492
 30
0.0
 11
13034.039510791439
 21
19138.091516699489
 31
0.0
  0
LINE
  5
40E4
  8
FUTO
 10
13030.872395253111
 20
18980.091577699492
 30
0.0
 11
13030.872395253111
 21
19138.091516699489
 31
0.0
  0
LINE
  5
40E5
  8
FUTO
 10
13022.099970152
 20
18982.091577699492
 30
0.0
 11
13022.099970152
 21
19136.091516699489
 31
0.0
  0
LINE
  5
40E6
  8
FUTO
 10
13012.099970152
 20
18999.091577699492
 30
0.0
 11
13012.099970152
 21
19119.091577699492
 31
0.0
  0
LINE
  5
40E7
  8
FUTO
 10
12954.37357259182
 20
18999.091577699492
 30
0.0
 11
12954.37357259182
 21
19119.091577699492
 31
0.0
  0
LINE
  5
40E8
  8
FUTO
 10
13153.729120152
 20
18980.091577699492
 30
0.0
 11
13153.729120152
 21
19138.091516699489
 31
0.0
  0
LINE
  5
40E9
  8
FUTO
 10
12808.349970152
 20
19035.341577699492
 30
0.0
 11
12808.349970152
 21
19082.841577699492
 31
0.0
  0
ARC
  5
40EA
  8
FUTO
 10
12802.099970152
 20
19035.341577699492
 30
0.0
 40
6.25
 50
180.0
 51
0.000000000000007
  0
ARC
  5
40EB
  8
FUTO
 10
12802.099970152
 20
19082.841577699492
 30
0.0
 40
6.25
 50
0.000000000000007
 51
180.0
  0
LINE
  5
40EC
  8
CT
 10
13173.729120152
 20
19059.091577699492
 30
0.0
 11
12522.100031152
 21
19059.091577699492
 31
0.0
  0
LINE
  5
40ED
  8
FUTO
 10
12795.849970152
 20
19035.341577699492
 30
0.0
 11
12795.849970152
 21
19082.841577699492
 31
0.0
  0
LINE
  5
40EE
  8
FUTO
 10
13005.599970152
 20
19225.90234844853
 30
0.0
 11
13003.778193152
 21
19228.091516699489
 31
0.0
  0
LINE
  5
40EF
  8
FUTO
 10
13005.599970152
 20
18892.28066469949
 30
0.0
 11
12999.099970152
 21
18884.469751699489
 31
0.0
  0
LINE
  5
40F0
  8
FUTO
 10
13005.599970152
 20
18892.28066469949
 30
0.0
 11
13005.599970152
 21
18999.091577699492
 31
0.0
  0
LINE
  5
40F1
  8
FUTO
 10
12598.599970152
 20
18892.28066469949
 30
0.0
 11
12598.599970152
 21
19225.90234844853
 31
0.0
  0
ARC
  5
40F2
  8
FUTO
 10
12880.099970152
 20
18785.591577699492
 30
0.0
 40
2.0
 50
270.0
 51
0.000000000000007
  0
ARC
  5
40F3
  8
FUTO
 10
12885.099970152
 20
18795.74465369949
 30
0.0
 40
2.9999599999999988
 50
92.999557000034059
 51
180.0
  0
LINE
  5
40F4
  8
FUTO
 10
12882.099970152
 20
18795.74465369949
 30
0.0
 11
12882.099970152
 21
18785.591577699492
 31
0.0
  0
ARC
  5
40F5
  8
FUTO
 10
12981.195918152
 20
18839.377222699499
 30
0.0
 40
9.9999679999999991
 50
315.0
 51
358.00067100000211
  0
ARC
  5
40F6
  8
FUTO
 10
12954.202754152
 20
18812.384057699499
 30
0.0
 40
10.000024
 50
272.99903899993512
 51
315.0
  0
LINE
  5
40F7
  8
FUTO
 10
12988.266963152
 20
18832.306177699491
 30
0.0
 11
12961.273798152
 21
18805.313013699491
 31
0.0
  0
LINE
  5
40F8
  8
FUTO
 10
12992.099970152
 20
18865.091577699492
 30
0.0
 11
12991.189814152
 21
18839.028345699491
 31
0.0
  0
LINE
  5
40F9
  8
FUTO
 10
12954.725947151999
 20
18802.397729699489
 30
0.0
 11
12866.134638152
 21
18797.754907699491
 31
0.0
  0
LINE
  5
40FA
  8
FUTO
 10
12964.099970152
 20
18875.091577699492
 30
0.0
 11
12640.099970152
 21
18875.091577699492
 31
0.0
  0
LINE
  5
40FB
  8
FUTO
 10
12964.099970152
 20
18865.091577699492
 30
0.0
 11
12964.099970152
 21
18870.091577699492
 31
0.0
  0
LINE
  5
40FC
  8
FUTO
 10
12964.099970152
 20
18870.091577699492
 30
0.0
 11
12964.099970152
 21
18875.091577699492
 31
0.0
  0
LINE
  5
40FD
  8
FUTO
 10
12999.099970152
 20
18884.469751699489
 30
0.0
 11
12964.099970152
 21
18875.091577699492
 31
0.0
  0
ARC
  5
40FE
  8
FUTO
 10
12985.599970152
 20
19274.564905699492
 30
0.0
 40
20.0
 50
0.000000000000007
 51
20.000046000008609
  0
ARC
  5
40FF
  8
FUTO
 10
13014.599970152
 20
19311.840295699491
 30
0.0
 40
20.0
 50
180.0
 51
199.9997250000032
  0
LINE
  5
4100
  8
FUTO
 10
12949.748896151999
 20
19256.591516699489
 30
0.0
 11
12953.501826152
 21
19263.091516699489
 31
0.0
  0
LINE
  5
4101
  8
FUTO
 10
12953.501826152
 20
19263.091516699489
 30
0.0
 11
12949.748896151999
 21
19269.591516699489
 31
0.0
  0
LINE
  5
4102
  8
FUTO
 10
13004.393916151999
 20
19281.4053596995
 30
0.0
 11
12995.806025152
 21
19304.999963699491
 31
0.0
  0
LINE
  5
4103
  8
FUTO
 10
13005.599970152
 20
19228.091516699489
 30
0.0
 11
13005.599970152
 21
19274.564905699492
 31
0.0
  0
LINE
  5
4104
  8
FUTO
 10
12938.490595152
 20
19263.091516699489
 30
0.0
 11
12942.243525152
 21
19269.591516699489
 31
0.0
  0
LINE
  5
4105
  8
FUTO
 10
12942.243525152
 20
19256.591516699489
 30
0.0
 11
12938.490595152
 21
19263.091516699489
 31
0.0
  0
LINE
  5
4106
  8
CT
 10
12945.996211152
 20
19255.64937769949
 30
0.0
 11
12945.996211152
 21
19270.1054326995
 31
0.0
  0
LINE
  5
4107
  8
CT
 10
12937.605586152
 20
19263.091516699489
 30
0.0
 11
12954.427119152
 21
19263.091516699489
 31
0.0
  0
LINE
  5
4108
  8
FUTO
 10
12942.243525152
 20
19269.591516699489
 30
0.0
 11
12949.748896151999
 21
19269.591516699489
 31
0.0
  0
LINE
  5
4109
  8
FUTO
 10
12942.243525152
 20
19256.591516699489
 30
0.0
 11
12949.748896151999
 21
19256.591516699489
 31
0.0
  0
CIRCLE
  5
410A
  8
FUTO
 10
12945.996211152
 20
19263.091516699489
 30
0.0
 40
6.5
  0
ARC
  5
410B
  8
FUTO
 10
12979.599970152
 20
19372.780603699492
 30
0.0
 40
15.0
 50
0.000000000000007
 51
29.999816999981821
  0
ARC
  5
410C
  8
FUTO
 10
12959.213252152
 20
19428.091516699489
 30
0.0
 40
4.9999580000000003
 50
30.000281999972739
 51
90.000000000000028
  0
LINE
  5
410D
  8
FUTO
 10
12963.543330152001
 20
19430.591516699489
 30
0.0
 11
12992.590449152
 21
19380.280603699492
 31
0.0
  0
LINE
  5
410E
  8
FUTO
 10
12994.599970152
 20
19311.840295699491
 30
0.0
 11
12994.599970152
 21
19372.780603699492
 31
0.0
  0
LINE
  5
410F
  8
FUTO
 10
12609.599970152
 20
19311.840295699491
 30
0.0
 11
12609.599970152
 21
19372.780603699492
 31
0.0
  0
LINE
  5
4110
  8
CT
 10
12802.099970152
 20
18613.591577699492
 30
0.0
 11
12802.099970152
 21
19453.091577699492
 31
0.0
  0
LINE
  5
4111
  8
FUTO
 10
12644.450006151999
 20
19433.091577699492
 30
0.0
 11
12959.240320151999
 21
19433.091577699492
 31
0.0
  0
LINE
  5
4112
  8
FUTO
 10
12994.599970152
 20
19373.991540699491
 30
0.0
 11
12609.649042151999
 21
19373.991540699491
 31
0.0
  0
LINE
  5
4113
  8
FUTO
 10
12640.656610152
 20
19430.591516699489
 30
0.0
 11
12611.609491151999
 21
19380.280603699492
 31
0.0
  0
ARC
  5
4114
  8
FUTO
 10
12644.986688151999
 20
19428.091516699489
 30
0.0
 40
4.9999580000000003
 50
90.000000000000028
 51
149.9997180000272
  0
ARC
  5
4115
  8
FUTO
 10
12624.599970152
 20
19372.780603699492
 30
0.0
 40
15.0
 50
150.00018300001821
 51
180.0
  0
LINE
  5
4116
  8
FUTO
 10
12880.099970152
 20
18783.591577699492
 30
0.0
 11
12802.099970152
 21
18783.591577699492
 31
0.0
  0
LINE
  5
4117
  8
FUTO
 10
12992.099970152
 20
18865.091577699492
 30
0.0
 11
12802.099970152
 21
18865.091577699492
 31
0.0
  0
LINE
  5
4118
  8
FUTO
 10
12964.099970152
 20
18870.091577699492
 30
0.0
 11
12802.099970152
 21
18870.091577699492
 31
0.0
  0
LINE
  5
4119
  8
FUTO
 10
12609.282587152
 20
19308.291467699491
 30
0.0
 11
12994.599970152
 21
19308.291467699491
 31
0.0
  0
LINE
  5
411A
  8
FUTO
 10
12598.913446152001
 20
19278.091516699489
 30
0.0
 11
13005.28659035087
 21
19278.091516699489
 31
0.0
  0
LINE
  5
411B
  8
FUTO
 10
12598.599970152
 20
19228.091516699489
 30
0.0
 11
13003.778193152
 21
19228.091516699489
 31
0.0
  0
LINE
  5
411C
  8
FUTO
 10
12964.099970152
 20
18870.091577699492
 30
0.0
 11
12802.099970152
 21
18870.091577699492
 31
0.0
  0
CIRCLE
  5
411D
  8
FUTO
 10
12658.203729151999
 20
19263.091516699489
 30
0.0
 40
6.5
  0
LINE
  5
411E
  8
FUTO
 10
12661.956415152001
 20
19256.591516699489
 30
0.0
 11
12654.451044152
 21
19256.591516699489
 31
0.0
  0
LINE
  5
411F
  8
FUTO
 10
12661.956415152001
 20
19269.591516699489
 30
0.0
 11
12654.451044152
 21
19269.591516699489
 31
0.0
  0
LINE
  5
4120
  8
CT
 10
12666.594354151999
 20
19263.091516699489
 30
0.0
 11
12649.772821152001
 21
19263.091516699489
 31
0.0
  0
LINE
  5
4121
  8
CT
 10
12658.203729151999
 20
19255.64937769949
 30
0.0
 11
12658.203729151999
 21
19270.1054326995
 31
0.0
  0
LINE
  5
4122
  8
FUTO
 10
12661.956415152001
 20
19256.591516699489
 30
0.0
 11
12665.709345152
 21
19263.091516699489
 31
0.0
  0
LINE
  5
4123
  8
FUTO
 10
12665.709345152
 20
19263.091516699489
 30
0.0
 11
12661.956415152001
 21
19269.591516699489
 31
0.0
  0
LINE
  5
4124
  8
FUTO
 10
12598.599970152
 20
19228.091516699489
 30
0.0
 11
12598.599970152
 21
19274.564905699492
 31
0.0
  0
LINE
  5
4125
  8
FUTO
 10
12599.806024152
 20
19281.4053596995
 30
0.0
 11
12608.393915152001
 21
19304.999963699491
 31
0.0
  0
LINE
  5
4126
  8
FUTO
 10
12650.698114151999
 20
19263.091516699489
 30
0.0
 11
12654.451044152
 21
19269.591516699489
 31
0.0
  0
LINE
  5
4127
  8
FUTO
 10
12654.451044152
 20
19256.591516699489
 30
0.0
 11
12650.698114151999
 21
19263.091516699489
 31
0.0
  0
ARC
  5
4128
  8
FUTO
 10
12589.599970152
 20
19311.840295699491
 30
0.0
 40
20.0
 50
340.0002749999968
 51
0.000000000000007
  0
ARC
  5
4129
  8
FUTO
 10
12618.599970152
 20
19274.564905699492
 30
0.0
 40
20.0
 50
159.99995399999131
 51
180.0
  0
LINE
  5
412A
  8
FUTO
 10
12598.599970152
 20
19225.90234844853
 30
0.0
 11
12600.421747152001
 21
19228.091516699489
 31
0.0
  0
LINE
  5
412B
  8
FUTO
 10
12640.099970152
 20
18870.091577699492
 30
0.0
 11
12802.099970152
 21
18870.091577699492
 31
0.0
  0
LINE
  5
412C
  8
FUTO
 10
12649.473993152
 20
18802.397729699489
 30
0.0
 11
12738.065302151999
 21
18797.754907699491
 31
0.0
  0
LINE
  5
412D
  8
FUTO
 10
12612.099970152
 20
18865.091577699492
 30
0.0
 11
12802.099970152
 21
18865.091577699492
 31
0.0
  0
LINE
  5
412E
  8
FUTO
 10
12640.099970152
 20
18870.091577699492
 30
0.0
 11
12802.099970152
 21
18870.091577699492
 31
0.0
  0
LINE
  5
412F
  8
FUTO
 10
12832.099970152
 20
18773.591577699492
 30
0.0
 11
12832.099970152
 21
18633.591577699492
 31
0.0
  0
LINE
  5
4130
  8
FUTO
 10
12772.099970152
 20
18773.591577699492
 30
0.0
 11
12772.099970152
 21
18633.591577699492
 31
0.0
  0
LINE
  5
4131
  8
FUTO
 10
12724.099970152
 20
18783.591577699492
 30
0.0
 11
12802.099970152
 21
18783.591577699492
 31
0.0
  0
LINE
  5
4132
  8
FUTO
 10
12834.599970152
 20
18773.591577699492
 30
0.0
 11
12769.599970152
 21
18773.591577699492
 31
0.0
  0
LINE
  5
4133
  8
FUTO
 10
12834.599970152
 20
18773.591577699492
 30
0.0
 11
12834.599970152
 21
18783.591577699492
 31
0.0
  0
LINE
  5
4134
  8
FUTO
 10
12769.599970152
 20
18773.591577699492
 30
0.0
 11
12769.599970152
 21
18783.591577699492
 31
0.0
  0
LINE
  5
4135
  8
FUTO
 10
12722.099970152
 20
18795.74465369949
 30
0.0
 11
12722.099970152
 21
18785.591577699492
 31
0.0
  0
ARC
  5
4136
  8
FUTO
 10
12719.099970152
 20
18795.74465369949
 30
0.0
 40
2.9999599999999988
 50
0.000000000000007
 51
87.000442999965941
  0
ARC
  5
4137
  8
FUTO
 10
12724.099970152
 20
18785.591577699492
 30
0.0
 40
2.0
 50
180.0
 51
270.0
  0
LINE
  5
4138
  8
FUTO
 10
12772.099970152
 20
18633.591577699492
 30
0.0
 11
12832.099970152
 21
18633.591577699492
 31
0.0
  0
LINE
  5
4139
  8
FUTO
 10
12598.599970152
 20
18892.28066469949
 30
0.0
 11
12605.099970152
 21
18884.469751699489
 31
0.0
  0
LINE
  5
413A
  8
FUTO
 10
12612.099970152
 20
18865.091577699492
 30
0.0
 11
12613.010126151999
 21
18839.028345699491
 31
0.0
  0
LINE
  5
413B
  8
FUTO
 10
12605.099970152
 20
18884.469751699489
 30
0.0
 11
12640.099970152
 21
18875.091577699492
 31
0.0
  0
LINE
  5
413C
  8
FUTO
 10
12640.099970152
 20
18870.091577699492
 30
0.0
 11
12640.099970152
 21
18875.091577699492
 31
0.0
  0
LINE
  5
413D
  8
FUTO
 10
12640.099970152
 20
18865.091577699492
 30
0.0
 11
12640.099970152
 21
18870.091577699492
 31
0.0
  0
LINE
  5
413E
  8
FUTO
 10
12615.932977152001
 20
18832.306177699491
 30
0.0
 11
12642.926142152
 21
18805.313013699491
 31
0.0
  0
ARC
  5
413F
  8
FUTO
 10
12649.997186152001
 20
18812.384057699499
 30
0.0
 40
10.000024
 50
225.0
 51
267.00096100006488
  0
ARC
  5
4140
  8
FUTO
 10
12623.004022151999
 20
18839.377222699499
 30
0.0
 40
9.9999679999999991
 50
181.99932899999791
 51
225.0
  0
LINE
  5
4142
  8
FUTO
 10
15055.86389026633
 20
15334.891440977861
 30
0.0
 11
15070.54332119064
 21
15334.891440977861
 31
0.0
  0
LINE
  5
4143
  8
FUTO
 10
15058.543382190641
 20
15314.891440977861
 30
0.0
 11
15093.543382190641
 21
15314.891440977861
 31
0.0
  0
LINE
  5
4144
  8
FUTO
 10
14731.22287411495
 20
15334.891440977861
 30
0.0
 11
14716.543382190641
 21
15334.891440977861
 31
0.0
  0
LINE
  5
4145
  8
FUTO
 10
14728.543382190641
 20
15314.891440977861
 30
0.0
 11
14693.543382190641
 21
15314.891440977861
 31
0.0
  0
LINE
  5
4147
  8
FUTO
 10
14793.543382190641
 20
15309.891440977861
 30
0.0
 11
14793.543382190641
 21
15314.891440977861
 31
0.0
  0
LINE
  5
4148
  8
FUTO
 10
14993.543382190641
 20
15314.891440977861
 30
0.0
 11
14993.543382190641
 21
15309.891440977861
 31
0.0
  0
LINE
  5
4153
  8
FUTO
 10
14748.543382190641
 20
15343.367026977859
 30
0.0
 11
14732.543382190641
 21
15334.129722977859
 31
0.0
  0
LINE
  5
4154
  8
FUTO
 10
14764.543382190641
 20
15334.129722977859
 30
0.0
 11
14748.543382190641
 21
15343.367026977859
 31
0.0
  0
LINE
  5
4155
  8
FUTO
 10
14748.543382190641
 20
15306.41683197786
 30
0.0
 11
14732.543382190641
 21
15315.654136977861
 31
0.0
  0
LINE
  5
4156
  8
FUTO
 10
14764.543382190641
 20
15315.654136977861
 30
0.0
 11
14748.543382190641
 21
15306.41683197786
 31
0.0
  0
LINE
  5
4157
  8
CT
 10
14718.543382190641
 20
15324.891440977861
 30
0.0
 11
14778.543382190641
 21
15324.891440977861
 31
0.0
  0
CIRCLE
  5
4158
  8
FUTO
 10
14748.543382190641
 20
15324.891440977861
 30
0.0
 40
16.0
  0
LINE
  5
4159
  8
FUTO
 10
14764.543382190641
 20
15315.654136977861
 30
0.0
 11
14764.543382190641
 21
15334.129722977859
 31
0.0
  0
LINE
  5
415A
  8
FUTO
 10
14732.543382190641
 20
15315.654136977861
 30
0.0
 11
14732.543382190641
 21
15334.129722977859
 31
0.0
  0
ARC
  5
415B
  8
FUTO
 10
14748.543382190641
 20
15324.891440977861
 30
0.0
 40
20.0
 50
0.000000000000007
 51
180.0
  0
ARC
  5
415C
  8
FUTO
 10
14641.543382190641
 20
15281.891440977861
 30
0.0
 40
3.0
 50
90.0
 51
180.0
  0
LINE
  5
415D
  8
FUTO
 10
14690.418382190641
 20
15284.891440977861
 30
0.0
 11
14641.543382190641
 21
15284.891440977861
 31
0.0
  0
LINE
  5
415E
  8
FUTO
 10
14695.543382190641
 20
15254.891440977861
 30
0.0
 11
14695.543382190641
 21
15259.891440977861
 31
0.0
  0
LINE
  5
415F
  8
FUTO
 10
14685.543382190641
 20
15266.891440977861
 30
0.0
 11
14685.543382190641
 21
15259.891440977861
 31
0.0
  0
LINE
  5
4160
  8
FUTO
 10
14695.543382190641
 20
15254.891440977861
 30
0.0
 11
14638.543382190641
 21
15254.891440977861
 31
0.0
  0
LINE
  5
4161
  8
FUTO
 10
14638.543382190641
 20
15254.891440977861
 30
0.0
 11
14638.543382190641
 21
15281.891440977861
 31
0.0
  0
LINE
  5
4162
  8
CT
 10
14663.543382190641
 20
15304.891440977861
 30
0.0
 11
14663.543382190641
 21
15234.891440977861
 31
0.0
  0
LINE
  5
4163
  8
FUTO
 10
14685.543382190641
 20
15266.891440977861
 30
0.0
 11
14728.543382190641
 21
15266.891440977861
 31
0.0
  0
LINE
  5
4164
  8
FUTO
 10
14693.543382190641
 20
15314.891440977861
 30
0.0
 11
14688.543382190641
 21
15266.891440977861
 31
0.0
  0
LINE
  5
4165
  8
FUTO
 10
14768.543382190641
 20
15324.891440977861
 30
0.0
 11
14768.543382190641
 21
15259.891440977861
 31
0.0
  0
LINE
  5
4166
  8
FUTO
 10
14728.543382190641
 20
15259.891440977861
 30
0.0
 11
14728.543382190641
 21
15324.891440977861
 31
0.0
  0
LINE
  5
4167
  8
CT
 10
14748.543382190641
 20
15249.891440977861
 30
0.0
 11
14748.543382190641
 21
15354.891440977861
 31
0.0
  0
LINE
  5
4168
  8
FUTO
 10
15022.543382190641
 20
15334.129722977859
 30
0.0
 11
15038.543382190641
 21
15343.367026977859
 31
0.0
  0
LINE
  5
4169
  8
FUTO
 10
15022.543382190641
 20
15315.654136977861
 30
0.0
 11
15038.543382190641
 21
15306.41683197786
 31
0.0
  0
LINE
  5
416A
  8
FUTO
 10
15022.543382190641
 20
15315.654136977861
 30
0.0
 11
15022.543382190641
 21
15334.129722977859
 31
0.0
  0
LINE
  5
416B
  8
FUTO
 10
15054.543382190641
 20
15315.654136977861
 30
0.0
 11
15054.543382190641
 21
15334.129722977859
 31
0.0
  0
CIRCLE
  5
416C
  8
FUTO
 10
15038.543382190641
 20
15324.891440977861
 30
0.0
 40
16.0
  0
LINE
  5
416D
  8
FUTO
 10
15038.543382190641
 20
15343.367026977859
 30
0.0
 11
15054.543382190641
 21
15334.129722977859
 31
0.0
  0
LINE
  5
416E
  8
FUTO
 10
15038.543382190641
 20
15306.41683197786
 30
0.0
 11
15054.543382190641
 21
15315.654136977861
 31
0.0
  0
ARC
  5
416F
  8
FUTO
 10
15038.543382190641
 20
15324.891440977861
 30
0.0
 40
20.0
 50
0.000000000000007
 51
180.0
  0
LINE
  5
4170
  8
CT
 10
15068.543382190641
 20
15324.891440977861
 30
0.0
 11
15008.543382190641
 21
15324.891440977861
 31
0.0
  0
LINE
  5
4171
  8
FUTO
 10
14793.543382190641
 20
15309.891440977861
 30
0.0
 11
14993.543382190641
 21
15309.891440977861
 31
0.0
  0
LINE
  5
4172
  8
FUTO
 10
15091.543382190641
 20
15254.891440977861
 30
0.0
 11
15091.543382190641
 21
15259.891440977861
 31
0.0
  0
LINE
  5
4173
  8
FUTO
 10
15101.543382190641
 20
15266.891440977861
 30
0.0
 11
15101.543382190641
 21
15259.891440977861
 31
0.0
  0
LINE
  5
4174
  8
FUTO
 10
15101.543382190641
 20
15266.891440977861
 30
0.0
 11
15058.543382190641
 21
15266.891440977861
 31
0.0
  0
LINE
  5
4175
  8
CT
 10
15123.543382190641
 20
15304.891440977861
 30
0.0
 11
15123.543382190641
 21
15234.891440977861
 31
0.0
  0
ARC
  5
4176
  8
FUTO
 10
15145.543382190641
 20
15281.891440977861
 30
0.0
 40
3.0
 50
0.000000000000007
 51
90.0
  0
LINE
  5
4177
  8
FUTO
 10
15148.543382190641
 20
15254.891440977861
 30
0.0
 11
15148.543382190641
 21
15281.891440977861
 31
0.0
  0
LINE
  5
4178
  8
FUTO
 10
15096.668382190641
 20
15284.891440977861
 30
0.0
 11
15145.543382190641
 21
15284.891440977861
 31
0.0
  0
LINE
  5
4179
  8
FUTO
 10
15091.543382190641
 20
15254.891440977861
 30
0.0
 11
15148.543382190641
 21
15254.891440977861
 31
0.0
  0
LINE
  5
417A
  8
FUTO
 10
15093.543382190641
 20
15314.891440977861
 30
0.0
 11
15098.543382190641
 21
15266.891440977861
 31
0.0
  0
LINE
  5
417B
  8
FUTO
 10
15018.543382190641
 20
15324.891440977861
 30
0.0
 11
15018.543382190641
 21
15259.891440977861
 31
0.0
  0
LINE
  5
417C
  8
FUTO
 10
15058.543382190641
 20
15259.891440977861
 30
0.0
 11
15058.543382190641
 21
15324.891440977861
 31
0.0
  0
LINE
  5
417D
  8
CT
 10
15038.543382190641
 20
15249.891440977861
 30
0.0
 11
15038.543382190641
 21
15354.891440977861
 31
0.0
  0
LINE
  5
41CF
  8
FUTO
 10
14768.543382190641
 20
15266.891440977861
 30
0.0
 11
15018.543382190641
 21
15266.891440977861
 31
0.0
  0
LINE
  5
41D0
  8
FUTO
 10
14685.543382190641
 20
15259.891440977861
 30
0.0
 11
15101.543382190641
 21
15259.891440977861
 31
0.0
  0
LINE
  5
41D1
  8
FUTO
 10
14709.543382190641
 20
15676.891440977861
 30
0.0
 11
14709.543382190641
 21
15639.891440977861
 31
0.0
  0
ARC
  5
41D2
  8
FUTO
 10
14673.829027190641
 20
15693.987388977859
 30
0.0
 40
9.9999679999999991
 50
91.999328999997914
 51
135.0
  0
ARC
  5
41D3
  8
FUTO
 10
14646.835862190639
 20
15666.99422497786
 30
0.0
 40
10.000024
 50
135.0
 51
177.00096100006479
  0
LINE
  5
41D4
  8
FUTO
 10
14666.75798219064
 20
15701.05843397786
 30
0.0
 11
14639.764818190641
 21
15674.06526897786
 31
0.0
  0
LINE
  5
41D5
  8
FUTO
 10
14699.543382190641
 20
15676.891440977861
 30
0.0
 11
14704.543382190641
 21
15676.891440977861
 31
0.0
  0
LINE
  5
41D6
  8
FUTO
 10
14704.543382190641
 20
15676.891440977861
 30
0.0
 11
14709.543382190641
 21
15676.891440977861
 31
0.0
  0
LINE
  5
41D7
  8
FUTO
 10
14718.92155619064
 20
15711.891440977861
 30
0.0
 11
14709.543382190641
 21
15676.891440977861
 31
0.0
  0
LINE
  5
41D8
  8
FUTO
 10
14699.543382190641
 20
15704.891440977861
 30
0.0
 11
14673.48015019064
 21
15703.981284977859
 31
0.0
  0
LINE
  5
41DA
  8
FUTO
 10
14734.543382190641
 20
15724.891440977861
 30
0.0
 11
14718.92155619064
 21
15711.891440977861
 31
0.0
  0
LINE
  5
41DB
  8
FUTO
 10
14468.043382190641
 20
15548.891440977861
 30
0.0
 11
14468.043382190641
 21
15484.891440977861
 31
0.0
  0
ARC
  5
41DC
  8
FUTO
 10
14620.043382190641
 20
15592.891440977861
 30
0.0
 40
2.0
 50
90.0
 51
180.0
  0
ARC
  5
41EB
  8
FUTO
 10
14719.543382190641
 20
15639.891440977861
 30
0.0
 40
10.0
 50
90.0
 51
180.0
  0
ARC
  5
41EE
  8
FUTO
 10
14630.19645819064
 20
15597.891440977861
 30
0.0
 40
2.9999599999999988
 50
270.0
 51
357.00044299996591
  0
LINE
  5
41EF
  8
FUTO
 10
14630.19645819064
 20
15594.891440977861
 30
0.0
 11
14620.043382190641
 21
15594.891440977861
 31
0.0
  0
LINE
  5
41F0
  8
FUTO
 10
14578.043382190641
 20
15548.891440977861
 30
0.0
 11
14578.043382190641
 21
15544.891440977861
 31
0.0
  0
LINE
  5
41F1
  8
FUTO
 10
14608.043382190641
 20
15547.391440977861
 30
0.0
 11
14618.043382190641
 21
15547.391440977861
 31
0.0
  0
LINE
  5
41F2
  8
FUTO
 10
14608.043382190641
 20
15482.391440977861
 30
0.0
 11
14618.043382190641
 21
15482.391440977861
 31
0.0
  0
LINE
  5
41F3
  8
FUTO
 10
14608.043382190641
 20
15482.391440977861
 30
0.0
 11
14608.043382190641
 21
15547.391440977861
 31
0.0
  0
ARC
  5
41F4
  8
FUTO
 10
14719.543382190641
 20
15539.891440977861
 30
0.0
 40
10.0
 50
180.0
 51
270.0
  0
LINE
  5
41F5
  8
FUTO
 10
14618.043382190641
 20
15592.891440977861
 30
0.0
 11
14618.043382190641
 21
15514.891440977861
 31
0.0
  0
LINE
  5
41F6
  8
FUTO
 10
14709.543382190641
 20
15539.891440977861
 30
0.0
 11
14709.543382190641
 21
15639.891440977861
 31
0.0
  0
LINE
  5
41F7
  8
FUTO
 10
14608.043382190641
 20
15544.891440977861
 30
0.0
 11
14468.043382190641
 21
15544.891440977861
 31
0.0
  0
LINE
  5
41F8
  8
FUTO
 10
14608.043382190641
 20
15484.891440977861
 30
0.0
 11
14468.043382190641
 21
15484.891440977861
 31
0.0
  0
LINE
  5
41F9
  8
FUTO
 10
14578.043382190641
 20
15548.891440977861
 30
0.0
 11
14468.043382190641
 21
15548.891440977861
 31
0.0
  0
LINE
  5
41FA
  8
FUTO
 10
14704.543382190641
 20
15676.891440977861
 30
0.0
 11
14704.543382190641
 21
15514.891440977861
 31
0.0
  0
LINE
  5
41FB
  8
FUTO
 10
14699.543382190641
 20
15704.891440977861
 30
0.0
 11
14699.543382190641
 21
15514.891440977861
 31
0.0
  0
LINE
  5
41FC
  8
FUTO
 10
14636.84953419064
 20
15667.517417977861
 30
0.0
 11
14632.20671219064
 21
15578.926108977859
 31
0.0
  0
LINE
  5
41FE
  8
FUTO
 10
14704.543382190641
 20
15676.891440977861
 30
0.0
 11
14704.543382190641
 21
15514.891440977861
 31
0.0
  0
ARC
  5
41FF
  8
FUTO
 10
14882.30839719064
 20
15733.17055497786
 30
0.0
 40
2.9999909999999992
 50
96.115172999988943
 51
174.80557100002201
  0
LINE
  5
4200
  8
FUTO
 10
14879.320726190639
 20
15733.44216197786
 30
0.0
 11
14878.543382190641
 21
15724.891440977861
 31
0.0
  0
ARC
  5
4201
  8
FUTO
 10
14872.585008190639
 20
15725.621238977859
 30
0.0
 40
5.9999760000000002
 50
354.8055729999931
 51
54.396262999995557
  0
ARC
  5
4202
  8
FUTO
 10
14904.77836719064
 20
15733.17055497786
 30
0.0
 40
2.999981
 50
5.194427000006832
 51
83.884827000011072
  0
ARC
  5
4203
  8
FUTO
 10
14893.543382190641
 20
15754.891440977861
 30
0.0
 40
30.0
 50
305.19004800000442
 51
305.60386699997889
  0
LINE
  5
4204
  8
FUTO
 10
14893.543382190641
 20
15737.391440977861
 30
0.0
 11
14905.097947190639
 21
15736.15346497786
 31
0.0
  0
LINE
  5
4205
  8
FUTO
 10
14907.766038190641
 20
15733.44216197786
 30
0.0
 11
14908.543382190641
 21
15724.891440977861
 31
0.0
  0
ARC
  5
4206
  8
FUTO
 10
14914.501756190641
 20
15725.621238977859
 30
0.0
 40
5.9999820000000001
 50
125.6037370000044
 51
185.19442700000681
  0
LINE
  5
4207
  8
FUTO
 10
14893.543382190641
 20
15737.391440977861
 30
0.0
 11
14881.98881719064
 21
15736.15346497786
 31
0.0
  0
LINE
  5
4208
  8
FUTO
 10
14881.98881719064
 20
15736.15346497786
 30
0.0
 11
14905.097947190639
 21
15736.15346497786
 31
0.0
  0
LINE
  5
4209
  8
CT
 10
14933.543382190641
 20
15754.891440977861
 30
0.0
 11
14853.543382190641
 21
15754.891440977861
 31
0.0
  0
LINE
  5
420A
  8
FUTO
 10
14834.543382190641
 20
15663.891440977861
 30
0.0
 11
14952.543382190641
 21
15663.891440977861
 31
0.0
  0
CIRCLE
  5
420B
  8
FUTO
 10
14893.543382190641
 20
15754.891440977861
 30
0.0
 40
17.5
  0
ARC
  5
420C
  8
FUTO
 10
14893.543382190641
 20
15754.891440977861
 30
0.0
 40
30.0
 50
305.60386699997889
 51
234.39614899998969
  0
LINE
  5
420D
  8
FUTO
 10
15052.54332119064
 20
15724.891440977861
 30
0.0
 11
15062.54332119064
 21
15716.56966397786
 31
0.0
  0
ARC
  5
420E
  8
FUTO
 10
15109.016710190641
 20
15698.391440977861
 30
0.0
 40
20.0
 50
69.999953999991405
 51
90.0
  0
ARC
  5
420F
  8
FUTO
 10
15146.29210019064
 20
15727.391440977861
 30
0.0
 40
20.0
 50
250.0002749999968
 51
270.0
  0
LINE
  5
4212
  8
FUTO
 10
15115.85716419064
 20
15717.185386977861
 30
0.0
 11
15139.45176819064
 21
15708.59749597786
 31
0.0
  0
LINE
  5
4213
  8
FUTO
 10
15062.54332119064
 20
15718.391440977861
 30
0.0
 11
15109.016710190641
 21
15718.391440977861
 31
0.0
  0
LINE
  5
4214
  8
FUTO
 10
15052.54332119064
 20
15724.891440977861
 30
0.0
 11
14893.543382190641
 21
15724.891440977861
 31
0.0
  0
LINE
  5
4215
  8
FUTO
 10
14955.54332119064
 20
15656.891440977861
 30
0.0
 11
14831.543382190641
 21
15656.891440977861
 31
0.0
  0
ARC
  5
4216
  8
FUTO
 10
14831.543382190641
 20
15482.19368697786
 30
0.0
 40
20.0
 50
180.0
 51
270.0
  0
CIRCLE
  5
4217
  8
FUTO
 10
14893.543382190641
 20
15449.19368697786
 30
0.0
 40
3.5
  0
LINE
  5
4218
  8
FUTO
 10
14899.99626319064
 20
15449.19368697786
 30
0.0
 11
14885.407152190641
 21
15449.19368697786
 31
0.0
  0
LINE
  5
4219
  8
FUTO
 10
14831.543382190641
 20
15462.19368697786
 30
0.0
 11
14955.543382190641
 21
15462.19368697786
 31
0.0
  0
LINE
  5
421A
  8
FUTO
 10
14952.54332119064
 20
15442.19368697786
 30
0.0
 11
14834.543382190641
 21
15442.19368697786
 31
0.0
  0
LINE
  5
421B
  8
FUTO
 10
14811.543382190641
 20
15636.891440977861
 30
0.0
 11
14811.543382190641
 21
15482.19368697786
 31
0.0
  0
LINE
  5
421C
  8
FUTO
 10
14804.543382190641
 20
15633.891440977861
 30
0.0
 11
14804.543382190641
 21
15472.19368697786
 31
0.0
  0
LINE
  5
421D
  8
FUTO
 10
15062.54332119064
 20
15649.891440977861
 30
0.0
 11
14977.92051819064
 21
15649.891440977861
 31
0.0
  0
LINE
  5
4221
  8
FUTO
 10
15062.54332119064
 20
15529.891440977861
 30
0.0
 11
14982.54332119064
 21
15529.891440977861
 31
0.0
  0
LINE
  5
4222
  8
FUTO
 10
14975.54332119064
 20
15636.891440977861
 30
0.0
 11
14975.54332119064
 21
15482.19368697786
 31
0.0
  0
LINE
  5
4223
  8
FUTO
 10
14982.54332119064
 20
15633.891440977861
 30
0.0
 11
14982.54332119064
 21
15472.19368697786
 31
0.0
  0
ARC
  5
4224
  8
FUTO
 10
14955.54332119064
 20
15482.19368697786
 30
0.0
 40
20.0
 50
270.0
 51
0.000000000000007
  0
LINE
  5
4225
  8
CT
 10
15002.54332119064
 20
15589.891440977861
 30
0.0
 11
14784.543382190641
 21
15589.891440977861
 31
0.0
  0
ARC
  5
4226
  8
FUTO
 10
14955.54332119064
 20
15636.891440977861
 30
0.0
 40
20.0
 50
0.000000000000007
 51
90.0
  0
ARC
  5
4227
  8
FUTO
 10
14831.543382190641
 20
15636.891440977861
 30
0.0
 40
20.0
 50
90.0
 51
180.0
  0
ARC
  5
4228
  8
FUTO
 10
14834.543382190641
 20
15633.891440977861
 30
0.0
 40
30.0
 50
90.0
 51
180.0
  0
ARC
  5
4229
  8
FUTO
 10
14952.54332119064
 20
15633.891440977861
 30
0.0
 40
30.0
 50
0.000000000000007
 51
90.0
  0
LINE
  5
422E
  8
FUTO
 10
14734.543382190641
 20
15724.891440977861
 30
0.0
 11
14893.543382190641
 21
15724.891440977861
 31
0.0
  0
LINE
  5
422F
  8
FUTO
 10
14719.543382190641
 20
15649.891440977861
 30
0.0
 11
14809.166185190639
 21
15649.891440977861
 31
0.0
  0
LINE
  5
4230
  8
FUTO
 10
14719.543382190641
 20
15529.891440977861
 30
0.0
 11
14804.543382190641
 21
15529.891440977861
 31
0.0
  0
ARC
  5
4231
  8
FUTO
 10
14620.043382190641
 20
15436.891440977861
 30
0.0
 40
2.0
 50
180.0
 51
270.0
  0
ARC
  5
4232
  8
FUTO
 10
14630.19645819064
 20
15431.891440977861
 30
0.0
 40
3.0
 50
2.9995570000340721
 51
90.0
  0
ARC
  5
4233
  8
FUTO
 10
14644.89299119064
 20
15399.859702977859
 30
0.0
 40
10.000139999999989
 50
183.00042699998181
 51
225.00097700000649
  0
ARC
  5
4241
  8
FUTO
 10
14673.68547219064
 20
15371.067222977859
 30
0.0
 40
10.0
 50
225.0
 51
270.0
  0
ARC
  5
4242
  8
FUTO
 10
14646.835862190639
 20
15362.788657977861
 30
0.0
 40
9.9999679999999991
 50
182.9990539999759
 51
225.0
  0
LINE
  5
4243
  8
FUTO
 10
14709.543382190641
 20
15363.13069897786
 30
0.0
 11
14728.63200519064
 21
15363.13069897786
 31
0.0
  0
LINE
  5
4244
  8
FUTO
 10
14710.57927119064
 20
15352.891440977861
 30
0.0
 11
14704.543382190641
 21
15352.891440977861
 31
0.0
  0
LINE
  5
4245
  8
FUTO
 10
14699.543382190641
 20
15352.891440977861
 30
0.0
 11
14704.543382190641
 21
15352.891440977861
 31
0.0
  0
ARC
  5
4246
  8
FUTO
 10
14716.543382190641
 20
15331.891440977861
 30
0.0
 40
3.0
 50
90.0
 51
180.0
  0
ARC
  5
4247
  8
FUTO
 10
14723.63200519064
 20
15339.891440977861
 30
0.0
 40
5.0
 50
270.0
 51
0.000000000000007
  0
LINE
  5
4248
  8
FUTO
 10
14709.543382190641
 20
15356.01790597786
 30
0.0
 11
14712.101976190639
 21
15356.01790597786
 31
0.0
  0
LINE
  5
4249
  8
FUTO
 10
14716.543382190641
 20
15334.891440977861
 30
0.0
 11
14709.543382190641
 21
15356.01790597786
 31
0.0
  0
LINE
  5
424A
  8
FUTO
 10
14728.63200519064
 20
15339.891440977861
 30
0.0
 11
14728.63200519064
 21
15363.13069897786
 31
0.0
  0
LINE
  5
424B
  8
FUTO
 10
14719.70158519064
 20
15334.891440977861
 30
0.0
 11
14709.543382190641
 21
15363.13069897786
 31
0.0
  0
LINE
  5
424C
  8
FUTO
 10
14673.68547219064
 20
15361.067222977859
 30
0.0
 11
14699.543382190641
 21
15361.067222977859
 31
0.0
  0
LINE
  5
424E
  8
FUTO
 10
14633.17473019064
 20
15432.386680977859
 30
0.0
 11
14636.84953419064
 21
15362.26546497786
 31
0.0
  0
LINE
  5
4250
  8
FUTO
 10
14666.61442719064
 20
15363.99617797786
 30
0.0
 11
14637.821946190639
 21
15392.78841397786
 31
0.0
  0
LINE
  5
4253
  8
FUTO
 10
14630.19645819064
 20
15434.891440977861
 30
0.0
 11
14620.043382190641
 21
15434.891440977861
 31
0.0
  0
ARC
  5
4254
  8
FUTO
 10
14673.829027190641
 20
15335.795493977859
 30
0.0
 40
9.9999839999999995
 50
225.0
 51
268.00067100000211
  0
LINE
  5
4255
  8
FUTO
 10
14699.543382190641
 20
15324.891440977861
 30
0.0
 11
14673.48015019064
 21
15325.801597977859
 31
0.0
  0
LINE
  5
4256
  8
FUTO
 10
14713.543382190641
 20
15314.891440977861
 30
0.0
 11
14713.543382190641
 21
15331.891440977861
 31
0.0
  0
LINE
  5
4257
  8
FUTO
 10
14666.75798219064
 20
15328.72444897786
 30
0.0
 11
14639.764818190641
 21
15355.71761297786
 31
0.0
  0
LINE
  5
4258
  8
FUTO
 10
14853.94328419064
 20
15336.49935197786
 30
0.0
 11
14773.543382190641
 21
15334.891440977861
 31
0.0
  0
ARC
  5
4259
  8
FUTO
 10
14868.543382190641
 20
15397.387534977859
 30
0.0
 40
5.0
 50
0.000000000000007
 51
90.0
  0
ARC
  5
425A
  8
FUTO
 10
14918.543382190641
 20
15397.387534977859
 30
0.0
 40
5.0
 50
90.0
 51
180.0
  0
ARC
  5
425B
  8
FUTO
 10
14933.54332119064
 20
15356.49544497786
 30
0.0
 40
20.000091999999999
 50
180.0
 51
268.85427899999138
  0
LINE
  5
425C
  8
FUTO
 10
14913.543382190641
 20
15397.387534977859
 30
0.0
 11
14913.543382190641
 21
15356.49544497786
 31
0.0
  0
LINE
  5
425D
  8
FUTO
 10
14873.543382190641
 20
15397.387534977859
 30
0.0
 11
14873.543382190641
 21
15356.49544497786
 31
0.0
  0
ARC
  5
425E
  8
FUTO
 10
14853.543382190641
 20
15356.49544497786
 30
0.0
 40
20.0
 50
271.14572100000839
 51
0.000000000000007
  0
LINE
  5
425F
  8
FUTO
 10
14793.543382190641
 20
15314.891440977861
 30
0.0
 11
14793.543382190641
 21
15315.891440977861
 31
0.0
  0
ARC
  5
4260
  8
FUTO
 10
14798.543382190641
 20
15315.891440977861
 30
0.0
 40
5.0
 50
90.0
 51
180.0
  0
LINE
  5
4261
  8
FUTO
 10
14798.543382190641
 20
15320.891440977861
 30
0.0
 11
14893.543382190641
 21
15320.891440977861
 31
0.0
  0
ARC
  5
4262
  8
FUTO
 10
15070.54332119064
 20
15331.891440977861
 30
0.0
 40
3.0
 50
0.000000000000007
 51
90.0
  0
LINE
  5
4263
  8
FUTO
 10
15013.54332119064
 20
15334.891440977861
 30
0.0
 11
15021.22287411495
 21
15334.891440977861
 31
0.0
  0
ARC
  5
426D
  8
FUTO
 10
14988.54332119064
 20
15315.891440977861
 30
0.0
 40
5.0
 50
0.000000000000007
 51
90.0
  0
LINE
  5
426E
  8
FUTO
 10
14993.54332119064
 20
15314.891440977861
 30
0.0
 11
14993.54332119064
 21
15315.891440977861
 31
0.0
  0
LINE
  5
426F
  8
FUTO
 10
14993.54332119064
 20
15314.891440977861
 30
0.0
 11
15018.543382190641
 21
15314.891440977861
 31
0.0
  0
LINE
  5
4270
  8
FUTO
 10
15133.149400190639
 20
15318.891440977861
 30
0.0
 11
15142.765367190639
 21
15322.391440977861
 31
0.0
  0
LINE
  5
4271
  8
FUTO
 10
15133.149400190639
 20
15318.891440977861
 30
0.0
 11
15073.54332119064
 21
15318.891440977861
 31
0.0
  0
LINE
  5
4272
  8
FUTO
 10
15073.54332119064
 20
15314.891440977861
 30
0.0
 11
15073.54332119064
 21
15331.891440977861
 31
0.0
  0
LINE
  5
4273
  8
FUTO
 10
14933.143419190639
 20
15336.49935197786
 30
0.0
 11
15013.54332119064
 21
15334.891440977861
 31
0.0
  0
LINE
  5
4274
  8
FUTO
 10
14988.54332119064
 20
15320.891440977861
 30
0.0
 11
14893.543382190641
 21
15320.891440977861
 31
0.0
  0
LINE
  5
4275
  8
FUTO
 10
14773.543382190641
 20
15334.891440977861
 30
0.0
 11
14765.86389026633
 21
15334.891440977861
 31
0.0
  0
LINE
  5
4276
  8
FUTO
 10
14793.543382190641
 20
15314.891440977861
 30
0.0
 11
14768.543382190641
 21
15314.891440977861
 31
0.0
  0
ARC
  5
4277
  8
FUTO
 10
14952.54332119064
 20
15472.19368697786
 30
0.0
 40
30.0
 50
270.0
 51
0.000000000000007
  0
ARC
  5
4278
  8
FUTO
 10
14834.543382190641
 20
15472.19368697786
 30
0.0
 40
30.0
 50
180.0
 51
270.0
  0
LINE
  5
4279
  8
CT
 10
14893.543382190641
 20
15804.891440977861
 30
0.0
 11
14893.543382190641
 21
15234.891440977861
 31
0.0
  0
LINE
  5
427A
  8
FUTO
 10
14704.543382190641
 20
15352.891440977861
 30
0.0
 11
14704.543382190641
 21
15514.891440977861
 31
0.0
  0
LINE
  5
427B
  8
FUTO
 10
15062.54332119064
 20
15718.391440977861
 30
0.0
 11
15062.54332119064
 21
15334.891440977861
 31
0.0
  0
LINE
  5
427C
  8
FUTO
 10
15112.54332119064
 20
15718.07796497786
 30
0.0
 11
15112.54332119064
 21
15318.891440977861
 31
0.0
  0
LINE
  5
427D
  8
FUTO
 10
15142.743272190641
 20
15707.70882397786
 30
0.0
 11
15142.743272190641
 21
15322.391440977861
 31
0.0
  0
LINE
  5
427E
  8
FUTO
 10
14704.543382190641
 20
15352.891440977861
 30
0.0
 11
14704.543382190641
 21
15514.891440977861
 31
0.0
  0
LINE
  5
427F
  8
FUTO
 10
14699.543382190641
 20
15324.891440977861
 30
0.0
 11
14699.543382190641
 21
15514.891440977861
 31
0.0
  0
LINE
  5
4280
  8
FUTO
 10
14618.043382190641
 20
15436.891440977861
 30
0.0
 11
14618.043382190641
 21
15514.891440977861
 31
0.0
  0
ARC
  5
4281
  8
FUTO
 10
15207.232408190641
 20
15692.391440977861
 30
0.0
 40
15.0
 50
60.00018300001819
 51
90.0
  0
ARC
  5
4282
  8
FUTO
 10
15262.54332119064
 20
15672.004722977859
 30
0.0
 40
4.9999580000000003
 50
0.000000000000007
 51
59.999718000027237
  0
LINE
  5
4283
  8
FUTO
 10
15265.04332119064
 20
15676.33480097786
 30
0.0
 11
15214.732408190641
 21
15705.381919977861
 31
0.0
  0
ARC
  5
42CC
  8
FUTO
 10
15262.54332119064
 20
15357.778159977859
 30
0.0
 40
5.0
 50
300.00027500002068
 51
0.000000000000007
  0
ARC
  5
42CE
  8
FUTO
 10
15207.232408190641
 20
15337.391440977861
 30
0.0
 40
15.000085
 50
270.0
 51
299.99981699998182
  0
LINE
  5
42CF
  8
FUTO
 10
15265.04332119064
 20
15353.44808197786
 30
0.0
 11
15214.732408190641
 21
15324.400962977859
 31
0.0
  0
LINE
  5
4301
  8
FUTO
 10
15208.443345190641
 20
15322.391440977861
 30
0.0
 11
15208.443345190641
 21
15707.342368977859
 31
0.0
  0
LINE
  5
4305
  8
FUTO
 10
15267.543382190641
 20
15672.541404977859
 30
0.0
 11
15267.543382190641
 21
15357.751090977859
 31
0.0
  0
LINE
  5
4306
  8
CT
 10
14448.043382190641
 20
15514.891440977861
 30
0.0
 11
15287.543382190641
 21
15514.891440977861
 31
0.0
  0
LINE
  5
4307
  8
FUTO
 10
15146.29210019064
 20
15707.391440977861
 30
0.0
 11
15207.232408190641
 21
15707.391440977861
 31
0.0
  0
LINE
  5
4308
  8
FUTO
 10
15142.743272190641
 20
15322.391440977861
 30
0.0
 11
15207.232408190641
 21
15322.391440977861
 31
0.0
  0
LINE
  5
430D
  8
CT
 10
12667.099970152
 20
18829.091577699492
 30
0.0
 11
12617.099970152
 21
18829.091577699492
 31
0.0
  0
LINE
  5
430E
  8
CT
 10
12642.099970152
 20
18804.091577699492
 30
0.0
 11
12642.099970152
 21
18854.091577699492
 31
0.0
  0
LINE
  5
430F
  8
CT
 10
12962.099970152
 20
18804.091577699492
 30
0.0
 11
12962.099970152
 21
18854.091577699492
 31
0.0
  0
LINE
  5
4310
  8
CT
 10
12937.099970152
 20
18829.091577699492
 30
0.0
 11
12987.099970152
 21
18829.091577699492
 31
0.0
  0
LINE
  5
4311
  8
CT
 10
12937.099970152
 20
19289.091577699492
 30
0.0
 11
12987.099970152
 21
19289.091577699492
 31
0.0
  0
LINE
  5
4312
  8
CT
 10
12962.099970152
 20
19314.091577699492
 30
0.0
 11
12962.099970152
 21
19264.091577699492
 31
0.0
  0
LINE
  5
4313
  8
CT
 10
12642.099970152
 20
19314.091577699492
 30
0.0
 11
12642.099970152
 21
19264.091577699492
 31
0.0
  0
LINE
  5
4314
  8
CT
 10
12667.099970152
 20
19289.091577699492
 30
0.0
 11
12617.099970152
 21
19289.091577699492
 31
0.0
  0
LINE
  5
4315
  8
FUTO
 10
13022.099970152
 20
18778.591577699492
 30
0.0
 11
13022.099970152
 21
18523.591577699492
 31
0.0
  0
LINE
  5
4316
  8
FUTO
 10
13152.099970152
 20
18829.591577699492
 30
0.0
 11
13152.099970152
 21
18756.591577699492
 31
0.0
  0
LINE
  5
4317
  8
FUTO
 10
13012.099970152
 20
19732.591577699492
 30
0.0
 11
13012.099970152
 21
18829.591577699492
 31
0.0
  0
LINE
  5
4319
  8
FUTO
 10
12667.099970152
 20
19732.591577699492
 30
0.0
 11
12667.099970152
 21
19433.091577699492
 31
0.0
  0
LINE
  5
431A
  8
FUTO
 10
12592.099970152
 20
19732.591577699492
 30
0.0
 11
12592.099970152
 21
18829.591577699492
 31
0.0
  0
LINE
  5
431B
  8
SL
 10
12937.099970152
 20
19433.091577699492
 30
0.0
 11
12937.099970152
 21
18823.591577699492
 31
0.0
  0
LINE
  5
431C
  8
SL
 10
12667.099970152
 20
19433.091577699492
 30
0.0
 11
12667.099970152
 21
18823.591577699492
 31
0.0
  0
LINE
  5
432D
  8
FUTO
 10
10672.099970152
 20
20927.591577699499
 30
0.0
 11
12859.099970152
 21
20927.591577699499
 31
0.0
  0
LINE
  5
4341
  8
FUTO
 10
10672.099970152
 20
19759.591577699492
 30
0.0
 11
12859.099970152
 21
19759.591577699492
 31
0.0
  0
LINE
  5
4342
  8
FUTO
 10
10672.099970152
 20
19805.591577699492
 30
0.0
 11
12452.099970152
 21
19805.591577699492
 31
0.0
  0
LINE
  5
4347
  8
FUTO
 10
10752.099970152
 20
19759.591577699492
 30
0.0
 11
10752.099970152
 21
19732.591577699492
 31
0.0
  0
LINE
  5
4348
  8
FUTO
 10
13057.32366851285
 20
19807.591577699452
 30
0.0
 11
13152.099970152
 21
19807.591577699492
 31
0.0
  0
LINE
  5
4349
  8
FUTO
 10
11903.633469755579
 20
18829.591577699492
 30
0.0
 11
11903.633469755579
 21
19759.591577699492
 31
0.0
  0
LINE
  5
434A
  8
FUTO
 10
11300.56647054842
 20
18829.591577699492
 30
0.0
 11
11300.56647054842
 21
19759.591577699492
 31
0.0
  0
DIMENSION
  5
4368
  8
FUTO
  2
*D10
 10
10124.208171100279
 20
16144.891440977861
 30
0.0
 11
10064.208171100279
 21
16917.391440977859
 31
0.0
 70
     0
 13
10672.099970152
 23
17689.891440977859
 33
0.0
 14
10600.538575832041
 24
16144.891440977861
 34
0.0
 50
270.0
1001
ACAD
1000
DSTYLE
1002
{
1070
    40
1040
30.0
1070
   176
1070
     2
1070
   177
1070
     2
1070
   178
1070
     2
1070
   341
1005
44D5
1070
     5
1000
OPEN30
1002
}
  0
LINE
  5
457C
  8
FUTO
 62
     2
 10
10722.099970152
 20
15104.891440977861
 30
0.0
 11
10094.208171100279
 21
15104.891440977861
 31
0.0
  0
LINE
  5
457E
  8
FUTO
 62
     2
 10
10124.208171100279
 20
15164.891440977861
 30
0.0
 11
10124.208171100279
 21
15224.891440977861
 31
0.0
  0
INSERT
  5
4581
  8
FUTO
 62
     2
  2
_OPEN30
 10
10124.208171100279
 20
15104.891440977861
 30
0.0
 41
-60.0
 42
60.0
 43
60.0
 50
90.0
  0
LINE
  5
4595
  8
KL
 10
12433.099970152
 20
15420.4189316919
 30
0.0
 11
12433.099970152
 21
15264.590311343811
 31
0.0
  0
LINE
  5
4596
  8
KL
 10
12442.099970152
 20
15416.978615982929
 30
0.0
 11
12442.099970152
 21
15259.732560532781
 31
0.0
  0
LINE
  5
4597
  8
FUTO
 10
12433.099970152
 20
15420.4189316919
 30
0.0
 11
12433.099970152
 21
15254.891440977861
 31
0.0
  0
LINE
  5
4598
  8
FUTO
 10
12442.099970152
 20
15416.978615982929
 30
0.0
 11
12442.099970152
 21
15254.891440977861
 31
0.0
  0
DIMENSION
  5
45A8
  8
FUTO
  2
*D14
 10
13152.099970152
 20
21362.027400892381
 30
0.0
 11
12377.099970152
 21
21422.027400892381
 31
0.0
 70
     0
 13
11602.099970152
 23
21258.464155349091
 33
0.0
 14
13152.099970152
 24
19732.591577699492
 34
0.0
 50
180.0
1001
ACAD
1000
DSTYLE
1002
{
1070
    40
1040
30.0
1070
   176
1070
     2
1070
   177
1070
     2
1070
   178
1070
     2
1070
   341
1005
44D5
1070
     5
1000
OPEN30
1002
}
  0
DIMENSION
  5
45B5
  8
FUTO
  2
*D15
 10
10191.79406731213
 20
20977.591577699492
 30
0.0
 11
10131.794067312119
 21
20660.591577699499
 31
0.0
 70
     0
 13
10424.57996957248
 23
20343.591577699492
 33
0.0
 14
10852.099970152
 24
20977.591577699492
 34
0.0
 50
90.0
1001
ACAD
1000
DSTYLE
1002
{
1070
    40
1040
30.0
1070
   176
1070
     2
1070
   177
1070
     2
1070
   178
1070
     2
1070
   341
1005
44D5
1070
     5
1000
OPEN30
1002
}
  0
DIMENSION
  5
45C2
  8
FUTO
  2
*D16
 10
10191.79406731213
 20
18523.591577699492
 30
0.0
 11
10131.79406731213
 21
19433.591577699499
 31
0.0
 70
     0
 13
10191.79406731213
 23
20343.591577699492
 33
0.0
 14
11222.099970152
 24
18523.591577699492
 34
0.0
 50
90.0
1001
ACAD
1000
DSTYLE
1002
{
1070
    40
1040
30.0
1070
   176
1070
     2
1070
   177
1070
     2
1070
   178
1070
     2
1070
   341
1005
44D5
1070
     5
1000
OPEN30
1002
}
  0
LINE
  5
466E
  8
CT
 10
10679.4908481151
 20
16047.96993846572
 30
0.0
 11
11602.099970152
 21
16144.891440977861
 31
0.0
  0
LINE
  5
4670
  8
FUTO
 10
12804.38220667134
 20
16144.891440977861
 30
0.0
 11
12804.38220667134
 21
16274.839599637769
 31
0.0
  0
LINE
  5
4671
  8
FUTO
 10
12854.38220667134
 20
16135.891440977861
 30
0.0
 11
12854.38220667134
 21
16153.891440977861
 31
0.0
  0
LINE
  5
46A1
  8
FUTO
 10
11102.099970152
 20
15254.891440977861
 30
0.0
 11
11277.41898545243
 21
15947.45218911918
 31
0.0
  0
LINE
  5
46A2
  8
FUTO
 10
12102.099970152
 20
15254.891440977861
 30
0.0
 11
12020.24680971214
 21
15578.235066509949
 31
0.0
  0
LINE
  5
46A3
  8
SL
 10
11741.168552114979
 20
16352.64112090735
 30
0.0
 11
12861.0650489043
 21
15602.977305267959
 31
0.0
  0
LINE
  5
46A4
  8
SL
 10
11510.067154970009
 20
15912.44798348835
 30
0.0
 11
12763.07805651484
 21
15416.33541500231
 31
0.0
  0
LINE
  5
46A5
  8
FUTO
 10
11817.22077309614
 20
16458.137414839719
 30
0.0
 11
12926.64359290914
 21
15696.24437321368
 31
0.0
  0
LINE
  5
46A6
  8
FUTO
 10
11466.417351104639
 20
15789.94042057019
 30
0.0
 11
12723.546874914049
 21
15309.39348179447
 31
0.0
  0
ARC
  5
46A7
  8
FUTO
 10
11704.099970152
 20
16246.891440977861
 30
0.0
 40
1125.0
 50
298.14243507090117
 51
312.02555928933799
  0
LINE
  5
46A8
  8
KL
 10
11277.41898545243
 20
15947.45218911918
 30
0.0
 11
11300.566470548431
 21
16038.891440977861
 31
0.0
  0
LINE
  5
46A9
  8
KL
 10
12020.24680971214
 20
15578.235066509949
 30
0.0
 11
11903.63346975557
 21
16038.891440977861
 31
0.0
  0
LINE
  5
46AB
  8
KL
 10
12433.099970152
 20
16035.18408601042
 30
0.0
 11
12433.099970152
 21
15420.4189316919
 31
0.0
  0
LINE
  5
46AC
  8
KL
 10
12442.099970152
 20
16029.003360995421
 30
0.0
 11
12442.099970152
 21
15416.978615982929
 31
0.0
  0
LINE
  5
46AD
  8
FUTO
 10
12260.245460023591
 20
16153.891440977861
 30
0.0
 11
12854.38220667134
 21
16153.891440977861
 31
0.0
  0
LINE
  5
46AE
  8
FUTO
 10
12286.455977334541
 20
16135.891440977861
 30
0.0
 11
12854.38220667134
 21
16135.891440977861
 31
0.0
  0
LINE
  5
46AF
  8
KL
 10
11223.337146792561
 20
16114.252843738661
 30
0.0
 11
11402.24622287407
 21
16133.08128860935
 31
0.0
  0
LINE
  5
46B0
  8
KL
 10
11225.21296886934
 20
16096.350857296109
 30
0.0
 11
11404.114760475069
 21
16115.17853554638
 31
0.0
  0
LINE
  5
46CD
  8
FUTO
 10
15568.543382190641
 20
16153.891440977861
 30
0.0
 11
16786.243382190642
 21
16153.891440977861
 31
0.0
  0
LINE
  5
46CE
  8
FUTO
 10
15568.543382190641
 20
16135.891440977861
 30
0.0
 11
16786.243382190642
 21
16135.891440977861
 31
0.0
  0
LINE
  5
46E1
  8
FUTO
 10
15593.543382190641
 20
17689.891440977859
 30
0.0
 11
16762.543382190659
 21
17689.891440977859
 31
0.0
  0
LINE
  5
46E2
  8
FUTO
 10
15568.543382190641
 20
17639.891440977859
 30
0.0
 11
16786.243382190642
 21
17639.891440977859
 31
0.0
  0
DIMENSION
  5
46E6
  8
FUTO
  2
*D17
 10
10672.099970152
 20
17967.43787326145
 30
0.0
 11
11137.099970152
 21
18027.43787326145
 31
0.0
 70
     0
 13
11602.099970152
 23
17669.318186235301
 33
0.0
 14
10672.099970152
 24
17689.891440977859
 34
0.0
 50
180.0
1001
ACAD
1000
DSTYLE
1002
{
1070
    40
1040
30.0
1070
   176
1070
     2
1070
   177
1070
     2
1070
   178
1070
     2
1070
   341
1005
44D5
1070
     5
1000
OPEN30
1002
}
  0
DIMENSION
  5
46F4
  8
FUTO
  2
*D18
 10
10124.208171100279
 20
15104.891440977861
 30
0.0
 11
10064.208171100279
 21
15624.891440977861
 31
0.0
 70
     0
 13
10570.538575832041
 23
16144.891440977861
 33
0.0
 14
10752.099970152
 24
15104.891440977861
 34
0.0
 50
90.0
1001
ACAD
1000
DSTYLE
1002
{
1070
    40
1040
30.0
1070
   176
1070
     2
1070
   177
1070
     2
1070
   178
1070
     2
1070
   341
1005
44D5
1070
     5
1000
OPEN30
1002
}
  0
LINE
  5
470A
  8
FUTO
 10
10672.099970152
 20
19759.591577699492
 30
0.0
 11
10672.099970152
 21
20927.591577699499
 31
0.0
  0
LINE
  5
470B
  8
HOSO
 10
10672.099970152
 20
19759.591577699492
 30
0.0
 11
10672.099970152
 21
20927.591577699499
 31
0.0
  0
LINE
  5
470C
  8
FUTO
 10
10722.099970152
 20
19759.591577699492
 30
0.0
 11
10722.099970152
 21
20927.591577699499
 31
0.0
  0
LINE
  5
470D
  8
FUTO
 10
10676.099970152
 20
19759.591577699492
 30
0.0
 11
10676.099970152
 21
20927.591577699499
 31
0.0
  0
LINE
  5
470E
  8
FUTO
 10
12809.099970152
 20
20881.591577699499
 30
0.0
 11
12809.099970152
 21
19807.591577699492
 31
0.0
  0
LINE
  5
470F
  8
FUTO
 10
12859.099970152
 20
20927.591577699499
 30
0.0
 11
12859.099970152
 21
19759.591577699492
 31
0.0
  0
LINE
  5
4710
  8
FUTO
 10
12859.099970152
 20
19807.591577699492
 30
0.0
 11
13093.099970152
 21
19807.591577699492
 31
0.0
  0
DIMENSION
  5
4712
  8
FUTO
  2
*D19
 10
10672.099970152
 20
21362.027400892381
 30
0.0
 11
11137.099970152
 21
21422.027400892381
 31
0.0
 70
     0
 13
11602.099970152
 23
21258.464155349091
 33
0.0
 14
10672.099970152
 24
20927.591577699499
 34
0.0
 50
180.0
1001
ACAD
1000
DSTYLE
1002
{
1070
    40
1040
30.0
1070
   176
1070
     2
1070
   177
1070
     2
1070
   178
1070
     2
1070
   341
1005
44D5
1070
     5
1000
OPEN30
1002
}
  0
LINE
  5
4823
  8
FUTO
 10
16715.043382190641
 20
15104.891440977861
 30
0.0
 11
16715.043382190641
 21
15254.891440977861
 31
0.0
1001
ACAD
1000
ASC_BOUNDS
1002
{
1070
    19
1002
}
  0
LINE
  5
4824
  8
FUTO
 10
16715.043382190641
 20
15254.891440977861
 30
0.0
 11
16790.043382190641
 21
15254.891440977861
 31
0.0
1001
ACAD
1000
ASC_BOUNDS
1002
{
1070
    19
1002
}
  0
LINE
  5
4825
  8
FUTO
 10
16790.043382190641
 20
15254.891440977861
 30
0.0
 11
16790.043382190641
 21
15251.55325239969
 31
0.0
1001
ACAD
1000
ASC_BOUNDS
1002
{
1070
    19
1002
}
  0
ARC
  5
4826
  8
FUTO
 10
16786.043382190641
 20
15251.55325239969
 30
0.0
 40
4.0000000000009086
 50
274.99999999998528
 51
359.99999999994782
1001
ACAD
1000
ASC_BOUNDS
1002
{
1070
    19
1002
}
  0
LINE
  5
4827
  8
FUTO
 10
16786.39200516163
 20
15247.568473607331
 30
0.0
 11
16725.194759219648
 21
15242.2144083484
 31
0.0
1001
ACAD
1000
ASC_BOUNDS
1002
{
1070
    19
1002
}
  0
ARC
  5
4828
  8
FUTO
 10
16725.543382190641
 20
15238.22962955603
 30
0.0
 40
4.0000000000002656
 50
94.99999999999946
 51
180.0
1001
ACAD
1000
ASC_BOUNDS
1002
{
1070
    19
1002
}
  0
LINE
  5
4829
  8
FUTO
 10
16721.543382190641
 20
15238.22962955603
 30
0.0
 11
16721.543382190641
 21
15121.55325239969
 31
0.0
1001
ACAD
1000
ASC_BOUNDS
1002
{
1070
    19
1002
}
  0
ARC
  5
482A
  8
FUTO
 10
16725.543382190641
 20
15121.55325239969
 30
0.0
 40
3.9999999999990901
 50
179.9999999999869
 51
264.99999999998641
1001
ACAD
1000
ASC_BOUNDS
1002
{
1070
    19
1002
}
  0
LINE
  5
482B
  8
FUTO
 10
16725.194759219648
 20
15117.568473607331
 30
0.0
 11
16786.39200516163
 21
15112.2144083484
 31
0.0
1001
ACAD
1000
ASC_BOUNDS
1002
{
1070
    19
1002
}
  0
ARC
  5
482C
  8
FUTO
 10
16786.043382190641
 20
15108.22962955603
 30
0.0
 40
4.0000000000010933
 50
0.0000000000260551
 51
85.000000000014666
1001
ACAD
1000
ASC_BOUNDS
1002
{
1070
    19
1002
}
  0
LINE
  5
482D
  8
FUTO
 10
16790.043382190641
 20
15108.22962955603
 30
0.0
 11
16790.043382190641
 21
15104.891440977861
 31
0.0
1001
ACAD
1000
ASC_BOUNDS
1002
{
1070
    19
1002
}
  0
LINE
  5
482E
  8
FUTO
 10
16790.043382190641
 20
15104.891440977861
 30
0.0
 11
16715.043382190641
 21
15104.891440977861
 31
0.0
1001
ACAD
1000
ASC_BOUNDS
1002
{
1070
    19
1002
}
  0
LINE
  5
4831
  8
FUTO
 10
14665.043382190641
 20
15254.891440977861
 30
0.0
 11
14590.043382190641
 21
15254.891440977861
 31
0.0
  0
LINE
  5
4832
  8
FUTO
 10
14654.89200516163
 20
15242.214408348391
 30
0.0
 11
14593.69475921965
 21
15247.568473607331
 31
0.0
  0
LINE
  5
4833
  8
FUTO
 10
14665.043382190641
 20
15104.891440977861
 30
0.0
 11
14590.043382190641
 21
15104.891440977861
 31
0.0
  0
LINE
  5
4834
  8
FUTO
 10
14654.89200516163
 20
15117.568473607331
 30
0.0
 11
14593.69475921965
 21
15112.2144083484
 31
0.0
  0
LINE
  5
4835
  8
FUTO
 10
14658.543382190641
 20
15121.55325239969
 30
0.0
 11
14658.543382190641
 21
15238.22962955603
 31
0.0
  0
ARC
  5
4836
  8
FUTO
 10
14654.543382190641
 20
15238.22962955603
 30
0.0
 40
4.0
 50
0.0
 51
84.999999999975714
  0
LINE
  5
4837
  8
FUTO
 10
14665.043382190641
 20
15104.891440977861
 30
0.0
 11
14665.043382190641
 21
15254.891440977861
 31
0.0
  0
ARC
  5
4838
  8
FUTO
 10
14654.543382190641
 20
15121.55325239969
 30
0.0
 40
4.0
 50
275.00000000002422
 51
0.0
  0
ARC
  5
4839
  8
FUTO
 10
14594.043382190641
 20
15251.55325239969
 30
0.0
 40
4.0
 50
180.0
 51
264.99999999997573
  0
LINE
  5
483A
  8
FUTO
 10
14590.043382190641
 20
15254.891440977861
 30
0.0
 11
14590.043382190641
 21
15251.55325239969
 31
0.0
  0
LINE
  5
483B
  8
FUTO
 10
14590.043382190641
 20
15104.891440977861
 30
0.0
 11
14590.043382190641
 21
15108.22962955603
 31
0.0
  0
ARC
  5
483C
  8
FUTO
 10
14594.043382190641
 20
15108.22962955603
 30
0.0
 40
4.0
 50
95.000000000024286
 51
180.0
  0
TEXT
  5
4F67
  8
SP
 10
7530.8056098508496
 20
3649.5256569868388
 30
0.0
 40
100.0
  1
 
  0
TEXT
  5
522F
  8
SP
 10
4547.7686347355193
 20
6510.0705558547279
 30
0.0
 40
100.0
  1
 
  0
TEXT
  5
5230
  8
SP
 10
8708.6241353608257
 20
9190.2340047950456
 30
0.0
 40
100.0
  1
 
  0
TEXT
  5
5231
  8
SP
 10
18265.57556536427
 20
16618.83167688988
 30
0.0
 40
100.0
  1
 
  0
LINE
  5
5232
  8
4
 10
17366.825996391111
 20
13017.778449601339
 30
0.0
 11
17366.825996391111
 21
12017.778449601339
 31
0.0
  0
LINE
  5
5233
  8
4
 10
13866.82599639111
 20
13017.778449601339
 30
0.0
 11
13866.82599639111
 21
12017.778449601339
 31
0.0
  0
LINE
  5
5234
  8
4
 10
11366.82599639111
 20
13017.778449601339
 30
0.0
 11
11366.82599639111
 21
12017.778449601339
 31
0.0
  0
LINE
  5
5237
  8
4
 10
11366.82599639111
 20
12017.778449601339
 30
0.0
 11
17366.825996391111
 21
12017.778449601339
 31
0.0
  0
LINE
  5
5238
  8
4
 10
11366.82599639111
 20
12517.778449601339
 30
0.0
 11
17366.825996391111
 21
12517.778449601339
 31
0.0
  0
TEXT
  5
5239
  8
4
 10
11559.336400625631
 20
12675.493578934411
 30
0.0
 40
250.0
  1
機器名称
  0
TEXT
  5
523A
  8
4
 10
11548.116526515099
 20
12126.004233261399
 30
0.0
 40
250.0
  1
機器型番
  0
TEXT
  5
523B
  8
4
 10
13890.79130489632
 20
12628.71496138608
 30
0.0
 40
225.0
  1
ミツヤリミットロードファン
  0
TEXT
  5
523C
  8
4
 10
14050.09847431852
 20
12103.57637100106
 30
0.0
 40
250.0
  1
LL#9-1
  0
TEXT
  5
523E
  8
4
 10
11991.987738359991
 20
22434.92265626392
 30
0.0
 40
270.0
  1
床置ベット
  0
TEXT
  5
523F
  8
4
 10
9697.6639630383434
 20
23187.183330597829
 30
0.0
 40
360.0
  1
遠心式片吸込片持リミットロードファン
  0
LINE
  5
5240
  8
4
 10
9366.8259963911114
 20
22864.822220925369
 30
0.0
 11
17366.825996391111
 21
22864.822220925369
 31
0.0
  0
LINE
  5
5241
  8
4
 10
9366.8259963911114
 20
23864.822220925369
 30
0.0
 11
17366.825996391111
 21
23864.822220925369
 31
0.0
  0
LINE
  5
5242
  8
4
 10
11366.82599639111
 20
13017.778449601339
 30
0.0
 11
17366.825996391111
 21
13017.778449601339
 31
0.0
  0
LINE
  5
5243
  8
4
 10
9366.8259963911114
 20
23864.822220925369
 30
0.0
 11
9366.8259963911114
 21
22864.822220925369
 31
0.0
  0
TEXT
  5
5244
  8
4
 10
9812.6935771464796
 20
22429.37583733306
 30
0.0
 40
270.0
  1
左回転左横向
  0
TEXT
  5
5245
  8
4
 10
15461.673792637561
 20
24048.08385707788
 30
0.0
 40
280.0
  1
No.
  0
TEXT
  5
5246
  8
4
 10
15528.605219647879
 20
21938.657813253722
 30
0.0
 40
270.0
  1
縮尺：1/50
  0
LINE
  5
5247
  8
4
 10
17366.825996391111
 20
23864.822220925369
 30
0.0
 11
17366.825996391111
 21
22864.822220925369
 31
0.0
  0
LINE
  5
5248
  8
4
 10
18616.825996391111
 20
25267.778449601341
 30
0.0
 11
18616.825996391111
 21
25267.778449601341
 31
0.0
  0
LINE
  5
5249
  8
4
 10
15319.913108190431
 20
23924.09636522835
 30
0.0
 11
15319.913108190431
 21
24451.03975735011
 31
0.0
  0
LINE
  5
524A
  8
4
 10
15319.913108190431
 20
24451.03975735011
 30
0.0
 11
17366.825996391111
 21
24451.03975735011
 31
0.0
  0
LINE
  5
524B
  8
4
 10
17366.825996391111
 20
24451.03975735011
 30
0.0
 11
17366.825996391111
 21
23924.09636522835
 31
0.0
  0
LINE
  5
524C
  8
4
 10
17366.825996391111
 20
23924.09636522835
 30
0.0
 11
15319.913108190431
 21
23924.09636522835
 31
0.0
  0
LINE
  5
524D
  8
4
 10
8116.8259963911123
 20
10517.778449601339
 30
0.0
 11
8116.8259963911123
 21
25267.778449601341
 31
0.0
  0
LINE
  5
524E
  8
4
 10
8116.8259963911123
 20
25267.778449601341
 30
0.0
 11
18616.825996391111
 21
25267.778449601341
 31
0.0
  0
LINE
  5
524F
  8
4
 10
18616.825996391111
 20
25267.778449601341
 30
0.0
 11
18616.825996391111
 21
10517.778449601339
 31
0.0
  0
LINE
  5
5250
  8
4
 10
18616.825996391111
 20
10517.778449601339
 30
0.0
 11
8116.8259963911123
 21
10517.778449601339
 31
0.0
  0
ENDSEC
  0
EOF
