  0
SECTION
  2
HEADER
  9
$ACADVER
  1
AC1027
  9
$ACADMAINTVER
 70
   125
  9
$DWGCODEPAGE
  3
ANSI_932
  9
$LASTSAVEDBY
  1
yasukiyo.ogawa
  9
$REQUIREDVERSIONS
160
                 0
  9
$INSBASE
 10
0.0
 20
0.0
 30
0.0
  9
$EXTMIN
 10
0.0
 20
0.0
 30
0.0
  9
$EXTMAX
 10
8400.0
 20
11800.0
 30
0.0
  9
$LIMMIN
 10
0.0
 20
0.0
  9
$LIMMAX
 10
297.0
 20
210.0
  9
$ORTHOMODE
 70
     1
  9
$REGENMODE
 70
     1
  9
$FILLMODE
 70
     0
  9
$QTEXTMODE
 70
     0
  9
$MIRRTEXT
 70
     1
  9
$LTSCALE
 40
100.0
  9
$ATTMODE
 70
     1
  9
$TEXTSIZE
 40
180.0
  9
$TRACEWID
 40
0.05
  9
$TEXTSTYLE
  7
STANDARD
  9
$CLAYER
  8
3
  9
$CELTYPE
  6
BYLAYER
  9
$CECOLOR
 62
   256
  9
$CELTSCALE
 40
1.0
  9
$DISPSILH
 70
     0
  9
$DIMSCALE
 40
40.0
  9
$DIMASZ
 40
2.0
  9
$DIMEXO
 40
0.5
  9
$DIMDLI
 40
10.0
  9
$DIMRND
 40
0.0
  9
$DIMDLE
 40
0.0
  9
$DIMEXE
 40
1.0
  9
$DIMTP
 40
1.0
  9
$DIMTM
 40
1.0
  9
$DIMTXT
 40
3.0
  9
$DIMCEN
 40
0.0
  9
$DIMTSZ
 40
0.0
  9
$DIMTOL
 70
     0
  9
$DIMLIM
 70
     0
  9
$DIMTIH
 70
     0
  9
$DIMTOH
 70
     0
  9
$DIMSE1
 70
     0
  9
$DIMSE2
 70
     0
  9
$DIMTAD
 70
     1
  9
$DIMZIN
 70
     8
  9
$DIMBLK
  1

  9
$DIMASO
 70
     1
  9
$DIMSHO
 70
     1
  9
$DIMPOST
  1
(<>)
  9
$DIMAPOST
  1

  9
$DIMALT
 70
     0
  9
$DIMALTD
 70
     2
  9
$DIMALTF
 40
0.039
  9
$DIMLFAC
 40
1.0
  9
$DIMTOFL
 70
     1
  9
$DIMTVP
 40
0.0
  9
$DIMTIX
 70
     0
  9
$DIMSOXD
 70
     0
  9
$DIMSAH
 70
     1
  9
$DIMBLK1
  1
OPEN
  9
$DIMBLK2
  1
OPEN
  9
$DIMSTYLE
  2
IGA
  9
$DIMCLRD
 70
     0
  9
$DIMCLRE
 70
     0
  9
$DIMCLRT
 70
     0
  9
$DIMTFAC
 40
10.0
  9
$DIMGAP
 40
1.0
  9
$DIMJUST
 70
     0
  9
$DIMSD1
 70
     0
  9
$DIMSD2
 70
     0
  9
$DIMTOLJ
 70
     1
  9
$DIMTZIN
 70
     8
  9
$DIMALTZ
 70
     0
  9
$DIMALTTZ
 70
     0
  9
$DIMUPT
 70
     0
  9
$DIMDEC
 70
     0
  9
$DIMTDEC
 70
     0
  9
$DIMALTU
 70
     2
  9
$DIMALTTD
 70
     2
  9
$DIMTXSTY
  7
STANDARD
  9
$DIMAUNIT
 70
     0
  9
$DIMADEC
 70
     0
  9
$DIMALTRND
 40
0.0
  9
$DIMAZIN
 70
     0
  9
$DIMDSEP
 70
    46
  9
$DIMATFIT
 70
     3
  9
$DIMFRAC
 70
     0
  9
$DIMLDRBLK
  1
OPEN
  9
$DIMLUNIT
 70
     2
  9
$DIMLWD
 70
    -2
  9
$DIMLWE
 70
    -2
  9
$DIMTMOVE
 70
     2
  9
$DIMFXL
 40
1.0
  9
$DIMFXLON
 70
     0
  9
$DIMJOGANG
 40
0.7853981633974483
  9
$DIMTFILL
 70
     0
  9
$DIMTFILLCLR
 70
     0
  9
$DIMARCSYM
 70
     0
  9
$DIMLTYPE
  6

  9
$DIMLTEX1
  6

  9
$DIMLTEX2
  6

  9
$DIMTXTDIRECTION
 70
     0
  9
$LUNITS
 70
     2
  9
$LUPREC
 70
     3
  9
$SKETCHINC
 40
0.1
  9
$FILLETRAD
 40
50.0
  9
$AUNITS
 70
     0
  9
$AUPREC
 70
     0
  9
$MENU
  1
acad
  9
$ELEVATION
 40
0.0
  9
$PELEVATION
 40
0.0
  9
$THICKNESS
 40
0.0
  9
$LIMCHECK
 70
     0
  9
$CHAMFERA
 40
0.5
  9
$CHAMFERB
 40
0.5
  9
$CHAMFERC
 40
20.0
  9
$CHAMFERD
 40
0.0
  9
$SKPOLY
 70
     0
  9
$TDCREATE
 40
2451898.461944445
  9
$TDUCREATE
 40
2451898.086951968
  9
$TDUPDATE
 40
2460241.778217593
  9
$TDUUPDATE
 40
2460241.403221227
  9
$TDINDWG
 40
0.0302100694
  9
$TDUSRTIMER
 40
0.0302100694
  9
$USRTIMER
 70
     1
  9
$ANGBASE
 50
0.0
  9
$ANGDIR
 70
     0
  9
$PDMODE
 70
     0
  9
$PDSIZE
 40
0.0
  9
$PLINEWID
 40
0.0
  9
$SPLFRAME
 70
     0
  9
$SPLINETYPE
 70
     6
  9
$SPLINESEGS
 70
     8
  9
$HANDSEED
  5
84C7
  9
$SURFTAB1
 70
     6
  9
$SURFTAB2
 70
     6
  9
$SURFTYPE
 70
     6
  9
$SURFU
 70
     6
  9
$SURFV
 70
     6
  9
$UCSBASE
  2

  9
$UCSNAME
  2

  9
$UCSORG
 10
0.0
 20
0.0
 30
0.0
  9
$UCSXDIR
 10
1.0
 20
0.0
 30
0.0
  9
$UCSYDIR
 10
0.0
 20
1.0
 30
0.0
  9
$UCSORTHOREF
  2

  9
$UCSORTHOVIEW
 70
     0
  9
$UCSORGTOP
 10
0.0
 20
0.0
 30
0.0
  9
$UCSORGBOTTOM
 10
0.0
 20
0.0
 30
0.0
  9
$UCSORGLEFT
 10
0.0
 20
0.0
 30
0.0
  9
$UCSORGRIGHT
 10
0.0
 20
0.0
 30
0.0
  9
$UCSORGFRONT
 10
0.0
 20
0.0
 30
0.0
  9
$UCSORGBACK
 10
0.0
 20
0.0
 30
0.0
  9
$PUCSBASE
  2

  9
$PUCSNAME
  2

  9
$PUCSORG
 10
0.0
 20
0.0
 30
0.0
  9
$PUCSXDIR
 10
1.0
 20
0.0
 30
0.0
  9
$PUCSYDIR
 10
0.0
 20
1.0
 30
0.0
  9
$PUCSORTHOREF
  2

  9
$PUCSORTHOVIEW
 70
     0
  9
$PUCSORGTOP
 10
0.0
 20
0.0
 30
0.0
  9
$PUCSORGBOTTOM
 10
0.0
 20
0.0
 30
0.0
  9
$PUCSORGLEFT
 10
0.0
 20
0.0
 30
0.0
  9
$PUCSORGRIGHT
 10
0.0
 20
0.0
 30
0.0
  9
$PUCSORGFRONT
 10
0.0
 20
0.0
 30
0.0
  9
$PUCSORGBACK
 10
0.0
 20
0.0
 30
0.0
  9
$USERI1
 70
     0
  9
$USERI2
 70
     0
  9
$USERI3
 70
     0
  9
$USERI4
 70
     0
  9
$USERI5
 70
     0
  9
$USERR1
 40
0.0
  9
$USERR2
 40
0.0
  9
$USERR3
 40
0.0
  9
$USERR4
 40
0.0
  9
$USERR5
 40
0.0
  9
$WORLDVIEW
 70
     1
  9
$SHADEDGE
 70
     3
  9
$SHADEDIF
 70
    70
  9
$TILEMODE
 70
     1
  9
$MAXACTVP
 70
    16
  9
$PINSBASE
 10
0.0
 20
0.0
 30
0.0
  9
$PLIMCHECK
 70
     0
  9
$PEXTMIN
 10
1.000000000000000E+20
 20
1.000000000000000E+20
 30
1.000000000000000E+20
  9
$PEXTMAX
 10
-1.000000000000000E+20
 20
-1.000000000000000E+20
 30
-1.000000000000000E+20
  9
$PLIMMIN
 10
0.0
 20
0.0
  9
$PLIMMAX
 10
12.0
 20
9.0
  9
$UNITMODE
 70
     0
  9
$VISRETAIN
 70
     0
  9
$PLINEGEN
 70
     0
  9
$PSLTSCALE
 70
     1
  9
$TREEDEPTH
 70
  3020
  9
$CMLSTYLE
  2
STANDARD
  9
$CMLJUST
 70
     0
  9
$CMLSCALE
 40
20.0
  9
$PROXYGRAPHICS
 70
     1
  9
$MEASUREMENT
 70
     1
  9
$CELWEIGHT
370
    -1
  9
$ENDCAPS
280
     0
  9
$JOINSTYLE
280
     0
  9
$LWDISPLAY
290
     0
  9
$INSUNITS
 70
     0
  9
$HYPERLINKBASE
  1

  9
$STYLESHEET
  1

  9
$XEDIT
290
     1
  9
$CEPSNTYPE
380
     0
  9
$PSTYLEMODE
290
     1
  9
$FINGERPRINTGUID
  2
{D9BF4096-D710-4864-8F38-5C91F7B0C66B}
  9
$VERSIONGUID
  2
{828363B3-C090-486B-907A-E9360F6FFB5A}
  9
$EXTNAMES
290
     1
  9
$PSVPSCALE
 40
0.0
  9
$OLESTARTUP
290
     0
  9
$SORTENTS
280
   127
  9
$INDEXCTL
280
     0
  9
$HIDETEXT
280
     0
  9
$XCLIPFRAME
280
     2
  9
$HALOGAP
280
     0
  9
$OBSCOLOR
 70
   257
  9
$OBSLTYPE
280
     0
  9
$INTERSECTIONDISPLAY
280
     0
  9
$INTERSECTIONCOLOR
 70
   257
  9
$DIMASSOC
280
     1
  9
$PROJECTNAME
  1

  9
$CAMERADISPLAY
290
     0
  9
$LENSLENGTH
 40
50.0
  9
$CAMERAHEIGHT
 40
0.0
  9
$STEPSPERSEC
 40
2.0
  9
$STEPSIZE
 40
6.0
  9
$3DDWFPREC
 40
2.0
  9
$PSOLWIDTH
 40
0.25
  9
$PSOLHEIGHT
 40
4.0
  9
$LOFTANG1
 40
1.570796326794896
  9
$LOFTANG2
 40
1.570796326794896
  9
$LOFTMAG1
 40
0.0
  9
$LOFTMAG2
 40
0.0
  9
$LOFTPARAM
 70
     7
  9
$LOFTNORMALS
280
     1
  9
$LATITUDE
 40
37.795
  9
$LONGITUDE
 40
-122.394
  9
$NORTHDIRECTION
 40
0.0
  9
$TIMEZONE
 70
 -8000
  9
$LIGHTGLYPHDISPLAY
280
     1
  9
$TILEMODELIGHTSYNCH
280
     1
  9
$CMATERIAL
347
83BA
  9
$SOLIDHIST
280
     0
  9
$SHOWHIST
280
     1
  9
$DWFFRAME
280
     2
  9
$DGNFRAME
280
     0
  9
$REALWORLDSCALE
290
     1
  9
$INTERFERECOLOR
 62
     1
  9
$INTERFEREOBJVS
345
83DC
  9
$INTERFEREVPVS
346
83D9
  9
$CSHADOW
280
     0
  9
$SHADOWPLANELOCATION
 40
0.0
  0
ENDSEC
  0
SECTION
  2
CLASSES
  0
CLASS
  1
ACDBDICTIONARYWDFLT
  2
AcDbDictionaryWithDefault
  3
ObjectDBX Classes
 90
        0
 91
        1
280
     0
281
     0
  0
CLASS
  1
DICTIONARYVAR
  2
AcDbDictionaryVar
  3
ObjectDBX Classes
 90
        0
 91
       11
280
     0
281
     0
  0
CLASS
  1
MATERIAL
  2
AcDbMaterial
  3
ObjectDBX Classes
 90
     1153
 91
        3
280
     0
281
     0
  0
CLASS
  1
VISUALSTYLE
  2
AcDbVisualStyle
  3
ObjectDBX Classes
 90
     4095
 91
       24
280
     0
281
     0
  0
CLASS
  1
TABLESTYLE
  2
AcDbTableStyle
  3
ObjectDBX Classes
 90
     4095
 91
        1
280
     0
281
     0
  0
CLASS
  1
SCALE
  2
AcDbScale
  3
ObjectDBX Classes
 90
     1153
 91
       17
280
     0
281
     0
  0
CLASS
  1
MLEADERSTYLE
  2
AcDbMLeaderStyle
  3
ACDB_MLEADERSTYLE_CLASS
 90
     4095
 91
        1
280
     0
281
     0
  0
CLASS
  1
ACDBSECTIONVIEWSTYLE
  2
AcDbSectionViewStyle
  3
ObjectDBX Classes
 90
     1025
 91
        1
280
     0
281
     0
  0
CLASS
  1
ACDBDETAILVIEWSTYLE
  2
AcDbDetailViewStyle
  3
ObjectDBX Classes
 90
     1025
 91
        1
280
     0
281
     0
  0
CLASS
  1
CELLSTYLEMAP
  2
AcDbCellStyleMap
  3
ObjectDBX Classes
 90
     1152
 91
        1
280
     0
281
     0
  0
ENDSEC
  0
SECTION
  2
TABLES
  0
TABLE
  2
VPORT
  5
8
330
0
100
AcDbSymbolTable
 70
     1
1001
ACAD
1000
DbSaveVer
1071
      278
  0
VPORT
  5
83B7
330
8
100
AcDbSymbolTableRecord
100
AcDbViewportTableRecord
  2
*Active
 70
     0
 10
0.0
 20
0.0
 11
1.0
 21
1.0
 12
7113.841116720781
 22
5900.000027474012
 13
0.0
 23
0.0
 14
10.0
 24
10.0
 15
10.0
 25
10.0
 16
0.0
 26
0.0
 36
1.0
 17
0.0
 27
0.0
 37
0.0
 40
11876.28512550527
 41
2.250314465408805
 42
50.0
 43
0.0
 44
0.0
 50
0.0
 51
0.0
 71
     0
 72
   100
 73
     1
 74
     0
 75
     0
 76
     0
 77
     0
 78
     0
281
     0
 65
     1
110
0.0
120
0.0
130
0.0
111
1.0
121
0.0
131
0.0
112
0.0
122
1.0
132
0.0
 79
     0
146
0.0
348
83D8
 60
     3
 61
     5
292
     1
282
     1
141
0.0
142
0.0
 63
   250
421
  3355443
1001
ACAD_NAV_VCDISPLAY
1070
     3
  0
ENDTAB
  0
TABLE
  2
LTYPE
  5
5
330
0
100
AcDbSymbolTable
 70
     2
  0
LTYPE
  5
13
330
5
100
AcDbSymbolTableRecord
100
AcDbLinetypeTableRecord
  2
BYBLOCK
 70
     0
  3

 72
    65
 73
     0
 40
0.0
  0
LTYPE
  5
14
330
5
100
AcDbSymbolTableRecord
100
AcDbLinetypeTableRecord
  2
BYLAYER
 70
     0
  3

 72
    65
 73
     0
 40
0.0
  0
LTYPE
  5
15
330
5
100
AcDbSymbolTableRecord
100
AcDbLinetypeTableRecord
  2
CONTINUOUS
 70
     0
  3
Solid line
 72
    65
 73
     0
 40
0.0
  0
LTYPE
  5
1F
330
5
100
AcDbSymbolTableRecord
100
AcDbLinetypeTableRecord
  2
CENTER
 70
     0
  3
____ _ ____ _ ____ _ ____ _ ____ _ ____ _ ____ 
 72
    65
 73
     4
 40
2.0
 49
1.25
 74
     0
 49
-0.25
 74
     0
 49
0.25
 74
     0
 49
-0.25
 74
     0
  0
ENDTAB
  0
TABLE
  2
LAYER
  5
2
102
{ACAD_XDICTIONARY
360
849E
102
}
330
0
100
AcDbSymbolTable
 70
     6
  0
LAYER
  5
F
102
{ACAD_XDICTIONARY
360
8491
102
}
330
2
100
AcDbSymbolTableRecord
100
AcDbLayerTableRecord
  2
0
 70
     0
 62
     7
  6
CONTINUOUS
370
    -3
390
82C1
347
83CA
348
0
  0
LAYER
  5
31
102
{ACAD_XDICTIONARY
360
8493
102
}
330
2
100
AcDbSymbolTableRecord
100
AcDbLayerTableRecord
  2
3
 70
     0
 62
     2
  6
CONTINUOUS
370
    -3
390
82C1
347
83CA
348
0
  0
LAYER
  5
76D0
102
{ACAD_XDICTIONARY
360
8495
102
}
330
2
100
AcDbSymbolTableRecord
100
AcDbLayerTableRecord
  2
2
 70
     0
 62
     3
  6
CENTER
370
    -3
390
82C1
347
83CA
348
0
  0
LAYER
  5
76D1
102
{ACAD_XDICTIONARY
360
8497
102
}
330
2
100
AcDbSymbolTableRecord
100
AcDbLayerTableRecord
  2
1
 70
     0
 62
     4
  6
CONTINUOUS
370
    -3
390
82C1
347
83CA
348
0
  0
LAYER
  5
76D2
102
{ACAD_XDICTIONARY
360
8499
102
}
330
2
100
AcDbSymbolTableRecord
100
AcDbLayerTableRecord
  2
4
 70
     0
 62
     7
  6
CONTINUOUS
370
    -3
390
82C1
347
83CA
348
0
  0
LAYER
  5
7B08
330
2
100
AcDbSymbolTableRecord
100
AcDbLayerTableRecord
  2
DEFPOINTS
 70
     0
 62
     7
  6
CONTINUOUS
290
     0
370
    -3
390
82C1
347
83CA
348
0
  0
ENDTAB
  0
TABLE
  2
STYLE
  5
3
330
0
100
AcDbSymbolTable
 70
     1
  0
STYLE
  5
10
330
3
100
AcDbSymbolTableRecord
100
AcDbTextStyleTableRecord
  2
STANDARD
 70
     0
 40
0.0
 41
1.0
 50
0.0
 71
     0
 42
180.0
  3
simplex.shx
  4
extfont.shx
  0
ENDTAB
  0
TABLE
  2
VIEW
  5
6
330
0
100
AcDbSymbolTable
 70
     0
  0
ENDTAB
  0
TABLE
  2
UCS
  5
7
330
0
100
AcDbSymbolTable
 70
     0
  0
ENDTAB
  0
TABLE
  2
APPID
  5
9
330
0
100
AcDbSymbolTable
 70
     4
  0
APPID
  5
11
330
9
100
AcDbSymbolTableRecord
100
AcDbRegAppTableRecord
  2
ACAD
 70
     0
  0
APPID
  5
8409
330
9
100
AcDbSymbolTableRecord
100
AcDbRegAppTableRecord
  2
AcadAnnoMonitorAlertIconDisabled
 70
     0
  0
APPID
  5
840A
330
9
100
AcDbSymbolTableRecord
100
AcDbRegAppTableRecord
  2
ACAD_EXEMPT_FROM_CAD_STANDARDS
 70
     0
  0
APPID
  5
84A4
330
9
100
AcDbSymbolTableRecord
100
AcDbRegAppTableRecord
  2
ACAD_NAV_VCDISPLAY
 70
     0
  0
ENDTAB
  0
TABLE
  2
DIMSTYLE
  5
A
330
0
100
AcDbSymbolTable
 70
     1
100
AcDbDimStyleTable
 71
     1
340
1D
  0
DIMSTYLE
105
1D
102
{ACAD_REACTORS
330
7C35
330
7C47
330
7C48
330
7C49
330
7C52
330
7C53
330
7C89
330
7C8A
330
7C8B
330
7C8C
330
7C8D
330
7CC9
330
7CCA
330
7CCB
330
7CD6
330
7CE6
330
7CE7
330
7CE9
330
7F20
330
8060
330
827B
330
8293
330
82A0
102
}
330
A
100
AcDbSymbolTableRecord
100
AcDbDimStyleTableRecord
  2
IGA
 70
     0
 40
2.0
 41
2.0
 42
0.5
 43
10.0
 44
1.0
 47
1.0
 48
1.0
 73
     0
 74
     0
 77
     1
 78
     8
140
3.0
141
0.0
143
0.03937
146
10.0
147
1.0
173
     1
271
     1
272
     0
279
     2
284
     8
340
10
341
7EFB
343
7EFB
344
7EFB
  0
ENDTAB
  0
TABLE
  2
BLOCK_RECORD
  5
1
330
0
100
AcDbSymbolTable
 70
    27
  0
BLOCK_RECORD
  5
19
102
{ACAD_XDICTIONARY
360
82EF
102
}
330
1
100
AcDbSymbolTableRecord
100
AcDbBlockTableRecord
  2
*MODEL_SPACE
340
82C4
 70
     0
280
     1
281
     0
  0
BLOCK_RECORD
  5
16
102
{ACAD_XDICTIONARY
360
82ED
102
}
330
1
100
AcDbSymbolTableRecord
100
AcDbBlockTableRecord
  2
*PAPER_SPACE
340
82C5
 70
     0
280
     1
281
     0
  0
BLOCK_RECORD
  5
79FC
330
1
100
AcDbSymbolTableRecord
100
AcDbBlockTableRecord
  2
YA_N
340
0
102
{BLKREFS
331
7C0C
331
7C28
331
7C29
331
7CC7
331
7CDE
331
7C4E
331
7C8E
331
7CA1
102
}
 70
     0
280
     1
281
     0
  0
BLOCK_RECORD
  5
7D08
330
1
100
AcDbSymbolTableRecord
100
AcDbBlockTableRecord
  2
*D1
340
0
 70
     0
280
     1
281
     0
  0
BLOCK_RECORD
  5
7D14
330
1
100
AcDbSymbolTableRecord
100
AcDbBlockTableRecord
  2
*D2
340
0
 70
     0
280
     1
281
     0
  0
BLOCK_RECORD
  5
7D20
330
1
100
AcDbSymbolTableRecord
100
AcDbBlockTableRecord
  2
*D3
340
0
 70
     0
280
     1
281
     0
  0
BLOCK_RECORD
  5
7D2C
330
1
100
AcDbSymbolTableRecord
100
AcDbBlockTableRecord
  2
*D4
340
0
 70
     0
280
     1
281
     0
  0
BLOCK_RECORD
  5
7D38
330
1
100
AcDbSymbolTableRecord
100
AcDbBlockTableRecord
  2
*D5
340
0
 70
     0
280
     1
281
     0
  0
BLOCK_RECORD
  5
7D44
330
1
100
AcDbSymbolTableRecord
100
AcDbBlockTableRecord
  2
*D6
340
0
 70
     0
280
     1
281
     0
  0
BLOCK_RECORD
  5
7D5C
330
1
100
AcDbSymbolTableRecord
100
AcDbBlockTableRecord
  2
*D7
340
0
 70
     0
280
     1
281
     0
  0
BLOCK_RECORD
  5
7D68
330
1
100
AcDbSymbolTableRecord
100
AcDbBlockTableRecord
  2
*D8
340
0
 70
     0
280
     1
281
     0
  0
BLOCK_RECORD
  5
7D74
330
1
100
AcDbSymbolTableRecord
100
AcDbBlockTableRecord
  2
*D9
340
0
 70
     0
280
     1
281
     0
  0
BLOCK_RECORD
  5
7D7F
330
1
100
AcDbSymbolTableRecord
100
AcDbBlockTableRecord
  2
*D10
340
0
 70
     0
280
     1
281
     0
  0
BLOCK_RECORD
  5
7D8B
330
1
100
AcDbSymbolTableRecord
100
AcDbBlockTableRecord
  2
*D11
340
0
 70
     0
280
     1
281
     0
  0
BLOCK_RECORD
  5
7D97
330
1
100
AcDbSymbolTableRecord
100
AcDbBlockTableRecord
  2
*D12
340
0
 70
     0
280
     1
281
     0
  0
BLOCK_RECORD
  5
7DA3
330
1
100
AcDbSymbolTableRecord
100
AcDbBlockTableRecord
  2
*D13
340
0
 70
     0
280
     1
281
     0
  0
BLOCK_RECORD
  5
7DAF
330
1
100
AcDbSymbolTableRecord
100
AcDbBlockTableRecord
  2
*D14
340
0
 70
     0
280
     1
281
     0
  0
BLOCK_RECORD
  5
7DBB
330
1
100
AcDbSymbolTableRecord
100
AcDbBlockTableRecord
  2
*D15
340
0
 70
     0
280
     1
281
     0
  0
BLOCK_RECORD
  5
7DD3
330
1
100
AcDbSymbolTableRecord
100
AcDbBlockTableRecord
  2
*D16
340
0
 70
     0
280
     1
281
     0
  0
BLOCK_RECORD
  5
7DDF
330
1
100
AcDbSymbolTableRecord
100
AcDbBlockTableRecord
  2
*D17
340
0
 70
     0
280
     1
281
     0
  0
BLOCK_RECORD
  5
7DF7
330
1
100
AcDbSymbolTableRecord
100
AcDbBlockTableRecord
  2
*D18
340
0
 70
     0
280
     1
281
     0
  0
BLOCK_RECORD
  5
7EFB
330
1
100
AcDbSymbolTableRecord
100
AcDbBlockTableRecord
  2
_OPEN
340
0
102
{BLKREFS
331
8313
331
8314
331
832E
331
832F
331
8337
331
8338
331
8340
331
8341
331
8349
331
834A
331
8352
331
8353
331
8364
331
8365
331
836D
331
836E
331
837F
331
8380
331
8388
331
8389
331
8391
331
8392
331
83A5
331
83A6
331
8445
331
8446
331
844E
331
844F
331
8457
331
8458
331
8460
331
8461
331
8469
331
846A
331
8472
331
8473
331
847E
331
848B
331
848C
331
8274
331
8275
331
82F8
331
82F9
102
}
 70
     0
280
     1
281
     0
  0
BLOCK_RECORD
  5
7F11
330
1
100
AcDbSymbolTableRecord
100
AcDbBlockTableRecord
  2
*D20
340
0
 70
     0
280
     1
281
     0
  0
BLOCK_RECORD
  5
8054
330
1
100
AcDbSymbolTableRecord
100
AcDbBlockTableRecord
  2
*D21
340
0
 70
     0
280
     1
281
     0
  0
BLOCK_RECORD
  5
80BB
330
1
100
AcDbSymbolTableRecord
100
AcDbBlockTableRecord
  2
_DOT
340
0
102
{BLKREFS
331
847D
102
}
 70
     0
280
     1
281
     0
  0
BLOCK_RECORD
  5
825F
330
1
100
AcDbSymbolTableRecord
100
AcDbBlockTableRecord
  2
_NONE
340
0
 70
     0
280
     1
281
     0
  0
BLOCK_RECORD
  5
826F
330
1
100
AcDbSymbolTableRecord
100
AcDbBlockTableRecord
  2
*D24
340
0
 70
     0
280
     1
281
     0
  0
BLOCK_RECORD
  5
828B
330
1
100
AcDbSymbolTableRecord
100
AcDbBlockTableRecord
  2
*D25
340
0
 70
     0
280
     1
281
     0
  0
BLOCK_RECORD
  5
8294
330
1
100
AcDbSymbolTableRecord
100
AcDbBlockTableRecord
  2
*D26
340
0
 70
     0
280
     1
281
     0
  0
ENDTAB
  0
ENDSEC
  0
SECTION
  2
BLOCKS
  0
BLOCK
  5
1A
330
19
100
AcDbEntity
  8
0
100
AcDbBlockBegin
  2
*MODEL_SPACE
 70
     0
 10
0.0
 20
0.0
 30
0.0
  3
*MODEL_SPACE
  1

  0
ENDBLK
  5
1B
330
19
100
AcDbEntity
  8
0
100
AcDbBlockEnd
  0
BLOCK
  5
17
330
16
100
AcDbEntity
 67
     1
  8
0
100
AcDbBlockBegin
  2
*PAPER_SPACE
 70
     0
 10
0.0
 20
0.0
 30
0.0
  3
*PAPER_SPACE
  1

  0
ENDBLK
  5
18
330
16
100
AcDbEntity
 67
     1
  8
0
100
AcDbBlockEnd
  0
BLOCK
  5
79FD
330
79FC
100
AcDbEntity
  8
0
100
AcDbBlockBegin
  2
YA_N
 70
     0
 10
0.0
 20
0.0
 30
0.0
  3
YA_N
  1

  0
ENDBLK
  5
79FE
330
79FC
100
AcDbEntity
  8
0
100
AcDbBlockEnd
  0
BLOCK
  5
803C
330
7D08
100
AcDbEntity
  8
0
100
AcDbBlockBegin
  2
*D1
 70
     1
 10
0.0
 20
0.0
 30
0.0
  3
*D1
  1

  0
LINE
  5
82F5
330
7D08
100
AcDbEntity
  8
3
 62
     0
440
 16777216
100
AcDbLine
 10
5531.407928765325
 20
5310.856382047695
 30
0.0
 11
5531.407928765325
 21
5579.256168514261
 31
0.0
  0
LINE
  5
82F6
330
7D08
100
AcDbEntity
  8
3
 62
     0
440
 16777216
100
AcDbLine
 10
7231.407928765325
 20
5310.856382047695
 30
0.0
 11
7231.407928765325
 21
5579.256168514261
 31
0.0
  0
LINE
  5
82F7
330
7D08
100
AcDbEntity
  8
3
 62
     0
440
 16777216
100
AcDbLine
 10
5611.407928765326
 20
5539.256168514261
 30
0.0
 11
7151.407928765326
 21
5539.256168514261
 31
0.0
  0
INSERT
  5
82F8
330
7D08
100
AcDbEntity
  8
3
 62
     0
440
 16777216
100
AcDbBlockReference
  2
_OPEN
 10
5531.407928765325
 20
5539.256168514261
 30
0.0
 41
80.0
 42
80.0
 43
80.0
 50
180.0
  0
INSERT
  5
82F9
330
7D08
100
AcDbEntity
  8
3
 62
     0
440
 16777216
100
AcDbBlockReference
  2
_OPEN
 10
7231.407928765325
 20
5539.256168514261
 30
0.0
 41
80.0
 42
80.0
 43
80.0
  0
MTEXT
  5
82FA
330
7D08
100
AcDbEntity
  8
3
 62
     0
440
 16777216
100
AcDbMText
 10
6381.407928765326
 20
5639.256168514261
 30
0.0
 40
120.0
 41
0.0
 46
0.0
 71
     5
 72
     5
  1
\A1;1700
 73
     1
 44
1.0
  0
POINT
  5
82FB
330
7D08
100
AcDbEntity
  8
DEFPOINTS
 62
     0
440
 16777216
100
AcDbPoint
 10
5531.407928765325
 20
5290.856382047696
 30
0.0
  0
POINT
  5
82FC
330
7D08
100
AcDbEntity
  8
DEFPOINTS
 62
     0
440
 16777216
100
AcDbPoint
 10
7231.407928765325
 20
5290.856382047696
 30
0.0
  0
POINT
  5
82FD
330
7D08
100
AcDbEntity
  8
DEFPOINTS
 62
     0
440
 16777216
100
AcDbPoint
 10
7231.407928765325
 20
5539.256168514261
 30
0.0
  0
ENDBLK
  5
8046
330
7D08
100
AcDbEntity
  8
0
100
AcDbBlockEnd
  0
BLOCK
  5
816A
330
7D14
100
AcDbEntity
  8
0
100
AcDbBlockBegin
  2
*D2
 70
     1
 10
0.0
 20
0.0
 30
0.0
  3
*D2
  1

  0
LINE
  5
844B
330
7D14
100
AcDbEntity
  8
3
 62
     0
440
 16777216
370
    -2
100
AcDbLine
 10
5061.407928765326
 20
4669.935954207627
 30
0.0
 11
5061.407928765326
 21
5861.298092940815
 31
0.0
  0
LINE
  5
844C
330
7D14
100
AcDbEntity
  8
3
 62
     0
440
 16777216
370
    -2
100
AcDbLine
 10
6381.407928765326
 20
5742.787629067658
 30
0.0
 11
6381.407928765326
 21
5861.298092940815
 31
0.0
  0
LINE
  5
844D
330
7D14
100
AcDbEntity
  8
3
 62
     0
440
 16777216
370
    -2
100
AcDbLine
 10
5141.407928765326
 20
5821.298092940815
 30
0.0
 11
6301.407928765326
 21
5821.298092940815
 31
0.0
  0
INSERT
  5
844E
330
7D14
100
AcDbEntity
  8
3
 62
     0
440
 16777216
370
    -2
100
AcDbBlockReference
  2
_OPEN
 10
5061.407928765326
 20
5821.298092940815
 30
0.0
 41
80.0
 42
80.0
 43
80.0
 50
180.0
  0
INSERT
  5
844F
330
7D14
100
AcDbEntity
  8
3
 62
     0
440
 16777216
370
    -2
100
AcDbBlockReference
  2
_OPEN
 10
6381.407928765326
 20
5821.298092940815
 30
0.0
 41
80.0
 42
80.0
 43
80.0
  0
MTEXT
  5
8450
330
7D14
100
AcDbEntity
  8
3
 62
     0
440
 16777216
100
AcDbMText
 10
5721.407928765326
 20
5952.726664369386
 30
0.0
 40
120.0
 41
0.0
 46
0.0
 71
     5
 72
     1
  1
\A1;(1320)
 73
     1
 44
1.0
  0
POINT
  5
8451
330
7D14
100
AcDbEntity
  8
DEFPOINTS
 62
     0
440
 16777216
100
AcDbPoint
 10
5061.407928765326
 20
4649.935954207626
 30
0.0
  0
POINT
  5
8452
330
7D14
100
AcDbEntity
  8
DEFPOINTS
 62
     0
440
 16777216
100
AcDbPoint
 10
6381.407928765326
 20
5722.787629067657
 30
0.0
  0
POINT
  5
8453
330
7D14
100
AcDbEntity
  8
DEFPOINTS
 62
     0
440
 16777216
100
AcDbPoint
 10
6381.407928765326
 20
5821.298092940815
 30
0.0
  0
ENDBLK
  5
8174
330
7D14
100
AcDbEntity
  8
0
100
AcDbBlockEnd
  0
BLOCK
  5
8175
330
7D20
100
AcDbEntity
  8
0
100
AcDbBlockBegin
  2
*D3
 70
     1
 10
0.0
 20
0.0
 30
0.0
  3
*D3
  1

  0
LINE
  5
8442
330
7D20
100
AcDbEntity
  8
3
 62
     0
440
 16777216
370
    -2
100
AcDbLine
 10
6381.407928765326
 20
5742.787629067658
 30
0.0
 11
6381.407928765326
 21
5860.910505835629
 31
0.0
  0
LINE
  5
8443
330
7D20
100
AcDbEntity
  8
3
 62
     0
440
 16777216
370
    -2
100
AcDbLine
 10
7400.907928765326
 20
4313.935954207627
 30
0.0
 11
7400.907928765326
 21
5860.910505835629
 31
0.0
  0
LINE
  5
8444
330
7D20
100
AcDbEntity
  8
3
 62
     0
440
 16777216
370
    -2
100
AcDbLine
 10
6461.407928765325
 20
5820.910505835629
 30
0.0
 11
7320.907928765326
 21
5820.910505835629
 31
0.0
  0
INSERT
  5
8445
330
7D20
100
AcDbEntity
  8
3
 62
     0
440
 16777216
370
    -2
100
AcDbBlockReference
  2
_OPEN
 10
6381.407928765326
 20
5820.910505835629
 30
0.0
 41
80.0
 42
80.0
 43
80.0
 50
180.0
  0
INSERT
  5
8446
330
7D20
100
AcDbEntity
  8
3
 62
     0
440
 16777216
370
    -2
100
AcDbBlockReference
  2
_OPEN
 10
7400.907928765326
 20
5820.910505835629
 30
0.0
 41
80.0
 42
80.0
 43
80.0
  0
MTEXT
  5
8447
330
7D20
100
AcDbEntity
  8
3
 62
     0
440
 16777216
100
AcDbMText
 10
6891.157928765325
 20
5952.339077264201
 30
0.0
 40
120.0
 41
0.0
 46
0.0
 71
     5
 72
     1
  1
\A1;(1020)
 73
     1
 44
1.0
  0
POINT
  5
8448
330
7D20
100
AcDbEntity
  8
DEFPOINTS
 62
     0
440
 16777216
100
AcDbPoint
 10
6381.407928765326
 20
5722.787629067657
 30
0.0
  0
POINT
  5
8449
330
7D20
100
AcDbEntity
  8
DEFPOINTS
 62
     0
440
 16777216
100
AcDbPoint
 10
7400.907928765326
 20
4293.935954207627
 30
0.0
  0
POINT
  5
844A
330
7D20
100
AcDbEntity
  8
DEFPOINTS
 62
     0
440
 16777216
100
AcDbPoint
 10
7400.907928765326
 20
5820.910505835629
 30
0.0
  0
ENDBLK
  5
817F
330
7D20
100
AcDbEntity
  8
0
100
AcDbBlockEnd
  0
BLOCK
  5
801B
330
7D2C
100
AcDbEntity
  8
0
100
AcDbBlockBegin
  2
*D4
 70
     1
 10
0.0
 20
0.0
 30
0.0
  3
*D4
  1

  0
LINE
  5
8310
330
7D2C
100
AcDbEntity
  8
3
 62
     0
440
 16777216
100
AcDbLine
 10
7253.707928765327
 20
4994.935954207627
 30
0.0
 11
7682.67755367783
 21
4994.935954207627
 31
0.0
  0
LINE
  5
8311
330
7D2C
100
AcDbEntity
  8
3
 62
     0
440
 16777216
100
AcDbLine
 10
7253.707928765327
 20
3744.935954207627
 30
0.0
 11
7682.67755367783
 21
3744.935954207627
 31
0.0
  0
LINE
  5
8312
330
7D2C
100
AcDbEntity
  8
3
 62
     0
440
 16777216
100
AcDbLine
 10
7642.677553677829
 20
4914.935954207628
 30
0.0
 11
7642.677553677829
 21
3824.935954207627
 31
0.0
  0
INSERT
  5
8313
330
7D2C
100
AcDbEntity
  8
3
 62
     0
440
 16777216
100
AcDbBlockReference
  2
_OPEN
 10
7642.677553677829
 20
4994.935954207627
 30
0.0
 41
80.0
 42
80.0
 43
80.0
 50
90.0
  0
INSERT
  5
8314
330
7D2C
100
AcDbEntity
  8
3
 62
     0
440
 16777216
100
AcDbBlockReference
  2
_OPEN
 10
7642.677553677829
 20
3744.935954207627
 30
0.0
 41
80.0
 42
80.0
 43
80.0
 50
270.0
  0
MTEXT
  5
8315
330
7D2C
100
AcDbEntity
  8
3
 62
     0
440
 16777216
100
AcDbMText
 10
7542.67755367783
 20
4369.935954207628
 30
0.0
 40
120.0
 41
0.0
 46
0.0
 71
     5
 72
     5
  1
\A1;φ1250
 11
0.0000000000000001
 21
1.0
 31
0.0
 73
     1
 44
1.0
  0
POINT
  5
8316
330
7D2C
100
AcDbEntity
  8
DEFPOINTS
 62
     0
440
 16777216
100
AcDbPoint
 10
7233.707928765326
 20
4994.935954207627
 30
0.0
  0
POINT
  5
8317
330
7D2C
100
AcDbEntity
  8
DEFPOINTS
 62
     0
440
 16777216
100
AcDbPoint
 10
7233.707928765326
 20
3744.935954207627
 30
0.0
  0
POINT
  5
8318
330
7D2C
100
AcDbEntity
  8
DEFPOINTS
 62
     0
440
 16777216
100
AcDbPoint
 10
7642.677553677829
 20
3744.935954207627
 30
0.0
  0
ENDBLK
  5
8025
330
7D2C
100
AcDbEntity
  8
0
100
AcDbBlockEnd
  0
BLOCK
  5
81CC
330
7D38
100
AcDbEntity
  8
0
100
AcDbBlockBegin
  2
*D5
 70
     1
 10
0.0
 20
0.0
 30
0.0
  3
*D5
  1

  0
LINE
  5
8454
330
7D38
100
AcDbEntity
  8
3
 62
     0
440
 16777216
370
    -2
100
AcDbLine
 10
5190.407928765324
 20
2739.935954207628
 30
0.0
 11
5190.407928765324
 21
2376.346162525115
 31
0.0
  0
LINE
  5
8455
330
7D38
100
AcDbEntity
  8
3
 62
     0
440
 16777216
370
    -2
100
AcDbLine
 10
6381.407928765325
 20
2739.935954207628
 30
0.0
 11
6381.407928765325
 21
2376.346162525115
 31
0.0
  0
LINE
  5
8456
330
7D38
100
AcDbEntity
  8
3
 62
     0
440
 16777216
370
    -2
100
AcDbLine
 10
5270.407928765325
 20
2416.346162525115
 30
0.0
 11
6301.407928765325
 21
2416.346162525115
 31
0.0
  0
INSERT
  5
8457
330
7D38
100
AcDbEntity
  8
3
 62
     0
440
 16777216
370
    -2
100
AcDbBlockReference
  2
_OPEN
 10
5190.407928765324
 20
2416.346162525115
 30
0.0
 41
80.0
 42
80.0
 43
80.0
 50
180.0
  0
INSERT
  5
8458
330
7D38
100
AcDbEntity
  8
3
 62
     0
440
 16777216
370
    -2
100
AcDbBlockReference
  2
_OPEN
 10
6381.407928765325
 20
2416.346162525115
 30
0.0
 41
80.0
 42
80.0
 43
80.0
  0
MTEXT
  5
8459
330
7D38
100
AcDbEntity
  8
3
 62
     0
440
 16777216
100
AcDbMText
 10
5785.907928765325
 20
2516.346162525115
 30
0.0
 40
120.0
 41
0.0
 46
0.0
 71
     5
 72
     1
  1
\A1;1191
 73
     1
 44
1.0
  0
POINT
  5
845A
330
7D38
100
AcDbEntity
  8
DEFPOINTS
 62
     0
440
 16777216
100
AcDbPoint
 10
5190.407928765324
 20
2759.935954207627
 30
0.0
  0
POINT
  5
845B
330
7D38
100
AcDbEntity
  8
DEFPOINTS
 62
     0
440
 16777216
100
AcDbPoint
 10
6381.407928765325
 20
2759.935954207627
 30
0.0
  0
POINT
  5
845C
330
7D38
100
AcDbEntity
  8
DEFPOINTS
 62
     0
440
 16777216
100
AcDbPoint
 10
6381.407928765325
 20
2416.346162525115
 30
0.0
  0
ENDBLK
  5
81D6
330
7D38
100
AcDbEntity
  8
0
100
AcDbBlockEnd
  0
BLOCK
  5
81B6
330
7D44
100
AcDbEntity
  8
0
100
AcDbBlockBegin
  2
*D6
 70
     1
 10
0.0
 20
0.0
 30
0.0
  3
*D6
  1

  0
LINE
  5
845D
330
7D44
100
AcDbEntity
  8
3
 62
     0
440
 16777216
370
    -2
100
AcDbLine
 10
6381.407928765325
 20
2739.935954207628
 30
0.0
 11
6381.407928765325
 21
2376.346162525115
 31
0.0
  0
LINE
  5
845E
330
7D44
100
AcDbEntity
  8
3
 62
     0
440
 16777216
370
    -2
100
AcDbLine
 10
7310.407928765326
 20
2739.935954207628
 30
0.0
 11
7310.407928765326
 21
2376.346162525115
 31
0.0
  0
LINE
  5
845F
330
7D44
100
AcDbEntity
  8
3
 62
     0
440
 16777216
370
    -2
100
AcDbLine
 10
6461.407928765325
 20
2416.346162525115
 30
0.0
 11
7230.407928765327
 21
2416.346162525115
 31
0.0
  0
INSERT
  5
8460
330
7D44
100
AcDbEntity
  8
3
 62
     0
440
 16777216
370
    -2
100
AcDbBlockReference
  2
_OPEN
 10
6381.407928765325
 20
2416.346162525115
 30
0.0
 41
80.0
 42
80.0
 43
80.0
 50
180.0
  0
INSERT
  5
8461
330
7D44
100
AcDbEntity
  8
3
 62
     0
440
 16777216
370
    -2
100
AcDbBlockReference
  2
_OPEN
 10
7310.407928765326
 20
2416.346162525115
 30
0.0
 41
80.0
 42
80.0
 43
80.0
  0
MTEXT
  5
8462
330
7D44
100
AcDbEntity
  8
3
 62
     0
440
 16777216
100
AcDbMText
 10
6845.907928765325
 20
2516.346162525115
 30
0.0
 40
120.0
 41
0.0
 46
0.0
 71
     5
 72
     1
  1
\A1;929
 73
     1
 44
1.0
  0
POINT
  5
8463
330
7D44
100
AcDbEntity
  8
DEFPOINTS
 62
     0
440
 16777216
100
AcDbPoint
 10
6381.407928765325
 20
2759.935954207627
 30
0.0
  0
POINT
  5
8464
330
7D44
100
AcDbEntity
  8
DEFPOINTS
 62
     0
440
 16777216
100
AcDbPoint
 10
7310.407928765326
 20
2759.935954207627
 30
0.0
  0
POINT
  5
8465
330
7D44
100
AcDbEntity
  8
DEFPOINTS
 62
     0
440
 16777216
100
AcDbPoint
 10
7310.407928765326
 20
2416.346162525115
 30
0.0
  0
ENDBLK
  5
81C0
330
7D44
100
AcDbEntity
  8
0
100
AcDbBlockEnd
  0
BLOCK
  5
8210
330
7D5C
100
AcDbEntity
  8
0
100
AcDbBlockBegin
  2
*D7
 70
     1
 10
0.0
 20
0.0
 30
0.0
  3
*D7
  1

  0
LINE
  5
832B
330
7D5C
100
AcDbEntity
  8
3
 62
     0
440
 16777216
100
AcDbLine
 10
2006.831659683934
 20
8886.623467839006
 30
0.0
 11
1537.8155184481
 21
8886.623467839006
 31
0.0
  0
LINE
  5
832C
330
7D5C
100
AcDbEntity
  8
3
 62
     0
440
 16777216
100
AcDbLine
 10
2006.831659683934
 20
6766.623467839007
 30
0.0
 11
1537.8155184481
 21
6766.623467839007
 31
0.0
  0
LINE
  5
832D
330
7D5C
100
AcDbEntity
  8
3
 62
     0
440
 16777216
100
AcDbLine
 10
1577.8155184481
 20
8806.623467839006
 30
0.0
 11
1577.8155184481
 21
6846.623467839008
 31
0.0
  0
INSERT
  5
832E
330
7D5C
100
AcDbEntity
  8
3
 62
     0
440
 16777216
100
AcDbBlockReference
  2
_OPEN
 10
1577.8155184481
 20
8886.623467839006
 30
0.0
 41
80.0
 42
80.0
 43
80.0
 50
90.0
  0
INSERT
  5
832F
330
7D5C
100
AcDbEntity
  8
3
 62
     0
440
 16777216
100
AcDbBlockReference
  2
_OPEN
 10
1577.8155184481
 20
6766.623467839007
 30
0.0
 41
80.0
 42
80.0
 43
80.0
 50
270.0
  0
MTEXT
  5
8330
330
7D5C
100
AcDbEntity
  8
3
 62
     0
440
 16777216
100
AcDbMText
 10
1477.815518448099
 20
7826.623467839006
 30
0.0
 40
120.0
 41
0.0
 46
0.0
 71
     5
 72
     5
  1
\A1;2120
 11
0.0000000000000001
 21
1.0
 31
0.0
 73
     1
 44
1.0
  0
POINT
  5
8331
330
7D5C
100
AcDbEntity
  8
DEFPOINTS
 62
     0
440
 16777216
100
AcDbPoint
 10
2026.831659683934
 20
8886.623467839006
 30
0.0
  0
POINT
  5
8332
330
7D5C
100
AcDbEntity
  8
DEFPOINTS
 62
     0
440
 16777216
100
AcDbPoint
 10
2026.831659683934
 20
6766.623467839007
 30
0.0
  0
POINT
  5
8333
330
7D5C
100
AcDbEntity
  8
DEFPOINTS
 62
     0
440
 16777216
100
AcDbPoint
 10
1577.8155184481
 20
6766.623467839007
 30
0.0
  0
ENDBLK
  5
821A
330
7D5C
100
AcDbEntity
  8
0
100
AcDbBlockEnd
  0
BLOCK
  5
7FE4
330
7D68
100
AcDbEntity
  8
0
100
AcDbBlockBegin
  2
*D8
 70
     1
 10
0.0
 20
0.0
 30
0.0
  3
*D8
  1

  0
LINE
  5
8334
330
7D68
100
AcDbEntity
  8
3
 62
     0
440
 16777216
100
AcDbLine
 10
2026.831659683934
 20
8906.623467839006
 30
0.0
 11
2026.831659683934
 21
9131.259606344192
 31
0.0
  0
LINE
  5
8335
330
7D68
100
AcDbEntity
  8
3
 62
     0
440
 16777216
100
AcDbLine
 10
3526.831659683934
 20
8906.623467839009
 30
0.0
 11
3526.831659683934
 21
9131.259606344192
 31
0.0
  0
LINE
  5
8336
330
7D68
100
AcDbEntity
  8
3
 62
     0
440
 16777216
100
AcDbLine
 10
2106.831659683934
 20
9091.259606344193
 30
0.0
 11
3446.831659683935
 21
9091.259606344193
 31
0.0
  0
INSERT
  5
8337
330
7D68
100
AcDbEntity
  8
3
 62
     0
440
 16777216
100
AcDbBlockReference
  2
_OPEN
 10
2026.831659683934
 20
9091.259606344193
 30
0.0
 41
80.0
 42
80.0
 43
80.0
 50
180.0
  0
INSERT
  5
8338
330
7D68
100
AcDbEntity
  8
3
 62
     0
440
 16777216
100
AcDbBlockReference
  2
_OPEN
 10
3526.831659683934
 20
9091.259606344193
 30
0.0
 41
80.0
 42
80.0
 43
80.0
  0
MTEXT
  5
8339
330
7D68
100
AcDbEntity
  8
3
 62
     0
440
 16777216
100
AcDbMText
 10
2776.831659683934
 20
9191.259606344193
 30
0.0
 40
120.0
 41
0.0
 46
0.0
 71
     5
 72
     5
  1
\A1;1500
 73
     1
 44
1.0
  0
POINT
  5
833A
330
7D68
100
AcDbEntity
  8
DEFPOINTS
 62
     0
440
 16777216
100
AcDbPoint
 10
2026.831659683934
 20
8886.623467839006
 30
0.0
  0
POINT
  5
833B
330
7D68
100
AcDbEntity
  8
DEFPOINTS
 62
     0
440
 16777216
100
AcDbPoint
 10
3526.831659683934
 20
8886.623467839008
 30
0.0
  0
POINT
  5
833C
330
7D68
100
AcDbEntity
  8
DEFPOINTS
 62
     0
440
 16777216
100
AcDbPoint
 10
3526.831659683934
 20
9091.259606344193
 30
0.0
  0
ENDBLK
  5
7FEE
330
7D68
100
AcDbEntity
  8
0
100
AcDbBlockEnd
  0
BLOCK
  5
8231
330
7D74
100
AcDbEntity
  8
0
100
AcDbBlockBegin
  2
*D9
 70
     1
 10
0.0
 20
0.0
 30
0.0
  3
*D9
  1

  0
LINE
  5
833D
330
7D74
100
AcDbEntity
  8
3
 62
     0
440
 16777216
100
AcDbLine
 10
3526.831659683934
 20
8906.623467839009
 30
0.0
 11
3526.831659683934
 21
9131.259606344192
 31
0.0
  0
LINE
  5
833E
330
7D74
100
AcDbEntity
  8
3
 62
     0
440
 16777216
100
AcDbLine
 10
4676.831659683934
 20
7886.623467839008
 30
0.0
 11
4676.831659683934
 21
9131.259606344192
 31
0.0
  0
LINE
  5
833F
330
7D74
100
AcDbEntity
  8
3
 62
     0
440
 16777216
100
AcDbLine
 10
3606.831659683934
 20
9091.259606344193
 30
0.0
 11
4596.831659683934
 21
9091.259606344193
 31
0.0
  0
INSERT
  5
8340
330
7D74
100
AcDbEntity
  8
3
 62
     0
440
 16777216
100
AcDbBlockReference
  2
_OPEN
 10
3526.831659683934
 20
9091.259606344193
 30
0.0
 41
80.0
 42
80.0
 43
80.0
 50
180.0
  0
INSERT
  5
8341
330
7D74
100
AcDbEntity
  8
3
 62
     0
440
 16777216
100
AcDbBlockReference
  2
_OPEN
 10
4676.831659683934
 20
9091.259606344193
 30
0.0
 41
80.0
 42
80.0
 43
80.0
  0
MTEXT
  5
8342
330
7D74
100
AcDbEntity
  8
3
 62
     0
440
 16777216
100
AcDbMText
 10
4101.831659683933
 20
9191.259606344193
 30
0.0
 40
120.0
 41
0.0
 46
0.0
 71
     5
 72
     5
  1
\A1;1150
 73
     1
 44
1.0
  0
POINT
  5
8343
330
7D74
100
AcDbEntity
  8
DEFPOINTS
 62
     0
440
 16777216
100
AcDbPoint
 10
3526.831659683934
 20
8886.623467839008
 30
0.0
  0
POINT
  5
8344
330
7D74
100
AcDbEntity
  8
DEFPOINTS
 62
     0
440
 16777216
100
AcDbPoint
 10
4676.831659683934
 20
7866.623467839009
 30
0.0
  0
POINT
  5
8345
330
7D74
100
AcDbEntity
  8
DEFPOINTS
 62
     0
440
 16777216
100
AcDbPoint
 10
4676.831659683934
 20
9091.259606344193
 30
0.0
  0
ENDBLK
  5
823B
330
7D74
100
AcDbEntity
  8
0
100
AcDbBlockEnd
  0
BLOCK
  5
8226
330
7D7F
100
AcDbEntity
  8
0
100
AcDbBlockBegin
  2
*D10
 70
     1
 10
0.0
 20
0.0
 30
0.0
  3
*D10
  1

  0
LINE
  5
8346
330
7D7F
100
AcDbEntity
  8
3
 62
     0
440
 16777216
100
AcDbLine
 10
4696.831659683934
 20
7866.623467839009
 30
0.0
 11
4983.158060791513
 21
7866.623467839009
 31
0.0
  0
LINE
  5
8347
330
7D7F
100
AcDbEntity
  8
3
 62
     0
440
 16777216
100
AcDbLine
 10
4696.831659683934
 20
6766.623467839008
 30
0.0
 11
4983.158060791513
 21
6766.623467839008
 31
0.0
  0
LINE
  5
8348
330
7D7F
100
AcDbEntity
  8
3
 62
     0
440
 16777216
100
AcDbLine
 10
4943.158060791513
 20
7786.623467839008
 30
0.0
 11
4943.158060791513
 21
6846.623467839008
 31
0.0
  0
INSERT
  5
8349
330
7D7F
100
AcDbEntity
  8
3
 62
     0
440
 16777216
100
AcDbBlockReference
  2
_OPEN
 10
4943.158060791513
 20
7866.623467839009
 30
0.0
 41
80.0
 42
80.0
 43
80.0
 50
90.0
  0
INSERT
  5
834A
330
7D7F
100
AcDbEntity
  8
3
 62
     0
440
 16777216
100
AcDbBlockReference
  2
_OPEN
 10
4943.158060791513
 20
6766.623467839008
 30
0.0
 41
80.0
 42
80.0
 43
80.0
 50
270.0
  0
MTEXT
  5
834B
330
7D7F
100
AcDbEntity
  8
3
 62
     0
440
 16777216
100
AcDbMText
 10
4843.158060791512
 20
7316.62346783901
 30
0.0
 40
120.0
 41
0.0
 46
0.0
 71
     5
 72
     5
  1
\A1;1100
 11
0.0000000000000001
 21
1.0
 31
0.0
 73
     1
 44
1.0
  0
POINT
  5
834C
330
7D7F
100
AcDbEntity
  8
DEFPOINTS
 62
     0
440
 16777216
100
AcDbPoint
 10
4676.831659683934
 20
7866.623467839009
 30
0.0
  0
POINT
  5
834D
330
7D7F
100
AcDbEntity
  8
DEFPOINTS
 62
     0
440
 16777216
100
AcDbPoint
 10
4676.831659683934
 20
6766.623467839008
 30
0.0
  0
POINT
  5
834E
330
7D7F
100
AcDbEntity
  8
DEFPOINTS
 62
     0
440
 16777216
100
AcDbPoint
 10
4943.158060791513
 20
6766.623467839008
 30
0.0
  0
ENDBLK
  5
8230
330
7D7F
100
AcDbEntity
  8
0
100
AcDbBlockEnd
  0
BLOCK
  5
823C
330
7D8B
100
AcDbEntity
  8
0
100
AcDbBlockBegin
  2
*D11
 70
     1
 10
0.0
 20
0.0
 30
0.0
  3
*D11
  1

  0
LINE
  5
834F
330
7D8B
100
AcDbEntity
  8
3
 62
     0
440
 16777216
100
AcDbLine
 10
4676.831659683934
 20
6746.623467839008
 30
0.0
 11
4676.831659683934
 21
6361.869589649355
 31
0.0
  0
LINE
  5
8350
330
7D8B
100
AcDbEntity
  8
3
 62
     0
440
 16777216
100
AcDbLine
 10
2026.831659683934
 20
6746.623467839008
 30
0.0
 11
2026.831659683934
 21
6361.869589649355
 31
0.0
  0
LINE
  5
8351
330
7D8B
100
AcDbEntity
  8
3
 62
     0
440
 16777216
100
AcDbLine
 10
4596.831659683934
 20
6401.869589649355
 30
0.0
 11
2106.831659683934
 21
6401.869589649355
 31
0.0
  0
INSERT
  5
8352
330
7D8B
100
AcDbEntity
  8
3
 62
     0
440
 16777216
100
AcDbBlockReference
  2
_OPEN
 10
4676.831659683934
 20
6401.869589649355
 30
0.0
 41
80.0
 42
80.0
 43
80.0
  0
INSERT
  5
8353
330
7D8B
100
AcDbEntity
  8
3
 62
     0
440
 16777216
100
AcDbBlockReference
  2
_OPEN
 10
2026.831659683934
 20
6401.869589649355
 30
0.0
 41
80.0
 42
80.0
 43
80.0
 50
180.0
  0
MTEXT
  5
8354
330
7D8B
100
AcDbEntity
  8
3
 62
     0
440
 16777216
100
AcDbMText
 10
3351.831659683934
 20
6501.869589649356
 30
0.0
 40
120.0
 41
0.0
 46
0.0
 71
     5
 72
     5
  1
\A1;2650
 73
     1
 44
1.0
  0
POINT
  5
8355
330
7D8B
100
AcDbEntity
  8
DEFPOINTS
 62
     0
440
 16777216
100
AcDbPoint
 10
4676.831659683934
 20
6766.623467839008
 30
0.0
  0
POINT
  5
8356
330
7D8B
100
AcDbEntity
  8
DEFPOINTS
 62
     0
440
 16777216
100
AcDbPoint
 10
2026.831659683934
 20
6766.623467839007
 30
0.0
  0
POINT
  5
8357
330
7D8B
100
AcDbEntity
  8
DEFPOINTS
 62
     0
440
 16777216
100
AcDbPoint
 10
2026.831659683934
 20
6401.869589649355
 30
0.0
  0
ENDBLK
  5
8246
330
7D8B
100
AcDbEntity
  8
0
100
AcDbBlockEnd
  0
BLOCK
  5
8133
330
7D97
100
AcDbEntity
  8
0
100
AcDbBlockBegin
  2
*D12
 70
     1
 10
0.0
 20
0.0
 30
0.0
  3
*D12
  1

  0
LINE
  5
8466
330
7D97
100
AcDbEntity
  8
3
 62
     0
440
 16777216
370
    -2
100
AcDbLine
 10
2026.831659683934
 20
2739.935954207628
 30
0.0
 11
2026.831659683934
 21
2356.726181904516
 31
0.0
  0
LINE
  5
8467
330
7D97
100
AcDbEntity
  8
3
 62
     0
440
 16777216
370
    -2
100
AcDbLine
 10
2776.831659683934
 20
2739.935954207628
 30
0.0
 11
2776.831659683934
 21
2356.726181904516
 31
0.0
  0
LINE
  5
8468
330
7D97
100
AcDbEntity
  8
3
 62
     0
440
 16777216
370
    -2
100
AcDbLine
 10
2106.831659683934
 20
2396.726181904516
 30
0.0
 11
2696.831659683934
 21
2396.726181904516
 31
0.0
  0
INSERT
  5
8469
330
7D97
100
AcDbEntity
  8
3
 62
     0
440
 16777216
370
    -2
100
AcDbBlockReference
  2
_OPEN
 10
2026.831659683934
 20
2396.726181904516
 30
0.0
 41
80.0
 42
80.0
 43
80.0
 50
180.0
  0
INSERT
  5
846A
330
7D97
100
AcDbEntity
  8
3
 62
     0
440
 16777216
370
    -2
100
AcDbBlockReference
  2
_OPEN
 10
2776.831659683934
 20
2396.726181904516
 30
0.0
 41
80.0
 42
80.0
 43
80.0
  0
MTEXT
  5
846B
330
7D97
100
AcDbEntity
  8
3
 62
     0
440
 16777216
100
AcDbMText
 10
2401.831659683934
 20
2496.726181904517
 30
0.0
 40
120.0
 41
0.0
 46
0.0
 71
     5
 72
     1
  1
\A1;750
 73
     1
 44
1.0
  0
POINT
  5
846C
330
7D97
100
AcDbEntity
  8
DEFPOINTS
 62
     0
440
 16777216
100
AcDbPoint
 10
2026.831659683934
 20
2759.935954207627
 30
0.0
  0
POINT
  5
846D
330
7D97
100
AcDbEntity
  8
DEFPOINTS
 62
     0
440
 16777216
100
AcDbPoint
 10
2776.831659683934
 20
2759.935954207627
 30
0.0
  0
POINT
  5
846E
330
7D97
100
AcDbEntity
  8
DEFPOINTS
 62
     0
440
 16777216
100
AcDbPoint
 10
2776.831659683934
 20
2396.726181904516
 30
0.0
  0
ENDBLK
  5
813D
330
7D97
100
AcDbEntity
  8
0
100
AcDbBlockEnd
  0
BLOCK
  5
7FAD
330
7DA3
100
AcDbEntity
  8
0
100
AcDbBlockBegin
  2
*D13
 70
     1
 10
0.0
 20
0.0
 30
0.0
  3
*D13
  1

  0
LINE
  5
8361
330
7DA3
100
AcDbEntity
  8
3
 62
     0
440
 16777216
100
AcDbLine
 10
1931.831659683934
 20
3035.935954207627
 30
0.0
 11
1658.820626993976
 21
3035.935954207627
 31
0.0
  0
LINE
  5
8362
330
7DA3
100
AcDbEntity
  8
3
 62
     0
440
 16777216
100
AcDbLine
 10
1931.831659683934
 20
4315.935954207627
 30
0.0
 11
1658.820626993976
 21
4315.935954207627
 31
0.0
  0
LINE
  5
8363
330
7DA3
100
AcDbEntity
  8
3
 62
     0
440
 16777216
100
AcDbLine
 10
1698.820626993976
 20
3115.935954207627
 30
0.0
 11
1698.820626993977
 21
4235.935954207627
 31
0.0
  0
INSERT
  5
8364
330
7DA3
100
AcDbEntity
  8
3
 62
     0
440
 16777216
100
AcDbBlockReference
  2
_OPEN
 10
1698.820626993976
 20
3035.935954207627
 30
0.0
 41
80.0
 42
80.0
 43
80.0
 50
270.0
  0
INSERT
  5
8365
330
7DA3
100
AcDbEntity
  8
3
 62
     0
440
 16777216
100
AcDbBlockReference
  2
_OPEN
 10
1698.820626993977
 20
4315.935954207627
 30
0.0
 41
80.0
 42
80.0
 43
80.0
 50
90.0
  0
MTEXT
  5
8366
330
7DA3
100
AcDbEntity
  8
3
 62
     0
440
 16777216
100
AcDbMText
 10
1598.820626993975
 20
3675.935954207627
 30
0.0
 40
120.0
 41
0.0
 46
0.0
 71
     5
 72
     5
  1
\A1;1280
 11
0.0000000000000001
 21
1.0
 31
0.0
 73
     1
 44
1.0
  0
POINT
  5
8367
330
7DA3
100
AcDbEntity
  8
DEFPOINTS
 62
     0
440
 16777216
100
AcDbPoint
 10
1951.831659683934
 20
3035.935954207627
 30
0.0
  0
POINT
  5
8368
330
7DA3
100
AcDbEntity
  8
DEFPOINTS
 62
     0
440
 16777216
100
AcDbPoint
 10
1951.831659683934
 20
4315.935954207627
 30
0.0
  0
POINT
  5
8369
330
7DA3
100
AcDbEntity
  8
DEFPOINTS
 62
     0
440
 16777216
100
AcDbPoint
 10
1698.820626993977
 20
4315.935954207627
 30
0.0
  0
ENDBLK
  5
7FB7
330
7DA3
100
AcDbEntity
  8
0
100
AcDbBlockEnd
  0
BLOCK
  5
7FA2
330
7DAF
100
AcDbEntity
  8
0
100
AcDbBlockBegin
  2
*D14
 70
     1
 10
0.0
 20
0.0
 30
0.0
  3
*D14
  1

  0
LINE
  5
836A
330
7DAF
100
AcDbEntity
  8
3
 62
     0
440
 16777216
100
AcDbLine
 10
1931.831659683934
 20
3035.935954207627
 30
0.0
 11
1411.757784537447
 21
3035.935954207627
 31
0.0
  0
LINE
  5
836B
330
7DAF
100
AcDbEntity
  8
3
 62
     0
440
 16777216
100
AcDbLine
 10
1853.395121435082
 20
4369.935954207627
 30
0.0
 11
1411.757784537447
 21
4369.935954207627
 31
0.0
  0
LINE
  5
836C
330
7DAF
100
AcDbEntity
  8
3
 62
     0
440
 16777216
100
AcDbLine
 10
1451.757784537447
 20
3115.935954207627
 30
0.0
 11
1451.757784537447
 21
4289.935954207627
 31
0.0
  0
INSERT
  5
836D
330
7DAF
100
AcDbEntity
  8
3
 62
     0
440
 16777216
100
AcDbBlockReference
  2
_OPEN
 10
1451.757784537447
 20
3035.935954207627
 30
0.0
 41
80.0
 42
80.0
 43
80.0
 50
270.0
  0
INSERT
  5
836E
330
7DAF
100
AcDbEntity
  8
3
 62
     0
440
 16777216
100
AcDbBlockReference
  2
_OPEN
 10
1451.757784537447
 20
4369.935954207627
 30
0.0
 41
80.0
 42
80.0
 43
80.0
 50
90.0
  0
MTEXT
  5
836F
330
7DAF
100
AcDbEntity
  8
3
 62
     0
440
 16777216
100
AcDbMText
 10
1351.757784537446
 20
3702.935954207627
 30
0.0
 40
120.0
 41
0.0
 46
0.0
 71
     5
 72
     5
  1
\A1;1334
 11
0.0000000000000001
 21
1.0
 31
0.0
 73
     1
 44
1.0
  0
POINT
  5
8370
330
7DAF
100
AcDbEntity
  8
DEFPOINTS
 62
     0
440
 16777216
100
AcDbPoint
 10
1951.831659683934
 20
3035.935954207627
 30
0.0
  0
POINT
  5
8371
330
7DAF
100
AcDbEntity
  8
DEFPOINTS
 62
     0
440
 16777216
100
AcDbPoint
 10
1873.395121435082
 20
4369.935954207627
 30
0.0
  0
POINT
  5
8372
330
7DAF
100
AcDbEntity
  8
DEFPOINTS
 62
     0
440
 16777216
100
AcDbPoint
 10
1451.757784537447
 20
4369.935954207627
 30
0.0
  0
ENDBLK
  5
7FAC
330
7DAF
100
AcDbEntity
  8
0
100
AcDbBlockEnd
  0
BLOCK
  5
81AB
330
7DBB
100
AcDbEntity
  8
0
100
AcDbBlockBegin
  2
*D15
 70
     1
 10
0.0
 20
0.0
 30
0.0
  3
*D15
  1

  0
LINE
  5
846F
330
7DBB
100
AcDbEntity
  8
3
 62
     0
440
 16777216
370
    -2
100
AcDbLine
 10
4676.831659683934
 20
2739.935954207628
 30
0.0
 11
4676.831659683934
 21
2356.499680165256
 31
0.0
  0
LINE
  5
8470
330
7DBB
100
AcDbEntity
  8
3
 62
     0
440
 16777216
370
    -2
100
AcDbLine
 10
2776.831659683934
 20
2739.935954207628
 30
0.0
 11
2776.831659683934
 21
2356.499680165256
 31
0.0
  0
LINE
  5
8471
330
7DBB
100
AcDbEntity
  8
3
 62
     0
440
 16777216
370
    -2
100
AcDbLine
 10
4596.831659683934
 20
2396.499680165256
 30
0.0
 11
2856.831659683934
 21
2396.499680165256
 31
0.0
  0
INSERT
  5
8472
330
7DBB
100
AcDbEntity
  8
3
 62
     0
440
 16777216
370
    -2
100
AcDbBlockReference
  2
_OPEN
 10
4676.831659683934
 20
2396.499680165256
 30
0.0
 41
80.0
 42
80.0
 43
80.0
  0
INSERT
  5
8473
330
7DBB
100
AcDbEntity
  8
3
 62
     0
440
 16777216
370
    -2
100
AcDbBlockReference
  2
_OPEN
 10
2776.831659683934
 20
2396.499680165256
 30
0.0
 41
80.0
 42
80.0
 43
80.0
 50
180.0
  0
MTEXT
  5
8474
330
7DBB
100
AcDbEntity
  8
3
 62
     0
440
 16777216
100
AcDbMText
 10
3726.831659683934
 20
2496.499680165256
 30
0.0
 40
120.0
 41
0.0
 46
0.0
 71
     5
 72
     1
  1
\A1;1900
 73
     1
 44
1.0
  0
POINT
  5
8475
330
7DBB
100
AcDbEntity
  8
DEFPOINTS
 62
     0
440
 16777216
100
AcDbPoint
 10
4676.831659683934
 20
2759.935954207627
 30
0.0
  0
POINT
  5
8476
330
7DBB
100
AcDbEntity
  8
DEFPOINTS
 62
     0
440
 16777216
100
AcDbPoint
 10
2776.831659683934
 20
2759.935954207627
 30
0.0
  0
POINT
  5
8477
330
7DBB
100
AcDbEntity
  8
DEFPOINTS
 62
     0
440
 16777216
100
AcDbPoint
 10
2776.831659683934
 20
2396.499680165256
 30
0.0
  0
ENDBLK
  5
81B5
330
7DBB
100
AcDbEntity
  8
0
100
AcDbBlockEnd
  0
BLOCK
  5
7F81
330
7DD3
100
AcDbEntity
  8
0
100
AcDbBlockBegin
  2
*D16
 70
     1
 10
0.0
 20
0.0
 30
0.0
  3
*D16
  1

  0
LINE
  5
837C
330
7DD3
100
AcDbEntity
  8
3
 62
     0
440
 16777216
100
AcDbLine
 10
3852.287402522041
 20
4389.935954207627
 30
0.0
 11
3852.287402522041
 21
5574.448112292856
 31
0.0
  0
LINE
  5
837D
330
7DD3
100
AcDbEntity
  8
3
 62
     0
440
 16777216
100
AcDbLine
 10
2776.831659683934
 20
5469.070503599152
 30
0.0
 11
2776.831659683934
 21
5574.448112292856
 31
0.0
  0
LINE
  5
837E
330
7DD3
100
AcDbEntity
  8
3
 62
     0
440
 16777216
100
AcDbLine
 10
3772.287402522041
 20
5534.448112292856
 30
0.0
 11
2856.831659683934
 21
5534.448112292856
 31
0.0
  0
INSERT
  5
837F
330
7DD3
100
AcDbEntity
  8
3
 62
     0
440
 16777216
100
AcDbBlockReference
  2
_OPEN
 10
3852.287402522041
 20
5534.448112292856
 30
0.0
 41
80.0
 42
80.0
 43
80.0
  0
INSERT
  5
8380
330
7DD3
100
AcDbEntity
  8
3
 62
     0
440
 16777216
100
AcDbBlockReference
  2
_OPEN
 10
2776.831659683934
 20
5534.448112292856
 30
0.0
 41
80.0
 42
80.0
 43
80.0
 50
180.0
  0
MTEXT
  5
8381
330
7DD3
100
AcDbEntity
  8
3
 62
     0
440
 16777216
100
AcDbMText
 10
3314.559531102987
 20
5634.448112292855
 30
0.0
 40
120.0
 41
0.0
 46
0.0
 71
     5
 72
     5
  1
\A1;1079
 73
     1
 44
1.0
  0
POINT
  5
8382
330
7DD3
100
AcDbEntity
  8
DEFPOINTS
 62
     0
440
 16777216
100
AcDbPoint
 10
3852.287402522041
 20
4369.935954207627
 30
0.0
  0
POINT
  5
8383
330
7DD3
100
AcDbEntity
  8
DEFPOINTS
 62
     0
440
 16777216
100
AcDbPoint
 10
2776.831659683934
 20
5449.070503599152
 30
0.0
  0
POINT
  5
8384
330
7DD3
100
AcDbEntity
  8
DEFPOINTS
 62
     0
440
 16777216
100
AcDbPoint
 10
2776.831659683934
 20
5534.448112292856
 30
0.0
  0
ENDBLK
  5
7F8B
330
7DD3
100
AcDbEntity
  8
0
100
AcDbBlockEnd
  0
BLOCK
  5
7F76
330
7DDF
100
AcDbEntity
  8
0
100
AcDbBlockBegin
  2
*D17
 70
     1
 10
0.0
 20
0.0
 30
0.0
  3
*D17
  1

  0
LINE
  5
8385
330
7DDF
100
AcDbEntity
  8
3
 62
     0
440
 16777216
100
AcDbLine
 10
2776.831659683934
 20
5469.070503599152
 30
0.0
 11
2776.831659683934
 21
5574.448112292856
 31
0.0
  0
LINE
  5
8386
330
7DDF
100
AcDbEntity
  8
3
 62
     0
440
 16777216
100
AcDbLine
 10
1951.831659683934
 20
4388.935954207627
 30
0.0
 11
1951.831659683934
 21
5574.448112292856
 31
0.0
  0
LINE
  5
8387
330
7DDF
100
AcDbEntity
  8
3
 62
     0
440
 16777216
100
AcDbLine
 10
2696.831659683934
 20
5534.448112292856
 30
0.0
 11
2031.831659683934
 21
5534.448112292856
 31
0.0
  0
INSERT
  5
8388
330
7DDF
100
AcDbEntity
  8
3
 62
     0
440
 16777216
100
AcDbBlockReference
  2
_OPEN
 10
2776.831659683934
 20
5534.448112292856
 30
0.0
 41
80.0
 42
80.0
 43
80.0
  0
INSERT
  5
8389
330
7DDF
100
AcDbEntity
  8
3
 62
     0
440
 16777216
100
AcDbBlockReference
  2
_OPEN
 10
1951.831659683934
 20
5534.448112292856
 30
0.0
 41
80.0
 42
80.0
 43
80.0
 50
180.0
  0
MTEXT
  5
838A
330
7DDF
100
AcDbEntity
  8
3
 62
     0
440
 16777216
100
AcDbMText
 10
2364.331659683934
 20
5634.448112292855
 30
0.0
 40
120.0
 41
0.0
 46
0.0
 71
     5
 72
     5
  1
\A1;825
 73
     1
 44
1.0
  0
POINT
  5
838B
330
7DDF
100
AcDbEntity
  8
DEFPOINTS
 62
     0
440
 16777216
100
AcDbPoint
 10
2776.831659683934
 20
5449.070503599152
 30
0.0
  0
POINT
  5
838C
330
7DDF
100
AcDbEntity
  8
DEFPOINTS
 62
     0
440
 16777216
100
AcDbPoint
 10
1951.831659683934
 20
4368.935954207628
 30
0.0
  0
POINT
  5
838D
330
7DDF
100
AcDbEntity
  8
DEFPOINTS
 62
     0
440
 16777216
100
AcDbPoint
 10
1951.831659683934
 20
5534.448112292856
 30
0.0
  0
ENDBLK
  5
7F80
330
7DDF
100
AcDbEntity
  8
0
100
AcDbBlockEnd
  0
BLOCK
  5
7F60
330
7DF7
100
AcDbEntity
  8
0
100
AcDbBlockBegin
  2
*D18
 70
     1
 10
0.0
 20
0.0
 30
0.0
  3
*D18
  1

  0
LINE
  5
838E
330
7DF7
100
AcDbEntity
  8
3
 62
     0
440
 16777216
100
AcDbLine
 10
1853.395121435082
 20
4369.935954207627
 30
0.0
 11
1160.642070885875
 21
4369.935954207627
 31
0.0
  0
LINE
  5
838F
330
7DF7
100
AcDbEntity
  8
3
 62
     0
440
 16777216
100
AcDbLine
 10
2006.831659683934
 20
2939.935954207627
 30
0.0
 11
1160.642070885875
 21
2939.935954207627
 31
0.0
  0
LINE
  5
8390
330
7DF7
100
AcDbEntity
  8
3
 62
     0
440
 16777216
100
AcDbLine
 10
1200.642070885875
 20
4289.935954207627
 30
0.0
 11
1200.642070885875
 21
3019.935954207627
 31
0.0
  0
INSERT
  5
8391
330
7DF7
100
AcDbEntity
  8
3
 62
     0
440
 16777216
100
AcDbBlockReference
  2
_OPEN
 10
1200.642070885875
 20
4369.935954207627
 30
0.0
 41
80.0
 42
80.0
 43
80.0
 50
90.0
  0
INSERT
  5
8392
330
7DF7
100
AcDbEntity
  8
3
 62
     0
440
 16777216
100
AcDbBlockReference
  2
_OPEN
 10
1200.642070885875
 20
2939.935954207627
 30
0.0
 41
80.0
 42
80.0
 43
80.0
 50
270.0
  0
MTEXT
  5
8393
330
7DF7
100
AcDbEntity
  8
3
 62
     0
440
 16777216
100
AcDbMText
 10
1100.642070885874
 20
3654.935954207628
 30
0.0
 40
120.0
 41
0.0
 46
0.0
 71
     5
 72
     5
  1
\A1;1430
 11
0.0000000000000001
 21
1.0
 31
0.0
 73
     1
 44
1.0
  0
POINT
  5
8394
330
7DF7
100
AcDbEntity
  8
DEFPOINTS
 62
     0
440
 16777216
100
AcDbPoint
 10
1873.395121435082
 20
4369.935954207627
 30
0.0
  0
POINT
  5
8395
330
7DF7
100
AcDbEntity
  8
DEFPOINTS
 62
     0
440
 16777216
100
AcDbPoint
 10
2026.831659683934
 20
2939.935954207627
 30
0.0
  0
POINT
  5
8396
330
7DF7
100
AcDbEntity
  8
DEFPOINTS
 62
     0
440
 16777216
100
AcDbPoint
 10
1200.642070885875
 20
2939.935954207627
 30
0.0
  0
ENDBLK
  5
7F6A
330
7DF7
100
AcDbEntity
  8
0
100
AcDbBlockEnd
  0
BLOCK
  5
7EFC
330
7EFB
100
AcDbEntity
  8
0
100
AcDbBlockBegin
  2
_OPEN
 70
     0
 10
0.0
 20
0.0
 30
0.0
  3
_OPEN
  1

  0
LINE
  5
7EFD
330
7EFB
100
AcDbEntity
  8
0
  6
ByBlock
 62
     0
100
AcDbLine
 10
-1.0
 20
0.1666666666666666
 30
0.0
 11
0.0
 21
0.0
 31
0.0
  0
LINE
  5
7EFE
330
7EFB
100
AcDbEntity
  8
0
  6
ByBlock
 62
     0
100
AcDbLine
 10
0.0
 20
0.0
 30
0.0
 11
-1.0
 21
-0.1666666666666666
 31
0.0
  0
LINE
  5
7EFF
330
7EFB
100
AcDbEntity
  8
0
  6
ByBlock
 62
     0
100
AcDbLine
 10
0.0
 20
0.0
 30
0.0
 11
-1.0
 21
0.0
 31
0.0
  0
ENDBLK
  5
7F00
330
7EFB
100
AcDbEntity
  8
0
100
AcDbBlockEnd
  0
BLOCK
  5
81E2
330
7F11
100
AcDbEntity
  8
0
100
AcDbBlockBegin
  2
*D20
 70
     1
 10
0.0
 20
0.0
 30
0.0
  3
*D20
  1

  0
LINE
  5
8478
330
7F11
100
AcDbEntity
  8
3
 62
     0
440
 16777216
370
    -2
100
AcDbLine
 10
2006.831659683934
 20
2834.935954207627
 30
0.0
 11
1160.642070885875
 21
2834.935954207627
 31
0.0
  0
LINE
  5
8479
330
7F11
100
AcDbEntity
  8
3
 62
     0
440
 16777216
370
    -2
100
AcDbLine
 10
2006.831659683934
 20
2759.935954207627
 30
0.0
 11
1160.642070885875
 21
2759.935954207627
 31
0.0
  0
LINE
  5
847A
330
7F11
100
AcDbEntity
  8
3
 62
     0
440
 16777216
370
    -2
100
AcDbLine
 10
1200.642070885875
 20
2914.935954207627
 30
0.0
 11
1200.642070885875
 21
2994.935954207628
 31
0.0
  0
LINE
  5
847B
330
7F11
100
AcDbEntity
  8
3
 62
     0
440
 16777216
370
    -2
100
AcDbLine
 10
1200.642070885875
 20
2679.935954207627
 30
0.0
 11
1200.642070885875
 21
2325.650239921912
 31
0.0
  0
LINE
  5
847C
330
7F11
100
AcDbEntity
  8
3
 62
     0
440
 16777216
370
    -2
100
AcDbLine
 10
1200.642070885875
 20
2834.935954207627
 30
0.0
 11
1200.642070885875
 21
2759.935954207627
 31
0.0
  0
INSERT
  5
847D
330
7F11
100
AcDbEntity
  8
3
 62
     0
440
 16777216
370
    -2
100
AcDbBlockReference
  2
_DOT
 10
1200.642070885875
 20
2834.935954207627
 30
0.0
 41
80.0
 42
80.0
 43
80.0
 50
270.0
  0
INSERT
  5
847E
330
7F11
100
AcDbEntity
  8
3
 62
     0
440
 16777216
370
    -2
100
AcDbBlockReference
  2
_OPEN
 10
1200.642070885875
 20
2759.935954207627
 30
0.0
 41
80.0
 42
80.0
 43
80.0
 50
90.0
  0
MTEXT
  5
847F
330
7F11
100
AcDbEntity
  8
3
 62
     0
440
 16777216
100
AcDbMText
 10
1100.642070885874
 20
2462.79309706477
 30
0.0
 40
120.0
 41
0.0
 46
0.0
 71
     5
 72
     1
  1
\A1;75
 11
0.0000000000000001
 21
1.0
 31
0.0
 73
     1
 44
1.0
  0
POINT
  5
8480
330
7F11
100
AcDbEntity
  8
DEFPOINTS
 62
     0
440
 16777216
100
AcDbPoint
 10
2026.831659683934
 20
2834.935954207627
 30
0.0
  0
POINT
  5
8481
330
7F11
100
AcDbEntity
  8
DEFPOINTS
 62
     0
440
 16777216
100
AcDbPoint
 10
2026.831659683934
 20
2759.935954207627
 30
0.0
  0
POINT
  5
8482
330
7F11
100
AcDbEntity
  8
DEFPOINTS
 62
     0
440
 16777216
100
AcDbPoint
 10
1200.642070885875
 20
2759.935954207627
 30
0.0
  0
ENDBLK
  5
81EE
330
7F11
100
AcDbEntity
  8
0
100
AcDbBlockEnd
  0
BLOCK
  5
81A0
330
8054
100
AcDbEntity
  8
0
100
AcDbBlockBegin
  2
*D21
 70
     1
 10
0.0
 20
0.0
 30
0.0
  3
*D21
  1

  0
LINE
  5
83A2
330
8054
100
AcDbEntity
  8
3
 62
     0
440
 16777216
100
AcDbLine
 10
1951.831659683934
 20
4408.935954207627
 30
0.0
 11
1951.831659683934
 21
5855.282770043523
 31
0.0
  0
LINE
  5
83A3
330
8054
100
AcDbEntity
  8
3
 62
     0
440
 16777216
100
AcDbLine
 10
4676.831659683934
 20
3084.935954207627
 30
0.0
 11
4676.831659683934
 21
5855.282770043523
 31
0.0
  0
LINE
  5
83A4
330
8054
100
AcDbEntity
  8
3
 62
     0
440
 16777216
100
AcDbLine
 10
2031.831659683934
 20
5815.282770043523
 30
0.0
 11
4596.831659683934
 21
5815.282770043523
 31
0.0
  0
INSERT
  5
83A5
330
8054
100
AcDbEntity
  8
3
 62
     0
440
 16777216
100
AcDbBlockReference
  2
_OPEN
 10
1951.831659683934
 20
5815.282770043523
 30
0.0
 41
80.0
 42
80.0
 43
80.0
 50
180.0
  0
INSERT
  5
83A6
330
8054
100
AcDbEntity
  8
3
 62
     0
440
 16777216
100
AcDbBlockReference
  2
_OPEN
 10
4676.831659683934
 20
5815.282770043523
 30
0.0
 41
80.0
 42
80.0
 43
80.0
  0
MTEXT
  5
83A7
330
8054
100
AcDbEntity
  8
3
 62
     0
440
 16777216
100
AcDbMText
 10
3298.945066695713
 20
5915.282770043523
 30
0.0
 40
120.0
 41
0.0
 46
0.0
 71
     5
 72
     5
  1
\A1;2725
 73
     1
 44
1.0
  0
POINT
  5
83A8
330
8054
100
AcDbEntity
  8
DEFPOINTS
 62
     0
440
 16777216
100
AcDbPoint
 10
1951.831659683934
 20
4388.935954207627
 30
0.0
  0
POINT
  5
83A9
330
8054
100
AcDbEntity
  8
DEFPOINTS
 62
     0
440
 16777216
100
AcDbPoint
 10
4676.831659683934
 20
3064.935954207627
 30
0.0
  0
POINT
  5
83AA
330
8054
100
AcDbEntity
  8
DEFPOINTS
 62
     0
440
 16777216
100
AcDbPoint
 10
4676.831659683934
 20
5815.282770043523
 30
0.0
  0
ENDBLK
  5
81AA
330
8054
100
AcDbEntity
  8
0
100
AcDbBlockEnd
  0
BLOCK
  5
80BC
330
80BB
100
AcDbEntity
  8
0
100
AcDbBlockBegin
  2
_DOT
 70
     0
 10
0.0
 20
0.0
 30
0.0
  3
_DOT
  1

  0
LINE
  5
8104
330
80BB
100
AcDbEntity
  8
0
  6
ByBlock
 62
     0
100
AcDbLine
 10
0.0
 20
0.0
 30
0.0
 11
-1.0
 21
-0.0000000000000284
 31
0.0
  0
LWPOLYLINE
  5
8105
330
80BB
100
AcDbEntity
  8
0
  6
ByBlock
 62
     0
100
AcDbPolyline
 90
        2
 70
     1
 43
0.1666666666666666
 10
-0.0833333333333286
 20
-0.0000000000000284
 42
1.0
 10
0.0833333333333286
 20
-0.0000000000000284
 42
1.0
  0
ENDBLK
  5
80C2
330
80BB
100
AcDbEntity
  8
0
100
AcDbBlockEnd
  0
BLOCK
  5
8260
330
825F
100
AcDbEntity
  8
0
100
AcDbBlockBegin
  2
_NONE
 70
     0
 10
0.0
 20
0.0
 30
0.0
  3
_NONE
  1

  0
CIRCLE
  5
8261
330
825F
100
AcDbEntity
  8
0
  6
ByBlock
 62
     0
100
AcDbCircle
 10
0.0
 20
0.0
 30
0.0
 40
0.25
  0
ENDBLK
  5
8262
330
825F
100
AcDbEntity
  8
0
100
AcDbBlockEnd
  0
BLOCK
  5
8270
330
826F
100
AcDbEntity
  8
0
100
AcDbBlockBegin
  2
*D24
 70
     1
 10
0.0
 20
0.0
 30
0.0
  3
*D24
  1

  0
LINE
  5
8271
330
826F
100
AcDbEntity
  8
0
  6
ByBlock
 62
     0
440
 16777216
100
AcDbLine
 10
1919.310814992314
 20
4369.935954207627
 30
0.0
 11
1162.024579098557
 21
4369.935954207627
 31
0.0
  0
LINE
  5
8272
330
826F
100
AcDbEntity
  8
0
  6
ByBlock
 62
     0
440
 16777216
100
AcDbLine
 10
2847.831659683934
 20
5266.935954207628
 30
0.0
 11
1162.024579098557
 21
5266.935954207628
 31
0.0
  0
LINE
  5
8273
330
826F
100
AcDbEntity
  8
0
  6
ByBlock
 62
     0
440
 16777216
100
AcDbLine
 10
1202.024579098557
 20
4449.935954207627
 30
0.0
 11
1202.024579098557
 21
5186.935954207628
 31
0.0
  0
INSERT
  5
8274
330
826F
100
AcDbEntity
  8
0
  6
ByBlock
 62
     0
440
 16777216
100
AcDbBlockReference
  2
_OPEN
 10
1202.024579098557
 20
4369.935954207627
 30
0.0
 41
80.0
 42
80.0
 43
80.0
 50
270.0
  0
INSERT
  5
8275
330
826F
100
AcDbEntity
  8
0
  6
ByBlock
 62
     0
440
 16777216
100
AcDbBlockReference
  2
_OPEN
 10
1202.024579098557
 20
5266.935954207628
 30
0.0
 41
80.0
 42
80.0
 43
80.0
 50
90.0
  0
MTEXT
  5
8276
330
826F
100
AcDbEntity
  8
0
  6
ByBlock
 62
     0
440
 16777216
100
AcDbMText
 10
1102.024579098557
 20
4818.435954207627
 30
0.0
 40
120.0
 41
0.0
 46
0.0
 71
     5
 72
     5
  1
\A1;897
 11
0.0
 21
1.0
 31
0.0
 73
     1
 44
1.0
  0
POINT
  5
8277
330
826F
100
AcDbEntity
  8
DEFPOINTS
  6
ByBlock
 62
     0
440
 16777216
100
AcDbPoint
 10
1939.310814992314
 20
4369.935954207627
 30
0.0
  0
POINT
  5
8278
330
826F
100
AcDbEntity
  8
DEFPOINTS
  6
ByBlock
 62
     0
440
 16777216
100
AcDbPoint
 10
2867.831659683934
 20
5266.935954207628
 30
0.0
  0
POINT
  5
8279
330
826F
100
AcDbEntity
  8
DEFPOINTS
  6
ByBlock
 62
     0
440
 16777216
100
AcDbPoint
 10
1202.024579098557
 20
5266.935954207628
 30
0.0
  0
ENDBLK
  5
827A
330
826F
100
AcDbEntity
  8
0
100
AcDbBlockEnd
  0
BLOCK
  5
82B3
330
828B
100
AcDbEntity
  8
0
100
AcDbBlockBegin
  2
*D25
 70
     1
 10
0.0
 20
0.0
 30
0.0
  3
*D25
  1

  0
LINE
  5
8483
330
828B
100
AcDbEntity
  8
3
 62
     0
440
 16777216
370
    -2
100
AcDbLine
 10
1200.393929209494
 20
2834.935954207627
 30
0.0
 11
1200.393929209494
 21
2939.935954207627
 31
0.0
  0
MTEXT
  5
8484
330
828B
100
AcDbEntity
  8
3
 62
     0
440
 16777216
100
AcDbMText
 10
1008.965357780923
 20
2887.435954207628
 30
0.0
 40
120.0
 41
0.0
 46
0.0
 71
     5
 72
     1
  1
\A1;   (105)
 11
0.0000000000000001
 21
1.0
 31
0.0
 73
     1
 44
1.0
  0
POINT
  5
8485
330
828B
100
AcDbEntity
  8
DEFPOINTS
 62
     0
440
 16777216
100
AcDbPoint
 10
2026.831659683934
 20
2834.935954207627
 30
0.0
  0
POINT
  5
8486
330
828B
100
AcDbEntity
  8
DEFPOINTS
 62
     0
440
 16777216
100
AcDbPoint
 10
2026.831659683934
 20
2939.935954207627
 30
0.0
  0
POINT
  5
8487
330
828B
100
AcDbEntity
  8
DEFPOINTS
 62
     0
440
 16777216
100
AcDbPoint
 10
1200.393929209494
 20
2939.935954207627
 30
0.0
  0
ENDBLK
  5
82B9
330
828B
100
AcDbEntity
  8
0
100
AcDbBlockEnd
  0
BLOCK
  5
8295
330
8294
100
AcDbEntity
  8
0
100
AcDbBlockBegin
  2
*D26
 70
     1
 10
0.0
 20
0.0
 30
0.0
  3
*D26
  1

  0
LINE
  5
8488
330
8294
100
AcDbEntity
  8
3
 62
     0
440
 16777216
370
    -2
100
AcDbLine
 10
2827.831659683934
 20
5266.935954207628
 30
0.0
 11
811.5805691906796
 21
5266.935954207629
 31
0.0
  0
LINE
  5
8489
330
8294
100
AcDbEntity
  8
3
 62
     0
440
 16777216
370
    -2
100
AcDbLine
 10
2006.831659683934
 20
2759.935954207627
 30
0.0
 11
811.5805691906787
 21
2759.935954207628
 31
0.0
  0
LINE
  5
848A
330
8294
100
AcDbEntity
  8
3
 62
     0
440
 16777216
370
    -2
100
AcDbLine
 10
851.5805691906795
 20
5186.935954207629
 30
0.0
 11
851.5805691906789
 21
2839.935954207628
 31
0.0
  0
INSERT
  5
848B
330
8294
100
AcDbEntity
  8
3
 62
     0
440
 16777216
370
    -2
100
AcDbBlockReference
  2
_OPEN
 10
851.5805691906795
 20
5266.935954207629
 30
0.0
 41
80.0
 42
80.0
 43
80.0
 50
90.0
  0
INSERT
  5
848C
330
8294
100
AcDbEntity
  8
3
 62
     0
440
 16777216
370
    -2
100
AcDbBlockReference
  2
_OPEN
 10
851.5805691906789
 20
2759.935954207628
 30
0.0
 41
80.0
 42
80.0
 43
80.0
 50
270.0
  0
MTEXT
  5
848D
330
8294
100
AcDbEntity
  8
3
 62
     0
440
 16777216
100
AcDbMText
 10
720.1519977621071
 20
4013.435954207628
 30
0.0
 40
120.0
 41
0.0
 46
0.0
 71
     5
 72
     1
  1
\A1;(2507)
 11
0.0000000000000001
 21
1.0
 31
0.0
 73
     1
 44
1.0
  0
POINT
  5
848E
330
8294
100
AcDbEntity
  8
DEFPOINTS
 62
     0
440
 16777216
100
AcDbPoint
 10
2847.831659683934
 20
5266.935954207628
 30
0.0
  0
POINT
  5
848F
330
8294
100
AcDbEntity
  8
DEFPOINTS
 62
     0
440
 16777216
100
AcDbPoint
 10
2026.831659683934
 20
2759.935954207627
 30
0.0
  0
POINT
  5
8490
330
8294
100
AcDbEntity
  8
DEFPOINTS
 62
     0
440
 16777216
100
AcDbPoint
 10
851.5805691906789
 20
2759.935954207628
 30
0.0
  0
ENDBLK
  5
829F
330
8294
100
AcDbEntity
  8
0
100
AcDbBlockEnd
  0
ENDSEC
  0
SECTION
  2
ENTITIES
  0
INSERT
  5
7C0C
330
19
100
AcDbEntity
  8
1
100
AcDbBlockReference
  2
YA_N
 10
6.0
 20
5.0
 30
0.0
  0
LINE
  5
7C0D
330
19
100
AcDbEntity
  8
2
100
AcDbLine
 10
2776.831659683934
 20
5418.534369238305
 30
0.0
 11
2776.831659683935
 21
2759.935954207627
 31
0.0
  0
LINE
  5
7C0E
330
19
100
AcDbEntity
  8
1
100
AcDbLine
 10
5190.407928765326
 20
2939.935954207627
 30
0.0
 11
7310.407928765325
 21
2939.935954207627
 31
0.0
1001
ACAD
1000
ASC_BOUNDS
1002
{
1070
    19
1005
0
1005
0
1002
}
  0
LINE
  5
7C0F
330
19
100
AcDbEntity
  8
1
100
AcDbLine
 10
5190.407928765326
 20
3064.935954207627
 30
0.0
 11
7310.407928765326
 21
3064.935954207627
 31
0.0
  0
LINE
  5
7C10
330
19
100
AcDbEntity
  8
1
100
AcDbLine
 10
7231.407928765327
 20
3064.935954207627
 30
0.0
 11
7231.407928765327
 21
4315.935954207627
 31
0.0
  0
LINE
  5
7C12
330
19
100
AcDbEntity
  8
1
100
AcDbLine
 10
5478.407928765325
 20
3064.935954207627
 30
0.0
 11
5478.407928765325
 21
3124.935954207629
 31
0.0
  0
LINE
  5
7C13
330
19
100
AcDbEntity
  8
2
100
AcDbLine
 10
3984.37259322367
 20
4369.935954207627
 30
0.0
 11
1939.310814992314
 21
4369.935954207627
 31
0.0
  0
LINE
  5
7C14
330
19
100
AcDbEntity
  8
2
100
AcDbLine
 10
5081.107928765327
 20
4369.935954207627
 30
0.0
 11
7414.918415004563
 21
4369.935954207627
 31
0.0
  0
LINE
  5
7C15
330
19
100
AcDbEntity
  8
2
100
AcDbLine
 10
5069.90520216895
 20
3324.935954207627
 30
0.0
 11
6025.357928765327
 21
3324.935954207628
 31
0.0
  0
LINE
  5
7C16
330
19
100
AcDbEntity
  8
1
100
AcDbLine
 10
5186.407928765326
 20
3430.935954207627
 30
0.0
 11
5264.307928765326
 21
3430.935954207627
 31
0.0
  0
LINE
  5
7C17
330
19
100
AcDbEntity
  8
1
100
AcDbLine
 10
5186.407928765326
 20
3218.935954207628
 30
0.0
 11
5264.307928765326
 21
3218.935954207628
 31
0.0
  0
LINE
  5
7C18
330
19
100
AcDbEntity
  8
1
100
AcDbLine
 10
5284.407928765326
 20
4439.935954207627
 30
0.0
 11
5284.407928765326
 21
4299.935954207627
 31
0.0
  0
LINE
  5
7C19
330
19
100
AcDbEntity
  8
1
100
AcDbLine
 10
5264.307928765326
 20
4623.935954207627
 30
0.0
 11
5264.307928765326
 21
4439.935954207627
 31
0.0
  0
LINE
  5
7C1A
330
19
100
AcDbEntity
  8
1
100
AcDbLine
 10
5264.307928765326
 20
4439.935954207627
 30
0.0
 11
5284.407928765326
 21
4439.935954207627
 31
0.0
  0
LINE
  5
7C1B
330
19
100
AcDbEntity
  8
1
100
AcDbLine
 10
5264.307928765326
 20
4299.935954207627
 30
0.0
 11
5284.407928765326
 21
4299.935954207627
 31
0.0
  0
LINE
  5
7C1C
330
19
100
AcDbEntity
  8
1
100
AcDbLine
 10
5264.307928765326
 20
4299.935954207627
 30
0.0
 11
5264.307928765326
 21
3384.935954207627
 31
0.0
  0
LINE
  5
7C1D
330
19
100
AcDbEntity
  8
1
100
AcDbLine
 10
5186.407928765326
 20
4623.935954207627
 30
0.0
 11
5186.407928765326
 21
3218.935954207628
 31
0.0
  0
LINE
  5
7C1E
330
19
100
AcDbEntity
  8
1
100
AcDbLine
 10
5279.407928765326
 20
3384.935954207627
 30
0.0
 11
5279.407928765326
 21
3264.935954207628
 31
0.0
  0
LINE
  5
7C1F
330
19
100
AcDbEntity
  8
1
100
AcDbLine
 10
5264.307928765326
 20
3384.935954207627
 30
0.0
 11
5279.407928765326
 21
3384.935954207627
 31
0.0
  0
LINE
  5
7C20
330
19
100
AcDbEntity
  8
1
100
AcDbLine
 10
5264.307928765326
 20
3264.935954207628
 30
0.0
 11
5279.407928765326
 21
3264.935954207628
 31
0.0
  0
LINE
  5
7C21
330
19
100
AcDbEntity
  8
1
100
AcDbLine
 10
5264.307928765326
 20
3264.935954207628
 30
0.0
 11
5264.307928765326
 21
3218.935954207628
 31
0.0
  0
LINE
  5
7C22
330
19
100
AcDbEntity
  8
1
100
AcDbLine
 10
5061.407928765326
 20
3104.935954207628
 30
0.0
 11
5346.407928765327
 21
3104.935954207628
 31
0.0
  0
LINE
  5
7C23
330
19
100
AcDbEntity
  8
1
100
AcDbLine
 10
5061.407928765326
 20
4749.935954207627
 30
0.0
 11
5061.407928765326
 21
3104.935954207628
 31
0.0
  0
LINE
  5
7C24
330
19
100
AcDbEntity
  8
1
100
AcDbLine
 10
5346.407928765326
 20
4749.935954207627
 30
0.0
 11
5346.407928765327
 21
4729.935954207627
 31
0.0
  0
LINE
  5
7C25
330
19
100
AcDbEntity
  8
2
100
AcDbLine
 10
2776.831659683934
 20
8986.307810564772
 30
0.0
 11
2776.831659683934
 21
6637.62346783901
 31
0.0
  0
LINE
  5
7C26
330
19
100
AcDbEntity
  8
2
100
AcDbLine
 10
4396.831659683932
 20
7612.07346783901
 30
0.0
 11
4396.831659683932
 21
6637.62346783901
 31
0.0
  0
LINE
  5
7C27
330
19
100
AcDbEntity
  8
2
100
AcDbLine
 10
6381.407928765326
 20
5474.212796594279
 30
0.0
 11
6381.407928765325
 21
2759.935954207627
 31
0.0
  0
INSERT
  5
7C28
330
19
100
AcDbEntity
  8
1
100
AcDbBlockReference
  2
YA_N
 10
-1757.227407310314
 20
-1218.786417457781
 30
0.0
 41
30.0
 42
30.0
 43
30.0
  0
INSERT
  5
7C29
330
19
100
AcDbEntity
  8
1
100
AcDbBlockReference
  2
YA_N
 10
-755.2436758818475
 20
-538.554984833856
 30
0.0
 41
30.0
 42
30.0
 43
30.0
  0
LINE
  5
7C2A
330
19
100
AcDbEntity
  8
1
100
AcDbLine
 10
5190.407928765324
 20
2834.935954207627
 30
0.0
 11
7310.407928765326
 21
2834.935954207627
 31
0.0
1001
ACAD
1000
ASC_BOUNDS
1002
{
1070
    19
1005
0
1005
0
1002
}
  0
LINE
  5
7C2B
330
19
100
AcDbEntity
  8
1
100
AcDbLine
 10
5190.407928765324
 20
2759.935954207627
 30
0.0
 11
7310.407928765326
 21
2759.935954207627
 31
0.0
  0
LINE
  5
7C2C
330
19
100
AcDbEntity
  8
1
100
AcDbLine
 10
7310.407928765326
 20
2834.935954207627
 30
0.0
 11
7310.407928765326
 21
2759.935954207627
 31
0.0
  0
LINE
  5
7C2D
330
19
100
AcDbEntity
  8
1
100
AcDbLine
 10
7231.407928765325
 20
4315.935954207627
 30
0.0
 11
7231.407928765325
 21
5266.935954207627
 31
0.0
  0
LINE
  5
7C2E
330
19
100
AcDbEntity
  8
1
100
AcDbLine
 10
5531.407928765325
 20
4315.935954207627
 30
0.0
 11
5531.407928765327
 21
5266.935954207627
 31
0.0
  0
LINE
  5
7C2F
330
19
100
AcDbEntity
  8
1
100
AcDbLine
 10
2026.831659683934
 20
8886.623467839006
 30
0.0
 11
3526.831659683934
 21
8886.623467839008
 31
0.0
  0
LINE
  5
7C30
330
19
100
AcDbEntity
  8
1
100
AcDbLine
 10
2026.831659683934
 20
6766.623467839007
 30
0.0
 11
4676.831659683934
 21
6766.623467839008
 31
0.0
  0
LINE
  5
7C31
330
19
100
AcDbEntity
  8
1
100
AcDbLine
 10
2026.831659683934
 20
8886.623467839006
 30
0.0
 11
2026.831659683934
 21
8807.623467839011
 31
0.0
  0
LINE
  5
7C32
330
19
100
AcDbEntity
  8
1
100
AcDbLine
 10
4676.831659683934
 20
7866.623467839009
 30
0.0
 11
4676.831659683934
 21
6766.623467839007
 31
0.0
  0
LINE
  5
7C33
330
19
100
AcDbEntity
  8
1
100
AcDbLine
 10
3526.831659683934
 20
8886.623467839006
 30
0.0
 11
3526.831659683934
 21
8807.623467839011
 31
0.0
  0
LINE
  5
7C34
330
19
100
AcDbEntity
  8
1
100
AcDbLine
 10
3855.831659683934
 20
7866.623467839007
 30
0.0
 11
4676.831659683934
 21
7866.623467839009
 31
0.0
  0
DIMENSION
  5
7C35
330
19
100
AcDbEntity
  8
3
100
AcDbDimension
280
     0
  2
*D1
 10
7231.407928765325
 20
5539.256168514261
 30
0.0
 11
6381.407928765326
 21
5639.256168514261
 31
0.0
 70
    32
 71
     5
 42
-1.0
 73
     0
 74
     0
 75
     0
  3
IGA
100
AcDbAlignedDimension
 13
5531.407928765325
 23
5290.856382047696
 33
0.0
 14
7231.407928765325
 24
5290.856382047696
 34
0.0
100
AcDbRotatedDimension
1001
ACAD
1000
DSTYLE
1002
{
1070
   287
1070
     3
1070
    40
1040
40.0
1070
   143
1040
0.039
1070
   172
1070
     1
1070
   271
1070
     0
1070
   279
1070
     0
1070
   288
1070
     1
1002
}
  0
LINE
  5
7C36
330
19
100
AcDbEntity
  8
1
100
AcDbLine
 10
5373.907928765326
 20
4293.935954207627
 30
0.0
 11
5373.907928765326
 21
4163.935954207627
 31
0.0
  0
LINE
  5
7C37
330
19
100
AcDbEntity
  8
1
100
AcDbLine
 10
5513.907928765326
 20
4303.935954207627
 30
0.0
 11
5513.907928765326
 21
4153.935954207628
 31
0.0
  0
LINE
  5
7C38
330
19
100
AcDbEntity
  8
1
100
AcDbLine
 10
5383.907928765327
 20
4303.935954207627
 30
0.0
 11
5454.107928765328
 21
4303.935954207627
 31
0.0
  0
LINE
  5
7C39
330
19
100
AcDbEntity
  8
1
100
AcDbLine
 10
5383.907928765327
 20
4153.935954207628
 30
0.0
 11
5454.107928765328
 21
4153.935954207628
 31
0.0
  0
ARC
  5
7C3A
330
19
100
AcDbEntity
  8
1
100
AcDbCircle
 10
5383.907928765327
 20
4293.935954207627
 30
0.0
 40
10.0
100
AcDbArc
 50
90.0
 51
180.0
  0
ARC
  5
7C3B
330
19
100
AcDbEntity
  8
1
100
AcDbCircle
 10
5383.907928765327
 20
4163.935954207627
 30
0.0
 40
10.0
100
AcDbArc
 50
180.0
 51
270.0
  0
LINE
  5
7C3C
330
19
100
AcDbEntity
  8
1
100
AcDbLine
 10
5454.107928765327
 20
4153.935954207628
 30
0.0
 11
5513.907928765326
 21
4153.935954207628
 31
0.0
  0
LINE
  5
7C3D
330
19
100
AcDbEntity
  8
1
100
AcDbLine
 10
5454.107928765327
 20
4303.935954207627
 30
0.0
 11
5513.907928765326
 21
4303.935954207627
 31
0.0
  0
LINE
  5
7C3E
330
19
100
AcDbEntity
  8
1
100
AcDbLine
 10
7400.907928765326
 20
4293.935954207627
 30
0.0
 11
7400.907928765326
 21
4163.935954207627
 31
0.0
  0
LINE
  5
7C3F
330
19
100
AcDbEntity
  8
1
100
AcDbLine
 10
7260.907928765326
 20
4303.935954207627
 30
0.0
 11
7260.907928765326
 21
4153.935954207628
 31
0.0
  0
LINE
  5
7C40
330
19
100
AcDbEntity
  8
1
100
AcDbLine
 10
7390.907928765326
 20
4153.935954207628
 30
0.0
 11
7320.707928765326
 21
4153.935954207628
 31
0.0
  0
ARC
  5
7C41
330
19
100
AcDbEntity
  8
1
100
AcDbCircle
 10
7390.907928765326
 20
4163.935954207627
 30
0.0
 40
10.0
100
AcDbArc
 50
270.0
 51
0.0
  0
LINE
  5
7C42
330
19
100
AcDbEntity
  8
1
100
AcDbLine
 10
7320.707928765326
 20
4153.935954207628
 30
0.0
 11
7260.907928765326
 21
4153.935954207628
 31
0.0
  0
LINE
  5
7C43
330
19
100
AcDbEntity
  8
1
100
AcDbLine
 10
7390.907928765326
 20
4303.935954207627
 30
0.0
 11
7320.707928765326
 21
4303.935954207627
 31
0.0
  0
ARC
  5
7C44
330
19
100
AcDbEntity
  8
1
100
AcDbCircle
 10
7390.907928765326
 20
4293.935954207627
 30
0.0
 40
10.0
100
AcDbArc
 50
0.0
 51
90.0
  0
LINE
  5
7C45
330
19
100
AcDbEntity
  8
1
100
AcDbLine
 10
7320.707928765326
 20
4303.935954207627
 30
0.0
 11
7260.907928765326
 21
4303.935954207627
 31
0.0
  0
DIMENSION
  5
7C47
330
19
100
AcDbEntity
  8
3
100
AcDbDimension
280
     0
  2
*D2
 10
6381.407928765326
 20
5821.298092940815
 30
0.0
 11
5721.407928765326
 21
5952.726664369386
 31
0.0
 70
    32
  1
(<>)
 71
     5
 42
1319.999999999999
 73
     0
 74
     0
 75
     0
  3
IGA
100
AcDbAlignedDimension
 13
5061.407928765326
 23
4649.935954207626
 33
0.0
 14
6381.407928765326
 24
5722.787629067657
 34
0.0
100
AcDbRotatedDimension
1001
ACAD
1000
DSTYLE
1002
{
1070
   287
1070
     3
1070
    40
1040
40.0
1070
   143
1040
0.039
1070
   172
1070
     1
1070
   271
1070
     0
1070
   279
1070
     0
1070
   288
1070
     1
1002
}
  0
DIMENSION
  5
7C48
330
19
100
AcDbEntity
  8
3
100
AcDbDimension
280
     0
  2
*D3
 10
7400.907928765326
 20
5820.910505835629
 30
0.0
 11
6891.157928765325
 21
5952.339077264201
 31
0.0
 70
    32
  1
(<>)
 71
     5
 42
1019.5
 73
     0
 74
     0
 75
     0
  3
IGA
100
AcDbAlignedDimension
 13
6381.407928765326
 23
5722.787629067657
 33
0.0
 14
7400.907928765326
 24
4293.935954207627
 34
0.0
100
AcDbRotatedDimension
1001
ACAD
1000
DSTYLE
1002
{
1070
   287
1070
     3
1070
    40
1040
40.0
1070
   143
1040
0.039
1070
   172
1070
     1
1070
   271
1070
     0
1070
   279
1070
     0
1070
   288
1070
     1
1002
}
  0
DIMENSION
  5
7C49
330
19
100
AcDbEntity
  8
3
100
AcDbDimension
280
     0
  2
*D4
 10
7642.677553677829
 20
3744.935954207627
 30
0.0
 11
7542.67755367783
 21
4369.935954207628
 31
0.0
 70
    32
  1
φ<>
 71
     5
 42
-1.0
 73
     0
 74
     0
 75
     0
  3
IGA
100
AcDbAlignedDimension
 13
7233.707928765326
 23
4994.935954207627
 33
0.0
 14
7233.707928765326
 24
3744.935954207627
 34
0.0
 50
90.0
100
AcDbRotatedDimension
1001
ACAD
1000
DSTYLE
1002
{
1070
   287
1070
     3
1070
    40
1040
40.0
1070
   143
1040
0.039
1070
   172
1070
     1
1070
   271
1070
     0
1070
   279
1070
     0
1070
   288
1070
     1
1002
}
  0
LINE
  5
7C4A
330
19
100
AcDbEntity
  8
1
100
AcDbLine
 10
5186.407928765326
 20
4623.935954207627
 30
0.0
 11
5264.307928765326
 21
4623.935954207627
 31
0.0
  0
LINE
  5
7C4B
330
19
100
AcDbEntity
  8
1
100
AcDbLine
 10
5186.407928765326
 20
4115.935954207627
 30
0.0
 11
5264.307928765326
 21
4115.935954207627
 31
0.0
  0
LINE
  5
7C4C
330
19
100
AcDbEntity
  8
1
100
AcDbLine
 10
5061.407928765326
 20
4749.935954207627
 30
0.0
 11
5346.407928765325
 21
4749.935954207627
 31
0.0
  0
LINE
  5
7C4D
330
19
100
AcDbEntity
  8
1
100
AcDbLine
 10
5346.407928765327
 20
3124.935954207627
 30
0.0
 11
5346.407928765327
 21
3104.935954207628
 31
0.0
  0
INSERT
  5
7C4E
330
19
100
AcDbEntity
  8
1
100
AcDbBlockReference
  2
YA_N
 10
4767.943419715615
 20
-1494.695868425497
 30
0.0
  0
LINE
  5
7C4F
330
19
100
AcDbEntity
  8
1
100
AcDbLine
 10
7310.407928765326
 20
3064.935954207627
 30
0.0
 11
7310.407928765325
 21
2939.935954207627
 31
0.0
  0
LINE
  5
7C50
330
19
100
AcDbEntity
  8
1
100
AcDbLine
 10
5190.407928765324
 20
2834.935954207627
 30
0.0
 11
5190.407928765327
 21
2759.935954207627
 31
0.0
  0
LINE
  5
7C51
330
19
100
AcDbEntity
  8
1
100
AcDbLine
 10
5190.407928765326
 20
3064.935954207627
 30
0.0
 11
5190.407928765326
 21
2939.935954207627
 31
0.0
  0
DIMENSION
  5
7C52
330
19
100
AcDbEntity
  8
3
100
AcDbDimension
280
     0
  2
*D5
 10
6381.407928765325
 20
2416.346162525115
 30
0.0
 11
5785.907928765325
 21
2516.346162525115
 31
0.0
 70
    32
 71
     5
 42
1191.0
 73
     0
 74
     0
 75
     0
  3
IGA
100
AcDbAlignedDimension
 13
5190.407928765324
 23
2759.935954207627
 33
0.0
 14
6381.407928765325
 24
2759.935954207627
 34
0.0
100
AcDbRotatedDimension
1001
ACAD
1000
DSTYLE
1002
{
1070
   287
1070
     3
1070
    40
1040
40.0
1070
   143
1040
0.039
1070
   172
1070
     1
1070
   271
1070
     0
1070
   279
1070
     0
1070
   288
1070
     1
1002
}
  0
DIMENSION
  5
7C53
330
19
100
AcDbEntity
  8
3
100
AcDbDimension
280
     0
  2
*D6
 10
7310.407928765326
 20
2416.346162525115
 30
0.0
 11
6845.907928765325
 21
2516.346162525115
 31
0.0
 70
    32
 71
     5
 42
929.0000000000009
 73
     0
 74
     0
 75
     0
  3
IGA
100
AcDbAlignedDimension
 13
6381.407928765325
 23
2759.935954207627
 33
0.0
 14
7310.407928765326
 24
2759.935954207627
 34
0.0
100
AcDbRotatedDimension
1001
ACAD
1000
DSTYLE
1002
{
1070
   287
1070
     3
1070
    40
1040
40.0
1070
   143
1040
0.039
1070
   172
1070
     1
1070
   271
1070
     0
1070
   279
1070
     0
1070
   288
1070
     1
1002
}
  0
LINE
  5
7C55
330
19
100
AcDbEntity
  8
1
100
AcDbLine
 10
5284.407928765326
 20
4407.435954207627
 30
0.0
 11
5531.407928765325
 21
4407.435954207627
 31
0.0
  0
LINE
  5
7C56
330
19
100
AcDbEntity
  8
1
100
AcDbLine
 10
5284.407928765326
 20
4332.435954207627
 30
0.0
 11
5531.407928765325
 21
4332.435954207627
 31
0.0
  0
LINE
  5
7C57
330
19
100
AcDbEntity
  8
1
100
AcDbLine
 10
5375.357928765327
 20
3124.935954207627
 30
0.0
 11
5375.357928765327
 21
3324.935954207628
 31
0.0
  0
LINE
  5
7C58
330
19
100
AcDbEntity
  8
1
100
AcDbLine
 10
5375.357928765328
 20
3124.935954207628
 30
0.0
 11
6025.357928765327
 21
3124.935954207631
 31
0.0
  0
LINE
  5
7C59
330
19
100
AcDbEntity
  8
1
100
AcDbLine
 10
6025.357928765327
 20
3534.935954207632
 30
0.0
 11
5375.357928765326
 21
3534.935954207628
 31
0.0
  0
LINE
  5
7C5A
330
19
100
AcDbEntity
  8
1
100
AcDbLine
 10
5365.357928765327
 20
3294.935954207628
 30
0.0
 11
5279.407928765326
 21
3294.935954207628
 31
0.0
  0
LINE
  5
7C5B
330
19
100
AcDbEntity
  8
1
100
AcDbLine
 10
5365.357928765327
 20
3354.935954207628
 30
0.0
 11
5279.407928765326
 21
3354.935954207628
 31
0.0
  0
LINE
  5
7C5C
330
19
100
AcDbEntity
  8
1
100
AcDbLine
 10
5375.357928765327
 20
3534.935954207628
 30
0.0
 11
5375.357928765327
 21
3324.935954207628
 31
0.0
  0
LINE
  5
7C5D
330
19
100
AcDbEntity
  8
1
100
AcDbLine
 10
5365.357928765327
 20
3292.435954207628
 30
0.0
 11
5365.357928765327
 21
3357.435954207628
 31
0.0
  0
LINE
  5
7C5E
330
19
100
AcDbEntity
  8
1
100
AcDbLine
 10
5365.357928765327
 20
3292.435954207628
 30
0.0
 11
5375.357928765327
 21
3292.435954207628
 31
0.0
  0
LINE
  5
7C5F
330
19
100
AcDbEntity
  8
1
100
AcDbLine
 10
5365.357928765327
 20
3357.435954207628
 30
0.0
 11
5375.357928765327
 21
3357.435954207628
 31
0.0
  0
LINE
  5
7C60
330
19
100
AcDbEntity
  8
2
100
AcDbLine
 10
1801.004538962214
 20
7957.62346783901
 30
0.0
 11
3855.831659683934
 21
7957.623467839008
 31
0.0
  0
LINE
  5
7C61
330
19
100
AcDbEntity
  8
1
100
AcDbLine
 10
2396.831659683934
 20
6637.62346783901
 30
0.0
 11
4616.831659683934
 21
6637.62346783901
 31
0.0
  0
LINE
  5
7C62
330
19
100
AcDbEntity
  8
1
100
AcDbLine
 10
2522.831659683934
 20
6773.62346783901
 30
0.0
 11
3030.831659683934
 21
6773.62346783901
 31
0.0
  0
LINE
  5
7C63
330
19
100
AcDbEntity
  8
1
100
AcDbLine
 10
2846.831659683934
 20
6851.52346783901
 30
0.0
 11
3030.831659683934
 21
6851.52346783901
 31
0.0
  0
LINE
  5
7C64
330
19
100
AcDbEntity
  8
1
100
AcDbLine
 10
4426.831659683934
 20
6952.573467839009
 30
0.0
 11
4426.831659683934
 21
6866.623467839009
 31
0.0
  0
LINE
  5
7C65
330
19
100
AcDbEntity
  8
1
100
AcDbLine
 10
4366.831659683934
 20
6952.573467839009
 30
0.0
 11
4366.831659683934
 21
6866.623467839009
 31
0.0
  0
LINE
  5
7C66
330
19
100
AcDbEntity
  8
1
100
AcDbLine
 10
4616.831659683934
 20
6637.62346783901
 30
0.0
 11
4616.831659683934
 21
6933.62346783901
 31
0.0
  0
LINE
  5
7C67
330
19
100
AcDbEntity
  8
1
100
AcDbLine
 10
3576.831659683934
 20
6766.62346783901
 30
0.0
 11
3701.831659683934
 21
6766.62346783901
 31
0.0
  0
LINE
  5
7C68
330
19
100
AcDbEntity
  8
1
100
AcDbLine
 10
3720.831659683934
 20
6766.623467839008
 30
0.0
 11
3785.831659683934
 21
6766.62346783901
 31
0.0
  0
LINE
  5
7C69
330
19
100
AcDbEntity
  8
1
100
AcDbLine
 10
4336.831659683934
 20
6866.623467839009
 30
0.0
 11
4456.831659683934
 21
6866.623467839009
 31
0.0
  0
LINE
  5
7C6A
330
19
100
AcDbEntity
  8
1
100
AcDbLine
 10
4456.831659683934
 20
6851.52346783901
 30
0.0
 11
4502.831659683933
 21
6851.52346783901
 31
0.0
  0
LINE
  5
7C6B
330
19
100
AcDbEntity
  8
1
100
AcDbLine
 10
4502.831659683933
 20
6773.62346783901
 30
0.0
 11
4502.831659683933
 21
6851.52346783901
 31
0.0
  0
LINE
  5
7C6C
330
19
100
AcDbEntity
  8
1
100
AcDbLine
 10
4456.831659683934
 20
6851.52346783901
 30
0.0
 11
4456.831659683934
 21
6866.623467839009
 31
0.0
  0
LINE
  5
7C6D
330
19
100
AcDbEntity
  8
1
100
AcDbLine
 10
4290.831659683933
 20
6773.62346783901
 30
0.0
 11
4290.831659683933
 21
6851.523467839008
 31
0.0
  0
LINE
  5
7C6E
330
19
100
AcDbEntity
  8
1
100
AcDbLine
 10
4336.831659683934
 20
6851.52346783901
 30
0.0
 11
4336.831659683934
 21
6866.623467839009
 31
0.0
  0
LINE
  5
7C6F
330
19
100
AcDbEntity
  8
1
100
AcDbLine
 10
3030.831659683934
 20
6773.62346783901
 30
0.0
 11
3030.831659683934
 21
6851.523467839008
 31
0.0
  0
LINE
  5
7C70
330
19
100
AcDbEntity
  8
1
100
AcDbLine
 10
4186.831659683934
 20
6962.57346783901
 30
0.0
 11
4396.831659683934
 21
6962.57346783901
 31
0.0
  0
LINE
  5
7C71
330
19
100
AcDbEntity
  8
1
100
AcDbLine
 10
4429.331659683934
 20
6952.573467839009
 30
0.0
 11
4364.331659683934
 21
6952.573467839009
 31
0.0
  0
LINE
  5
7C72
330
19
100
AcDbEntity
  8
1
100
AcDbLine
 10
4596.831659683934
 20
6962.573467839011
 30
0.0
 11
4596.831659683926
 21
7612.07346783901
 31
0.0
  0
LINE
  5
7C73
330
19
100
AcDbEntity
  8
1
100
AcDbLine
 10
4596.831659683934
 20
6962.573467839011
 30
0.0
 11
4396.831659683934
 21
6962.57346783901
 31
0.0
  0
LINE
  5
7C74
330
19
100
AcDbEntity
  8
1
100
AcDbLine
 10
4429.331659683934
 20
6952.573467839009
 30
0.0
 11
4429.331659683934
 21
6962.57346783901
 31
0.0
  0
LINE
  5
7C76
330
19
100
AcDbEntity
  8
1
100
AcDbLine
 10
4186.831659683927
 20
7612.073467839009
 30
0.0
 11
4186.831659683934
 21
6962.573467839009
 31
0.0
  0
LINE
  5
7C77
330
19
100
AcDbEntity
  8
1
100
AcDbLine
 10
4364.331659683934
 20
6952.573467839009
 30
0.0
 11
4364.331659683934
 21
6962.57346783901
 31
0.0
  0
LINE
  5
7C78
330
19
100
AcDbEntity
  8
1
100
AcDbLine
 10
2814.331659683934
 20
6871.623467839011
 30
0.0
 11
2814.331659683934
 21
7107.623467839008
 31
0.0
  0
LINE
  5
7C79
330
19
100
AcDbEntity
  8
1
100
AcDbLine
 10
2739.331659683934
 20
6871.623467839011
 30
0.0
 11
2739.331659683934
 21
7107.623467839008
 31
0.0
  0
LINE
  5
7C7A
330
19
100
AcDbEntity
  8
1
100
AcDbLine
 10
2396.831659683934
 20
6637.623467839009
 30
0.0
 11
2396.831659683934
 21
6933.623467839009
 31
0.0
  0
LINE
  5
7C7B
330
19
100
AcDbEntity
  8
1
100
AcDbLine
 10
2706.831659683934
 20
6871.623467839011
 30
0.0
 11
2846.831659683934
 21
6871.623467839011
 31
0.0
  0
LINE
  5
7C7C
330
19
100
AcDbEntity
  8
1
100
AcDbLine
 10
2846.831659683934
 20
6851.523467839008
 30
0.0
 11
2846.831659683934
 21
6871.623467839011
 31
0.0
  0
LINE
  5
7C7D
330
19
100
AcDbEntity
  8
1
100
AcDbLine
 10
2522.831659683934
 20
6851.52346783901
 30
0.0
 11
2706.831659683934
 21
6851.52346783901
 31
0.0
  0
LINE
  5
7C7E
330
19
100
AcDbEntity
  8
1
100
AcDbLine
 10
2706.831659683934
 20
6851.52346783901
 30
0.0
 11
2706.831659683934
 21
6871.623467839011
 31
0.0
  0
LINE
  5
7C7F
330
19
100
AcDbEntity
  8
1
100
AcDbLine
 10
2522.831659683934
 20
6773.62346783901
 30
0.0
 11
2522.831659683934
 21
6851.523467839008
 31
0.0
  0
LINE
  5
7C80
330
19
100
AcDbEntity
  8
1
100
AcDbLine
 10
2396.831659683934
 20
6933.62346783901
 30
0.0
 11
4616.831659683934
 21
6933.623467839101
 31
0.0
  0
LINE
  5
7C81
330
19
100
AcDbEntity
  8
1
100
AcDbLine
 10
4596.831659683931
 20
7612.07346783901
 30
0.0
 11
4186.831659683927
 21
7612.073467839009
 31
0.0
  0
LINE
  5
7C82
330
19
100
AcDbEntity
  8
1
100
AcDbLine
 10
1951.831659683934
 20
8807.623467839011
 30
0.0
 11
3855.831659683934
 21
8807.623467839011
 31
0.0
  0
LINE
  5
7C83
330
19
100
AcDbEntity
  8
1
100
AcDbLine
 10
1951.831659683934
 20
7107.623467839008
 30
0.0
 11
3855.831659683934
 21
7107.623467839008
 31
0.0
  0
LINE
  5
7C84
330
19
100
AcDbEntity
  8
1
100
AcDbLine
 10
1951.831659683934
 20
8857.62346783901
 30
0.0
 11
1951.831659683934
 21
7057.623467839007
 31
0.0
  0
LINE
  5
7C85
330
19
100
AcDbEntity
  8
1
100
AcDbLine
 10
3855.831659683934
 20
8807.623467839007
 30
0.0
 11
3855.831659683934
 21
7107.623467839008
 31
0.0
  0
LINE
  5
7C86
330
19
100
AcDbEntity
  8
1
100
AcDbLine
 10
2026.831659683934
 20
7107.623467839008
 30
0.0
 11
2026.831659683934
 21
6766.623467839007
 31
0.0
  0
LINE
  5
7C87
330
19
100
AcDbEntity
  8
1
100
AcDbLine
 10
4290.831659683933
 20
6851.52346783901
 30
0.0
 11
4336.831659683934
 21
6851.52346783901
 31
0.0
  0
LINE
  5
7C88
330
19
100
AcDbEntity
  8
1
100
AcDbLine
 10
4290.831659683933
 20
6773.62346783901
 30
0.0
 11
4502.831659683933
 21
6773.62346783901
 31
0.0
  0
DIMENSION
  5
7C89
330
19
100
AcDbEntity
  8
3
100
AcDbDimension
280
     0
  2
*D7
 10
1577.8155184481
 20
6766.623467839007
 30
0.0
 11
1477.815518448099
 21
7826.623467839006
 31
0.0
 70
    32
 71
     5
 42
-1.0
 73
     0
 74
     0
 75
     0
  3
IGA
100
AcDbAlignedDimension
 13
2026.831659683934
 23
8886.623467839006
 33
0.0
 14
2026.831659683934
 24
6766.623467839007
 34
0.0
 50
270.0
100
AcDbRotatedDimension
1001
ACAD
1000
DSTYLE
1002
{
1070
   287
1070
     3
1070
    40
1040
40.0
1070
   143
1040
0.039
1070
   172
1070
     1
1070
   271
1070
     0
1070
   279
1070
     0
1070
   288
1070
     1
1002
}
  0
DIMENSION
  5
7C8A
330
19
100
AcDbEntity
  8
3
100
AcDbDimension
280
     0
  2
*D8
 10
3526.831659683934
 20
9091.259606344193
 30
0.0
 11
2776.831659683934
 21
9191.259606344193
 31
0.0
 70
    32
 71
     5
 42
-1.0
 73
     0
 74
     0
 75
     0
  3
IGA
100
AcDbAlignedDimension
 13
2026.831659683934
 23
8886.623467839006
 33
0.0
 14
3526.831659683934
 24
8886.623467839008
 34
0.0
100
AcDbRotatedDimension
1001
ACAD
1000
DSTYLE
1002
{
1070
   287
1070
     3
1070
    40
1040
40.0
1070
   143
1040
0.039
1070
   172
1070
     1
1070
   271
1070
     0
1070
   279
1070
     0
1070
   288
1070
     1
1002
}
  0
DIMENSION
  5
7C8B
330
19
100
AcDbEntity
  8
3
100
AcDbDimension
280
     0
  2
*D9
 10
4676.831659683934
 20
9091.259606344193
 30
0.0
 11
4101.831659683933
 21
9191.259606344193
 31
0.0
 70
    32
 71
     5
 42
-1.0
 73
     0
 74
     0
 75
     0
  3
IGA
100
AcDbAlignedDimension
 13
3526.831659683934
 23
8886.623467839008
 33
0.0
 14
4676.831659683934
 24
7866.623467839009
 34
0.0
100
AcDbRotatedDimension
1001
ACAD
1000
DSTYLE
1002
{
1070
   287
1070
     3
1070
    40
1040
40.0
1070
   143
1040
0.039
1070
   172
1070
     1
1070
   271
1070
     0
1070
   279
1070
     0
1070
   288
1070
     1
1002
}
  0
DIMENSION
  5
7C8C
330
19
100
AcDbEntity
  8
3
100
AcDbDimension
280
     0
  2
*D10
 10
4943.158060791513
 20
6766.623467839008
 30
0.0
 11
4843.158060791512
 21
7316.62346783901
 31
0.0
 70
    32
 71
     5
 42
-1.0
 73
     0
 74
     0
 75
     0
  3
IGA
100
AcDbAlignedDimension
 13
4676.831659683934
 23
7866.623467839009
 33
0.0
 14
4676.831659683934
 24
6766.623467839008
 34
0.0
 50
270.0
100
AcDbRotatedDimension
1001
ACAD
1000
DSTYLE
1002
{
1070
   287
1070
     3
1070
    40
1040
40.0
1070
   143
1040
0.039
1070
   172
1070
     1
1070
   271
1070
     0
1070
   279
1070
     0
1070
   288
1070
     1
1002
}
  0
DIMENSION
  5
7C8D
330
19
100
AcDbEntity
  8
3
100
AcDbDimension
280
     0
  2
*D11
 10
2026.831659683934
 20
6401.869589649355
 30
0.0
 11
3351.831659683934
 21
6501.869589649356
 31
0.0
 70
    32
 71
     5
 42
-1.0
 73
     0
 74
     0
 75
     0
  3
IGA
100
AcDbAlignedDimension
 13
4676.831659683934
 23
6766.623467839008
 33
0.0
 14
2026.831659683934
 24
6766.623467839007
 34
0.0
100
AcDbRotatedDimension
1001
ACAD
1000
DSTYLE
1002
{
1070
   287
1070
     3
1070
    40
1040
40.0
1070
   143
1040
0.039
1070
   172
1070
     1
1070
   271
1070
     0
1070
   279
1070
     0
1070
   288
1070
     1
1002
}
  0
INSERT
  5
7C8E
330
19
100
AcDbEntity
  8
1
100
AcDbBlockReference
  2
YA_N
 10
10491.49125510566
 20
1972.966762031963
 30
0.0
  0
ARC
  5
7C90
330
19
100
AcDbEntity
  8
1
100
AcDbCircle
 10
2685.831659683934
 20
4278.935954207628
 30
0.0
 40
1170.0
100
AcDbArc
 50
274.460843697874
 51
4.460843697873976
  0
ARC
  5
7C91
330
19
100
AcDbEntity
  8
1
100
AcDbCircle
 10
2867.831659683934
 20
4278.935954207628
 30
0.0
 40
988.0
100
AcDbArc
 50
5.284732954534545
 51
95.28473295453455
  0
ARC
  5
7C92
330
19
100
AcDbEntity
  8
1
100
AcDbCircle
 10
2853.831659683934
 20
4446.935954207627
 30
0.0
 40
820.0
100
AcDbArc
 50
95.38815180432743
 51
182.7575147557921
  0
LINE
  5
7C93
330
19
100
AcDbEntity
  8
1
100
AcDbLine
 10
2776.831659683934
 20
3112.480211369521
 30
0.0
 11
1951.831659683934
 21
3035.935954207627
 31
0.0
  0
LINE
  5
7C94
330
19
100
AcDbEntity
  8
1
100
AcDbLine
 10
2026.831659683934
 20
2939.935954207627
 30
0.0
 11
4676.831659683934
 21
2939.935954207627
 31
0.0
1001
ACAD
1000
ASC_BOUNDS
1002
{
1070
    19
1002
}
  0
LINE
  5
7C95
330
19
100
AcDbEntity
  8
1
100
AcDbLine
 10
2026.831659683934
 20
3064.935954207627
 30
0.0
 11
4676.831659683934
 21
3064.935954207627
 31
0.0
  0
LINE
  5
7C96
330
19
100
AcDbEntity
  8
1
100
AcDbLine
 10
2026.831659683934
 20
3064.935954207627
 30
0.0
 11
2026.831659683934
 21
2939.935954207627
 31
0.0
  0
LINE
  5
7C97
330
19
100
AcDbEntity
  8
1
100
AcDbLine
 10
4676.831659683934
 20
3064.935954207627
 30
0.0
 11
4676.831659683934
 21
2939.935954207627
 31
0.0
  0
LINE
  5
7C98
330
19
100
AcDbEntity
  8
2
100
AcDbLine
 10
4396.831659683934
 20
3615.790470813337
 30
0.0
 11
4396.831659683932
 21
2759.935954207627
 31
0.0
  0
LINE
  5
7C99
330
19
100
AcDbEntity
  8
2
100
AcDbLine
 10
4116.517442925782
 20
3324.935954207627
 30
0.0
 11
4666.937680551182
 21
3324.935954207627
 31
0.0
  0
LINE
  5
7C9C
330
19
100
AcDbEntity
  8
1
100
AcDbLine
 10
1951.831659683934
 20
4315.935954207627
 30
0.0
 11
2035.796572795331
 21
4315.935954207627
 31
0.0
  0
LINE
  5
7C9D
330
19
100
AcDbEntity
  8
1
100
AcDbLine
 10
2001.831659683934
 20
3040.575000096227
 30
0.0
 11
2001.831659683935
 21
4315.935954207627
 31
0.0
  0
LINE
  5
7C9E
330
19
100
AcDbEntity
  8
1
100
AcDbLine
 10
1951.831659683934
 20
2982.935954207627
 30
0.0
 11
1951.831659683934
 21
4368.935954207628
 31
0.0
  0
POINT
  5
7CA0
330
19
100
AcDbEntity
  8
1
100
AcDbPoint
 10
3851.631944294587
 20
4369.935954207627
 30
0.0
  0
INSERT
  5
7CA1
330
19
100
AcDbEntity
  8
1
100
AcDbBlockReference
  2
YA_N
 10
8728.263847795352
 20
749.1803445741825
 30
0.0
 41
30.0
 42
30.0
 43
30.0
  0
LINE
  5
7CA3
330
19
100
AcDbEntity
  8
1
100
AcDbLine
 10
2026.831659683934
 20
2834.935954207627
 30
0.0
 11
4676.831659683934
 21
2834.935954207627
 31
0.0
1001
ACAD
1000
ASC_BOUNDS
1002
{
1070
    19
1002
}
  0
LINE
  5
7CA4
330
19
100
AcDbEntity
  8
1
100
AcDbLine
 10
2026.831659683934
 20
2759.935954207627
 30
0.0
 11
4676.831659683934
 21
2759.935954207627
 31
0.0
  0
LINE
  5
7CA5
330
19
100
AcDbEntity
  8
1
100
AcDbLine
 10
2026.831659683934
 20
2834.935954207627
 30
0.0
 11
2026.831659683934
 21
2759.935954207627
 31
0.0
  0
LINE
  5
7CA6
330
19
100
AcDbEntity
  8
1
100
AcDbLine
 10
4676.831659683934
 20
2834.935954207627
 30
0.0
 11
4676.831659683934
 21
2759.935954207627
 31
0.0
  0
ARC
  5
7CA7
330
19
100
AcDbEntity
  8
1
100
AcDbCircle
 10
4396.831659683934
 20
3324.935954207627
 30
0.0
 40
203.5
100
AcDbArc
 50
285.60376
 51
254.396301
  0
LINE
  5
7CA8
330
19
100
AcDbEntity
  8
1
100
AcDbLine
 10
4451.569696683935
 20
3128.935954207627
 30
0.0
 11
4342.093622683933
 21
3128.935954207627
 31
0.0
  0
ARC
  5
7CA9
330
19
100
AcDbEntity
  8
1
100
AcDbCircle
 10
4210.831659683934
 20
3141.935954207627
 30
0.0
 40
3.0
100
AcDbArc
 50
90.0
 51
180.0
  0
ARC
  5
7CAA
330
19
100
AcDbEntity
  8
1
100
AcDbCircle
 10
4212.831659683934
 20
3199.262615207628
 30
0.0
 40
5.000066999999999
100
AcDbArc
 50
124.943665
 51
180.0
  0
LINE
  5
7CAB
330
19
100
AcDbEntity
  8
1
100
AcDbLine
 10
4207.831659683934
 20
3199.262615207628
 30
0.0
 11
4207.831659683934
 21
3124.935954207627
 31
0.0
  0
LINE
  5
7CAE
330
19
100
AcDbEntity
  8
1
100
AcDbLine
 10
4292.729089683933
 20
3150.079143207628
 30
0.0
 11
4287.331659683934
 21
3129.935954207628
 31
0.0
  0
LINE
  5
7CAF
330
19
100
AcDbEntity
  8
1
100
AcDbLine
 10
4287.331659683934
 20
3141.935954207627
 30
0.0
 11
4287.331659683934
 21
3124.935954207627
 31
0.0
  0
LINE
  5
7CB0
330
19
100
AcDbEntity
  8
1
100
AcDbLine
 10
4284.331659683934
 20
3144.935954207627
 30
0.0
 11
4210.831659683934
 21
3144.935954207627
 31
0.0
  0
ARC
  5
7CB1
330
19
100
AcDbEntity
  8
1
100
AcDbCircle
 10
4284.331659683934
 20
3141.935954207627
 30
0.0
 40
3.0
100
AcDbArc
 50
0.0
 51
90.0
  0
LINE
  5
7CB2
330
19
100
AcDbEntity
  8
1
100
AcDbLine
 10
4209.967889683934
 20
3203.361247207628
 30
0.0
 11
4225.905755683935
 21
3214.497722207627
 31
0.0
  0
LINE
  5
7CB3
330
19
100
AcDbEntity
  8
1
100
AcDbLine
 10
4585.831659683934
 20
3199.262615207628
 30
0.0
 11
4585.831659683934
 21
3124.935954207627
 31
0.0
  0
LINE
  5
7CB6
330
19
100
AcDbEntity
  8
1
100
AcDbLine
 10
4500.934442683933
 20
3150.079265207627
 30
0.0
 11
4506.331659683934
 21
3129.935954207628
 31
0.0
  0
LINE
  5
7CB7
330
19
100
AcDbEntity
  8
1
100
AcDbLine
 10
4506.331659683934
 20
3141.935954207627
 30
0.0
 11
4506.331659683934
 21
3124.935954207627
 31
0.0
  0
LINE
  5
7CB8
330
19
100
AcDbEntity
  8
1
100
AcDbLine
 10
4509.331659683934
 20
3144.935954207627
 30
0.0
 11
4582.831659683934
 21
3144.935954207627
 31
0.0
  0
ARC
  5
7CB9
330
19
100
AcDbEntity
  8
1
100
AcDbCircle
 10
4509.331659683934
 20
3141.935954207627
 30
0.0
 40
3.0
100
AcDbArc
 50
90.0
 51
180.0
  0
ARC
  5
7CBA
330
19
100
AcDbEntity
  8
1
100
AcDbCircle
 10
4582.831659683934
 20
3141.935954207627
 30
0.0
 40
3.0
100
AcDbArc
 50
0.0
 51
90.0
  0
LINE
  5
7CBB
330
19
100
AcDbEntity
  8
1
100
AcDbLine
 10
4583.695550683933
 20
3203.361247207628
 30
0.0
 11
4567.757684683932
 21
3214.497722207627
 31
0.0
  0
ARC
  5
7CBC
330
19
100
AcDbEntity
  8
1
100
AcDbCircle
 10
4580.831659683934
 20
3199.262615207628
 30
0.0
 40
5.0
100
AcDbArc
 50
0.0
 51
55.05633899999998
  0
LINE
  5
7CBD
330
19
100
AcDbEntity
  8
1
100
AcDbLine
 10
4153.408634641324
 20
3124.935954207627
 30
0.0
 11
4326.831659683934
 21
3124.935954207627
 31
0.0
  0
LINE
  5
7CBE
330
19
100
AcDbEntity
  8
1
100
AcDbLine
 10
4136.831659683934
 20
3064.935954207627
 30
0.0
 11
4153.408634641324
 21
3124.935954207627
 31
0.0
  0
LINE
  5
7CBF
330
19
100
AcDbEntity
  8
1
100
AcDbLine
 10
4656.831659683933
 20
3064.935954207627
 30
0.0
 11
4640.650703138816
 21
3124.935954207627
 31
0.0
  0
LINE
  5
7CC0
330
19
100
AcDbEntity
  8
1
100
AcDbLine
 10
4326.831659683934
 20
3114.935954207628
 30
0.0
 11
4466.831659683934
 21
3114.935954207628
 31
0.0
  0
LINE
  5
7CC2
330
19
100
AcDbEntity
  8
1
100
AcDbLine
 10
4466.831659683934
 20
3124.935954207627
 30
0.0
 11
4466.831659683934
 21
3114.935954207628
 31
0.0
  0
LINE
  5
7CC3
330
19
100
AcDbEntity
  8
1
100
AcDbLine
 10
4326.831659683934
 20
3124.935954207627
 30
0.0
 11
4326.831659683934
 21
3114.935954207628
 31
0.0
  0
LINE
  5
7CC6
330
19
100
AcDbEntity
  8
1
100
AcDbLine
 10
4466.831659683934
 20
3124.935954207627
 30
0.0
 11
4640.650703138816
 21
3124.935954207627
 31
0.0
  0
INSERT
  5
7CC7
330
19
100
AcDbEntity
  8
1
100
AcDbBlockReference
  2
YA_N
 10
9730.247579223819
 20
1429.411777198107
 30
0.0
 41
30.0
 42
30.0
 43
30.0
  0
DIMENSION
  5
7CC9
330
19
100
AcDbEntity
  8
3
100
AcDbDimension
280
     0
  2
*D12
 10
2776.831659683934
 20
2396.726181904516
 30
0.0
 11
2401.831659683934
 21
2496.726181904517
 31
0.0
 70
    32
 71
     5
 42
750.0
 73
     0
 74
     0
 75
     0
  3
IGA
100
AcDbAlignedDimension
 13
2026.831659683934
 23
2759.935954207627
 33
0.0
 14
2776.831659683934
 24
2759.935954207627
 34
0.0
100
AcDbRotatedDimension
1001
ACAD
1000
DSTYLE
1002
{
1070
   287
1070
     3
1070
    40
1040
40.0
1070
   143
1040
0.039
1070
   172
1070
     1
1070
   271
1070
     0
1070
   279
1070
     0
1070
   288
1070
     1
1002
}
  0
DIMENSION
  5
7CCA
330
19
100
AcDbEntity
  8
3
100
AcDbDimension
280
     0
  2
*D13
 10
1698.820626993977
 20
4315.935954207627
 30
0.0
 11
1598.820626993975
 21
3675.935954207627
 31
0.0
 70
    32
 71
     5
 42
-1.0
 73
     0
 74
     0
 75
     0
  3
IGA
100
AcDbAlignedDimension
 13
1951.831659683934
 23
3035.935954207627
 33
0.0
 14
1951.831659683934
 24
4315.935954207627
 34
0.0
 50
90.0
100
AcDbRotatedDimension
1001
ACAD
1000
DSTYLE
1002
{
1070
   287
1070
     3
1070
    40
1040
40.0
1070
   143
1040
0.039
1070
   172
1070
     1
1070
   271
1070
     0
1070
   279
1070
     0
1070
   288
1070
     1
1002
}
  0
DIMENSION
  5
7CCB
330
19
100
AcDbEntity
  8
3
100
AcDbDimension
280
     0
  2
*D14
 10
1451.757784537447
 20
4369.935954207627
 30
0.0
 11
1351.757784537446
 21
3702.935954207627
 31
0.0
 70
    32
 71
     5
 42
-1.0
 73
     0
 74
     0
 75
     0
  3
IGA
100
AcDbAlignedDimension
 13
1951.831659683934
 23
3035.935954207627
 33
0.0
 14
1873.395121435082
 24
4369.935954207627
 34
0.0
 50
90.0
100
AcDbRotatedDimension
1001
ACAD
1000
DSTYLE
1002
{
1070
   287
1070
     3
1070
    40
1040
40.0
1070
   143
1040
0.039
1070
   172
1070
     1
1070
   271
1070
     0
1070
   279
1070
     0
1070
   288
1070
     1
1002
}
  0
POINT
  5
7CCC
330
19
100
AcDbEntity
  8
1
100
AcDbPoint
 10
2026.831659683934
 20
2749.935954207627
 30
0.0
  0
CIRCLE
  5
7CCD
330
19
100
AcDbEntity
  8
1
100
AcDbCircle
 10
4396.831659683934
 20
3324.935954207627
 30
0.0
 40
107.0
  0
POINT
  5
7CCE
330
19
100
AcDbEntity
  8
1
100
AcDbPoint
 10
2026.831659683934
 20
2834.935954207627
 30
0.0
  0
POINT
  5
7CCF
330
19
100
AcDbEntity
  8
1
100
AcDbPoint
 10
2026.831659683934
 20
2939.935954207627
 30
0.0
  0
POINT
  5
7CD0
330
19
100
AcDbEntity
  8
1
100
AcDbPoint
 10
2026.831659683934
 20
2834.935954207627
 30
0.0
  0
POINT
  5
7CD1
330
19
100
AcDbEntity
  8
1
100
AcDbPoint
 10
2026.831659683934
 20
2749.935954207627
 30
0.0
  0
ARC
  5
7CD2
330
19
100
AcDbEntity
  8
1
100
AcDbCircle
 10
2776.831659683934
 20
4369.935954207627
 30
0.0
 40
625.0
100
AcDbArc
 50
0.0
 51
180.0
  0
ARC
  5
7CD3
330
19
100
AcDbEntity
  8
1
100
AcDbCircle
 10
2776.831659683934
 20
4369.935954207627
 30
0.0
 40
675.0
100
AcDbArc
 50
0.0
 51
180.0
  0
ARC
  5
7CD4
330
19
100
AcDbEntity
  8
1
100
AcDbCircle
 10
2776.831659683934
 20
4369.935954207627
 30
0.0
 40
625.0
100
AcDbArc
 50
180.0
 51
0.0
  0
ARC
  5
7CD5
330
19
100
AcDbEntity
  8
1
100
AcDbCircle
 10
2776.831659683934
 20
4369.935954207627
 30
0.0
 40
675.0
100
AcDbArc
 50
180.0
 51
0.0
  0
DIMENSION
  5
7CD6
330
19
100
AcDbEntity
  8
3
100
AcDbDimension
280
     0
  2
*D15
 10
2776.831659683934
 20
2396.499680165256
 30
0.0
 11
3726.831659683934
 21
2496.499680165256
 31
0.0
 70
    32
 71
     5
 42
1900.0
 73
     0
 74
     0
 75
     0
  3
IGA
100
AcDbAlignedDimension
 13
4676.831659683934
 23
2759.935954207627
 33
0.0
 14
2776.831659683934
 24
2759.935954207627
 34
0.0
100
AcDbRotatedDimension
1001
ACAD
1000
DSTYLE
1002
{
1070
   287
1070
     3
1070
    40
1040
40.0
1070
   143
1040
0.039
1070
   172
1070
     1
1070
   271
1070
     0
1070
   279
1070
     0
1070
   288
1070
     1
1002
}
  0
CIRCLE
  5
7CD8
330
19
100
AcDbEntity
  8
1
100
AcDbCircle
 10
2776.831659683934
 20
4369.935954207627
 30
0.0
 40
254.0
  0
POINT
  5
7CD9
330
19
100
AcDbEntity
  8
1
100
AcDbPoint
 10
2026.831659683934
 20
2834.935954207627
 30
0.0
  0
POINT
  5
7CDA
330
19
100
AcDbEntity
  8
1
100
AcDbPoint
 10
2026.831659683934
 20
2759.935954207627
 30
0.0
  0
POINT
  5
7CDB
330
19
100
AcDbEntity
  8
1
100
AcDbPoint
 10
2026.831659683934
 20
2834.935954207627
 30
0.0
  0
POINT
  5
7CDC
330
19
100
AcDbEntity
  8
1
100
AcDbPoint
 10
2026.831659683934
 20
2939.935954207627
 30
0.0
  0
ARC
  5
7CDD
330
19
100
AcDbEntity
  8
1
100
AcDbCircle
 10
2776.831659683934
 20
4369.935954207627
 30
0.0
 40
743.0
100
AcDbArc
 50
177.103091958974
 51
184.1678363221619
  0
INSERT
  5
7CDE
330
19
100
AcDbEntity
  8
1
100
AcDbBlockReference
  2
YA_N
 10
15253.43467482128
 20
473.2708936064664
 30
0.0
  0
ARC
  5
7CE0
330
19
100
AcDbEntity
  8
1
100
AcDbCircle
 10
2776.831659683934
 20
4369.935954207627
 30
0.0
 40
380.0
100
AcDbArc
 50
48.44327906850633
 51
238.8568658610077
  0
ARC
  5
7CE1
330
19
100
AcDbEntity
  8
1
100
AcDbCircle
 10
4396.831659683934
 20
3324.935954207627
 30
0.0
 40
220.0
100
AcDbArc
 50
238.8568658610077
 51
48.44327906850637
  0
LINE
  5
7CE2
330
19
100
AcDbEntity
  8
1
100
AcDbLine
 10
3028.908902328605
 20
4654.289719332444
 30
0.0
 11
4542.771115951902
 21
3489.561818227258
 31
0.0
  0
LINE
  5
7CE3
330
19
100
AcDbEntity
  8
1
100
AcDbLine
 10
2943.913982729282
 20
4561.245905140061
 30
0.0
 11
4467.216732777841
 21
3405.527154009873
 31
0.0
  0
LINE
  5
7CE4
330
19
100
AcDbEntity
  8
1
100
AcDbLine
 10
2643.863050175185
 20
4153.521192961289
 30
0.0
 11
4340.817324182217
 21
3233.76910596606
 31
0.0
  0
LINE
  5
7CE5
330
19
100
AcDbEntity
  8
1
100
AcDbLine
 10
2580.304092518002
 20
4044.702322269231
 30
0.0
 11
4283.052541851026
 21
3136.642798874872
 31
0.0
  0
DIMENSION
  5
7CE6
330
19
100
AcDbEntity
  8
3
100
AcDbDimension
280
     0
  2
*D16
 10
2776.831659683934
 20
5534.448112292856
 30
0.0
 11
3314.559531102987
 21
5634.448112292855
 31
0.0
 70
    32
  1
1079
 71
     5
 42
-1.0
 73
     0
 74
     0
 75
     0
  3
IGA
100
AcDbAlignedDimension
 13
3852.287402522041
 23
4369.935954207627
 33
0.0
 14
2776.831659683934
 24
5449.070503599152
 34
0.0
100
AcDbRotatedDimension
1001
ACAD
1000
DSTYLE
1002
{
1070
   287
1070
     3
1070
    40
1040
40.0
1070
   143
1040
0.039
1070
   172
1070
     1
1070
   271
1070
     0
1070
   279
1070
     0
1070
   288
1070
     1
1002
}
  0
DIMENSION
  5
7CE7
330
19
100
AcDbEntity
  8
3
100
AcDbDimension
280
     0
  2
*D17
 10
1951.831659683934
 20
5534.448112292856
 30
0.0
 11
2364.331659683934
 21
5634.448112292855
 31
0.0
 70
    32
 71
     5
 42
-1.0
 73
     0
 74
     0
 75
     0
  3
IGA
100
AcDbAlignedDimension
 13
2776.831659683934
 23
5449.070503599152
 33
0.0
 14
1951.831659683934
 24
4368.935954207628
 34
0.0
100
AcDbRotatedDimension
1001
ACAD
1000
DSTYLE
1002
{
1070
   287
1070
     3
1070
    40
1040
40.0
1070
   143
1040
0.039
1070
   172
1070
     1
1070
   271
1070
     0
1070
   279
1070
     0
1070
   288
1070
     1
1002
}
  0
DIMENSION
  5
7CE9
330
19
100
AcDbEntity
  8
3
100
AcDbDimension
280
     0
  2
*D18
 10
1200.642070885875
 20
2939.935954207627
 30
0.0
 11
1100.642070885874
 21
3654.935954207628
 31
0.0
 70
    32
 71
     5
 42
-1.0
 73
     0
 74
     0
 75
     0
  3
IGA
100
AcDbAlignedDimension
 13
1873.395121435082
 23
4369.935954207627
 33
0.0
 14
2026.831659683934
 24
2939.935954207627
 34
0.0
 50
270.0
100
AcDbRotatedDimension
1001
ACAD
1000
DSTYLE
1002
{
1070
   287
1070
     3
1070
    40
1040
40.0
1070
   143
1040
0.039
1070
   172
1070
     1
1070
   271
1070
     0
1070
   279
1070
     0
1070
   288
1070
     1
1002
}
  0
POINT
  5
7CF0
330
19
100
AcDbEntity
  8
1
100
AcDbPoint
 10
2026.831659683934
 20
2834.935954207627
 30
0.0
  0
POINT
  5
7CF1
330
19
100
AcDbEntity
  8
1
100
AcDbPoint
 10
2026.831659683934
 20
2759.935954207627
 30
0.0
  0
POINT
  5
7CF8
330
19
100
AcDbEntity
  8
1
100
AcDbPoint
 10
2026.831659683934
 20
2834.935954207627
 30
0.0
  0
POINT
  5
7CF9
330
19
100
AcDbEntity
  8
1
100
AcDbPoint
 10
2026.831659683934
 20
2939.935954207627
 30
0.0
  0
LINE
  5
7CFD
330
19
100
AcDbEntity
  8
1
100
AcDbLine
 10
5531.407928765327
 20
5266.935954207627
 30
0.0
 11
7231.407928765325
 21
5266.935954207627
 31
0.0
  0
LINE
  5
7D00
330
19
100
AcDbEntity
  8
1
100
AcDbLine
 10
5913.557537593625
 20
3124.935954207631
 30
0.0
 11
5913.557537593625
 21
3070.399788374016
 31
0.0
  0
LINE
  5
7D07
330
19
100
AcDbEntity
  8
1
100
AcDbLine
 10
5531.407928765325
 20
3534.935954207629
 30
0.0
 11
5531.407928765325
 21
4315.935954207627
 31
0.0
  0
DIMENSION
  5
7F20
330
19
100
AcDbEntity
  8
3
100
AcDbDimension
280
     0
  2
*D20
 10
1200.642070885875
 20
2759.935954207627
 30
0.0
 11
1100.642070885874
 21
2462.79309706477
 31
0.0
 70
    32
 71
     5
 42
75.0
 73
     0
 74
     0
 75
     0
  3
IGA
100
AcDbAlignedDimension
 13
2026.831659683934
 23
2834.935954207627
 33
0.0
 14
2026.831659683934
 24
2759.935954207627
 34
0.0
 50
90.0
100
AcDbRotatedDimension
1001
ACAD
1000
DSTYLE
1002
{
1070
   287
1070
     3
1070
    40
1040
40.0
1070
   143
1040
0.039
1070
   172
1070
     1
1070
   271
1070
     0
1070
   279
1070
     0
1070
   288
1070
     1
1070
     6
1000
DOT
1002
}
  0
DIMENSION
  5
8060
330
19
100
AcDbEntity
  8
3
100
AcDbDimension
280
     0
  2
*D21
 10
4676.831659683934
 20
5815.282770043523
 30
0.0
 11
3298.945066695713
 21
5815.282770043523
 31
0.0
 70
   160
 71
     5
 42
-1.0
 73
     0
 74
     0
 75
     0
  3
IGA
100
AcDbAlignedDimension
 13
1951.831659683934
 23
4388.935954207627
 33
0.0
 14
4676.831659683934
 24
3064.935954207627
 34
0.0
100
AcDbRotatedDimension
1001
ACAD
1000
DSTYLE
1002
{
1070
   287
1070
     3
1070
    40
1040
40.0
1070
   143
1040
0.039
1070
   172
1070
     1
1070
   271
1070
     0
1070
   279
1070
     0
1070
   288
1070
     1
1002
}
  0
LINE
  5
8092
330
19
100
AcDbEntity
  8
1
100
AcDbLine
 10
6025.357928765327
 20
3534.935954207628
 30
0.0
 11
6025.357928765326
 21
3124.935954207631
 31
0.0
  0
LINE
  5
8093
330
19
100
AcDbEntity
  8
4
100
AcDbLine
 10
7400.0
 20
1613.487493352484
 30
0.0
 11
7400.0
 21
813.4874933524844
 31
0.0
  0
LINE
  5
8094
330
19
100
AcDbEntity
  8
4
100
AcDbLine
 10
4600.0
 20
1613.487493352484
 30
0.0
 11
4600.0
 21
813.4874933524844
 31
0.0
  0
LINE
  5
8095
330
19
100
AcDbEntity
  8
4
100
AcDbLine
 10
2600.0
 20
1613.487493352484
 30
0.0
 11
2600.0
 21
813.4874933524844
 31
0.0
  0
LINE
  5
8098
330
19
100
AcDbEntity
  8
4
100
AcDbLine
 10
2600.0
 20
813.4874933524843
 30
0.0
 11
7400.0
 21
813.4874933524843
 31
0.0
  0
LINE
  5
8099
330
19
100
AcDbEntity
  8
4
100
AcDbLine
 10
2600.0
 20
1213.487493352484
 30
0.0
 11
7400.0
 21
1213.487493352484
 31
0.0
  0
TEXT
  5
809A
330
19
100
AcDbEntity
  8
4
100
AcDbText
 10
2754.008323387607
 20
1339.659596818936
 30
0.0
 40
200.0
  1
機器名称
100
AcDbText
  0
TEXT
  5
809B
330
19
100
AcDbEntity
  8
4
100
AcDbText
 10
2745.032424099191
 20
900.068120280528
 30
0.0
 40
200.0
  1
機器型番
100
AcDbText
  0
TEXT
  5
809C
330
19
100
AcDbEntity
  8
4
100
AcDbText
 10
4715.138286072682
 20
1306.829138347283
 30
0.0
 40
170.0
  1
ミツヤリミットロードファン
100
AcDbText
  0
TEXT
  5
809D
330
19
100
AcDbEntity
  8
4
100
AcDbText
 10
4746.617982341923
 20
882.1258304722578
 30
0.0
 40
200.0
  1
LL#8-5
100
AcDbText
  0
TEXT
  5
809F
330
19
100
AcDbEntity
  8
4
100
AcDbText
 10
3261.976911550468
 20
9533.715365330063
 30
0.0
 40
216.0
  1
床置防振ベット
100
AcDbText
  0
TEXT
  5
80A0
330
19
100
AcDbEntity
  8
4
100
AcDbText
 10
1264.670373317785
 20
10135.52390479719
 30
0.0
 40
288.0
  1
遠心式両吸込両持リミットロードファン
100
AcDbText
  0
LINE
  5
80A1
330
19
100
AcDbEntity
  8
4
100
AcDbLine
 10
1000.0
 20
9877.635017059219
 30
0.0
 11
7400.0
 21
9877.635017059219
 31
0.0
  0
LINE
  5
80A2
330
19
100
AcDbEntity
  8
4
100
AcDbLine
 10
1000.0
 20
10677.63501705922
 30
0.0
 11
7400.0
 21
10677.63501705922
 31
0.0
  0
LINE
  5
80A3
330
19
100
AcDbEntity
  8
4
100
AcDbLine
 10
2600.0
 20
1613.487493352484
 30
0.0
 11
7400.0
 21
1613.487493352484
 31
0.0
  0
LINE
  5
80A4
330
19
100
AcDbEntity
  8
4
100
AcDbLine
 10
1000.0
 20
10677.63501705922
 30
0.0
 11
1000.0
 21
9877.635017059219
 31
0.0
  0
TEXT
  5
80A5
330
19
100
AcDbEntity
  8
4
100
AcDbText
 10
1518.541582579659
 20
9529.277910185374
 30
0.0
 40
216.0
  1
右回転左横向
100
AcDbText
  0
TEXT
  5
80A6
330
19
100
AcDbEntity
  8
4
100
AcDbText
 10
5875.878236997159
 20
10824.24432598123
 30
0.0
 40
224.0
  1
No.
100
AcDbText
  0
TEXT
  5
80A7
330
19
100
AcDbEntity
  8
4
100
AcDbText
 10
5245.184250400052
 20
9533.715365330063
 30
0.0
 40
216.0
  1
縮尺：1/40
100
AcDbText
  0
LINE
  5
80A8
330
19
100
AcDbEntity
  8
4
100
AcDbLine
 10
7400.0
 20
10677.63501705922
 30
0.0
 11
7400.0
 21
9877.635017059219
 31
0.0
  0
LINE
  5
80A9
330
19
100
AcDbEntity
  8
4
100
AcDbLine
 10
8400.0
 20
11800.0
 30
0.0
 11
8400.0
 21
11800.0
 31
0.0
  0
LINE
  5
80AA
330
19
100
AcDbEntity
  8
4
100
AcDbLine
 10
5762.469689439458
 20
10725.0543325016
 30
0.0
 11
5762.469689439458
 21
11146.60904619901
 31
0.0
  0
LINE
  5
80AB
330
19
100
AcDbEntity
  8
4
100
AcDbLine
 10
5762.469689439458
 20
11146.60904619901
 30
0.0
 11
7400.0
 21
11146.60904619901
 31
0.0
  0
LINE
  5
80AC
330
19
100
AcDbEntity
  8
4
100
AcDbLine
 10
7400.0
 20
11146.60904619901
 30
0.0
 11
7400.0
 21
10725.0543325016
 31
0.0
  0
LINE
  5
80AD
330
19
100
AcDbEntity
  8
4
100
AcDbLine
 10
7400.0
 20
10725.0543325016
 30
0.0
 11
5762.469689439458
 21
10725.0543325016
 31
0.0
  0
LINE
  5
80AE
330
19
100
AcDbEntity
  8
4
100
AcDbLine
 10
0.0
 20
0.0
 30
0.0
 11
0.0
 21
11800.0
 31
0.0
  0
LINE
  5
80AF
330
19
100
AcDbEntity
  8
4
100
AcDbLine
 10
0.0
 20
11800.0
 30
0.0
 11
8400.0
 21
11800.0
 31
0.0
  0
LINE
  5
80B0
330
19
100
AcDbEntity
  8
4
100
AcDbLine
 10
8400.0
 20
11800.0
 30
0.0
 11
8400.0
 21
0.0
 31
0.0
  0
LINE
  5
80B1
330
19
100
AcDbEntity
  8
4
100
AcDbLine
 10
8400.0
 20
0.0
 30
0.0
 11
0.0
 21
0.0
 31
0.0
  0
DIMENSION
  5
827B
330
19
100
AcDbEntity
  8
3
100
AcDbDimension
280
     0
  2
*D24
 10
1202.024579098557
 20
5266.935954207628
 30
0.0
 11
1102.024579098557
 21
4818.435954207627
 31
0.0
 70
    32
 71
     5
 42
-1.0
 73
     0
 74
     0
 75
     0
  3
IGA
100
AcDbAlignedDimension
 13
1939.310814992314
 23
4369.935954207627
 33
0.0
 14
2867.831659683934
 24
5266.935954207628
 34
0.0
 50
90.0
100
AcDbRotatedDimension
1001
ACAD
1000
DSTYLE
1002
{
1070
   172
1070
     1
1070
    40
1040
40.0
1070
   271
1070
     0
1070
   143
1040
0.039
1002
}
  0
DIMENSION
  5
8293
330
19
100
AcDbEntity
  8
3
100
AcDbDimension
280
     0
  2
*D25
 10
1200.393929209494
 20
2939.935954207627
 30
0.0
 11
1008.965357780923
 21
2887.435954207628
 31
0.0
 70
    32
  1
   <>
 71
     5
 42
105.0
 73
     0
 74
     0
 75
     0
  3
IGA
100
AcDbAlignedDimension
 13
2026.831659683934
 23
2834.935954207627
 33
0.0
 14
2026.831659683934
 24
2939.935954207627
 34
0.0
 50
90.0
100
AcDbRotatedDimension
1001
ACAD
1000
DSTYLE
1002
{
1070
   172
1070
     1
1070
    76
1070
     1
1070
    75
1070
     1
1070
    40
1040
40.0
1070
     3
1000
(<>)
1070
   271
1070
     0
1070
     7
1000
_NONE
1070
     6
1000
_NONE
1070
   143
1040
0.039
1002
}
  0
DIMENSION
  5
82A0
330
19
100
AcDbEntity
  8
3
100
AcDbDimension
280
     0
  2
*D26
 10
851.5805691906789
 20
2759.935954207628
 30
0.0
 11
720.1519977621071
 21
4013.435954207628
 31
0.0
 70
    32
 71
     5
 42
2507.000000000001
 73
     0
 74
     0
 75
     0
  3
IGA
100
AcDbAlignedDimension
 13
2847.831659683934
 23
5266.935954207628
 33
0.0
 14
2026.831659683934
 24
2759.935954207627
 34
0.0
 50
90.0
100
AcDbRotatedDimension
1001
ACAD
1000
DSTYLE
1002
{
1070
   172
1070
     1
1070
    40
1040
40.0
1070
     3
1000
(<>)
1070
   271
1070
     0
1070
   143
1040
0.039
1002
}
  0
ENDSEC
  0
SECTION
  2
OBJECTS
  0
DICTIONARY
  5
C
330
0
100
AcDbDictionary
281
     1
  3
ACAD_CIP_PREVIOUS_PRODUCT_INFO
350
8408
  3
ACAD_COLOR
350
83EB
  3
ACAD_DETAILVIEWSTYLE
350
8404
  3
ACAD_GROUP
350
D
  3
ACAD_LAYOUT
350
82C2
  3
ACAD_MATERIAL
350
83B9
  3
ACAD_MLEADERSTYLE
350
8400
  3
ACAD_MLINESTYLE
350
E
  3
ACAD_PLOTSETTINGS
350
82C3
  3
ACAD_PLOTSTYLENAME
350
82C0
  3
ACAD_SCALELIST
350
83EE
  3
ACAD_SECTIONVIEWSTYLE
350
8402
  3
ACAD_TABLESTYLE
350
83EC
  3
ACAD_VISUALSTYLE
350
83D2
  3
ACDB_RECOMPOSE_DATA
350
84BA
  3
AcDbVariableDictionary
350
83B0
  3
AcDsDecomposeData
350
84C0
  0
DICTIONARY
  5
849E
330
2
100
AcDbDictionary
280
     1
281
     1
  3
ACAD_LAYERSTATES
360
849F
  0
DICTIONARY
  5
8491
330
F
100
AcDbDictionary
280
     1
281
     1
  3
ADSK_XREC_LAYER_RECONCILED
360
8492
  0
DICTIONARY
  5
8493
330
31
100
AcDbDictionary
280
     1
281
     1
  3
ADSK_XREC_LAYER_RECONCILED
360
8494
  0
DICTIONARY
  5
8495
330
76D0
100
AcDbDictionary
280
     1
281
     1
  3
ADSK_XREC_LAYER_RECONCILED
360
8496
  0
DICTIONARY
  5
8497
330
76D1
100
AcDbDictionary
280
     1
281
     1
  3
ADSK_XREC_LAYER_RECONCILED
360
8498
  0
DICTIONARY
  5
8499
330
76D2
100
AcDbDictionary
280
     1
281
     1
  3
ADSK_XREC_LAYER_RECONCILED
360
849A
  0
DICTIONARY
  5
82EF
330
19
100
AcDbDictionary
280
     1
281
     1
  3
ACAD_LAYOUTSELFREF
360
82F0
  0
DICTIONARY
  5
82ED
330
16
100
AcDbDictionary
280
     1
281
     1
  3
ACAD_LAYOUTSELFREF
360
82EE
  0
XRECORD
  5
8408
102
{ACAD_REACTORS
330
C
102
}
330
C
100
AcDbXrecord
280
     1
300
ACDLT
300
2023
300

  0
DICTIONARY
  5
83EB
102
{ACAD_REACTORS
330
C
102
}
330
C
100
AcDbDictionary
281
     1
  0
DICTIONARY
  5
8404
102
{ACAD_REACTORS
330
C
102
}
330
C
100
AcDbDictionary
281
     1
  3
Metric50
350
8405
  0
DICTIONARY
  5
D
102
{ACAD_REACTORS
330
C
102
}
330
C
100
AcDbDictionary
281
     1
  0
DICTIONARY
  5
82C2
102
{ACAD_REACTORS
330
C
102
}
330
C
100
AcDbDictionary
281
     1
  3
Model
350
82C4
  3
ﾚｲｱｳﾄ1
350
82C5
  0
DICTIONARY
  5
83B9
102
{ACAD_REACTORS
330
C
102
}
330
C
100
AcDbDictionary
281
     1
  3
ByBlock
350
83C2
  3
ByLayer
350
83BA
  3
Global
350
83CA
  0
DICTIONARY
  5
8400
102
{ACAD_REACTORS
330
C
102
}
330
C
100
AcDbDictionary
281
     1
  3
Standard
350
8401
  0
DICTIONARY
  5
E
102
{ACAD_REACTORS
330
C
102
}
330
C
100
AcDbDictionary
281
     1
  3
STANDARD
350
1C
  0
DICTIONARY
  5
82C3
102
{ACAD_REACTORS
330
C
102
}
330
C
100
AcDbDictionary
281
     1
  0
ACDBDICTIONARYWDFLT
  5
82C0
102
{ACAD_REACTORS
330
C
102
}
330
C
100
AcDbDictionary
281
     1
  3
Normal
350
82C1
100
AcDbDictionaryWithDefault
340
82C1
  0
DICTIONARY
  5
83EE
102
{ACAD_REACTORS
330
C
102
}
330
C
100
AcDbDictionary
281
     1
  3
A0
350
83EF
  3
A1
350
83F0
  3
A2
350
83F1
  3
A3
350
83F2
  3
A4
350
83F3
  3
A5
350
83F4
  3
A6
350
83F5
  3
A7
350
83F6
  3
A8
350
83F7
  3
A9
350
83F8
  3
B0
350
83F9
  3
B1
350
83FA
  3
B2
350
83FB
  3
B3
350
83FC
  3
B4
350
83FD
  3
B5
350
83FE
  3
B6
350
83FF
  0
DICTIONARY
  5
8402
102
{ACAD_REACTORS
330
C
102
}
330
C
100
AcDbDictionary
281
     1
  3
Metric50
350
8403
  0
DICTIONARY
  5
83EC
102
{ACAD_REACTORS
330
C
102
}
330
C
100
AcDbDictionary
281
     1
  3
Standard
350
83ED
  0
DICTIONARY
  5
83D2
102
{ACAD_REACTORS
330
C
102
}
330
C
100
AcDbDictionary
281
     1
  3
2dWireframe
350
83D8
  3
Basic
350
83D7
  3
Brighten
350
83DE
  3
ColorChange
350
83E2
  3
Conceptual
350
83DB
  3
Dim
350
83DD
  3
EdgeColorOff
350
83EA
  3
Facepattern
350
83E1
  3
Flat
350
83D3
  3
FlatWithEdges
350
83D4
  3
Gouraud
350
83D5
  3
GouraudWithEdges
350
83D6
  3
Hidden
350
83DA
  3
JitterOff
350
83E8
  3
Linepattern
350
83E0
  3
OverhangOff
350
83E9
  3
Realistic
350
83DC
  3
Shaded
350
83E7
  3
Shaded with edges
350
83E6
  3
Shades of Gray
350
83E3
  3
Sketchy
350
83E4
  3
Thicken
350
83DF
  3
Wireframe
350
83D9
  3
X-Ray
350
83E5
  0
XRECORD
  5
84BA
102
{ACAD_REACTORS
330
C
102
}
330
C
100
AcDbXrecord
280
     1
 90
        1
330
83ED
  0
DICTIONARY
  5
83B0
102
{ACAD_REACTORS
330
C
102
}
330
C
100
AcDbDictionary
281
     1
  3
CANNOSCALE
350
84AF
  3
CMLEADERSTYLE
350
84AB
  3
CTABLESTYLE
350
84AA
  3
CVIEWDETAILSTYLE
350
84AC
  3
CVIEWSECTIONSTYLE
350
84AD
  3
DIMASSOC
350
83B1
  3
LAYEREVAL
350
84B1
  3
LAYERNOTIFY
350
84B2
  3
LIGHTINGUNITS
350
84B0
  3
MARKUPASSISTMODE
350
84B7
  3
MSLTSCALE
350
84AE
  0
DICTIONARY
  5
84C0
102
{ACAD_REACTORS
330
C
102
}
330
C
100
AcDbDictionary
281
     1
  3
AcDsRecords
350
84C2
  3
AcDsSchemas
350
84C1
1001
ACAD
1070
     2
  0
DICTIONARY
  5
849F
102
{ACAD_REACTORS
330
849E
102
}
330
849E
100
AcDbDictionary
281
     1
  0
XRECORD
  5
8492
102
{ACAD_REACTORS
330
8491
102
}
330
8491
100
AcDbXrecord
280
     1
290
     1
  0
XRECORD
  5
8494
102
{ACAD_REACTORS
330
8493
102
}
330
8493
100
AcDbXrecord
280
     1
290
     1
  0
XRECORD
  5
8496
102
{ACAD_REACTORS
330
8495
102
}
330
8495
100
AcDbXrecord
280
     1
290
     1
  0
XRECORD
  5
8498
102
{ACAD_REACTORS
330
8497
102
}
330
8497
100
AcDbXrecord
280
     1
290
     1
  0
XRECORD
  5
849A
102
{ACAD_REACTORS
330
8499
102
}
330
8499
100
AcDbXrecord
280
     1
290
     1
  0
XRECORD
  5
82F0
102
{ACAD_REACTORS
330
82EF
102
}
330
82EF
100
AcDbXrecord
280
     1
340
19
  0
XRECORD
  5
82EE
102
{ACAD_REACTORS
330
82ED
102
}
330
82ED
100
AcDbXrecord
280
     1
340
16
  0
ACDBDETAILVIEWSTYLE
  5
8405
102
{ACAD_XDICTIONARY
360
84C5
102
}
102
{ACAD_REACTORS
330
8404
102
}
330
8404
100
AcDbModelDocViewStyle
 70
     0
  3
Metric50
290
     0
100
AcDbDetailViewStyle
 70
     0
 71
     0
 90
        3
 71
     1
340
10
 62
   256
 40
5.0
340
0
 62
   256
 40
5.0
300

 40
0.0
280
     1
 71
     2
340
15
 90
       25
 62
   256
 71
     3
340
10
 62
   256
 40
5.0
 90
        0
 40
15.0
 90
        1
300
%<\AcVar ViewDetailId>% (%<\AcVar ViewScale \f "%sn">%)
 71
     4
340
15
 90
       25
 62
   256
340
15
 90
       25
 62
   256
280
     0
  0
LAYOUT
  5
82C4
102
{ACAD_REACTORS
330
82C2
102
}
330
82C2
100
AcDbPlotSettings
  1

  2
\\Txbo34x8944cqyd\EPSON LP-6100
  4

  6

 40
0.0
 41
0.0
 42
0.0
 43
0.0
 44
0.0
 45
0.0
 46
0.0
 47
0.0
 48
0.0
 49
0.0
140
0.0
141
0.0
142
1.0
143
1.0
 70
  1712
 72
     0
 73
     0
 74
     0
  7
GOD2000TABLE.ctb
 75
     0
147
1.0
 76
     0
 77
     2
 78
   300
148
0.0
149
0.0
100
AcDbLayout
  1
Model
 70
     1
 71
     0
 10
0.0
 20
0.0
 11
12.0
 21
9.0
 12
0.0
 22
0.0
 32
0.0
 14
0.0
 24
0.0
 34
0.0
 15
0.0
 25
0.0
 35
0.0
146
0.0
 13
0.0
 23
0.0
 33
0.0
 16
1.0
 26
0.0
 36
0.0
 17
0.0
 27
1.0
 37
0.0
 76
     0
330
19
331
83B7
  0
LAYOUT
  5
82C5
102
{ACAD_REACTORS
330
82C2
102
}
330
82C2
100
AcDbPlotSettings
  1

  2
\\Txbo34x8944cqyd\EPSON LP-6100
  4

  6

 40
0.0
 41
0.0
 42
0.0
 43
0.0
 44
0.0
 45
0.0
 46
0.0
 47
0.0
 48
0.0
 49
0.0
140
0.0
141
0.0
142
1.0
143
1.0
 70
   688
 72
     0
 73
     0
 74
     5
  7
GOD2000TABLE.ctb
 75
    16
147
1.0
 76
     0
 77
     2
 78
   300
148
0.0
149
0.0
100
AcDbLayout
  1
ﾚｲｱｳﾄ1
 70
     1
 71
     1
 10
0.0
 20
0.0
 11
12.0
 21
9.0
 12
0.0
 22
0.0
 32
0.0
 14
1.000000000000000E+20
 24
1.000000000000000E+20
 34
1.000000000000000E+20
 15
-1.000000000000000E+20
 25
-1.000000000000000E+20
 35
-1.000000000000000E+20
146
0.0
 13
0.0
 23
0.0
 33
0.0
 16
1.0
 26
0.0
 36
0.0
 17
0.0
 27
1.0
 37
0.0
 76
     0
330
16
  0
MATERIAL
  5
83C2
102
{ACAD_XDICTIONARY
360
83C3
102
}
102
{ACAD_REACTORS
330
83B9
102
}
330
83B9
100
AcDbMaterial
  1
ByBlock
 72
     0
 43
0.0208333333333333
 43
0.0
 43
0.0
 43
0.0
 43
0.0
 43
0.0208333333333333
 43
0.0
 43
0.0
 43
0.0
 43
0.0
 43
1.0
 43
0.0
 43
0.0
 43
0.0
 43
0.0
 43
1.0
 77
     0
 47
0.0208333333333333
 47
0.0
 47
0.0
 47
0.0
 47
0.0
 47
0.0208333333333333
 47
0.0
 47
0.0
 47
0.0
 47
0.0
 47
1.0
 47
0.0
 47
0.0
 47
0.0
 47
0.0
 47
1.0
171
     0
 49
0.0208333333333333
 49
0.0
 49
0.0
 49
0.0
 49
0.0
 49
0.0208333333333333
 49
0.0
 49
0.0
 49
0.0
 49
0.0
 49
1.0
 49
0.0
 49
0.0
 49
0.0
 49
0.0
 49
1.0
175
     0
142
0.0208333333333333
142
0.0
142
0.0
142
0.0
142
0.0
142
0.0208333333333333
142
0.0
142
0.0
142
0.0
142
0.0
142
1.0
142
0.0
142
0.0
142
0.0
142
0.0
142
1.0
179
     0
144
0.0208333333333333
144
0.0
144
0.0
144
0.0
144
0.0
144
0.0208333333333333
144
0.0
144
0.0
144
0.0
144
0.0
144
1.0
144
0.0
144
0.0
144
0.0
144
0.0
144
1.0
147
0.0208333333333333
147
0.0
147
0.0
147
0.0
147
0.0
147
0.0208333333333333
147
0.0
147
0.0
147
0.0
147
0.0
147
1.0
147
0.0
147
0.0
147
0.0
147
0.0
147
1.0
  0
MATERIAL
  5
83BA
102
{ACAD_XDICTIONARY
360
83BB
102
}
102
{ACAD_REACTORS
330
83B9
102
}
330
83B9
100
AcDbMaterial
  1
ByLayer
 72
     0
 43
0.0208333333333333
 43
0.0
 43
0.0
 43
0.0
 43
0.0
 43
0.0208333333333333
 43
0.0
 43
0.0
 43
0.0
 43
0.0
 43
1.0
 43
0.0
 43
0.0
 43
0.0
 43
0.0
 43
1.0
 77
     0
 47
0.0208333333333333
 47
0.0
 47
0.0
 47
0.0
 47
0.0
 47
0.0208333333333333
 47
0.0
 47
0.0
 47
0.0
 47
0.0
 47
1.0
 47
0.0
 47
0.0
 47
0.0
 47
0.0
 47
1.0
171
     0
 49
0.0208333333333333
 49
0.0
 49
0.0
 49
0.0
 49
0.0
 49
0.0208333333333333
 49
0.0
 49
0.0
 49
0.0
 49
0.0
 49
1.0
 49
0.0
 49
0.0
 49
0.0
 49
0.0
 49
1.0
175
     0
142
0.0208333333333333
142
0.0
142
0.0
142
0.0
142
0.0
142
0.0208333333333333
142
0.0
142
0.0
142
0.0
142
0.0
142
1.0
142
0.0
142
0.0
142
0.0
142
0.0
142
1.0
179
     0
144
0.0208333333333333
144
0.0
144
0.0
144
0.0
144
0.0
144
0.0208333333333333
144
0.0
144
0.0
144
0.0
144
0.0
144
1.0
144
0.0
144
0.0
144
0.0
144
0.0
144
1.0
147
0.0208333333333333
147
0.0
147
0.0
147
0.0
147
0.0
147
0.0208333333333333
147
0.0
147
0.0
147
0.0
147
0.0
147
1.0
147
0.0
147
0.0
147
0.0
147
0.0
147
1.0
  0
MATERIAL
  5
83CA
102
{ACAD_XDICTIONARY
360
83CB
102
}
102
{ACAD_REACTORS
330
83B9
102
}
330
83B9
100
AcDbMaterial
  1
Global
 72
     0
 43
0.0208333333333333
 43
0.0
 43
0.0
 43
0.0
 43
0.0
 43
0.0208333333333333
 43
0.0
 43
0.0
 43
0.0
 43
0.0
 43
1.0
 43
0.0
 43
0.0
 43
0.0
 43
0.0
 43
1.0
 77
     0
 47
0.0208333333333333
 47
0.0
 47
0.0
 47
0.0
 47
0.0
 47
0.0208333333333333
 47
0.0
 47
0.0
 47
0.0
 47
0.0
 47
1.0
 47
0.0
 47
0.0
 47
0.0
 47
0.0
 47
1.0
171
     0
 49
0.0208333333333333
 49
0.0
 49
0.0
 49
0.0
 49
0.0
 49
0.0208333333333333
 49
0.0
 49
0.0
 49
0.0
 49
0.0
 49
1.0
 49
0.0
 49
0.0
 49
0.0
 49
0.0
 49
1.0
175
     0
142
0.0208333333333333
142
0.0
142
0.0
142
0.0
142
0.0
142
0.0208333333333333
142
0.0
142
0.0
142
0.0
142
0.0
142
1.0
142
0.0
142
0.0
142
0.0
142
0.0
142
1.0
179
     0
144
0.0208333333333333
144
0.0
144
0.0
144
0.0
144
0.0
144
0.0208333333333333
144
0.0
144
0.0
144
0.0
144
0.0
144
1.0
144
0.0
144
0.0
144
0.0
144
0.0
144
1.0
147
0.0208333333333333
147
0.0
147
0.0
147
0.0
147
0.0
147
0.0208333333333333
147
0.0
147
0.0
147
0.0
147
0.0
147
1.0
147
0.0
147
0.0
147
0.0
147
0.0
147
1.0
  0
MLEADERSTYLE
  5
8401
102
{ACAD_REACTORS
330
8400
102
}
330
8400
100
AcDbMLeaderStyle
179
     2
170
     2
171
     1
172
     0
 90
        2
 40
0.0
 41
0.0
173
     1
 91
-1056964608
340
13
 92
       -2
290
     1
 42
2.0
291
     1
 43
0.36
  3
Standard
 44
4.0
300

342
10
174
     1
178
     6
175
     1
176
     0
 93
-1056964608
 45
4.0
292
     0
297
     0
 46
4.0
 94
-1056964608
 47
1.0
 49
1.0
140
1.0
293
     1
141
0.0
294
     1
177
     0
142
1.0
295
     0
296
     0
143
0.125
271
     0
272
     9
273
     9
298
     1
  0
MLINESTYLE
  5
1C
102
{ACAD_REACTORS
330
E
102
}
330
E
100
AcDbMlineStyle
  2
STANDARD
 70
     0
  3

 62
     0
 51
90.0
 52
90.0
 71
     2
 49
0.5
 62
   256
  6
BYLAYER
 49
-0.5
 62
   256
  6
BYLAYER
  0
ACDBPLACEHOLDER
  5
82C1
102
{ACAD_REACTORS
330
82C0
102
}
330
82C0
  0
SCALE
  5
83EF
102
{ACAD_REACTORS
330
83EE
102
}
330
83EE
100
AcDbScale
 70
     0
300
1:1
140
1.0
141
1.0
290
     1
  0
SCALE
  5
83F0
102
{ACAD_REACTORS
330
83EE
102
}
330
83EE
100
AcDbScale
 70
     0
300
1:2
140
1.0
141
2.0
290
     0
  0
SCALE
  5
83F1
102
{ACAD_REACTORS
330
83EE
102
}
330
83EE
100
AcDbScale
 70
     0
300
1:4
140
1.0
141
4.0
290
     0
  0
SCALE
  5
83F2
102
{ACAD_REACTORS
330
83EE
102
}
330
83EE
100
AcDbScale
 70
     0
300
1:5
140
1.0
141
5.0
290
     0
  0
SCALE
  5
83F3
102
{ACAD_REACTORS
330
83EE
102
}
330
83EE
100
AcDbScale
 70
     0
300
1:8
140
1.0
141
8.0
290
     0
  0
SCALE
  5
83F4
102
{ACAD_REACTORS
330
83EE
102
}
330
83EE
100
AcDbScale
 70
     0
300
1:10
140
1.0
141
10.0
290
     0
  0
SCALE
  5
83F5
102
{ACAD_REACTORS
330
83EE
102
}
330
83EE
100
AcDbScale
 70
     0
300
1:16
140
1.0
141
16.0
290
     0
  0
SCALE
  5
83F6
102
{ACAD_REACTORS
330
83EE
102
}
330
83EE
100
AcDbScale
 70
     0
300
1:20
140
1.0
141
20.0
290
     0
  0
SCALE
  5
83F7
102
{ACAD_REACTORS
330
83EE
102
}
330
83EE
100
AcDbScale
 70
     0
300
1:30
140
1.0
141
30.0
290
     0
  0
SCALE
  5
83F8
102
{ACAD_REACTORS
330
83EE
102
}
330
83EE
100
AcDbScale
 70
     0
300
1:40
140
1.0
141
40.0
290
     0
  0
SCALE
  5
83F9
102
{ACAD_REACTORS
330
83EE
102
}
330
83EE
100
AcDbScale
 70
     0
300
1:50
140
1.0
141
50.0
290
     0
  0
SCALE
  5
83FA
102
{ACAD_REACTORS
330
83EE
102
}
330
83EE
100
AcDbScale
 70
     0
300
1:100
140
1.0
141
100.0
290
     0
  0
SCALE
  5
83FB
102
{ACAD_REACTORS
330
83EE
102
}
330
83EE
100
AcDbScale
 70
     0
300
2:1
140
2.0
141
1.0
290
     0
  0
SCALE
  5
83FC
102
{ACAD_REACTORS
330
83EE
102
}
330
83EE
100
AcDbScale
 70
     0
300
4:1
140
4.0
141
1.0
290
     0
  0
SCALE
  5
83FD
102
{ACAD_REACTORS
330
83EE
102
}
330
83EE
100
AcDbScale
 70
     0
300
8:1
140
8.0
141
1.0
290
     0
  0
SCALE
  5
83FE
102
{ACAD_REACTORS
330
83EE
102
}
330
83EE
100
AcDbScale
 70
     0
300
10:1
140
10.0
141
1.0
290
     0
  0
SCALE
  5
83FF
102
{ACAD_REACTORS
330
83EE
102
}
330
83EE
100
AcDbScale
 70
     0
300
100:1
140
100.0
141
1.0
290
     0
  0
ACDBSECTIONVIEWSTYLE
  5
8403
102
{ACAD_XDICTIONARY
360
84C3
102
}
102
{ACAD_REACTORS
330
8402
102
}
330
8402
100
AcDbModelDocViewStyle
 70
     0
  3
Metric50
290
     0
100
AcDbSectionViewStyle
 70
     0
 71
     0
 90
      102
 71
     1
340
10
 62
   256
 40
5.0
340
0
340
0
 62
   256
 40
5.0
300
I, O, Q, S, X, Z
 40
10.0
 90
        0
 40
2.5
 90
        0
 71
     2
340
15
 90
       25
 62
   256
340
15
 90
       50
 62
   256
 40
5.0
 40
2.5
 40
5.0
 71
     3
340
10
 62
   256
 40
5.0
 90
        0
 40
15.0
 90
        1
300
%<\AcVar ViewSectionStartId>%-%<\AcVar ViewSectionEndId>% (%<\AcVar ViewScale \f "%sn">%)
 71
     4
 62
   256
 62
   257
300
ANSI31
 40
1.0
 90
        0
290
     0
290
     0
 90
        6
 40
0.0
 40
1.570796326794896
 40
0.2617993877991494
 40
1.308996938995747
 40
-0.2617993877991494
 40
1.832595714594046
  0
TABLESTYLE
  5
83ED
102
{ACAD_XDICTIONARY
360
84B8
102
}
102
{ACAD_REACTORS
330
83EC
102
}
330
83EC
100
AcDbTableStyle
280
     0
  3
Standard
 70
     0
 71
     0
 40
1.5
 41
1.5
280
     0
281
     0
  7
STANDARD
140
4.5
170
     2
 62
     0
 63
     7
283
     0
 90
      512
 91
        0
  1

274
    -2
284
     1
 64
     0
275
    -2
285
     1
 65
     0
276
    -2
286
     1
 66
     0
277
    -2
287
     1
 67
     0
278
    -2
288
     1
 68
     0
279
    -2
289
     1
 69
     0
  7
STANDARD
140
6.0
170
     5
 62
     0
 63
     7
283
     0
 90
      512
 91
        0
  1

274
    -2
284
     1
 64
     0
275
    -2
285
     1
 65
     0
276
    -2
286
     1
 66
     0
277
    -2
287
     1
 67
     0
278
    -2
288
     1
 68
     0
279
    -2
289
     1
 69
     0
  7
STANDARD
140
4.5
170
     5
 62
     0
 63
     7
283
     0
 90
      512
 91
        0
  1

274
    -2
284
     1
 64
     0
275
    -2
285
     1
 65
     0
276
    -2
286
     1
 66
     0
277
    -2
287
     1
 67
     0
278
    -2
288
     1
 68
     0
279
    -2
289
     1
 69
     0
  0
VISUALSTYLE
  5
83D8
102
{ACAD_REACTORS
330
83D2
102
}
330
83D2
100
AcDbVisualStyle
  2
2dWireframe
 70
     4
177
     3
291
     0
 70
    58
 90
        0
176
     1
 90
        2
176
     1
 90
        0
176
     1
 90
        0
176
     1
 40
0.6
176
     1
 40
30.0
176
     1
 62
     7
420
 16777215
176
     1
 90
        1
176
     1
 90
        4
176
     1
 62
     7
176
     1
 62
   257
176
     1
 90
        1
176
     1
 90
        1
176
     1
 40
1.0
176
     1
 90
        0
176
     1
 62
   257
176
     1
 40
1.0
176
     1
 90
        1
176
     1
 90
        6
176
     1
 90
        2
176
     1
 62
     7
176
     1
 90
        5
176
     1
 90
        0
176
     1
 90
        0
176
     1
290
     0
176
     1
 90
        1
176
     1
 40
0.0
176
     1
 90
        0
176
     1
290
     1
176
     1
290
     1
176
     1
290
     0
176
     1
290
     0
176
     1
290
     0
176
     1
290
     0
176
     1
290
     0
176
     1
290
     0
176
     1
290
     0
176
     1
 90
       50
176
     1
 40
0.0
176
     1
 40
1.0
176
     1
 90
        0
176
     1
 62
    18
420
        0
176
     1
 90
       50
176
     1
 90
        3
176
     1
 62
     5
420
      255
176
     1
290
     0
176
     1
 90
       50
176
     1
 90
       50
176
     1
 90
       50
176
     1
290
     0
176
     1
 90
       50
176
     1
 62
   256
176
     0
 40
1.0
176
     0
 90
        2
176
     1
  1
strokes_ogs.tif
176
     1
290
     0
176
     1
 40
1.0
176
     1
 40
1.0
176
     1
1001
ACAD
1000
AcDbSavedByObjectVersion
1070
     0
  0
VISUALSTYLE
  5
83D7
102
{ACAD_REACTORS
330
83D2
102
}
330
83D2
100
AcDbVisualStyle
  2
Basic
 70
     7
177
     3
291
     1
 70
    58
 90
        1
176
     1
 90
        0
176
     1
 90
        1
176
     1
 90
        0
176
     1
 40
0.6
176
     1
 40
30.0
176
     1
 62
     7
420
 16777215
176
     1
 90
        0
176
     1
 90
        4
176
     1
 62
     7
176
     1
 62
   257
176
     1
 90
        1
176
     1
 90
        1
176
     1
 40
1.0
176
     1
 90
        8
176
     1
 62
     7
176
     1
 40
1.0
176
     1
 90
        1
176
     1
 90
        6
176
     1
 90
        2
176
     1
 62
     7
176
     1
 90
        5
176
     1
 90
        0
176
     1
 90
        0
176
     1
290
     0
176
     1
 90
        1
176
     1
 40
0.0
176
     1
 90
        0
176
     1
290
     0
176
     1
290
     1
176
     1
290
     1
176
     1
290
     0
176
     1
290
     0
176
     1
290
     0
176
     1
290
     0
176
     1
290
     0
176
     1
290
     0
176
     1
 90
       50
176
     1
 40
0.0
176
     1
 40
1.0
176
     1
 90
        0
176
     1
 62
    18
420
        0
176
     1
 90
       50
176
     1
 90
        3
176
     1
 62
     5
420
      255
176
     1
290
     0
176
     1
 90
       50
176
     1
 90
       50
176
     1
 90
       50
176
     1
290
     0
176
     1
 90
       50
176
     1
 62
   256
176
     0
 40
1.0
176
     0
 90
        2
176
     1
  1
strokes_ogs.tif
176
     1
290
     0
176
     1
 40
1.0
176
     1
 40
1.0
176
     1
1001
ACAD
1000
AcDbSavedByObjectVersion
1070
     0
  0
VISUALSTYLE
  5
83DE
102
{ACAD_REACTORS
330
83D2
102
}
330
83D2
100
AcDbVisualStyle
  2
Brighten
 70
    12
177
     3
291
     1
 70
    58
 90
        2
176
     1
 90
        2
176
     1
 90
        0
176
     1
 90
        0
176
     1
 40
0.6
176
     1
 40
30.0
176
     1
 62
     7
420
 16777215
176
     1
 90
        1
176
     1
 90
        4
176
     1
 62
     7
176
     1
 62
   257
176
     1
 90
        1
176
     1
 90
        1
176
     1
 40
1.0
176
     1
 90
        8
176
     1
 62
     7
176
     1
 40
1.0
176
     1
 90
        1
176
     1
 90
        6
176
     1
 90
        2
176
     1
 62
     7
176
     1
 90
        5
176
     1
 90
        0
176
     1
 90
        0
176
     1
290
     0
176
     1
 90
        1
176
     1
 40
50.0
176
     1
 90
        0
176
     1
290
     0
176
     1
290
     1
176
     1
290
     1
176
     1
290
     0
176
     1
290
     0
176
     1
290
     0
176
     1
290
     0
176
     1
290
     0
176
     1
290
     0
176
     1
 90
       50
176
     1
 40
0.0
176
     1
 40
1.0
176
     1
 90
        0
176
     1
 62
    18
420
        0
176
     1
 90
       50
176
     1
 90
        3
176
     1
 62
     5
420
      255
176
     1
290
     0
176
     1
 90
       50
176
     1
 90
       50
176
     1
 90
       50
176
     1
290
     0
176
     1
 90
       50
176
     1
 62
   256
176
     0
 40
1.0
176
     0
 90
        2
176
     1
  1
strokes_ogs.tif
176
     1
290
     0
176
     1
 40
1.0
176
     1
 40
1.0
176
     1
1001
ACAD
1000
AcDbSavedByObjectVersion
1070
     0
  0
VISUALSTYLE
  5
83E2
102
{ACAD_REACTORS
330
83D2
102
}
330
83D2
100
AcDbVisualStyle
  2
ColorChange
 70
    16
177
     3
291
     1
 70
    58
 90
        2
176
     1
 90
        2
176
     1
 90
        3
176
     1
 90
        0
176
     1
 40
0.6
176
     1
 40
30.0
176
     1
 62
     8
420
  8421504
176
     1
 90
        1
176
     1
 90
        4
176
     1
 62
     7
176
     1
 62
   257
176
     1
 90
        1
176
     1
 90
        1
176
     1
 40
1.0
176
     1
 90
        8
176
     1
 62
     8
420
  8421504
176
     1
 40
1.0
176
     1
 90
        1
176
     1
 90
        6
176
     1
 90
        2
176
     1
 62
     7
176
     1
 90
        5
176
     1
 90
        0
176
     1
 90
        0
176
     1
290
     0
176
     1
 90
        1
176
     1
 40
0.0
176
     1
 90
        0
176
     1
290
     0
176
     1
290
     1
176
     1
290
     1
176
     1
290
     0
176
     1
290
     0
176
     1
290
     0
176
     1
290
     0
176
     1
290
     0
176
     1
290
     0
176
     1
 90
       50
176
     1
 40
0.0
176
     1
 40
1.0
176
     1
 90
        0
176
     1
 62
    18
420
        0
176
     1
 90
       50
176
     1
 90
        3
176
     1
 62
     5
420
      255
176
     1
290
     0
176
     1
 90
       50
176
     1
 90
       50
176
     1
 90
       50
176
     1
290
     0
176
     1
 90
       50
176
     1
 62
   256
176
     0
 40
1.0
176
     0
 90
        2
176
     1
  1
strokes_ogs.tif
176
     1
290
     0
176
     1
 40
1.0
176
     1
 40
1.0
176
     1
1001
ACAD
1000
AcDbSavedByObjectVersion
1070
     0
  0
VISUALSTYLE
  5
83DB
102
{ACAD_REACTORS
330
83D2
102
}
330
83D2
100
AcDbVisualStyle
  2
Conceptual
 70
     9
177
     3
291
     0
 70
    58
 90
        3
176
     1
 90
        2
176
     1
 90
        0
176
     1
 90
        0
176
     1
 40
0.6
176
     1
 40
30.0
176
     1
 62
     7
420
 16777215
176
     1
 90
        2
176
     1
 90
        2
176
     1
 62
     7
176
     1
 62
   257
176
     1
 90
        1
176
     1
 90
        1
176
     1
 40
179.0
176
     1
 90
        8
176
     1
 62
     7
176
     1
 40
1.0
176
     1
 90
        1
176
     1
 90
        6
176
     1
 90
        2
176
     1
 62
     7
176
     1
 90
        3
176
     1
 90
        0
176
     1
 90
        0
176
     1
290
     0
176
     1
 90
        1
176
     1
 40
0.0
176
     1
 90
        0
176
     1
290
     0
176
     1
290
     1
176
     1
290
     1
176
     1
290
     0
176
     1
290
     0
176
     1
290
     0
176
     1
290
     0
176
     1
290
     0
176
     1
290
     0
176
     1
 90
       50
176
     1
 40
0.0
176
     1
 40
1.0
176
     1
 90
        0
176
     1
 62
    18
420
        0
176
     1
 90
       50
176
     1
 90
        3
176
     1
 62
     5
420
      255
176
     1
290
     0
176
     1
 90
       50
176
     1
 90
       50
176
     1
 90
       50
176
     1
290
     0
176
     1
 90
       50
176
     1
 62
   256
176
     0
 40
1.0
176
     0
 90
        2
176
     1
  1
strokes_ogs.tif
176
     1
290
     0
176
     1
 40
1.0
176
     1
 40
1.0
176
     1
1001
ACAD
1000
AcDbSavedByObjectVersion
1070
     0
  0
VISUALSTYLE
  5
83DD
102
{ACAD_REACTORS
330
83D2
102
}
330
83D2
100
AcDbVisualStyle
  2
Dim
 70
    11
177
     3
291
     1
 70
    58
 90
        2
176
     1
 90
        2
176
     1
 90
        0
176
     1
 90
        0
176
     1
 40
0.6
176
     1
 40
30.0
176
     1
 62
     7
420
 16777215
176
     1
 90
        1
176
     1
 90
        4
176
     1
 62
     7
176
     1
 62
   257
176
     1
 90
        1
176
     1
 90
        1
176
     1
 40
1.0
176
     1
 90
        8
176
     1
 62
     7
176
     1
 40
1.0
176
     1
 90
        1
176
     1
 90
        6
176
     1
 90
        2
176
     1
 62
     7
176
     1
 90
        5
176
     1
 90
        0
176
     1
 90
        0
176
     1
290
     0
176
     1
 90
        1
176
     1
 40
-50.0
176
     1
 90
        0
176
     1
290
     0
176
     1
290
     1
176
     1
290
     1
176
     1
290
     0
176
     1
290
     0
176
     1
290
     0
176
     1
290
     0
176
     1
290
     0
176
     1
290
     0
176
     1
 90
       50
176
     1
 40
0.0
176
     1
 40
1.0
176
     1
 90
        0
176
     1
 62
    18
420
        0
176
     1
 90
       50
176
     1
 90
        3
176
     1
 62
     5
420
      255
176
     1
290
     0
176
     1
 90
       50
176
     1
 90
       50
176
     1
 90
       50
176
     1
290
     0
176
     1
 90
       50
176
     1
 62
   256
176
     0
 40
1.0
176
     0
 90
        2
176
     1
  1
strokes_ogs.tif
176
     1
290
     0
176
     1
 40
1.0
176
     1
 40
1.0
176
     1
1001
ACAD
1000
AcDbSavedByObjectVersion
1070
     0
  0
VISUALSTYLE
  5
83EA
102
{ACAD_REACTORS
330
83D2
102
}
330
83D2
100
AcDbVisualStyle
  2
EdgeColorOff
 70
    22
177
     3
291
     1
 70
    58
 90
        2
176
     0
 90
        2
176
     0
 90
        0
176
     0
 90
        0
176
     0
 40
0.6
176
     0
 40
30.0
176
     0
 62
     7
420
 16777215
176
     0
 90
        1
176
     0
 90
        4
176
     0
 62
     7
176
     0
 62
   257
176
     0
 90
        1
176
     0
 90
        1
176
     0
 40
1.0
176
     0
 90
        8
176
     2
 62
     7
176
     0
 40
1.0
176
     0
 90
        1
176
     0
 90
        6
176
     0
 90
        2
176
     0
 62
     7
176
     0
 90
        5
176
     0
 90
        0
176
     0
 90
        0
176
     0
290
     0
176
     0
 90
        1
176
     0
 40
0.0
176
     0
 90
        0
176
     0
290
     0
176
     0
290
     1
176
     0
290
     1
176
     0
290
     0
176
     0
290
     0
176
     0
290
     0
176
     0
290
     0
176
     0
290
     0
176
     0
290
     0
176
     0
 90
       50
176
     0
 40
0.0
176
     0
 40
1.0
176
     0
 90
        0
176
     0
 62
    18
420
        0
176
     0
 90
       50
176
     0
 90
        3
176
     0
 62
     5
420
      255
176
     0
290
     0
176
     0
 90
       50
176
     0
 90
       50
176
     0
 90
       50
176
     0
290
     0
176
     0
 90
       50
176
     0
 62
   256
176
     0
 40
1.0
176
     0
 90
        2
176
     0
  1
strokes_ogs.tif
176
     0
290
     0
176
     0
 40
1.0
176
     0
 40
1.0
176
     0
1001
ACAD
1000
AcDbSavedByObjectVersion
1070
     0
  0
VISUALSTYLE
  5
83E1
102
{ACAD_REACTORS
330
83D2
102
}
330
83D2
100
AcDbVisualStyle
  2
Facepattern
 70
    15
177
     3
291
     1
 70
    58
 90
        2
176
     1
 90
        2
176
     1
 90
        0
176
     1
 90
        0
176
     1
 40
0.6
176
     1
 40
30.0
176
     1
 62
     7
420
 16777215
176
     1
 90
        1
176
     1
 90
        4
176
     1
 62
     7
176
     1
 62
   257
176
     1
 90
        1
176
     1
 90
        1
176
     1
 40
1.0
176
     1
 90
        8
176
     1
 62
     7
176
     1
 40
1.0
176
     1
 90
        1
176
     1
 90
        6
176
     1
 90
        2
176
     1
 62
     7
176
     1
 90
        5
176
     1
 90
        0
176
     1
 90
        0
176
     1
290
     0
176
     1
 90
        1
176
     1
 40
0.0
176
     1
 90
        0
176
     1
290
     0
176
     1
290
     1
176
     1
290
     1
176
     1
290
     0
176
     1
290
     0
176
     1
290
     0
176
     1
290
     0
176
     1
290
     0
176
     1
290
     0
176
     1
 90
       50
176
     1
 40
0.0
176
     1
 40
1.0
176
     1
 90
        0
176
     1
 62
    18
420
        0
176
     1
 90
       50
176
     1
 90
        3
176
     1
 62
     5
420
      255
176
     1
290
     0
176
     1
 90
       50
176
     1
 90
       50
176
     1
 90
       50
176
     1
290
     0
176
     1
 90
       50
176
     1
 62
   256
176
     0
 40
1.0
176
     0
 90
        2
176
     1
  1
strokes_ogs.tif
176
     1
290
     0
176
     1
 40
1.0
176
     1
 40
1.0
176
     1
1001
ACAD
1000
AcDbSavedByObjectVersion
1070
     0
  0
VISUALSTYLE
  5
83D3
102
{ACAD_REACTORS
330
83D2
102
}
330
83D2
100
AcDbVisualStyle
  2
Flat
 70
     0
177
     3
291
     1
 70
    58
 90
        2
176
     1
 90
        1
176
     1
 90
        1
176
     1
 90
        2
176
     1
 40
0.6
176
     1
 40
30.0
176
     1
 62
     7
420
 16777215
176
     1
 90
        0
176
     1
 90
        0
176
     1
 62
     7
176
     1
 62
   257
176
     1
 90
        1
176
     1
 90
        1
176
     1
 40
1.0
176
     1
 90
        8
176
     1
 62
     7
176
     1
 40
1.0
176
     1
 90
        1
176
     1
 90
        6
176
     1
 90
        2
176
     1
 62
     7
176
     1
 90
        5
176
     1
 90
        0
176
     1
 90
        0
176
     1
290
     0
176
     1
 90
       13
176
     1
 40
0.0
176
     1
 90
        0
176
     1
290
     0
176
     1
290
     1
176
     1
290
     1
176
     1
290
     0
176
     1
290
     0
176
     1
290
     0
176
     1
290
     0
176
     1
290
     0
176
     1
290
     0
176
     1
 90
       50
176
     1
 40
0.0
176
     1
 40
1.0
176
     1
 90
        0
176
     1
 62
    18
420
        0
176
     1
 90
       50
176
     1
 90
        3
176
     1
 62
     5
420
      255
176
     1
290
     0
176
     1
 90
       50
176
     1
 90
       50
176
     1
 90
       50
176
     1
290
     0
176
     1
 90
       50
176
     1
 62
   256
176
     0
 40
1.0
176
     0
 90
        2
176
     1
  1
strokes_ogs.tif
176
     1
290
     0
176
     1
 40
1.0
176
     1
 40
1.0
176
     1
1001
ACAD
1000
AcDbSavedByObjectVersion
1070
     0
  0
VISUALSTYLE
  5
83D4
102
{ACAD_REACTORS
330
83D2
102
}
330
83D2
100
AcDbVisualStyle
  2
FlatWithEdges
 70
     1
177
     3
291
     1
 70
    58
 90
        2
176
     1
 90
        1
176
     1
 90
        1
176
     1
 90
        2
176
     1
 40
0.6
176
     1
 40
30.0
176
     1
 62
     7
420
 16777215
176
     1
 90
        1
176
     1
 90
        0
176
     1
 62
     7
176
     1
 62
   257
176
     1
 90
        1
176
     1
 90
        1
176
     1
 40
1.0
176
     1
 90
        0
176
     1
 62
   257
176
     1
 40
1.0
176
     1
 90
        1
176
     1
 90
        6
176
     1
 90
        2
176
     1
 62
     7
176
     1
 90
        5
176
     1
 90
        0
176
     1
 90
        0
176
     1
290
     0
176
     1
 90
       13
176
     1
 40
0.0
176
     1
 90
        0
176
     1
290
     0
176
     1
290
     1
176
     1
290
     1
176
     1
290
     0
176
     1
290
     0
176
     1
290
     0
176
     1
290
     0
176
     1
290
     0
176
     1
290
     0
176
     1
 90
       50
176
     1
 40
0.0
176
     1
 40
1.0
176
     1
 90
        0
176
     1
 62
    18
420
        0
176
     1
 90
       50
176
     1
 90
        3
176
     1
 62
     5
420
      255
176
     1
290
     0
176
     1
 90
       50
176
     1
 90
       50
176
     1
 90
       50
176
     1
290
     0
176
     1
 90
       50
176
     1
 62
   256
176
     0
 40
1.0
176
     0
 90
        2
176
     1
  1
strokes_ogs.tif
176
     1
290
     0
176
     1
 40
1.0
176
     1
 40
1.0
176
     1
1001
ACAD
1000
AcDbSavedByObjectVersion
1070
     0
  0
VISUALSTYLE
  5
83D5
102
{ACAD_REACTORS
330
83D2
102
}
330
83D2
100
AcDbVisualStyle
  2
Gouraud
 70
     2
177
     3
291
     1
 70
    58
 90
        2
176
     1
 90
        2
176
     1
 90
        1
176
     1
 90
        2
176
     1
 40
0.6
176
     1
 40
30.0
176
     1
 62
     7
420
 16777215
176
     1
 90
        0
176
     1
 90
        0
176
     1
 62
     7
176
     1
 62
   257
176
     1
 90
        1
176
     1
 90
        1
176
     1
 40
1.0
176
     1
 90
        0
176
     1
 62
     7
176
     1
 40
1.0
176
     1
 90
        1
176
     1
 90
        6
176
     1
 90
        2
176
     1
 62
     7
176
     1
 90
        5
176
     1
 90
        0
176
     1
 90
        0
176
     1
290
     0
176
     1
 90
       13
176
     1
 40
0.0
176
     1
 90
        0
176
     1
290
     0
176
     1
290
     1
176
     1
290
     1
176
     1
290
     0
176
     1
290
     0
176
     1
290
     0
176
     1
290
     0
176
     1
290
     0
176
     1
290
     0
176
     1
 90
       50
176
     1
 40
0.0
176
     1
 40
1.0
176
     1
 90
        0
176
     1
 62
    18
420
        0
176
     1
 90
       50
176
     1
 90
        3
176
     1
 62
     5
420
      255
176
     1
290
     0
176
     1
 90
       50
176
     1
 90
       50
176
     1
 90
       50
176
     1
290
     0
176
     1
 90
       50
176
     1
 62
   256
176
     0
 40
1.0
176
     0
 90
        2
176
     1
  1
strokes_ogs.tif
176
     1
290
     0
176
     1
 40
1.0
176
     1
 40
1.0
176
     1
1001
ACAD
1000
AcDbSavedByObjectVersion
1070
     0
  0
VISUALSTYLE
  5
83D6
102
{ACAD_REACTORS
330
83D2
102
}
330
83D2
100
AcDbVisualStyle
  2
GouraudWithEdges
 70
     3
177
     3
291
     1
 70
    58
 90
        2
176
     1
 90
        2
176
     1
 90
        1
176
     1
 90
        2
176
     1
 40
0.6
176
     1
 40
30.0
176
     1
 62
     7
420
 16777215
176
     1
 90
        1
176
     1
 90
        0
176
     1
 62
     7
176
     1
 62
   257
176
     1
 90
        1
176
     1
 90
        1
176
     1
 40
1.0
176
     1
 90
        0
176
     1
 62
   257
176
     1
 40
1.0
176
     1
 90
        1
176
     1
 90
        6
176
     1
 90
        2
176
     1
 62
     7
176
     1
 90
        5
176
     1
 90
        0
176
     1
 90
        0
176
     1
290
     0
176
     1
 90
       13
176
     1
 40
0.0
176
     1
 90
        0
176
     1
290
     0
176
     1
290
     1
176
     1
290
     1
176
     1
290
     0
176
     1
290
     0
176
     1
290
     0
176
     1
290
     0
176
     1
290
     0
176
     1
290
     0
176
     1
 90
       50
176
     1
 40
0.0
176
     1
 40
1.0
176
     1
 90
        0
176
     1
 62
    18
420
        0
176
     1
 90
       50
176
     1
 90
        3
176
     1
 62
     5
420
      255
176
     1
290
     0
176
     1
 90
       50
176
     1
 90
       50
176
     1
 90
       50
176
     1
290
     0
176
     1
 90
       50
176
     1
 62
   256
176
     0
 40
1.0
176
     0
 90
        2
176
     1
  1
strokes_ogs.tif
176
     1
290
     0
176
     1
 40
1.0
176
     1
 40
1.0
176
     1
1001
ACAD
1000
AcDbSavedByObjectVersion
1070
     0
  0
VISUALSTYLE
  5
83DA
102
{ACAD_REACTORS
330
83D2
102
}
330
83D2
100
AcDbVisualStyle
  2
Hidden
 70
     6
177
     3
291
     0
 70
    58
 90
        1
176
     1
 90
        2
176
     1
 90
        2
176
     1
 90
        0
176
     1
 40
0.6
176
     1
 40
30.0
176
     1
 62
     7
420
 16777215
176
     1
 90
        2
176
     1
 90
        2
176
     1
 62
     7
176
     1
 62
   257
176
     1
 90
        2
176
     1
 90
        1
176
     1
 40
40.0
176
     1
 90
        0
176
     1
 62
   257
176
     1
 40
1.0
176
     1
 90
        1
176
     1
 90
        6
176
     1
 90
        2
176
     1
 62
     7
176
     1
 90
        3
176
     1
 90
        0
176
     1
 90
        0
176
     1
290
     0
176
     1
 90
        1
176
     1
 40
0.0
176
     1
 90
        0
176
     1
290
     0
176
     1
290
     1
176
     1
290
     1
176
     1
290
     0
176
     1
290
     0
176
     1
290
     0
176
     1
290
     0
176
     1
290
     0
176
     1
290
     0
176
     1
 90
       50
176
     1
 40
0.0
176
     1
 40
1.0
176
     1
 90
        0
176
     1
 62
    18
420
        0
176
     1
 90
       50
176
     1
 90
        3
176
     1
 62
     5
420
      255
176
     1
290
     0
176
     1
 90
       50
176
     1
 90
       50
176
     1
 90
       50
176
     1
290
     0
176
     1
 90
       50
176
     1
 62
   256
176
     0
 40
1.0
176
     0
 90
        2
176
     1
  1
strokes_ogs.tif
176
     1
290
     0
176
     1
 40
1.0
176
     1
 40
1.0
176
     1
1001
ACAD
1000
AcDbSavedByObjectVersion
1070
     0
  0
VISUALSTYLE
  5
83E8
102
{ACAD_REACTORS
330
83D2
102
}
330
83D2
100
AcDbVisualStyle
  2
JitterOff
 70
    20
177
     3
291
     1
 70
    58
 90
        2
176
     0
 90
        2
176
     0
 90
        0
176
     0
 90
        0
176
     0
 40
0.6
176
     0
 40
30.0
176
     0
 62
     7
420
 16777215
176
     0
 90
        1
176
     0
 90
        4
176
     0
 62
     7
176
     0
 62
   257
176
     0
 90
        1
176
     0
 90
        1
176
     0
 40
1.0
176
     0
 90
       10
176
     2
 62
     7
176
     0
 40
1.0
176
     0
 90
        1
176
     0
 90
        6
176
     0
 90
        2
176
     0
 62
     7
176
     0
 90
        5
176
     0
 90
        0
176
     0
 90
        0
176
     0
290
     0
176
     0
 90
        1
176
     0
 40
0.0
176
     0
 90
        0
176
     0
290
     0
176
     0
290
     1
176
     0
290
     1
176
     0
290
     0
176
     0
290
     0
176
     0
290
     0
176
     0
290
     0
176
     0
290
     0
176
     0
290
     0
176
     0
 90
       50
176
     0
 40
0.0
176
     0
 40
1.0
176
     0
 90
        0
176
     0
 62
    18
420
        0
176
     0
 90
       50
176
     0
 90
        3
176
     0
 62
     5
420
      255
176
     0
290
     0
176
     0
 90
       50
176
     0
 90
       50
176
     0
 90
       50
176
     0
290
     0
176
     0
 90
       50
176
     0
 62
   256
176
     0
 40
1.0
176
     0
 90
        2
176
     0
  1
strokes_ogs.tif
176
     0
290
     0
176
     0
 40
1.0
176
     0
 40
1.0
176
     0
1001
ACAD
1000
AcDbSavedByObjectVersion
1070
     0
  0
VISUALSTYLE
  5
83E0
102
{ACAD_REACTORS
330
83D2
102
}
330
83D2
100
AcDbVisualStyle
  2
Linepattern
 70
    14
177
     3
291
     1
 70
    58
 90
        2
176
     1
 90
        2
176
     1
 90
        0
176
     1
 90
        0
176
     1
 40
0.6
176
     1
 40
30.0
176
     1
 62
     7
420
 16777215
176
     1
 90
        1
176
     1
 90
        4
176
     1
 62
     7
176
     1
 62
   257
176
     1
 90
        7
176
     1
 90
        7
176
     1
 40
1.0
176
     1
 90
        8
176
     1
 62
     7
176
     1
 40
1.0
176
     1
 90
        1
176
     1
 90
        6
176
     1
 90
        2
176
     1
 62
     7
176
     1
 90
        5
176
     1
 90
        0
176
     1
 90
        0
176
     1
290
     0
176
     1
 90
        1
176
     1
 40
0.0
176
     1
 90
        0
176
     1
290
     0
176
     1
290
     1
176
     1
290
     1
176
     1
290
     0
176
     1
290
     0
176
     1
290
     0
176
     1
290
     0
176
     1
290
     0
176
     1
290
     0
176
     1
 90
       50
176
     1
 40
0.0
176
     1
 40
1.0
176
     1
 90
        0
176
     1
 62
    18
420
        0
176
     1
 90
       50
176
     1
 90
        3
176
     1
 62
     5
420
      255
176
     1
290
     0
176
     1
 90
       50
176
     1
 90
       50
176
     1
 90
       50
176
     1
290
     0
176
     1
 90
       50
176
     1
 62
   256
176
     0
 40
1.0
176
     0
 90
        2
176
     1
  1
strokes_ogs.tif
176
     1
290
     0
176
     1
 40
1.0
176
     1
 40
1.0
176
     1
1001
ACAD
1000
AcDbSavedByObjectVersion
1070
     0
  0
VISUALSTYLE
  5
83E9
102
{ACAD_REACTORS
330
83D2
102
}
330
83D2
100
AcDbVisualStyle
  2
OverhangOff
 70
    21
177
     3
291
     1
 70
    58
 90
        2
176
     0
 90
        2
176
     0
 90
        0
176
     0
 90
        0
176
     0
 40
0.6
176
     0
 40
30.0
176
     0
 62
     7
420
 16777215
176
     0
 90
        1
176
     0
 90
        4
176
     0
 62
     7
176
     0
 62
   257
176
     0
 90
        1
176
     0
 90
        1
176
     0
 40
1.0
176
     0
 90
        9
176
     2
 62
     7
176
     0
 40
1.0
176
     0
 90
        1
176
     0
 90
        6
176
     0
 90
        2
176
     0
 62
     7
176
     0
 90
        5
176
     0
 90
        0
176
     0
 90
        0
176
     0
290
     0
176
     0
 90
        1
176
     0
 40
0.0
176
     0
 90
        0
176
     0
290
     0
176
     0
290
     1
176
     0
290
     1
176
     0
290
     0
176
     0
290
     0
176
     0
290
     0
176
     0
290
     0
176
     0
290
     0
176
     0
290
     0
176
     0
 90
       50
176
     0
 40
0.0
176
     0
 40
1.0
176
     0
 90
        0
176
     0
 62
    18
420
        0
176
     0
 90
       50
176
     0
 90
        3
176
     0
 62
     5
420
      255
176
     0
290
     0
176
     0
 90
       50
176
     0
 90
       50
176
     0
 90
       50
176
     0
290
     0
176
     0
 90
       50
176
     0
 62
   256
176
     0
 40
1.0
176
     0
 90
        2
176
     0
  1
strokes_ogs.tif
176
     0
290
     0
176
     0
 40
1.0
176
     0
 40
1.0
176
     0
1001
ACAD
1000
AcDbSavedByObjectVersion
1070
     0
  0
VISUALSTYLE
  5
83DC
102
{ACAD_REACTORS
330
83D2
102
}
330
83D2
100
AcDbVisualStyle
  2
Realistic
 70
     8
177
     3
291
     0
 70
    58
 90
        2
176
     1
 90
        3
176
     1
 90
        0
176
     1
 90
        2
176
     1
 40
0.6
176
     1
 40
30.0
176
     1
 62
     7
420
 16777215
176
     1
 90
        0
176
     1
 90
        0
176
     1
 62
     7
176
     1
 62
   257
176
     1
 90
        1
176
     1
 90
        1
176
     1
 40
1.0
176
     1
 90
        8
176
     1
 62
   257
176
     1
 40
1.0
176
     1
 90
        1
176
     1
 90
        6
176
     1
 90
        2
176
     1
 62
     7
176
     1
 90
        3
176
     1
 90
        0
176
     1
 90
        0
176
     1
290
     0
176
     1
 90
       13
176
     1
 40
0.0
176
     1
 90
        0
176
     1
290
     0
176
     1
290
     1
176
     1
290
     1
176
     1
290
     0
176
     1
290
     0
176
     1
290
     0
176
     1
290
     0
176
     1
290
     0
176
     1
290
     0
176
     1
 90
       50
176
     1
 40
0.0
176
     1
 40
1.0
176
     1
 90
        0
176
     1
 62
    18
420
        0
176
     1
 90
       50
176
     1
 90
        3
176
     1
 62
     5
420
      255
176
     1
290
     0
176
     1
 90
       50
176
     1
 90
       50
176
     1
 90
       50
176
     1
290
     0
176
     1
 90
       50
176
     1
 62
   256
176
     0
 40
1.0
176
     0
 90
        2
176
     1
  1
strokes_ogs.tif
176
     1
290
     0
176
     1
 40
1.0
176
     1
 40
1.0
176
     1
1001
ACAD
1000
AcDbSavedByObjectVersion
1070
     0
  0
VISUALSTYLE
  5
83E7
102
{ACAD_REACTORS
330
83D2
102
}
330
83D2
100
AcDbVisualStyle
  2
Shaded
 70
    27
177
     3
291
     0
 70
    58
 90
        2
176
     1
 90
        2
176
     1
 90
        1
176
     1
 90
        2
176
     1
 40
0.6
176
     1
 40
30.0
176
     1
 62
     7
420
 16777215
176
     1
 90
        0
176
     1
 90
        4
176
     1
 62
     7
176
     1
 62
   257
176
     1
 90
        1
176
     1
 90
        1
176
     1
 40
1.0
176
     1
 90
        8
176
     1
 62
   257
176
     1
 40
1.0
176
     1
 90
        1
176
     1
 90
        6
176
     1
 90
        2
176
     1
 62
     8
420
  7895160
176
     1
 90
        3
176
     1
 90
        0
176
     1
 90
        0
176
     1
290
     0
176
     1
 90
        5
176
     1
 40
0.0
176
     1
 90
        0
176
     1
290
     0
176
     1
290
     1
176
     1
290
     1
176
     1
290
     0
176
     1
290
     0
176
     1
290
     0
176
     1
290
     0
176
     1
290
     0
176
     1
290
     0
176
     1
 90
       50
176
     1
 40
0.0
176
     1
 40
1.0
176
     1
 90
        0
176
     1
 62
    18
420
        0
176
     1
 90
       50
176
     1
 90
        3
176
     1
 62
     5
420
      255
176
     1
290
     0
176
     1
 90
       50
176
     1
 90
       50
176
     1
 90
       50
176
     1
290
     0
176
     1
 90
       50
176
     1
 62
   256
176
     0
 40
1.0
176
     0
 90
        2
176
     1
  1
strokes_ogs.tif
176
     1
290
     0
176
     1
 40
1.0
176
     1
 40
1.0
176
     1
1001
ACAD
1000
AcDbSavedByObjectVersion
1070
     0
  0
VISUALSTYLE
  5
83E6
102
{ACAD_REACTORS
330
83D2
102
}
330
83D2
100
AcDbVisualStyle
  2
Shaded with edges
 70
    26
177
     3
291
     0
 70
    58
 90
        2
176
     1
 90
        2
176
     1
 90
        1
176
     1
 90
        2
176
     1
 40
0.6
176
     1
 40
30.0
176
     1
 62
     7
420
 16777215
176
     1
 90
        1
176
     1
 90
        2
176
     1
 62
     7
176
     1
 62
   257
176
     1
 90
        2
176
     1
 90
        1
176
     1
 40
1.0
176
     1
 90
        8
176
     1
 62
   257
176
     1
 40
1.0
176
     1
 90
        1
176
     1
 90
        6
176
     1
 90
        2
176
     1
 62
     7
176
     1
 90
        3
176
     1
 90
        0
176
     1
 90
        0
176
     1
290
     0
176
     1
 90
        5
176
     1
 40
0.0
176
     1
 90
        0
176
     1
290
     0
176
     1
290
     1
176
     1
290
     1
176
     1
290
     0
176
     1
290
     0
176
     1
290
     0
176
     1
290
     0
176
     1
290
     0
176
     1
290
     0
176
     1
 90
       50
176
     1
 40
0.0
176
     1
 40
1.0
176
     1
 90
        0
176
     1
 62
    18
420
        0
176
     1
 90
       50
176
     1
 90
        3
176
     1
 62
     5
420
      255
176
     1
290
     0
176
     1
 90
       50
176
     1
 90
       50
176
     1
 90
       50
176
     1
290
     0
176
     1
 90
       50
176
     1
 62
   256
176
     0
 40
1.0
176
     0
 90
        2
176
     1
  1
strokes_ogs.tif
176
     1
290
     0
176
     1
 40
1.0
176
     1
 40
1.0
176
     1
1001
ACAD
1000
AcDbSavedByObjectVersion
1070
     0
  0
VISUALSTYLE
  5
83E3
102
{ACAD_REACTORS
330
83D2
102
}
330
83D2
100
AcDbVisualStyle
  2
Shades of Gray
 70
    23
177
     3
291
     0
 70
    58
 90
        2
176
     1
 90
        2
176
     1
 90
        3
176
     1
 90
        0
176
     1
 40
0.6
176
     1
 40
30.0
176
     1
 62
     7
420
 16777215
176
     1
 90
        2
176
     1
 90
        2
176
     1
 62
     7
176
     1
 62
     7
176
     1
 90
        1
176
     1
 90
        1
176
     1
 40
40.0
176
     1
 90
        8
176
     1
 62
     7
176
     1
 40
1.0
176
     1
 90
        1
176
     1
 90
        6
176
     1
 90
        2
176
     1
 62
     7
176
     1
 90
        3
176
     1
 90
        0
176
     1
 90
        0
176
     1
290
     0
176
     1
 90
        1
176
     1
 40
0.0
176
     1
 90
        0
176
     1
290
     0
176
     1
290
     1
176
     1
290
     1
176
     1
290
     0
176
     1
290
     0
176
     1
290
     0
176
     1
290
     0
176
     1
290
     0
176
     1
290
     0
176
     1
 90
       50
176
     1
 40
0.0
176
     1
 40
1.0
176
     1
 90
        0
176
     1
 62
    18
420
        0
176
     1
 90
       50
176
     1
 90
        3
176
     1
 62
     5
420
      255
176
     1
290
     0
176
     1
 90
       50
176
     1
 90
       50
176
     1
 90
       50
176
     1
290
     0
176
     1
 90
       50
176
     1
 62
   256
176
     0
 40
1.0
176
     0
 90
        2
176
     1
  1
strokes_ogs.tif
176
     1
290
     0
176
     1
 40
1.0
176
     1
 40
1.0
176
     1
1001
ACAD
1000
AcDbSavedByObjectVersion
1070
     0
  0
VISUALSTYLE
  5
83E4
102
{ACAD_REACTORS
330
83D2
102
}
330
83D2
100
AcDbVisualStyle
  2
Sketchy
 70
    24
177
     3
291
     0
 70
    58
 90
        1
176
     1
 90
        2
176
     1
 90
        2
176
     1
 90
        0
176
     1
 40
0.6
176
     1
 40
30.0
176
     1
 62
     7
420
 16777215
176
     1
 90
        2
176
     1
 90
        2
176
     1
 62
     7
176
     1
 62
     7
176
     1
 90
        1
176
     1
 90
        1
176
     1
 40
40.0
176
     1
 90
       11
176
     1
 62
     7
176
     1
 40
1.0
176
     1
 90
        1
176
     1
 90
        6
176
     1
 90
        2
176
     1
 62
     7
176
     1
 90
        6
176
     1
 90
        0
176
     1
 90
        0
176
     1
290
     0
176
     1
 90
        1
176
     1
 40
0.0
176
     1
 90
        0
176
     1
290
     0
176
     1
290
     1
176
     1
290
     1
176
     1
290
     0
176
     1
290
     0
176
     1
290
     0
176
     1
290
     0
176
     1
290
     0
176
     1
290
     0
176
     1
 90
       50
176
     1
 40
0.0
176
     1
 40
1.0
176
     1
 90
        0
176
     1
 62
    18
420
        0
176
     1
 90
       50
176
     1
 90
        3
176
     1
 62
     5
420
      255
176
     1
290
     0
176
     1
 90
       50
176
     1
 90
       50
176
     1
 90
       50
176
     1
290
     0
176
     1
 90
       50
176
     1
 62
   256
176
     0
 40
1.0
176
     0
 90
        2
176
     1
  1
strokes_ogs.tif
176
     1
290
     0
176
     1
 40
1.0
176
     1
 40
1.0
176
     1
1001
ACAD
1000
AcDbSavedByObjectVersion
1070
     0
  0
VISUALSTYLE
  5
83DF
102
{ACAD_REACTORS
330
83D2
102
}
330
83D2
100
AcDbVisualStyle
  2
Thicken
 70
    13
177
     3
291
     1
 70
    58
 90
        2
176
     1
 90
        2
176
     1
 90
        0
176
     1
 90
        0
176
     1
 40
0.6
176
     1
 40
30.0
176
     1
 62
     7
420
 16777215
176
     1
 90
        1
176
     1
 90
        4
176
     1
 62
     7
176
     1
 62
   257
176
     1
 90
        1
176
     1
 90
        1
176
     1
 40
1.0
176
     1
 90
       12
176
     1
 62
     7
176
     1
 40
1.0
176
     1
 90
        1
176
     1
 90
        6
176
     1
 90
        2
176
     1
 62
     7
176
     1
 90
        5
176
     1
 90
        0
176
     1
 90
        0
176
     1
290
     0
176
     1
 90
        1
176
     1
 40
0.0
176
     1
 90
        0
176
     1
290
     0
176
     1
290
     1
176
     1
290
     1
176
     1
290
     0
176
     1
290
     0
176
     1
290
     0
176
     1
290
     0
176
     1
290
     0
176
     1
290
     0
176
     1
 90
       50
176
     1
 40
0.0
176
     1
 40
1.0
176
     1
 90
        0
176
     1
 62
    18
420
        0
176
     1
 90
       50
176
     1
 90
        3
176
     1
 62
     5
420
      255
176
     1
290
     0
176
     1
 90
       50
176
     1
 90
       50
176
     1
 90
       50
176
     1
290
     0
176
     1
 90
       50
176
     1
 62
   256
176
     0
 40
1.0
176
     0
 90
        2
176
     1
  1
strokes_ogs.tif
176
     1
290
     0
176
     1
 40
1.0
176
     1
 40
1.0
176
     1
1001
ACAD
1000
AcDbSavedByObjectVersion
1070
     0
  0
VISUALSTYLE
  5
83D9
102
{ACAD_REACTORS
330
83D2
102
}
330
83D2
100
AcDbVisualStyle
  2
Wireframe
 70
     5
177
     3
291
     0
 70
    58
 90
        0
176
     1
 90
        2
176
     1
 90
        0
176
     1
 90
        0
176
     1
 40
0.6
176
     1
 40
30.0
176
     1
 62
     7
420
 16777215
176
     1
 90
        1
176
     1
 90
        4
176
     1
 62
     7
176
     1
 62
   257
176
     1
 90
        1
176
     1
 90
        1
176
     1
 40
1.0
176
     1
 90
        0
176
     1
 62
   257
176
     1
 40
1.0
176
     1
 90
        1
176
     1
 90
        6
176
     1
 90
        2
176
     1
 62
     7
176
     1
 90
        3
176
     1
 90
        0
176
     1
 90
        0
176
     1
290
     0
176
     1
 90
        1
176
     1
 40
0.0
176
     1
 90
        0
176
     1
290
     0
176
     1
290
     1
176
     1
290
     1
176
     1
290
     0
176
     1
290
     0
176
     1
290
     0
176
     1
290
     0
176
     1
290
     0
176
     1
290
     0
176
     1
 90
       50
176
     1
 40
0.0
176
     1
 40
1.0
176
     1
 90
        0
176
     1
 62
    18
420
        0
176
     1
 90
       50
176
     1
 90
        3
176
     1
 62
     5
420
      255
176
     1
290
     0
176
     1
 90
       50
176
     1
 90
       50
176
     1
 90
       50
176
     1
290
     0
176
     1
 90
       50
176
     1
 62
   256
176
     0
 40
1.0
176
     0
 90
        2
176
     1
  1
strokes_ogs.tif
176
     1
290
     0
176
     1
 40
1.0
176
     1
 40
1.0
176
     1
1001
ACAD
1000
AcDbSavedByObjectVersion
1070
     0
  0
VISUALSTYLE
  5
83E5
102
{ACAD_REACTORS
330
83D2
102
}
330
83D2
100
AcDbVisualStyle
  2
X-Ray
 70
    25
177
     3
291
     0
 70
    58
 90
        2
176
     1
 90
        2
176
     1
 90
        1
176
     1
 90
        1
176
     1
 40
0.5
176
     1
 40
30.0
176
     1
 62
     7
420
 16777215
176
     1
 90
        1
176
     1
 90
        0
176
     1
 62
     7
176
     1
 62
   257
176
     1
 90
        1
176
     1
 90
        1
176
     1
 40
1.0
176
     1
 90
        8
176
     1
 62
     7
176
     1
 40
1.0
176
     1
 90
        1
176
     1
 90
        6
176
     1
 90
        2
176
     1
 62
     7
176
     1
 90
        3
176
     1
 90
        0
176
     1
 90
        0
176
     1
290
     0
176
     1
 90
       13
176
     1
 40
0.0
176
     1
 90
        0
176
     1
290
     0
176
     1
290
     1
176
     1
290
     1
176
     1
290
     0
176
     1
290
     0
176
     1
290
     0
176
     1
290
     0
176
     1
290
     0
176
     1
290
     0
176
     1
 90
       50
176
     1
 40
0.0
176
     1
 40
1.0
176
     1
 90
        0
176
     1
 62
    18
420
        0
176
     1
 90
       50
176
     1
 90
        3
176
     1
 62
     5
420
      255
176
     1
290
     0
176
     1
 90
       50
176
     1
 90
       50
176
     1
 90
       50
176
     1
290
     0
176
     1
 90
       50
176
     1
 62
   256
176
     0
 40
1.0
176
     0
 90
        2
176
     1
  1
strokes_ogs.tif
176
     1
290
     0
176
     1
 40
1.0
176
     1
 40
1.0
176
     1
1001
ACAD
1000
AcDbSavedByObjectVersion
1070
     0
  0
DICTIONARYVAR
  5
84AF
102
{ACAD_REACTORS
330
83B0
102
}
330
83B0
100
DictionaryVariables
280
     0
  1
1:1
  0
DICTIONARYVAR
  5
84AB
102
{ACAD_REACTORS
330
83B0
102
}
330
83B0
100
DictionaryVariables
280
     0
  1
STANDARD
  0
DICTIONARYVAR
  5
84AA
102
{ACAD_REACTORS
330
83B0
102
}
330
83B0
100
DictionaryVariables
280
     0
  1
STANDARD
  0
DICTIONARYVAR
  5
84AC
102
{ACAD_REACTORS
330
83B0
102
}
330
83B0
100
DictionaryVariables
280
     0
  1
Metric50
  0
DICTIONARYVAR
  5
84AD
102
{ACAD_REACTORS
330
83B0
102
}
330
83B0
100
DictionaryVariables
280
     0
  1
Metric50
  0
DICTIONARYVAR
  5
83B1
102
{ACAD_REACTORS
330
83B0
102
}
330
83B0
100
DictionaryVariables
280
     0
  1
1
  0
DICTIONARYVAR
  5
84B1
102
{ACAD_REACTORS
330
83B0
102
}
330
83B0
100
DictionaryVariables
280
     0
  1
1
  0
DICTIONARYVAR
  5
84B2
102
{ACAD_REACTORS
330
83B0
102
}
330
83B0
100
DictionaryVariables
280
     0
  1
15
  0
DICTIONARYVAR
  5
84B0
102
{ACAD_REACTORS
330
83B0
102
}
330
83B0
100
DictionaryVariables
280
     0
  1
0
  0
DICTIONARYVAR
  5
84B7
102
{ACAD_REACTORS
330
83B0
102
}
330
83B0
100
DictionaryVariables
280
     0
  1
0
  0
DICTIONARYVAR
  5
84AE
102
{ACAD_REACTORS
330
83B0
102
}
330
83B0
100
DictionaryVariables
280
     0
  1
0
  0
DICTIONARY
  5
84C2
102
{ACAD_REACTORS
330
84C0
102
}
330
84C0
100
AcDbDictionary
281
     1
  0
DICTIONARY
  5
84C1
102
{ACAD_REACTORS
330
84C0
102
}
330
84C0
100
AcDbDictionary
281
     1
  3
2049123786544
350
84BB
  3
2049123786560
350
84BC
  3
2049123786576
350
84BD
  3
2049123786592
350
84BE
  3
2049123786608
350
84BF
  0
DICTIONARY
  5
84C5
330
8405
100
AcDbDictionary
280
     1
281
     1
  3
ACAD_XREC_ROUNDTRIP
360
84C6
  0
DICTIONARY
  5
83C3
330
83C2
100
AcDbDictionary
280
     1
281
     1
  3
BUMPTILE
360
83C5
  3
DIFFUSETILE
360
83C4
  3
OPACITYTILE
360
83C8
  3
REFLECTIONTILE
360
83C7
  3
REFRACTIONTILE
360
83C9
  3
SPECULARTILE
360
83C6
  0
DICTIONARY
  5
83BB
330
83BA
100
AcDbDictionary
280
     1
281
     1
  3
BUMPTILE
360
83BD
  3
DIFFUSETILE
360
83BC
  3
OPACITYTILE
360
83C0
  3
REFLECTIONTILE
360
83BF
  3
REFRACTIONTILE
360
83C1
  3
SPECULARTILE
360
83BE
  0
DICTIONARY
  5
83CB
330
83CA
100
AcDbDictionary
280
     1
281
     1
  3
BUMPTILE
360
83CD
  3
DIFFUSETILE
360
83CC
  3
OPACITYTILE
360
83D0
  3
REFLECTIONTILE
360
83CF
  3
REFRACTIONTILE
360
83D1
  3
SPECULARTILE
360
83CE
  0
DICTIONARY
  5
84C3
330
8403
100
AcDbDictionary
280
     1
281
     1
  3
ACAD_XREC_ROUNDTRIP
360
84C4
  0
DICTIONARY
  5
84B8
330
83ED
100
AcDbDictionary
280
     1
281
     1
  3
ACAD_ROUNDTRIP_2008_TABLESTYLE_CELLSTYLEMAP
360
84B9
  0
XRECORD
  5
84BB
102
{ACAD_REACTORS
330
84C1
102
}
330
84C1
100
AcDbXrecord
280
     1
  1
AcDb_Thumbnail_Schema
102
{ATTRRECORD
341
84BC
  2
AcDbDs::TreatedAsObjectData
280
     1
291
     1
102
ATTRRECORD}
102
{ATTRRECORD
341
84BD
  2
AcDbDs::Legacy
280
     1
291
     1
102
ATTRRECORD}
  2
AcDbDs::ID
280
    10
 91
        8
102
{ATTRRECORD
341
84BE
  2
AcDs:Indexable
280
     1
291
     1
102
ATTRRECORD}
102
{ATTRRECORD
341
84BF
  2
AcDbDs::HandleAttribute
280
     7
282
     1
102
ATTRRECORD}
  2
Thumbnail_Data
280
    15
 91
        0
  0
XRECORD
  5
84BC
102
{ACAD_REACTORS
330
84C1
102
}
330
84C1
100
AcDbXrecord
280
     1
  1
AcDbDs::TreatedAsObjectDataSchema
  2
AcDbDs::TreatedAsObjectData
280
     1
 91
        0
  0
XRECORD
  5
84BD
102
{ACAD_REACTORS
330
84C1
102
}
330
84C1
100
AcDbXrecord
280
     1
  1
AcDbDs::LegacySchema
  2
AcDbDs::Legacy
280
     1
 91
        0
  0
XRECORD
  5
84BE
102
{ACAD_REACTORS
330
84C1
102
}
330
84C1
100
AcDbXrecord
280
     1
  1
AcDbDs::IndexedPropertySchema
  2
AcDs:Indexable
280
     1
 91
        0
  0
XRECORD
  5
84BF
102
{ACAD_REACTORS
330
84C1
102
}
330
84C1
100
AcDbXrecord
280
     1
  1
AcDbDs::HandleAttributeSchema
  2
AcDbDs::HandleAttribute
280
     7
 91
        1
284
     1
  0
XRECORD
  5
84C6
102
{ACAD_REACTORS
330
84C5
102
}
330
84C5
100
AcDbXrecord
280
     1
102
DISPLAYNAME
  1
Metric50
102
FLAGS
 90
        0
  0
XRECORD
  5
83C5
102
{ACAD_REACTORS
330
83C3
102
}
330
83C3
100
AcDbXrecord
280
     1
270
     1
271
     1
  0
XRECORD
  5
83C4
102
{ACAD_REACTORS
330
83C3
102
}
330
83C3
100
AcDbXrecord
280
     1
270
     1
271
     1
  0
XRECORD
  5
83C8
102
{ACAD_REACTORS
330
83C3
102
}
330
83C3
100
AcDbXrecord
280
     1
270
     1
271
     1
  0
XRECORD
  5
83C7
102
{ACAD_REACTORS
330
83C3
102
}
330
83C3
100
AcDbXrecord
280
     1
270
     1
271
     1
  0
XRECORD
  5
83C9
102
{ACAD_REACTORS
330
83C3
102
}
330
83C3
100
AcDbXrecord
280
     1
270
     1
271
     1
  0
XRECORD
  5
83C6
102
{ACAD_REACTORS
330
83C3
102
}
330
83C3
100
AcDbXrecord
280
     1
270
     1
271
     1
  0
XRECORD
  5
83BD
102
{ACAD_REACTORS
330
83BB
102
}
330
83BB
100
AcDbXrecord
280
     1
270
     1
271
     1
  0
XRECORD
  5
83BC
102
{ACAD_REACTORS
330
83BB
102
}
330
83BB
100
AcDbXrecord
280
     1
270
     1
271
     1
  0
XRECORD
  5
83C0
102
{ACAD_REACTORS
330
83BB
102
}
330
83BB
100
AcDbXrecord
280
     1
270
     1
271
     1
  0
XRECORD
  5
83BF
102
{ACAD_REACTORS
330
83BB
102
}
330
83BB
100
AcDbXrecord
280
     1
270
     1
271
     1
  0
XRECORD
  5
83C1
102
{ACAD_REACTORS
330
83BB
102
}
330
83BB
100
AcDbXrecord
280
     1
270
     1
271
     1
  0
XRECORD
  5
83BE
102
{ACAD_REACTORS
330
83BB
102
}
330
83BB
100
AcDbXrecord
280
     1
270
     1
271
     1
  0
XRECORD
  5
83CD
102
{ACAD_REACTORS
330
83CB
102
}
330
83CB
100
AcDbXrecord
280
     1
270
     1
271
     1
  0
XRECORD
  5
83CC
102
{ACAD_REACTORS
330
83CB
102
}
330
83CB
100
AcDbXrecord
280
     1
270
     1
271
     1
  0
XRECORD
  5
83D0
102
{ACAD_REACTORS
330
83CB
102
}
330
83CB
100
AcDbXrecord
280
     1
270
     1
271
     1
  0
XRECORD
  5
83CF
102
{ACAD_REACTORS
330
83CB
102
}
330
83CB
100
AcDbXrecord
280
     1
270
     1
271
     1
  0
XRECORD
  5
83D1
102
{ACAD_REACTORS
330
83CB
102
}
330
83CB
100
AcDbXrecord
280
     1
270
     1
271
     1
  0
XRECORD
  5
83CE
102
{ACAD_REACTORS
330
83CB
102
}
330
83CB
100
AcDbXrecord
280
     1
270
     1
271
     1
  0
XRECORD
  5
84C4
102
{ACAD_REACTORS
330
84C3
102
}
330
84C3
100
AcDbXrecord
280
     1
102
DISPLAYNAME
  1
Metric50
102
FLAGS
 90
        0
  0
CELLSTYLEMAP
  5
84B9
102
{ACAD_REACTORS
330
84B8
102
}
330
84B8
100
AcDbCellStyleMap
 90
        3
300
CELLSTYLE
  1
TABLEFORMAT_BEGIN
 90
        5
170
     1
 91
        0
 92
    32768
 62
   257
 93
        1
300
CONTENTFORMAT
  1
CONTENTFORMAT_BEGIN
 90
        0
 91
        0
 92
      512
 93
        0
300

 40
0.0
140
1.0
 94
        5
 62
     0
340
10
144
6.0
309
CONTENTFORMAT_END
171
     1
301
MARGIN
  1
CELLMARGIN_BEGIN
 40
1.5
 40
1.5
 40
1.5
 40
1.5
 40
4.5
 40
4.5
309
CELLMARGIN_END
 94
        6
 95
        1
302
GRIDFORMAT
  1
GRIDFORMAT_BEGIN
 90
        0
 91
        1
 62
     0
 92
       -2
340
0
 93
        0
 40
1.125
309
GRIDFORMAT_END
 95
        2
302
GRIDFORMAT
  1
GRIDFORMAT_BEGIN
 90
        0
 91
        1
 62
     0
 92
       -2
340
0
 93
        0
 40
1.125
309
GRIDFORMAT_END
 95
        4
302
GRIDFORMAT
  1
GRIDFORMAT_BEGIN
 90
        0
 91
        1
 62
     0
 92
       -2
340
0
 93
        0
 40
1.125
309
GRIDFORMAT_END
 95
        8
302
GRIDFORMAT
  1
GRIDFORMAT_BEGIN
 90
        0
 91
        1
 62
     0
 92
       -2
340
0
 93
        0
 40
1.125
309
GRIDFORMAT_END
 95
       16
302
GRIDFORMAT
  1
GRIDFORMAT_BEGIN
 90
        0
 91
        1
 62
     0
 92
       -2
340
0
 93
        0
 40
1.125
309
GRIDFORMAT_END
 95
       32
302
GRIDFORMAT
  1
GRIDFORMAT_BEGIN
 90
        0
 91
        1
 62
     0
 92
       -2
340
0
 93
        0
 40
1.125
309
GRIDFORMAT_END
309
TABLEFORMAT_END
  1
CELLSTYLE_BEGIN
 90
        1
 91
        1
300
_TITLE
309
CELLSTYLE_END
300
CELLSTYLE
  1
TABLEFORMAT_BEGIN
 90
        5
170
     1
 91
        0
 92
        0
 62
   257
 93
        1
300
CONTENTFORMAT
  1
CONTENTFORMAT_BEGIN
 90
        0
 91
        0
 92
      512
 93
        0
300

 40
0.0
140
1.0
 94
        5
 62
     0
340
10
144
4.5
309
CONTENTFORMAT_END
171
     1
301
MARGIN
  1
CELLMARGIN_BEGIN
 40
1.5
 40
1.5
 40
1.5
 40
1.5
 40
4.5
 40
4.5
309
CELLMARGIN_END
 94
        6
 95
        1
302
GRIDFORMAT
  1
GRIDFORMAT_BEGIN
 90
        0
 91
        1
 62
     0
 92
       -2
340
0
 93
        0
 40
1.125
309
GRIDFORMAT_END
 95
        2
302
GRIDFORMAT
  1
GRIDFORMAT_BEGIN
 90
        0
 91
        1
 62
     0
 92
       -2
340
0
 93
        0
 40
1.125
309
GRIDFORMAT_END
 95
        4
302
GRIDFORMAT
  1
GRIDFORMAT_BEGIN
 90
        0
 91
        1
 62
     0
 92
       -2
340
0
 93
        0
 40
1.125
309
GRIDFORMAT_END
 95
        8
302
GRIDFORMAT
  1
GRIDFORMAT_BEGIN
 90
        0
 91
        1
 62
     0
 92
       -2
340
0
 93
        0
 40
1.125
309
GRIDFORMAT_END
 95
       16
302
GRIDFORMAT
  1
GRIDFORMAT_BEGIN
 90
        0
 91
        1
 62
     0
 92
       -2
340
0
 93
        0
 40
1.125
309
GRIDFORMAT_END
 95
       32
302
GRIDFORMAT
  1
GRIDFORMAT_BEGIN
 90
        0
 91
        1
 62
     0
 92
       -2
340
0
 93
        0
 40
1.125
309
GRIDFORMAT_END
309
TABLEFORMAT_END
  1
CELLSTYLE_BEGIN
 90
        2
 91
        1
300
_HEADER
309
CELLSTYLE_END
300
CELLSTYLE
  1
TABLEFORMAT_BEGIN
 90
        5
170
     1
 91
        0
 92
        0
 62
   257
 93
        1
300
CONTENTFORMAT
  1
CONTENTFORMAT_BEGIN
 90
        0
 91
        0
 92
      512
 93
        0
300

 40
0.0
140
1.0
 94
        2
 62
     0
340
10
144
4.5
309
CONTENTFORMAT_END
171
     1
301
MARGIN
  1
CELLMARGIN_BEGIN
 40
1.5
 40
1.5
 40
1.5
 40
1.5
 40
4.5
 40
4.5
309
CELLMARGIN_END
 94
        6
 95
        1
302
GRIDFORMAT
  1
GRIDFORMAT_BEGIN
 90
        0
 91
        1
 62
     0
 92
       -2
340
0
 93
        0
 40
1.125
309
GRIDFORMAT_END
 95
        2
302
GRIDFORMAT
  1
GRIDFORMAT_BEGIN
 90
        0
 91
        1
 62
     0
 92
       -2
340
0
 93
        0
 40
1.125
309
GRIDFORMAT_END
 95
        4
302
GRIDFORMAT
  1
GRIDFORMAT_BEGIN
 90
        0
 91
        1
 62
     0
 92
       -2
340
0
 93
        0
 40
1.125
309
GRIDFORMAT_END
 95
        8
302
GRIDFORMAT
  1
GRIDFORMAT_BEGIN
 90
        0
 91
        1
 62
     0
 92
       -2
340
0
 93
        0
 40
1.125
309
GRIDFORMAT_END
 95
       16
302
GRIDFORMAT
  1
GRIDFORMAT_BEGIN
 90
        0
 91
        1
 62
     0
 92
       -2
340
0
 93
        0
 40
1.125
309
GRIDFORMAT_END
 95
       32
302
GRIDFORMAT
  1
GRIDFORMAT_BEGIN
 90
        0
 91
        1
 62
     0
 92
       -2
340
0
 93
        0
 40
1.125
309
GRIDFORMAT_END
309
TABLEFORMAT_END
  1
CELLSTYLE_BEGIN
 90
        3
 91
        2
300
_DATA
309
CELLSTYLE_END
  0
ENDSEC
  0
SECTION
  2
ACDSDATA
 70
     2
 71
     8
  0
ACDSSCHEMA
 90
        0
  1
AcDb_Thumbnail_Schema
  2
AcDbDs::ID
280
    10
 91
        8
  2
Thumbnail_Data
280
    15
 91
        0
101
ACDSRECORD
 95
        0
 90
        1
  2
AcDbDs::TreatedAsObjectData
280
     1
291
     1
101
ACDSRECORD
 95
        0
 90
        2
  2
AcDbDs::Legacy
280
     1
291
     1
101
ACDSRECORD
  1
AcDbDs::ID
 90
        3
  2
AcDs:Indexable
280
     1
291
     1
101
ACDSRECORD
  1
AcDbDs::ID
 90
        4
  2
AcDbDs::HandleAttribute
280
     7
282
     1
  0
ACDSSCHEMA
 90
        1
  1
AcDbDs::TreatedAsObjectDataSchema
  2
AcDbDs::TreatedAsObjectData
280
     1
 91
        0
  0
ACDSSCHEMA
 90
        2
  1
AcDbDs::LegacySchema
  2
AcDbDs::Legacy
280
     1
 91
        0
  0
ACDSSCHEMA
 90
        3
  1
AcDbDs::IndexedPropertySchema
  2
AcDs:Indexable
280
     1
 91
        0
  0
ACDSSCHEMA
 90
        4
  1
AcDbDs::HandleAttributeSchema
  2
AcDbDs::HandleAttribute
280
     7
 91
        1
284
     1
  0
ACDSRECORD
 90
        0
  2
AcDbDs::ID
280
    10
320
82C4
  2
Thumbnail_Data
280
    15
 94
     1928
310
89504E470D0A1A0A0000000D49484452000001000000009108030000001BE1960600000300504C5445000000000000C8C8C80000000000000000000000000000000000000000000000000000330000660000990000CC0000FF0033000033330033660033990033CC0033FF0066000066330066660066990066CC0066FF0099
310
000099330099660099990099CC0099FF00CC0000CC3300CC6600CC9900CCCC00CCFF00FF0000FF3300FF6600FF9900FFCC00FFFF3300003300333300663300993300CC3300FF3333003333333333663333993333CC3333FF3366003366333366663366993366CC3366FF3399003399333399663399993399CC3399FF33CC00
310
33CC3333CC6633CC9933CCCC33CCFF33FF0033FF3333FF6633FF9933FFCC33FFFF6600006600336600666600996600CC6600FF6633006633336633666633996633CC6633FF6666006666336666666666996666CC6666FF6699006699336699666699996699CC6699FF66CC0066CC3366CC6666CC9966CCCC66CCFF66FF0066
310
FF3366FF6666FF9966FFCC66FFFF9900009900339900669900999900CC9900FF9933009933339933669933999933CC9933FF9966009966339966669966999966CC9966FF9999009999339999669999999999CC9999FF99CC0099CC3399CC6699CC9999CCCC99CCFF99FF0099FF3399FF6699FF9999FFCC99FFFFCC0000CC00
310
33CC0066CC0099CC00CCCC00FFCC3300CC3333CC3366CC3399CC33CCCC33FFCC6600CC6633CC6666CC6699CC66CCCC66FFCC9900CC9933CC9966CC9999CC99CCCC99FFCCCC00CCCC33CCCC66CCCC99CCCCCCCCCCFFCCFF00CCFF33CCFF66CCFF99CCFFCCCCFFFFFF0000FF0033FF0066FF0099FF00CCFF00FFFF3300FF3333
310
FF3366FF3399FF33CCFF33FFFF6600FF6633FF6666FF6699FF66CCFF66FFFF9900FF9933FF9966FF9999FF99CCFF99FFFFCC00FFCC33FFCC66FFCC99FFCCCCFFCCFFFFFF00FFFF33FFFF66FFFF99FFFFCCFFFFFF0000000D0D0D1A1A1A2828283535354343435050505D5D5D6B6B6B787878868686939393A1A1A1AEAEAEBB
310
BBBBC9C9C9D6D6D6E4E4E4F1F1F1FFFFFF00000000000000000000000000000000000000000000000000000000000008F1915C000004434944415478DAED9D599ADB200C80751C5E74FFCBE81ABCB7369BC0C276FACD522DB49338E03AE6471BA0A901BEB0E41F2AF0BF966CEA6B02400008000120000480DFB8B327DF6F1F
310
C0439D0309804BB8971DAA8077099809789400E546F01B67804A00A8B97400F8BEBBCCC76BE686BD7AB876FCBE974A018C3E8F8E1F54BA62174479FC9BAEED5CF31758AA00B0BEB61FE0442A80D2D7D15AA9F477BD00F215C064DAFBCF450260349C6034AB4035075D1D4AC7A65EE5876B8617080011092A9D0BE4EEE0266B
310
C72C233B6FF8837692FA1521712CA5D1CD3C5CEA001E1747F400800B0010FCE1F010D002056B1200AB044CFEBE468E5D65F4ABC0775C2B96C5D502A0A3DC7CF60180F69FED02A0A7621EC0438D1F00C91D802AE2B8164700FEBEE0A6B8508113005C5400A6EA0010000240000800012000180450E639CE01A484492C210163
310
66F0D194D8A00A609D347806004E018C79A14D008F6E108FBA008060D5080680001000E0764DD00B8011FC2DCD3EBC00F7F85B59B00F00D6C5F03E23301C096E3746966D12B26B0366579084C6E4646FF056023C0058D562DF1E000C02F09E20A1F26B024000F88D3B9B6D826C22B403B8357B1E00ECF2236901401C00A906
310
40AFDCE06B47A91040EDDE560268132DC9A1924A00AC3FC7C10B003011B0A9021280CD89DA010C1242ED02804D939904A9B7016BA7A66A0E00028005007B77C6160545009B35537D0078076BD7DAA83606320041021402802B00645D5F77024C02A019000EE9BE76EA09C0EC35B500200E00CBA0A736FA9F0128D7D30CA0F6
310
BF76AA12F850057403A8C35E7744CB87054069B409A008009E6F9D005E24006F24409F0DE05EA08E2D622ACA5044609500F300CEADF0D27FD700602F01D3E6B16200447C3DABC4BF296149193E8ECA31A5340148270029A9B8EC1F6B02D042E1F2B7DAF7BF2FA9458480976C71AC7F0409C033165204006400E720B7D9008A
310
0064152822A05902AAE36B3942380CC14B23082600B403C41114BD05A02A10EA00A80368A13032311F4A6012005BD1C43E154E307C1D53833700483B80911A8F3D49B446C68F00B44E871700631A34F480A5C83DA9005800909867EF04D02100E61A7B96188E5CCABE78A21AC0E406AF12D06C0007D04FB400006E00F470E8
310
08F3530390C64CC036006E134B786C5102FA9EE60260C996C6C5065802304F86F0315576AD4CD27FB7A20C005B0FC0C50B007777288D343B1795AAC0B422B22D89ED17999100FA00006E00A04500749B2E3FB7D22E9D5E4D7E8090E1B3490F24A9759322A50700FD1B009E27C89656F4015892A0965CA779827B0B80B402E0
310
2AF0EEF7055EFE3E814609A06B9DA02CC66C80F6AF0900012000048000100002C057DE99CB678CCCED7297F26797B608803D90AC3F9C8DBF190300F700F85348A03F75C306806D7D5E5F1A99B9228CA0211B30D7B387CAE4ECD10836C5F70C40140EC300E47AE312E0DD08C6642800048000100002400008007601FC50F9CA
310
7BFE0367E454F34CCBC27E0000000049454E44AE426082
  0
ENDSEC
  0
EOF
