  0
SECTION
  2
HEADER
  9
$ACADVER
  1
AC1027
  9
$ACADMAINTVER
 70
   125
  9
$DWGCODEPAGE
  3
ANSI_932
  9
$LASTSAVEDBY
  1
yasukiyo.ogawa
  9
$REQUIREDVERSIONS
160
                 0
  9
$INSBASE
 10
0.0
 20
0.0
 30
0.0
  9
$EXTMIN
 10
0.0
 20
0.0
 30
0.0
  9
$EXTMAX
 10
8400.0
 20
11800.0
 30
0.0
  9
$LIMMIN
 10
0.0
 20
0.0
  9
$LIMMAX
 10
297.0
 20
210.0
  9
$ORTHOMODE
 70
     1
  9
$REGENMODE
 70
     1
  9
$FILLMODE
 70
     0
  9
$QTEXTMODE
 70
     0
  9
$MIRRTEXT
 70
     1
  9
$LTSCALE
 40
100.0
  9
$ATTMODE
 70
     1
  9
$TEXTSIZE
 40
180.0
  9
$TRACEWID
 40
0.05
  9
$TEXTSTYLE
  7
STANDARD
  9
$CLAYER
  8
3
  9
$CELTYPE
  6
BYLAYER
  9
$CECOLOR
 62
   256
  9
$CELTSCALE
 40
1.0
  9
$DISPSILH
 70
     0
  9
$DIMSCALE
 40
40.0
  9
$DIMASZ
 40
2.0
  9
$DIMEXO
 40
0.5
  9
$DIMDLI
 40
10.0
  9
$DIMRND
 40
0.0
  9
$DIMDLE
 40
0.0
  9
$DIMEXE
 40
1.0
  9
$DIMTP
 40
1.0
  9
$DIMTM
 40
1.0
  9
$DIMTXT
 40
3.0
  9
$DIMCEN
 40
0.0
  9
$DIMTSZ
 40
0.0
  9
$DIMTOL
 70
     0
  9
$DIMLIM
 70
     0
  9
$DIMTIH
 70
     0
  9
$DIMTOH
 70
     0
  9
$DIMSE1
 70
     0
  9
$DIMSE2
 70
     0
  9
$DIMTAD
 70
     1
  9
$DIMZIN
 70
     8
  9
$DIMBLK
  1

  9
$DIMASO
 70
     1
  9
$DIMSHO
 70
     1
  9
$DIMPOST
  1
(<>)
  9
$DIMAPOST
  1

  9
$DIMALT
 70
     0
  9
$DIMALTD
 70
     2
  9
$DIMALTF
 40
0.039
  9
$DIMLFAC
 40
1.0
  9
$DIMTOFL
 70
     1
  9
$DIMTVP
 40
0.0
  9
$DIMTIX
 70
     0
  9
$DIMSOXD
 70
     0
  9
$DIMSAH
 70
     1
  9
$DIMBLK1
  1
OPEN
  9
$DIMBLK2
  1
OPEN
  9
$DIMSTYLE
  2
IGA
  9
$DIMCLRD
 70
     0
  9
$DIMCLRE
 70
     0
  9
$DIMCLRT
 70
     0
  9
$DIMTFAC
 40
10.0
  9
$DIMGAP
 40
1.0
  9
$DIMJUST
 70
     0
  9
$DIMSD1
 70
     0
  9
$DIMSD2
 70
     0
  9
$DIMTOLJ
 70
     1
  9
$DIMTZIN
 70
     8
  9
$DIMALTZ
 70
     0
  9
$DIMALTTZ
 70
     0
  9
$DIMUPT
 70
     0
  9
$DIMDEC
 70
     0
  9
$DIMTDEC
 70
     0
  9
$DIMALTU
 70
     2
  9
$DIMALTTD
 70
     2
  9
$DIMTXSTY
  7
STANDARD
  9
$DIMAUNIT
 70
     0
  9
$DIMADEC
 70
     0
  9
$DIMALTRND
 40
0.0
  9
$DIMAZIN
 70
     0
  9
$DIMDSEP
 70
    46
  9
$DIMATFIT
 70
     3
  9
$DIMFRAC
 70
     0
  9
$DIMLDRBLK
  1
OPEN
  9
$DIMLUNIT
 70
     2
  9
$DIMLWD
 70
    -2
  9
$DIMLWE
 70
    -2
  9
$DIMTMOVE
 70
     2
  9
$DIMFXL
 40
1.0
  9
$DIMFXLON
 70
     0
  9
$DIMJOGANG
 40
0.7853981633974483
  9
$DIMTFILL
 70
     0
  9
$DIMTFILLCLR
 70
     0
  9
$DIMARCSYM
 70
     0
  9
$DIMLTYPE
  6

  9
$DIMLTEX1
  6

  9
$DIMLTEX2
  6

  9
$DIMTXTDIRECTION
 70
     0
  9
$LUNITS
 70
     2
  9
$LUPREC
 70
     3
  9
$SKETCHINC
 40
0.1
  9
$FILLETRAD
 40
50.0
  9
$AUNITS
 70
     0
  9
$AUPREC
 70
     0
  9
$MENU
  1
acad
  9
$ELEVATION
 40
0.0
  9
$PELEVATION
 40
0.0
  9
$THICKNESS
 40
0.0
  9
$LIMCHECK
 70
     0
  9
$CHAMFERA
 40
0.5
  9
$CHAMFERB
 40
0.5
  9
$CHAMFERC
 40
20.0
  9
$CHAMFERD
 40
0.0
  9
$SKPOLY
 70
     0
  9
$TDCREATE
 40
2451897.649351852
  9
$TDUCREATE
 40
2451897.274359722
  9
$TDUPDATE
 40
2460241.775590278
  9
$TDUUPDATE
 40
2460241.400599908
  9
$TDINDWG
 40
0.0618474769
  9
$TDUSRTIMER
 40
0.0618474769
  9
$USRTIMER
 70
     1
  9
$ANGBASE
 50
0.0
  9
$ANGDIR
 70
     0
  9
$PDMODE
 70
     0
  9
$PDSIZE
 40
0.0
  9
$PLINEWID
 40
0.0
  9
$SPLFRAME
 70
     0
  9
$SPLINETYPE
 70
     6
  9
$SPLINESEGS
 70
     8
  9
$HANDSEED
  5
8493
  9
$SURFTAB1
 70
     6
  9
$SURFTAB2
 70
     6
  9
$SURFTYPE
 70
     6
  9
$SURFU
 70
     6
  9
$SURFV
 70
     6
  9
$UCSBASE
  2

  9
$UCSNAME
  2

  9
$UCSORG
 10
0.0
 20
0.0
 30
0.0
  9
$UCSXDIR
 10
1.0
 20
0.0
 30
0.0
  9
$UCSYDIR
 10
0.0
 20
1.0
 30
0.0
  9
$UCSORTHOREF
  2

  9
$UCSORTHOVIEW
 70
     0
  9
$UCSORGTOP
 10
0.0
 20
0.0
 30
0.0
  9
$UCSORGBOTTOM
 10
0.0
 20
0.0
 30
0.0
  9
$UCSORGLEFT
 10
0.0
 20
0.0
 30
0.0
  9
$UCSORGRIGHT
 10
0.0
 20
0.0
 30
0.0
  9
$UCSORGFRONT
 10
0.0
 20
0.0
 30
0.0
  9
$UCSORGBACK
 10
0.0
 20
0.0
 30
0.0
  9
$PUCSBASE
  2

  9
$PUCSNAME
  2

  9
$PUCSORG
 10
0.0
 20
0.0
 30
0.0
  9
$PUCSXDIR
 10
1.0
 20
0.0
 30
0.0
  9
$PUCSYDIR
 10
0.0
 20
1.0
 30
0.0
  9
$PUCSORTHOREF
  2

  9
$PUCSORTHOVIEW
 70
     0
  9
$PUCSORGTOP
 10
0.0
 20
0.0
 30
0.0
  9
$PUCSORGBOTTOM
 10
0.0
 20
0.0
 30
0.0
  9
$PUCSORGLEFT
 10
0.0
 20
0.0
 30
0.0
  9
$PUCSORGRIGHT
 10
0.0
 20
0.0
 30
0.0
  9
$PUCSORGFRONT
 10
0.0
 20
0.0
 30
0.0
  9
$PUCSORGBACK
 10
0.0
 20
0.0
 30
0.0
  9
$USERI1
 70
     0
  9
$USERI2
 70
     0
  9
$USERI3
 70
     0
  9
$USERI4
 70
     0
  9
$USERI5
 70
     0
  9
$USERR1
 40
0.0
  9
$USERR2
 40
0.0
  9
$USERR3
 40
0.0
  9
$USERR4
 40
0.0
  9
$USERR5
 40
0.0
  9
$WORLDVIEW
 70
     1
  9
$SHADEDGE
 70
     3
  9
$SHADEDIF
 70
    70
  9
$TILEMODE
 70
     1
  9
$MAXACTVP
 70
    16
  9
$PINSBASE
 10
0.0
 20
0.0
 30
0.0
  9
$PLIMCHECK
 70
     0
  9
$PEXTMIN
 10
1.000000000000000E+20
 20
1.000000000000000E+20
 30
1.000000000000000E+20
  9
$PEXTMAX
 10
-1.000000000000000E+20
 20
-1.000000000000000E+20
 30
-1.000000000000000E+20
  9
$PLIMMIN
 10
0.0
 20
0.0
  9
$PLIMMAX
 10
12.0
 20
9.0
  9
$UNITMODE
 70
     0
  9
$VISRETAIN
 70
     0
  9
$PLINEGEN
 70
     0
  9
$PSLTSCALE
 70
     1
  9
$TREEDEPTH
 70
  3020
  9
$CMLSTYLE
  2
STANDARD
  9
$CMLJUST
 70
     0
  9
$CMLSCALE
 40
20.0
  9
$PROXYGRAPHICS
 70
     1
  9
$MEASUREMENT
 70
     1
  9
$CELWEIGHT
370
    -1
  9
$ENDCAPS
280
     0
  9
$JOINSTYLE
280
     0
  9
$LWDISPLAY
290
     0
  9
$INSUNITS
 70
     0
  9
$HYPERLINKBASE
  1

  9
$STYLESHEET
  1

  9
$XEDIT
290
     1
  9
$CEPSNTYPE
380
     0
  9
$PSTYLEMODE
290
     1
  9
$FINGERPRINTGUID
  2
{A8111C6B-0060-46DA-9BB0-37F82C02330B}
  9
$VERSIONGUID
  2
{C899BD6D-454B-468F-8C38-4A24FC763F1D}
  9
$EXTNAMES
290
     1
  9
$PSVPSCALE
 40
0.0
  9
$OLESTARTUP
290
     0
  9
$SORTENTS
280
   127
  9
$INDEXCTL
280
     0
  9
$HIDETEXT
280
     0
  9
$XCLIPFRAME
280
     2
  9
$HALOGAP
280
     0
  9
$OBSCOLOR
 70
   257
  9
$OBSLTYPE
280
     0
  9
$INTERSECTIONDISPLAY
280
     0
  9
$INTERSECTIONCOLOR
 70
   257
  9
$DIMASSOC
280
     1
  9
$PROJECTNAME
  1

  9
$CAMERADISPLAY
290
     0
  9
$LENSLENGTH
 40
50.0
  9
$CAMERAHEIGHT
 40
0.0
  9
$STEPSPERSEC
 40
2.0
  9
$STEPSIZE
 40
6.0
  9
$3DDWFPREC
 40
2.0
  9
$PSOLWIDTH
 40
0.25
  9
$PSOLHEIGHT
 40
4.0
  9
$LOFTANG1
 40
1.570796326794896
  9
$LOFTANG2
 40
1.570796326794896
  9
$LOFTMAG1
 40
0.0
  9
$LOFTMAG2
 40
0.0
  9
$LOFTPARAM
 70
     7
  9
$LOFTNORMALS
280
     1
  9
$LATITUDE
 40
37.795
  9
$LONGITUDE
 40
-122.394
  9
$NORTHDIRECTION
 40
0.0
  9
$TIMEZONE
 70
 -8000
  9
$LIGHTGLYPHDISPLAY
280
     1
  9
$TILEMODELIGHTSYNCH
280
     1
  9
$CMATERIAL
347
8375
  9
$SOLIDHIST
280
     0
  9
$SHOWHIST
280
     1
  9
$DWFFRAME
280
     2
  9
$DGNFRAME
280
     0
  9
$REALWORLDSCALE
290
     1
  9
$INTERFERECOLOR
 62
     1
  9
$INTERFEREOBJVS
345
8397
  9
$INTERFEREVPVS
346
8394
  9
$CSHADOW
280
     0
  9
$SHADOWPLANELOCATION
 40
0.0
  0
ENDSEC
  0
SECTION
  2
CLASSES
  0
CLASS
  1
ACDBDICTIONARYWDFLT
  2
AcDbDictionaryWithDefault
  3
ObjectDBX Classes
 90
        0
 91
        1
280
     0
281
     0
  0
CLASS
  1
DICTIONARYVAR
  2
AcDbDictionaryVar
  3
ObjectDBX Classes
 90
        0
 91
       11
280
     0
281
     0
  0
CLASS
  1
MATERIAL
  2
AcDbMaterial
  3
ObjectDBX Classes
 90
     1153
 91
        3
280
     0
281
     0
  0
CLASS
  1
VISUALSTYLE
  2
AcDbVisualStyle
  3
ObjectDBX Classes
 90
     4095
 91
       24
280
     0
281
     0
  0
CLASS
  1
TABLESTYLE
  2
AcDbTableStyle
  3
ObjectDBX Classes
 90
     4095
 91
        1
280
     0
281
     0
  0
CLASS
  1
SCALE
  2
AcDbScale
  3
ObjectDBX Classes
 90
     1153
 91
       17
280
     0
281
     0
  0
CLASS
  1
MLEADERSTYLE
  2
AcDbMLeaderStyle
  3
ACDB_MLEADERSTYLE_CLASS
 90
     4095
 91
        1
280
     0
281
     0
  0
CLASS
  1
ACDBSECTIONVIEWSTYLE
  2
AcDbSectionViewStyle
  3
ObjectDBX Classes
 90
     1025
 91
        1
280
     0
281
     0
  0
CLASS
  1
ACDBDETAILVIEWSTYLE
  2
AcDbDetailViewStyle
  3
ObjectDBX Classes
 90
     1025
 91
        1
280
     0
281
     0
  0
CLASS
  1
CELLSTYLEMAP
  2
AcDbCellStyleMap
  3
ObjectDBX Classes
 90
     1152
 91
        1
280
     0
281
     0
  0
ENDSEC
  0
SECTION
  2
TABLES
  0
TABLE
  2
VPORT
  5
8
330
0
100
AcDbSymbolTable
 70
     1
1001
ACAD
1000
DbSaveVer
1071
      278
  0
VPORT
  5
8372
330
8
100
AcDbSymbolTableRecord
100
AcDbViewportTableRecord
  2
*Active
 70
     0
 10
0.0
 20
0.0
 11
1.0
 21
1.0
 12
7113.841116720781
 22
5900.000027474012
 13
0.0
 23
0.0
 14
10.0
 24
10.0
 15
10.0
 25
10.0
 16
0.0
 26
0.0
 36
1.0
 17
0.0
 27
0.0
 37
0.0
 40
11876.28512550527
 41
2.250314465408805
 42
50.0
 43
0.0
 44
0.0
 50
0.0
 51
0.0
 71
     0
 72
   100
 73
     1
 74
     0
 75
     0
 76
     0
 77
     0
 78
     0
281
     0
 65
     1
110
0.0
120
0.0
130
0.0
111
1.0
121
0.0
131
0.0
112
0.0
122
1.0
132
0.0
 79
     0
146
0.0
348
8393
 60
     3
 61
     5
292
     1
282
     1
141
0.0
142
0.0
 63
   250
421
  3355443
1001
ACAD_NAV_VCDISPLAY
1070
     3
  0
ENDTAB
  0
TABLE
  2
LTYPE
  5
5
330
0
100
AcDbSymbolTable
 70
     2
  0
LTYPE
  5
13
330
5
100
AcDbSymbolTableRecord
100
AcDbLinetypeTableRecord
  2
BYBLOCK
 70
     0
  3

 72
    65
 73
     0
 40
0.0
  0
LTYPE
  5
14
330
5
100
AcDbSymbolTableRecord
100
AcDbLinetypeTableRecord
  2
BYLAYER
 70
     0
  3

 72
    65
 73
     0
 40
0.0
  0
LTYPE
  5
15
330
5
100
AcDbSymbolTableRecord
100
AcDbLinetypeTableRecord
  2
CONTINUOUS
 70
     0
  3
Solid line
 72
    65
 73
     0
 40
0.0
  0
LTYPE
  5
1F
330
5
100
AcDbSymbolTableRecord
100
AcDbLinetypeTableRecord
  2
CENTER
 70
     0
  3
____ _ ____ _ ____ _ ____ _ ____ _ ____ _ ____ 
 72
    65
 73
     4
 40
2.0
 49
1.25
 74
     0
 49
-0.25
 74
     0
 49
0.25
 74
     0
 49
-0.25
 74
     0
  0
ENDTAB
  0
TABLE
  2
LAYER
  5
2
102
{ACAD_XDICTIONARY
360
8413
102
}
330
0
100
AcDbSymbolTable
 70
     6
  0
LAYER
  5
F
102
{ACAD_XDICTIONARY
360
8406
102
}
330
2
100
AcDbSymbolTableRecord
100
AcDbLayerTableRecord
  2
0
 70
     0
 62
     7
  6
CONTINUOUS
370
    -3
390
827C
347
8385
348
0
  0
LAYER
  5
31
102
{ACAD_XDICTIONARY
360
8408
102
}
330
2
100
AcDbSymbolTableRecord
100
AcDbLayerTableRecord
  2
3
 70
     0
 62
     2
  6
CONTINUOUS
370
    -3
390
827C
347
8385
348
0
  0
LAYER
  5
76D0
102
{ACAD_XDICTIONARY
360
840A
102
}
330
2
100
AcDbSymbolTableRecord
100
AcDbLayerTableRecord
  2
2
 70
     0
 62
     3
  6
CENTER
370
    -3
390
827C
347
8385
348
0
  0
LAYER
  5
76D1
102
{ACAD_XDICTIONARY
360
840C
102
}
330
2
100
AcDbSymbolTableRecord
100
AcDbLayerTableRecord
  2
1
 70
     0
 62
     4
  6
CONTINUOUS
370
    -3
390
827C
347
8385
348
0
  0
LAYER
  5
76D2
102
{ACAD_XDICTIONARY
360
840E
102
}
330
2
100
AcDbSymbolTableRecord
100
AcDbLayerTableRecord
  2
4
 70
     0
 62
     7
  6
CONTINUOUS
370
    -3
390
827C
347
8385
348
0
  0
LAYER
  5
7B1C
330
2
100
AcDbSymbolTableRecord
100
AcDbLayerTableRecord
  2
DEFPOINTS
 70
     0
 62
     7
  6
CONTINUOUS
290
     0
370
    -3
390
827C
347
8385
348
0
  0
ENDTAB
  0
TABLE
  2
STYLE
  5
3
330
0
100
AcDbSymbolTable
 70
     1
  0
STYLE
  5
10
330
3
100
AcDbSymbolTableRecord
100
AcDbTextStyleTableRecord
  2
STANDARD
 70
     0
 40
0.0
 41
1.0
 50
0.0
 71
     0
 42
180.0
  3
simplex.shx
  4
extfont.shx
  0
ENDTAB
  0
TABLE
  2
VIEW
  5
6
330
0
100
AcDbSymbolTable
 70
     0
  0
ENDTAB
  0
TABLE
  2
UCS
  5
7
330
0
100
AcDbSymbolTable
 70
     0
  0
ENDTAB
  0
TABLE
  2
APPID
  5
9
330
0
100
AcDbSymbolTable
 70
     4
  0
APPID
  5
11
330
9
100
AcDbSymbolTableRecord
100
AcDbRegAppTableRecord
  2
ACAD
 70
     0
  0
APPID
  5
83C4
330
9
100
AcDbSymbolTableRecord
100
AcDbRegAppTableRecord
  2
AcadAnnoMonitorAlertIconDisabled
 70
     0
  0
APPID
  5
83C5
330
9
100
AcDbSymbolTableRecord
100
AcDbRegAppTableRecord
  2
ACAD_EXEMPT_FROM_CAD_STANDARDS
 70
     0
  0
APPID
  5
8419
330
9
100
AcDbSymbolTableRecord
100
AcDbRegAppTableRecord
  2
ACAD_NAV_VCDISPLAY
 70
     0
  0
ENDTAB
  0
TABLE
  2
DIMSTYLE
  5
A
330
0
100
AcDbSymbolTable
 70
     1
100
AcDbDimStyleTable
 71
     1
340
1D
  0
DIMSTYLE
105
1D
102
{ACAD_REACTORS
330
7C7B
330
7C7C
330
7C7D
330
7C7F
330
7C80
330
7C96
330
7CA8
330
7CA9
330
7CAC
330
7CAD
330
7CB6
330
7CD3
330
7CD4
330
7D1B
330
7D1C
330
7D1D
330
7D1E
330
7D1F
330
7D20
330
8049
330
824E
330
825B
102
}
330
A
100
AcDbSymbolTableRecord
100
AcDbDimStyleTableRecord
  2
IGA
 70
     0
 40
2.0
 41
2.0
 42
0.5
 43
10.0
 44
1.0
 47
1.0
 48
1.0
 73
     0
 74
     0
 77
     1
 78
     8
140
3.0
141
0.0
143
0.03937
146
10.0
147
1.0
173
     1
271
     1
272
     0
279
     2
284
     8
340
10
341
7F31
343
7F31
344
7F31
  0
ENDTAB
  0
TABLE
  2
BLOCK_RECORD
  5
1
330
0
100
AcDbSymbolTable
 70
    26
  0
BLOCK_RECORD
  5
19
102
{ACAD_XDICTIONARY
360
82AA
102
}
330
1
100
AcDbSymbolTableRecord
100
AcDbBlockTableRecord
  2
*MODEL_SPACE
340
827F
 70
     0
280
     1
281
     0
  0
BLOCK_RECORD
  5
16
102
{ACAD_XDICTIONARY
360
82A8
102
}
330
1
100
AcDbSymbolTableRecord
100
AcDbBlockTableRecord
  2
*PAPER_SPACE
340
8280
 70
     0
280
     1
281
     0
  0
BLOCK_RECORD
  5
79FC
330
1
100
AcDbSymbolTableRecord
100
AcDbBlockTableRecord
  2
YA_N
340
0
102
{BLKREFS
331
7C77
331
7CCF
331
7C23
331
7C50
102
}
 70
     0
280
     1
281
     0
  0
BLOCK_RECORD
  5
7D22
330
1
100
AcDbSymbolTableRecord
100
AcDbBlockTableRecord
  2
*D1
340
0
 70
     0
280
     1
281
     0
  0
BLOCK_RECORD
  5
7D2E
330
1
100
AcDbSymbolTableRecord
100
AcDbBlockTableRecord
  2
*D2
340
0
 70
     0
280
     1
281
     0
  0
BLOCK_RECORD
  5
7D3A
330
1
100
AcDbSymbolTableRecord
100
AcDbBlockTableRecord
  2
*D3
340
0
 70
     0
280
     1
281
     0
  0
BLOCK_RECORD
  5
7D46
330
1
100
AcDbSymbolTableRecord
100
AcDbBlockTableRecord
  2
*D4
340
0
 70
     0
280
     1
281
     0
  0
BLOCK_RECORD
  5
7D52
330
1
100
AcDbSymbolTableRecord
100
AcDbBlockTableRecord
  2
*D5
340
0
 70
     0
280
     1
281
     0
  0
BLOCK_RECORD
  5
7D5E
330
1
100
AcDbSymbolTableRecord
100
AcDbBlockTableRecord
  2
*D6
340
0
 70
     0
280
     1
281
     0
  0
BLOCK_RECORD
  5
7D6A
330
1
100
AcDbSymbolTableRecord
100
AcDbBlockTableRecord
  2
*D7
340
0
 70
     0
280
     1
281
     0
  0
BLOCK_RECORD
  5
7D76
330
1
100
AcDbSymbolTableRecord
100
AcDbBlockTableRecord
  2
*D8
340
0
 70
     0
280
     1
281
     0
  0
BLOCK_RECORD
  5
7D82
330
1
100
AcDbSymbolTableRecord
100
AcDbBlockTableRecord
  2
*D9
340
0
 70
     0
280
     1
281
     0
  0
BLOCK_RECORD
  5
7D8E
330
1
100
AcDbSymbolTableRecord
100
AcDbBlockTableRecord
  2
*D10
340
0
 70
     0
280
     1
281
     0
  0
BLOCK_RECORD
  5
7DA6
330
1
100
AcDbSymbolTableRecord
100
AcDbBlockTableRecord
  2
*D11
340
0
 70
     0
280
     1
281
     0
  0
BLOCK_RECORD
  5
7DB2
330
1
100
AcDbSymbolTableRecord
100
AcDbBlockTableRecord
  2
*D12
340
0
 70
     0
280
     1
281
     0
  0
BLOCK_RECORD
  5
7DBE
330
1
100
AcDbSymbolTableRecord
100
AcDbBlockTableRecord
  2
*D13
340
0
 70
     0
280
     1
281
     0
  0
BLOCK_RECORD
  5
7DE2
330
1
100
AcDbSymbolTableRecord
100
AcDbBlockTableRecord
  2
*D14
340
0
 70
     0
280
     1
281
     0
  0
BLOCK_RECORD
  5
7DEE
330
1
100
AcDbSymbolTableRecord
100
AcDbBlockTableRecord
  2
*D15
340
0
 70
     0
280
     1
281
     0
  0
BLOCK_RECORD
  5
7DFA
330
1
100
AcDbSymbolTableRecord
100
AcDbBlockTableRecord
  2
*D16
340
0
 70
     0
280
     1
281
     0
  0
BLOCK_RECORD
  5
7E05
330
1
100
AcDbSymbolTableRecord
100
AcDbBlockTableRecord
  2
*D17
340
0
 70
     0
280
     1
281
     0
  0
BLOCK_RECORD
  5
7E11
330
1
100
AcDbSymbolTableRecord
100
AcDbBlockTableRecord
  2
*D18
340
0
 70
     0
280
     1
281
     0
  0
BLOCK_RECORD
  5
7E1D
330
1
100
AcDbSymbolTableRecord
100
AcDbBlockTableRecord
  2
*D19
340
0
 70
     0
280
     1
281
     0
  0
BLOCK_RECORD
  5
7F31
330
1
100
AcDbSymbolTableRecord
100
AcDbBlockTableRecord
  2
_OPEN
340
0
102
{BLKREFS
331
82BC
331
82BD
331
82C5
331
82C6
331
82CE
331
82CF
331
82D7
331
82D8
331
82E0
331
82E1
331
82FB
331
82FC
331
830D
331
830E
331
8328
331
8329
331
8331
331
8332
331
83F7
331
83F8
331
8400
331
8401
331
842E
331
8436
331
8437
331
843F
331
8440
331
8448
331
8449
331
8451
331
8452
331
845F
331
8460
331
833A
331
833B
331
8343
331
8344
331
834C
331
834D
331
8355
331
8356
102
}
 70
     0
280
     1
281
     0
  0
BLOCK_RECORD
  5
803A
330
1
100
AcDbSymbolTableRecord
100
AcDbBlockTableRecord
  2
*D21
340
0
 70
     0
280
     1
281
     0
  0
BLOCK_RECORD
  5
80B1
330
1
100
AcDbSymbolTableRecord
100
AcDbBlockTableRecord
  2
_DOT
340
0
102
{BLKREFS
331
842D
102
}
 70
     0
280
     1
281
     0
  0
BLOCK_RECORD
  5
8229
330
1
100
AcDbSymbolTableRecord
100
AcDbBlockTableRecord
  2
_NONE
340
0
 70
     0
280
     1
281
     0
  0
BLOCK_RECORD
  5
8246
330
1
100
AcDbSymbolTableRecord
100
AcDbBlockTableRecord
  2
*D24
340
0
 70
     0
280
     1
281
     0
  0
BLOCK_RECORD
  5
824F
330
1
100
AcDbSymbolTableRecord
100
AcDbBlockTableRecord
  2
*D25
340
0
 70
     0
280
     1
281
     0
  0
ENDTAB
  0
ENDSEC
  0
SECTION
  2
BLOCKS
  0
BLOCK
  5
1A
330
19
100
AcDbEntity
  8
0
100
AcDbBlockBegin
  2
*MODEL_SPACE
 70
     0
 10
0.0
 20
0.0
 30
0.0
  3
*MODEL_SPACE
  1

  0
ENDBLK
  5
1B
330
19
100
AcDbEntity
  8
0
100
AcDbBlockEnd
  0
BLOCK
  5
17
330
16
100
AcDbEntity
 67
     1
  8
0
100
AcDbBlockBegin
  2
*PAPER_SPACE
 70
     0
 10
0.0
 20
0.0
 30
0.0
  3
*PAPER_SPACE
  1

  0
ENDBLK
  5
18
330
16
100
AcDbEntity
 67
     1
  8
0
100
AcDbBlockEnd
  0
BLOCK
  5
79FD
330
79FC
100
AcDbEntity
  8
0
100
AcDbBlockBegin
  2
YA_N
 70
     0
 10
0.0
 20
0.0
 30
0.0
  3
YA_N
  1

  0
ENDBLK
  5
79FE
330
79FC
100
AcDbEntity
  8
0
100
AcDbBlockEnd
  0
BLOCK
  5
8106
330
7D22
100
AcDbEntity
  8
0
100
AcDbBlockBegin
  2
*D1
 70
     1
 10
0.0
 20
0.0
 30
0.0
  3
*D1
  1

  0
LINE
  5
8433
330
7D22
100
AcDbEntity
  8
3
 62
     0
440
 16777216
370
    -2
100
AcDbLine
 10
3596.156955993245
 20
2621.144075523784
 30
0.0
 11
3596.156955993245
 21
2284.482621847545
 31
0.0
  0
LINE
  5
8434
330
7D22
100
AcDbEntity
  8
3
 62
     0
440
 16777216
370
    -2
100
AcDbLine
 10
2846.156955993245
 20
2621.144075523784
 30
0.0
 11
2846.156955993245
 21
2284.482621847545
 31
0.0
  0
LINE
  5
8435
330
7D22
100
AcDbEntity
  8
3
 62
     0
440
 16777216
370
    -2
100
AcDbLine
 10
3516.156955993245
 20
2324.482621847545
 30
0.0
 11
2926.156955993245
 21
2324.482621847545
 31
0.0
  0
INSERT
  5
8436
330
7D22
100
AcDbEntity
  8
3
 62
     0
440
 16777216
370
    -2
100
AcDbBlockReference
  2
_OPEN
 10
3596.156955993245
 20
2324.482621847545
 30
0.0
 41
80.0
 42
80.0
 43
80.0
  0
INSERT
  5
8437
330
7D22
100
AcDbEntity
  8
3
 62
     0
440
 16777216
370
    -2
100
AcDbBlockReference
  2
_OPEN
 10
2846.156955993245
 20
2324.482621847545
 30
0.0
 41
80.0
 42
80.0
 43
80.0
 50
180.0
  0
MTEXT
  5
8438
330
7D22
100
AcDbEntity
  8
3
 62
     0
440
 16777216
100
AcDbMText
 10
3221.156955993245
 20
2424.482621847545
 30
0.0
 40
120.0
 41
0.0
 46
0.0
 71
     5
 72
     1
  1
\A1;750
 73
     1
 44
1.0
  0
POINT
  5
8439
330
7D22
100
AcDbEntity
  8
DEFPOINTS
 62
     0
440
 16777216
100
AcDbPoint
 10
3596.156955993245
 20
2641.144075523784
 30
0.0
  0
POINT
  5
843A
330
7D22
100
AcDbEntity
  8
DEFPOINTS
 62
     0
440
 16777216
100
AcDbPoint
 10
2846.156955993245
 20
2641.144075523784
 30
0.0
  0
POINT
  5
843B
330
7D22
100
AcDbEntity
  8
DEFPOINTS
 62
     0
440
 16777216
100
AcDbPoint
 10
2846.156955993245
 20
2324.482621847545
 30
0.0
  0
ENDBLK
  5
8110
330
7D22
100
AcDbEntity
  8
0
100
AcDbBlockEnd
  0
BLOCK
  5
8013
330
7D2E
100
AcDbEntity
  8
0
100
AcDbBlockBegin
  2
*D2
 70
     1
 10
0.0
 20
0.0
 30
0.0
  3
*D2
  1

  0
LINE
  5
82B9
330
7D2E
100
AcDbEntity
  8
3
 62
     0
440
 16777216
100
AcDbLine
 10
3691.156955993245
 20
5080.144075523783
 30
0.0
 11
3964.167988683203
 21
5080.144075523783
 31
0.0
  0
LINE
  5
82BA
330
7D2E
100
AcDbEntity
  8
3
 62
     0
440
 16777216
100
AcDbLine
 10
3691.156955993245
 20
3800.144075523784
 30
0.0
 11
3964.167988683203
 21
3800.144075523784
 31
0.0
  0
LINE
  5
82BB
330
7D2E
100
AcDbEntity
  8
3
 62
     0
440
 16777216
100
AcDbLine
 10
3924.167988683203
 20
5000.144075523784
 30
0.0
 11
3924.167988683203
 21
3880.144075523784
 31
0.0
  0
INSERT
  5
82BC
330
7D2E
100
AcDbEntity
  8
3
 62
     0
440
 16777216
100
AcDbBlockReference
  2
_OPEN
 10
3924.167988683203
 20
5080.144075523783
 30
0.0
 41
80.0
 42
80.0
 43
80.0
 50
90.0
  0
INSERT
  5
82BD
330
7D2E
100
AcDbEntity
  8
3
 62
     0
440
 16777216
100
AcDbBlockReference
  2
_OPEN
 10
3924.167988683203
 20
3800.144075523784
 30
0.0
 41
80.0
 42
80.0
 43
80.0
 50
270.0
  0
MTEXT
  5
82BE
330
7D2E
100
AcDbEntity
  8
3
 62
     0
440
 16777216
100
AcDbMText
 10
3824.167988683202
 20
4440.144075523784
 30
0.0
 40
120.0
 41
0.0
 46
0.0
 71
     5
 72
     5
  1
\A1;1280
 11
0.0000000000000001
 21
1.0
 31
0.0
 73
     1
 44
1.0
  0
POINT
  5
82BF
330
7D2E
100
AcDbEntity
  8
DEFPOINTS
 62
     0
440
 16777216
100
AcDbPoint
 10
3671.156955993245
 20
5080.144075523783
 30
0.0
  0
POINT
  5
82C0
330
7D2E
100
AcDbEntity
  8
DEFPOINTS
 62
     0
440
 16777216
100
AcDbPoint
 10
3671.156955993245
 20
3800.144075523784
 30
0.0
  0
POINT
  5
82C1
330
7D2E
100
AcDbEntity
  8
DEFPOINTS
 62
     0
440
 16777216
100
AcDbPoint
 10
3924.167988683203
 20
3800.144075523784
 30
0.0
  0
ENDBLK
  5
801D
330
7D2E
100
AcDbEntity
  8
0
100
AcDbBlockEnd
  0
BLOCK
  5
8008
330
7D3A
100
AcDbEntity
  8
0
100
AcDbBlockBegin
  2
*D3
 70
     1
 10
0.0
 20
0.0
 30
0.0
  3
*D3
  1

  0
LINE
  5
82C2
330
7D3A
100
AcDbEntity
  8
3
 62
     0
440
 16777216
100
AcDbLine
 10
3691.156955993245
 20
5080.144075523783
 30
0.0
 11
4211.230831139732
 21
5080.144075523783
 31
0.0
  0
LINE
  5
82C3
330
7D3A
100
AcDbEntity
  8
3
 62
     0
440
 16777216
100
AcDbLine
 10
3769.593494242098
 20
3746.144075523784
 30
0.0
 11
4211.230831139732
 21
3746.144075523784
 31
0.0
  0
LINE
  5
82C4
330
7D3A
100
AcDbEntity
  8
3
 62
     0
440
 16777216
100
AcDbLine
 10
4171.230831139732
 20
5000.144075523784
 30
0.0
 11
4171.230831139732
 21
3826.144075523784
 31
0.0
  0
INSERT
  5
82C5
330
7D3A
100
AcDbEntity
  8
3
 62
     0
440
 16777216
100
AcDbBlockReference
  2
_OPEN
 10
4171.230831139732
 20
5080.144075523783
 30
0.0
 41
80.0
 42
80.0
 43
80.0
 50
90.0
  0
INSERT
  5
82C6
330
7D3A
100
AcDbEntity
  8
3
 62
     0
440
 16777216
100
AcDbBlockReference
  2
_OPEN
 10
4171.230831139732
 20
3746.144075523784
 30
0.0
 41
80.0
 42
80.0
 43
80.0
 50
270.0
  0
MTEXT
  5
82C7
330
7D3A
100
AcDbEntity
  8
3
 62
     0
440
 16777216
100
AcDbMText
 10
4071.230831139732
 20
4413.144075523784
 30
0.0
 40
120.0
 41
0.0
 46
0.0
 71
     5
 72
     5
  1
\A1;1334
 11
0.0000000000000001
 21
1.0
 31
0.0
 73
     1
 44
1.0
  0
POINT
  5
82C8
330
7D3A
100
AcDbEntity
  8
DEFPOINTS
 62
     0
440
 16777216
100
AcDbPoint
 10
3671.156955993245
 20
5080.144075523783
 30
0.0
  0
POINT
  5
82C9
330
7D3A
100
AcDbEntity
  8
DEFPOINTS
 62
     0
440
 16777216
100
AcDbPoint
 10
3749.593494242097
 20
3746.144075523784
 30
0.0
  0
POINT
  5
82CA
330
7D3A
100
AcDbEntity
  8
DEFPOINTS
 62
     0
440
 16777216
100
AcDbPoint
 10
4171.230831139732
 20
3746.144075523784
 30
0.0
  0
ENDBLK
  5
8012
330
7D3A
100
AcDbEntity
  8
0
100
AcDbBlockEnd
  0
BLOCK
  5
7FFD
330
7D46
100
AcDbEntity
  8
0
100
AcDbBlockBegin
  2
*D4
 70
     1
 10
0.0
 20
0.0
 30
0.0
  3
*D4
  1

  0
LINE
  5
82CB
330
7D46
100
AcDbEntity
  8
3
 62
     0
440
 16777216
100
AcDbLine
 10
3671.156955993245
 20
5153.144075523783
 30
0.0
 11
3671.156955993245
 21
5422.667020841307
 31
0.0
  0
LINE
  5
82CC
330
7D46
100
AcDbEntity
  8
3
 62
     0
440
 16777216
100
AcDbLine
 10
2846.156955993245
 20
5121.429794629097
 30
0.0
 11
2846.156955993245
 21
5422.667020841307
 31
0.0
  0
LINE
  5
82CD
330
7D46
100
AcDbEntity
  8
3
 62
     0
440
 16777216
100
AcDbLine
 10
3591.156955993245
 20
5382.667020841306
 30
0.0
 11
2926.156955993245
 21
5382.667020841306
 31
0.0
  0
INSERT
  5
82CE
330
7D46
100
AcDbEntity
  8
3
 62
     0
440
 16777216
100
AcDbBlockReference
  2
_OPEN
 10
3671.156955993245
 20
5382.667020841306
 30
0.0
 41
80.0
 42
80.0
 43
80.0
  0
INSERT
  5
82CF
330
7D46
100
AcDbEntity
  8
3
 62
     0
440
 16777216
100
AcDbBlockReference
  2
_OPEN
 10
2846.156955993245
 20
5382.667020841306
 30
0.0
 41
80.0
 42
80.0
 43
80.0
 50
180.0
  0
MTEXT
  5
82D0
330
7D46
100
AcDbEntity
  8
3
 62
     0
440
 16777216
100
AcDbMText
 10
3258.656955993245
 20
5482.667020841307
 30
0.0
 40
120.0
 41
0.0
 46
0.0
 71
     5
 72
     5
  1
\A1;825
 73
     1
 44
1.0
  0
POINT
  5
82D1
330
7D46
100
AcDbEntity
  8
DEFPOINTS
 62
     0
440
 16777216
100
AcDbPoint
 10
3671.156955993245
 20
5133.144075523784
 30
0.0
  0
POINT
  5
82D2
330
7D46
100
AcDbEntity
  8
DEFPOINTS
 62
     0
440
 16777216
100
AcDbPoint
 10
2846.156955993245
 20
5101.429794629098
 30
0.0
  0
POINT
  5
82D3
330
7D46
100
AcDbEntity
  8
DEFPOINTS
 62
     0
440
 16777216
100
AcDbPoint
 10
2846.156955993245
 20
5382.667020841306
 30
0.0
  0
ENDBLK
  5
8007
330
7D46
100
AcDbEntity
  8
0
100
AcDbBlockEnd
  0
BLOCK
  5
7FF2
330
7D52
100
AcDbEntity
  8
0
100
AcDbBlockBegin
  2
*D5
 70
     1
 10
0.0
 20
0.0
 30
0.0
  3
*D5
  1

  0
LINE
  5
82D4
330
7D52
100
AcDbEntity
  8
3
 62
     0
440
 16777216
100
AcDbLine
 10
2846.156955993245
 20
5121.429794629097
 30
0.0
 11
2846.156955993245
 21
5422.667020841307
 31
0.0
  0
LINE
  5
82D5
330
7D52
100
AcDbEntity
  8
3
 62
     0
440
 16777216
100
AcDbLine
 10
1771.356671382593
 20
3766.144075523783
 30
0.0
 11
1771.356671382593
 21
5422.667020841307
 31
0.0
  0
LINE
  5
82D6
330
7D52
100
AcDbEntity
  8
3
 62
     0
440
 16777216
100
AcDbLine
 10
2766.156955993245
 20
5382.667020841306
 30
0.0
 11
1851.356671382593
 21
5382.667020841306
 31
0.0
  0
INSERT
  5
82D7
330
7D52
100
AcDbEntity
  8
3
 62
     0
440
 16777216
100
AcDbBlockReference
  2
_OPEN
 10
2846.156955993245
 20
5382.667020841306
 30
0.0
 41
80.0
 42
80.0
 43
80.0
  0
INSERT
  5
82D8
330
7D52
100
AcDbEntity
  8
3
 62
     0
440
 16777216
100
AcDbBlockReference
  2
_OPEN
 10
1771.356671382593
 20
5382.667020841306
 30
0.0
 41
80.0
 42
80.0
 43
80.0
 50
180.0
  0
MTEXT
  5
82D9
330
7D52
100
AcDbEntity
  8
3
 62
     0
440
 16777216
100
AcDbMText
 10
2308.756813687919
 20
5482.667020841307
 30
0.0
 40
120.0
 41
0.0
 46
0.0
 71
     5
 72
     5
  1
\A1;1079
 73
     1
 44
1.0
  0
POINT
  5
82DA
330
7D52
100
AcDbEntity
  8
DEFPOINTS
 62
     0
440
 16777216
100
AcDbPoint
 10
2846.156955993245
 20
5101.429794629098
 30
0.0
  0
POINT
  5
82DB
330
7D52
100
AcDbEntity
  8
DEFPOINTS
 62
     0
440
 16777216
100
AcDbPoint
 10
1771.356671382593
 20
3746.144075523784
 30
0.0
  0
POINT
  5
82DC
330
7D52
100
AcDbEntity
  8
DEFPOINTS
 62
     0
440
 16777216
100
AcDbPoint
 10
1771.356671382593
 20
5382.667020841306
 30
0.0
  0
ENDBLK
  5
7FFC
330
7D52
100
AcDbEntity
  8
0
100
AcDbBlockEnd
  0
BLOCK
  5
7FE7
330
7D5E
100
AcDbEntity
  8
0
100
AcDbBlockBegin
  2
*D6
 70
     1
 10
0.0
 20
0.0
 30
0.0
  3
*D6
  1

  0
LINE
  5
82DD
330
7D5E
100
AcDbEntity
  8
3
 62
     0
440
 16777216
100
AcDbLine
 10
5476.500975653525
 20
5153.144075523783
 30
0.0
 11
5476.500975653525
 21
5421.543861990349
 31
0.0
  0
LINE
  5
82DE
330
7D5E
100
AcDbEntity
  8
3
 62
     0
440
 16777216
100
AcDbLine
 10
7176.500975653526
 20
5153.144075523783
 30
0.0
 11
7176.500975653526
 21
5421.543861990349
 31
0.0
  0
LINE
  5
82DF
330
7D5E
100
AcDbEntity
  8
3
 62
     0
440
 16777216
100
AcDbLine
 10
5556.500975653525
 20
5381.543861990349
 30
0.0
 11
7096.500975653525
 21
5381.543861990349
 31
0.0
  0
INSERT
  5
82E0
330
7D5E
100
AcDbEntity
  8
3
 62
     0
440
 16777216
100
AcDbBlockReference
  2
_OPEN
 10
5476.500975653525
 20
5381.543861990349
 30
0.0
 41
80.0
 42
80.0
 43
80.0
 50
180.0
  0
INSERT
  5
82E1
330
7D5E
100
AcDbEntity
  8
3
 62
     0
440
 16777216
100
AcDbBlockReference
  2
_OPEN
 10
7176.500975653526
 20
5381.543861990349
 30
0.0
 41
80.0
 42
80.0
 43
80.0
  0
MTEXT
  5
82E2
330
7D5E
100
AcDbEntity
  8
3
 62
     0
440
 16777216
100
AcDbMText
 10
6326.500975653526
 20
5481.543861990349
 30
0.0
 40
120.0
 41
0.0
 46
0.0
 71
     5
 72
     5
  1
\A1;1700
 73
     1
 44
1.0
  0
POINT
  5
82E3
330
7D5E
100
AcDbEntity
  8
DEFPOINTS
 62
     0
440
 16777216
100
AcDbPoint
 10
5476.500975653525
 20
5133.144075523784
 30
0.0
  0
POINT
  5
82E4
330
7D5E
100
AcDbEntity
  8
DEFPOINTS
 62
     0
440
 16777216
100
AcDbPoint
 10
7176.500975653526
 20
5133.144075523784
 30
0.0
  0
POINT
  5
82E5
330
7D5E
100
AcDbEntity
  8
DEFPOINTS
 62
     0
440
 16777216
100
AcDbPoint
 10
7176.500975653526
 20
5381.543861990349
 30
0.0
  0
ENDBLK
  5
7FF1
330
7D5E
100
AcDbEntity
  8
0
100
AcDbBlockEnd
  0
BLOCK
  5
8127
330
7D6A
100
AcDbEntity
  8
0
100
AcDbBlockBegin
  2
*D7
 70
     1
 10
0.0
 20
0.0
 30
0.0
  3
*D7
  1

  0
LINE
  5
83FD
330
7D6A
100
AcDbEntity
  8
3
 62
     0
440
 16777216
370
    -2
100
AcDbLine
 10
5006.500975653526
 20
4046.144075523783
 30
0.0
 11
5006.500975653526
 21
5674.894753954436
 31
0.0
  0
LINE
  5
83FE
330
7D6A
100
AcDbEntity
  8
3
 62
     0
440
 16777216
370
    -2
100
AcDbLine
 10
6326.500975653526
 20
5570.201656594395
 30
0.0
 11
6326.500975653526
 21
5674.894753954436
 31
0.0
  0
LINE
  5
83FF
330
7D6A
100
AcDbEntity
  8
3
 62
     0
440
 16777216
370
    -2
100
AcDbLine
 10
5086.500975653526
 20
5634.894753954437
 30
0.0
 11
6246.500975653526
 21
5634.894753954437
 31
0.0
  0
INSERT
  5
8400
330
7D6A
100
AcDbEntity
  8
3
 62
     0
440
 16777216
370
    -2
100
AcDbBlockReference
  2
_OPEN
 10
5006.500975653526
 20
5634.894753954437
 30
0.0
 41
80.0
 42
80.0
 43
80.0
 50
180.0
  0
INSERT
  5
8401
330
7D6A
100
AcDbEntity
  8
3
 62
     0
440
 16777216
370
    -2
100
AcDbBlockReference
  2
_OPEN
 10
6326.500975653526
 20
5634.894753954437
 30
0.0
 41
80.0
 42
80.0
 43
80.0
  0
MTEXT
  5
8402
330
7D6A
100
AcDbEntity
  8
3
 62
     0
440
 16777216
100
AcDbMText
 10
5666.500975653526
 20
5766.323325383009
 30
0.0
 40
120.0
 41
0.0
 46
0.0
 71
     5
 72
     1
  1
\A1;(1320)
 73
     1
 44
1.0
  0
POINT
  5
8403
330
7D6A
100
AcDbEntity
  8
DEFPOINTS
 62
     0
440
 16777216
100
AcDbPoint
 10
5006.500975653526
 20
4026.144075523784
 30
0.0
  0
POINT
  5
8404
330
7D6A
100
AcDbEntity
  8
DEFPOINTS
 62
     0
440
 16777216
100
AcDbPoint
 10
6326.500975653526
 20
5550.201656594396
 30
0.0
  0
POINT
  5
8405
330
7D6A
100
AcDbEntity
  8
DEFPOINTS
 62
     0
440
 16777216
100
AcDbPoint
 10
6326.500975653526
 20
5634.894753954437
 30
0.0
  0
ENDBLK
  5
8131
330
7D6A
100
AcDbEntity
  8
0
100
AcDbBlockEnd
  0
BLOCK
  5
811C
330
7D76
100
AcDbEntity
  8
0
100
AcDbBlockBegin
  2
*D8
 70
     1
 10
0.0
 20
0.0
 30
0.0
  3
*D8
  1

  0
LINE
  5
83F4
330
7D76
100
AcDbEntity
  8
3
 62
     0
440
 16777216
370
    -2
100
AcDbLine
 10
6326.500975653526
 20
5619.504550509098
 30
0.0
 11
6326.500975653526
 21
5674.507166849251
 31
0.0
  0
LINE
  5
83F5
330
7D76
100
AcDbEntity
  8
3
 62
     0
440
 16777216
370
    -2
100
AcDbLine
 10
7346.000975653526
 20
3690.144075523784
 30
0.0
 11
7346.000975653526
 21
5674.507166849251
 31
0.0
  0
LINE
  5
83F6
330
7D76
100
AcDbEntity
  8
3
 62
     0
440
 16777216
370
    -2
100
AcDbLine
 10
6406.500975653526
 20
5634.507166849251
 30
0.0
 11
7266.000975653525
 21
5634.507166849251
 31
0.0
  0
INSERT
  5
83F7
330
7D76
100
AcDbEntity
  8
3
 62
     0
440
 16777216
370
    -2
100
AcDbBlockReference
  2
_OPEN
 10
6326.500975653526
 20
5634.507166849251
 30
0.0
 41
80.0
 42
80.0
 43
80.0
 50
180.0
  0
INSERT
  5
83F8
330
7D76
100
AcDbEntity
  8
3
 62
     0
440
 16777216
370
    -2
100
AcDbBlockReference
  2
_OPEN
 10
7346.000975653526
 20
5634.507166849251
 30
0.0
 41
80.0
 42
80.0
 43
80.0
  0
MTEXT
  5
83F9
330
7D76
100
AcDbEntity
  8
3
 62
     0
440
 16777216
100
AcDbMText
 10
6836.250975653526
 20
5765.935738277822
 30
0.0
 40
120.0
 41
0.0
 46
0.0
 71
     5
 72
     1
  1
\A1;(1020)
 73
     1
 44
1.0
  0
POINT
  5
83FA
330
7D76
100
AcDbEntity
  8
DEFPOINTS
 62
     0
440
 16777216
100
AcDbPoint
 10
6326.500975653526
 20
5599.504550509099
 30
0.0
  0
POINT
  5
83FB
330
7D76
100
AcDbEntity
  8
DEFPOINTS
 62
     0
440
 16777216
100
AcDbPoint
 10
7346.000975653526
 20
3670.144075523784
 30
0.0
  0
POINT
  5
83FC
330
7D76
100
AcDbEntity
  8
DEFPOINTS
 62
     0
440
 16777216
100
AcDbPoint
 10
7346.000975653526
 20
5634.507166849251
 30
0.0
  0
ENDBLK
  5
8126
330
7D76
100
AcDbEntity
  8
0
100
AcDbBlockEnd
  0
BLOCK
  5
7FC6
330
7D82
100
AcDbEntity
  8
0
100
AcDbBlockBegin
  2
*D9
 70
     1
 10
0.0
 20
0.0
 30
0.0
  3
*D9
  1

  0
LINE
  5
82F8
330
7D82
100
AcDbEntity
  8
3
 62
     0
440
 16777216
100
AcDbLine
 10
7198.800975653526
 20
4371.144075523783
 30
0.0
 11
7627.770600566029
 21
4371.144075523783
 31
0.0
  0
LINE
  5
82F9
330
7D82
100
AcDbEntity
  8
3
 62
     0
440
 16777216
100
AcDbLine
 10
7198.800975653526
 20
3121.144075523783
 30
0.0
 11
7627.770600566029
 21
3121.144075523783
 31
0.0
  0
LINE
  5
82FA
330
7D82
100
AcDbEntity
  8
3
 62
     0
440
 16777216
100
AcDbLine
 10
7587.77060056603
 20
4291.144075523783
 30
0.0
 11
7587.77060056603
 21
3201.144075523783
 31
0.0
  0
INSERT
  5
82FB
330
7D82
100
AcDbEntity
  8
3
 62
     0
440
 16777216
100
AcDbBlockReference
  2
_OPEN
 10
7587.77060056603
 20
4371.144075523783
 30
0.0
 41
80.0
 42
80.0
 43
80.0
 50
90.0
  0
INSERT
  5
82FC
330
7D82
100
AcDbEntity
  8
3
 62
     0
440
 16777216
100
AcDbBlockReference
  2
_OPEN
 10
7587.77060056603
 20
3121.144075523783
 30
0.0
 41
80.0
 42
80.0
 43
80.0
 50
270.0
  0
MTEXT
  5
82FD
330
7D82
100
AcDbEntity
  8
3
 62
     0
440
 16777216
100
AcDbMText
 10
7487.770600566029
 20
3746.144075523785
 30
0.0
 40
120.0
 41
0.0
 46
0.0
 71
     5
 72
     5
  1
\A1;φ1250
 11
0.0000000000000001
 21
1.0
 31
0.0
 73
     1
 44
1.0
  0
POINT
  5
82FE
330
7D82
100
AcDbEntity
  8
DEFPOINTS
 62
     0
440
 16777216
100
AcDbPoint
 10
7178.800975653527
 20
4371.144075523783
 30
0.0
  0
POINT
  5
82FF
330
7D82
100
AcDbEntity
  8
DEFPOINTS
 62
     0
440
 16777216
100
AcDbPoint
 10
7178.800975653527
 20
3121.144075523783
 30
0.0
  0
POINT
  5
8300
330
7D82
100
AcDbEntity
  8
DEFPOINTS
 62
     0
440
 16777216
100
AcDbPoint
 10
7587.77060056603
 20
3121.144075523783
 30
0.0
  0
ENDBLK
  5
7FD0
330
7D82
100
AcDbEntity
  8
0
100
AcDbBlockEnd
  0
BLOCK
  5
814E
330
7D8E
100
AcDbEntity
  8
0
100
AcDbBlockBegin
  2
*D10
 70
     1
 10
0.0
 20
0.0
 30
0.0
  3
*D10
  1

  0
LINE
  5
843C
330
7D8E
100
AcDbEntity
  8
3
 62
     0
440
 16777216
370
    -2
100
AcDbLine
 10
946.1569559932449
 20
2621.144075523784
 30
0.0
 11
946.1569559932449
 21
2284.256120108285
 31
0.0
  0
LINE
  5
843D
330
7D8E
100
AcDbEntity
  8
3
 62
     0
440
 16777216
370
    -2
100
AcDbLine
 10
2846.156955993245
 20
2621.144075523784
 30
0.0
 11
2846.156955993245
 21
2284.256120108285
 31
0.0
  0
LINE
  5
843E
330
7D8E
100
AcDbEntity
  8
3
 62
     0
440
 16777216
370
    -2
100
AcDbLine
 10
1026.156955993245
 20
2324.256120108285
 30
0.0
 11
2766.156955993245
 21
2324.256120108285
 31
0.0
  0
INSERT
  5
843F
330
7D8E
100
AcDbEntity
  8
3
 62
     0
440
 16777216
370
    -2
100
AcDbBlockReference
  2
_OPEN
 10
946.1569559932449
 20
2324.256120108285
 30
0.0
 41
80.0
 42
80.0
 43
80.0
 50
180.0
  0
INSERT
  5
8440
330
7D8E
100
AcDbEntity
  8
3
 62
     0
440
 16777216
370
    -2
100
AcDbBlockReference
  2
_OPEN
 10
2846.156955993245
 20
2324.256120108285
 30
0.0
 41
80.0
 42
80.0
 43
80.0
  0
MTEXT
  5
8441
330
7D8E
100
AcDbEntity
  8
3
 62
     0
440
 16777216
100
AcDbMText
 10
1896.156955993245
 20
2424.256120108285
 30
0.0
 40
120.0
 41
0.0
 46
0.0
 71
     5
 72
     1
  1
\A1;1900
 73
     1
 44
1.0
  0
POINT
  5
8442
330
7D8E
100
AcDbEntity
  8
DEFPOINTS
 62
     0
440
 16777216
100
AcDbPoint
 10
946.1569559932449
 20
2641.144075523784
 30
0.0
  0
POINT
  5
8443
330
7D8E
100
AcDbEntity
  8
DEFPOINTS
 62
     0
440
 16777216
100
AcDbPoint
 10
2846.156955993245
 20
2641.144075523784
 30
0.0
  0
POINT
  5
8444
330
7D8E
100
AcDbEntity
  8
DEFPOINTS
 62
     0
440
 16777216
100
AcDbPoint
 10
2846.156955993245
 20
2324.256120108285
 30
0.0
  0
ENDBLK
  5
8158
330
7D8E
100
AcDbEntity
  8
0
100
AcDbBlockEnd
  0
BLOCK
  5
7FA5
330
7DA6
100
AcDbEntity
  8
0
100
AcDbBlockBegin
  2
*D11
 70
     1
 10
0.0
 20
0.0
 30
0.0
  3
*D11
  1

  0
LINE
  5
830A
330
7DA6
100
AcDbEntity
  8
3
 62
     0
440
 16777216
100
AcDbLine
 10
3769.593494242098
 20
3746.144075523784
 30
0.0
 11
4210.578222735581
 21
3746.144075523784
 31
0.0
  0
LINE
  5
830B
330
7DA6
100
AcDbEntity
  8
3
 62
     0
440
 16777216
100
AcDbLine
 10
3616.156955993246
 20
2821.144075523784
 30
0.0
 11
4210.578222735581
 21
2821.144075523784
 31
0.0
  0
LINE
  5
830C
330
7DA6
100
AcDbEntity
  8
3
 62
     0
440
 16777216
100
AcDbLine
 10
4170.57822273558
 20
3666.144075523784
 30
0.0
 11
4170.57822273558
 21
2901.144075523784
 31
0.0
  0
INSERT
  5
830D
330
7DA6
100
AcDbEntity
  8
3
 62
     0
440
 16777216
100
AcDbBlockReference
  2
_OPEN
 10
4170.57822273558
 20
3746.144075523784
 30
0.0
 41
80.0
 42
80.0
 43
80.0
 50
90.0
  0
INSERT
  5
830E
330
7DA6
100
AcDbEntity
  8
3
 62
     0
440
 16777216
100
AcDbBlockReference
  2
_OPEN
 10
4170.57822273558
 20
2821.144075523784
 30
0.0
 41
80.0
 42
80.0
 43
80.0
 50
270.0
  0
MTEXT
  5
830F
330
7DA6
100
AcDbEntity
  8
3
 62
     0
440
 16777216
100
AcDbMText
 10
4070.57822273558
 20
3283.644075523784
 30
0.0
 40
120.0
 41
0.0
 46
0.0
 71
     5
 72
     5
  1
\A1;925
 11
0.0000000000000001
 21
1.0
 31
0.0
 73
     1
 44
1.0
  0
POINT
  5
8310
330
7DA6
100
AcDbEntity
  8
DEFPOINTS
 62
     0
440
 16777216
100
AcDbPoint
 10
3749.593494242097
 20
3746.144075523784
 30
0.0
  0
POINT
  5
8311
330
7DA6
100
AcDbEntity
  8
DEFPOINTS
 62
     0
440
 16777216
100
AcDbPoint
 10
3596.156955993245
 20
2821.144075523784
 30
0.0
  0
POINT
  5
8312
330
7DA6
100
AcDbEntity
  8
DEFPOINTS
 62
     0
440
 16777216
100
AcDbPoint
 10
4170.57822273558
 20
2821.144075523784
 30
0.0
  0
ENDBLK
  5
7FAF
330
7DA6
100
AcDbEntity
  8
0
100
AcDbBlockEnd
  0
BLOCK
  5
8164
330
7DB2
100
AcDbEntity
  8
0
100
AcDbBlockBegin
  2
*D12
 70
     1
 10
0.0
 20
0.0
 30
0.0
  3
*D12
  1

  0
LINE
  5
8445
330
7DB2
100
AcDbEntity
  8
3
 62
     0
440
 16777216
370
    -2
100
AcDbLine
 10
5135.500975653524
 20
2621.144075523784
 30
0.0
 11
5135.500975653524
 21
2280.828456891717
 31
0.0
  0
LINE
  5
8446
330
7DB2
100
AcDbEntity
  8
3
 62
     0
440
 16777216
370
    -2
100
AcDbLine
 10
6326.500975653525
 20
2621.144075523784
 30
0.0
 11
6326.500975653525
 21
2280.828456891717
 31
0.0
  0
LINE
  5
8447
330
7DB2
100
AcDbEntity
  8
3
 62
     0
440
 16777216
370
    -2
100
AcDbLine
 10
5215.500975653525
 20
2320.828456891717
 30
0.0
 11
6246.500975653525
 21
2320.828456891717
 31
0.0
  0
INSERT
  5
8448
330
7DB2
100
AcDbEntity
  8
3
 62
     0
440
 16777216
370
    -2
100
AcDbBlockReference
  2
_OPEN
 10
5135.500975653524
 20
2320.828456891717
 30
0.0
 41
80.0
 42
80.0
 43
80.0
 50
180.0
  0
INSERT
  5
8449
330
7DB2
100
AcDbEntity
  8
3
 62
     0
440
 16777216
370
    -2
100
AcDbBlockReference
  2
_OPEN
 10
6326.500975653525
 20
2320.828456891717
 30
0.0
 41
80.0
 42
80.0
 43
80.0
  0
MTEXT
  5
844A
330
7DB2
100
AcDbEntity
  8
3
 62
     0
440
 16777216
100
AcDbMText
 10
5731.000975653524
 20
2420.828456891717
 30
0.0
 40
120.0
 41
0.0
 46
0.0
 71
     5
 72
     1
  1
\A1;1191
 73
     1
 44
1.0
  0
POINT
  5
844B
330
7DB2
100
AcDbEntity
  8
DEFPOINTS
 62
     0
440
 16777216
100
AcDbPoint
 10
5135.500975653524
 20
2641.144075523784
 30
0.0
  0
POINT
  5
844C
330
7DB2
100
AcDbEntity
  8
DEFPOINTS
 62
     0
440
 16777216
100
AcDbPoint
 10
6326.500975653525
 20
2641.144075523784
 30
0.0
  0
POINT
  5
844D
330
7DB2
100
AcDbEntity
  8
DEFPOINTS
 62
     0
440
 16777216
100
AcDbPoint
 10
6326.500975653525
 20
2320.828456891717
 30
0.0
  0
ENDBLK
  5
816E
330
7DB2
100
AcDbEntity
  8
0
100
AcDbBlockEnd
  0
BLOCK
  5
8159
330
7DBE
100
AcDbEntity
  8
0
100
AcDbBlockBegin
  2
*D13
 70
     1
 10
0.0
 20
0.0
 30
0.0
  3
*D13
  1

  0
LINE
  5
844E
330
7DBE
100
AcDbEntity
  8
3
 62
     0
440
 16777216
370
    -2
100
AcDbLine
 10
6326.500975653525
 20
2621.144075523784
 30
0.0
 11
6326.500975653525
 21
2280.828456891717
 31
0.0
  0
LINE
  5
844F
330
7DBE
100
AcDbEntity
  8
3
 62
     0
440
 16777216
370
    -2
100
AcDbLine
 10
7255.500975653525
 20
2621.144075523784
 30
0.0
 11
7255.500975653525
 21
2280.828456891717
 31
0.0
  0
LINE
  5
8450
330
7DBE
100
AcDbEntity
  8
3
 62
     0
440
 16777216
370
    -2
100
AcDbLine
 10
6406.500975653525
 20
2320.828456891717
 30
0.0
 11
7175.500975653526
 21
2320.828456891717
 31
0.0
  0
INSERT
  5
8451
330
7DBE
100
AcDbEntity
  8
3
 62
     0
440
 16777216
370
    -2
100
AcDbBlockReference
  2
_OPEN
 10
6326.500975653525
 20
2320.828456891717
 30
0.0
 41
80.0
 42
80.0
 43
80.0
 50
180.0
  0
INSERT
  5
8452
330
7DBE
100
AcDbEntity
  8
3
 62
     0
440
 16777216
370
    -2
100
AcDbBlockReference
  2
_OPEN
 10
7255.500975653525
 20
2320.828456891717
 30
0.0
 41
80.0
 42
80.0
 43
80.0
  0
MTEXT
  5
8453
330
7DBE
100
AcDbEntity
  8
3
 62
     0
440
 16777216
100
AcDbMText
 10
6791.000975653526
 20
2420.828456891717
 30
0.0
 40
120.0
 41
0.0
 46
0.0
 71
     5
 72
     1
  1
\A1;929
 73
     1
 44
1.0
  0
POINT
  5
8454
330
7DBE
100
AcDbEntity
  8
DEFPOINTS
 62
     0
440
 16777216
100
AcDbPoint
 10
6326.500975653525
 20
2641.144075523784
 30
0.0
  0
POINT
  5
8455
330
7DBE
100
AcDbEntity
  8
DEFPOINTS
 62
     0
440
 16777216
100
AcDbPoint
 10
7255.500975653525
 20
2641.144075523784
 30
0.0
  0
POINT
  5
8456
330
7DBE
100
AcDbEntity
  8
DEFPOINTS
 62
     0
440
 16777216
100
AcDbPoint
 10
7255.500975653525
 20
2320.828456891717
 30
0.0
  0
ENDBLK
  5
8163
330
7DBE
100
AcDbEntity
  8
0
100
AcDbBlockEnd
  0
BLOCK
  5
81DE
330
7DE2
100
AcDbEntity
  8
0
100
AcDbBlockBegin
  2
*D14
 70
     1
 10
0.0
 20
0.0
 30
0.0
  3
*D14
  1

  0
LINE
  5
8325
330
7DE2
100
AcDbEntity
  8
3
 62
     0
440
 16777216
100
AcDbLine
 10
3616.156955993246
 20
8536.027814553497
 30
0.0
 11
4085.17309722908
 21
8536.027814553497
 31
0.0
  0
LINE
  5
8326
330
7DE2
100
AcDbEntity
  8
3
 62
     0
440
 16777216
100
AcDbLine
 10
3616.156955993246
 20
6416.027814553498
 30
0.0
 11
4085.173097229079
 21
6416.027814553498
 31
0.0
  0
LINE
  5
8327
330
7DE2
100
AcDbEntity
  8
3
 62
     0
440
 16777216
100
AcDbLine
 10
4045.17309722908
 20
8456.027814553499
 30
0.0
 11
4045.173097229079
 21
6496.027814553497
 31
0.0
  0
INSERT
  5
8328
330
7DE2
100
AcDbEntity
  8
3
 62
     0
440
 16777216
100
AcDbBlockReference
  2
_OPEN
 10
4045.17309722908
 20
8536.027814553497
 30
0.0
 41
80.0
 42
80.0
 43
80.0
 50
90.0
  0
INSERT
  5
8329
330
7DE2
100
AcDbEntity
  8
3
 62
     0
440
 16777216
100
AcDbBlockReference
  2
_OPEN
 10
4045.173097229079
 20
6416.027814553498
 30
0.0
 41
80.0
 42
80.0
 43
80.0
 50
270.0
  0
MTEXT
  5
832A
330
7DE2
100
AcDbEntity
  8
3
 62
     0
440
 16777216
100
AcDbMText
 10
3945.173097229078
 20
7476.027814553498
 30
0.0
 40
120.0
 41
0.0
 46
0.0
 71
     5
 72
     5
  1
\A1;2120
 11
0.0000000000000001
 21
1.0
 31
0.0
 73
     1
 44
1.0
  0
POINT
  5
832B
330
7DE2
100
AcDbEntity
  8
DEFPOINTS
 62
     0
440
 16777216
100
AcDbPoint
 10
3596.156955993245
 20
8536.027814553497
 30
0.0
  0
POINT
  5
832C
330
7DE2
100
AcDbEntity
  8
DEFPOINTS
 62
     0
440
 16777216
100
AcDbPoint
 10
3596.156955993245
 20
6416.027814553498
 30
0.0
  0
POINT
  5
832D
330
7DE2
100
AcDbEntity
  8
DEFPOINTS
 62
     0
440
 16777216
100
AcDbPoint
 10
4045.173097229079
 20
6416.027814553498
 30
0.0
  0
ENDBLK
  5
81E8
330
7DE2
100
AcDbEntity
  8
0
100
AcDbBlockEnd
  0
BLOCK
  5
7F6E
330
7DEE
100
AcDbEntity
  8
0
100
AcDbBlockBegin
  2
*D15
 70
     1
 10
0.0
 20
0.0
 30
0.0
  3
*D15
  1

  0
LINE
  5
832E
330
7DEE
100
AcDbEntity
  8
3
 62
     0
440
 16777216
100
AcDbLine
 10
3596.156955993245
 20
8556.027814553498
 30
0.0
 11
3596.156955993245
 21
8780.663953058683
 31
0.0
  0
LINE
  5
832F
330
7DEE
100
AcDbEntity
  8
3
 62
     0
440
 16777216
100
AcDbLine
 10
2096.156955993245
 20
8556.027814553498
 30
0.0
 11
2096.156955993245
 21
8780.663953058683
 31
0.0
  0
LINE
  5
8330
330
7DEE
100
AcDbEntity
  8
3
 62
     0
440
 16777216
100
AcDbLine
 10
3516.156955993245
 20
8740.663953058682
 30
0.0
 11
2176.156955993245
 21
8740.663953058682
 31
0.0
  0
INSERT
  5
8331
330
7DEE
100
AcDbEntity
  8
3
 62
     0
440
 16777216
100
AcDbBlockReference
  2
_OPEN
 10
3596.156955993245
 20
8740.663953058682
 30
0.0
 41
80.0
 42
80.0
 43
80.0
  0
INSERT
  5
8332
330
7DEE
100
AcDbEntity
  8
3
 62
     0
440
 16777216
100
AcDbBlockReference
  2
_OPEN
 10
2096.156955993245
 20
8740.663953058682
 30
0.0
 41
80.0
 42
80.0
 43
80.0
 50
180.0
  0
MTEXT
  5
8333
330
7DEE
100
AcDbEntity
  8
3
 62
     0
440
 16777216
100
AcDbMText
 10
2846.156955993245
 20
8840.663953058681
 30
0.0
 40
120.0
 41
0.0
 46
0.0
 71
     5
 72
     5
  1
\A1;1500
 73
     1
 44
1.0
  0
POINT
  5
8334
330
7DEE
100
AcDbEntity
  8
DEFPOINTS
 62
     0
440
 16777216
100
AcDbPoint
 10
3596.156955993245
 20
8536.027814553497
 30
0.0
  0
POINT
  5
8335
330
7DEE
100
AcDbEntity
  8
DEFPOINTS
 62
     0
440
 16777216
100
AcDbPoint
 10
2096.156955993245
 20
8536.027814553497
 30
0.0
  0
POINT
  5
8336
330
7DEE
100
AcDbEntity
  8
DEFPOINTS
 62
     0
440
 16777216
100
AcDbPoint
 10
2096.156955993245
 20
8740.663953058682
 30
0.0
  0
ENDBLK
  5
7F78
330
7DEE
100
AcDbEntity
  8
0
100
AcDbBlockEnd
  0
BLOCK
  5
81EB
330
7DFA
100
AcDbEntity
  8
0
100
AcDbBlockBegin
  2
*D16
 70
     1
 10
0.0
 20
0.0
 30
0.0
  3
*D16
  1

  0
LINE
  5
8337
330
7DFA
100
AcDbEntity
  8
3
 62
     0
440
 16777216
100
AcDbLine
 10
2096.156955993245
 20
8556.027814553498
 30
0.0
 11
2096.156955993245
 21
8780.663953058683
 31
0.0
  0
LINE
  5
8338
330
7DFA
100
AcDbEntity
  8
3
 62
     0
440
 16777216
100
AcDbLine
 10
946.1569559932449
 20
7536.027814553498
 30
0.0
 11
946.1569559932451
 21
8780.663953058683
 31
0.0
  0
LINE
  5
8339
330
7DFA
100
AcDbEntity
  8
3
 62
     0
440
 16777216
100
AcDbLine
 10
2016.156955993245
 20
8740.663953058682
 30
0.0
 11
1026.156955993245
 21
8740.663953058682
 31
0.0
  0
INSERT
  5
833A
330
7DFA
100
AcDbEntity
  8
3
 62
     0
440
 16777216
100
AcDbBlockReference
  2
_OPEN
 10
2096.156955993245
 20
8740.663953058682
 30
0.0
 41
80.0
 42
80.0
 43
80.0
  0
INSERT
  5
833B
330
7DFA
100
AcDbEntity
  8
3
 62
     0
440
 16777216
100
AcDbBlockReference
  2
_OPEN
 10
946.1569559932451
 20
8740.663953058682
 30
0.0
 41
80.0
 42
80.0
 43
80.0
 50
180.0
  0
MTEXT
  5
833C
330
7DFA
100
AcDbEntity
  8
3
 62
     0
440
 16777216
100
AcDbMText
 10
1521.156955993245
 20
8840.663953058681
 30
0.0
 40
120.0
 41
0.0
 46
0.0
 71
     5
 72
     5
  1
\A1;1150
 73
     1
 44
1.0
  0
POINT
  5
833D
330
7DFA
100
AcDbEntity
  8
DEFPOINTS
 62
     0
440
 16777216
100
AcDbPoint
 10
2096.156955993245
 20
8536.027814553497
 30
0.0
  0
POINT
  5
833E
330
7DFA
100
AcDbEntity
  8
DEFPOINTS
 62
     0
440
 16777216
100
AcDbPoint
 10
946.1569559932449
 20
7516.027814553497
 30
0.0
  0
POINT
  5
833F
330
7DFA
100
AcDbEntity
  8
DEFPOINTS
 62
     0
440
 16777216
100
AcDbPoint
 10
946.1569559932451
 20
8740.663953058682
 30
0.0
  0
ENDBLK
  5
81F5
330
7DFA
100
AcDbEntity
  8
0
100
AcDbBlockEnd
  0
BLOCK
  5
81F6
330
7E05
100
AcDbEntity
  8
0
100
AcDbBlockBegin
  2
*D17
 70
     1
 10
0.0
 20
0.0
 30
0.0
  3
*D17
  1

  0
LINE
  5
8340
330
7E05
100
AcDbEntity
  8
3
 62
     0
440
 16777216
100
AcDbLine
 10
926.156955993245
 20
7516.027814553497
 30
0.0
 11
639.8305548856662
 21
7516.027814553497
 31
0.0
  0
LINE
  5
8341
330
7E05
100
AcDbEntity
  8
3
 62
     0
440
 16777216
100
AcDbLine
 10
926.156955993245
 20
6416.027814553498
 30
0.0
 11
639.8305548856661
 21
6416.027814553498
 31
0.0
  0
LINE
  5
8342
330
7E05
100
AcDbEntity
  8
3
 62
     0
440
 16777216
100
AcDbLine
 10
679.8305548856663
 20
7436.027814553497
 30
0.0
 11
679.830554885666
 21
6496.027814553497
 31
0.0
  0
INSERT
  5
8343
330
7E05
100
AcDbEntity
  8
3
 62
     0
440
 16777216
100
AcDbBlockReference
  2
_OPEN
 10
679.8305548856663
 20
7516.027814553497
 30
0.0
 41
80.0
 42
80.0
 43
80.0
 50
90.0
  0
INSERT
  5
8344
330
7E05
100
AcDbEntity
  8
3
 62
     0
440
 16777216
100
AcDbBlockReference
  2
_OPEN
 10
679.830554885666
 20
6416.027814553498
 30
0.0
 41
80.0
 42
80.0
 43
80.0
 50
270.0
  0
MTEXT
  5
8345
330
7E05
100
AcDbEntity
  8
3
 62
     0
440
 16777216
100
AcDbMText
 10
579.830554885665
 20
6966.027814553497
 30
0.0
 40
120.0
 41
0.0
 46
0.0
 71
     5
 72
     5
  1
\A1;1100
 11
0.0000000000000001
 21
1.0
 31
0.0
 73
     1
 44
1.0
  0
POINT
  5
8346
330
7E05
100
AcDbEntity
  8
DEFPOINTS
 62
     0
440
 16777216
100
AcDbPoint
 10
946.1569559932449
 20
7516.027814553497
 30
0.0
  0
POINT
  5
8347
330
7E05
100
AcDbEntity
  8
DEFPOINTS
 62
     0
440
 16777216
100
AcDbPoint
 10
946.1569559932449
 20
6416.027814553498
 30
0.0
  0
POINT
  5
8348
330
7E05
100
AcDbEntity
  8
DEFPOINTS
 62
     0
440
 16777216
100
AcDbPoint
 10
679.830554885666
 20
6416.027814553498
 30
0.0
  0
ENDBLK
  5
8200
330
7E05
100
AcDbEntity
  8
0
100
AcDbBlockEnd
  0
BLOCK
  5
81C8
330
7E11
100
AcDbEntity
  8
0
100
AcDbBlockBegin
  2
*D18
 70
     1
 10
0.0
 20
0.0
 30
0.0
  3
*D18
  1

  0
LINE
  5
8349
330
7E11
100
AcDbEntity
  8
3
 62
     0
440
 16777216
100
AcDbLine
 10
946.1569559932449
 20
6396.027814553498
 30
0.0
 11
946.1569559932449
 21
6000.273936363845
 31
0.0
  0
LINE
  5
834A
330
7E11
100
AcDbEntity
  8
3
 62
     0
440
 16777216
100
AcDbLine
 10
3596.156955993245
 20
6396.027814553497
 30
0.0
 11
3596.156955993245
 21
6000.273936363845
 31
0.0
  0
LINE
  5
834B
330
7E11
100
AcDbEntity
  8
3
 62
     0
440
 16777216
100
AcDbLine
 10
1026.156955993245
 20
6040.273936363845
 30
0.0
 11
3516.156955993245
 21
6040.273936363845
 31
0.0
  0
INSERT
  5
834C
330
7E11
100
AcDbEntity
  8
3
 62
     0
440
 16777216
100
AcDbBlockReference
  2
_OPEN
 10
946.1569559932449
 20
6040.273936363845
 30
0.0
 41
80.0
 42
80.0
 43
80.0
 50
180.0
  0
INSERT
  5
834D
330
7E11
100
AcDbEntity
  8
3
 62
     0
440
 16777216
100
AcDbBlockReference
  2
_OPEN
 10
3596.156955993245
 20
6040.273936363845
 30
0.0
 41
80.0
 42
80.0
 43
80.0
  0
MTEXT
  5
834E
330
7E11
100
AcDbEntity
  8
3
 62
     0
440
 16777216
100
AcDbMText
 10
2271.156955993245
 20
6140.273936363844
 30
0.0
 40
120.0
 41
0.0
 46
0.0
 71
     5
 72
     5
  1
\A1;2650
 73
     1
 44
1.0
  0
POINT
  5
834F
330
7E11
100
AcDbEntity
  8
DEFPOINTS
 62
     0
440
 16777216
100
AcDbPoint
 10
946.1569559932449
 20
6416.027814553498
 30
0.0
  0
POINT
  5
8350
330
7E11
100
AcDbEntity
  8
DEFPOINTS
 62
     0
440
 16777216
100
AcDbPoint
 10
3596.156955993245
 20
6416.027814553498
 30
0.0
  0
POINT
  5
8351
330
7E11
100
AcDbEntity
  8
DEFPOINTS
 62
     0
440
 16777216
100
AcDbPoint
 10
3596.156955993245
 20
6040.273936363845
 30
0.0
  0
ENDBLK
  5
81D2
330
7E11
100
AcDbEntity
  8
0
100
AcDbBlockEnd
  0
BLOCK
  5
8143
330
7E1D
100
AcDbEntity
  8
0
100
AcDbBlockBegin
  2
*D19
 70
     1
 10
0.0
 20
0.0
 30
0.0
  3
*D19
  1

  0
LINE
  5
8352
330
7E1D
100
AcDbEntity
  8
3
 62
     0
440
 16777216
100
AcDbLine
 10
3671.156955993245
 20
5153.144075523783
 30
0.0
 11
3671.156955993245
 21
5647.120238149416
 31
0.0
  0
LINE
  5
8353
330
7E1D
100
AcDbEntity
  8
3
 62
     0
440
 16777216
100
AcDbLine
 10
946.1569559932449
 20
2966.144075523784
 30
0.0
 11
946.1569559932451
 21
5647.120238149416
 31
0.0
  0
LINE
  5
8354
330
7E1D
100
AcDbEntity
  8
3
 62
     0
440
 16777216
100
AcDbLine
 10
3591.156955993245
 20
5607.120238149416
 30
0.0
 11
1026.156955993245
 21
5607.120238149416
 31
0.0
  0
INSERT
  5
8355
330
7E1D
100
AcDbEntity
  8
3
 62
     0
440
 16777216
100
AcDbBlockReference
  2
_OPEN
 10
3671.156955993245
 20
5607.120238149416
 30
0.0
 41
80.0
 42
80.0
 43
80.0
  0
INSERT
  5
8356
330
7E1D
100
AcDbEntity
  8
3
 62
     0
440
 16777216
100
AcDbBlockReference
  2
_OPEN
 10
946.1569559932451
 20
5607.120238149416
 30
0.0
 41
80.0
 42
80.0
 43
80.0
 50
180.0
  0
MTEXT
  5
8357
330
7E1D
100
AcDbEntity
  8
3
 62
     0
440
 16777216
100
AcDbMText
 10
2308.656955993245
 20
5707.120238149417
 30
0.0
 40
120.0
 41
0.0
 46
0.0
 71
     5
 72
     5
  1
\A1;2725
 73
     1
 44
1.0
  0
POINT
  5
8358
330
7E1D
100
AcDbEntity
  8
DEFPOINTS
 62
     0
440
 16777216
100
AcDbPoint
 10
3671.156955993245
 20
5133.144075523784
 30
0.0
  0
POINT
  5
8359
330
7E1D
100
AcDbEntity
  8
DEFPOINTS
 62
     0
440
 16777216
100
AcDbPoint
 10
946.1569559932449
 20
2946.144075523784
 30
0.0
  0
POINT
  5
835A
330
7E1D
100
AcDbEntity
  8
DEFPOINTS
 62
     0
440
 16777216
100
AcDbPoint
 10
946.1569559932451
 20
5607.120238149416
 30
0.0
  0
ENDBLK
  5
814D
330
7E1D
100
AcDbEntity
  8
0
100
AcDbBlockEnd
  0
BLOCK
  5
7F32
330
7F31
100
AcDbEntity
  8
0
100
AcDbBlockBegin
  2
_OPEN
 70
     0
 10
0.0
 20
0.0
 30
0.0
  3
_OPEN
  1

  0
LINE
  5
7F33
330
7F31
100
AcDbEntity
  8
0
  6
ByBlock
 62
     0
100
AcDbLine
 10
-1.0
 20
0.1666666666666666
 30
0.0
 11
0.0
 21
0.0
 31
0.0
  0
LINE
  5
7F34
330
7F31
100
AcDbEntity
  8
0
  6
ByBlock
 62
     0
100
AcDbLine
 10
0.0
 20
0.0
 30
0.0
 11
-1.0
 21
-0.1666666666666666
 31
0.0
  0
LINE
  5
7F35
330
7F31
100
AcDbEntity
  8
0
  6
ByBlock
 62
     0
100
AcDbLine
 10
0.0
 20
0.0
 30
0.0
 11
-1.0
 21
0.0
 31
0.0
  0
ENDBLK
  5
7F36
330
7F31
100
AcDbEntity
  8
0
100
AcDbBlockEnd
  0
BLOCK
  5
8210
330
803A
100
AcDbEntity
  8
0
100
AcDbBlockBegin
  2
*D21
 70
     1
 10
0.0
 20
0.0
 30
0.0
  3
*D21
  1

  0
LINE
  5
8428
330
803A
100
AcDbEntity
  8
3
 62
     0
440
 16777216
370
    -2
100
AcDbLine
 10
3616.156955993246
 20
2716.144075523784
 30
0.0
 11
4210.578222735581
 21
2716.144075523784
 31
0.0
  0
LINE
  5
8429
330
803A
100
AcDbEntity
  8
3
 62
     0
440
 16777216
370
    -2
100
AcDbLine
 10
3616.156955993246
 20
2641.144075523784
 30
0.0
 11
4210.578222735581
 21
2641.144075523784
 31
0.0
  0
LINE
  5
842A
330
803A
100
AcDbEntity
  8
3
 62
     0
440
 16777216
370
    -2
100
AcDbLine
 10
4170.57822273558
 20
2796.144075523784
 30
0.0
 11
4170.57822273558
 21
2876.144075523784
 31
0.0
  0
LINE
  5
842B
330
803A
100
AcDbEntity
  8
3
 62
     0
440
 16777216
370
    -2
100
AcDbLine
 10
4170.57822273558
 20
2561.144075523784
 30
0.0
 11
4170.57822273558
 21
2206.85836123807
 31
0.0
  0
LINE
  5
842C
330
803A
100
AcDbEntity
  8
3
 62
     0
440
 16777216
370
    -2
100
AcDbLine
 10
4170.57822273558
 20
2716.144075523784
 30
0.0
 11
4170.57822273558
 21
2641.144075523784
 31
0.0
  0
INSERT
  5
842D
330
803A
100
AcDbEntity
  8
3
 62
     0
440
 16777216
370
    -2
100
AcDbBlockReference
  2
_DOT
 10
4170.57822273558
 20
2716.144075523784
 30
0.0
 41
80.0
 42
80.0
 43
80.0
 50
270.0
  0
INSERT
  5
842E
330
803A
100
AcDbEntity
  8
3
 62
     0
440
 16777216
370
    -2
100
AcDbBlockReference
  2
_OPEN
 10
4170.57822273558
 20
2641.144075523784
 30
0.0
 41
80.0
 42
80.0
 43
80.0
 50
90.0
  0
MTEXT
  5
842F
330
803A
100
AcDbEntity
  8
3
 62
     0
440
 16777216
100
AcDbMText
 10
4070.57822273558
 20
2344.001218380928
 30
0.0
 40
120.0
 41
0.0
 46
0.0
 71
     5
 72
     1
  1
\A1;75
 11
0.0000000000000001
 21
1.0
 31
0.0
 73
     1
 44
1.0
  0
POINT
  5
8430
330
803A
100
AcDbEntity
  8
DEFPOINTS
 62
     0
440
 16777216
100
AcDbPoint
 10
3596.156955993245
 20
2716.144075523784
 30
0.0
  0
POINT
  5
8431
330
803A
100
AcDbEntity
  8
DEFPOINTS
 62
     0
440
 16777216
100
AcDbPoint
 10
3596.156955993246
 20
2641.144075523784
 30
0.0
  0
POINT
  5
8432
330
803A
100
AcDbEntity
  8
DEFPOINTS
 62
     0
440
 16777216
100
AcDbPoint
 10
4170.57822273558
 20
2641.144075523784
 30
0.0
  0
ENDBLK
  5
821C
330
803A
100
AcDbEntity
  8
0
100
AcDbBlockEnd
  0
BLOCK
  5
80B2
330
80B1
100
AcDbEntity
  8
0
100
AcDbBlockBegin
  2
_DOT
 70
     0
 10
0.0
 20
0.0
 30
0.0
  3
_DOT
  1

  0
LINE
  5
80D2
330
80B1
100
AcDbEntity
  8
0
  6
ByBlock
 62
     0
100
AcDbLine
 10
0.0
 20
0.0
 30
0.0
 11
-1.0
 21
-0.0000000000000284
 31
0.0
  0
LWPOLYLINE
  5
80D3
330
80B1
100
AcDbEntity
  8
0
  6
ByBlock
 62
     0
100
AcDbPolyline
 90
        2
 70
     1
 43
0.1666666666666666
 10
-0.0833333333333286
 20
-0.0000000000000284
 42
1.0
 10
0.0833333333333286
 20
-0.0000000000000284
 42
1.0
  0
ENDBLK
  5
80B8
330
80B1
100
AcDbEntity
  8
0
100
AcDbBlockEnd
  0
BLOCK
  5
822A
330
8229
100
AcDbEntity
  8
0
100
AcDbBlockBegin
  2
_NONE
 70
     0
 10
0.0
 20
0.0
 30
0.0
  3
_NONE
  1

  0
CIRCLE
  5
822B
330
8229
100
AcDbEntity
  8
0
  6
ByBlock
 62
     0
100
AcDbCircle
 10
0.0
 20
0.0
 30
0.0
 40
0.25
  0
ENDBLK
  5
822C
330
8229
100
AcDbEntity
  8
0
100
AcDbBlockEnd
  0
BLOCK
  5
826E
330
8246
100
AcDbEntity
  8
0
100
AcDbBlockBegin
  2
*D24
 70
     1
 10
0.0
 20
0.0
 30
0.0
  3
*D24
  1

  0
LINE
  5
8465
330
8246
100
AcDbEntity
  8
3
 62
     0
440
 16777216
370
    -2
100
AcDbLine
 10
4172.146595954378
 20
2716.144075523784
 30
0.0
 11
4172.146595954378
 21
2821.144075523784
 31
0.0
  0
MTEXT
  5
8466
330
8246
100
AcDbEntity
  8
3
 62
     0
440
 16777216
100
AcDbMText
 10
4318.32554115144
 20
2768.644075523784
 30
0.0
 40
120.0
 41
0.0
 46
0.0
 71
     5
 72
     1
  1
\A1;   (105)
 11
0.0000000000000001
 21
1.0
 31
0.0
 73
     1
 44
1.0
  0
POINT
  5
8467
330
8246
100
AcDbEntity
  8
DEFPOINTS
 62
     0
440
 16777216
100
AcDbPoint
 10
3596.156955993245
 20
2716.144075523784
 30
0.0
  0
POINT
  5
8468
330
8246
100
AcDbEntity
  8
DEFPOINTS
 62
     0
440
 16777216
100
AcDbPoint
 10
3596.156955993245
 20
2821.144075523784
 30
0.0
  0
POINT
  5
8469
330
8246
100
AcDbEntity
  8
DEFPOINTS
 62
     0
440
 16777216
100
AcDbPoint
 10
4172.146595954378
 20
2821.144075523784
 30
0.0
  0
ENDBLK
  5
8274
330
8246
100
AcDbEntity
  8
0
100
AcDbBlockEnd
  0
BLOCK
  5
8250
330
824F
100
AcDbEntity
  8
0
100
AcDbBlockBegin
  2
*D25
 70
     1
 10
0.0
 20
0.0
 30
0.0
  3
*D25
  1

  0
LINE
  5
845C
330
824F
100
AcDbEntity
  8
3
 62
     0
440
 16777216
370
    -2
100
AcDbLine
 10
3691.156955993245
 20
5080.144075523783
 30
0.0
 11
4559.381584150906
 21
5080.144075523783
 31
0.0
  0
LINE
  5
845D
330
824F
100
AcDbEntity
  8
3
 62
     0
440
 16777216
370
    -2
100
AcDbLine
 10
3616.156955993246
 20
2641.144075523784
 30
0.0
 11
4559.381584150906
 21
2641.144075523784
 31
0.0
  0
LINE
  5
845E
330
824F
100
AcDbEntity
  8
3
 62
     0
440
 16777216
370
    -2
100
AcDbLine
 10
4519.381584150905
 20
5000.144075523784
 30
0.0
 11
4519.381584150905
 21
2721.144075523784
 31
0.0
  0
INSERT
  5
845F
330
824F
100
AcDbEntity
  8
3
 62
     0
440
 16777216
370
    -2
100
AcDbBlockReference
  2
_OPEN
 10
4519.381584150905
 20
5080.144075523783
 30
0.0
 41
80.0
 42
80.0
 43
80.0
 50
90.0
  0
INSERT
  5
8460
330
824F
100
AcDbEntity
  8
3
 62
     0
440
 16777216
370
    -2
100
AcDbBlockReference
  2
_OPEN
 10
4519.381584150905
 20
2641.144075523784
 30
0.0
 41
80.0
 42
80.0
 43
80.0
 50
270.0
  0
MTEXT
  5
8461
330
824F
100
AcDbEntity
  8
3
 62
     0
440
 16777216
100
AcDbMText
 10
4387.953012722333
 20
3860.644075523784
 30
0.0
 40
120.0
 41
0.0
 46
0.0
 71
     5
 72
     1
  1
\A1;(2439)
 11
0.0000000000000001
 21
1.0
 31
0.0
 73
     1
 44
1.0
  0
POINT
  5
8462
330
824F
100
AcDbEntity
  8
DEFPOINTS
 62
     0
440
 16777216
100
AcDbPoint
 10
3671.156955993245
 20
5080.144075523783
 30
0.0
  0
POINT
  5
8463
330
824F
100
AcDbEntity
  8
DEFPOINTS
 62
     0
440
 16777216
100
AcDbPoint
 10
3596.156955993245
 20
2641.144075523784
 30
0.0
  0
POINT
  5
8464
330
824F
100
AcDbEntity
  8
DEFPOINTS
 62
     0
440
 16777216
100
AcDbPoint
 10
4519.381584150905
 20
2641.144075523784
 30
0.0
  0
ENDBLK
  5
825A
330
824F
100
AcDbEntity
  8
0
100
AcDbBlockEnd
  0
ENDSEC
  0
SECTION
  2
ENTITIES
  0
INSERT
  5
7C23
330
19
100
AcDbEntity
  8
0
100
AcDbBlockReference
  2
YA_N
 10
6.0
 20
5.0
 30
0.0
  0
LINE
  5
7C24
330
19
100
AcDbEntity
  8
2
100
AcDbLine
 10
2846.156955993245
 20
5101.429794629098
 30
0.0
 11
2846.156955993245
 21
2641.144075523784
 31
0.0
  0
ARC
  5
7C25
330
19
100
AcDbEntity
  8
1
100
AcDbCircle
 10
2937.156955993245
 20
3837.144075523784
 30
0.0
 40
1170.0
100
AcDbArc
 50
94.46084369787397
 51
184.4608436978739
  0
ARC
  5
7C26
330
19
100
AcDbEntity
  8
1
100
AcDbCircle
 10
2755.156955993245
 20
3837.144075523784
 30
0.0
 40
988.0
100
AcDbArc
 50
185.2847329545345
 51
244.3985859526253
  0
ARC
  5
7C27
330
19
100
AcDbEntity
  8
1
100
AcDbCircle
 10
2769.156955993245
 20
3669.144075523784
 30
0.0
 40
820.0
100
AcDbArc
 50
298.1509931295181
 51
2.7575147557921
  0
LINE
  5
7C28
330
19
100
AcDbEntity
  8
1
100
AcDbLine
 10
2846.156955993245
 20
5003.599818361891
 30
0.0
 11
3671.156955993245
 21
5080.144075523783
 31
0.0
  0
LINE
  5
7C29
330
19
100
AcDbEntity
  8
1
100
AcDbLine
 10
3596.156955993245
 20
2821.144075523784
 30
0.0
 11
946.1569559932449
 21
2821.144075523784
 31
0.0
1001
ACAD
1000
ASC_BOUNDS
1002
{
1070
    19
1002
}
  0
LINE
  5
7C2A
330
19
100
AcDbEntity
  8
1
100
AcDbLine
 10
3596.156955993245
 20
2946.144075523784
 30
0.0
 11
946.1569559932449
 21
2946.144075523784
 31
0.0
  0
LINE
  5
7C2B
330
19
100
AcDbEntity
  8
1
100
AcDbLine
 10
3596.156955993246
 20
2946.144075523784
 30
0.0
 11
3596.156955993245
 21
2821.144075523784
 31
0.0
  0
LINE
  5
7C2C
330
19
100
AcDbEntity
  8
1
100
AcDbLine
 10
946.1569559932449
 20
2946.144075523784
 30
0.0
 11
946.1569559932449
 21
2821.144075523784
 31
0.0
  0
LINE
  5
7C2D
330
19
100
AcDbEntity
  8
2
100
AcDbLine
 10
1226.156955993245
 20
3496.998592129494
 30
0.0
 11
1226.156955993245
 21
2641.144075523784
 31
0.0
  0
LINE
  5
7C2E
330
19
100
AcDbEntity
  8
2
100
AcDbLine
 10
1506.471172751397
 20
3206.144075523784
 30
0.0
 11
818.9924776985298
 21
3206.144075523784
 31
0.0
  0
LINE
  5
7C2F
330
19
100
AcDbEntity
  8
1
100
AcDbLine
 10
3671.156955993245
 20
3800.144075523784
 30
0.0
 11
3587.192042881849
 21
3800.144075523784
 31
0.0
  0
LINE
  5
7C30
330
19
100
AcDbEntity
  8
1
100
AcDbLine
 10
3621.156955993245
 20
5075.505029635184
 30
0.0
 11
3621.156955993245
 21
3800.144075523784
 31
0.0
  0
LINE
  5
7C31
330
19
100
AcDbEntity
  8
1
100
AcDbLine
 10
3671.156955993245
 20
5133.144075523784
 30
0.0
 11
3671.156955993245
 21
3747.144075523784
 31
0.0
  0
LINE
  5
7C32
330
19
100
AcDbEntity
  8
1
100
AcDbLine
 10
5135.500975653525
 20
2821.144075523784
 30
0.0
 11
7255.500975653524
 21
2821.144075523784
 31
0.0
1001
ACAD
1000
ASC_BOUNDS
1002
{
1070
    19
1005
0
1005
0
1002
}
  0
LINE
  5
7C33
330
19
100
AcDbEntity
  8
1
100
AcDbLine
 10
5135.500975653525
 20
2946.144075523784
 30
0.0
 11
7255.500975653527
 21
2946.144075523784
 31
0.0
  0
LINE
  5
7C34
330
19
100
AcDbEntity
  8
1
100
AcDbLine
 10
7176.500975653524
 20
5080.144075523783
 30
0.0
 11
7176.500975653529
 21
2946.144075523784
 31
0.0
  0
LINE
  5
7C35
330
19
100
AcDbEntity
  8
1
100
AcDbLine
 10
5476.500975653525
 20
5080.144075523783
 30
0.0
 11
5476.500975653525
 21
2946.144075523784
 31
0.0
  0
LINE
  5
7C39
330
19
100
AcDbEntity
  8
2
100
AcDbLine
 10
3749.593494242097
 20
3746.144075523784
 30
0.0
 11
1686.001718075196
 21
3746.144075523784
 31
0.0
  0
LINE
  5
7C3A
330
19
100
AcDbEntity
  8
2
100
AcDbLine
 10
5111.200975653527
 20
3746.144075523784
 30
0.0
 11
7360.011461892762
 21
3746.144075523784
 31
0.0
  0
LINE
  5
7C3B
330
19
100
AcDbEntity
  8
2
100
AcDbLine
 10
5099.998249057149
 20
3206.144075523784
 30
0.0
 11
5476.500975653526
 21
3206.144075523784
 31
0.0
  0
LINE
  5
7C3C
330
19
100
AcDbEntity
  8
1
100
AcDbLine
 10
5131.500975653526
 20
3312.144075523784
 30
0.0
 11
5209.400975653525
 21
3312.144075523784
 31
0.0
  0
LINE
  5
7C3D
330
19
100
AcDbEntity
  8
1
100
AcDbLine
 10
5131.500975653526
 20
3100.144075523784
 30
0.0
 11
5209.400975653526
 21
3100.144075523784
 31
0.0
  0
LINE
  5
7C3E
330
19
100
AcDbEntity
  8
1
100
AcDbLine
 10
5229.500975653526
 20
3816.144075523784
 30
0.0
 11
5229.500975653526
 21
3676.144075523783
 31
0.0
  0
LINE
  5
7C3F
330
19
100
AcDbEntity
  8
1
100
AcDbLine
 10
5209.400975653526
 20
4000.144075523784
 30
0.0
 11
5209.400975653526
 21
3816.144075523784
 31
0.0
  0
LINE
  5
7C40
330
19
100
AcDbEntity
  8
1
100
AcDbLine
 10
5209.400975653526
 20
3816.144075523784
 30
0.0
 11
5229.500975653526
 21
3816.144075523784
 31
0.0
  0
LINE
  5
7C41
330
19
100
AcDbEntity
  8
1
100
AcDbLine
 10
5209.400975653525
 20
3676.144075523783
 30
0.0
 11
5229.500975653526
 21
3676.144075523783
 31
0.0
  0
LINE
  5
7C42
330
19
100
AcDbEntity
  8
1
100
AcDbLine
 10
5209.400975653526
 20
3676.144075523783
 30
0.0
 11
5209.400975653526
 21
3266.144075523783
 31
0.0
  0
LINE
  5
7C43
330
19
100
AcDbEntity
  8
1
100
AcDbLine
 10
5131.500975653526
 20
4000.144075523784
 30
0.0
 11
5131.500975653526
 21
3100.144075523784
 31
0.0
  0
LINE
  5
7C44
330
19
100
AcDbEntity
  8
1
100
AcDbLine
 10
5224.500975653526
 20
3266.144075523783
 30
0.0
 11
5224.500975653526
 21
3146.144075523784
 31
0.0
  0
LINE
  5
7C45
330
19
100
AcDbEntity
  8
1
100
AcDbLine
 10
5209.400975653526
 20
3266.144075523783
 30
0.0
 11
5224.500975653526
 21
3266.144075523783
 31
0.0
  0
LINE
  5
7C46
330
19
100
AcDbEntity
  8
1
100
AcDbLine
 10
5209.400975653526
 20
3146.144075523784
 30
0.0
 11
5224.500975653526
 21
3146.144075523784
 31
0.0
  0
LINE
  5
7C47
330
19
100
AcDbEntity
  8
1
100
AcDbLine
 10
5209.400975653526
 20
3146.144075523784
 30
0.0
 11
5209.400975653526
 21
3100.144075523784
 31
0.0
  0
LINE
  5
7C48
330
19
100
AcDbEntity
  8
1
100
AcDbLine
 10
5006.500975653526
 20
2986.144075523784
 30
0.0
 11
5291.500975653526
 21
2986.144075523784
 31
0.0
  0
LINE
  5
7C49
330
19
100
AcDbEntity
  8
1
100
AcDbLine
 10
5006.500975653526
 20
4126.144075523783
 30
0.0
 11
5006.500975653526
 21
2986.144075523784
 31
0.0
  0
LINE
  5
7C4A
330
19
100
AcDbEntity
  8
1
100
AcDbLine
 10
5291.500975653526
 20
4126.144075523783
 30
0.0
 11
5291.500975653526
 21
4106.144075523784
 31
0.0
  0
LINE
  5
7C4B
330
19
100
AcDbEntity
  8
2
100
AcDbLine
 10
2846.156955993245
 20
8635.712157279263
 30
0.0
 11
2846.156955993245
 21
6287.0278145535
 31
0.0
  0
LINE
  5
7C4C
330
19
100
AcDbEntity
  8
2
100
AcDbLine
 10
1226.156955993245
 20
7261.477814553497
 30
0.0
 11
1226.156955993245
 21
6287.0278145535
 31
0.0
  0
LINE
  5
7C4D
330
19
100
AcDbEntity
  8
2
100
AcDbLine
 10
6326.500975653526
 20
5316.500490070367
 30
0.0
 11
6326.500975653525
 21
2641.144075523784
 31
0.0
  0
POINT
  5
7C4E
330
19
100
AcDbEntity
  8
1
100
AcDbPoint
 10
2846.156955993245
 20
5101.429794629098
 30
0.0
  0
POINT
  5
7C4F
330
19
100
AcDbEntity
  8
1
100
AcDbPoint
 10
1771.356671382593
 20
3746.144075523784
 30
0.0
  0
INSERT
  5
7C50
330
19
100
AcDbEntity
  8
0
 48
10.0
100
AcDbBlockReference
  2
YA_N
 10
-1757.227407310314
 20
-1218.786417457781
 30
0.0
 41
30.0
 42
30.0
 43
30.0
  0
LINE
  5
7C51
330
19
100
AcDbEntity
  8
1
100
AcDbLine
 10
3596.156955993245
 20
2716.144075523784
 30
0.0
 11
946.1569559932449
 21
2716.144075523784
 31
0.0
1001
ACAD
1000
ASC_BOUNDS
1002
{
1070
    19
1002
}
  0
LINE
  5
7C52
330
19
100
AcDbEntity
  8
1
100
AcDbLine
 10
3596.156955993245
 20
2641.144075523784
 30
0.0
 11
946.1569559932449
 21
2641.144075523784
 31
0.0
  0
LINE
  5
7C53
330
19
100
AcDbEntity
  8
1
100
AcDbLine
 10
3596.156955993245
 20
2716.144075523784
 30
0.0
 11
3596.156955993246
 21
2641.144075523784
 31
0.0
  0
LINE
  5
7C54
330
19
100
AcDbEntity
  8
1
100
AcDbLine
 10
946.1569559932449
 20
2716.144075523784
 30
0.0
 11
946.1569559932449
 21
2641.144075523784
 31
0.0
  0
ARC
  5
7C55
330
19
100
AcDbEntity
  8
1
100
AcDbCircle
 10
1226.156955993245
 20
3206.144075523784
 30
0.0
 40
203.5
100
AcDbArc
 50
285.6036990000001
 51
254.39624
  0
LINE
  5
7C56
330
19
100
AcDbEntity
  8
1
100
AcDbLine
 10
1171.418918993245
 20
3010.144075523784
 30
0.0
 11
1280.894992993245
 21
3010.144075523784
 31
0.0
  0
ARC
  5
7C57
330
19
100
AcDbEntity
  8
1
100
AcDbCircle
 10
1412.156955993245
 20
3023.144075523784
 30
0.0
 40
3.0
100
AcDbArc
 50
0.0
 51
90.0
  0
ARC
  5
7C58
330
19
100
AcDbEntity
  8
1
100
AcDbCircle
 10
1410.156955993245
 20
3080.470736523784
 30
0.0
 40
5.000066999999999
100
AcDbArc
 50
0.0
 51
55.056335
  0
LINE
  5
7C59
330
19
100
AcDbEntity
  8
1
100
AcDbLine
 10
1415.156955993245
 20
3080.470736523784
 30
0.0
 11
1415.156955993245
 21
3006.144075523784
 31
0.0
  0
LINE
  5
7C5D
330
19
100
AcDbEntity
  8
1
100
AcDbLine
 10
1330.259525993245
 20
3031.287264523784
 30
0.0
 11
1335.656955993245
 21
3011.144075523784
 31
0.0
  0
LINE
  5
7C5E
330
19
100
AcDbEntity
  8
1
100
AcDbLine
 10
1335.656955993245
 20
3023.144075523784
 30
0.0
 11
1335.656955993245
 21
3006.144075523784
 31
0.0
  0
LINE
  5
7C5F
330
19
100
AcDbEntity
  8
1
100
AcDbLine
 10
1338.656955993245
 20
3026.144075523784
 30
0.0
 11
1412.156955993245
 21
3026.144075523784
 31
0.0
  0
ARC
  5
7C60
330
19
100
AcDbEntity
  8
1
100
AcDbCircle
 10
1338.656955993245
 20
3023.144075523784
 30
0.0
 40
3.0
100
AcDbArc
 50
90.0
 51
180.0
  0
LINE
  5
7C61
330
19
100
AcDbEntity
  8
1
100
AcDbLine
 10
1413.020725993245
 20
3084.569368523784
 30
0.0
 11
1397.082859993244
 21
3095.705843523784
 31
0.0
  0
LINE
  5
7C62
330
19
100
AcDbEntity
  8
1
100
AcDbLine
 10
1037.156955993245
 20
3080.470736523784
 30
0.0
 11
1037.156955993245
 21
3006.144075523784
 31
0.0
  0
LINE
  5
7C66
330
19
100
AcDbEntity
  8
1
100
AcDbLine
 10
1122.054172993244
 20
3031.287386523783
 30
0.0
 11
1116.656955993245
 21
3011.144075523784
 31
0.0
  0
LINE
  5
7C67
330
19
100
AcDbEntity
  8
1
100
AcDbLine
 10
1116.656955993245
 20
3023.144075523784
 30
0.0
 11
1116.656955993245
 21
3006.144075523784
 31
0.0
  0
LINE
  5
7C68
330
19
100
AcDbEntity
  8
1
100
AcDbLine
 10
1113.656955993245
 20
3026.144075523784
 30
0.0
 11
1040.156955993245
 21
3026.144075523784
 31
0.0
  0
ARC
  5
7C69
330
19
100
AcDbEntity
  8
1
100
AcDbCircle
 10
1113.656955993245
 20
3023.144075523784
 30
0.0
 40
3.0
100
AcDbArc
 50
0.0
 51
90.0
  0
ARC
  5
7C6A
330
19
100
AcDbEntity
  8
1
100
AcDbCircle
 10
1040.156955993245
 20
3023.144075523784
 30
0.0
 40
3.0
100
AcDbArc
 50
90.0
 51
180.0
  0
LINE
  5
7C6B
330
19
100
AcDbEntity
  8
1
100
AcDbLine
 10
1039.293064993245
 20
3084.569368523784
 30
0.0
 11
1055.230930993245
 21
3095.705843523784
 31
0.0
  0
ARC
  5
7C6C
330
19
100
AcDbEntity
  8
1
100
AcDbCircle
 10
1042.156955993245
 20
3080.470736523784
 30
0.0
 40
5.0
100
AcDbArc
 50
124.943661
 51
180.0
  0
LINE
  5
7C6D
330
19
100
AcDbEntity
  8
1
100
AcDbLine
 10
1469.579981035855
 20
3006.144075523784
 30
0.0
 11
1296.156955993245
 21
3006.144075523784
 31
0.0
  0
LINE
  5
7C6E
330
19
100
AcDbEntity
  8
1
100
AcDbLine
 10
1486.156955993245
 20
2946.144075523784
 30
0.0
 11
1469.579981035855
 21
3006.144075523784
 31
0.0
  0
LINE
  5
7C6F
330
19
100
AcDbEntity
  8
1
100
AcDbLine
 10
966.156955993245
 20
2946.144075523784
 30
0.0
 11
982.3379125383635
 21
3006.144075523784
 31
0.0
  0
LINE
  5
7C70
330
19
100
AcDbEntity
  8
1
100
AcDbLine
 10
1296.156955993245
 20
2996.144075523784
 30
0.0
 11
1156.156955993245
 21
2996.144075523784
 31
0.0
  0
LINE
  5
7C72
330
19
100
AcDbEntity
  8
1
100
AcDbLine
 10
1156.156955993245
 20
3006.144075523784
 30
0.0
 11
1156.156955993245
 21
2996.144075523784
 31
0.0
  0
LINE
  5
7C73
330
19
100
AcDbEntity
  8
1
100
AcDbLine
 10
1296.156955993245
 20
3006.144075523784
 30
0.0
 11
1296.156955993245
 21
2996.144075523784
 31
0.0
  0
LINE
  5
7C76
330
19
100
AcDbEntity
  8
1
100
AcDbLine
 10
1156.156955993245
 20
3006.144075523784
 30
0.0
 11
982.3379125383635
 21
3006.144075523784
 31
0.0
  0
INSERT
  5
7C77
330
19
100
AcDbEntity
  8
0
 48
10.0
100
AcDbBlockReference
  2
YA_N
 10
-755.2436758818475
 20
-538.554984833856
 30
0.0
 41
30.0
 42
30.0
 43
30.0
  0
LINE
  5
7C78
330
19
100
AcDbEntity
  8
1
100
AcDbLine
 10
5135.500975653524
 20
2716.144075523784
 30
0.0
 11
7255.500975653527
 21
2716.144075523784
 31
0.0
1001
ACAD
1000
ASC_BOUNDS
1002
{
1070
    19
1005
0
1005
0
1002
}
  0
LINE
  5
7C79
330
19
100
AcDbEntity
  8
1
100
AcDbLine
 10
5135.500975653524
 20
2641.144075523784
 30
0.0
 11
7255.500975653525
 21
2641.144075523784
 31
0.0
  0
LINE
  5
7C7A
330
19
100
AcDbEntity
  8
1
100
AcDbLine
 10
7255.500975653525
 20
2716.144075523784
 30
0.0
 11
7255.500975653525
 21
2641.144075523784
 31
0.0
  0
DIMENSION
  5
7C7B
330
19
100
AcDbEntity
  8
3
100
AcDbDimension
280
     0
  2
*D1
 10
2846.156955993245
 20
2324.482621847545
 30
0.0
 11
3221.156955993245
 21
2424.482621847545
 31
0.0
 70
    32
 71
     5
 42
750.0
 73
     0
 74
     0
 75
     0
  3
IGA
100
AcDbAlignedDimension
 13
3596.156955993245
 23
2641.144075523784
 33
0.0
 14
2846.156955993245
 24
2641.144075523784
 34
0.0
100
AcDbRotatedDimension
1001
ACAD
1000
DSTYLE
1002
{
1070
   287
1070
     3
1070
    40
1040
40.0
1070
   143
1040
0.039
1070
   172
1070
     1
1070
   271
1070
     0
1070
   279
1070
     0
1070
   288
1070
     1
1002
}
  0
DIMENSION
  5
7C7C
330
19
100
AcDbEntity
  8
3
100
AcDbDimension
280
     0
  2
*D2
 10
3924.167988683203
 20
3800.144075523784
 30
0.0
 11
3824.167988683202
 21
4440.144075523784
 31
0.0
 70
    32
 71
     5
 42
-1.0
 73
     0
 74
     0
 75
     0
  3
IGA
100
AcDbAlignedDimension
 13
3671.156955993245
 23
5080.144075523783
 33
0.0
 14
3671.156955993245
 24
3800.144075523784
 34
0.0
 50
270.0
100
AcDbRotatedDimension
1001
ACAD
1000
DSTYLE
1002
{
1070
   287
1070
     3
1070
    40
1040
40.0
1070
   143
1040
0.039
1070
   172
1070
     1
1070
   271
1070
     0
1070
   279
1070
     0
1070
   288
1070
     1
1002
}
  0
DIMENSION
  5
7C7D
330
19
100
AcDbEntity
  8
3
100
AcDbDimension
280
     0
  2
*D3
 10
4171.230831139732
 20
3746.144075523784
 30
0.0
 11
4071.230831139732
 21
4413.144075523784
 31
0.0
 70
    32
 71
     5
 42
-1.0
 73
     0
 74
     0
 75
     0
  3
IGA
100
AcDbAlignedDimension
 13
3671.156955993245
 23
5080.144075523783
 33
0.0
 14
3749.593494242097
 24
3746.144075523784
 34
0.0
 50
270.0
100
AcDbRotatedDimension
1001
ACAD
1000
DSTYLE
1002
{
1070
   287
1070
     3
1070
    40
1040
40.0
1070
   143
1040
0.039
1070
   172
1070
     1
1070
   271
1070
     0
1070
   279
1070
     0
1070
   288
1070
     1
1002
}
  0
DIMENSION
  5
7C7F
330
19
100
AcDbEntity
  8
3
100
AcDbDimension
280
     0
  2
*D4
 10
2846.156955993245
 20
5382.667020841306
 30
0.0
 11
3258.656955993245
 21
5482.667020841307
 31
0.0
 70
    32
 71
     5
 42
-1.0
 73
     0
 74
     0
 75
     0
  3
IGA
100
AcDbAlignedDimension
 13
3671.156955993245
 23
5133.144075523784
 33
0.0
 14
2846.156955993245
 24
5101.429794629098
 34
0.0
100
AcDbRotatedDimension
1001
ACAD
1000
DSTYLE
1002
{
1070
   287
1070
     3
1070
    40
1040
40.0
1070
   143
1040
0.039
1070
   172
1070
     1
1070
   271
1070
     0
1070
   279
1070
     0
1070
   288
1070
     1
1002
}
  0
DIMENSION
  5
7C80
330
19
100
AcDbEntity
  8
3
100
AcDbDimension
280
     0
  2
*D5
 10
1771.356671382593
 20
5382.667020841306
 30
0.0
 11
2308.756813687919
 21
5482.667020841307
 31
0.0
 70
    32
  1
1079
 71
     5
 42
-1.0
 73
     0
 74
     0
 75
     0
  3
IGA
100
AcDbAlignedDimension
 13
2846.156955993245
 23
5101.429794629098
 33
0.0
 14
1771.356671382593
 24
3746.144075523784
 34
0.0
100
AcDbRotatedDimension
1001
ACAD
1000
DSTYLE
1002
{
1070
   287
1070
     3
1070
    40
1040
40.0
1070
   143
1040
0.039
1070
   172
1070
     1
1070
   271
1070
     0
1070
   279
1070
     0
1070
   288
1070
     1
1002
}
  0
CIRCLE
  5
7C81
330
19
100
AcDbEntity
  8
1
100
AcDbCircle
 10
1226.156955993245
 20
3206.144075523784
 30
0.0
 40
107.0
  0
LINE
  5
7C87
330
19
100
AcDbEntity
  8
1
100
AcDbLine
 10
5476.500975653525
 20
3800.144075523784
 30
0.0
 11
7176.500975653526
 21
3800.144075523784
 31
0.0
  0
LINE
  5
7C88
330
19
100
AcDbEntity
  8
1
100
AcDbLine
 10
5476.500975653525
 20
5080.144075523783
 30
0.0
 11
7176.500975653526
 21
5080.144075523783
 31
0.0
  0
ARC
  5
7C8B
330
19
100
AcDbEntity
  8
1
100
AcDbCircle
 10
2846.156955993245
 20
3746.144075523784
 30
0.0
 40
625.0
100
AcDbArc
 50
0.0
 51
180.0
  0
ARC
  5
7C8C
330
19
100
AcDbEntity
  8
1
100
AcDbCircle
 10
2846.156955993245
 20
3746.144075523784
 30
0.0
 40
675.0
100
AcDbArc
 50
0.0
 51
180.0
  0
LINE
  5
7C8D
330
19
100
AcDbEntity
  8
1
100
AcDbLine
 10
2511.156955993245
 20
2948.144075523784
 30
0.0
 11
2511.156955993245
 21
2946.144075523784
 31
0.0
  0
ARC
  5
7C8E
330
19
100
AcDbEntity
  8
1
100
AcDbCircle
 10
2846.156955993245
 20
3746.144075523784
 30
0.0
 40
625.0
100
AcDbArc
 50
180.0
 51
270.0
  0
ARC
  5
7C8F
330
19
100
AcDbEntity
  8
1
100
AcDbCircle
 10
2846.156955993245
 20
3746.144075523784
 30
0.0
 40
675.0
100
AcDbArc
 50
180.0
 51
270.0
  0
LINE
  5
7C90
330
19
100
AcDbEntity
  8
1
100
AcDbLine
 10
3596.156955993245
 20
8536.027814553497
 30
0.0
 11
2096.156955993245
 21
8536.027814553497
 31
0.0
  0
LINE
  5
7C91
330
19
100
AcDbEntity
  8
1
100
AcDbLine
 10
3596.156955993245
 20
6416.027814553498
 30
0.0
 11
946.1569559932449
 21
6416.027814553498
 31
0.0
  0
LINE
  5
7C92
330
19
100
AcDbEntity
  8
1
100
AcDbLine
 10
3596.156955993245
 20
8536.027814553497
 30
0.0
 11
3596.156955993245
 21
8457.027814553496
 31
0.0
  0
LINE
  5
7C93
330
19
100
AcDbEntity
  8
1
100
AcDbLine
 10
946.1569559932449
 20
7516.027814553497
 30
0.0
 11
946.1569559932449
 21
6416.027814553498
 31
0.0
  0
LINE
  5
7C94
330
19
100
AcDbEntity
  8
1
100
AcDbLine
 10
2096.156955993245
 20
8536.027814553497
 30
0.0
 11
2096.156955993245
 21
8457.0278145535
 31
0.0
  0
LINE
  5
7C95
330
19
100
AcDbEntity
  8
1
100
AcDbLine
 10
1767.156955993245
 20
7516.027814553497
 30
0.0
 11
946.1569559932449
 21
7516.027814553497
 31
0.0
  0
DIMENSION
  5
7C96
330
19
100
AcDbEntity
  8
3
100
AcDbDimension
280
     0
  2
*D6
 10
7176.500975653526
 20
5381.543861990349
 30
0.0
 11
6326.500975653526
 21
5481.543861990349
 31
0.0
 70
    32
 71
     5
 42
-1.0
 73
     0
 74
     0
 75
     0
  3
IGA
100
AcDbAlignedDimension
 13
5476.500975653525
 23
5133.144075523784
 33
0.0
 14
7176.500975653526
 24
5133.144075523784
 34
0.0
100
AcDbRotatedDimension
1001
ACAD
1000
DSTYLE
1002
{
1070
   287
1070
     3
1070
    40
1040
40.0
1070
   143
1040
0.039
1070
   172
1070
     1
1070
   271
1070
     0
1070
   279
1070
     0
1070
   288
1070
     1
1002
}
  0
LINE
  5
7C97
330
19
100
AcDbEntity
  8
1
100
AcDbLine
 10
5319.000975653525
 20
3670.144075523784
 30
0.0
 11
5319.000975653525
 21
3540.144075523784
 31
0.0
  0
LINE
  5
7C98
330
19
100
AcDbEntity
  8
1
100
AcDbLine
 10
5459.000975653526
 20
3680.144075523783
 30
0.0
 11
5459.000975653526
 21
3530.144075523784
 31
0.0
  0
LINE
  5
7C99
330
19
100
AcDbEntity
  8
1
100
AcDbLine
 10
5329.000975653526
 20
3680.144075523783
 30
0.0
 11
5399.200975653528
 21
3680.144075523783
 31
0.0
  0
LINE
  5
7C9A
330
19
100
AcDbEntity
  8
1
100
AcDbLine
 10
5329.000975653526
 20
3530.144075523784
 30
0.0
 11
5399.200975653528
 21
3530.144075523784
 31
0.0
  0
ARC
  5
7C9B
330
19
100
AcDbEntity
  8
1
100
AcDbCircle
 10
5329.000975653526
 20
3670.144075523784
 30
0.0
 40
10.0
100
AcDbArc
 50
90.0
 51
180.0
  0
ARC
  5
7C9C
330
19
100
AcDbEntity
  8
1
100
AcDbCircle
 10
5329.000975653526
 20
3540.144075523784
 30
0.0
 40
10.0
100
AcDbArc
 50
180.0
 51
270.0
  0
LINE
  5
7C9D
330
19
100
AcDbEntity
  8
1
100
AcDbLine
 10
5399.200975653526
 20
3530.144075523784
 30
0.0
 11
5459.000975653526
 21
3530.144075523784
 31
0.0
  0
LINE
  5
7C9E
330
19
100
AcDbEntity
  8
1
100
AcDbLine
 10
5399.200975653526
 20
3680.144075523783
 30
0.0
 11
5459.000975653526
 21
3680.144075523783
 31
0.0
  0
LINE
  5
7C9F
330
19
100
AcDbEntity
  8
1
100
AcDbLine
 10
7346.000975653526
 20
3670.144075523784
 30
0.0
 11
7346.000975653526
 21
3540.144075523784
 31
0.0
  0
LINE
  5
7CA0
330
19
100
AcDbEntity
  8
1
100
AcDbLine
 10
7206.000975653525
 20
3680.144075523783
 30
0.0
 11
7206.000975653525
 21
3530.144075523784
 31
0.0
  0
LINE
  5
7CA1
330
19
100
AcDbEntity
  8
1
100
AcDbLine
 10
7336.000975653526
 20
3530.144075523784
 30
0.0
 11
7265.800975653525
 21
3530.144075523784
 31
0.0
  0
ARC
  5
7CA2
330
19
100
AcDbEntity
  8
1
100
AcDbCircle
 10
7336.000975653526
 20
3540.144075523784
 30
0.0
 40
10.0
100
AcDbArc
 50
270.0
 51
0.0
  0
LINE
  5
7CA3
330
19
100
AcDbEntity
  8
1
100
AcDbLine
 10
7265.800975653525
 20
3530.144075523784
 30
0.0
 11
7206.000975653525
 21
3530.144075523784
 31
0.0
  0
LINE
  5
7CA4
330
19
100
AcDbEntity
  8
1
100
AcDbLine
 10
7336.000975653526
 20
3680.144075523783
 30
0.0
 11
7265.800975653525
 21
3680.144075523783
 31
0.0
  0
ARC
  5
7CA5
330
19
100
AcDbEntity
  8
1
100
AcDbCircle
 10
7336.000975653526
 20
3670.144075523784
 30
0.0
 40
10.0
100
AcDbArc
 50
0.0
 51
90.0
  0
LINE
  5
7CA6
330
19
100
AcDbEntity
  8
1
100
AcDbLine
 10
7265.800975653525
 20
3680.144075523783
 30
0.0
 11
7206.000975653525
 21
3680.144075523783
 31
0.0
  0
DIMENSION
  5
7CA8
330
19
100
AcDbEntity
  8
3
100
AcDbDimension
280
     0
  2
*D7
 10
6326.500975653526
 20
5634.894753954437
 30
0.0
 11
5666.500975653526
 21
5766.323325383009
 31
0.0
 70
    32
  1
(<>)
 71
     5
 42
1319.999999999999
 73
     0
 74
     0
 75
     0
  3
IGA
100
AcDbAlignedDimension
 13
5006.500975653526
 23
4026.144075523784
 33
0.0
 14
6326.500975653526
 24
5550.201656594396
 34
0.0
100
AcDbRotatedDimension
1001
ACAD
1000
DSTYLE
1002
{
1070
   287
1070
     3
1070
    40
1040
40.0
1070
   143
1040
0.039
1070
   172
1070
     1
1070
   271
1070
     0
1070
   279
1070
     0
1070
   288
1070
     1
1002
}
  0
DIMENSION
  5
7CA9
330
19
100
AcDbEntity
  8
3
100
AcDbDimension
280
     0
  2
*D8
 10
7346.000975653526
 20
5634.507166849251
 30
0.0
 11
6836.250975653526
 21
5765.935738277822
 31
0.0
 70
    32
  1
(<>)
 71
     5
 42
1019.5
 73
     0
 74
     0
 75
     0
  3
IGA
100
AcDbAlignedDimension
 13
6326.500975653526
 23
5599.504550509099
 33
0.0
 14
7346.000975653526
 24
3670.144075523784
 34
0.0
100
AcDbRotatedDimension
1001
ACAD
1000
DSTYLE
1002
{
1070
   287
1070
     3
1070
    40
1040
40.0
1070
   143
1040
0.039
1070
   172
1070
     1
1070
   271
1070
     0
1070
   279
1070
     0
1070
   288
1070
     1
1002
}
  0
ARC
  5
7CAA
330
19
100
AcDbEntity
  8
1
100
AcDbCircle
 10
2846.156955993245
 20
3746.144075523784
 30
0.0
 40
675.0
100
AcDbArc
 50
270.0
 51
0.0
  0
ARC
  5
7CAB
330
19
100
AcDbEntity
  8
1
100
AcDbCircle
 10
2846.156955993245
 20
3746.144075523784
 30
0.0
 40
625.0
100
AcDbArc
 50
270.0
 51
0.0
  0
DIMENSION
  5
7CAC
330
19
100
AcDbEntity
  8
3
100
AcDbDimension
280
     0
  2
*D9
 10
7587.77060056603
 20
3121.144075523783
 30
0.0
 11
7487.770600566029
 21
3746.144075523785
 31
0.0
 70
    32
  1
φ<>
 71
     5
 42
-1.0
 73
     0
 74
     0
 75
     0
  3
IGA
100
AcDbAlignedDimension
 13
7178.800975653527
 23
4371.144075523783
 33
0.0
 14
7178.800975653527
 24
3121.144075523783
 34
0.0
 50
90.0
100
AcDbRotatedDimension
1001
ACAD
1000
DSTYLE
1002
{
1070
   287
1070
     3
1070
    40
1040
40.0
1070
   143
1040
0.039
1070
   172
1070
     1
1070
   271
1070
     0
1070
   279
1070
     0
1070
   288
1070
     1
1002
}
  0
DIMENSION
  5
7CAD
330
19
100
AcDbEntity
  8
3
100
AcDbDimension
280
     0
  2
*D10
 10
2846.156955993245
 20
2324.256120108285
 30
0.0
 11
1896.156955993245
 21
2424.256120108285
 31
0.0
 70
    32
 71
     5
 42
1900.0
 73
     0
 74
     0
 75
     0
  3
IGA
100
AcDbAlignedDimension
 13
946.1569559932449
 23
2641.144075523784
 33
0.0
 14
2846.156955993245
 24
2641.144075523784
 34
0.0
100
AcDbRotatedDimension
1001
ACAD
1000
DSTYLE
1002
{
1070
   287
1070
     3
1070
    40
1040
40.0
1070
   143
1040
0.039
1070
   172
1070
     1
1070
   271
1070
     0
1070
   279
1070
     0
1070
   288
1070
     1
1002
}
  0
CIRCLE
  5
7CAF
330
19
100
AcDbEntity
  8
1
100
AcDbCircle
 10
2846.156955993245
 20
3746.144075523784
 30
0.0
 40
254.0
  0
ARC
  5
7CB0
330
19
100
AcDbEntity
  8
1
100
AcDbCircle
 10
2846.156955993245
 20
3746.144075523784
 30
0.0
 40
380.0
100
AcDbArc
 50
284.7754119540464
 51
116.8663737525752
  0
ARC
  5
7CB1
330
19
100
AcDbEntity
  8
1
100
AcDbCircle
 10
1226.156955993245
 20
3206.144075523784
 30
0.0
 40
220.0
100
AcDbArc
 50
116.8663737525752
 51
284.7754119540464
  0
LINE
  5
7CB2
330
19
100
AcDbEntity
  8
1
100
AcDbLine
 10
2674.430682702502
 20
4085.127979362407
 30
0.0
 11
1126.736481982814
 21
3402.397914588249
 31
0.0
  0
LINE
  5
7CB3
330
19
100
AcDbEntity
  8
1
100
AcDbLine
 10
2733.324597712614
 20
3973.706943595074
 30
0.0
 11
1178.625214512822
 21
3302.007173490824
 31
0.0
  0
LINE
  5
7CB4
330
19
100
AcDbEntity
  8
1
100
AcDbLine
 10
2913.044808208019
 20
3501.109353033083
 30
0.0
 11
1254.33412208372
 21
3102.920786915496
 31
0.0
  0
LINE
  5
7CB5
330
19
100
AcDbEntity
  8
1
100
AcDbLine
 10
2943.068671225063
 20
3378.709565099372
 30
0.0
 11
1282.263738495876
 21
2993.418832646493
 31
0.0
  0
DIMENSION
  5
7CB6
330
19
100
AcDbEntity
  8
3
100
AcDbDimension
280
     0
  2
*D11
 10
4170.57822273558
 20
2821.144075523784
 30
0.0
 11
4070.57822273558
 21
3283.644075523784
 31
0.0
 70
    32
 71
     5
 42
-1.0
 73
     0
 74
     0
 75
     0
  3
IGA
100
AcDbAlignedDimension
 13
3749.593494242097
 23
3746.144075523784
 33
0.0
 14
3596.156955993245
 24
2821.144075523784
 34
0.0
 50
90.0
100
AcDbRotatedDimension
1001
ACAD
1000
DSTYLE
1002
{
1070
   287
1070
     3
1070
    40
1040
40.0
1070
   143
1040
0.039
1070
   172
1070
     1
1070
   271
1070
     0
1070
   279
1070
     0
1070
   288
1070
     1
1002
}
  0
ARC
  5
7CCA
330
19
100
AcDbEntity
  8
1
100
AcDbCircle
 10
2846.156955993245
 20
3746.144075523784
 30
0.0
 40
743.0
100
AcDbArc
 50
357.1030919589741
 51
4.167836322161879
  0
LINE
  5
7CCB
330
19
100
AcDbEntity
  8
1
100
AcDbLine
 10
5131.500975653526
 20
4000.144075523784
 30
0.0
 11
5209.400975653525
 21
4000.144075523784
 31
0.0
  0
LINE
  5
7CCC
330
19
100
AcDbEntity
  8
1
100
AcDbLine
 10
5131.500975653526
 20
3492.144075523784
 30
0.0
 11
5209.400975653525
 21
3492.144075523784
 31
0.0
  0
LINE
  5
7CCD
330
19
100
AcDbEntity
  8
1
100
AcDbLine
 10
5006.500975653525
 20
4126.144075523783
 30
0.0
 11
5291.500975653525
 21
4126.144075523783
 31
0.0
  0
LINE
  5
7CCE
330
19
100
AcDbEntity
  8
1
100
AcDbLine
 10
5291.500975653526
 20
3006.144075523784
 30
0.0
 11
5291.500975653526
 21
2986.144075523784
 31
0.0
  0
INSERT
  5
7CCF
330
19
100
AcDbEntity
  8
0
 48
10.0
100
AcDbBlockReference
  2
YA_N
 10
4767.943419715615
 20
-1494.695868425497
 30
0.0
  0
LINE
  5
7CD0
330
19
100
AcDbEntity
  8
1
100
AcDbLine
 10
7255.500975653525
 20
2946.144075523784
 30
0.0
 11
7255.500975653524
 21
2821.144075523784
 31
0.0
  0
LINE
  5
7CD1
330
19
100
AcDbEntity
  8
1
100
AcDbLine
 10
5135.500975653524
 20
2716.144075523784
 30
0.0
 11
5135.500975653527
 21
2641.144075523784
 31
0.0
  0
LINE
  5
7CD2
330
19
100
AcDbEntity
  8
1
100
AcDbLine
 10
5135.500975653525
 20
2946.144075523784
 30
0.0
 11
5135.500975653525
 21
2821.144075523784
 31
0.0
  0
DIMENSION
  5
7CD3
330
19
100
AcDbEntity
  8
3
100
AcDbDimension
280
     0
  2
*D12
 10
6326.500975653525
 20
2320.828456891717
 30
0.0
 11
5731.000975653524
 21
2420.828456891717
 31
0.0
 70
    32
 71
     5
 42
1191.0
 73
     0
 74
     0
 75
     0
  3
IGA
100
AcDbAlignedDimension
 13
5135.500975653524
 23
2641.144075523784
 33
0.0
 14
6326.500975653525
 24
2641.144075523784
 34
0.0
100
AcDbRotatedDimension
1001
ACAD
1000
DSTYLE
1002
{
1070
   287
1070
     3
1070
    40
1040
40.0
1070
   143
1040
0.039
1070
   172
1070
     1
1070
   271
1070
     0
1070
   279
1070
     0
1070
   288
1070
     1
1002
}
  0
DIMENSION
  5
7CD4
330
19
100
AcDbEntity
  8
3
100
AcDbDimension
280
     0
  2
*D13
 10
7255.500975653525
 20
2320.828456891717
 30
0.0
 11
6791.000975653526
 21
2420.828456891717
 31
0.0
 70
    32
 71
     5
 42
929.0000000000009
 73
     0
 74
     0
 75
     0
  3
IGA
100
AcDbAlignedDimension
 13
6326.500975653525
 23
2641.144075523784
 33
0.0
 14
7255.500975653525
 24
2641.144075523784
 34
0.0
100
AcDbRotatedDimension
1001
ACAD
1000
DSTYLE
1002
{
1070
   287
1070
     3
1070
    40
1040
40.0
1070
   143
1040
0.039
1070
   172
1070
     1
1070
   271
1070
     0
1070
   279
1070
     0
1070
   288
1070
     1
1002
}
  0
LINE
  5
7CD6
330
19
100
AcDbEntity
  8
1
100
AcDbLine
 10
5229.500975653526
 20
3783.644075523784
 30
0.0
 11
5423.500975653526
 21
3783.644075523784
 31
0.0
  0
LINE
  5
7CD7
330
19
100
AcDbEntity
  8
1
100
AcDbLine
 10
5229.500975653526
 20
3708.644075523784
 30
0.0
 11
5476.500975653525
 21
3708.644075523784
 31
0.0
  0
LINE
  5
7CD8
330
19
100
AcDbEntity
  8
1
100
AcDbLine
 10
7176.500975653524
 20
5080.144075523783
 30
0.0
 11
5476.500975653525
 21
3800.144075523784
 31
0.0
  0
LINE
  5
7CD9
330
19
100
AcDbEntity
  8
1
100
AcDbLine
 10
5476.500975653525
 20
5080.144075523783
 30
0.0
 11
7176.500975653528
 21
3800.144075523784
 31
0.0
  0
LINE
  5
7CDA
330
19
100
AcDbEntity
  8
1
100
AcDbLine
 10
5320.450975653527
 20
3006.144075523784
 30
0.0
 11
5320.450975653526
 21
3206.144075523785
 31
0.0
  0
LINE
  5
7CDB
330
19
100
AcDbEntity
  8
1
100
AcDbLine
 10
5320.450975653528
 20
3006.144075523785
 30
0.0
 11
5476.500975653525
 21
3006.144075523785
 31
0.0
  0
LINE
  5
7CDC
330
19
100
AcDbEntity
  8
1
100
AcDbLine
 10
5476.500975653525
 20
3416.144075523785
 30
0.0
 11
5320.450975653525
 21
3416.144075523785
 31
0.0
  0
LINE
  5
7CDD
330
19
100
AcDbEntity
  8
1
100
AcDbLine
 10
5310.450975653527
 20
3176.144075523785
 30
0.0
 11
5224.500975653526
 21
3176.144075523784
 31
0.0
  0
LINE
  5
7CDE
330
19
100
AcDbEntity
  8
1
100
AcDbLine
 10
5310.450975653527
 20
3236.144075523784
 30
0.0
 11
5224.500975653526
 21
3236.144075523784
 31
0.0
  0
LINE
  5
7CDF
330
19
100
AcDbEntity
  8
1
100
AcDbLine
 10
5320.450975653526
 20
3416.144075523785
 30
0.0
 11
5320.450975653526
 21
3206.144075523785
 31
0.0
  0
LINE
  5
7CE0
330
19
100
AcDbEntity
  8
1
100
AcDbLine
 10
5310.450975653527
 20
3173.644075523785
 30
0.0
 11
5310.450975653527
 21
3238.644075523784
 31
0.0
  0
LINE
  5
7CE1
330
19
100
AcDbEntity
  8
1
100
AcDbLine
 10
5310.450975653527
 20
3173.644075523785
 30
0.0
 11
5320.450975653526
 21
3173.644075523785
 31
0.0
  0
LINE
  5
7CE2
330
19
100
AcDbEntity
  8
1
100
AcDbLine
 10
5310.450975653527
 20
3238.644075523784
 30
0.0
 11
5320.450975653526
 21
3238.644075523784
 31
0.0
  0
LINE
  5
7CF1
330
19
100
AcDbEntity
  8
2
100
AcDbLine
 10
3821.984076714965
 20
7607.027814553497
 30
0.0
 11
1767.156955993245
 21
7607.027814553497
 31
0.0
  0
LINE
  5
7CF2
330
19
100
AcDbEntity
  8
1
100
AcDbLine
 10
3226.156955993245
 20
6287.0278145535
 30
0.0
 11
1006.156955993245
 21
6287.0278145535
 31
0.0
  0
LINE
  5
7CF3
330
19
100
AcDbEntity
  8
1
100
AcDbLine
 10
3100.156955993246
 20
6423.027814553499
 30
0.0
 11
2592.156955993245
 21
6423.027814553499
 31
0.0
  0
LINE
  5
7CF4
330
19
100
AcDbEntity
  8
1
100
AcDbLine
 10
2776.156955993245
 20
6500.927814553499
 30
0.0
 11
2592.156955993245
 21
6500.927814553499
 31
0.0
  0
LINE
  5
7CF5
330
19
100
AcDbEntity
  8
1
100
AcDbLine
 10
1196.156955993245
 20
6601.977814553499
 30
0.0
 11
1196.156955993245
 21
6516.027814553499
 31
0.0
  0
LINE
  5
7CF6
330
19
100
AcDbEntity
  8
1
100
AcDbLine
 10
1256.156955993245
 20
6601.977814553499
 30
0.0
 11
1256.156955993245
 21
6516.027814553499
 31
0.0
  0
LINE
  5
7CF7
330
19
100
AcDbEntity
  8
1
100
AcDbLine
 10
1006.156955993245
 20
6287.0278145535
 30
0.0
 11
1006.156955993245
 21
6583.027814553499
 31
0.0
  0
LINE
  5
7CF8
330
19
100
AcDbEntity
  8
1
100
AcDbLine
 10
2046.156955993245
 20
6416.027814553499
 30
0.0
 11
1921.156955993245
 21
6416.027814553499
 31
0.0
  0
LINE
  5
7CF9
330
19
100
AcDbEntity
  8
1
100
AcDbLine
 10
1902.156955993245
 20
6416.027814553498
 30
0.0
 11
1837.156955993245
 21
6416.027814553499
 31
0.0
  0
LINE
  5
7CFA
330
19
100
AcDbEntity
  8
1
100
AcDbLine
 10
1286.156955993245
 20
6516.027814553499
 30
0.0
 11
1166.156955993245
 21
6516.027814553499
 31
0.0
  0
LINE
  5
7CFB
330
19
100
AcDbEntity
  8
1
100
AcDbLine
 10
1166.156955993245
 20
6500.927814553499
 30
0.0
 11
1120.156955993245
 21
6500.927814553499
 31
0.0
  0
LINE
  5
7CFC
330
19
100
AcDbEntity
  8
1
100
AcDbLine
 10
1120.156955993245
 20
6423.027814553499
 30
0.0
 11
1120.156955993245
 21
6500.927814553499
 31
0.0
  0
LINE
  5
7CFD
330
19
100
AcDbEntity
  8
1
100
AcDbLine
 10
1166.156955993245
 20
6500.927814553499
 30
0.0
 11
1166.156955993245
 21
6516.027814553499
 31
0.0
  0
LINE
  5
7CFE
330
19
100
AcDbEntity
  8
1
100
AcDbLine
 10
1332.156955993245
 20
6423.027814553499
 30
0.0
 11
1332.156955993245
 21
6500.927814553498
 31
0.0
  0
LINE
  5
7CFF
330
19
100
AcDbEntity
  8
1
100
AcDbLine
 10
1286.156955993245
 20
6500.927814553499
 30
0.0
 11
1286.156955993245
 21
6516.027814553499
 31
0.0
  0
LINE
  5
7D00
330
19
100
AcDbEntity
  8
1
100
AcDbLine
 10
2592.156955993245
 20
6423.027814553499
 30
0.0
 11
2592.156955993245
 21
6500.927814553498
 31
0.0
  0
LINE
  5
7D01
330
19
100
AcDbEntity
  8
1
100
AcDbLine
 10
1436.156955993245
 20
6611.977814553499
 30
0.0
 11
1226.156955993245
 21
6611.977814553499
 31
0.0
  0
LINE
  5
7D02
330
19
100
AcDbEntity
  8
1
100
AcDbLine
 10
1193.656955993245
 20
6601.977814553499
 30
0.0
 11
1258.656955993245
 21
6601.977814553499
 31
0.0
  0
LINE
  5
7D03
330
19
100
AcDbEntity
  8
1
100
AcDbLine
 10
1026.156955993245
 20
6611.977814553501
 30
0.0
 11
1026.156955993252
 21
7261.4778145535
 31
0.0
  0
LINE
  5
7D04
330
19
100
AcDbEntity
  8
1
100
AcDbLine
 10
1026.156955993245
 20
6611.977814553501
 30
0.0
 11
1226.156955993245
 21
6611.977814553499
 31
0.0
  0
LINE
  5
7D05
330
19
100
AcDbEntity
  8
1
100
AcDbLine
 10
1193.656955993245
 20
6601.977814553499
 30
0.0
 11
1193.656955993245
 21
6611.977814553499
 31
0.0
  0
LINE
  5
7D07
330
19
100
AcDbEntity
  8
1
100
AcDbLine
 10
1436.156955993252
 20
7261.477814553498
 30
0.0
 11
1436.156955993245
 21
6611.977814553497
 31
0.0
  0
LINE
  5
7D08
330
19
100
AcDbEntity
  8
1
100
AcDbLine
 10
1258.656955993245
 20
6601.977814553499
 30
0.0
 11
1258.656955993245
 21
6611.977814553499
 31
0.0
  0
LINE
  5
7D09
330
19
100
AcDbEntity
  8
1
100
AcDbLine
 10
2808.656955993245
 20
6521.0278145535
 30
0.0
 11
2808.656955993245
 21
6768.027814553497
 31
0.0
  0
LINE
  5
7D0A
330
19
100
AcDbEntity
  8
1
100
AcDbLine
 10
2883.656955993245
 20
6521.0278145535
 30
0.0
 11
2883.656955993245
 21
6768.027814553498
 31
0.0
  0
LINE
  5
7D0B
330
19
100
AcDbEntity
  8
1
100
AcDbLine
 10
3226.156955993245
 20
6287.027814553499
 30
0.0
 11
3226.156955993245
 21
6583.027814553497
 31
0.0
  0
LINE
  5
7D0C
330
19
100
AcDbEntity
  8
1
100
AcDbLine
 10
2916.156955993245
 20
6521.0278145535
 30
0.0
 11
2776.156955993245
 21
6521.0278145535
 31
0.0
  0
LINE
  5
7D0D
330
19
100
AcDbEntity
  8
1
100
AcDbLine
 10
2776.156955993245
 20
6500.927814553498
 30
0.0
 11
2776.156955993245
 21
6521.0278145535
 31
0.0
  0
LINE
  5
7D0E
330
19
100
AcDbEntity
  8
1
100
AcDbLine
 10
3100.156955993246
 20
6500.927814553499
 30
0.0
 11
2916.156955993245
 21
6500.927814553499
 31
0.0
  0
LINE
  5
7D0F
330
19
100
AcDbEntity
  8
1
100
AcDbLine
 10
2916.156955993245
 20
6500.927814553499
 30
0.0
 11
2916.156955993245
 21
6521.0278145535
 31
0.0
  0
LINE
  5
7D10
330
19
100
AcDbEntity
  8
1
100
AcDbLine
 10
3100.156955993246
 20
6423.027814553499
 30
0.0
 11
3100.156955993246
 21
6500.927814553498
 31
0.0
  0
LINE
  5
7D11
330
19
100
AcDbEntity
  8
1
100
AcDbLine
 10
3226.156955993245
 20
6583.027814553499
 30
0.0
 11
1006.156955993245
 21
6583.02781455359
 31
0.0
  0
LINE
  5
7D13
330
19
100
AcDbEntity
  8
1
100
AcDbLine
 10
1026.156955993247
 20
7261.4778145535
 30
0.0
 11
1436.156955993252
 21
7261.477814553498
 31
0.0
  0
LINE
  5
7D14
330
19
100
AcDbEntity
  8
1
100
AcDbLine
 10
3671.156955993246
 20
8457.027814553496
 30
0.0
 11
1767.156955993246
 21
8457.027814553496
 31
0.0
  0
LINE
  5
7D15
330
19
100
AcDbEntity
  8
1
100
AcDbLine
 10
3671.156955993245
 20
6757.027814553497
 30
0.0
 11
1767.156955993245
 21
6757.027814553497
 31
0.0
  0
LINE
  5
7D16
330
19
100
AcDbEntity
  8
1
100
AcDbLine
 10
3671.156955993245
 20
8507.027814553497
 30
0.0
 11
3671.156955993246
 21
6707.027814553497
 31
0.0
  0
LINE
  5
7D17
330
19
100
AcDbEntity
  8
1
100
AcDbLine
 10
1767.156955993245
 20
8457.027814553496
 30
0.0
 11
1767.156955993245
 21
6757.027814553497
 31
0.0
  0
LINE
  5
7D18
330
19
100
AcDbEntity
  8
1
100
AcDbLine
 10
3596.156955993245
 20
6768.027814553497
 30
0.0
 11
3596.156955993245
 21
6416.027814553496
 31
0.0
  0
LINE
  5
7D19
330
19
100
AcDbEntity
  8
1
100
AcDbLine
 10
1332.156955993245
 20
6500.927814553499
 30
0.0
 11
1286.156955993245
 21
6500.927814553499
 31
0.0
  0
LINE
  5
7D1A
330
19
100
AcDbEntity
  8
1
100
AcDbLine
 10
1332.156955993245
 20
6423.027814553499
 30
0.0
 11
1120.156955993245
 21
6423.027814553499
 31
0.0
  0
DIMENSION
  5
7D1B
330
19
100
AcDbEntity
  8
3
100
AcDbDimension
280
     0
  2
*D14
 10
4045.173097229079
 20
6416.027814553498
 30
0.0
 11
3945.173097229078
 21
7476.027814553498
 31
0.0
 70
    32
 71
     5
 42
-1.0
 73
     0
 74
     0
 75
     0
  3
IGA
100
AcDbAlignedDimension
 13
3596.156955993245
 23
8536.027814553497
 33
0.0
 14
3596.156955993245
 24
6416.027814553498
 34
0.0
 50
90.0
100
AcDbRotatedDimension
1001
ACAD
1000
DSTYLE
1002
{
1070
   287
1070
     3
1070
    40
1040
40.0
1070
   143
1040
0.039
1070
   172
1070
     1
1070
   271
1070
     0
1070
   279
1070
     0
1070
   288
1070
     1
1002
}
  0
DIMENSION
  5
7D1C
330
19
100
AcDbEntity
  8
3
100
AcDbDimension
280
     0
  2
*D15
 10
2096.156955993245
 20
8740.663953058682
 30
0.0
 11
2846.156955993245
 21
8840.663953058681
 31
0.0
 70
    32
 71
     5
 42
-1.0
 73
     0
 74
     0
 75
     0
  3
IGA
100
AcDbAlignedDimension
 13
3596.156955993245
 23
8536.027814553497
 33
0.0
 14
2096.156955993245
 24
8536.027814553497
 34
0.0
100
AcDbRotatedDimension
1001
ACAD
1000
DSTYLE
1002
{
1070
   287
1070
     3
1070
    40
1040
40.0
1070
   143
1040
0.039
1070
   172
1070
     1
1070
   271
1070
     0
1070
   279
1070
     0
1070
   288
1070
     1
1002
}
  0
DIMENSION
  5
7D1D
330
19
100
AcDbEntity
  8
3
100
AcDbDimension
280
     0
  2
*D16
 10
946.1569559932451
 20
8740.663953058682
 30
0.0
 11
1521.156955993245
 21
8840.663953058681
 31
0.0
 70
    32
 71
     5
 42
-1.0
 73
     0
 74
     0
 75
     0
  3
IGA
100
AcDbAlignedDimension
 13
2096.156955993245
 23
8536.027814553497
 33
0.0
 14
946.1569559932449
 24
7516.027814553497
 34
0.0
100
AcDbRotatedDimension
1001
ACAD
1000
DSTYLE
1002
{
1070
   287
1070
     3
1070
    40
1040
40.0
1070
   143
1040
0.039
1070
   172
1070
     1
1070
   271
1070
     0
1070
   279
1070
     0
1070
   288
1070
     1
1002
}
  0
DIMENSION
  5
7D1E
330
19
100
AcDbEntity
  8
3
100
AcDbDimension
280
     0
  2
*D17
 10
679.830554885666
 20
6416.027814553498
 30
0.0
 11
579.830554885665
 21
6966.027814553497
 31
0.0
 70
    32
 71
     5
 42
-1.0
 73
     0
 74
     0
 75
     0
  3
IGA
100
AcDbAlignedDimension
 13
946.1569559932449
 23
7516.027814553497
 33
0.0
 14
946.1569559932449
 24
6416.027814553498
 34
0.0
 50
90.0
100
AcDbRotatedDimension
1001
ACAD
1000
DSTYLE
1002
{
1070
   287
1070
     3
1070
    40
1040
40.0
1070
   143
1040
0.039
1070
   172
1070
     1
1070
   271
1070
     0
1070
   279
1070
     0
1070
   288
1070
     1
1002
}
  0
DIMENSION
  5
7D1F
330
19
100
AcDbEntity
  8
3
100
AcDbDimension
280
     0
  2
*D18
 10
3596.156955993245
 20
6040.273936363845
 30
0.0
 11
2271.156955993245
 21
6140.273936363844
 31
0.0
 70
    32
 71
     5
 42
-1.0
 73
     0
 74
     0
 75
     0
  3
IGA
100
AcDbAlignedDimension
 13
946.1569559932449
 23
6416.027814553498
 33
0.0
 14
3596.156955993245
 24
6416.027814553498
 34
0.0
100
AcDbRotatedDimension
1001
ACAD
1000
DSTYLE
1002
{
1070
   287
1070
     3
1070
    40
1040
40.0
1070
   143
1040
0.039
1070
   172
1070
     1
1070
   271
1070
     0
1070
   279
1070
     0
1070
   288
1070
     1
1002
}
  0
DIMENSION
  5
7D20
330
19
100
AcDbEntity
  8
3
100
AcDbDimension
280
     0
  2
*D19
 10
946.1569559932451
 20
5607.120238149416
 30
0.0
 11
2308.656955993245
 21
5707.120238149417
 31
0.0
 70
    32
 71
     5
 42
-1.0
 73
     0
 74
     0
 75
     0
  3
IGA
100
AcDbAlignedDimension
 13
3671.156955993245
 23
5133.144075523784
 33
0.0
 14
946.1569559932449
 24
2946.144075523784
 34
0.0
100
AcDbRotatedDimension
1001
ACAD
1000
DSTYLE
1002
{
1070
   287
1070
     3
1070
    40
1040
40.0
1070
   143
1040
0.039
1070
   172
1070
     1
1070
   271
1070
     0
1070
   279
1070
     0
1070
   288
1070
     1
1002
}
  0
DIMENSION
  5
8049
330
19
100
AcDbEntity
  8
3
100
AcDbDimension
280
     0
  2
*D21
 10
4170.57822273558
 20
2641.144075523784
 30
0.0
 11
4070.57822273558
 21
2344.001218380928
 31
0.0
 70
    32
 71
     5
 42
75.0
 73
     0
 74
     0
 75
     0
  3
IGA
100
AcDbAlignedDimension
 13
3596.156955993245
 23
2716.144075523784
 33
0.0
 14
3596.156955993246
 24
2641.144075523784
 34
0.0
 50
90.0
100
AcDbRotatedDimension
1001
ACAD
1000
DSTYLE
1002
{
1070
   287
1070
     3
1070
    40
1040
40.0
1070
   143
1040
0.039
1070
   172
1070
     1
1070
   271
1070
     0
1070
   279
1070
     0
1070
   288
1070
     1
1070
     6
1000
DOT
1002
}
  0
LINE
  5
8092
330
19
100
AcDbEntity
  8
4
100
AcDbLine
 10
7400.0
 20
1613.487465878468
 30
0.0
 11
7400.0
 21
813.4874658784685
 31
0.0
  0
LINE
  5
8093
330
19
100
AcDbEntity
  8
4
100
AcDbLine
 10
4600.0
 20
1613.487465878468
 30
0.0
 11
4600.0
 21
813.4874658784685
 31
0.0
  0
LINE
  5
8094
330
19
100
AcDbEntity
  8
4
100
AcDbLine
 10
2600.0
 20
1613.487465878468
 30
0.0
 11
2600.0
 21
813.4874658784685
 31
0.0
  0
LINE
  5
8097
330
19
100
AcDbEntity
  8
4
100
AcDbLine
 10
2600.0
 20
813.4874658784683
 30
0.0
 11
7400.0
 21
813.4874658784683
 31
0.0
  0
LINE
  5
8098
330
19
100
AcDbEntity
  8
4
100
AcDbLine
 10
2600.0
 20
1213.487465878468
 30
0.0
 11
7400.0
 21
1213.487465878468
 31
0.0
  0
TEXT
  5
8099
330
19
100
AcDbEntity
  8
4
100
AcDbText
 10
2754.008323387607
 20
1339.65956934492
 30
0.0
 40
200.0
  1
機器名称
100
AcDbText
  0
TEXT
  5
809A
330
19
100
AcDbEntity
  8
4
100
AcDbText
 10
2745.032424099191
 20
900.068092806512
 30
0.0
 40
200.0
  1
機器型番
100
AcDbText
  0
TEXT
  5
809B
330
19
100
AcDbEntity
  8
4
100
AcDbText
 10
4711.644275701795
 20
1303.337989036803
 30
0.0
 40
170.0
  1
ミツヤリミットロードファン
100
AcDbText
  0
TEXT
  5
809C
330
19
100
AcDbEntity
  8
4
100
AcDbText
 10
4746.617982341923
 20
882.1258029982418
 30
0.0
 40
200.0
  1
LL#8-5
100
AcDbText
  0
TEXT
  5
809E
330
19
100
AcDbEntity
  8
4
100
AcDbText
 10
2904.810751349724
 20
9533.715365330063
 30
0.0
 40
216.0
  1
床置防振ベット
100
AcDbText
  0
TEXT
  5
809F
330
19
100
AcDbEntity
  8
4
100
AcDbText
 10
1264.670373317785
 20
10135.52390479719
 30
0.0
 40
288.0
  1
遠心式両吸込両持リミットロードファン
100
AcDbText
  0
LINE
  5
80A0
330
19
100
AcDbEntity
  8
4
100
AcDbLine
 10
1000.0
 20
9877.635017059219
 30
0.0
 11
7400.0
 21
9877.635017059219
 31
0.0
  0
LINE
  5
80A1
330
19
100
AcDbEntity
  8
4
100
AcDbLine
 10
1000.0
 20
10677.63501705922
 30
0.0
 11
7400.0
 21
10677.63501705922
 31
0.0
  0
LINE
  5
80A2
330
19
100
AcDbEntity
  8
4
100
AcDbLine
 10
2600.0
 20
1613.487465878468
 30
0.0
 11
7400.0
 21
1613.487465878468
 31
0.0
  0
LINE
  5
80A3
330
19
100
AcDbEntity
  8
4
100
AcDbLine
 10
1000.0
 20
10677.63501705922
 30
0.0
 11
1000.0
 21
9877.635017059219
 31
0.0
  0
TEXT
  5
80A4
330
19
100
AcDbEntity
  8
4
100
AcDbText
 10
1161.375422378915
 20
9529.277910185374
 30
0.0
 40
216.0
  1
右回転右横向
100
AcDbText
  0
TEXT
  5
80A5
330
19
100
AcDbEntity
  8
4
100
AcDbText
 10
5875.878236997159
 20
10824.24432598123
 30
0.0
 40
224.0
  1
No.
100
AcDbText
  0
TEXT
  5
80A6
330
19
100
AcDbEntity
  8
4
100
AcDbText
 10
5245.184250400052
 20
9533.715365330063
 30
0.0
 40
216.0
  1
縮尺：1/40
100
AcDbText
  0
LINE
  5
80A7
330
19
100
AcDbEntity
  8
4
100
AcDbLine
 10
7400.0
 20
10677.63501705922
 30
0.0
 11
7400.0
 21
9877.635017059219
 31
0.0
  0
LINE
  5
80A8
330
19
100
AcDbEntity
  8
4
100
AcDbLine
 10
8400.0
 20
11800.0
 30
0.0
 11
8400.0
 21
11800.0
 31
0.0
  0
LINE
  5
80A9
330
19
100
AcDbEntity
  8
4
100
AcDbLine
 10
5762.469689439458
 20
10725.0543325016
 30
0.0
 11
5762.469689439458
 21
11146.60904619901
 31
0.0
  0
LINE
  5
80AA
330
19
100
AcDbEntity
  8
4
100
AcDbLine
 10
5762.469689439458
 20
11146.60904619901
 30
0.0
 11
7400.0
 21
11146.60904619901
 31
0.0
  0
LINE
  5
80AB
330
19
100
AcDbEntity
  8
4
100
AcDbLine
 10
7400.0
 20
11146.60904619901
 30
0.0
 11
7400.0
 21
10725.0543325016
 31
0.0
  0
LINE
  5
80AC
330
19
100
AcDbEntity
  8
4
100
AcDbLine
 10
7400.0
 20
10725.0543325016
 30
0.0
 11
5762.469689439458
 21
10725.0543325016
 31
0.0
  0
LINE
  5
80AD
330
19
100
AcDbEntity
  8
4
100
AcDbLine
 10
0.0
 20
0.0
 30
0.0
 11
0.0
 21
11800.0
 31
0.0
  0
LINE
  5
80AE
330
19
100
AcDbEntity
  8
4
100
AcDbLine
 10
0.0
 20
11800.0
 30
0.0
 11
8400.0
 21
11800.0
 31
0.0
  0
LINE
  5
80AF
330
19
100
AcDbEntity
  8
4
100
AcDbLine
 10
8400.0
 20
11800.0
 30
0.0
 11
8400.0
 21
0.0
 31
0.0
  0
LINE
  5
80B0
330
19
100
AcDbEntity
  8
4
100
AcDbLine
 10
8400.0
 20
0.0
 30
0.0
 11
0.0
 21
0.0
 31
0.0
  0
DIMENSION
  5
824E
330
19
100
AcDbEntity
  8
3
100
AcDbDimension
280
     0
  2
*D24
 10
4172.146595954378
 20
2821.144075523784
 30
0.0
 11
4318.32554115144
 21
2768.644075523784
 31
0.0
 70
   160
  1
   <>
 71
     5
 42
105.0
 73
     0
 74
     0
 75
     0
  3
IGA
100
AcDbAlignedDimension
 13
3596.156955993245
 23
2716.144075523784
 33
0.0
 14
3596.156955993245
 24
2821.144075523784
 34
0.0
 50
90.0
100
AcDbRotatedDimension
1001
ACAD
1000
DSTYLE
1002
{
1070
     3
1000
(<>)
1070
    40
1040
40.0
1070
    75
1070
     1
1070
    76
1070
     1
1070
   143
1040
0.039
1070
   172
1070
     1
1070
   271
1070
     0
1070
   343
1005
8229
1070
   344
1005
8229
1002
}
  0
DIMENSION
  5
825B
330
19
100
AcDbEntity
  8
3
100
AcDbDimension
280
     0
  2
*D25
 10
4519.381584150905
 20
2641.144075523784
 30
0.0
 11
4387.953012722333
 21
3860.644075523784
 31
0.0
 70
    32
 71
     5
 42
2439.0
 73
     0
 74
     0
 75
     0
  3
IGA
100
AcDbAlignedDimension
 13
3671.156955993245
 23
5080.144075523783
 33
0.0
 14
3596.156955993245
 24
2641.144075523784
 34
0.0
 50
90.0
100
AcDbRotatedDimension
1001
ACAD
1000
DSTYLE
1002
{
1070
   172
1070
     1
1070
    40
1040
40.0
1070
     3
1000
(<>)
1070
   271
1070
     0
1070
   143
1040
0.039
1002
}
  0
ENDSEC
  0
SECTION
  2
OBJECTS
  0
DICTIONARY
  5
C
330
0
100
AcDbDictionary
281
     1
  3
ACAD_CIP_PREVIOUS_PRODUCT_INFO
350
83C3
  3
ACAD_COLOR
350
83A6
  3
ACAD_DETAILVIEWSTYLE
350
83BF
  3
ACAD_GROUP
350
D
  3
ACAD_LAYOUT
350
827D
  3
ACAD_MATERIAL
350
8374
  3
ACAD_MLEADERSTYLE
350
83BB
  3
ACAD_MLINESTYLE
350
E
  3
ACAD_PLOTSETTINGS
350
827E
  3
ACAD_PLOTSTYLENAME
350
827B
  3
ACAD_SCALELIST
350
83A9
  3
ACAD_SECTIONVIEWSTYLE
350
83BD
  3
ACAD_TABLESTYLE
350
83A7
  3
ACAD_VISUALSTYLE
350
838D
  3
ACDB_RECOMPOSE_DATA
350
8486
  3
AcDbVariableDictionary
350
836B
  3
AcDsDecomposeData
350
848C
  0
DICTIONARY
  5
8413
330
2
100
AcDbDictionary
280
     1
281
     1
  3
ACAD_LAYERSTATES
360
8414
  0
DICTIONARY
  5
8406
330
F
100
AcDbDictionary
280
     1
281
     1
  3
ADSK_XREC_LAYER_RECONCILED
360
8407
  0
DICTIONARY
  5
8408
330
31
100
AcDbDictionary
280
     1
281
     1
  3
ADSK_XREC_LAYER_RECONCILED
360
8409
  0
DICTIONARY
  5
840A
330
76D0
100
AcDbDictionary
280
     1
281
     1
  3
ADSK_XREC_LAYER_RECONCILED
360
840B
  0
DICTIONARY
  5
840C
330
76D1
100
AcDbDictionary
280
     1
281
     1
  3
ADSK_XREC_LAYER_RECONCILED
360
840D
  0
DICTIONARY
  5
840E
330
76D2
100
AcDbDictionary
280
     1
281
     1
  3
ADSK_XREC_LAYER_RECONCILED
360
840F
  0
DICTIONARY
  5
82AA
330
19
100
AcDbDictionary
280
     1
281
     1
  3
ACAD_LAYOUTSELFREF
360
82AB
  0
DICTIONARY
  5
82A8
330
16
100
AcDbDictionary
280
     1
281
     1
  3
ACAD_LAYOUTSELFREF
360
82A9
  0
XRECORD
  5
83C3
102
{ACAD_REACTORS
330
C
102
}
330
C
100
AcDbXrecord
280
     1
300
ACDLT
300
2023
300

  0
DICTIONARY
  5
83A6
102
{ACAD_REACTORS
330
C
102
}
330
C
100
AcDbDictionary
281
     1
  0
DICTIONARY
  5
83BF
102
{ACAD_REACTORS
330
C
102
}
330
C
100
AcDbDictionary
281
     1
  3
Metric50
350
83C0
  0
DICTIONARY
  5
D
102
{ACAD_REACTORS
330
C
102
}
330
C
100
AcDbDictionary
281
     1
  0
DICTIONARY
  5
827D
102
{ACAD_REACTORS
330
C
102
}
330
C
100
AcDbDictionary
281
     1
  3
Model
350
827F
  3
ﾚｲｱｳﾄ1
350
8280
  0
DICTIONARY
  5
8374
102
{ACAD_REACTORS
330
C
102
}
330
C
100
AcDbDictionary
281
     1
  3
ByBlock
350
837D
  3
ByLayer
350
8375
  3
Global
350
8385
  0
DICTIONARY
  5
83BB
102
{ACAD_REACTORS
330
C
102
}
330
C
100
AcDbDictionary
281
     1
  3
Standard
350
83BC
  0
DICTIONARY
  5
E
102
{ACAD_REACTORS
330
C
102
}
330
C
100
AcDbDictionary
281
     1
  3
STANDARD
350
1C
  0
DICTIONARY
  5
827E
102
{ACAD_REACTORS
330
C
102
}
330
C
100
AcDbDictionary
281
     1
  0
ACDBDICTIONARYWDFLT
  5
827B
102
{ACAD_REACTORS
330
C
102
}
330
C
100
AcDbDictionary
281
     1
  3
Normal
350
827C
100
AcDbDictionaryWithDefault
340
827C
  0
DICTIONARY
  5
83A9
102
{ACAD_REACTORS
330
C
102
}
330
C
100
AcDbDictionary
281
     1
  3
A0
350
83AA
  3
A1
350
83AB
  3
A2
350
83AC
  3
A3
350
83AD
  3
A4
350
83AE
  3
A5
350
83AF
  3
A6
350
83B0
  3
A7
350
83B1
  3
A8
350
83B2
  3
A9
350
83B3
  3
B0
350
83B4
  3
B1
350
83B5
  3
B2
350
83B6
  3
B3
350
83B7
  3
B4
350
83B8
  3
B5
350
83B9
  3
B6
350
83BA
  0
DICTIONARY
  5
83BD
102
{ACAD_REACTORS
330
C
102
}
330
C
100
AcDbDictionary
281
     1
  3
Metric50
350
83BE
  0
DICTIONARY
  5
83A7
102
{ACAD_REACTORS
330
C
102
}
330
C
100
AcDbDictionary
281
     1
  3
Standard
350
83A8
  0
DICTIONARY
  5
838D
102
{ACAD_REACTORS
330
C
102
}
330
C
100
AcDbDictionary
281
     1
  3
2dWireframe
350
8393
  3
Basic
350
8392
  3
Brighten
350
8399
  3
ColorChange
350
839D
  3
Conceptual
350
8396
  3
Dim
350
8398
  3
EdgeColorOff
350
83A5
  3
Facepattern
350
839C
  3
Flat
350
838E
  3
FlatWithEdges
350
838F
  3
Gouraud
350
8390
  3
GouraudWithEdges
350
8391
  3
Hidden
350
8395
  3
JitterOff
350
83A3
  3
Linepattern
350
839B
  3
OverhangOff
350
83A4
  3
Realistic
350
8397
  3
Shaded
350
83A2
  3
Shaded with edges
350
83A1
  3
Shades of Gray
350
839E
  3
Sketchy
350
839F
  3
Thicken
350
839A
  3
Wireframe
350
8394
  3
X-Ray
350
83A0
  0
XRECORD
  5
8486
102
{ACAD_REACTORS
330
C
102
}
330
C
100
AcDbXrecord
280
     1
 90
        1
330
83A8
  0
DICTIONARY
  5
836B
102
{ACAD_REACTORS
330
C
102
}
330
C
100
AcDbDictionary
281
     1
  3
CANNOSCALE
350
847B
  3
CMLEADERSTYLE
350
8477
  3
CTABLESTYLE
350
8476
  3
CVIEWDETAILSTYLE
350
8478
  3
CVIEWSECTIONSTYLE
350
8479
  3
DIMASSOC
350
836C
  3
LAYEREVAL
350
847D
  3
LAYERNOTIFY
350
847E
  3
LIGHTINGUNITS
350
847C
  3
MARKUPASSISTMODE
350
8483
  3
MSLTSCALE
350
847A
  0
DICTIONARY
  5
848C
102
{ACAD_REACTORS
330
C
102
}
330
C
100
AcDbDictionary
281
     1
  3
AcDsRecords
350
848E
  3
AcDsSchemas
350
848D
1001
ACAD
1070
     2
  0
DICTIONARY
  5
8414
102
{ACAD_REACTORS
330
8413
102
}
330
8413
100
AcDbDictionary
281
     1
  0
XRECORD
  5
8407
102
{ACAD_REACTORS
330
8406
102
}
330
8406
100
AcDbXrecord
280
     1
290
     1
  0
XRECORD
  5
8409
102
{ACAD_REACTORS
330
8408
102
}
330
8408
100
AcDbXrecord
280
     1
290
     1
  0
XRECORD
  5
840B
102
{ACAD_REACTORS
330
840A
102
}
330
840A
100
AcDbXrecord
280
     1
290
     1
  0
XRECORD
  5
840D
102
{ACAD_REACTORS
330
840C
102
}
330
840C
100
AcDbXrecord
280
     1
290
     1
  0
XRECORD
  5
840F
102
{ACAD_REACTORS
330
840E
102
}
330
840E
100
AcDbXrecord
280
     1
290
     1
  0
XRECORD
  5
82AB
102
{ACAD_REACTORS
330
82AA
102
}
330
82AA
100
AcDbXrecord
280
     1
340
19
  0
XRECORD
  5
82A9
102
{ACAD_REACTORS
330
82A8
102
}
330
82A8
100
AcDbXrecord
280
     1
340
16
  0
ACDBDETAILVIEWSTYLE
  5
83C0
102
{ACAD_XDICTIONARY
360
8491
102
}
102
{ACAD_REACTORS
330
83BF
102
}
330
83BF
100
AcDbModelDocViewStyle
 70
     0
  3
Metric50
290
     0
100
AcDbDetailViewStyle
 70
     0
 71
     0
 90
        3
 71
     1
340
10
 62
   256
 40
5.0
340
0
 62
   256
 40
5.0
300

 40
0.0
280
     1
 71
     2
340
15
 90
       25
 62
   256
 71
     3
340
10
 62
   256
 40
5.0
 90
        0
 40
15.0
 90
        1
300
%<\AcVar ViewDetailId>% (%<\AcVar ViewScale \f "%sn">%)
 71
     4
340
15
 90
       25
 62
   256
340
15
 90
       25
 62
   256
280
     0
  0
LAYOUT
  5
827F
102
{ACAD_REACTORS
330
827D
102
}
330
827D
100
AcDbPlotSettings
  1

  2
\\Txbo34x8944cqyd\EPSON LP-6100
  4

  6

 40
0.0
 41
0.0
 42
0.0
 43
0.0
 44
0.0
 45
0.0
 46
0.0
 47
0.0
 48
0.0
 49
0.0
140
0.0
141
0.0
142
1.0
143
1.0
 70
  1712
 72
     0
 73
     0
 74
     0
  7
GOD2000TABLE.ctb
 75
     0
147
1.0
 76
     0
 77
     2
 78
   300
148
0.0
149
0.0
100
AcDbLayout
  1
Model
 70
     1
 71
     0
 10
0.0
 20
0.0
 11
12.0
 21
9.0
 12
0.0
 22
0.0
 32
0.0
 14
0.0
 24
0.0
 34
0.0
 15
0.0
 25
0.0
 35
0.0
146
0.0
 13
0.0
 23
0.0
 33
0.0
 16
1.0
 26
0.0
 36
0.0
 17
0.0
 27
1.0
 37
0.0
 76
     0
330
19
331
8372
  0
LAYOUT
  5
8280
102
{ACAD_REACTORS
330
827D
102
}
330
827D
100
AcDbPlotSettings
  1

  2
\\Txbo34x8944cqyd\EPSON LP-6100
  4

  6

 40
0.0
 41
0.0
 42
0.0
 43
0.0
 44
0.0
 45
0.0
 46
0.0
 47
0.0
 48
0.0
 49
0.0
140
0.0
141
0.0
142
1.0
143
1.0
 70
   688
 72
     0
 73
     0
 74
     5
  7
GOD2000TABLE.ctb
 75
    16
147
1.0
 76
     0
 77
     2
 78
   300
148
0.0
149
0.0
100
AcDbLayout
  1
ﾚｲｱｳﾄ1
 70
     1
 71
     1
 10
0.0
 20
0.0
 11
12.0
 21
9.0
 12
0.0
 22
0.0
 32
0.0
 14
1.000000000000000E+20
 24
1.000000000000000E+20
 34
1.000000000000000E+20
 15
-1.000000000000000E+20
 25
-1.000000000000000E+20
 35
-1.000000000000000E+20
146
0.0
 13
0.0
 23
0.0
 33
0.0
 16
1.0
 26
0.0
 36
0.0
 17
0.0
 27
1.0
 37
0.0
 76
     0
330
16
  0
MATERIAL
  5
837D
102
{ACAD_XDICTIONARY
360
837E
102
}
102
{ACAD_REACTORS
330
8374
102
}
330
8374
100
AcDbMaterial
  1
ByBlock
 72
     0
 43
0.0208333333333333
 43
0.0
 43
0.0
 43
0.0
 43
0.0
 43
0.0208333333333333
 43
0.0
 43
0.0
 43
0.0
 43
0.0
 43
1.0
 43
0.0
 43
0.0
 43
0.0
 43
0.0
 43
1.0
 77
     0
 47
0.0208333333333333
 47
0.0
 47
0.0
 47
0.0
 47
0.0
 47
0.0208333333333333
 47
0.0
 47
0.0
 47
0.0
 47
0.0
 47
1.0
 47
0.0
 47
0.0
 47
0.0
 47
0.0
 47
1.0
171
     0
 49
0.0208333333333333
 49
0.0
 49
0.0
 49
0.0
 49
0.0
 49
0.0208333333333333
 49
0.0
 49
0.0
 49
0.0
 49
0.0
 49
1.0
 49
0.0
 49
0.0
 49
0.0
 49
0.0
 49
1.0
175
     0
142
0.0208333333333333
142
0.0
142
0.0
142
0.0
142
0.0
142
0.0208333333333333
142
0.0
142
0.0
142
0.0
142
0.0
142
1.0
142
0.0
142
0.0
142
0.0
142
0.0
142
1.0
179
     0
144
0.0208333333333333
144
0.0
144
0.0
144
0.0
144
0.0
144
0.0208333333333333
144
0.0
144
0.0
144
0.0
144
0.0
144
1.0
144
0.0
144
0.0
144
0.0
144
0.0
144
1.0
147
0.0208333333333333
147
0.0
147
0.0
147
0.0
147
0.0
147
0.0208333333333333
147
0.0
147
0.0
147
0.0
147
0.0
147
1.0
147
0.0
147
0.0
147
0.0
147
0.0
147
1.0
  0
MATERIAL
  5
8375
102
{ACAD_XDICTIONARY
360
8376
102
}
102
{ACAD_REACTORS
330
8374
102
}
330
8374
100
AcDbMaterial
  1
ByLayer
 72
     0
 43
0.0208333333333333
 43
0.0
 43
0.0
 43
0.0
 43
0.0
 43
0.0208333333333333
 43
0.0
 43
0.0
 43
0.0
 43
0.0
 43
1.0
 43
0.0
 43
0.0
 43
0.0
 43
0.0
 43
1.0
 77
     0
 47
0.0208333333333333
 47
0.0
 47
0.0
 47
0.0
 47
0.0
 47
0.0208333333333333
 47
0.0
 47
0.0
 47
0.0
 47
0.0
 47
1.0
 47
0.0
 47
0.0
 47
0.0
 47
0.0
 47
1.0
171
     0
 49
0.0208333333333333
 49
0.0
 49
0.0
 49
0.0
 49
0.0
 49
0.0208333333333333
 49
0.0
 49
0.0
 49
0.0
 49
0.0
 49
1.0
 49
0.0
 49
0.0
 49
0.0
 49
0.0
 49
1.0
175
     0
142
0.0208333333333333
142
0.0
142
0.0
142
0.0
142
0.0
142
0.0208333333333333
142
0.0
142
0.0
142
0.0
142
0.0
142
1.0
142
0.0
142
0.0
142
0.0
142
0.0
142
1.0
179
     0
144
0.0208333333333333
144
0.0
144
0.0
144
0.0
144
0.0
144
0.0208333333333333
144
0.0
144
0.0
144
0.0
144
0.0
144
1.0
144
0.0
144
0.0
144
0.0
144
0.0
144
1.0
147
0.0208333333333333
147
0.0
147
0.0
147
0.0
147
0.0
147
0.0208333333333333
147
0.0
147
0.0
147
0.0
147
0.0
147
1.0
147
0.0
147
0.0
147
0.0
147
0.0
147
1.0
  0
MATERIAL
  5
8385
102
{ACAD_XDICTIONARY
360
8386
102
}
102
{ACAD_REACTORS
330
8374
102
}
330
8374
100
AcDbMaterial
  1
Global
 72
     0
 43
0.0208333333333333
 43
0.0
 43
0.0
 43
0.0
 43
0.0
 43
0.0208333333333333
 43
0.0
 43
0.0
 43
0.0
 43
0.0
 43
1.0
 43
0.0
 43
0.0
 43
0.0
 43
0.0
 43
1.0
 77
     0
 47
0.0208333333333333
 47
0.0
 47
0.0
 47
0.0
 47
0.0
 47
0.0208333333333333
 47
0.0
 47
0.0
 47
0.0
 47
0.0
 47
1.0
 47
0.0
 47
0.0
 47
0.0
 47
0.0
 47
1.0
171
     0
 49
0.0208333333333333
 49
0.0
 49
0.0
 49
0.0
 49
0.0
 49
0.0208333333333333
 49
0.0
 49
0.0
 49
0.0
 49
0.0
 49
1.0
 49
0.0
 49
0.0
 49
0.0
 49
0.0
 49
1.0
175
     0
142
0.0208333333333333
142
0.0
142
0.0
142
0.0
142
0.0
142
0.0208333333333333
142
0.0
142
0.0
142
0.0
142
0.0
142
1.0
142
0.0
142
0.0
142
0.0
142
0.0
142
1.0
179
     0
144
0.0208333333333333
144
0.0
144
0.0
144
0.0
144
0.0
144
0.0208333333333333
144
0.0
144
0.0
144
0.0
144
0.0
144
1.0
144
0.0
144
0.0
144
0.0
144
0.0
144
1.0
147
0.0208333333333333
147
0.0
147
0.0
147
0.0
147
0.0
147
0.0208333333333333
147
0.0
147
0.0
147
0.0
147
0.0
147
1.0
147
0.0
147
0.0
147
0.0
147
0.0
147
1.0
  0
MLEADERSTYLE
  5
83BC
102
{ACAD_REACTORS
330
83BB
102
}
330
83BB
100
AcDbMLeaderStyle
179
     2
170
     2
171
     1
172
     0
 90
        2
 40
0.0
 41
0.0
173
     1
 91
-1056964608
340
13
 92
       -2
290
     1
 42
2.0
291
     1
 43
0.36
  3
Standard
 44
4.0
300

342
10
174
     1
178
     6
175
     1
176
     0
 93
-1056964608
 45
4.0
292
     0
297
     0
 46
4.0
 94
-1056964608
 47
1.0
 49
1.0
140
1.0
293
     1
141
0.0
294
     1
177
     0
142
1.0
295
     0
296
     0
143
0.125
271
     0
272
     9
273
     9
298
     1
  0
MLINESTYLE
  5
1C
102
{ACAD_REACTORS
330
E
102
}
330
E
100
AcDbMlineStyle
  2
STANDARD
 70
     0
  3

 62
     0
 51
90.0
 52
90.0
 71
     2
 49
0.5
 62
   256
  6
BYLAYER
 49
-0.5
 62
   256
  6
BYLAYER
  0
ACDBPLACEHOLDER
  5
827C
102
{ACAD_REACTORS
330
827B
102
}
330
827B
  0
SCALE
  5
83AA
102
{ACAD_REACTORS
330
83A9
102
}
330
83A9
100
AcDbScale
 70
     0
300
1:1
140
1.0
141
1.0
290
     1
  0
SCALE
  5
83AB
102
{ACAD_REACTORS
330
83A9
102
}
330
83A9
100
AcDbScale
 70
     0
300
1:2
140
1.0
141
2.0
290
     0
  0
SCALE
  5
83AC
102
{ACAD_REACTORS
330
83A9
102
}
330
83A9
100
AcDbScale
 70
     0
300
1:4
140
1.0
141
4.0
290
     0
  0
SCALE
  5
83AD
102
{ACAD_REACTORS
330
83A9
102
}
330
83A9
100
AcDbScale
 70
     0
300
1:5
140
1.0
141
5.0
290
     0
  0
SCALE
  5
83AE
102
{ACAD_REACTORS
330
83A9
102
}
330
83A9
100
AcDbScale
 70
     0
300
1:8
140
1.0
141
8.0
290
     0
  0
SCALE
  5
83AF
102
{ACAD_REACTORS
330
83A9
102
}
330
83A9
100
AcDbScale
 70
     0
300
1:10
140
1.0
141
10.0
290
     0
  0
SCALE
  5
83B0
102
{ACAD_REACTORS
330
83A9
102
}
330
83A9
100
AcDbScale
 70
     0
300
1:16
140
1.0
141
16.0
290
     0
  0
SCALE
  5
83B1
102
{ACAD_REACTORS
330
83A9
102
}
330
83A9
100
AcDbScale
 70
     0
300
1:20
140
1.0
141
20.0
290
     0
  0
SCALE
  5
83B2
102
{ACAD_REACTORS
330
83A9
102
}
330
83A9
100
AcDbScale
 70
     0
300
1:30
140
1.0
141
30.0
290
     0
  0
SCALE
  5
83B3
102
{ACAD_REACTORS
330
83A9
102
}
330
83A9
100
AcDbScale
 70
     0
300
1:40
140
1.0
141
40.0
290
     0
  0
SCALE
  5
83B4
102
{ACAD_REACTORS
330
83A9
102
}
330
83A9
100
AcDbScale
 70
     0
300
1:50
140
1.0
141
50.0
290
     0
  0
SCALE
  5
83B5
102
{ACAD_REACTORS
330
83A9
102
}
330
83A9
100
AcDbScale
 70
     0
300
1:100
140
1.0
141
100.0
290
     0
  0
SCALE
  5
83B6
102
{ACAD_REACTORS
330
83A9
102
}
330
83A9
100
AcDbScale
 70
     0
300
2:1
140
2.0
141
1.0
290
     0
  0
SCALE
  5
83B7
102
{ACAD_REACTORS
330
83A9
102
}
330
83A9
100
AcDbScale
 70
     0
300
4:1
140
4.0
141
1.0
290
     0
  0
SCALE
  5
83B8
102
{ACAD_REACTORS
330
83A9
102
}
330
83A9
100
AcDbScale
 70
     0
300
8:1
140
8.0
141
1.0
290
     0
  0
SCALE
  5
83B9
102
{ACAD_REACTORS
330
83A9
102
}
330
83A9
100
AcDbScale
 70
     0
300
10:1
140
10.0
141
1.0
290
     0
  0
SCALE
  5
83BA
102
{ACAD_REACTORS
330
83A9
102
}
330
83A9
100
AcDbScale
 70
     0
300
100:1
140
100.0
141
1.0
290
     0
  0
ACDBSECTIONVIEWSTYLE
  5
83BE
102
{ACAD_XDICTIONARY
360
848F
102
}
102
{ACAD_REACTORS
330
83BD
102
}
330
83BD
100
AcDbModelDocViewStyle
 70
     0
  3
Metric50
290
     0
100
AcDbSectionViewStyle
 70
     0
 71
     0
 90
      102
 71
     1
340
10
 62
   256
 40
5.0
340
0
340
0
 62
   256
 40
5.0
300
I, O, Q, S, X, Z
 40
10.0
 90
        0
 40
2.5
 90
        0
 71
     2
340
15
 90
       25
 62
   256
340
15
 90
       50
 62
   256
 40
5.0
 40
2.5
 40
5.0
 71
     3
340
10
 62
   256
 40
5.0
 90
        0
 40
15.0
 90
        1
300
%<\AcVar ViewSectionStartId>%-%<\AcVar ViewSectionEndId>% (%<\AcVar ViewScale \f "%sn">%)
 71
     4
 62
   256
 62
   257
300
ANSI31
 40
1.0
 90
        0
290
     0
290
     0
 90
        6
 40
0.0
 40
1.570796326794896
 40
0.2617993877991494
 40
1.308996938995747
 40
-0.2617993877991494
 40
1.832595714594046
  0
TABLESTYLE
  5
83A8
102
{ACAD_XDICTIONARY
360
8484
102
}
102
{ACAD_REACTORS
330
83A7
102
}
330
83A7
100
AcDbTableStyle
280
     0
  3
Standard
 70
     0
 71
     0
 40
1.5
 41
1.5
280
     0
281
     0
  7
STANDARD
140
4.5
170
     2
 62
     0
 63
     7
283
     0
 90
      512
 91
        0
  1

274
    -2
284
     1
 64
     0
275
    -2
285
     1
 65
     0
276
    -2
286
     1
 66
     0
277
    -2
287
     1
 67
     0
278
    -2
288
     1
 68
     0
279
    -2
289
     1
 69
     0
  7
STANDARD
140
6.0
170
     5
 62
     0
 63
     7
283
     0
 90
      512
 91
        0
  1

274
    -2
284
     1
 64
     0
275
    -2
285
     1
 65
     0
276
    -2
286
     1
 66
     0
277
    -2
287
     1
 67
     0
278
    -2
288
     1
 68
     0
279
    -2
289
     1
 69
     0
  7
STANDARD
140
4.5
170
     5
 62
     0
 63
     7
283
     0
 90
      512
 91
        0
  1

274
    -2
284
     1
 64
     0
275
    -2
285
     1
 65
     0
276
    -2
286
     1
 66
     0
277
    -2
287
     1
 67
     0
278
    -2
288
     1
 68
     0
279
    -2
289
     1
 69
     0
  0
VISUALSTYLE
  5
8393
102
{ACAD_REACTORS
330
838D
102
}
330
838D
100
AcDbVisualStyle
  2
2dWireframe
 70
     4
177
     3
291
     0
 70
    58
 90
        0
176
     1
 90
        2
176
     1
 90
        0
176
     1
 90
        0
176
     1
 40
0.6
176
     1
 40
30.0
176
     1
 62
     7
420
 16777215
176
     1
 90
        1
176
     1
 90
        4
176
     1
 62
     7
176
     1
 62
   257
176
     1
 90
        1
176
     1
 90
        1
176
     1
 40
1.0
176
     1
 90
        0
176
     1
 62
   257
176
     1
 40
1.0
176
     1
 90
        1
176
     1
 90
        6
176
     1
 90
        2
176
     1
 62
     7
176
     1
 90
        5
176
     1
 90
        0
176
     1
 90
        0
176
     1
290
     0
176
     1
 90
        1
176
     1
 40
0.0
176
     1
 90
        0
176
     1
290
     1
176
     1
290
     1
176
     1
290
     0
176
     1
290
     0
176
     1
290
     0
176
     1
290
     0
176
     1
290
     0
176
     1
290
     0
176
     1
290
     0
176
     1
 90
       50
176
     1
 40
0.0
176
     1
 40
1.0
176
     1
 90
        0
176
     1
 62
    18
420
        0
176
     1
 90
       50
176
     1
 90
        3
176
     1
 62
     5
420
      255
176
     1
290
     0
176
     1
 90
       50
176
     1
 90
       50
176
     1
 90
       50
176
     1
290
     0
176
     1
 90
       50
176
     1
 62
   256
176
     0
 40
1.0
176
     0
 90
        2
176
     1
  1
strokes_ogs.tif
176
     1
290
     0
176
     1
 40
1.0
176
     1
 40
1.0
176
     1
1001
ACAD
1000
AcDbSavedByObjectVersion
1070
     0
  0
VISUALSTYLE
  5
8392
102
{ACAD_REACTORS
330
838D
102
}
330
838D
100
AcDbVisualStyle
  2
Basic
 70
     7
177
     3
291
     1
 70
    58
 90
        1
176
     1
 90
        0
176
     1
 90
        1
176
     1
 90
        0
176
     1
 40
0.6
176
     1
 40
30.0
176
     1
 62
     7
420
 16777215
176
     1
 90
        0
176
     1
 90
        4
176
     1
 62
     7
176
     1
 62
   257
176
     1
 90
        1
176
     1
 90
        1
176
     1
 40
1.0
176
     1
 90
        8
176
     1
 62
     7
176
     1
 40
1.0
176
     1
 90
        1
176
     1
 90
        6
176
     1
 90
        2
176
     1
 62
     7
176
     1
 90
        5
176
     1
 90
        0
176
     1
 90
        0
176
     1
290
     0
176
     1
 90
        1
176
     1
 40
0.0
176
     1
 90
        0
176
     1
290
     0
176
     1
290
     1
176
     1
290
     1
176
     1
290
     0
176
     1
290
     0
176
     1
290
     0
176
     1
290
     0
176
     1
290
     0
176
     1
290
     0
176
     1
 90
       50
176
     1
 40
0.0
176
     1
 40
1.0
176
     1
 90
        0
176
     1
 62
    18
420
        0
176
     1
 90
       50
176
     1
 90
        3
176
     1
 62
     5
420
      255
176
     1
290
     0
176
     1
 90
       50
176
     1
 90
       50
176
     1
 90
       50
176
     1
290
     0
176
     1
 90
       50
176
     1
 62
   256
176
     0
 40
1.0
176
     0
 90
        2
176
     1
  1
strokes_ogs.tif
176
     1
290
     0
176
     1
 40
1.0
176
     1
 40
1.0
176
     1
1001
ACAD
1000
AcDbSavedByObjectVersion
1070
     0
  0
VISUALSTYLE
  5
8399
102
{ACAD_REACTORS
330
838D
102
}
330
838D
100
AcDbVisualStyle
  2
Brighten
 70
    12
177
     3
291
     1
 70
    58
 90
        2
176
     1
 90
        2
176
     1
 90
        0
176
     1
 90
        0
176
     1
 40
0.6
176
     1
 40
30.0
176
     1
 62
     7
420
 16777215
176
     1
 90
        1
176
     1
 90
        4
176
     1
 62
     7
176
     1
 62
   257
176
     1
 90
        1
176
     1
 90
        1
176
     1
 40
1.0
176
     1
 90
        8
176
     1
 62
     7
176
     1
 40
1.0
176
     1
 90
        1
176
     1
 90
        6
176
     1
 90
        2
176
     1
 62
     7
176
     1
 90
        5
176
     1
 90
        0
176
     1
 90
        0
176
     1
290
     0
176
     1
 90
        1
176
     1
 40
50.0
176
     1
 90
        0
176
     1
290
     0
176
     1
290
     1
176
     1
290
     1
176
     1
290
     0
176
     1
290
     0
176
     1
290
     0
176
     1
290
     0
176
     1
290
     0
176
     1
290
     0
176
     1
 90
       50
176
     1
 40
0.0
176
     1
 40
1.0
176
     1
 90
        0
176
     1
 62
    18
420
        0
176
     1
 90
       50
176
     1
 90
        3
176
     1
 62
     5
420
      255
176
     1
290
     0
176
     1
 90
       50
176
     1
 90
       50
176
     1
 90
       50
176
     1
290
     0
176
     1
 90
       50
176
     1
 62
   256
176
     0
 40
1.0
176
     0
 90
        2
176
     1
  1
strokes_ogs.tif
176
     1
290
     0
176
     1
 40
1.0
176
     1
 40
1.0
176
     1
1001
ACAD
1000
AcDbSavedByObjectVersion
1070
     0
  0
VISUALSTYLE
  5
839D
102
{ACAD_REACTORS
330
838D
102
}
330
838D
100
AcDbVisualStyle
  2
ColorChange
 70
    16
177
     3
291
     1
 70
    58
 90
        2
176
     1
 90
        2
176
     1
 90
        3
176
     1
 90
        0
176
     1
 40
0.6
176
     1
 40
30.0
176
     1
 62
     8
420
  8421504
176
     1
 90
        1
176
     1
 90
        4
176
     1
 62
     7
176
     1
 62
   257
176
     1
 90
        1
176
     1
 90
        1
176
     1
 40
1.0
176
     1
 90
        8
176
     1
 62
     8
420
  8421504
176
     1
 40
1.0
176
     1
 90
        1
176
     1
 90
        6
176
     1
 90
        2
176
     1
 62
     7
176
     1
 90
        5
176
     1
 90
        0
176
     1
 90
        0
176
     1
290
     0
176
     1
 90
        1
176
     1
 40
0.0
176
     1
 90
        0
176
     1
290
     0
176
     1
290
     1
176
     1
290
     1
176
     1
290
     0
176
     1
290
     0
176
     1
290
     0
176
     1
290
     0
176
     1
290
     0
176
     1
290
     0
176
     1
 90
       50
176
     1
 40
0.0
176
     1
 40
1.0
176
     1
 90
        0
176
     1
 62
    18
420
        0
176
     1
 90
       50
176
     1
 90
        3
176
     1
 62
     5
420
      255
176
     1
290
     0
176
     1
 90
       50
176
     1
 90
       50
176
     1
 90
       50
176
     1
290
     0
176
     1
 90
       50
176
     1
 62
   256
176
     0
 40
1.0
176
     0
 90
        2
176
     1
  1
strokes_ogs.tif
176
     1
290
     0
176
     1
 40
1.0
176
     1
 40
1.0
176
     1
1001
ACAD
1000
AcDbSavedByObjectVersion
1070
     0
  0
VISUALSTYLE
  5
8396
102
{ACAD_REACTORS
330
838D
102
}
330
838D
100
AcDbVisualStyle
  2
Conceptual
 70
     9
177
     3
291
     0
 70
    58
 90
        3
176
     1
 90
        2
176
     1
 90
        0
176
     1
 90
        0
176
     1
 40
0.6
176
     1
 40
30.0
176
     1
 62
     7
420
 16777215
176
     1
 90
        2
176
     1
 90
        2
176
     1
 62
     7
176
     1
 62
   257
176
     1
 90
        1
176
     1
 90
        1
176
     1
 40
179.0
176
     1
 90
        8
176
     1
 62
     7
176
     1
 40
1.0
176
     1
 90
        1
176
     1
 90
        6
176
     1
 90
        2
176
     1
 62
     7
176
     1
 90
        3
176
     1
 90
        0
176
     1
 90
        0
176
     1
290
     0
176
     1
 90
        1
176
     1
 40
0.0
176
     1
 90
        0
176
     1
290
     0
176
     1
290
     1
176
     1
290
     1
176
     1
290
     0
176
     1
290
     0
176
     1
290
     0
176
     1
290
     0
176
     1
290
     0
176
     1
290
     0
176
     1
 90
       50
176
     1
 40
0.0
176
     1
 40
1.0
176
     1
 90
        0
176
     1
 62
    18
420
        0
176
     1
 90
       50
176
     1
 90
        3
176
     1
 62
     5
420
      255
176
     1
290
     0
176
     1
 90
       50
176
     1
 90
       50
176
     1
 90
       50
176
     1
290
     0
176
     1
 90
       50
176
     1
 62
   256
176
     0
 40
1.0
176
     0
 90
        2
176
     1
  1
strokes_ogs.tif
176
     1
290
     0
176
     1
 40
1.0
176
     1
 40
1.0
176
     1
1001
ACAD
1000
AcDbSavedByObjectVersion
1070
     0
  0
VISUALSTYLE
  5
8398
102
{ACAD_REACTORS
330
838D
102
}
330
838D
100
AcDbVisualStyle
  2
Dim
 70
    11
177
     3
291
     1
 70
    58
 90
        2
176
     1
 90
        2
176
     1
 90
        0
176
     1
 90
        0
176
     1
 40
0.6
176
     1
 40
30.0
176
     1
 62
     7
420
 16777215
176
     1
 90
        1
176
     1
 90
        4
176
     1
 62
     7
176
     1
 62
   257
176
     1
 90
        1
176
     1
 90
        1
176
     1
 40
1.0
176
     1
 90
        8
176
     1
 62
     7
176
     1
 40
1.0
176
     1
 90
        1
176
     1
 90
        6
176
     1
 90
        2
176
     1
 62
     7
176
     1
 90
        5
176
     1
 90
        0
176
     1
 90
        0
176
     1
290
     0
176
     1
 90
        1
176
     1
 40
-50.0
176
     1
 90
        0
176
     1
290
     0
176
     1
290
     1
176
     1
290
     1
176
     1
290
     0
176
     1
290
     0
176
     1
290
     0
176
     1
290
     0
176
     1
290
     0
176
     1
290
     0
176
     1
 90
       50
176
     1
 40
0.0
176
     1
 40
1.0
176
     1
 90
        0
176
     1
 62
    18
420
        0
176
     1
 90
       50
176
     1
 90
        3
176
     1
 62
     5
420
      255
176
     1
290
     0
176
     1
 90
       50
176
     1
 90
       50
176
     1
 90
       50
176
     1
290
     0
176
     1
 90
       50
176
     1
 62
   256
176
     0
 40
1.0
176
     0
 90
        2
176
     1
  1
strokes_ogs.tif
176
     1
290
     0
176
     1
 40
1.0
176
     1
 40
1.0
176
     1
1001
ACAD
1000
AcDbSavedByObjectVersion
1070
     0
  0
VISUALSTYLE
  5
83A5
102
{ACAD_REACTORS
330
838D
102
}
330
838D
100
AcDbVisualStyle
  2
EdgeColorOff
 70
    22
177
     3
291
     1
 70
    58
 90
        2
176
     0
 90
        2
176
     0
 90
        0
176
     0
 90
        0
176
     0
 40
0.6
176
     0
 40
30.0
176
     0
 62
     7
420
 16777215
176
     0
 90
        1
176
     0
 90
        4
176
     0
 62
     7
176
     0
 62
   257
176
     0
 90
        1
176
     0
 90
        1
176
     0
 40
1.0
176
     0
 90
        8
176
     2
 62
     7
176
     0
 40
1.0
176
     0
 90
        1
176
     0
 90
        6
176
     0
 90
        2
176
     0
 62
     7
176
     0
 90
        5
176
     0
 90
        0
176
     0
 90
        0
176
     0
290
     0
176
     0
 90
        1
176
     0
 40
0.0
176
     0
 90
        0
176
     0
290
     0
176
     0
290
     1
176
     0
290
     1
176
     0
290
     0
176
     0
290
     0
176
     0
290
     0
176
     0
290
     0
176
     0
290
     0
176
     0
290
     0
176
     0
 90
       50
176
     0
 40
0.0
176
     0
 40
1.0
176
     0
 90
        0
176
     0
 62
    18
420
        0
176
     0
 90
       50
176
     0
 90
        3
176
     0
 62
     5
420
      255
176
     0
290
     0
176
     0
 90
       50
176
     0
 90
       50
176
     0
 90
       50
176
     0
290
     0
176
     0
 90
       50
176
     0
 62
   256
176
     0
 40
1.0
176
     0
 90
        2
176
     0
  1
strokes_ogs.tif
176
     0
290
     0
176
     0
 40
1.0
176
     0
 40
1.0
176
     0
1001
ACAD
1000
AcDbSavedByObjectVersion
1070
     0
  0
VISUALSTYLE
  5
839C
102
{ACAD_REACTORS
330
838D
102
}
330
838D
100
AcDbVisualStyle
  2
Facepattern
 70
    15
177
     3
291
     1
 70
    58
 90
        2
176
     1
 90
        2
176
     1
 90
        0
176
     1
 90
        0
176
     1
 40
0.6
176
     1
 40
30.0
176
     1
 62
     7
420
 16777215
176
     1
 90
        1
176
     1
 90
        4
176
     1
 62
     7
176
     1
 62
   257
176
     1
 90
        1
176
     1
 90
        1
176
     1
 40
1.0
176
     1
 90
        8
176
     1
 62
     7
176
     1
 40
1.0
176
     1
 90
        1
176
     1
 90
        6
176
     1
 90
        2
176
     1
 62
     7
176
     1
 90
        5
176
     1
 90
        0
176
     1
 90
        0
176
     1
290
     0
176
     1
 90
        1
176
     1
 40
0.0
176
     1
 90
        0
176
     1
290
     0
176
     1
290
     1
176
     1
290
     1
176
     1
290
     0
176
     1
290
     0
176
     1
290
     0
176
     1
290
     0
176
     1
290
     0
176
     1
290
     0
176
     1
 90
       50
176
     1
 40
0.0
176
     1
 40
1.0
176
     1
 90
        0
176
     1
 62
    18
420
        0
176
     1
 90
       50
176
     1
 90
        3
176
     1
 62
     5
420
      255
176
     1
290
     0
176
     1
 90
       50
176
     1
 90
       50
176
     1
 90
       50
176
     1
290
     0
176
     1
 90
       50
176
     1
 62
   256
176
     0
 40
1.0
176
     0
 90
        2
176
     1
  1
strokes_ogs.tif
176
     1
290
     0
176
     1
 40
1.0
176
     1
 40
1.0
176
     1
1001
ACAD
1000
AcDbSavedByObjectVersion
1070
     0
  0
VISUALSTYLE
  5
838E
102
{ACAD_REACTORS
330
838D
102
}
330
838D
100
AcDbVisualStyle
  2
Flat
 70
     0
177
     3
291
     1
 70
    58
 90
        2
176
     1
 90
        1
176
     1
 90
        1
176
     1
 90
        2
176
     1
 40
0.6
176
     1
 40
30.0
176
     1
 62
     7
420
 16777215
176
     1
 90
        0
176
     1
 90
        0
176
     1
 62
     7
176
     1
 62
   257
176
     1
 90
        1
176
     1
 90
        1
176
     1
 40
1.0
176
     1
 90
        8
176
     1
 62
     7
176
     1
 40
1.0
176
     1
 90
        1
176
     1
 90
        6
176
     1
 90
        2
176
     1
 62
     7
176
     1
 90
        5
176
     1
 90
        0
176
     1
 90
        0
176
     1
290
     0
176
     1
 90
       13
176
     1
 40
0.0
176
     1
 90
        0
176
     1
290
     0
176
     1
290
     1
176
     1
290
     1
176
     1
290
     0
176
     1
290
     0
176
     1
290
     0
176
     1
290
     0
176
     1
290
     0
176
     1
290
     0
176
     1
 90
       50
176
     1
 40
0.0
176
     1
 40
1.0
176
     1
 90
        0
176
     1
 62
    18
420
        0
176
     1
 90
       50
176
     1
 90
        3
176
     1
 62
     5
420
      255
176
     1
290
     0
176
     1
 90
       50
176
     1
 90
       50
176
     1
 90
       50
176
     1
290
     0
176
     1
 90
       50
176
     1
 62
   256
176
     0
 40
1.0
176
     0
 90
        2
176
     1
  1
strokes_ogs.tif
176
     1
290
     0
176
     1
 40
1.0
176
     1
 40
1.0
176
     1
1001
ACAD
1000
AcDbSavedByObjectVersion
1070
     0
  0
VISUALSTYLE
  5
838F
102
{ACAD_REACTORS
330
838D
102
}
330
838D
100
AcDbVisualStyle
  2
FlatWithEdges
 70
     1
177
     3
291
     1
 70
    58
 90
        2
176
     1
 90
        1
176
     1
 90
        1
176
     1
 90
        2
176
     1
 40
0.6
176
     1
 40
30.0
176
     1
 62
     7
420
 16777215
176
     1
 90
        1
176
     1
 90
        0
176
     1
 62
     7
176
     1
 62
   257
176
     1
 90
        1
176
     1
 90
        1
176
     1
 40
1.0
176
     1
 90
        0
176
     1
 62
   257
176
     1
 40
1.0
176
     1
 90
        1
176
     1
 90
        6
176
     1
 90
        2
176
     1
 62
     7
176
     1
 90
        5
176
     1
 90
        0
176
     1
 90
        0
176
     1
290
     0
176
     1
 90
       13
176
     1
 40
0.0
176
     1
 90
        0
176
     1
290
     0
176
     1
290
     1
176
     1
290
     1
176
     1
290
     0
176
     1
290
     0
176
     1
290
     0
176
     1
290
     0
176
     1
290
     0
176
     1
290
     0
176
     1
 90
       50
176
     1
 40
0.0
176
     1
 40
1.0
176
     1
 90
        0
176
     1
 62
    18
420
        0
176
     1
 90
       50
176
     1
 90
        3
176
     1
 62
     5
420
      255
176
     1
290
     0
176
     1
 90
       50
176
     1
 90
       50
176
     1
 90
       50
176
     1
290
     0
176
     1
 90
       50
176
     1
 62
   256
176
     0
 40
1.0
176
     0
 90
        2
176
     1
  1
strokes_ogs.tif
176
     1
290
     0
176
     1
 40
1.0
176
     1
 40
1.0
176
     1
1001
ACAD
1000
AcDbSavedByObjectVersion
1070
     0
  0
VISUALSTYLE
  5
8390
102
{ACAD_REACTORS
330
838D
102
}
330
838D
100
AcDbVisualStyle
  2
Gouraud
 70
     2
177
     3
291
     1
 70
    58
 90
        2
176
     1
 90
        2
176
     1
 90
        1
176
     1
 90
        2
176
     1
 40
0.6
176
     1
 40
30.0
176
     1
 62
     7
420
 16777215
176
     1
 90
        0
176
     1
 90
        0
176
     1
 62
     7
176
     1
 62
   257
176
     1
 90
        1
176
     1
 90
        1
176
     1
 40
1.0
176
     1
 90
        0
176
     1
 62
     7
176
     1
 40
1.0
176
     1
 90
        1
176
     1
 90
        6
176
     1
 90
        2
176
     1
 62
     7
176
     1
 90
        5
176
     1
 90
        0
176
     1
 90
        0
176
     1
290
     0
176
     1
 90
       13
176
     1
 40
0.0
176
     1
 90
        0
176
     1
290
     0
176
     1
290
     1
176
     1
290
     1
176
     1
290
     0
176
     1
290
     0
176
     1
290
     0
176
     1
290
     0
176
     1
290
     0
176
     1
290
     0
176
     1
 90
       50
176
     1
 40
0.0
176
     1
 40
1.0
176
     1
 90
        0
176
     1
 62
    18
420
        0
176
     1
 90
       50
176
     1
 90
        3
176
     1
 62
     5
420
      255
176
     1
290
     0
176
     1
 90
       50
176
     1
 90
       50
176
     1
 90
       50
176
     1
290
     0
176
     1
 90
       50
176
     1
 62
   256
176
     0
 40
1.0
176
     0
 90
        2
176
     1
  1
strokes_ogs.tif
176
     1
290
     0
176
     1
 40
1.0
176
     1
 40
1.0
176
     1
1001
ACAD
1000
AcDbSavedByObjectVersion
1070
     0
  0
VISUALSTYLE
  5
8391
102
{ACAD_REACTORS
330
838D
102
}
330
838D
100
AcDbVisualStyle
  2
GouraudWithEdges
 70
     3
177
     3
291
     1
 70
    58
 90
        2
176
     1
 90
        2
176
     1
 90
        1
176
     1
 90
        2
176
     1
 40
0.6
176
     1
 40
30.0
176
     1
 62
     7
420
 16777215
176
     1
 90
        1
176
     1
 90
        0
176
     1
 62
     7
176
     1
 62
   257
176
     1
 90
        1
176
     1
 90
        1
176
     1
 40
1.0
176
     1
 90
        0
176
     1
 62
   257
176
     1
 40
1.0
176
     1
 90
        1
176
     1
 90
        6
176
     1
 90
        2
176
     1
 62
     7
176
     1
 90
        5
176
     1
 90
        0
176
     1
 90
        0
176
     1
290
     0
176
     1
 90
       13
176
     1
 40
0.0
176
     1
 90
        0
176
     1
290
     0
176
     1
290
     1
176
     1
290
     1
176
     1
290
     0
176
     1
290
     0
176
     1
290
     0
176
     1
290
     0
176
     1
290
     0
176
     1
290
     0
176
     1
 90
       50
176
     1
 40
0.0
176
     1
 40
1.0
176
     1
 90
        0
176
     1
 62
    18
420
        0
176
     1
 90
       50
176
     1
 90
        3
176
     1
 62
     5
420
      255
176
     1
290
     0
176
     1
 90
       50
176
     1
 90
       50
176
     1
 90
       50
176
     1
290
     0
176
     1
 90
       50
176
     1
 62
   256
176
     0
 40
1.0
176
     0
 90
        2
176
     1
  1
strokes_ogs.tif
176
     1
290
     0
176
     1
 40
1.0
176
     1
 40
1.0
176
     1
1001
ACAD
1000
AcDbSavedByObjectVersion
1070
     0
  0
VISUALSTYLE
  5
8395
102
{ACAD_REACTORS
330
838D
102
}
330
838D
100
AcDbVisualStyle
  2
Hidden
 70
     6
177
     3
291
     0
 70
    58
 90
        1
176
     1
 90
        2
176
     1
 90
        2
176
     1
 90
        0
176
     1
 40
0.6
176
     1
 40
30.0
176
     1
 62
     7
420
 16777215
176
     1
 90
        2
176
     1
 90
        2
176
     1
 62
     7
176
     1
 62
   257
176
     1
 90
        2
176
     1
 90
        1
176
     1
 40
40.0
176
     1
 90
        0
176
     1
 62
   257
176
     1
 40
1.0
176
     1
 90
        1
176
     1
 90
        6
176
     1
 90
        2
176
     1
 62
     7
176
     1
 90
        3
176
     1
 90
        0
176
     1
 90
        0
176
     1
290
     0
176
     1
 90
        1
176
     1
 40
0.0
176
     1
 90
        0
176
     1
290
     0
176
     1
290
     1
176
     1
290
     1
176
     1
290
     0
176
     1
290
     0
176
     1
290
     0
176
     1
290
     0
176
     1
290
     0
176
     1
290
     0
176
     1
 90
       50
176
     1
 40
0.0
176
     1
 40
1.0
176
     1
 90
        0
176
     1
 62
    18
420
        0
176
     1
 90
       50
176
     1
 90
        3
176
     1
 62
     5
420
      255
176
     1
290
     0
176
     1
 90
       50
176
     1
 90
       50
176
     1
 90
       50
176
     1
290
     0
176
     1
 90
       50
176
     1
 62
   256
176
     0
 40
1.0
176
     0
 90
        2
176
     1
  1
strokes_ogs.tif
176
     1
290
     0
176
     1
 40
1.0
176
     1
 40
1.0
176
     1
1001
ACAD
1000
AcDbSavedByObjectVersion
1070
     0
  0
VISUALSTYLE
  5
83A3
102
{ACAD_REACTORS
330
838D
102
}
330
838D
100
AcDbVisualStyle
  2
JitterOff
 70
    20
177
     3
291
     1
 70
    58
 90
        2
176
     0
 90
        2
176
     0
 90
        0
176
     0
 90
        0
176
     0
 40
0.6
176
     0
 40
30.0
176
     0
 62
     7
420
 16777215
176
     0
 90
        1
176
     0
 90
        4
176
     0
 62
     7
176
     0
 62
   257
176
     0
 90
        1
176
     0
 90
        1
176
     0
 40
1.0
176
     0
 90
       10
176
     2
 62
     7
176
     0
 40
1.0
176
     0
 90
        1
176
     0
 90
        6
176
     0
 90
        2
176
     0
 62
     7
176
     0
 90
        5
176
     0
 90
        0
176
     0
 90
        0
176
     0
290
     0
176
     0
 90
        1
176
     0
 40
0.0
176
     0
 90
        0
176
     0
290
     0
176
     0
290
     1
176
     0
290
     1
176
     0
290
     0
176
     0
290
     0
176
     0
290
     0
176
     0
290
     0
176
     0
290
     0
176
     0
290
     0
176
     0
 90
       50
176
     0
 40
0.0
176
     0
 40
1.0
176
     0
 90
        0
176
     0
 62
    18
420
        0
176
     0
 90
       50
176
     0
 90
        3
176
     0
 62
     5
420
      255
176
     0
290
     0
176
     0
 90
       50
176
     0
 90
       50
176
     0
 90
       50
176
     0
290
     0
176
     0
 90
       50
176
     0
 62
   256
176
     0
 40
1.0
176
     0
 90
        2
176
     0
  1
strokes_ogs.tif
176
     0
290
     0
176
     0
 40
1.0
176
     0
 40
1.0
176
     0
1001
ACAD
1000
AcDbSavedByObjectVersion
1070
     0
  0
VISUALSTYLE
  5
839B
102
{ACAD_REACTORS
330
838D
102
}
330
838D
100
AcDbVisualStyle
  2
Linepattern
 70
    14
177
     3
291
     1
 70
    58
 90
        2
176
     1
 90
        2
176
     1
 90
        0
176
     1
 90
        0
176
     1
 40
0.6
176
     1
 40
30.0
176
     1
 62
     7
420
 16777215
176
     1
 90
        1
176
     1
 90
        4
176
     1
 62
     7
176
     1
 62
   257
176
     1
 90
        7
176
     1
 90
        7
176
     1
 40
1.0
176
     1
 90
        8
176
     1
 62
     7
176
     1
 40
1.0
176
     1
 90
        1
176
     1
 90
        6
176
     1
 90
        2
176
     1
 62
     7
176
     1
 90
        5
176
     1
 90
        0
176
     1
 90
        0
176
     1
290
     0
176
     1
 90
        1
176
     1
 40
0.0
176
     1
 90
        0
176
     1
290
     0
176
     1
290
     1
176
     1
290
     1
176
     1
290
     0
176
     1
290
     0
176
     1
290
     0
176
     1
290
     0
176
     1
290
     0
176
     1
290
     0
176
     1
 90
       50
176
     1
 40
0.0
176
     1
 40
1.0
176
     1
 90
        0
176
     1
 62
    18
420
        0
176
     1
 90
       50
176
     1
 90
        3
176
     1
 62
     5
420
      255
176
     1
290
     0
176
     1
 90
       50
176
     1
 90
       50
176
     1
 90
       50
176
     1
290
     0
176
     1
 90
       50
176
     1
 62
   256
176
     0
 40
1.0
176
     0
 90
        2
176
     1
  1
strokes_ogs.tif
176
     1
290
     0
176
     1
 40
1.0
176
     1
 40
1.0
176
     1
1001
ACAD
1000
AcDbSavedByObjectVersion
1070
     0
  0
VISUALSTYLE
  5
83A4
102
{ACAD_REACTORS
330
838D
102
}
330
838D
100
AcDbVisualStyle
  2
OverhangOff
 70
    21
177
     3
291
     1
 70
    58
 90
        2
176
     0
 90
        2
176
     0
 90
        0
176
     0
 90
        0
176
     0
 40
0.6
176
     0
 40
30.0
176
     0
 62
     7
420
 16777215
176
     0
 90
        1
176
     0
 90
        4
176
     0
 62
     7
176
     0
 62
   257
176
     0
 90
        1
176
     0
 90
        1
176
     0
 40
1.0
176
     0
 90
        9
176
     2
 62
     7
176
     0
 40
1.0
176
     0
 90
        1
176
     0
 90
        6
176
     0
 90
        2
176
     0
 62
     7
176
     0
 90
        5
176
     0
 90
        0
176
     0
 90
        0
176
     0
290
     0
176
     0
 90
        1
176
     0
 40
0.0
176
     0
 90
        0
176
     0
290
     0
176
     0
290
     1
176
     0
290
     1
176
     0
290
     0
176
     0
290
     0
176
     0
290
     0
176
     0
290
     0
176
     0
290
     0
176
     0
290
     0
176
     0
 90
       50
176
     0
 40
0.0
176
     0
 40
1.0
176
     0
 90
        0
176
     0
 62
    18
420
        0
176
     0
 90
       50
176
     0
 90
        3
176
     0
 62
     5
420
      255
176
     0
290
     0
176
     0
 90
       50
176
     0
 90
       50
176
     0
 90
       50
176
     0
290
     0
176
     0
 90
       50
176
     0
 62
   256
176
     0
 40
1.0
176
     0
 90
        2
176
     0
  1
strokes_ogs.tif
176
     0
290
     0
176
     0
 40
1.0
176
     0
 40
1.0
176
     0
1001
ACAD
1000
AcDbSavedByObjectVersion
1070
     0
  0
VISUALSTYLE
  5
8397
102
{ACAD_REACTORS
330
838D
102
}
330
838D
100
AcDbVisualStyle
  2
Realistic
 70
     8
177
     3
291
     0
 70
    58
 90
        2
176
     1
 90
        3
176
     1
 90
        0
176
     1
 90
        2
176
     1
 40
0.6
176
     1
 40
30.0
176
     1
 62
     7
420
 16777215
176
     1
 90
        0
176
     1
 90
        0
176
     1
 62
     7
176
     1
 62
   257
176
     1
 90
        1
176
     1
 90
        1
176
     1
 40
1.0
176
     1
 90
        8
176
     1
 62
   257
176
     1
 40
1.0
176
     1
 90
        1
176
     1
 90
        6
176
     1
 90
        2
176
     1
 62
     7
176
     1
 90
        3
176
     1
 90
        0
176
     1
 90
        0
176
     1
290
     0
176
     1
 90
       13
176
     1
 40
0.0
176
     1
 90
        0
176
     1
290
     0
176
     1
290
     1
176
     1
290
     1
176
     1
290
     0
176
     1
290
     0
176
     1
290
     0
176
     1
290
     0
176
     1
290
     0
176
     1
290
     0
176
     1
 90
       50
176
     1
 40
0.0
176
     1
 40
1.0
176
     1
 90
        0
176
     1
 62
    18
420
        0
176
     1
 90
       50
176
     1
 90
        3
176
     1
 62
     5
420
      255
176
     1
290
     0
176
     1
 90
       50
176
     1
 90
       50
176
     1
 90
       50
176
     1
290
     0
176
     1
 90
       50
176
     1
 62
   256
176
     0
 40
1.0
176
     0
 90
        2
176
     1
  1
strokes_ogs.tif
176
     1
290
     0
176
     1
 40
1.0
176
     1
 40
1.0
176
     1
1001
ACAD
1000
AcDbSavedByObjectVersion
1070
     0
  0
VISUALSTYLE
  5
83A2
102
{ACAD_REACTORS
330
838D
102
}
330
838D
100
AcDbVisualStyle
  2
Shaded
 70
    27
177
     3
291
     0
 70
    58
 90
        2
176
     1
 90
        2
176
     1
 90
        1
176
     1
 90
        2
176
     1
 40
0.6
176
     1
 40
30.0
176
     1
 62
     7
420
 16777215
176
     1
 90
        0
176
     1
 90
        4
176
     1
 62
     7
176
     1
 62
   257
176
     1
 90
        1
176
     1
 90
        1
176
     1
 40
1.0
176
     1
 90
        8
176
     1
 62
   257
176
     1
 40
1.0
176
     1
 90
        1
176
     1
 90
        6
176
     1
 90
        2
176
     1
 62
     8
420
  7895160
176
     1
 90
        3
176
     1
 90
        0
176
     1
 90
        0
176
     1
290
     0
176
     1
 90
        5
176
     1
 40
0.0
176
     1
 90
        0
176
     1
290
     0
176
     1
290
     1
176
     1
290
     1
176
     1
290
     0
176
     1
290
     0
176
     1
290
     0
176
     1
290
     0
176
     1
290
     0
176
     1
290
     0
176
     1
 90
       50
176
     1
 40
0.0
176
     1
 40
1.0
176
     1
 90
        0
176
     1
 62
    18
420
        0
176
     1
 90
       50
176
     1
 90
        3
176
     1
 62
     5
420
      255
176
     1
290
     0
176
     1
 90
       50
176
     1
 90
       50
176
     1
 90
       50
176
     1
290
     0
176
     1
 90
       50
176
     1
 62
   256
176
     0
 40
1.0
176
     0
 90
        2
176
     1
  1
strokes_ogs.tif
176
     1
290
     0
176
     1
 40
1.0
176
     1
 40
1.0
176
     1
1001
ACAD
1000
AcDbSavedByObjectVersion
1070
     0
  0
VISUALSTYLE
  5
83A1
102
{ACAD_REACTORS
330
838D
102
}
330
838D
100
AcDbVisualStyle
  2
Shaded with edges
 70
    26
177
     3
291
     0
 70
    58
 90
        2
176
     1
 90
        2
176
     1
 90
        1
176
     1
 90
        2
176
     1
 40
0.6
176
     1
 40
30.0
176
     1
 62
     7
420
 16777215
176
     1
 90
        1
176
     1
 90
        2
176
     1
 62
     7
176
     1
 62
   257
176
     1
 90
        2
176
     1
 90
        1
176
     1
 40
1.0
176
     1
 90
        8
176
     1
 62
   257
176
     1
 40
1.0
176
     1
 90
        1
176
     1
 90
        6
176
     1
 90
        2
176
     1
 62
     7
176
     1
 90
        3
176
     1
 90
        0
176
     1
 90
        0
176
     1
290
     0
176
     1
 90
        5
176
     1
 40
0.0
176
     1
 90
        0
176
     1
290
     0
176
     1
290
     1
176
     1
290
     1
176
     1
290
     0
176
     1
290
     0
176
     1
290
     0
176
     1
290
     0
176
     1
290
     0
176
     1
290
     0
176
     1
 90
       50
176
     1
 40
0.0
176
     1
 40
1.0
176
     1
 90
        0
176
     1
 62
    18
420
        0
176
     1
 90
       50
176
     1
 90
        3
176
     1
 62
     5
420
      255
176
     1
290
     0
176
     1
 90
       50
176
     1
 90
       50
176
     1
 90
       50
176
     1
290
     0
176
     1
 90
       50
176
     1
 62
   256
176
     0
 40
1.0
176
     0
 90
        2
176
     1
  1
strokes_ogs.tif
176
     1
290
     0
176
     1
 40
1.0
176
     1
 40
1.0
176
     1
1001
ACAD
1000
AcDbSavedByObjectVersion
1070
     0
  0
VISUALSTYLE
  5
839E
102
{ACAD_REACTORS
330
838D
102
}
330
838D
100
AcDbVisualStyle
  2
Shades of Gray
 70
    23
177
     3
291
     0
 70
    58
 90
        2
176
     1
 90
        2
176
     1
 90
        3
176
     1
 90
        0
176
     1
 40
0.6
176
     1
 40
30.0
176
     1
 62
     7
420
 16777215
176
     1
 90
        2
176
     1
 90
        2
176
     1
 62
     7
176
     1
 62
     7
176
     1
 90
        1
176
     1
 90
        1
176
     1
 40
40.0
176
     1
 90
        8
176
     1
 62
     7
176
     1
 40
1.0
176
     1
 90
        1
176
     1
 90
        6
176
     1
 90
        2
176
     1
 62
     7
176
     1
 90
        3
176
     1
 90
        0
176
     1
 90
        0
176
     1
290
     0
176
     1
 90
        1
176
     1
 40
0.0
176
     1
 90
        0
176
     1
290
     0
176
     1
290
     1
176
     1
290
     1
176
     1
290
     0
176
     1
290
     0
176
     1
290
     0
176
     1
290
     0
176
     1
290
     0
176
     1
290
     0
176
     1
 90
       50
176
     1
 40
0.0
176
     1
 40
1.0
176
     1
 90
        0
176
     1
 62
    18
420
        0
176
     1
 90
       50
176
     1
 90
        3
176
     1
 62
     5
420
      255
176
     1
290
     0
176
     1
 90
       50
176
     1
 90
       50
176
     1
 90
       50
176
     1
290
     0
176
     1
 90
       50
176
     1
 62
   256
176
     0
 40
1.0
176
     0
 90
        2
176
     1
  1
strokes_ogs.tif
176
     1
290
     0
176
     1
 40
1.0
176
     1
 40
1.0
176
     1
1001
ACAD
1000
AcDbSavedByObjectVersion
1070
     0
  0
VISUALSTYLE
  5
839F
102
{ACAD_REACTORS
330
838D
102
}
330
838D
100
AcDbVisualStyle
  2
Sketchy
 70
    24
177
     3
291
     0
 70
    58
 90
        1
176
     1
 90
        2
176
     1
 90
        2
176
     1
 90
        0
176
     1
 40
0.6
176
     1
 40
30.0
176
     1
 62
     7
420
 16777215
176
     1
 90
        2
176
     1
 90
        2
176
     1
 62
     7
176
     1
 62
     7
176
     1
 90
        1
176
     1
 90
        1
176
     1
 40
40.0
176
     1
 90
       11
176
     1
 62
     7
176
     1
 40
1.0
176
     1
 90
        1
176
     1
 90
        6
176
     1
 90
        2
176
     1
 62
     7
176
     1
 90
        6
176
     1
 90
        0
176
     1
 90
        0
176
     1
290
     0
176
     1
 90
        1
176
     1
 40
0.0
176
     1
 90
        0
176
     1
290
     0
176
     1
290
     1
176
     1
290
     1
176
     1
290
     0
176
     1
290
     0
176
     1
290
     0
176
     1
290
     0
176
     1
290
     0
176
     1
290
     0
176
     1
 90
       50
176
     1
 40
0.0
176
     1
 40
1.0
176
     1
 90
        0
176
     1
 62
    18
420
        0
176
     1
 90
       50
176
     1
 90
        3
176
     1
 62
     5
420
      255
176
     1
290
     0
176
     1
 90
       50
176
     1
 90
       50
176
     1
 90
       50
176
     1
290
     0
176
     1
 90
       50
176
     1
 62
   256
176
     0
 40
1.0
176
     0
 90
        2
176
     1
  1
strokes_ogs.tif
176
     1
290
     0
176
     1
 40
1.0
176
     1
 40
1.0
176
     1
1001
ACAD
1000
AcDbSavedByObjectVersion
1070
     0
  0
VISUALSTYLE
  5
839A
102
{ACAD_REACTORS
330
838D
102
}
330
838D
100
AcDbVisualStyle
  2
Thicken
 70
    13
177
     3
291
     1
 70
    58
 90
        2
176
     1
 90
        2
176
     1
 90
        0
176
     1
 90
        0
176
     1
 40
0.6
176
     1
 40
30.0
176
     1
 62
     7
420
 16777215
176
     1
 90
        1
176
     1
 90
        4
176
     1
 62
     7
176
     1
 62
   257
176
     1
 90
        1
176
     1
 90
        1
176
     1
 40
1.0
176
     1
 90
       12
176
     1
 62
     7
176
     1
 40
1.0
176
     1
 90
        1
176
     1
 90
        6
176
     1
 90
        2
176
     1
 62
     7
176
     1
 90
        5
176
     1
 90
        0
176
     1
 90
        0
176
     1
290
     0
176
     1
 90
        1
176
     1
 40
0.0
176
     1
 90
        0
176
     1
290
     0
176
     1
290
     1
176
     1
290
     1
176
     1
290
     0
176
     1
290
     0
176
     1
290
     0
176
     1
290
     0
176
     1
290
     0
176
     1
290
     0
176
     1
 90
       50
176
     1
 40
0.0
176
     1
 40
1.0
176
     1
 90
        0
176
     1
 62
    18
420
        0
176
     1
 90
       50
176
     1
 90
        3
176
     1
 62
     5
420
      255
176
     1
290
     0
176
     1
 90
       50
176
     1
 90
       50
176
     1
 90
       50
176
     1
290
     0
176
     1
 90
       50
176
     1
 62
   256
176
     0
 40
1.0
176
     0
 90
        2
176
     1
  1
strokes_ogs.tif
176
     1
290
     0
176
     1
 40
1.0
176
     1
 40
1.0
176
     1
1001
ACAD
1000
AcDbSavedByObjectVersion
1070
     0
  0
VISUALSTYLE
  5
8394
102
{ACAD_REACTORS
330
838D
102
}
330
838D
100
AcDbVisualStyle
  2
Wireframe
 70
     5
177
     3
291
     0
 70
    58
 90
        0
176
     1
 90
        2
176
     1
 90
        0
176
     1
 90
        0
176
     1
 40
0.6
176
     1
 40
30.0
176
     1
 62
     7
420
 16777215
176
     1
 90
        1
176
     1
 90
        4
176
     1
 62
     7
176
     1
 62
   257
176
     1
 90
        1
176
     1
 90
        1
176
     1
 40
1.0
176
     1
 90
        0
176
     1
 62
   257
176
     1
 40
1.0
176
     1
 90
        1
176
     1
 90
        6
176
     1
 90
        2
176
     1
 62
     7
176
     1
 90
        3
176
     1
 90
        0
176
     1
 90
        0
176
     1
290
     0
176
     1
 90
        1
176
     1
 40
0.0
176
     1
 90
        0
176
     1
290
     0
176
     1
290
     1
176
     1
290
     1
176
     1
290
     0
176
     1
290
     0
176
     1
290
     0
176
     1
290
     0
176
     1
290
     0
176
     1
290
     0
176
     1
 90
       50
176
     1
 40
0.0
176
     1
 40
1.0
176
     1
 90
        0
176
     1
 62
    18
420
        0
176
     1
 90
       50
176
     1
 90
        3
176
     1
 62
     5
420
      255
176
     1
290
     0
176
     1
 90
       50
176
     1
 90
       50
176
     1
 90
       50
176
     1
290
     0
176
     1
 90
       50
176
     1
 62
   256
176
     0
 40
1.0
176
     0
 90
        2
176
     1
  1
strokes_ogs.tif
176
     1
290
     0
176
     1
 40
1.0
176
     1
 40
1.0
176
     1
1001
ACAD
1000
AcDbSavedByObjectVersion
1070
     0
  0
VISUALSTYLE
  5
83A0
102
{ACAD_REACTORS
330
838D
102
}
330
838D
100
AcDbVisualStyle
  2
X-Ray
 70
    25
177
     3
291
     0
 70
    58
 90
        2
176
     1
 90
        2
176
     1
 90
        1
176
     1
 90
        1
176
     1
 40
0.5
176
     1
 40
30.0
176
     1
 62
     7
420
 16777215
176
     1
 90
        1
176
     1
 90
        0
176
     1
 62
     7
176
     1
 62
   257
176
     1
 90
        1
176
     1
 90
        1
176
     1
 40
1.0
176
     1
 90
        8
176
     1
 62
     7
176
     1
 40
1.0
176
     1
 90
        1
176
     1
 90
        6
176
     1
 90
        2
176
     1
 62
     7
176
     1
 90
        3
176
     1
 90
        0
176
     1
 90
        0
176
     1
290
     0
176
     1
 90
       13
176
     1
 40
0.0
176
     1
 90
        0
176
     1
290
     0
176
     1
290
     1
176
     1
290
     1
176
     1
290
     0
176
     1
290
     0
176
     1
290
     0
176
     1
290
     0
176
     1
290
     0
176
     1
290
     0
176
     1
 90
       50
176
     1
 40
0.0
176
     1
 40
1.0
176
     1
 90
        0
176
     1
 62
    18
420
        0
176
     1
 90
       50
176
     1
 90
        3
176
     1
 62
     5
420
      255
176
     1
290
     0
176
     1
 90
       50
176
     1
 90
       50
176
     1
 90
       50
176
     1
290
     0
176
     1
 90
       50
176
     1
 62
   256
176
     0
 40
1.0
176
     0
 90
        2
176
     1
  1
strokes_ogs.tif
176
     1
290
     0
176
     1
 40
1.0
176
     1
 40
1.0
176
     1
1001
ACAD
1000
AcDbSavedByObjectVersion
1070
     0
  0
DICTIONARYVAR
  5
847B
102
{ACAD_REACTORS
330
836B
102
}
330
836B
100
DictionaryVariables
280
     0
  1
1:1
  0
DICTIONARYVAR
  5
8477
102
{ACAD_REACTORS
330
836B
102
}
330
836B
100
DictionaryVariables
280
     0
  1
STANDARD
  0
DICTIONARYVAR
  5
8476
102
{ACAD_REACTORS
330
836B
102
}
330
836B
100
DictionaryVariables
280
     0
  1
STANDARD
  0
DICTIONARYVAR
  5
8478
102
{ACAD_REACTORS
330
836B
102
}
330
836B
100
DictionaryVariables
280
     0
  1
Metric50
  0
DICTIONARYVAR
  5
8479
102
{ACAD_REACTORS
330
836B
102
}
330
836B
100
DictionaryVariables
280
     0
  1
Metric50
  0
DICTIONARYVAR
  5
836C
102
{ACAD_REACTORS
330
836B
102
}
330
836B
100
DictionaryVariables
280
     0
  1
1
  0
DICTIONARYVAR
  5
847D
102
{ACAD_REACTORS
330
836B
102
}
330
836B
100
DictionaryVariables
280
     0
  1
1
  0
DICTIONARYVAR
  5
847E
102
{ACAD_REACTORS
330
836B
102
}
330
836B
100
DictionaryVariables
280
     0
  1
15
  0
DICTIONARYVAR
  5
847C
102
{ACAD_REACTORS
330
836B
102
}
330
836B
100
DictionaryVariables
280
     0
  1
0
  0
DICTIONARYVAR
  5
8483
102
{ACAD_REACTORS
330
836B
102
}
330
836B
100
DictionaryVariables
280
     0
  1
0
  0
DICTIONARYVAR
  5
847A
102
{ACAD_REACTORS
330
836B
102
}
330
836B
100
DictionaryVariables
280
     0
  1
0
  0
DICTIONARY
  5
848E
102
{ACAD_REACTORS
330
848C
102
}
330
848C
100
AcDbDictionary
281
     1
  0
DICTIONARY
  5
848D
102
{ACAD_REACTORS
330
848C
102
}
330
848C
100
AcDbDictionary
281
     1
  3
2049004431984
350
8487
  3
2049004432000
350
8488
  3
2049004432016
350
8489
  3
2049004432032
350
848A
  3
2049004432048
350
848B
  0
DICTIONARY
  5
8491
330
83C0
100
AcDbDictionary
280
     1
281
     1
  3
ACAD_XREC_ROUNDTRIP
360
8492
  0
DICTIONARY
  5
837E
330
837D
100
AcDbDictionary
280
     1
281
     1
  3
BUMPTILE
360
8380
  3
DIFFUSETILE
360
837F
  3
OPACITYTILE
360
8383
  3
REFLECTIONTILE
360
8382
  3
REFRACTIONTILE
360
8384
  3
SPECULARTILE
360
8381
  0
DICTIONARY
  5
8376
330
8375
100
AcDbDictionary
280
     1
281
     1
  3
BUMPTILE
360
8378
  3
DIFFUSETILE
360
8377
  3
OPACITYTILE
360
837B
  3
REFLECTIONTILE
360
837A
  3
REFRACTIONTILE
360
837C
  3
SPECULARTILE
360
8379
  0
DICTIONARY
  5
8386
330
8385
100
AcDbDictionary
280
     1
281
     1
  3
BUMPTILE
360
8388
  3
DIFFUSETILE
360
8387
  3
OPACITYTILE
360
838B
  3
REFLECTIONTILE
360
838A
  3
REFRACTIONTILE
360
838C
  3
SPECULARTILE
360
8389
  0
DICTIONARY
  5
848F
330
83BE
100
AcDbDictionary
280
     1
281
     1
  3
ACAD_XREC_ROUNDTRIP
360
8490
  0
DICTIONARY
  5
8484
330
83A8
100
AcDbDictionary
280
     1
281
     1
  3
ACAD_ROUNDTRIP_2008_TABLESTYLE_CELLSTYLEMAP
360
8485
  0
XRECORD
  5
8487
102
{ACAD_REACTORS
330
848D
102
}
330
848D
100
AcDbXrecord
280
     1
  1
AcDb_Thumbnail_Schema
102
{ATTRRECORD
341
8488
  2
AcDbDs::TreatedAsObjectData
280
     1
291
     1
102
ATTRRECORD}
102
{ATTRRECORD
341
8489
  2
AcDbDs::Legacy
280
     1
291
     1
102
ATTRRECORD}
  2
AcDbDs::ID
280
    10
 91
        8
102
{ATTRRECORD
341
848A
  2
AcDs:Indexable
280
     1
291
     1
102
ATTRRECORD}
102
{ATTRRECORD
341
848B
  2
AcDbDs::HandleAttribute
280
     7
282
     1
102
ATTRRECORD}
  2
Thumbnail_Data
280
    15
 91
        0
  0
XRECORD
  5
8488
102
{ACAD_REACTORS
330
848D
102
}
330
848D
100
AcDbXrecord
280
     1
  1
AcDbDs::TreatedAsObjectDataSchema
  2
AcDbDs::TreatedAsObjectData
280
     1
 91
        0
  0
XRECORD
  5
8489
102
{ACAD_REACTORS
330
848D
102
}
330
848D
100
AcDbXrecord
280
     1
  1
AcDbDs::LegacySchema
  2
AcDbDs::Legacy
280
     1
 91
        0
  0
XRECORD
  5
848A
102
{ACAD_REACTORS
330
848D
102
}
330
848D
100
AcDbXrecord
280
     1
  1
AcDbDs::IndexedPropertySchema
  2
AcDs:Indexable
280
     1
 91
        0
  0
XRECORD
  5
848B
102
{ACAD_REACTORS
330
848D
102
}
330
848D
100
AcDbXrecord
280
     1
  1
AcDbDs::HandleAttributeSchema
  2
AcDbDs::HandleAttribute
280
     7
 91
        1
284
     1
  0
XRECORD
  5
8492
102
{ACAD_REACTORS
330
8491
102
}
330
8491
100
AcDbXrecord
280
     1
102
DISPLAYNAME
  1
Metric50
102
FLAGS
 90
        0
  0
XRECORD
  5
8380
102
{ACAD_REACTORS
330
837E
102
}
330
837E
100
AcDbXrecord
280
     1
270
     1
271
     1
  0
XRECORD
  5
837F
102
{ACAD_REACTORS
330
837E
102
}
330
837E
100
AcDbXrecord
280
     1
270
     1
271
     1
  0
XRECORD
  5
8383
102
{ACAD_REACTORS
330
837E
102
}
330
837E
100
AcDbXrecord
280
     1
270
     1
271
     1
  0
XRECORD
  5
8382
102
{ACAD_REACTORS
330
837E
102
}
330
837E
100
AcDbXrecord
280
     1
270
     1
271
     1
  0
XRECORD
  5
8384
102
{ACAD_REACTORS
330
837E
102
}
330
837E
100
AcDbXrecord
280
     1
270
     1
271
     1
  0
XRECORD
  5
8381
102
{ACAD_REACTORS
330
837E
102
}
330
837E
100
AcDbXrecord
280
     1
270
     1
271
     1
  0
XRECORD
  5
8378
102
{ACAD_REACTORS
330
8376
102
}
330
8376
100
AcDbXrecord
280
     1
270
     1
271
     1
  0
XRECORD
  5
8377
102
{ACAD_REACTORS
330
8376
102
}
330
8376
100
AcDbXrecord
280
     1
270
     1
271
     1
  0
XRECORD
  5
837B
102
{ACAD_REACTORS
330
8376
102
}
330
8376
100
AcDbXrecord
280
     1
270
     1
271
     1
  0
XRECORD
  5
837A
102
{ACAD_REACTORS
330
8376
102
}
330
8376
100
AcDbXrecord
280
     1
270
     1
271
     1
  0
XRECORD
  5
837C
102
{ACAD_REACTORS
330
8376
102
}
330
8376
100
AcDbXrecord
280
     1
270
     1
271
     1
  0
XRECORD
  5
8379
102
{ACAD_REACTORS
330
8376
102
}
330
8376
100
AcDbXrecord
280
     1
270
     1
271
     1
  0
XRECORD
  5
8388
102
{ACAD_REACTORS
330
8386
102
}
330
8386
100
AcDbXrecord
280
     1
270
     1
271
     1
  0
XRECORD
  5
8387
102
{ACAD_REACTORS
330
8386
102
}
330
8386
100
AcDbXrecord
280
     1
270
     1
271
     1
  0
XRECORD
  5
838B
102
{ACAD_REACTORS
330
8386
102
}
330
8386
100
AcDbXrecord
280
     1
270
     1
271
     1
  0
XRECORD
  5
838A
102
{ACAD_REACTORS
330
8386
102
}
330
8386
100
AcDbXrecord
280
     1
270
     1
271
     1
  0
XRECORD
  5
838C
102
{ACAD_REACTORS
330
8386
102
}
330
8386
100
AcDbXrecord
280
     1
270
     1
271
     1
  0
XRECORD
  5
8389
102
{ACAD_REACTORS
330
8386
102
}
330
8386
100
AcDbXrecord
280
     1
270
     1
271
     1
  0
XRECORD
  5
8490
102
{ACAD_REACTORS
330
848F
102
}
330
848F
100
AcDbXrecord
280
     1
102
DISPLAYNAME
  1
Metric50
102
FLAGS
 90
        0
  0
CELLSTYLEMAP
  5
8485
102
{ACAD_REACTORS
330
8484
102
}
330
8484
100
AcDbCellStyleMap
 90
        3
300
CELLSTYLE
  1
TABLEFORMAT_BEGIN
 90
        5
170
     1
 91
        0
 92
    32768
 62
   257
 93
        1
300
CONTENTFORMAT
  1
CONTENTFORMAT_BEGIN
 90
        0
 91
        0
 92
      512
 93
        0
300

 40
0.0
140
1.0
 94
        5
 62
     0
340
10
144
6.0
309
CONTENTFORMAT_END
171
     1
301
MARGIN
  1
CELLMARGIN_BEGIN
 40
1.5
 40
1.5
 40
1.5
 40
1.5
 40
4.5
 40
4.5
309
CELLMARGIN_END
 94
        6
 95
        1
302
GRIDFORMAT
  1
GRIDFORMAT_BEGIN
 90
        0
 91
        1
 62
     0
 92
       -2
340
0
 93
        0
 40
1.125
309
GRIDFORMAT_END
 95
        2
302
GRIDFORMAT
  1
GRIDFORMAT_BEGIN
 90
        0
 91
        1
 62
     0
 92
       -2
340
0
 93
        0
 40
1.125
309
GRIDFORMAT_END
 95
        4
302
GRIDFORMAT
  1
GRIDFORMAT_BEGIN
 90
        0
 91
        1
 62
     0
 92
       -2
340
0
 93
        0
 40
1.125
309
GRIDFORMAT_END
 95
        8
302
GRIDFORMAT
  1
GRIDFORMAT_BEGIN
 90
        0
 91
        1
 62
     0
 92
       -2
340
0
 93
        0
 40
1.125
309
GRIDFORMAT_END
 95
       16
302
GRIDFORMAT
  1
GRIDFORMAT_BEGIN
 90
        0
 91
        1
 62
     0
 92
       -2
340
0
 93
        0
 40
1.125
309
GRIDFORMAT_END
 95
       32
302
GRIDFORMAT
  1
GRIDFORMAT_BEGIN
 90
        0
 91
        1
 62
     0
 92
       -2
340
0
 93
        0
 40
1.125
309
GRIDFORMAT_END
309
TABLEFORMAT_END
  1
CELLSTYLE_BEGIN
 90
        1
 91
        1
300
_TITLE
309
CELLSTYLE_END
300
CELLSTYLE
  1
TABLEFORMAT_BEGIN
 90
        5
170
     1
 91
        0
 92
        0
 62
   257
 93
        1
300
CONTENTFORMAT
  1
CONTENTFORMAT_BEGIN
 90
        0
 91
        0
 92
      512
 93
        0
300

 40
0.0
140
1.0
 94
        5
 62
     0
340
10
144
4.5
309
CONTENTFORMAT_END
171
     1
301
MARGIN
  1
CELLMARGIN_BEGIN
 40
1.5
 40
1.5
 40
1.5
 40
1.5
 40
4.5
 40
4.5
309
CELLMARGIN_END
 94
        6
 95
        1
302
GRIDFORMAT
  1
GRIDFORMAT_BEGIN
 90
        0
 91
        1
 62
     0
 92
       -2
340
0
 93
        0
 40
1.125
309
GRIDFORMAT_END
 95
        2
302
GRIDFORMAT
  1
GRIDFORMAT_BEGIN
 90
        0
 91
        1
 62
     0
 92
       -2
340
0
 93
        0
 40
1.125
309
GRIDFORMAT_END
 95
        4
302
GRIDFORMAT
  1
GRIDFORMAT_BEGIN
 90
        0
 91
        1
 62
     0
 92
       -2
340
0
 93
        0
 40
1.125
309
GRIDFORMAT_END
 95
        8
302
GRIDFORMAT
  1
GRIDFORMAT_BEGIN
 90
        0
 91
        1
 62
     0
 92
       -2
340
0
 93
        0
 40
1.125
309
GRIDFORMAT_END
 95
       16
302
GRIDFORMAT
  1
GRIDFORMAT_BEGIN
 90
        0
 91
        1
 62
     0
 92
       -2
340
0
 93
        0
 40
1.125
309
GRIDFORMAT_END
 95
       32
302
GRIDFORMAT
  1
GRIDFORMAT_BEGIN
 90
        0
 91
        1
 62
     0
 92
       -2
340
0
 93
        0
 40
1.125
309
GRIDFORMAT_END
309
TABLEFORMAT_END
  1
CELLSTYLE_BEGIN
 90
        2
 91
        1
300
_HEADER
309
CELLSTYLE_END
300
CELLSTYLE
  1
TABLEFORMAT_BEGIN
 90
        5
170
     1
 91
        0
 92
        0
 62
   257
 93
        1
300
CONTENTFORMAT
  1
CONTENTFORMAT_BEGIN
 90
        0
 91
        0
 92
      512
 93
        0
300

 40
0.0
140
1.0
 94
        2
 62
     0
340
10
144
4.5
309
CONTENTFORMAT_END
171
     1
301
MARGIN
  1
CELLMARGIN_BEGIN
 40
1.5
 40
1.5
 40
1.5
 40
1.5
 40
4.5
 40
4.5
309
CELLMARGIN_END
 94
        6
 95
        1
302
GRIDFORMAT
  1
GRIDFORMAT_BEGIN
 90
        0
 91
        1
 62
     0
 92
       -2
340
0
 93
        0
 40
1.125
309
GRIDFORMAT_END
 95
        2
302
GRIDFORMAT
  1
GRIDFORMAT_BEGIN
 90
        0
 91
        1
 62
     0
 92
       -2
340
0
 93
        0
 40
1.125
309
GRIDFORMAT_END
 95
        4
302
GRIDFORMAT
  1
GRIDFORMAT_BEGIN
 90
        0
 91
        1
 62
     0
 92
       -2
340
0
 93
        0
 40
1.125
309
GRIDFORMAT_END
 95
        8
302
GRIDFORMAT
  1
GRIDFORMAT_BEGIN
 90
        0
 91
        1
 62
     0
 92
       -2
340
0
 93
        0
 40
1.125
309
GRIDFORMAT_END
 95
       16
302
GRIDFORMAT
  1
GRIDFORMAT_BEGIN
 90
        0
 91
        1
 62
     0
 92
       -2
340
0
 93
        0
 40
1.125
309
GRIDFORMAT_END
 95
       32
302
GRIDFORMAT
  1
GRIDFORMAT_BEGIN
 90
        0
 91
        1
 62
     0
 92
       -2
340
0
 93
        0
 40
1.125
309
GRIDFORMAT_END
309
TABLEFORMAT_END
  1
CELLSTYLE_BEGIN
 90
        3
 91
        2
300
_DATA
309
CELLSTYLE_END
  0
ENDSEC
  0
SECTION
  2
ACDSDATA
 70
     2
 71
     8
  0
ACDSSCHEMA
 90
        0
  1
AcDb_Thumbnail_Schema
  2
AcDbDs::ID
280
    10
 91
        8
  2
Thumbnail_Data
280
    15
 91
        0
101
ACDSRECORD
 95
        0
 90
        1
  2
AcDbDs::TreatedAsObjectData
280
     1
291
     1
101
ACDSRECORD
 95
        0
 90
        2
  2
AcDbDs::Legacy
280
     1
291
     1
101
ACDSRECORD
  1
AcDbDs::ID
 90
        3
  2
AcDs:Indexable
280
     1
291
     1
101
ACDSRECORD
  1
AcDbDs::ID
 90
        4
  2
AcDbDs::HandleAttribute
280
     7
282
     1
  0
ACDSSCHEMA
 90
        1
  1
AcDbDs::TreatedAsObjectDataSchema
  2
AcDbDs::TreatedAsObjectData
280
     1
 91
        0
  0
ACDSSCHEMA
 90
        2
  1
AcDbDs::LegacySchema
  2
AcDbDs::Legacy
280
     1
 91
        0
  0
ACDSSCHEMA
 90
        3
  1
AcDbDs::IndexedPropertySchema
  2
AcDs:Indexable
280
     1
 91
        0
  0
ACDSSCHEMA
 90
        4
  1
AcDbDs::HandleAttributeSchema
  2
AcDbDs::HandleAttribute
280
     7
 91
        1
284
     1
  0
ACDSRECORD
 90
        0
  2
AcDbDs::ID
280
    10
320
827F
  2
Thumbnail_Data
280
    15
 94
     1936
310
89504E470D0A1A0A0000000D49484452000001000000009108030000001BE1960600000300504C5445000000000000C8C8C80000000000000000000000000000000000000000000000000000330000660000990000CC0000FF0033000033330033660033990033CC0033FF0066000066330066660066990066CC0066FF0099
310
000099330099660099990099CC0099FF00CC0000CC3300CC6600CC9900CCCC00CCFF00FF0000FF3300FF6600FF9900FFCC00FFFF3300003300333300663300993300CC3300FF3333003333333333663333993333CC3333FF3366003366333366663366993366CC3366FF3399003399333399663399993399CC3399FF33CC00
310
33CC3333CC6633CC9933CCCC33CCFF33FF0033FF3333FF6633FF9933FFCC33FFFF6600006600336600666600996600CC6600FF6633006633336633666633996633CC6633FF6666006666336666666666996666CC6666FF6699006699336699666699996699CC6699FF66CC0066CC3366CC6666CC9966CCCC66CCFF66FF0066
310
FF3366FF6666FF9966FFCC66FFFF9900009900339900669900999900CC9900FF9933009933339933669933999933CC9933FF9966009966339966669966999966CC9966FF9999009999339999669999999999CC9999FF99CC0099CC3399CC6699CC9999CCCC99CCFF99FF0099FF3399FF6699FF9999FFCC99FFFFCC0000CC00
310
33CC0066CC0099CC00CCCC00FFCC3300CC3333CC3366CC3399CC33CCCC33FFCC6600CC6633CC6666CC6699CC66CCCC66FFCC9900CC9933CC9966CC9999CC99CCCC99FFCCCC00CCCC33CCCC66CCCC99CCCCCCCCCCFFCCFF00CCFF33CCFF66CCFF99CCFFCCCCFFFFFF0000FF0033FF0066FF0099FF00CCFF00FFFF3300FF3333
310
FF3366FF3399FF33CCFF33FFFF6600FF6633FF6666FF6699FF66CCFF66FFFF9900FF9933FF9966FF9999FF99CCFF99FFFFCC00FFCC33FFCC66FFCC99FFCCCCFFCCFFFFFF00FFFF33FFFF66FFFF99FFFFCCFFFFFF0000000D0D0D1A1A1A2828283535354343435050505D5D5D6B6B6B787878868686939393A1A1A1AEAEAEBB
310
BBBBC9C9C9D6D6D6E4E4E4F1F1F1FFFFFF00000000000000000000000000000000000000000000000000000000000008F1915C000004464944415478DAED9D5976EB200C40B51C7EB4FFCDB00DFE5F6D8390401ED236799510E76402E244174D601203FC62291F2AF0574B71F531012000048000100002C0FFF86677B1DF3F
310
809BBA053400A674AF2C6802AB6B8024B0A2061877826F9C011A0160E6D001E07DDFB26CF7853BF61AE1DAF3E7521A05D065EE826F54C8B00F44A5BF87AC9D5BFE00CB1400266BBB012752011CB2F6D64A851EED02283300E1DAE9366900F4861D8C6513A8EE80CCE1104C48556E8E195120004426686F2E505842D01D19B9
310
81C2C3DF30112EADA3E515217D1CB5812DC33CB81080DBC511DB00A0068931F9A91964310E00440E50485839FE65D000A0F408AC9BC0DB8E15CBE201200004800010004C00C85BB978ED19C02E6813B889DD01FC8483150037C53D00690BED49D2DBFD03C0B1FC400FAC01C093F26D4F600E00EF9264750008000120000480
310
001000560590170190D4F255ED3615DEB37C91F39E68805F005CF11704000180E6802B03D884C525C3E03EB0012000048000A000A017E87A2E20019C2F8AC2127900E81A006B00381D7CD700320118861F316D95046091D9A05AFC9F19BA3181D5CE0D4EA3BD160045DF637FC05A263017F700BE59B2809355569E0148FB38
310
B1168B009E9ABD2300395F0398C47AEE329D44817CE915872E16018CF28050ECD9B58D79921F002F69C04957DB00E0BE5A097949A8430008009E00F00501720719A8699E3E3B01C0974371DF200199520202306A801B00BB684CAC0E8075435A376D3DF71A0F00701CD73300B2E751611F00223C06C074A59A8B7D0008B365
310
533E3801D81F127F651D00820EA0FEA06606F0D59C486BEC0360A7079E02E846E30800CA30B80E00B2E4263FBE6802C3E4C9280024DFBE13B806A03841EB008E71AFC16DD7861A06E997843761D0300032697201A80060D6A12642C601EC0EA00B7970183400F13C1536ED039A07C0BA6B440780AD419D0C1907D0BD7F923E
310
5003A04E870D0348F92BA4A5ED96B0EE933F5E0FAB838781E85BEB936100D8355E6A002DF60800A8AD081DEA6212C0217713B803C01300A0030034092055F1B1077416053AA7071A6012408BF8D065DFA2C05153B709E66700A457B5B24788C4ACB2015387DA3001004F00FAB487A46E794013D42F80D4821F0581AAE1E9C8
310
82116600698F82BE34A027FF7C41A04F7AA73C40D7009BD361B955542C8AA2904D9E1239D500B00720DDED171600C63438CD9D4D01C01B00CAB96F5F00A4129FD64D27FF2FDF6D4C03F09906907FBBB517B35180CB7D0120EB3DB7E71601E8312C03882D42797A8B385D2E964DBD00800E60F8AF39EACE7ADA05F064979CF2
310
677B0F365459DC28C99D3E6B961160A471762C577B85F3673EE6EF02800010000240000800AB0058ED1A234ABB2E5279EDD01E01B00B92D1C5D9F88333007009A05F88835D9AC30B80D3FA32DE3532B2229CA0231F20EBD945654A59D1095600656500AA723806A0D73BD780D59D604C860240000800012000048000E017C0
310
87CA6F7EE77FC1D829609908F8930000000049454E44AE42608244AE426082
  0
ENDSEC
  0
EOF
