  0
SECTION
  2
HEADER
  9
$ACADVER
  1
AC1027
  9
$ACADMAINTVER
 70
   125
  9
$DWGCODEPAGE
  3
ANSI_932
  9
$LASTSAVEDBY
  1
yasukiyo.ogawa
  9
$REQUIREDVERSIONS
160
                 0
  9
$INSBASE
 10
0.0
 20
0.0
 30
0.0
  9
$EXTMIN
 10
0.0
 20
0.0
 30
0.0
  9
$EXTMAX
 10
8400.0
 20
11800.0
 30
0.0
  9
$LIMMIN
 10
0.0
 20
0.0
  9
$LIMMAX
 10
297.0
 20
210.0
  9
$ORTHOMODE
 70
     1
  9
$REGENMODE
 70
     1
  9
$FILLMODE
 70
     0
  9
$QTEXTMODE
 70
     0
  9
$MIRRTEXT
 70
     1
  9
$LTSCALE
 40
100.0
  9
$ATTMODE
 70
     1
  9
$TEXTSIZE
 40
180.0
  9
$TRACEWID
 40
0.05
  9
$TEXTSTYLE
  7
STANDARD
  9
$CLAYER
  8
3
  9
$CELTYPE
  6
BYLAYER
  9
$CECOLOR
 62
   256
  9
$CELTSCALE
 40
1.0
  9
$DISPSILH
 70
     0
  9
$DIMSCALE
 40
40.0
  9
$DIMASZ
 40
2.0
  9
$DIMEXO
 40
0.5
  9
$DIMDLI
 40
10.0
  9
$DIMRND
 40
0.0
  9
$DIMDLE
 40
0.0
  9
$DIMEXE
 40
1.0
  9
$DIMTP
 40
1.0
  9
$DIMTM
 40
1.0
  9
$DIMTXT
 40
3.0
  9
$DIMCEN
 40
0.0
  9
$DIMTSZ
 40
0.0
  9
$DIMTOL
 70
     0
  9
$DIMLIM
 70
     0
  9
$DIMTIH
 70
     0
  9
$DIMTOH
 70
     0
  9
$DIMSE1
 70
     0
  9
$DIMSE2
 70
     0
  9
$DIMTAD
 70
     1
  9
$DIMZIN
 70
     8
  9
$DIMBLK
  1

  9
$DIMASO
 70
     1
  9
$DIMSHO
 70
     1
  9
$DIMPOST
  1
(<>)
  9
$DIMAPOST
  1

  9
$DIMALT
 70
     0
  9
$DIMALTD
 70
     2
  9
$DIMALTF
 40
0.039
  9
$DIMLFAC
 40
1.0
  9
$DIMTOFL
 70
     1
  9
$DIMTVP
 40
0.0
  9
$DIMTIX
 70
     0
  9
$DIMSOXD
 70
     0
  9
$DIMSAH
 70
     1
  9
$DIMBLK1
  1
OPEN
  9
$DIMBLK2
  1
OPEN
  9
$DIMSTYLE
  2
IGA
  9
$DIMCLRD
 70
     0
  9
$DIMCLRE
 70
     0
  9
$DIMCLRT
 70
     0
  9
$DIMTFAC
 40
10.0
  9
$DIMGAP
 40
1.0
  9
$DIMJUST
 70
     0
  9
$DIMSD1
 70
     0
  9
$DIMSD2
 70
     0
  9
$DIMTOLJ
 70
     1
  9
$DIMTZIN
 70
     8
  9
$DIMALTZ
 70
     0
  9
$DIMALTTZ
 70
     0
  9
$DIMUPT
 70
     0
  9
$DIMDEC
 70
     0
  9
$DIMTDEC
 70
     0
  9
$DIMALTU
 70
     2
  9
$DIMALTTD
 70
     2
  9
$DIMTXSTY
  7
STANDARD
  9
$DIMAUNIT
 70
     0
  9
$DIMADEC
 70
     0
  9
$DIMALTRND
 40
0.0
  9
$DIMAZIN
 70
     0
  9
$DIMDSEP
 70
    46
  9
$DIMATFIT
 70
     3
  9
$DIMFRAC
 70
     0
  9
$DIMLDRBLK
  1
OPEN
  9
$DIMLUNIT
 70
     2
  9
$DIMLWD
 70
    -2
  9
$DIMLWE
 70
    -2
  9
$DIMTMOVE
 70
     2
  9
$DIMFXL
 40
1.0
  9
$DIMFXLON
 70
     0
  9
$DIMJOGANG
 40
0.7853981633974483
  9
$DIMTFILL
 70
     0
  9
$DIMTFILLCLR
 70
     0
  9
$DIMARCSYM
 70
     0
  9
$DIMLTYPE
  6

  9
$DIMLTEX1
  6

  9
$DIMLTEX2
  6

  9
$DIMTXTDIRECTION
 70
     0
  9
$LUNITS
 70
     2
  9
$LUPREC
 70
     3
  9
$SKETCHINC
 40
0.1
  9
$FILLETRAD
 40
50.0
  9
$AUNITS
 70
     0
  9
$AUPREC
 70
     0
  9
$MENU
  1
acad
  9
$ELEVATION
 40
0.0
  9
$PELEVATION
 40
0.0
  9
$THICKNESS
 40
0.0
  9
$LIMCHECK
 70
     0
  9
$CHAMFERA
 40
0.5
  9
$CHAMFERB
 40
0.5
  9
$CHAMFERC
 40
20.0
  9
$CHAMFERD
 40
0.0
  9
$SKPOLY
 70
     0
  9
$TDCREATE
 40
2451898.665474537
  9
$TDUCREATE
 40
2451898.290484606
  9
$TDUPDATE
 40
2460241.774097223
  9
$TDUUPDATE
 40
2460241.399102709
  9
$TDINDWG
 40
0.1151869213
  9
$TDUSRTIMER
 40
0.1151869213
  9
$USRTIMER
 70
     1
  9
$ANGBASE
 50
0.0
  9
$ANGDIR
 70
     0
  9
$PDMODE
 70
     0
  9
$PDSIZE
 40
0.0
  9
$PLINEWID
 40
0.0
  9
$SPLFRAME
 70
     0
  9
$SPLINETYPE
 70
     6
  9
$SPLINESEGS
 70
     8
  9
$HANDSEED
  5
84E9
  9
$SURFTAB1
 70
     6
  9
$SURFTAB2
 70
     6
  9
$SURFTYPE
 70
     6
  9
$SURFU
 70
     6
  9
$SURFV
 70
     6
  9
$UCSBASE
  2

  9
$UCSNAME
  2

  9
$UCSORG
 10
0.0
 20
0.0
 30
0.0
  9
$UCSXDIR
 10
1.0
 20
0.0
 30
0.0
  9
$UCSYDIR
 10
0.0
 20
1.0
 30
0.0
  9
$UCSORTHOREF
  2

  9
$UCSORTHOVIEW
 70
     0
  9
$UCSORGTOP
 10
0.0
 20
0.0
 30
0.0
  9
$UCSORGBOTTOM
 10
0.0
 20
0.0
 30
0.0
  9
$UCSORGLEFT
 10
0.0
 20
0.0
 30
0.0
  9
$UCSORGRIGHT
 10
0.0
 20
0.0
 30
0.0
  9
$UCSORGFRONT
 10
0.0
 20
0.0
 30
0.0
  9
$UCSORGBACK
 10
0.0
 20
0.0
 30
0.0
  9
$PUCSBASE
  2

  9
$PUCSNAME
  2

  9
$PUCSORG
 10
0.0
 20
0.0
 30
0.0
  9
$PUCSXDIR
 10
1.0
 20
0.0
 30
0.0
  9
$PUCSYDIR
 10
0.0
 20
1.0
 30
0.0
  9
$PUCSORTHOREF
  2

  9
$PUCSORTHOVIEW
 70
     0
  9
$PUCSORGTOP
 10
0.0
 20
0.0
 30
0.0
  9
$PUCSORGBOTTOM
 10
0.0
 20
0.0
 30
0.0
  9
$PUCSORGLEFT
 10
0.0
 20
0.0
 30
0.0
  9
$PUCSORGRIGHT
 10
0.0
 20
0.0
 30
0.0
  9
$PUCSORGFRONT
 10
0.0
 20
0.0
 30
0.0
  9
$PUCSORGBACK
 10
0.0
 20
0.0
 30
0.0
  9
$USERI1
 70
     0
  9
$USERI2
 70
     0
  9
$USERI3
 70
     0
  9
$USERI4
 70
     0
  9
$USERI5
 70
     0
  9
$USERR1
 40
0.0
  9
$USERR2
 40
0.0
  9
$USERR3
 40
0.0
  9
$USERR4
 40
0.0
  9
$USERR5
 40
0.0
  9
$WORLDVIEW
 70
     1
  9
$SHADEDGE
 70
     3
  9
$SHADEDIF
 70
    70
  9
$TILEMODE
 70
     1
  9
$MAXACTVP
 70
    16
  9
$PINSBASE
 10
0.0
 20
0.0
 30
0.0
  9
$PLIMCHECK
 70
     0
  9
$PEXTMIN
 10
1.000000000000000E+20
 20
1.000000000000000E+20
 30
1.000000000000000E+20
  9
$PEXTMAX
 10
-1.000000000000000E+20
 20
-1.000000000000000E+20
 30
-1.000000000000000E+20
  9
$PLIMMIN
 10
0.0
 20
0.0
  9
$PLIMMAX
 10
12.0
 20
9.0
  9
$UNITMODE
 70
     0
  9
$VISRETAIN
 70
     0
  9
$PLINEGEN
 70
     0
  9
$PSLTSCALE
 70
     1
  9
$TREEDEPTH
 70
  3020
  9
$CMLSTYLE
  2
STANDARD
  9
$CMLJUST
 70
     0
  9
$CMLSCALE
 40
20.0
  9
$PROXYGRAPHICS
 70
     1
  9
$MEASUREMENT
 70
     1
  9
$CELWEIGHT
370
    -1
  9
$ENDCAPS
280
     0
  9
$JOINSTYLE
280
     0
  9
$LWDISPLAY
290
     0
  9
$INSUNITS
 70
     0
  9
$HYPERLINKBASE
  1

  9
$STYLESHEET
  1

  9
$XEDIT
290
     1
  9
$CEPSNTYPE
380
     0
  9
$PSTYLEMODE
290
     1
  9
$FINGERPRINTGUID
  2
{391D3789-6417-4F8C-A933-762B0334F947}
  9
$VERSIONGUID
  2
{4A36A771-C7AE-4D5B-B10F-EA2889F219A8}
  9
$EXTNAMES
290
     1
  9
$PSVPSCALE
 40
0.0
  9
$OLESTARTUP
290
     0
  9
$SORTENTS
280
   127
  9
$INDEXCTL
280
     0
  9
$HIDETEXT
280
     0
  9
$XCLIPFRAME
280
     2
  9
$HALOGAP
280
     0
  9
$OBSCOLOR
 70
   257
  9
$OBSLTYPE
280
     0
  9
$INTERSECTIONDISPLAY
280
     0
  9
$INTERSECTIONCOLOR
 70
   257
  9
$DIMASSOC
280
     1
  9
$PROJECTNAME
  1

  9
$CAMERADISPLAY
290
     0
  9
$LENSLENGTH
 40
50.0
  9
$CAMERAHEIGHT
 40
0.0
  9
$STEPSPERSEC
 40
2.0
  9
$STEPSIZE
 40
6.0
  9
$3DDWFPREC
 40
2.0
  9
$PSOLWIDTH
 40
0.25
  9
$PSOLHEIGHT
 40
4.0
  9
$LOFTANG1
 40
1.570796326794896
  9
$LOFTANG2
 40
1.570796326794896
  9
$LOFTMAG1
 40
0.0
  9
$LOFTMAG2
 40
0.0
  9
$LOFTPARAM
 70
     7
  9
$LOFTNORMALS
280
     1
  9
$LATITUDE
 40
37.795
  9
$LONGITUDE
 40
-122.394
  9
$NORTHDIRECTION
 40
0.0
  9
$TIMEZONE
 70
 -8000
  9
$LIGHTGLYPHDISPLAY
280
     1
  9
$TILEMODELIGHTSYNCH
280
     1
  9
$CMATERIAL
347
83E0
  9
$SOLIDHIST
280
     0
  9
$SHOWHIST
280
     1
  9
$DWFFRAME
280
     2
  9
$DGNFRAME
280
     0
  9
$REALWORLDSCALE
290
     1
  9
$INTERFERECOLOR
 62
     1
  9
$INTERFEREOBJVS
345
8402
  9
$INTERFEREVPVS
346
83FF
  9
$CSHADOW
280
     0
  9
$SHADOWPLANELOCATION
 40
0.0
  0
ENDSEC
  0
SECTION
  2
CLASSES
  0
CLASS
  1
ACDBDICTIONARYWDFLT
  2
AcDbDictionaryWithDefault
  3
ObjectDBX Classes
 90
        0
 91
        1
280
     0
281
     0
  0
CLASS
  1
DICTIONARYVAR
  2
AcDbDictionaryVar
  3
ObjectDBX Classes
 90
        0
 91
       11
280
     0
281
     0
  0
CLASS
  1
MATERIAL
  2
AcDbMaterial
  3
ObjectDBX Classes
 90
     1153
 91
        3
280
     0
281
     0
  0
CLASS
  1
VISUALSTYLE
  2
AcDbVisualStyle
  3
ObjectDBX Classes
 90
     4095
 91
       24
280
     0
281
     0
  0
CLASS
  1
TABLESTYLE
  2
AcDbTableStyle
  3
ObjectDBX Classes
 90
     4095
 91
        1
280
     0
281
     0
  0
CLASS
  1
SCALE
  2
AcDbScale
  3
ObjectDBX Classes
 90
     1153
 91
       17
280
     0
281
     0
  0
CLASS
  1
MLEADERSTYLE
  2
AcDbMLeaderStyle
  3
ACDB_MLEADERSTYLE_CLASS
 90
     4095
 91
        1
280
     0
281
     0
  0
CLASS
  1
ACDBSECTIONVIEWSTYLE
  2
AcDbSectionViewStyle
  3
ObjectDBX Classes
 90
     1025
 91
        1
280
     0
281
     0
  0
CLASS
  1
ACDBDETAILVIEWSTYLE
  2
AcDbDetailViewStyle
  3
ObjectDBX Classes
 90
     1025
 91
        1
280
     0
281
     0
  0
CLASS
  1
CELLSTYLEMAP
  2
AcDbCellStyleMap
  3
ObjectDBX Classes
 90
     1152
 91
        1
280
     0
281
     0
  0
ENDSEC
  0
SECTION
  2
TABLES
  0
TABLE
  2
VPORT
  5
8
330
0
100
AcDbSymbolTable
 70
     1
1001
ACAD
1000
DbSaveVer
1071
      278
  0
VPORT
  5
83DD
330
8
100
AcDbSymbolTableRecord
100
AcDbViewportTableRecord
  2
*Active
 70
     0
 10
0.0
 20
0.0
 11
1.0
 21
1.0
 12
7113.841116720781
 22
5900.000027474012
 13
0.0
 23
0.0
 14
10.0
 24
10.0
 15
10.0
 25
10.0
 16
0.0
 26
0.0
 36
1.0
 17
0.0
 27
0.0
 37
0.0
 40
11876.28512550527
 41
2.250314465408805
 42
50.0
 43
0.0
 44
0.0
 50
0.0
 51
0.0
 71
     0
 72
   100
 73
     1
 74
     0
 75
     0
 76
     0
 77
     0
 78
     0
281
     0
 65
     1
110
0.0
120
0.0
130
0.0
111
1.0
121
0.0
131
0.0
112
0.0
122
1.0
132
0.0
 79
     0
146
0.0
348
83FE
 60
     3
 61
     5
292
     1
282
     1
141
0.0
142
0.0
 63
   250
421
  3355443
1001
ACAD_NAV_VCDISPLAY
1070
     3
  0
ENDTAB
  0
TABLE
  2
LTYPE
  5
5
330
0
100
AcDbSymbolTable
 70
     2
  0
LTYPE
  5
13
330
5
100
AcDbSymbolTableRecord
100
AcDbLinetypeTableRecord
  2
BYBLOCK
 70
     0
  3

 72
    65
 73
     0
 40
0.0
  0
LTYPE
  5
14
330
5
100
AcDbSymbolTableRecord
100
AcDbLinetypeTableRecord
  2
BYLAYER
 70
     0
  3

 72
    65
 73
     0
 40
0.0
  0
LTYPE
  5
15
330
5
100
AcDbSymbolTableRecord
100
AcDbLinetypeTableRecord
  2
CONTINUOUS
 70
     0
  3
Solid line
 72
    65
 73
     0
 40
0.0
  0
LTYPE
  5
1F
330
5
100
AcDbSymbolTableRecord
100
AcDbLinetypeTableRecord
  2
CENTER
 70
     0
  3
____ _ ____ _ ____ _ ____ _ ____ _ ____ _ ____ 
 72
    65
 73
     4
 40
2.0
 49
1.25
 74
     0
 49
-0.25
 74
     0
 49
0.25
 74
     0
 49
-0.25
 74
     0
  0
ENDTAB
  0
TABLE
  2
LAYER
  5
2
102
{ACAD_XDICTIONARY
360
84C0
102
}
330
0
100
AcDbSymbolTable
 70
     6
  0
LAYER
  5
F
102
{ACAD_XDICTIONARY
360
84B3
102
}
330
2
100
AcDbSymbolTableRecord
100
AcDbLayerTableRecord
  2
0
 70
     0
 62
     7
  6
CONTINUOUS
370
    -3
390
82E7
347
83F0
348
0
  0
LAYER
  5
31
102
{ACAD_XDICTIONARY
360
84B5
102
}
330
2
100
AcDbSymbolTableRecord
100
AcDbLayerTableRecord
  2
3
 70
     0
 62
     2
  6
CONTINUOUS
370
    -3
390
82E7
347
83F0
348
0
  0
LAYER
  5
76D0
102
{ACAD_XDICTIONARY
360
84B7
102
}
330
2
100
AcDbSymbolTableRecord
100
AcDbLayerTableRecord
  2
2
 70
     0
 62
     3
  6
CENTER
370
    -3
390
82E7
347
83F0
348
0
  0
LAYER
  5
76D1
102
{ACAD_XDICTIONARY
360
84B9
102
}
330
2
100
AcDbSymbolTableRecord
100
AcDbLayerTableRecord
  2
1
 70
     0
 62
     4
  6
CONTINUOUS
370
    -3
390
82E7
347
83F0
348
0
  0
LAYER
  5
76D2
102
{ACAD_XDICTIONARY
360
84BB
102
}
330
2
100
AcDbSymbolTableRecord
100
AcDbLayerTableRecord
  2
4
 70
     0
 62
     7
  6
CONTINUOUS
370
    -3
390
82E7
347
83F0
348
0
  0
LAYER
  5
7B2E
330
2
100
AcDbSymbolTableRecord
100
AcDbLayerTableRecord
  2
DEFPOINTS
 70
     0
 62
     7
  6
CONTINUOUS
290
     0
370
    -3
390
82E7
347
83F0
348
0
  0
ENDTAB
  0
TABLE
  2
STYLE
  5
3
330
0
100
AcDbSymbolTable
 70
     1
  0
STYLE
  5
10
330
3
100
AcDbSymbolTableRecord
100
AcDbTextStyleTableRecord
  2
STANDARD
 70
     0
 40
0.0
 41
1.0
 50
0.0
 71
     0
 42
180.0
  3
simplex.shx
  4
extfont.shx
  0
ENDTAB
  0
TABLE
  2
VIEW
  5
6
330
0
100
AcDbSymbolTable
 70
     0
  0
ENDTAB
  0
TABLE
  2
UCS
  5
7
330
0
100
AcDbSymbolTable
 70
     0
  0
ENDTAB
  0
TABLE
  2
APPID
  5
9
330
0
100
AcDbSymbolTable
 70
     4
  0
APPID
  5
11
330
9
100
AcDbSymbolTableRecord
100
AcDbRegAppTableRecord
  2
ACAD
 70
     0
  0
APPID
  5
842F
330
9
100
AcDbSymbolTableRecord
100
AcDbRegAppTableRecord
  2
AcadAnnoMonitorAlertIconDisabled
 70
     0
  0
APPID
  5
8430
330
9
100
AcDbSymbolTableRecord
100
AcDbRegAppTableRecord
  2
ACAD_EXEMPT_FROM_CAD_STANDARDS
 70
     0
  0
APPID
  5
84C6
330
9
100
AcDbSymbolTableRecord
100
AcDbRegAppTableRecord
  2
ACAD_NAV_VCDISPLAY
 70
     0
  0
ENDTAB
  0
TABLE
  2
DIMSTYLE
  5
A
330
0
100
AcDbSymbolTable
 70
     1
100
AcDbDimStyleTable
 71
     1
340
1D
  0
DIMSTYLE
105
1D
102
{ACAD_REACTORS
330
7C4A
330
7C5A
330
7C5B
330
7C5C
330
7C65
330
7C66
330
7C9C
330
7C9D
330
7C9E
330
7C9F
330
7CA0
330
7CDC
330
7CDD
330
7CDE
330
7CE9
330
7CF9
330
7CFA
330
7CFB
330
7D0C
330
8133
330
8292
330
82B9
330
82C6
102
}
330
A
100
AcDbSymbolTableRecord
100
AcDbDimStyleTableRecord
  2
IGA
 70
     0
 40
2.0
 41
2.0
 42
0.5
 43
10.0
 44
1.0
 47
1.0
 48
1.0
 73
     0
 74
     0
 77
     1
 78
     8
140
3.0
141
0.0
143
0.03937
146
10.0
147
1.0
173
     1
271
     1
272
     0
279
     2
284
     8
340
10
341
7F3A
343
7F3A
344
7F3A
  0
ENDTAB
  0
TABLE
  2
BLOCK_RECORD
  5
1
330
0
100
AcDbSymbolTable
 70
    27
  0
BLOCK_RECORD
  5
19
102
{ACAD_XDICTIONARY
360
8315
102
}
330
1
100
AcDbSymbolTableRecord
100
AcDbBlockTableRecord
  2
*MODEL_SPACE
340
82EA
 70
     0
280
     1
281
     0
  0
BLOCK_RECORD
  5
16
102
{ACAD_XDICTIONARY
360
8313
102
}
330
1
100
AcDbSymbolTableRecord
100
AcDbBlockTableRecord
  2
*PAPER_SPACE
340
82EB
 70
     0
280
     1
281
     0
  0
BLOCK_RECORD
  5
79FC
330
1
100
AcDbSymbolTableRecord
100
AcDbBlockTableRecord
  2
YA_N
340
0
102
{BLKREFS
331
7CDA
331
7CF1
331
7C22
331
7C3D
331
7C3E
331
7C61
331
7CA1
331
7CB4
102
}
 70
     0
280
     1
281
     0
  0
BLOCK_RECORD
  5
7D10
330
1
100
AcDbSymbolTableRecord
100
AcDbBlockTableRecord
  2
*D1
340
0
 70
     0
280
     1
281
     0
  0
BLOCK_RECORD
  5
7D1C
330
1
100
AcDbSymbolTableRecord
100
AcDbBlockTableRecord
  2
*D2
340
0
 70
     0
280
     1
281
     0
  0
BLOCK_RECORD
  5
7D28
330
1
100
AcDbSymbolTableRecord
100
AcDbBlockTableRecord
  2
*D3
340
0
 70
     0
280
     1
281
     0
  0
BLOCK_RECORD
  5
7D34
330
1
100
AcDbSymbolTableRecord
100
AcDbBlockTableRecord
  2
*D4
340
0
 70
     0
280
     1
281
     0
  0
BLOCK_RECORD
  5
7D40
330
1
100
AcDbSymbolTableRecord
100
AcDbBlockTableRecord
  2
*D5
340
0
 70
     0
280
     1
281
     0
  0
BLOCK_RECORD
  5
7D4C
330
1
100
AcDbSymbolTableRecord
100
AcDbBlockTableRecord
  2
*D6
340
0
 70
     0
280
     1
281
     0
  0
BLOCK_RECORD
  5
7D64
330
1
100
AcDbSymbolTableRecord
100
AcDbBlockTableRecord
  2
*D7
340
0
 70
     0
280
     1
281
     0
  0
BLOCK_RECORD
  5
7D70
330
1
100
AcDbSymbolTableRecord
100
AcDbBlockTableRecord
  2
*D8
340
0
 70
     0
280
     1
281
     0
  0
BLOCK_RECORD
  5
7D7C
330
1
100
AcDbSymbolTableRecord
100
AcDbBlockTableRecord
  2
*D9
340
0
 70
     0
280
     1
281
     0
  0
BLOCK_RECORD
  5
7D87
330
1
100
AcDbSymbolTableRecord
100
AcDbBlockTableRecord
  2
*D10
340
0
 70
     0
280
     1
281
     0
  0
BLOCK_RECORD
  5
7D93
330
1
100
AcDbSymbolTableRecord
100
AcDbBlockTableRecord
  2
*D11
340
0
 70
     0
280
     1
281
     0
  0
BLOCK_RECORD
  5
7D9F
330
1
100
AcDbSymbolTableRecord
100
AcDbBlockTableRecord
  2
*D12
340
0
 70
     0
280
     1
281
     0
  0
BLOCK_RECORD
  5
7DAB
330
1
100
AcDbSymbolTableRecord
100
AcDbBlockTableRecord
  2
*D13
340
0
 70
     0
280
     1
281
     0
  0
BLOCK_RECORD
  5
7DB7
330
1
100
AcDbSymbolTableRecord
100
AcDbBlockTableRecord
  2
*D14
340
0
 70
     0
280
     1
281
     0
  0
BLOCK_RECORD
  5
7DC3
330
1
100
AcDbSymbolTableRecord
100
AcDbBlockTableRecord
  2
*D15
340
0
 70
     0
280
     1
281
     0
  0
BLOCK_RECORD
  5
7DDB
330
1
100
AcDbSymbolTableRecord
100
AcDbBlockTableRecord
  2
*D16
340
0
 70
     0
280
     1
281
     0
  0
BLOCK_RECORD
  5
7DE7
330
1
100
AcDbSymbolTableRecord
100
AcDbBlockTableRecord
  2
*D17
340
0
 70
     0
280
     1
281
     0
  0
BLOCK_RECORD
  5
7DF3
330
1
100
AcDbSymbolTableRecord
100
AcDbBlockTableRecord
  2
*D18
340
0
 70
     0
280
     1
281
     0
  0
BLOCK_RECORD
  5
7E23
330
1
100
AcDbSymbolTableRecord
100
AcDbBlockTableRecord
  2
*D19
340
0
 70
     0
280
     1
281
     0
  0
BLOCK_RECORD
  5
7F3A
330
1
100
AcDbSymbolTableRecord
100
AcDbBlockTableRecord
  2
_OPEN
340
0
102
{BLKREFS
331
828B
331
828C
331
838A
331
838B
331
8393
331
8394
331
83A5
331
83A6
331
83AE
331
83AF
331
83B7
331
83B8
331
83CE
331
83CF
331
8462
331
8463
331
846B
331
846C
331
8474
331
8475
331
847D
331
847E
331
8486
331
8487
331
848F
331
8490
331
831E
331
831F
331
8339
331
833A
331
8354
331
8355
331
835D
331
835E
331
8366
331
8367
331
836F
331
8370
331
8378
331
8379
331
849B
331
84A8
331
84A9
102
}
 70
     0
280
     1
281
     0
  0
BLOCK_RECORD
  5
80DE
330
1
100
AcDbSymbolTableRecord
100
AcDbBlockTableRecord
  2
_DOT
340
0
102
{BLKREFS
331
849A
102
}
 70
     0
280
     1
281
     0
  0
BLOCK_RECORD
  5
8127
330
1
100
AcDbSymbolTableRecord
100
AcDbBlockTableRecord
  2
*D22
340
0
 70
     0
280
     1
281
     0
  0
BLOCK_RECORD
  5
8286
330
1
100
AcDbSymbolTableRecord
100
AcDbBlockTableRecord
  2
*D23
340
0
 70
     0
280
     1
281
     0
  0
BLOCK_RECORD
  5
8293
330
1
100
AcDbSymbolTableRecord
100
AcDbBlockTableRecord
  2
_NONE
340
0
 70
     0
280
     1
281
     0
  0
BLOCK_RECORD
  5
82B1
330
1
100
AcDbSymbolTableRecord
100
AcDbBlockTableRecord
  2
*D25
340
0
 70
     0
280
     1
281
     0
  0
BLOCK_RECORD
  5
82BA
330
1
100
AcDbSymbolTableRecord
100
AcDbBlockTableRecord
  2
*D26
340
0
 70
     0
280
     1
281
     0
  0
ENDTAB
  0
ENDSEC
  0
SECTION
  2
BLOCKS
  0
BLOCK
  5
1A
330
19
100
AcDbEntity
  8
0
100
AcDbBlockBegin
  2
*MODEL_SPACE
 70
     0
 10
0.0
 20
0.0
 30
0.0
  3
*MODEL_SPACE
  1

  0
ENDBLK
  5
1B
330
19
100
AcDbEntity
  8
0
100
AcDbBlockEnd
  0
BLOCK
  5
17
330
16
100
AcDbEntity
 67
     1
  8
0
100
AcDbBlockBegin
  2
*PAPER_SPACE
 70
     0
 10
0.0
 20
0.0
 30
0.0
  3
*PAPER_SPACE
  1

  0
ENDBLK
  5
18
330
16
100
AcDbEntity
 67
     1
  8
0
100
AcDbBlockEnd
  0
BLOCK
  5
79FD
330
79FC
100
AcDbEntity
  8
0
100
AcDbBlockBegin
  2
YA_N
 70
     0
 10
0.0
 20
0.0
 30
0.0
  3
YA_N
  1

  0
ENDBLK
  5
79FE
330
79FC
100
AcDbEntity
  8
0
100
AcDbBlockEnd
  0
BLOCK
  5
8041
330
7D10
100
AcDbEntity
  8
0
100
AcDbBlockBegin
  2
*D1
 70
     1
 10
0.0
 20
0.0
 30
0.0
  3
*D1
  1

  0
LINE
  5
831B
330
7D10
100
AcDbEntity
  8
3
 62
     0
440
 16777216
100
AcDbLine
 10
5391.092839011053
 20
5261.720885449071
 30
0.0
 11
5391.092839011053
 21
5530.120671915636
 31
0.0
  0
LINE
  5
831C
330
7D10
100
AcDbEntity
  8
3
 62
     0
440
 16777216
100
AcDbLine
 10
7091.092839011053
 20
5261.720885449071
 30
0.0
 11
7091.092839011053
 21
5530.120671915636
 31
0.0
  0
LINE
  5
831D
330
7D10
100
AcDbEntity
  8
3
 62
     0
440
 16777216
100
AcDbLine
 10
5471.092839011053
 20
5490.120671915637
 30
0.0
 11
7011.092839011053
 21
5490.120671915637
 31
0.0
  0
INSERT
  5
831E
330
7D10
100
AcDbEntity
  8
3
 62
     0
440
 16777216
100
AcDbBlockReference
  2
_OPEN
 10
5391.092839011053
 20
5490.120671915637
 30
0.0
 41
80.0
 42
80.0
 43
80.0
 50
180.0
  0
INSERT
  5
831F
330
7D10
100
AcDbEntity
  8
3
 62
     0
440
 16777216
100
AcDbBlockReference
  2
_OPEN
 10
7091.092839011053
 20
5490.120671915637
 30
0.0
 41
80.0
 42
80.0
 43
80.0
  0
MTEXT
  5
8320
330
7D10
100
AcDbEntity
  8
3
 62
     0
440
 16777216
100
AcDbMText
 10
6241.092839011053
 20
5590.120671915636
 30
0.0
 40
120.0
 41
0.0
 46
0.0
 71
     5
 72
     5
  1
\A1;1700
 73
     1
 44
1.0
  0
POINT
  5
8321
330
7D10
100
AcDbEntity
  8
DEFPOINTS
 62
     0
440
 16777216
100
AcDbPoint
 10
5391.092839011053
 20
5241.720885449071
 30
0.0
  0
POINT
  5
8322
330
7D10
100
AcDbEntity
  8
DEFPOINTS
 62
     0
440
 16777216
100
AcDbPoint
 10
7091.092839011053
 20
5241.720885449071
 30
0.0
  0
POINT
  5
8323
330
7D10
100
AcDbEntity
  8
DEFPOINTS
 62
     0
440
 16777216
100
AcDbPoint
 10
7091.092839011053
 20
5490.120671915637
 30
0.0
  0
ENDBLK
  5
804B
330
7D10
100
AcDbEntity
  8
0
100
AcDbBlockEnd
  0
BLOCK
  5
8175
330
7D1C
100
AcDbEntity
  8
0
100
AcDbBlockBegin
  2
*D2
 70
     1
 10
0.0
 20
0.0
 30
0.0
  3
*D2
  1

  0
LINE
  5
8468
330
7D1C
100
AcDbEntity
  8
3
 62
     0
440
 16777216
370
    -2
100
AcDbLine
 10
4921.092839011054
 20
4620.800457609003
 30
0.0
 11
4921.092839011054
 21
5855.197290539811
 31
0.0
  0
LINE
  5
8469
330
7D1C
100
AcDbEntity
  8
3
 62
     0
440
 16777216
370
    -2
100
AcDbLine
 10
6241.092839011053
 20
5687.263901748139
 30
0.0
 11
6241.092839011053
 21
5855.197290539811
 31
0.0
  0
LINE
  5
846A
330
7D1C
100
AcDbEntity
  8
3
 62
     0
440
 16777216
370
    -2
100
AcDbLine
 10
5001.092839011054
 20
5815.197290539811
 30
0.0
 11
6161.092839011053
 21
5815.197290539811
 31
0.0
  0
INSERT
  5
846B
330
7D1C
100
AcDbEntity
  8
3
 62
     0
440
 16777216
370
    -2
100
AcDbBlockReference
  2
_OPEN
 10
4921.092839011054
 20
5815.197290539811
 30
0.0
 41
80.0
 42
80.0
 43
80.0
 50
180.0
  0
INSERT
  5
846C
330
7D1C
100
AcDbEntity
  8
3
 62
     0
440
 16777216
370
    -2
100
AcDbBlockReference
  2
_OPEN
 10
6241.092839011053
 20
5815.197290539811
 30
0.0
 41
80.0
 42
80.0
 43
80.0
  0
MTEXT
  5
846D
330
7D1C
100
AcDbEntity
  8
3
 62
     0
440
 16777216
100
AcDbMText
 10
5581.092839011053
 20
5946.625861968382
 30
0.0
 40
120.0
 41
0.0
 46
0.0
 71
     5
 72
     1
  1
\A1;(1320)
 73
     1
 44
1.0
  0
POINT
  5
846E
330
7D1C
100
AcDbEntity
  8
DEFPOINTS
 62
     0
440
 16777216
100
AcDbPoint
 10
4921.092839011054
 20
4600.800457609002
 30
0.0
  0
POINT
  5
846F
330
7D1C
100
AcDbEntity
  8
DEFPOINTS
 62
     0
440
 16777216
100
AcDbPoint
 10
6241.092839011053
 20
5667.263901748138
 30
0.0
  0
POINT
  5
8470
330
7D1C
100
AcDbEntity
  8
DEFPOINTS
 62
     0
440
 16777216
100
AcDbPoint
 10
6241.092839011053
 20
5815.197290539811
 30
0.0
  0
ENDBLK
  5
817F
330
7D1C
100
AcDbEntity
  8
0
100
AcDbBlockEnd
  0
BLOCK
  5
8180
330
7D28
100
AcDbEntity
  8
0
100
AcDbBlockBegin
  2
*D3
 70
     1
 10
0.0
 20
0.0
 30
0.0
  3
*D3
  1

  0
LINE
  5
845F
330
7D28
100
AcDbEntity
  8
3
 62
     0
440
 16777216
370
    -2
100
AcDbLine
 10
6241.092839011053
 20
5687.263901748139
 30
0.0
 11
6241.092839011053
 21
5854.809703434625
 31
0.0
  0
LINE
  5
8460
330
7D28
100
AcDbEntity
  8
3
 62
     0
440
 16777216
370
    -2
100
AcDbLine
 10
7260.592839011053
 20
4264.800457609002
 30
0.0
 11
7260.592839011053
 21
5854.809703434625
 31
0.0
  0
LINE
  5
8461
330
7D28
100
AcDbEntity
  8
3
 62
     0
440
 16777216
370
    -2
100
AcDbLine
 10
6321.092839011053
 20
5814.809703434625
 30
0.0
 11
7180.592839011054
 21
5814.809703434625
 31
0.0
  0
INSERT
  5
8462
330
7D28
100
AcDbEntity
  8
3
 62
     0
440
 16777216
370
    -2
100
AcDbBlockReference
  2
_OPEN
 10
6241.092839011053
 20
5814.809703434625
 30
0.0
 41
80.0
 42
80.0
 43
80.0
 50
180.0
  0
INSERT
  5
8463
330
7D28
100
AcDbEntity
  8
3
 62
     0
440
 16777216
370
    -2
100
AcDbBlockReference
  2
_OPEN
 10
7260.592839011053
 20
5814.809703434625
 30
0.0
 41
80.0
 42
80.0
 43
80.0
  0
MTEXT
  5
8464
330
7D28
100
AcDbEntity
  8
3
 62
     0
440
 16777216
100
AcDbMText
 10
6750.842839011053
 20
5946.238274863197
 30
0.0
 40
120.0
 41
0.0
 46
0.0
 71
     5
 72
     1
  1
\A1;(1020)
 73
     1
 44
1.0
  0
POINT
  5
8465
330
7D28
100
AcDbEntity
  8
DEFPOINTS
 62
     0
440
 16777216
100
AcDbPoint
 10
6241.092839011053
 20
5667.263901748138
 30
0.0
  0
POINT
  5
8466
330
7D28
100
AcDbEntity
  8
DEFPOINTS
 62
     0
440
 16777216
100
AcDbPoint
 10
7260.592839011053
 20
4244.800457609002
 30
0.0
  0
POINT
  5
8467
330
7D28
100
AcDbEntity
  8
DEFPOINTS
 62
     0
440
 16777216
100
AcDbPoint
 10
7260.592839011053
 20
5814.809703434625
 30
0.0
  0
ENDBLK
  5
818A
330
7D28
100
AcDbEntity
  8
0
100
AcDbBlockEnd
  0
BLOCK
  5
80D3
330
7D34
100
AcDbEntity
  8
0
100
AcDbBlockBegin
  2
*D4
 70
     1
 10
0.0
 20
0.0
 30
0.0
  3
*D4
  1

  0
LINE
  5
8336
330
7D34
100
AcDbEntity
  8
3
 62
     0
440
 16777216
100
AcDbLine
 10
7113.392839011054
 20
4945.800457609003
 30
0.0
 11
7574.264341757109
 21
4945.800457609003
 31
0.0
  0
LINE
  5
8337
330
7D34
100
AcDbEntity
  8
3
 62
     0
440
 16777216
100
AcDbLine
 10
7113.392839011054
 20
3695.800457609002
 30
0.0
 11
7574.264341757109
 21
3695.800457609001
 31
0.0
  0
LINE
  5
8338
330
7D34
100
AcDbEntity
  8
3
 62
     0
440
 16777216
100
AcDbLine
 10
7534.26434175711
 20
4865.800457609003
 30
0.0
 11
7534.26434175711
 21
3775.800457609001
 31
0.0
  0
INSERT
  5
8339
330
7D34
100
AcDbEntity
  8
3
 62
     0
440
 16777216
100
AcDbBlockReference
  2
_OPEN
 10
7534.26434175711
 20
4945.800457609003
 30
0.0
 41
80.0
 42
80.0
 43
80.0
 50
90.0
  0
INSERT
  5
833A
330
7D34
100
AcDbEntity
  8
3
 62
     0
440
 16777216
100
AcDbBlockReference
  2
_OPEN
 10
7534.26434175711
 20
3695.800457609001
 30
0.0
 41
80.0
 42
80.0
 43
80.0
 50
270.0
  0
MTEXT
  5
833B
330
7D34
100
AcDbEntity
  8
3
 62
     0
440
 16777216
100
AcDbMText
 10
7434.264341757108
 20
4320.800457609002
 30
0.0
 40
120.0
 41
0.0
 46
0.0
 71
     5
 72
     5
  1
\A1;φ1250
 11
0.0000000000000001
 21
1.0
 31
0.0
 73
     1
 44
1.0
  0
POINT
  5
833C
330
7D34
100
AcDbEntity
  8
DEFPOINTS
 62
     0
440
 16777216
100
AcDbPoint
 10
7093.392839011054
 20
4945.800457609003
 30
0.0
  0
POINT
  5
833D
330
7D34
100
AcDbEntity
  8
DEFPOINTS
 62
     0
440
 16777216
100
AcDbPoint
 10
7093.392839011054
 20
3695.800457609002
 30
0.0
  0
POINT
  5
833E
330
7D34
100
AcDbEntity
  8
DEFPOINTS
 62
     0
440
 16777216
100
AcDbPoint
 10
7534.26434175711
 20
3695.800457609001
 30
0.0
  0
ENDBLK
  5
80DD
330
7D34
100
AcDbEntity
  8
0
100
AcDbBlockEnd
  0
BLOCK
  5
81EF
330
7D40
100
AcDbEntity
  8
0
100
AcDbBlockBegin
  2
*D5
 70
     1
 10
0.0
 20
0.0
 30
0.0
  3
*D5
  1

  0
LINE
  5
8471
330
7D40
100
AcDbEntity
  8
3
 62
     0
440
 16777216
370
    -2
100
AcDbLine
 10
5050.092839011052
 20
2690.800457609002
 30
0.0
 11
5050.092839011052
 21
2323.433502867538
 31
0.0
  0
LINE
  5
8472
330
7D40
100
AcDbEntity
  8
3
 62
     0
440
 16777216
370
    -2
100
AcDbLine
 10
6241.092839011052
 20
2690.800457609002
 30
0.0
 11
6241.092839011052
 21
2323.433502867538
 31
0.0
  0
LINE
  5
8473
330
7D40
100
AcDbEntity
  8
3
 62
     0
440
 16777216
370
    -2
100
AcDbLine
 10
5130.092839011052
 20
2363.433502867538
 30
0.0
 11
6161.092839011052
 21
2363.433502867538
 31
0.0
  0
INSERT
  5
8474
330
7D40
100
AcDbEntity
  8
3
 62
     0
440
 16777216
370
    -2
100
AcDbBlockReference
  2
_OPEN
 10
5050.092839011052
 20
2363.433502867538
 30
0.0
 41
80.0
 42
80.0
 43
80.0
 50
180.0
  0
INSERT
  5
8475
330
7D40
100
AcDbEntity
  8
3
 62
     0
440
 16777216
370
    -2
100
AcDbBlockReference
  2
_OPEN
 10
6241.092839011052
 20
2363.433502867538
 30
0.0
 41
80.0
 42
80.0
 43
80.0
  0
MTEXT
  5
8476
330
7D40
100
AcDbEntity
  8
3
 62
     0
440
 16777216
100
AcDbMText
 10
5645.592839011052
 20
2463.433502867538
 30
0.0
 40
120.0
 41
0.0
 46
0.0
 71
     5
 72
     1
  1
\A1;1191
 73
     1
 44
1.0
  0
POINT
  5
8477
330
7D40
100
AcDbEntity
  8
DEFPOINTS
 62
     0
440
 16777216
100
AcDbPoint
 10
5050.092839011052
 20
2710.800457609003
 30
0.0
  0
POINT
  5
8478
330
7D40
100
AcDbEntity
  8
DEFPOINTS
 62
     0
440
 16777216
100
AcDbPoint
 10
6241.092839011052
 20
2710.800457609003
 30
0.0
  0
POINT
  5
8479
330
7D40
100
AcDbEntity
  8
DEFPOINTS
 62
     0
440
 16777216
100
AcDbPoint
 10
6241.092839011052
 20
2363.433502867538
 30
0.0
  0
ENDBLK
  5
81F9
330
7D40
100
AcDbEntity
  8
0
100
AcDbBlockEnd
  0
BLOCK
  5
81E4
330
7D4C
100
AcDbEntity
  8
0
100
AcDbBlockBegin
  2
*D6
 70
     1
 10
0.0
 20
0.0
 30
0.0
  3
*D6
  1

  0
LINE
  5
847A
330
7D4C
100
AcDbEntity
  8
3
 62
     0
440
 16777216
370
    -2
100
AcDbLine
 10
6241.092839011052
 20
2690.800457609002
 30
0.0
 11
6241.092839011052
 21
2323.433502867538
 31
0.0
  0
LINE
  5
847B
330
7D4C
100
AcDbEntity
  8
3
 62
     0
440
 16777216
370
    -2
100
AcDbLine
 10
7170.092839011053
 20
2690.800457609002
 30
0.0
 11
7170.092839011053
 21
2323.433502867538
 31
0.0
  0
LINE
  5
847C
330
7D4C
100
AcDbEntity
  8
3
 62
     0
440
 16777216
370
    -2
100
AcDbLine
 10
6321.092839011052
 20
2363.433502867538
 30
0.0
 11
7090.092839011053
 21
2363.433502867538
 31
0.0
  0
INSERT
  5
847D
330
7D4C
100
AcDbEntity
  8
3
 62
     0
440
 16777216
370
    -2
100
AcDbBlockReference
  2
_OPEN
 10
6241.092839011052
 20
2363.433502867538
 30
0.0
 41
80.0
 42
80.0
 43
80.0
 50
180.0
  0
INSERT
  5
847E
330
7D4C
100
AcDbEntity
  8
3
 62
     0
440
 16777216
370
    -2
100
AcDbBlockReference
  2
_OPEN
 10
7170.092839011053
 20
2363.433502867538
 30
0.0
 41
80.0
 42
80.0
 43
80.0
  0
MTEXT
  5
847F
330
7D4C
100
AcDbEntity
  8
3
 62
     0
440
 16777216
100
AcDbMText
 10
6705.592839011053
 20
2463.433502867538
 30
0.0
 40
120.0
 41
0.0
 46
0.0
 71
     5
 72
     1
  1
\A1;929
 73
     1
 44
1.0
  0
POINT
  5
8480
330
7D4C
100
AcDbEntity
  8
DEFPOINTS
 62
     0
440
 16777216
100
AcDbPoint
 10
6241.092839011052
 20
2710.800457609003
 30
0.0
  0
POINT
  5
8481
330
7D4C
100
AcDbEntity
  8
DEFPOINTS
 62
     0
440
 16777216
100
AcDbPoint
 10
7170.092839011053
 20
2710.800457609003
 30
0.0
  0
POINT
  5
8482
330
7D4C
100
AcDbEntity
  8
DEFPOINTS
 62
     0
440
 16777216
100
AcDbPoint
 10
7170.092839011053
 20
2363.433502867538
 30
0.0
  0
ENDBLK
  5
81EE
330
7D4C
100
AcDbEntity
  8
0
100
AcDbBlockEnd
  0
BLOCK
  5
8268
330
7D64
100
AcDbEntity
  8
0
100
AcDbBlockBegin
  2
*D7
 70
     1
 10
0.0
 20
0.0
 30
0.0
  3
*D7
  1

  0
LINE
  5
8351
330
7D64
100
AcDbEntity
  8
3
 62
     0
440
 16777216
100
AcDbLine
 10
3616.156955993238
 20
8659.311612935839
 30
0.0
 11
4085.173097229072
 21
8659.311612935839
 31
0.0
  0
LINE
  5
8352
330
7D64
100
AcDbEntity
  8
3
 62
     0
440
 16777216
100
AcDbLine
 10
3616.156955993238
 20
6539.311612935839
 30
0.0
 11
4085.173097229072
 21
6539.311612935839
 31
0.0
  0
LINE
  5
8353
330
7D64
100
AcDbEntity
  8
3
 62
     0
440
 16777216
100
AcDbLine
 10
4045.173097229072
 20
8579.311612935837
 30
0.0
 11
4045.173097229072
 21
6619.311612935838
 31
0.0
  0
INSERT
  5
8354
330
7D64
100
AcDbEntity
  8
3
 62
     0
440
 16777216
100
AcDbBlockReference
  2
_OPEN
 10
4045.173097229072
 20
8659.311612935839
 30
0.0
 41
80.0
 42
80.0
 43
80.0
 50
90.0
  0
INSERT
  5
8355
330
7D64
100
AcDbEntity
  8
3
 62
     0
440
 16777216
100
AcDbBlockReference
  2
_OPEN
 10
4045.173097229072
 20
6539.311612935839
 30
0.0
 41
80.0
 42
80.0
 43
80.0
 50
270.0
  0
MTEXT
  5
8356
330
7D64
100
AcDbEntity
  8
3
 62
     0
440
 16777216
100
AcDbMText
 10
3945.173097229071
 20
7599.311612935839
 30
0.0
 40
120.0
 41
0.0
 46
0.0
 71
     5
 72
     5
  1
\A1;2120
 11
0.0000000000000001
 21
1.0
 31
0.0
 73
     1
 44
1.0
  0
POINT
  5
8357
330
7D64
100
AcDbEntity
  8
DEFPOINTS
 62
     0
440
 16777216
100
AcDbPoint
 10
3596.156955993238
 20
8659.311612935839
 30
0.0
  0
POINT
  5
8358
330
7D64
100
AcDbEntity
  8
DEFPOINTS
 62
     0
440
 16777216
100
AcDbPoint
 10
3596.156955993238
 20
6539.311612935839
 30
0.0
  0
POINT
  5
8359
330
7D64
100
AcDbEntity
  8
DEFPOINTS
 62
     0
440
 16777216
100
AcDbPoint
 10
4045.173097229072
 20
6539.311612935839
 30
0.0
  0
ENDBLK
  5
8272
330
7D64
100
AcDbEntity
  8
0
100
AcDbBlockEnd
  0
BLOCK
  5
7FE9
330
7D70
100
AcDbEntity
  8
0
100
AcDbBlockBegin
  2
*D8
 70
     1
 10
0.0
 20
0.0
 30
0.0
  3
*D8
  1

  0
LINE
  5
835A
330
7D70
100
AcDbEntity
  8
3
 62
     0
440
 16777216
100
AcDbLine
 10
3596.156955993238
 20
8679.311612935839
 30
0.0
 11
3596.156955993238
 21
8903.947751441025
 31
0.0
  0
LINE
  5
835B
330
7D70
100
AcDbEntity
  8
3
 62
     0
440
 16777216
100
AcDbLine
 10
2096.156955993238
 20
8679.31161293584
 30
0.0
 11
2096.156955993238
 21
8903.947751441025
 31
0.0
  0
LINE
  5
835C
330
7D70
100
AcDbEntity
  8
3
 62
     0
440
 16777216
100
AcDbLine
 10
3516.156955993238
 20
8863.947751441024
 30
0.0
 11
2176.156955993238
 21
8863.947751441024
 31
0.0
  0
INSERT
  5
835D
330
7D70
100
AcDbEntity
  8
3
 62
     0
440
 16777216
100
AcDbBlockReference
  2
_OPEN
 10
3596.156955993238
 20
8863.947751441024
 30
0.0
 41
80.0
 42
80.0
 43
80.0
  0
INSERT
  5
835E
330
7D70
100
AcDbEntity
  8
3
 62
     0
440
 16777216
100
AcDbBlockReference
  2
_OPEN
 10
2096.156955993238
 20
8863.947751441024
 30
0.0
 41
80.0
 42
80.0
 43
80.0
 50
180.0
  0
MTEXT
  5
835F
330
7D70
100
AcDbEntity
  8
3
 62
     0
440
 16777216
100
AcDbMText
 10
2846.156955993238
 20
8963.947751441024
 30
0.0
 40
120.0
 41
0.0
 46
0.0
 71
     5
 72
     5
  1
\A1;1500
 73
     1
 44
1.0
  0
POINT
  5
8360
330
7D70
100
AcDbEntity
  8
DEFPOINTS
 62
     0
440
 16777216
100
AcDbPoint
 10
3596.156955993238
 20
8659.311612935839
 30
0.0
  0
POINT
  5
8361
330
7D70
100
AcDbEntity
  8
DEFPOINTS
 62
     0
440
 16777216
100
AcDbPoint
 10
2096.156955993238
 20
8659.311612935841
 30
0.0
  0
POINT
  5
8362
330
7D70
100
AcDbEntity
  8
DEFPOINTS
 62
     0
440
 16777216
100
AcDbPoint
 10
2096.156955993238
 20
8863.947751441024
 30
0.0
  0
ENDBLK
  5
7FF3
330
7D70
100
AcDbEntity
  8
0
100
AcDbBlockEnd
  0
BLOCK
  5
8247
330
7D7C
100
AcDbEntity
  8
0
100
AcDbBlockBegin
  2
*D9
 70
     1
 10
0.0
 20
0.0
 30
0.0
  3
*D9
  1

  0
LINE
  5
8363
330
7D7C
100
AcDbEntity
  8
3
 62
     0
440
 16777216
100
AcDbLine
 10
2096.156955993238
 20
8679.31161293584
 30
0.0
 11
2096.156955993238
 21
8903.947751441025
 31
0.0
  0
LINE
  5
8364
330
7D7C
100
AcDbEntity
  8
3
 62
     0
440
 16777216
100
AcDbLine
 10
946.1569559932376
 20
7659.311612935841
 30
0.0
 11
946.1569559932378
 21
8903.947751441025
 31
0.0
  0
LINE
  5
8365
330
7D7C
100
AcDbEntity
  8
3
 62
     0
440
 16777216
100
AcDbLine
 10
2016.156955993238
 20
8863.947751441024
 30
0.0
 11
1026.156955993237
 21
8863.947751441024
 31
0.0
  0
INSERT
  5
8366
330
7D7C
100
AcDbEntity
  8
3
 62
     0
440
 16777216
100
AcDbBlockReference
  2
_OPEN
 10
2096.156955993238
 20
8863.947751441024
 30
0.0
 41
80.0
 42
80.0
 43
80.0
  0
INSERT
  5
8367
330
7D7C
100
AcDbEntity
  8
3
 62
     0
440
 16777216
100
AcDbBlockReference
  2
_OPEN
 10
946.1569559932378
 20
8863.947751441024
 30
0.0
 41
80.0
 42
80.0
 43
80.0
 50
180.0
  0
MTEXT
  5
8368
330
7D7C
100
AcDbEntity
  8
3
 62
     0
440
 16777216
100
AcDbMText
 10
1521.156955993238
 20
8963.947751441024
 30
0.0
 40
120.0
 41
0.0
 46
0.0
 71
     5
 72
     5
  1
\A1;1150
 73
     1
 44
1.0
  0
POINT
  5
8369
330
7D7C
100
AcDbEntity
  8
DEFPOINTS
 62
     0
440
 16777216
100
AcDbPoint
 10
2096.156955993238
 20
8659.311612935841
 30
0.0
  0
POINT
  5
836A
330
7D7C
100
AcDbEntity
  8
DEFPOINTS
 62
     0
440
 16777216
100
AcDbPoint
 10
946.1569559932376
 20
7639.31161293584
 30
0.0
  0
POINT
  5
836B
330
7D7C
100
AcDbEntity
  8
DEFPOINTS
 62
     0
440
 16777216
100
AcDbPoint
 10
946.1569559932378
 20
8863.947751441024
 30
0.0
  0
ENDBLK
  5
8251
330
7D7C
100
AcDbEntity
  8
0
100
AcDbBlockEnd
  0
BLOCK
  5
825D
330
7D87
100
AcDbEntity
  8
0
100
AcDbBlockBegin
  2
*D10
 70
     1
 10
0.0
 20
0.0
 30
0.0
  3
*D10
  1

  0
LINE
  5
836C
330
7D87
100
AcDbEntity
  8
3
 62
     0
440
 16777216
100
AcDbLine
 10
926.1569559932377
 20
7639.31161293584
 30
0.0
 11
639.830554885659
 21
7639.31161293584
 31
0.0
  0
LINE
  5
836D
330
7D87
100
AcDbEntity
  8
3
 62
     0
440
 16777216
100
AcDbLine
 10
926.1569559932377
 20
6539.31161293584
 30
0.0
 11
639.8305548856588
 21
6539.31161293584
 31
0.0
  0
LINE
  5
836E
330
7D87
100
AcDbEntity
  8
3
 62
     0
440
 16777216
100
AcDbLine
 10
679.830554885659
 20
7559.31161293584
 30
0.0
 11
679.8305548856587
 21
6619.31161293584
 31
0.0
  0
INSERT
  5
836F
330
7D87
100
AcDbEntity
  8
3
 62
     0
440
 16777216
100
AcDbBlockReference
  2
_OPEN
 10
679.830554885659
 20
7639.31161293584
 30
0.0
 41
80.0
 42
80.0
 43
80.0
 50
90.0
  0
INSERT
  5
8370
330
7D87
100
AcDbEntity
  8
3
 62
     0
440
 16777216
100
AcDbBlockReference
  2
_OPEN
 10
679.8305548856587
 20
6539.31161293584
 30
0.0
 41
80.0
 42
80.0
 43
80.0
 50
270.0
  0
MTEXT
  5
8371
330
7D87
100
AcDbEntity
  8
3
 62
     0
440
 16777216
100
AcDbMText
 10
579.8305548856578
 20
7089.311612935841
 30
0.0
 40
120.0
 41
0.0
 46
0.0
 71
     5
 72
     5
  1
\A1;1100
 11
0.0000000000000001
 21
1.0
 31
0.0
 73
     1
 44
1.0
  0
POINT
  5
8372
330
7D87
100
AcDbEntity
  8
DEFPOINTS
 62
     0
440
 16777216
100
AcDbPoint
 10
946.1569559932376
 20
7639.31161293584
 30
0.0
  0
POINT
  5
8373
330
7D87
100
AcDbEntity
  8
DEFPOINTS
 62
     0
440
 16777216
100
AcDbPoint
 10
946.1569559932376
 20
6539.31161293584
 30
0.0
  0
POINT
  5
8374
330
7D87
100
AcDbEntity
  8
DEFPOINTS
 62
     0
440
 16777216
100
AcDbPoint
 10
679.8305548856587
 20
6539.31161293584
 30
0.0
  0
ENDBLK
  5
8267
330
7D87
100
AcDbEntity
  8
0
100
AcDbBlockEnd
  0
BLOCK
  5
8252
330
7D93
100
AcDbEntity
  8
0
100
AcDbBlockBegin
  2
*D11
 70
     1
 10
0.0
 20
0.0
 30
0.0
  3
*D11
  1

  0
LINE
  5
8375
330
7D93
100
AcDbEntity
  8
3
 62
     0
440
 16777216
100
AcDbLine
 10
946.1569559932376
 20
6519.31161293584
 30
0.0
 11
946.1569559932376
 21
6123.557734746188
 31
0.0
  0
LINE
  5
8376
330
7D93
100
AcDbEntity
  8
3
 62
     0
440
 16777216
100
AcDbLine
 10
3596.156955993238
 20
6519.311612935839
 30
0.0
 11
3596.156955993238
 21
6123.557734746188
 31
0.0
  0
LINE
  5
8377
330
7D93
100
AcDbEntity
  8
3
 62
     0
440
 16777216
100
AcDbLine
 10
1026.156955993237
 20
6163.557734746188
 30
0.0
 11
3516.156955993238
 21
6163.557734746188
 31
0.0
  0
INSERT
  5
8378
330
7D93
100
AcDbEntity
  8
3
 62
     0
440
 16777216
100
AcDbBlockReference
  2
_OPEN
 10
946.1569559932376
 20
6163.557734746188
 30
0.0
 41
80.0
 42
80.0
 43
80.0
 50
180.0
  0
INSERT
  5
8379
330
7D93
100
AcDbEntity
  8
3
 62
     0
440
 16777216
100
AcDbBlockReference
  2
_OPEN
 10
3596.156955993238
 20
6163.557734746188
 30
0.0
 41
80.0
 42
80.0
 43
80.0
  0
MTEXT
  5
837A
330
7D93
100
AcDbEntity
  8
3
 62
     0
440
 16777216
100
AcDbMText
 10
2271.156955993238
 20
6263.557734746187
 30
0.0
 40
120.0
 41
0.0
 46
0.0
 71
     5
 72
     5
  1
\A1;2650
 73
     1
 44
1.0
  0
POINT
  5
837B
330
7D93
100
AcDbEntity
  8
DEFPOINTS
 62
     0
440
 16777216
100
AcDbPoint
 10
946.1569559932376
 20
6539.31161293584
 30
0.0
  0
POINT
  5
837C
330
7D93
100
AcDbEntity
  8
DEFPOINTS
 62
     0
440
 16777216
100
AcDbPoint
 10
3596.156955993238
 20
6539.311612935839
 30
0.0
  0
POINT
  5
837D
330
7D93
100
AcDbEntity
  8
DEFPOINTS
 62
     0
440
 16777216
100
AcDbPoint
 10
3596.156955993238
 20
6163.557734746188
 30
0.0
  0
ENDBLK
  5
825C
330
7D93
100
AcDbEntity
  8
0
100
AcDbBlockEnd
  0
BLOCK
  5
8154
330
7D9F
100
AcDbEntity
  8
0
100
AcDbBlockBegin
  2
*D12
 70
     1
 10
0.0
 20
0.0
 30
0.0
  3
*D12
  1

  0
LINE
  5
8483
330
7D9F
100
AcDbEntity
  8
3
 62
     0
440
 16777216
370
    -2
100
AcDbLine
 10
3596.156955993238
 20
2690.800457609002
 30
0.0
 11
3596.156955993238
 21
2327.087667823366
 31
0.0
  0
LINE
  5
8484
330
7D9F
100
AcDbEntity
  8
3
 62
     0
440
 16777216
370
    -2
100
AcDbLine
 10
2846.156955993238
 20
2690.800457609002
 30
0.0
 11
2846.156955993238
 21
2327.087667823366
 31
0.0
  0
LINE
  5
8485
330
7D9F
100
AcDbEntity
  8
3
 62
     0
440
 16777216
370
    -2
100
AcDbLine
 10
3516.156955993238
 20
2367.087667823366
 30
0.0
 11
2926.156955993238
 21
2367.087667823366
 31
0.0
  0
INSERT
  5
8486
330
7D9F
100
AcDbEntity
  8
3
 62
     0
440
 16777216
370
    -2
100
AcDbBlockReference
  2
_OPEN
 10
3596.156955993238
 20
2367.087667823366
 30
0.0
 41
80.0
 42
80.0
 43
80.0
  0
INSERT
  5
8487
330
7D9F
100
AcDbEntity
  8
3
 62
     0
440
 16777216
370
    -2
100
AcDbBlockReference
  2
_OPEN
 10
2846.156955993238
 20
2367.087667823366
 30
0.0
 41
80.0
 42
80.0
 43
80.0
 50
180.0
  0
MTEXT
  5
8488
330
7D9F
100
AcDbEntity
  8
3
 62
     0
440
 16777216
100
AcDbMText
 10
3221.156955993238
 20
2467.087667823366
 30
0.0
 40
120.0
 41
0.0
 46
0.0
 71
     5
 72
     1
  1
\A1;750
 73
     1
 44
1.0
  0
POINT
  5
8489
330
7D9F
100
AcDbEntity
  8
DEFPOINTS
 62
     0
440
 16777216
100
AcDbPoint
 10
3596.156955993238
 20
2710.800457609003
 30
0.0
  0
POINT
  5
848A
330
7D9F
100
AcDbEntity
  8
DEFPOINTS
 62
     0
440
 16777216
100
AcDbPoint
 10
2846.156955993238
 20
2710.800457609003
 30
0.0
  0
POINT
  5
848B
330
7D9F
100
AcDbEntity
  8
DEFPOINTS
 62
     0
440
 16777216
100
AcDbPoint
 10
2846.156955993238
 20
2367.087667823366
 30
0.0
  0
ENDBLK
  5
815E
330
7D9F
100
AcDbEntity
  8
0
100
AcDbBlockEnd
  0
BLOCK
  5
7FB2
330
7DAB
100
AcDbEntity
  8
0
100
AcDbBlockBegin
  2
*D13
 70
     1
 10
0.0
 20
0.0
 30
0.0
  3
*D13
  1

  0
LINE
  5
8387
330
7DAB
100
AcDbEntity
  8
3
 62
     0
440
 16777216
100
AcDbLine
 10
3691.156955993238
 20
2986.800457609003
 30
0.0
 11
3964.167988683195
 21
2986.800457609003
 31
0.0
  0
LINE
  5
8388
330
7DAB
100
AcDbEntity
  8
3
 62
     0
440
 16777216
100
AcDbLine
 10
3691.156955993238
 20
4266.800457609003
 30
0.0
 11
3964.167988683195
 21
4266.800457609003
 31
0.0
  0
LINE
  5
8389
330
7DAB
100
AcDbEntity
  8
3
 62
     0
440
 16777216
100
AcDbLine
 10
3924.167988683194
 20
3066.800457609003
 30
0.0
 11
3924.167988683196
 21
4186.800457609002
 31
0.0
  0
INSERT
  5
838A
330
7DAB
100
AcDbEntity
  8
3
 62
     0
440
 16777216
100
AcDbBlockReference
  2
_OPEN
 10
3924.167988683194
 20
2986.800457609003
 30
0.0
 41
80.0
 42
80.0
 43
80.0
 50
270.0
  0
INSERT
  5
838B
330
7DAB
100
AcDbEntity
  8
3
 62
     0
440
 16777216
100
AcDbBlockReference
  2
_OPEN
 10
3924.167988683196
 20
4266.800457609003
 30
0.0
 41
80.0
 42
80.0
 43
80.0
 50
90.0
  0
MTEXT
  5
838C
330
7DAB
100
AcDbEntity
  8
3
 62
     0
440
 16777216
100
AcDbMText
 10
3824.167988683195
 20
3626.800457609003
 30
0.0
 40
120.0
 41
0.0
 46
0.0
 71
     5
 72
     5
  1
\A1;1280
 11
0.0000000000000001
 21
1.0
 31
0.0
 73
     1
 44
1.0
  0
POINT
  5
838D
330
7DAB
100
AcDbEntity
  8
DEFPOINTS
 62
     0
440
 16777216
100
AcDbPoint
 10
3671.156955993238
 20
2986.800457609003
 30
0.0
  0
POINT
  5
838E
330
7DAB
100
AcDbEntity
  8
DEFPOINTS
 62
     0
440
 16777216
100
AcDbPoint
 10
3671.156955993238
 20
4266.800457609003
 30
0.0
  0
POINT
  5
838F
330
7DAB
100
AcDbEntity
  8
DEFPOINTS
 62
     0
440
 16777216
100
AcDbPoint
 10
3924.167988683196
 20
4266.800457609003
 30
0.0
  0
ENDBLK
  5
7FBC
330
7DAB
100
AcDbEntity
  8
0
100
AcDbBlockEnd
  0
BLOCK
  5
7FA7
330
7DB7
100
AcDbEntity
  8
0
100
AcDbBlockBegin
  2
*D14
 70
     1
 10
0.0
 20
0.0
 30
0.0
  3
*D14
  1

  0
LINE
  5
8390
330
7DB7
100
AcDbEntity
  8
3
 62
     0
440
 16777216
100
AcDbLine
 10
3691.156955993238
 20
2986.800457609003
 30
0.0
 11
4211.230831139725
 21
2986.800457609003
 31
0.0
  0
LINE
  5
8391
330
7DB7
100
AcDbEntity
  8
3
 62
     0
440
 16777216
100
AcDbLine
 10
3769.59349424209
 20
4320.800457609002
 30
0.0
 11
4211.230831139725
 21
4320.800457609002
 31
0.0
  0
LINE
  5
8392
330
7DB7
100
AcDbEntity
  8
3
 62
     0
440
 16777216
100
AcDbLine
 10
4171.230831139724
 20
3066.800457609003
 30
0.0
 11
4171.230831139724
 21
4240.800457609003
 31
0.0
  0
INSERT
  5
8393
330
7DB7
100
AcDbEntity
  8
3
 62
     0
440
 16777216
100
AcDbBlockReference
  2
_OPEN
 10
4171.230831139724
 20
2986.800457609003
 30
0.0
 41
80.0
 42
80.0
 43
80.0
 50
270.0
  0
INSERT
  5
8394
330
7DB7
100
AcDbEntity
  8
3
 62
     0
440
 16777216
100
AcDbBlockReference
  2
_OPEN
 10
4171.230831139724
 20
4320.800457609002
 30
0.0
 41
80.0
 42
80.0
 43
80.0
 50
90.0
  0
MTEXT
  5
8395
330
7DB7
100
AcDbEntity
  8
3
 62
     0
440
 16777216
100
AcDbMText
 10
4071.230831139724
 20
3653.800457609003
 30
0.0
 40
120.0
 41
0.0
 46
0.0
 71
     5
 72
     5
  1
\A1;1334
 11
0.0000000000000001
 21
1.0
 31
0.0
 73
     1
 44
1.0
  0
POINT
  5
8396
330
7DB7
100
AcDbEntity
  8
DEFPOINTS
 62
     0
440
 16777216
100
AcDbPoint
 10
3671.156955993238
 20
2986.800457609003
 30
0.0
  0
POINT
  5
8397
330
7DB7
100
AcDbEntity
  8
DEFPOINTS
 62
     0
440
 16777216
100
AcDbPoint
 10
3749.59349424209
 20
4320.800457609002
 30
0.0
  0
POINT
  5
8398
330
7DB7
100
AcDbEntity
  8
DEFPOINTS
 62
     0
440
 16777216
100
AcDbPoint
 10
4171.230831139724
 20
4320.800457609002
 30
0.0
  0
ENDBLK
  5
7FB1
330
7DB7
100
AcDbEntity
  8
0
100
AcDbBlockEnd
  0
BLOCK
  5
81A9
330
7DC3
100
AcDbEntity
  8
0
100
AcDbBlockBegin
  2
*D15
 70
     1
 10
0.0
 20
0.0
 30
0.0
  3
*D15
  1

  0
LINE
  5
848C
330
7DC3
100
AcDbEntity
  8
3
 62
     0
440
 16777216
370
    -2
100
AcDbLine
 10
946.1569559932376
 20
2690.800457609002
 30
0.0
 11
946.1569559932376
 21
2326.861166084105
 31
0.0
  0
LINE
  5
848D
330
7DC3
100
AcDbEntity
  8
3
 62
     0
440
 16777216
370
    -2
100
AcDbLine
 10
2846.156955993238
 20
2690.800457609002
 30
0.0
 11
2846.156955993238
 21
2326.861166084105
 31
0.0
  0
LINE
  5
848E
330
7DC3
100
AcDbEntity
  8
3
 62
     0
440
 16777216
370
    -2
100
AcDbLine
 10
1026.156955993237
 20
2366.861166084105
 30
0.0
 11
2766.156955993238
 21
2366.861166084105
 31
0.0
  0
INSERT
  5
848F
330
7DC3
100
AcDbEntity
  8
3
 62
     0
440
 16777216
370
    -2
100
AcDbBlockReference
  2
_OPEN
 10
946.1569559932376
 20
2366.861166084105
 30
0.0
 41
80.0
 42
80.0
 43
80.0
 50
180.0
  0
INSERT
  5
8490
330
7DC3
100
AcDbEntity
  8
3
 62
     0
440
 16777216
370
    -2
100
AcDbBlockReference
  2
_OPEN
 10
2846.156955993238
 20
2366.861166084105
 30
0.0
 41
80.0
 42
80.0
 43
80.0
  0
MTEXT
  5
8491
330
7DC3
100
AcDbEntity
  8
3
 62
     0
440
 16777216
100
AcDbMText
 10
1896.156955993238
 20
2466.861166084105
 30
0.0
 40
120.0
 41
0.0
 46
0.0
 71
     5
 72
     1
  1
\A1;1900
 73
     1
 44
1.0
  0
POINT
  5
8492
330
7DC3
100
AcDbEntity
  8
DEFPOINTS
 62
     0
440
 16777216
100
AcDbPoint
 10
946.1569559932376
 20
2710.800457609003
 30
0.0
  0
POINT
  5
8493
330
7DC3
100
AcDbEntity
  8
DEFPOINTS
 62
     0
440
 16777216
100
AcDbPoint
 10
2846.156955993238
 20
2710.800457609003
 30
0.0
  0
POINT
  5
8494
330
7DC3
100
AcDbEntity
  8
DEFPOINTS
 62
     0
440
 16777216
100
AcDbPoint
 10
2846.156955993238
 20
2366.861166084105
 30
0.0
  0
ENDBLK
  5
81B3
330
7DC3
100
AcDbEntity
  8
0
100
AcDbBlockEnd
  0
BLOCK
  5
7F86
330
7DDB
100
AcDbEntity
  8
0
100
AcDbBlockBegin
  2
*D16
 70
     1
 10
0.0
 20
0.0
 30
0.0
  3
*D16
  1

  0
LINE
  5
83A2
330
7DDB
100
AcDbEntity
  8
3
 62
     0
440
 16777216
100
AcDbLine
 10
1770.701213155131
 20
4340.800457609002
 30
0.0
 11
1770.701213155131
 21
5525.312615694231
 31
0.0
  0
LINE
  5
83A3
330
7DDB
100
AcDbEntity
  8
3
 62
     0
440
 16777216
100
AcDbLine
 10
2846.156955993238
 20
5419.935007000527
 30
0.0
 11
2846.156955993238
 21
5525.312615694231
 31
0.0
  0
LINE
  5
83A4
330
7DDB
100
AcDbEntity
  8
3
 62
     0
440
 16777216
100
AcDbLine
 10
1850.701213155131
 20
5485.312615694231
 30
0.0
 11
2766.156955993238
 21
5485.312615694231
 31
0.0
  0
INSERT
  5
83A5
330
7DDB
100
AcDbEntity
  8
3
 62
     0
440
 16777216
100
AcDbBlockReference
  2
_OPEN
 10
1770.701213155131
 20
5485.312615694231
 30
0.0
 41
80.0
 42
80.0
 43
80.0
 50
180.0
  0
INSERT
  5
83A6
330
7DDB
100
AcDbEntity
  8
3
 62
     0
440
 16777216
100
AcDbBlockReference
  2
_OPEN
 10
2846.156955993238
 20
5485.312615694231
 30
0.0
 41
80.0
 42
80.0
 43
80.0
  0
MTEXT
  5
83A7
330
7DDB
100
AcDbEntity
  8
3
 62
     0
440
 16777216
100
AcDbMText
 10
2308.429084574184
 20
5585.312615694231
 30
0.0
 40
120.0
 41
0.0
 46
0.0
 71
     5
 72
     5
  1
\A1;1079
 73
     1
 44
1.0
  0
POINT
  5
83A8
330
7DDB
100
AcDbEntity
  8
DEFPOINTS
 62
     0
440
 16777216
100
AcDbPoint
 10
1770.701213155131
 20
4320.800457609002
 30
0.0
  0
POINT
  5
83A9
330
7DDB
100
AcDbEntity
  8
DEFPOINTS
 62
     0
440
 16777216
100
AcDbPoint
 10
2846.156955993238
 20
5399.935007000528
 30
0.0
  0
POINT
  5
83AA
330
7DDB
100
AcDbEntity
  8
DEFPOINTS
 62
     0
440
 16777216
100
AcDbPoint
 10
2846.156955993238
 20
5485.312615694231
 30
0.0
  0
ENDBLK
  5
7F90
330
7DDB
100
AcDbEntity
  8
0
100
AcDbBlockEnd
  0
BLOCK
  5
7F7B
330
7DE7
100
AcDbEntity
  8
0
100
AcDbBlockBegin
  2
*D17
 70
     1
 10
0.0
 20
0.0
 30
0.0
  3
*D17
  1

  0
LINE
  5
83AB
330
7DE7
100
AcDbEntity
  8
3
 62
     0
440
 16777216
100
AcDbLine
 10
2846.156955993238
 20
5419.935007000527
 30
0.0
 11
2846.156955993238
 21
5525.312615694231
 31
0.0
  0
LINE
  5
83AC
330
7DE7
100
AcDbEntity
  8
3
 62
     0
440
 16777216
100
AcDbLine
 10
3671.156955993238
 20
4339.800457609002
 30
0.0
 11
3671.156955993238
 21
5525.312615694231
 31
0.0
  0
LINE
  5
83AD
330
7DE7
100
AcDbEntity
  8
3
 62
     0
440
 16777216
100
AcDbLine
 10
2926.156955993238
 20
5485.312615694231
 30
0.0
 11
3591.156955993238
 21
5485.312615694231
 31
0.0
  0
INSERT
  5
83AE
330
7DE7
100
AcDbEntity
  8
3
 62
     0
440
 16777216
100
AcDbBlockReference
  2
_OPEN
 10
2846.156955993238
 20
5485.312615694231
 30
0.0
 41
80.0
 42
80.0
 43
80.0
 50
180.0
  0
INSERT
  5
83AF
330
7DE7
100
AcDbEntity
  8
3
 62
     0
440
 16777216
100
AcDbBlockReference
  2
_OPEN
 10
3671.156955993238
 20
5485.312615694231
 30
0.0
 41
80.0
 42
80.0
 43
80.0
  0
MTEXT
  5
83B0
330
7DE7
100
AcDbEntity
  8
3
 62
     0
440
 16777216
100
AcDbMText
 10
3258.656955993238
 20
5585.312615694231
 30
0.0
 40
120.0
 41
0.0
 46
0.0
 71
     5
 72
     5
  1
\A1;825
 73
     1
 44
1.0
  0
POINT
  5
83B1
330
7DE7
100
AcDbEntity
  8
DEFPOINTS
 62
     0
440
 16777216
100
AcDbPoint
 10
2846.156955993238
 20
5399.935007000528
 30
0.0
  0
POINT
  5
83B2
330
7DE7
100
AcDbEntity
  8
DEFPOINTS
 62
     0
440
 16777216
100
AcDbPoint
 10
3671.156955993238
 20
4319.800457609002
 30
0.0
  0
POINT
  5
83B3
330
7DE7
100
AcDbEntity
  8
DEFPOINTS
 62
     0
440
 16777216
100
AcDbPoint
 10
3671.156955993238
 20
5485.312615694231
 30
0.0
  0
ENDBLK
  5
7F85
330
7DE7
100
AcDbEntity
  8
0
100
AcDbBlockEnd
  0
BLOCK
  5
7F70
330
7DF3
100
AcDbEntity
  8
0
100
AcDbBlockBegin
  2
*D18
 70
     1
 10
0.0
 20
0.0
 30
0.0
  3
*D18
  1

  0
LINE
  5
83B4
330
7DF3
100
AcDbEntity
  8
3
 62
     0
440
 16777216
100
AcDbLine
 10
3769.59349424209
 20
4320.800457609002
 30
0.0
 11
4462.346544791297
 21
4320.800457609002
 31
0.0
  0
LINE
  5
83B5
330
7DF3
100
AcDbEntity
  8
3
 62
     0
440
 16777216
100
AcDbLine
 10
3616.156955993238
 20
2890.800457609003
 30
0.0
 11
4462.346544791297
 21
2890.800457609003
 31
0.0
  0
LINE
  5
83B6
330
7DF3
100
AcDbEntity
  8
3
 62
     0
440
 16777216
100
AcDbLine
 10
4422.346544791297
 20
4240.800457609003
 30
0.0
 11
4422.346544791297
 21
2970.800457609003
 31
0.0
  0
INSERT
  5
83B7
330
7DF3
100
AcDbEntity
  8
3
 62
     0
440
 16777216
100
AcDbBlockReference
  2
_OPEN
 10
4422.346544791297
 20
4320.800457609002
 30
0.0
 41
80.0
 42
80.0
 43
80.0
 50
90.0
  0
INSERT
  5
83B8
330
7DF3
100
AcDbEntity
  8
3
 62
     0
440
 16777216
100
AcDbBlockReference
  2
_OPEN
 10
4422.346544791297
 20
2890.800457609003
 30
0.0
 41
80.0
 42
80.0
 43
80.0
 50
270.0
  0
MTEXT
  5
83B9
330
7DF3
100
AcDbEntity
  8
3
 62
     0
440
 16777216
100
AcDbMText
 10
4322.346544791296
 20
3605.800457609003
 30
0.0
 40
120.0
 41
0.0
 46
0.0
 71
     5
 72
     5
  1
\A1;1430
 11
0.0000000000000001
 21
1.0
 31
0.0
 73
     1
 44
1.0
  0
POINT
  5
83BA
330
7DF3
100
AcDbEntity
  8
DEFPOINTS
 62
     0
440
 16777216
100
AcDbPoint
 10
3749.59349424209
 20
4320.800457609002
 30
0.0
  0
POINT
  5
83BB
330
7DF3
100
AcDbEntity
  8
DEFPOINTS
 62
     0
440
 16777216
100
AcDbPoint
 10
3596.156955993238
 20
2890.800457609003
 30
0.0
  0
POINT
  5
83BC
330
7DF3
100
AcDbEntity
  8
DEFPOINTS
 62
     0
440
 16777216
100
AcDbPoint
 10
4422.346544791297
 20
2890.800457609003
 30
0.0
  0
ENDBLK
  5
7F7A
330
7DF3
100
AcDbEntity
  8
0
100
AcDbBlockEnd
  0
BLOCK
  5
81CC
330
7E23
100
AcDbEntity
  8
0
100
AcDbBlockBegin
  2
*D19
 70
     1
 10
0.0
 20
0.0
 30
0.0
  3
*D19
  1

  0
LINE
  5
8495
330
7E23
100
AcDbEntity
  8
3
 62
     0
440
 16777216
370
    -2
100
AcDbLine
 10
3616.156955993238
 20
2785.800457609003
 30
0.0
 11
4462.346544791297
 21
2785.800457609003
 31
0.0
  0
LINE
  5
8496
330
7E23
100
AcDbEntity
  8
3
 62
     0
440
 16777216
370
    -2
100
AcDbLine
 10
3616.156955993238
 20
2710.800457609003
 30
0.0
 11
4462.346544791297
 21
2710.800457609003
 31
0.0
  0
LINE
  5
8497
330
7E23
100
AcDbEntity
  8
3
 62
     0
440
 16777216
370
    -2
100
AcDbLine
 10
4422.346544791297
 20
2865.800457609003
 30
0.0
 11
4422.346544791297
 21
2945.800457609003
 31
0.0
  0
LINE
  5
8498
330
7E23
100
AcDbEntity
  8
3
 62
     0
440
 16777216
370
    -2
100
AcDbLine
 10
4422.346544791297
 20
2630.800457609002
 30
0.0
 11
4422.346544791297
 21
2276.514743323288
 31
0.0
  0
LINE
  5
8499
330
7E23
100
AcDbEntity
  8
3
 62
     0
440
 16777216
370
    -2
100
AcDbLine
 10
4422.346544791297
 20
2785.800457609003
 30
0.0
 11
4422.346544791297
 21
2710.800457609003
 31
0.0
  0
INSERT
  5
849A
330
7E23
100
AcDbEntity
  8
3
 62
     0
440
 16777216
370
    -2
100
AcDbBlockReference
  2
_DOT
 10
4422.346544791297
 20
2785.800457609003
 30
0.0
 41
80.0
 42
80.0
 43
80.0
 50
270.0
  0
INSERT
  5
849B
330
7E23
100
AcDbEntity
  8
3
 62
     0
440
 16777216
370
    -2
100
AcDbBlockReference
  2
_OPEN
 10
4422.346544791297
 20
2710.800457609003
 30
0.0
 41
80.0
 42
80.0
 43
80.0
 50
90.0
  0
MTEXT
  5
849C
330
7E23
100
AcDbEntity
  8
3
 62
     0
440
 16777216
100
AcDbMText
 10
4322.346544791296
 20
2413.657600466146
 30
0.0
 40
120.0
 41
0.0
 46
0.0
 71
     5
 72
     1
  1
\A1;75
 11
0.0000000000000001
 21
1.0
 31
0.0
 73
     1
 44
1.0
  0
POINT
  5
849D
330
7E23
100
AcDbEntity
  8
DEFPOINTS
 62
     0
440
 16777216
100
AcDbPoint
 10
3596.156955993238
 20
2785.800457609003
 30
0.0
  0
POINT
  5
849E
330
7E23
100
AcDbEntity
  8
DEFPOINTS
 62
     0
440
 16777216
100
AcDbPoint
 10
3596.156955993238
 20
2710.800457609003
 30
0.0
  0
POINT
  5
849F
330
7E23
100
AcDbEntity
  8
DEFPOINTS
 62
     0
440
 16777216
100
AcDbPoint
 10
4422.346544791297
 20
2710.800457609003
 30
0.0
  0
ENDBLK
  5
81D8
330
7E23
100
AcDbEntity
  8
0
100
AcDbBlockEnd
  0
BLOCK
  5
7F3B
330
7F3A
100
AcDbEntity
  8
0
100
AcDbBlockBegin
  2
_OPEN
 70
     0
 10
0.0
 20
0.0
 30
0.0
  3
_OPEN
  1

  0
LINE
  5
7F3C
330
7F3A
100
AcDbEntity
  8
0
  6
ByBlock
 62
     0
100
AcDbLine
 10
-1.0
 20
0.1666666666666666
 30
0.0
 11
0.0
 21
0.0
 31
0.0
  0
LINE
  5
7F3D
330
7F3A
100
AcDbEntity
  8
0
  6
ByBlock
 62
     0
100
AcDbLine
 10
0.0
 20
0.0
 30
0.0
 11
-1.0
 21
-0.1666666666666666
 31
0.0
  0
LINE
  5
7F3E
330
7F3A
100
AcDbEntity
  8
0
  6
ByBlock
 62
     0
100
AcDbLine
 10
0.0
 20
0.0
 30
0.0
 11
-1.0
 21
0.0
 31
0.0
  0
ENDBLK
  5
7F3F
330
7F3A
100
AcDbEntity
  8
0
100
AcDbBlockEnd
  0
BLOCK
  5
80DF
330
80DE
100
AcDbEntity
  8
0
100
AcDbBlockBegin
  2
_DOT
 70
     0
 10
0.0
 20
0.0
 30
0.0
  3
_DOT
  1

  0
LINE
  5
811A
330
80DE
100
AcDbEntity
  8
0
  6
ByBlock
 62
     0
100
AcDbLine
 10
0.0
 20
0.0
 30
0.0
 11
-1.0
 21
-0.0000000000000284
 31
0.0
  0
LWPOLYLINE
  5
811B
330
80DE
100
AcDbEntity
  8
0
  6
ByBlock
 62
     0
100
AcDbPolyline
 90
        2
 70
     1
 43
0.1666666666666666
 10
-0.0833333333333286
 20
-0.0000000000000284
 42
1.0
 10
0.0833333333333286
 20
-0.0000000000000284
 42
1.0
  0
ENDBLK
  5
80E5
330
80DE
100
AcDbEntity
  8
0
100
AcDbBlockEnd
  0
BLOCK
  5
819E
330
8127
100
AcDbEntity
  8
0
100
AcDbBlockBegin
  2
*D22
 70
     1
 10
0.0
 20
0.0
 30
0.0
  3
*D22
  1

  0
LINE
  5
83CB
330
8127
100
AcDbEntity
  8
3
 62
     0
440
 16777216
100
AcDbLine
 10
3671.156955993238
 20
4339.800457609002
 30
0.0
 11
3671.156955993238
 21
5778.269218418994
 31
0.0
  0
LINE
  5
83CC
330
8127
100
AcDbEntity
  8
3
 62
     0
440
 16777216
100
AcDbLine
 10
946.1569559932376
 20
3035.800457609003
 30
0.0
 11
946.1569559932378
 21
5778.269218418994
 31
0.0
  0
LINE
  5
83CD
330
8127
100
AcDbEntity
  8
3
 62
     0
440
 16777216
100
AcDbLine
 10
3591.156955993238
 20
5738.269218418995
 30
0.0
 11
1026.156955993237
 21
5738.269218418995
 31
0.0
  0
INSERT
  5
83CE
330
8127
100
AcDbEntity
  8
3
 62
     0
440
 16777216
100
AcDbBlockReference
  2
_OPEN
 10
3671.156955993238
 20
5738.269218418995
 30
0.0
 41
80.0
 42
80.0
 43
80.0
  0
INSERT
  5
83CF
330
8127
100
AcDbEntity
  8
3
 62
     0
440
 16777216
100
AcDbBlockReference
  2
_OPEN
 10
946.1569559932378
 20
5738.269218418995
 30
0.0
 41
80.0
 42
80.0
 43
80.0
 50
180.0
  0
MTEXT
  5
83D0
330
8127
100
AcDbEntity
  8
3
 62
     0
440
 16777216
100
AcDbMText
 10
2547.044332332764
 20
5838.269218418995
 30
0.0
 40
120.0
 41
0.0
 46
0.0
 71
     5
 72
     5
  1
\A1;2725
 73
     1
 44
1.0
  0
POINT
  5
83D1
330
8127
100
AcDbEntity
  8
DEFPOINTS
 62
     0
440
 16777216
100
AcDbPoint
 10
3671.156955993238
 20
4319.800457609002
 30
0.0
  0
POINT
  5
83D2
330
8127
100
AcDbEntity
  8
DEFPOINTS
 62
     0
440
 16777216
100
AcDbPoint
 10
946.1569559932376
 20
3015.800457609003
 30
0.0
  0
POINT
  5
83D3
330
8127
100
AcDbEntity
  8
DEFPOINTS
 62
     0
440
 16777216
100
AcDbPoint
 10
946.1569559932378
 20
5738.269218418995
 30
0.0
  0
ENDBLK
  5
81A8
330
8127
100
AcDbEntity
  8
0
100
AcDbBlockEnd
  0
BLOCK
  5
8287
330
8286
100
AcDbEntity
  8
0
100
AcDbBlockBegin
  2
*D23
 70
     1
 10
0.0
 20
0.0
 30
0.0
  3
*D23
  1

  0
LINE
  5
8288
330
8286
100
AcDbEntity
  8
0
  6
ByBlock
 62
     0
440
 16777216
100
AcDbLine
 10
2775.156955993238
 20
5217.800457609002
 30
0.0
 11
4463.162690461969
 21
5217.800457609002
 31
0.0
  0
LINE
  5
8289
330
8286
100
AcDbEntity
  8
0
  6
ByBlock
 62
     0
440
 16777216
100
AcDbLine
 10
3703.677800684858
 20
4320.800457609002
 30
0.0
 11
4463.162690461969
 21
4320.800457609002
 31
0.0
  0
LINE
  5
828A
330
8286
100
AcDbEntity
  8
0
  6
ByBlock
 62
     0
440
 16777216
100
AcDbLine
 10
4423.162690461969
 20
5137.800457609003
 30
0.0
 11
4423.162690461969
 21
4400.800457609002
 31
0.0
  0
INSERT
  5
828B
330
8286
100
AcDbEntity
  8
0
  6
ByBlock
 62
     0
440
 16777216
100
AcDbBlockReference
  2
_OPEN
 10
4423.162690461969
 20
5217.800457609002
 30
0.0
 41
80.0
 42
80.0
 43
80.0
 50
90.0
  0
INSERT
  5
828C
330
8286
100
AcDbEntity
  8
0
  6
ByBlock
 62
     0
440
 16777216
100
AcDbBlockReference
  2
_OPEN
 10
4423.162690461969
 20
4320.800457609002
 30
0.0
 41
80.0
 42
80.0
 43
80.0
 50
270.0
  0
MTEXT
  5
828D
330
8286
100
AcDbEntity
  8
0
  6
ByBlock
 62
     0
440
 16777216
100
AcDbMText
 10
4323.162690461969
 20
4769.300457609002
 30
0.0
 40
120.0
 41
0.0
 46
0.0
 71
     5
 72
     5
  1
\A1;897
 11
0.0
 21
1.0
 31
0.0
 73
     1
 44
1.0
  0
POINT
  5
828E
330
8286
100
AcDbEntity
  8
DEFPOINTS
  6
ByBlock
 62
     0
440
 16777216
100
AcDbPoint
 10
2755.156955993238
 20
5217.800457609002
 30
0.0
  0
POINT
  5
828F
330
8286
100
AcDbEntity
  8
DEFPOINTS
  6
ByBlock
 62
     0
440
 16777216
100
AcDbPoint
 10
3683.677800684858
 20
4320.800457609002
 30
0.0
  0
POINT
  5
8290
330
8286
100
AcDbEntity
  8
DEFPOINTS
  6
ByBlock
 62
     0
440
 16777216
100
AcDbPoint
 10
4423.162690461969
 20
4320.800457609002
 30
0.0
  0
ENDBLK
  5
8291
330
8286
100
AcDbEntity
  8
0
100
AcDbBlockEnd
  0
BLOCK
  5
8294
330
8293
100
AcDbEntity
  8
0
100
AcDbBlockBegin
  2
_NONE
 70
     0
 10
0.0
 20
0.0
 30
0.0
  3
_NONE
  1

  0
CIRCLE
  5
8295
330
8293
100
AcDbEntity
  8
0
  6
ByBlock
 62
     0
100
AcDbCircle
 10
0.0
 20
0.0
 30
0.0
 40
0.25
  0
ENDBLK
  5
8296
330
8293
100
AcDbEntity
  8
0
100
AcDbBlockEnd
  0
BLOCK
  5
82D9
330
82B1
100
AcDbEntity
  8
0
100
AcDbBlockBegin
  2
*D25
 70
     1
 10
0.0
 20
0.0
 30
0.0
  3
*D25
  1

  0
LINE
  5
84AE
330
82B1
100
AcDbEntity
  8
3
 62
     0
440
 16777216
370
    -2
100
AcDbLine
 10
4422.971272309791
 20
2785.800457609003
 30
0.0
 11
4422.971272309791
 21
2890.800457609003
 31
0.0
  0
MTEXT
  5
84AF
330
82B1
100
AcDbEntity
  8
3
 62
     0
440
 16777216
100
AcDbMText
 10
4558.288066079309
 20
2838.300457609003
 30
0.0
 40
120.0
 41
0.0
 46
0.0
 71
     5
 72
     1
  1
\A1;   (105)
 11
0.0000000000000001
 21
1.0
 31
0.0
 73
     1
 44
1.0
  0
POINT
  5
84B0
330
82B1
100
AcDbEntity
  8
DEFPOINTS
 62
     0
440
 16777216
100
AcDbPoint
 10
3596.156955993238
 20
2785.800457609003
 30
0.0
  0
POINT
  5
84B1
330
82B1
100
AcDbEntity
  8
DEFPOINTS
 62
     0
440
 16777216
100
AcDbPoint
 10
3596.156955993238
 20
2890.800457609003
 30
0.0
  0
POINT
  5
84B2
330
82B1
100
AcDbEntity
  8
DEFPOINTS
 62
     0
440
 16777216
100
AcDbPoint
 10
4422.971272309791
 20
2890.800457609003
 30
0.0
  0
ENDBLK
  5
82DF
330
82B1
100
AcDbEntity
  8
0
100
AcDbBlockEnd
  0
BLOCK
  5
82BB
330
82BA
100
AcDbEntity
  8
0
100
AcDbBlockBegin
  2
*D26
 70
     1
 10
0.0
 20
0.0
 30
0.0
  3
*D26
  1

  0
LINE
  5
84A5
330
82BA
100
AcDbEntity
  8
3
 62
     0
440
 16777216
370
    -2
100
AcDbLine
 10
2795.156955993238
 20
5217.800457609002
 30
0.0
 11
4793.896733745765
 21
5217.800457609002
 31
0.0
  0
LINE
  5
84A6
330
82BA
100
AcDbEntity
  8
3
 62
     0
440
 16777216
370
    -2
100
AcDbLine
 10
3616.156955993238
 20
2710.800457609003
 30
0.0
 11
4793.896733745765
 21
2710.800457609003
 31
0.0
  0
LINE
  5
84A7
330
82BA
100
AcDbEntity
  8
3
 62
     0
440
 16777216
370
    -2
100
AcDbLine
 10
4753.896733745765
 20
5137.800457609003
 30
0.0
 11
4753.896733745765
 21
2790.800457609003
 31
0.0
  0
INSERT
  5
84A8
330
82BA
100
AcDbEntity
  8
3
 62
     0
440
 16777216
370
    -2
100
AcDbBlockReference
  2
_OPEN
 10
4753.896733745765
 20
5217.800457609002
 30
0.0
 41
80.0
 42
80.0
 43
80.0
 50
90.0
  0
INSERT
  5
84A9
330
82BA
100
AcDbEntity
  8
3
 62
     0
440
 16777216
370
    -2
100
AcDbBlockReference
  2
_OPEN
 10
4753.896733745765
 20
2710.800457609003
 30
0.0
 41
80.0
 42
80.0
 43
80.0
 50
270.0
  0
MTEXT
  5
84AA
330
82BA
100
AcDbEntity
  8
3
 62
     0
440
 16777216
100
AcDbMText
 10
4622.468162317193
 20
3964.300457609003
 30
0.0
 40
120.0
 41
0.0
 46
0.0
 71
     5
 72
     1
  1
\A1;(2507)
 11
0.0000000000000001
 21
1.0
 31
0.0
 73
     1
 44
1.0
  0
POINT
  5
84AB
330
82BA
100
AcDbEntity
  8
DEFPOINTS
 62
     0
440
 16777216
100
AcDbPoint
 10
2775.156955993238
 20
5217.800457609002
 30
0.0
  0
POINT
  5
84AC
330
82BA
100
AcDbEntity
  8
DEFPOINTS
 62
     0
440
 16777216
100
AcDbPoint
 10
3596.156955993238
 20
2710.800457609003
 30
0.0
  0
POINT
  5
84AD
330
82BA
100
AcDbEntity
  8
DEFPOINTS
 62
     0
440
 16777216
100
AcDbPoint
 10
4753.896733745765
 20
2710.800457609003
 30
0.0
  0
ENDBLK
  5
82C5
330
82BA
100
AcDbEntity
  8
0
100
AcDbBlockEnd
  0
ENDSEC
  0
SECTION
  2
ENTITIES
  0
INSERT
  5
7C22
330
19
100
AcDbEntity
  8
1
100
AcDbBlockReference
  2
YA_N
 10
6.0
 20
5.0
 30
0.0
  0
LINE
  5
7C23
330
19
100
AcDbEntity
  8
2
100
AcDbLine
 10
2846.156955993238
 20
5369.39887263968
 30
0.0
 11
2846.156955993238
 21
2710.800457609003
 31
0.0
  0
LINE
  5
7C24
330
19
100
AcDbEntity
  8
1
100
AcDbLine
 10
5050.092839011053
 20
2890.800457609003
 30
0.0
 11
7170.092839011052
 21
2890.800457609003
 31
0.0
1001
ACAD
1000
ASC_BOUNDS
1002
{
1070
    19
1005
0
1005
0
1002
}
  0
LINE
  5
7C25
330
19
100
AcDbEntity
  8
1
100
AcDbLine
 10
5050.092839011053
 20
3015.800457609003
 30
0.0
 11
5391.092839011052
 21
3015.800457609002
 31
0.0
  0
LINE
  5
7C28
330
19
100
AcDbEntity
  8
2
100
AcDbLine
 10
1638.616022453501
 20
4320.800457609002
 30
0.0
 11
3683.677800684858
 21
4320.800457609002
 31
0.0
  0
LINE
  5
7C29
330
19
100
AcDbEntity
  8
2
100
AcDbLine
 10
4940.792839011054
 20
4320.800457609002
 30
0.0
 11
7274.603325250289
 21
4320.800457609002
 31
0.0
  0
LINE
  5
7C2A
330
19
100
AcDbEntity
  8
2
100
AcDbLine
 10
4929.590112414676
 20
3275.800457609002
 30
0.0
 11
5391.092839011052
 21
3275.800457609002
 31
0.0
  0
LINE
  5
7C2B
330
19
100
AcDbEntity
  8
1
100
AcDbLine
 10
5046.092839011054
 20
3381.800457609003
 30
0.0
 11
5123.992839011052
 21
3381.800457609003
 31
0.0
  0
LINE
  5
7C2C
330
19
100
AcDbEntity
  8
1
100
AcDbLine
 10
5046.092839011054
 20
3169.800457609003
 30
0.0
 11
5123.992839011053
 21
3169.800457609003
 31
0.0
  0
LINE
  5
7C2D
330
19
100
AcDbEntity
  8
1
100
AcDbLine
 10
5144.092839011054
 20
4390.800457609002
 30
0.0
 11
5144.092839011054
 21
4250.800457609002
 31
0.0
  0
LINE
  5
7C2E
330
19
100
AcDbEntity
  8
1
100
AcDbLine
 10
5123.992839011053
 20
4574.800457609002
 30
0.0
 11
5123.992839011053
 21
4390.800457609002
 31
0.0
  0
LINE
  5
7C2F
330
19
100
AcDbEntity
  8
1
100
AcDbLine
 10
5123.992839011053
 20
4390.800457609002
 30
0.0
 11
5144.092839011054
 21
4390.800457609002
 31
0.0
  0
LINE
  5
7C30
330
19
100
AcDbEntity
  8
1
100
AcDbLine
 10
5123.992839011052
 20
4250.800457609002
 30
0.0
 11
5144.092839011054
 21
4250.800457609002
 31
0.0
  0
LINE
  5
7C31
330
19
100
AcDbEntity
  8
1
100
AcDbLine
 10
5123.992839011053
 20
4250.800457609002
 30
0.0
 11
5123.992839011053
 21
3335.800457609003
 31
0.0
  0
LINE
  5
7C32
330
19
100
AcDbEntity
  8
1
100
AcDbLine
 10
5046.092839011054
 20
4574.800457609002
 30
0.0
 11
5046.092839011054
 21
3169.800457609003
 31
0.0
  0
LINE
  5
7C33
330
19
100
AcDbEntity
  8
1
100
AcDbLine
 10
5139.092839011054
 20
3335.800457609003
 30
0.0
 11
5139.092839011054
 21
3215.800457609002
 31
0.0
  0
LINE
  5
7C34
330
19
100
AcDbEntity
  8
1
100
AcDbLine
 10
5123.992839011053
 20
3335.800457609003
 30
0.0
 11
5139.092839011054
 21
3335.800457609003
 31
0.0
  0
LINE
  5
7C35
330
19
100
AcDbEntity
  8
1
100
AcDbLine
 10
5123.992839011053
 20
3215.800457609002
 30
0.0
 11
5139.092839011054
 21
3215.800457609002
 31
0.0
  0
LINE
  5
7C36
330
19
100
AcDbEntity
  8
1
100
AcDbLine
 10
5123.992839011053
 20
3215.800457609002
 30
0.0
 11
5123.992839011053
 21
3169.800457609003
 31
0.0
  0
LINE
  5
7C37
330
19
100
AcDbEntity
  8
1
100
AcDbLine
 10
4921.092839011054
 20
3055.800457609003
 30
0.0
 11
5206.092839011054
 21
3055.800457609003
 31
0.0
  0
LINE
  5
7C38
330
19
100
AcDbEntity
  8
1
100
AcDbLine
 10
4921.092839011054
 20
4700.800457609002
 30
0.0
 11
4921.092839011054
 21
3055.800457609003
 31
0.0
  0
LINE
  5
7C39
330
19
100
AcDbEntity
  8
1
100
AcDbLine
 10
5206.092839011053
 20
4700.800457609002
 30
0.0
 11
5206.092839011054
 21
4680.800457609002
 31
0.0
  0
LINE
  5
7C3A
330
19
100
AcDbEntity
  8
2
100
AcDbLine
 10
2846.156955993238
 20
8758.995955661605
 30
0.0
 11
2846.156955993238
 21
6410.311612935842
 31
0.0
  0
LINE
  5
7C3B
330
19
100
AcDbEntity
  8
2
100
AcDbLine
 10
1226.156955993238
 20
7384.761612935841
 30
0.0
 11
1226.156955993238
 21
6410.311612935842
 31
0.0
  0
LINE
  5
7C3C
330
19
100
AcDbEntity
  8
2
100
AcDbLine
 10
6241.092839011053
 20
5467.750106454829
 30
0.0
 11
6241.092839011053
 21
2710.800457609003
 31
0.0
  0
INSERT
  5
7C3D
330
19
100
AcDbEntity
  8
1
100
AcDbBlockReference
  2
YA_N
 10
-1757.227407310314
 20
-1218.786417457781
 30
0.0
 41
30.0
 42
30.0
 43
30.0
  0
INSERT
  5
7C3E
330
19
100
AcDbEntity
  8
1
100
AcDbBlockReference
  2
YA_N
 10
-755.2436758818475
 20
-538.554984833856
 30
0.0
 41
30.0
 42
30.0
 43
30.0
  0
LINE
  5
7C3F
330
19
100
AcDbEntity
  8
1
100
AcDbLine
 10
5050.092839011051
 20
2785.800457609003
 30
0.0
 11
7170.092839011054
 21
2785.800457609003
 31
0.0
1001
ACAD
1000
ASC_BOUNDS
1002
{
1070
    19
1005
0
1005
0
1002
}
  0
LINE
  5
7C40
330
19
100
AcDbEntity
  8
1
100
AcDbLine
 10
5050.092839011052
 20
2710.800457609003
 30
0.0
 11
7170.092839011053
 21
2710.800457609003
 31
0.0
  0
LINE
  5
7C41
330
19
100
AcDbEntity
  8
1
100
AcDbLine
 10
7170.092839011053
 20
2785.800457609003
 30
0.0
 11
7170.092839011053
 21
2710.800457609003
 31
0.0
  0
LINE
  5
7C42
330
19
100
AcDbEntity
  8
1
100
AcDbLine
 10
7091.092839011053
 20
2986.800457609002
 30
0.0
 11
7091.092839011053
 21
5217.800457609002
 31
0.0
  0
LINE
  5
7C43
330
19
100
AcDbEntity
  8
1
100
AcDbLine
 10
5391.092839011052
 20
2986.800457609003
 30
0.0
 11
5391.092839011054
 21
5217.800457609002
 31
0.0
  0
LINE
  5
7C44
330
19
100
AcDbEntity
  8
1
100
AcDbLine
 10
3596.156955993238
 20
8659.311612935839
 30
0.0
 11
2096.156955993238
 21
8659.311612935841
 31
0.0
  0
LINE
  5
7C45
330
19
100
AcDbEntity
  8
1
100
AcDbLine
 10
3596.156955993238
 20
6539.311612935839
 30
0.0
 11
946.1569559932376
 21
6539.31161293584
 31
0.0
  0
LINE
  5
7C46
330
19
100
AcDbEntity
  8
1
100
AcDbLine
 10
3596.156955993238
 20
8659.311612935839
 30
0.0
 11
3596.156955993238
 21
8580.311612935842
 31
0.0
  0
LINE
  5
7C47
330
19
100
AcDbEntity
  8
1
100
AcDbLine
 10
946.1569559932376
 20
7639.31161293584
 30
0.0
 11
946.1569559932376
 21
6539.311612935839
 31
0.0
  0
LINE
  5
7C48
330
19
100
AcDbEntity
  8
1
100
AcDbLine
 10
2096.156955993238
 20
8659.311612935839
 30
0.0
 11
2096.156955993238
 21
8580.311612935842
 31
0.0
  0
LINE
  5
7C49
330
19
100
AcDbEntity
  8
1
100
AcDbLine
 10
1767.156955993237
 20
7639.311612935839
 30
0.0
 11
946.1569559932376
 21
7639.31161293584
 31
0.0
  0
DIMENSION
  5
7C4A
330
19
100
AcDbEntity
  8
3
100
AcDbDimension
280
     0
  2
*D1
 10
7091.092839011053
 20
5490.120671915637
 30
0.0
 11
6241.092839011053
 21
5590.120671915636
 31
0.0
 70
    32
 71
     5
 42
-1.0
 73
     0
 74
     0
 75
     0
  3
IGA
100
AcDbAlignedDimension
 13
5391.092839011053
 23
5241.720885449071
 33
0.0
 14
7091.092839011053
 24
5241.720885449071
 34
0.0
100
AcDbRotatedDimension
1001
ACAD
1000
DSTYLE
1002
{
1070
   287
1070
     3
1070
    40
1040
40.0
1070
   143
1040
0.039
1070
   172
1070
     1
1070
   271
1070
     0
1070
   279
1070
     0
1070
   288
1070
     1
1002
}
  0
LINE
  5
7C4B
330
19
100
AcDbEntity
  8
1
100
AcDbLine
 10
5233.592839011053
 20
4244.800457609002
 30
0.0
 11
5233.592839011053
 21
4114.800457609002
 31
0.0
  0
LINE
  5
7C4C
330
19
100
AcDbEntity
  8
1
100
AcDbLine
 10
5243.592839011053
 20
4254.800457609002
 30
0.0
 11
5313.792839011054
 21
4254.800457609002
 31
0.0
  0
LINE
  5
7C4D
330
19
100
AcDbEntity
  8
1
100
AcDbLine
 10
5243.592839011053
 20
4104.800457609002
 30
0.0
 11
5313.792839011054
 21
4104.800457609002
 31
0.0
  0
ARC
  5
7C4E
330
19
100
AcDbEntity
  8
1
100
AcDbCircle
 10
5243.592839011053
 20
4244.800457609002
 30
0.0
 40
10.0
100
AcDbArc
 50
90.0
 51
180.0
  0
ARC
  5
7C4F
330
19
100
AcDbEntity
  8
1
100
AcDbCircle
 10
5243.592839011053
 20
4114.800457609002
 30
0.0
 40
10.0
100
AcDbArc
 50
180.0
 51
270.0
  0
LINE
  5
7C50
330
19
100
AcDbEntity
  8
1
100
AcDbLine
 10
5313.792839011053
 20
4104.800457609002
 30
0.0
 11
5376.092839011052
 21
4104.800457609001
 31
0.0
  0
LINE
  5
7C51
330
19
100
AcDbEntity
  8
1
100
AcDbLine
 10
5313.792839011053
 20
4254.800457609002
 30
0.0
 11
5376.092839011053
 21
4254.800457609002
 31
0.0
  0
LINE
  5
7C52
330
19
100
AcDbEntity
  8
1
100
AcDbLine
 10
7260.592839011053
 20
4244.800457609002
 30
0.0
 11
7260.592839011053
 21
4114.800457609002
 31
0.0
  0
LINE
  5
7C53
330
19
100
AcDbEntity
  8
1
100
AcDbLine
 10
7250.592839011052
 20
4104.800457609002
 30
0.0
 11
7180.392839011052
 21
4104.800457609002
 31
0.0
  0
ARC
  5
7C54
330
19
100
AcDbEntity
  8
1
100
AcDbCircle
 10
7250.592839011052
 20
4114.800457609002
 30
0.0
 40
10.0
100
AcDbArc
 50
270.0
 51
0.0
  0
LINE
  5
7C55
330
19
100
AcDbEntity
  8
1
100
AcDbLine
 10
7180.392839011052
 20
4104.800457609002
 30
0.0
 11
7118.092839011052
 21
4104.800457609002
 31
0.0
  0
LINE
  5
7C56
330
19
100
AcDbEntity
  8
1
100
AcDbLine
 10
7250.592839011052
 20
4254.800457609002
 30
0.0
 11
7180.392839011052
 21
4254.800457609002
 31
0.0
  0
ARC
  5
7C57
330
19
100
AcDbEntity
  8
1
100
AcDbCircle
 10
7250.592839011052
 20
4244.800457609002
 30
0.0
 40
10.0
100
AcDbArc
 50
0.0
 51
90.0
  0
LINE
  5
7C58
330
19
100
AcDbEntity
  8
1
100
AcDbLine
 10
7180.392839011052
 20
4254.800457609002
 30
0.0
 11
7118.092839011052
 21
4254.800457609002
 31
0.0
  0
DIMENSION
  5
7C5A
330
19
100
AcDbEntity
  8
3
100
AcDbDimension
280
     0
  2
*D2
 10
6241.092839011053
 20
5815.197290539811
 30
0.0
 11
5581.092839011053
 21
5946.625861968382
 31
0.0
 70
    32
  1
(<>)
 71
     5
 42
1319.999999999999
 73
     0
 74
     0
 75
     0
  3
IGA
100
AcDbAlignedDimension
 13
4921.092839011054
 23
4600.800457609002
 33
0.0
 14
6241.092839011053
 24
5667.263901748138
 34
0.0
100
AcDbRotatedDimension
1001
ACAD
1000
DSTYLE
1002
{
1070
   287
1070
     3
1070
    40
1040
40.0
1070
   143
1040
0.039
1070
   172
1070
     1
1070
   271
1070
     0
1070
   279
1070
     0
1070
   288
1070
     1
1002
}
  0
DIMENSION
  5
7C5B
330
19
100
AcDbEntity
  8
3
100
AcDbDimension
280
     0
  2
*D3
 10
7260.592839011053
 20
5814.809703434625
 30
0.0
 11
6750.842839011053
 21
5946.238274863197
 31
0.0
 70
    32
  1
(<>)
 71
     5
 42
1019.5
 73
     0
 74
     0
 75
     0
  3
IGA
100
AcDbAlignedDimension
 13
6241.092839011053
 23
5667.263901748138
 33
0.0
 14
7260.592839011053
 24
4244.800457609002
 34
0.0
100
AcDbRotatedDimension
1001
ACAD
1000
DSTYLE
1002
{
1070
   287
1070
     3
1070
    40
1040
40.0
1070
   143
1040
0.039
1070
   172
1070
     1
1070
   271
1070
     0
1070
   279
1070
     0
1070
   288
1070
     1
1002
}
  0
DIMENSION
  5
7C5C
330
19
100
AcDbEntity
  8
3
100
AcDbDimension
280
     0
  2
*D4
 10
7534.26434175711
 20
3695.800457609001
 30
0.0
 11
7434.264341757108
 21
4320.800457609002
 31
0.0
 70
    32
  1
φ<>
 71
     5
 42
-1.0
 73
     0
 74
     0
 75
     0
  3
IGA
100
AcDbAlignedDimension
 13
7093.392839011054
 23
4945.800457609003
 33
0.0
 14
7093.392839011054
 24
3695.800457609002
 34
0.0
 50
90.0
100
AcDbRotatedDimension
1001
ACAD
1000
DSTYLE
1002
{
1070
   287
1070
     3
1070
    40
1040
40.0
1070
   143
1040
0.039
1070
   172
1070
     1
1070
   271
1070
     0
1070
   279
1070
     0
1070
   288
1070
     1
1002
}
  0
LINE
  5
7C5D
330
19
100
AcDbEntity
  8
1
100
AcDbLine
 10
5046.092839011054
 20
4574.800457609002
 30
0.0
 11
5123.992839011052
 21
4574.800457609002
 31
0.0
  0
LINE
  5
7C5E
330
19
100
AcDbEntity
  8
1
100
AcDbLine
 10
5046.092839011054
 20
4066.800457609002
 30
0.0
 11
5123.992839011052
 21
4066.800457609002
 31
0.0
  0
LINE
  5
7C5F
330
19
100
AcDbEntity
  8
1
100
AcDbLine
 10
4921.092839011053
 20
4700.800457609002
 30
0.0
 11
5206.092839011052
 21
4700.800457609002
 31
0.0
  0
LINE
  5
7C60
330
19
100
AcDbEntity
  8
1
100
AcDbLine
 10
5206.092839011054
 20
3075.800457609003
 30
0.0
 11
5206.092839011054
 21
3055.800457609003
 31
0.0
  0
INSERT
  5
7C61
330
19
100
AcDbEntity
  8
1
100
AcDbBlockReference
  2
YA_N
 10
4767.943419715615
 20
-1494.695868425497
 30
0.0
  0
LINE
  5
7C62
330
19
100
AcDbEntity
  8
1
100
AcDbLine
 10
7170.092839011053
 20
3015.800457609003
 30
0.0
 11
7170.092839011052
 21
2890.800457609003
 31
0.0
  0
LINE
  5
7C63
330
19
100
AcDbEntity
  8
1
100
AcDbLine
 10
5050.092839011052
 20
2785.800457609003
 30
0.0
 11
5050.092839011053
 21
2710.800457609003
 31
0.0
  0
LINE
  5
7C64
330
19
100
AcDbEntity
  8
1
100
AcDbLine
 10
5050.092839011053
 20
3015.800457609003
 30
0.0
 11
5050.092839011053
 21
2890.800457609003
 31
0.0
  0
DIMENSION
  5
7C65
330
19
100
AcDbEntity
  8
3
100
AcDbDimension
280
     0
  2
*D5
 10
6241.092839011052
 20
2363.433502867538
 30
0.0
 11
5645.592839011052
 21
2463.433502867538
 31
0.0
 70
    32
 71
     5
 42
1191.0
 73
     0
 74
     0
 75
     0
  3
IGA
100
AcDbAlignedDimension
 13
5050.092839011052
 23
2710.800457609003
 33
0.0
 14
6241.092839011052
 24
2710.800457609003
 34
0.0
100
AcDbRotatedDimension
1001
ACAD
1000
DSTYLE
1002
{
1070
   287
1070
     3
1070
    40
1040
40.0
1070
   143
1040
0.039
1070
   172
1070
     1
1070
   271
1070
     0
1070
   279
1070
     0
1070
   288
1070
     1
1002
}
  0
DIMENSION
  5
7C66
330
19
100
AcDbEntity
  8
3
100
AcDbDimension
280
     0
  2
*D6
 10
7170.092839011053
 20
2363.433502867538
 30
0.0
 11
6705.592839011053
 21
2463.433502867538
 31
0.0
 70
    32
 71
     5
 42
929.0000000000009
 73
     0
 74
     0
 75
     0
  3
IGA
100
AcDbAlignedDimension
 13
6241.092839011052
 23
2710.800457609003
 33
0.0
 14
7170.092839011053
 24
2710.800457609003
 34
0.0
100
AcDbRotatedDimension
1001
ACAD
1000
DSTYLE
1002
{
1070
   287
1070
     3
1070
    40
1040
40.0
1070
   143
1040
0.039
1070
   172
1070
     1
1070
   271
1070
     0
1070
   279
1070
     0
1070
   288
1070
     1
1002
}
  0
LINE
  5
7C68
330
19
100
AcDbEntity
  8
1
100
AcDbLine
 10
5144.092839011054
 20
4358.300457609002
 30
0.0
 11
5391.092839011053
 21
4358.300457609002
 31
0.0
  0
LINE
  5
7C69
330
19
100
AcDbEntity
  8
1
100
AcDbLine
 10
5144.092839011054
 20
4283.300457609002
 30
0.0
 11
5391.092839011053
 21
4283.300457609002
 31
0.0
  0
LINE
  5
7C6A
330
19
100
AcDbEntity
  8
1
100
AcDbLine
 10
5235.042839011055
 20
3075.800457609003
 30
0.0
 11
5235.042839011054
 21
3275.800457609004
 31
0.0
  0
LINE
  5
7C6B
330
19
100
AcDbEntity
  8
1
100
AcDbLine
 10
5235.042839011056
 20
3075.800457609004
 30
0.0
 11
5391.092839011053
 21
3075.800457609005
 31
0.0
  0
LINE
  5
7C6C
330
19
100
AcDbEntity
  8
1
100
AcDbLine
 10
5391.092839011054
 20
3485.800457609006
 30
0.0
 11
5235.042839011053
 21
3485.800457609003
 31
0.0
  0
LINE
  5
7C6D
330
19
100
AcDbEntity
  8
1
100
AcDbLine
 10
5225.042839011053
 20
3245.800457609004
 30
0.0
 11
5139.092839011054
 21
3245.800457609004
 31
0.0
  0
LINE
  5
7C6E
330
19
100
AcDbEntity
  8
1
100
AcDbLine
 10
5225.042839011053
 20
3305.800457609004
 30
0.0
 11
5139.092839011054
 21
3305.800457609003
 31
0.0
  0
LINE
  5
7C6F
330
19
100
AcDbEntity
  8
1
100
AcDbLine
 10
5235.042839011054
 20
3485.800457609003
 30
0.0
 11
5235.042839011054
 21
3275.800457609004
 31
0.0
  0
LINE
  5
7C70
330
19
100
AcDbEntity
  8
1
100
AcDbLine
 10
5225.042839011053
 20
3243.300457609004
 30
0.0
 11
5225.042839011053
 21
3308.300457609004
 31
0.0
  0
LINE
  5
7C71
330
19
100
AcDbEntity
  8
1
100
AcDbLine
 10
5225.042839011053
 20
3243.300457609004
 30
0.0
 11
5235.042839011054
 21
3243.300457609004
 31
0.0
  0
LINE
  5
7C72
330
19
100
AcDbEntity
  8
1
100
AcDbLine
 10
5225.042839011053
 20
3308.300457609004
 30
0.0
 11
5235.042839011054
 21
3308.300457609004
 31
0.0
  0
LINE
  5
7C73
330
19
100
AcDbEntity
  8
2
100
AcDbLine
 10
3821.984076714958
 20
7730.311612935842
 30
0.0
 11
1767.156955993237
 21
7730.311612935842
 31
0.0
  0
LINE
  5
7C74
330
19
100
AcDbEntity
  8
1
100
AcDbLine
 10
3226.156955993238
 20
6410.311612935842
 30
0.0
 11
1006.156955993238
 21
6410.311612935842
 31
0.0
  0
LINE
  5
7C75
330
19
100
AcDbEntity
  8
1
100
AcDbLine
 10
3100.156955993238
 20
6546.311612935842
 30
0.0
 11
2592.156955993238
 21
6546.311612935842
 31
0.0
  0
LINE
  5
7C76
330
19
100
AcDbEntity
  8
1
100
AcDbLine
 10
2776.156955993238
 20
6624.211612935842
 30
0.0
 11
2592.156955993238
 21
6624.211612935842
 31
0.0
  0
LINE
  5
7C77
330
19
100
AcDbEntity
  8
1
100
AcDbLine
 10
1196.156955993237
 20
6725.261612935843
 30
0.0
 11
1196.156955993237
 21
6639.311612935841
 31
0.0
  0
LINE
  5
7C78
330
19
100
AcDbEntity
  8
1
100
AcDbLine
 10
1256.156955993238
 20
6725.261612935843
 30
0.0
 11
1256.156955993238
 21
6639.311612935841
 31
0.0
  0
LINE
  5
7C79
330
19
100
AcDbEntity
  8
1
100
AcDbLine
 10
1006.156955993238
 20
6410.311612935842
 30
0.0
 11
1006.156955993238
 21
6706.311612935841
 31
0.0
  0
LINE
  5
7C7A
330
19
100
AcDbEntity
  8
1
100
AcDbLine
 10
2046.156955993238
 20
6539.311612935842
 30
0.0
 11
1921.156955993238
 21
6539.311612935842
 31
0.0
  0
LINE
  5
7C7B
330
19
100
AcDbEntity
  8
1
100
AcDbLine
 10
1902.156955993238
 20
6539.31161293584
 30
0.0
 11
1837.156955993238
 21
6539.311612935842
 31
0.0
  0
LINE
  5
7C7C
330
19
100
AcDbEntity
  8
1
100
AcDbLine
 10
1286.156955993237
 20
6639.311612935841
 30
0.0
 11
1166.156955993238
 21
6639.311612935841
 31
0.0
  0
LINE
  5
7C7D
330
19
100
AcDbEntity
  8
1
100
AcDbLine
 10
1166.156955993238
 20
6624.211612935842
 30
0.0
 11
1120.156955993238
 21
6624.211612935842
 31
0.0
  0
LINE
  5
7C7E
330
19
100
AcDbEntity
  8
1
100
AcDbLine
 10
1120.156955993238
 20
6546.311612935842
 30
0.0
 11
1120.156955993238
 21
6624.211612935842
 31
0.0
  0
LINE
  5
7C7F
330
19
100
AcDbEntity
  8
1
100
AcDbLine
 10
1166.156955993238
 20
6624.211612935842
 30
0.0
 11
1166.156955993238
 21
6639.311612935841
 31
0.0
  0
LINE
  5
7C80
330
19
100
AcDbEntity
  8
1
100
AcDbLine
 10
1332.156955993238
 20
6546.311612935842
 30
0.0
 11
1332.156955993238
 21
6624.211612935841
 31
0.0
  0
LINE
  5
7C81
330
19
100
AcDbEntity
  8
1
100
AcDbLine
 10
1286.156955993237
 20
6624.211612935842
 30
0.0
 11
1286.156955993237
 21
6639.311612935841
 31
0.0
  0
LINE
  5
7C82
330
19
100
AcDbEntity
  8
1
100
AcDbLine
 10
2592.156955993238
 20
6546.311612935842
 30
0.0
 11
2592.156955993238
 21
6624.211612935841
 31
0.0
  0
LINE
  5
7C83
330
19
100
AcDbEntity
  8
1
100
AcDbLine
 10
1436.156955993238
 20
6735.261612935843
 30
0.0
 11
1226.156955993238
 21
6735.261612935843
 31
0.0
  0
LINE
  5
7C84
330
19
100
AcDbEntity
  8
1
100
AcDbLine
 10
1193.656955993238
 20
6725.261612935843
 30
0.0
 11
1258.656955993237
 21
6725.261612935843
 31
0.0
  0
LINE
  5
7C85
330
19
100
AcDbEntity
  8
1
100
AcDbLine
 10
1026.156955993237
 20
6735.261612935843
 30
0.0
 11
1026.156955993245
 21
7384.761612935843
 31
0.0
  0
LINE
  5
7C86
330
19
100
AcDbEntity
  8
1
100
AcDbLine
 10
1026.156955993237
 20
6735.261612935843
 30
0.0
 11
1226.156955993238
 21
6735.261612935843
 31
0.0
  0
LINE
  5
7C87
330
19
100
AcDbEntity
  8
1
100
AcDbLine
 10
1193.656955993238
 20
6725.261612935843
 30
0.0
 11
1193.656955993238
 21
6735.261612935843
 31
0.0
  0
LINE
  5
7C88
330
19
100
AcDbEntity
  8
1
100
AcDbLine
 10
1026.156955993239
 20
6910.761612935843
 30
0.0
 11
1027.156955993239
 21
6910.761612935843
 31
0.0
  0
LINE
  5
7C89
330
19
100
AcDbEntity
  8
1
100
AcDbLine
 10
1436.156955993245
 20
7384.761612935841
 30
0.0
 11
1436.156955993238
 21
6735.261612935841
 31
0.0
  0
LINE
  5
7C8A
330
19
100
AcDbEntity
  8
1
100
AcDbLine
 10
1258.656955993237
 20
6725.261612935843
 30
0.0
 11
1258.656955993237
 21
6735.261612935843
 31
0.0
  0
LINE
  5
7C8B
330
19
100
AcDbEntity
  8
1
100
AcDbLine
 10
2808.656955993238
 20
6644.311612935843
 30
0.0
 11
2808.656955993238
 21
6891.31161293584
 31
0.0
  0
LINE
  5
7C8C
330
19
100
AcDbEntity
  8
1
100
AcDbLine
 10
2883.656955993238
 20
6644.311612935843
 30
0.0
 11
2883.656955993238
 21
6891.311612935843
 31
0.0
  0
LINE
  5
7C8D
330
19
100
AcDbEntity
  8
1
100
AcDbLine
 10
3226.156955993238
 20
6410.311612935842
 30
0.0
 11
3226.156955993238
 21
6706.311612935841
 31
0.0
  0
LINE
  5
7C8E
330
19
100
AcDbEntity
  8
1
100
AcDbLine
 10
2916.156955993238
 20
6644.311612935843
 30
0.0
 11
2776.156955993238
 21
6644.311612935843
 31
0.0
  0
LINE
  5
7C8F
330
19
100
AcDbEntity
  8
1
100
AcDbLine
 10
2776.156955993238
 20
6624.211612935841
 30
0.0
 11
2776.156955993238
 21
6644.311612935843
 31
0.0
  0
LINE
  5
7C90
330
19
100
AcDbEntity
  8
1
100
AcDbLine
 10
3100.156955993238
 20
6624.211612935842
 30
0.0
 11
2916.156955993238
 21
6624.211612935842
 31
0.0
  0
LINE
  5
7C91
330
19
100
AcDbEntity
  8
1
100
AcDbLine
 10
2916.156955993238
 20
6624.211612935842
 30
0.0
 11
2916.156955993238
 21
6644.311612935843
 31
0.0
  0
LINE
  5
7C92
330
19
100
AcDbEntity
  8
1
100
AcDbLine
 10
3100.156955993238
 20
6546.311612935842
 30
0.0
 11
3100.156955993238
 21
6624.211612935841
 31
0.0
  0
LINE
  5
7C93
330
19
100
AcDbEntity
  8
1
100
AcDbLine
 10
3226.156955993238
 20
6706.311612935841
 30
0.0
 11
1006.156955993238
 21
6706.311612935933
 31
0.0
  0
LINE
  5
7C94
330
19
100
AcDbEntity
  8
1
100
AcDbLine
 10
1026.156955993239
 20
7384.761612935843
 30
0.0
 11
1436.156955993245
 21
7384.761612935841
 31
0.0
  0
LINE
  5
7C95
330
19
100
AcDbEntity
  8
1
100
AcDbLine
 10
3671.156955993238
 20
8580.311612935842
 30
0.0
 11
1767.15695599324
 21
8580.311612935842
 31
0.0
  0
LINE
  5
7C96
330
19
100
AcDbEntity
  8
1
100
AcDbLine
 10
3671.156955993238
 20
6880.311612935838
 30
0.0
 11
1767.156955993237
 21
6880.31161293584
 31
0.0
  0
LINE
  5
7C97
330
19
100
AcDbEntity
  8
1
100
AcDbLine
 10
3671.156955993238
 20
8630.311612935843
 30
0.0
 11
3671.156955993238
 21
6830.31161293584
 31
0.0
  0
LINE
  5
7C98
330
19
100
AcDbEntity
  8
1
100
AcDbLine
 10
1767.156955993237
 20
8580.31161293584
 30
0.0
 11
1767.156955993237
 21
6880.31161293584
 31
0.0
  0
LINE
  5
7C99
330
19
100
AcDbEntity
  8
1
100
AcDbLine
 10
3596.156955993238
 20
6891.31161293584
 30
0.0
 11
3596.156955993238
 21
6539.311612935839
 31
0.0
  0
LINE
  5
7C9A
330
19
100
AcDbEntity
  8
1
100
AcDbLine
 10
1332.156955993238
 20
6624.211612935842
 30
0.0
 11
1286.156955993237
 21
6624.211612935842
 31
0.0
  0
LINE
  5
7C9B
330
19
100
AcDbEntity
  8
1
100
AcDbLine
 10
1332.156955993238
 20
6546.311612935842
 30
0.0
 11
1120.156955993238
 21
6546.311612935842
 31
0.0
  0
DIMENSION
  5
7C9C
330
19
100
AcDbEntity
  8
3
100
AcDbDimension
280
     0
  2
*D7
 10
4045.173097229072
 20
6539.311612935839
 30
0.0
 11
3945.173097229071
 21
7599.311612935839
 31
0.0
 70
    32
 71
     5
 42
-1.0
 73
     0
 74
     0
 75
     0
  3
IGA
100
AcDbAlignedDimension
 13
3596.156955993238
 23
8659.311612935839
 33
0.0
 14
3596.156955993238
 24
6539.311612935839
 34
0.0
 50
90.0
100
AcDbRotatedDimension
1001
ACAD
1000
DSTYLE
1002
{
1070
   287
1070
     3
1070
    40
1040
40.0
1070
   143
1040
0.039
1070
   172
1070
     1
1070
   271
1070
     0
1070
   279
1070
     0
1070
   288
1070
     1
1002
}
  0
DIMENSION
  5
7C9D
330
19
100
AcDbEntity
  8
3
100
AcDbDimension
280
     0
  2
*D8
 10
2096.156955993238
 20
8863.947751441024
 30
0.0
 11
2846.156955993238
 21
8963.947751441024
 31
0.0
 70
    32
 71
     5
 42
-1.0
 73
     0
 74
     0
 75
     0
  3
IGA
100
AcDbAlignedDimension
 13
3596.156955993238
 23
8659.311612935839
 33
0.0
 14
2096.156955993238
 24
8659.311612935841
 34
0.0
100
AcDbRotatedDimension
1001
ACAD
1000
DSTYLE
1002
{
1070
   287
1070
     3
1070
    40
1040
40.0
1070
   143
1040
0.039
1070
   172
1070
     1
1070
   271
1070
     0
1070
   279
1070
     0
1070
   288
1070
     1
1002
}
  0
DIMENSION
  5
7C9E
330
19
100
AcDbEntity
  8
3
100
AcDbDimension
280
     0
  2
*D9
 10
946.1569559932378
 20
8863.947751441024
 30
0.0
 11
1521.156955993238
 21
8963.947751441024
 31
0.0
 70
    32
 71
     5
 42
-1.0
 73
     0
 74
     0
 75
     0
  3
IGA
100
AcDbAlignedDimension
 13
2096.156955993238
 23
8659.311612935841
 33
0.0
 14
946.1569559932376
 24
7639.31161293584
 34
0.0
100
AcDbRotatedDimension
1001
ACAD
1000
DSTYLE
1002
{
1070
   287
1070
     3
1070
    40
1040
40.0
1070
   143
1040
0.039
1070
   172
1070
     1
1070
   271
1070
     0
1070
   279
1070
     0
1070
   288
1070
     1
1002
}
  0
DIMENSION
  5
7C9F
330
19
100
AcDbEntity
  8
3
100
AcDbDimension
280
     0
  2
*D10
 10
679.8305548856587
 20
6539.31161293584
 30
0.0
 11
579.8305548856578
 21
7089.311612935841
 31
0.0
 70
    32
 71
     5
 42
-1.0
 73
     0
 74
     0
 75
     0
  3
IGA
100
AcDbAlignedDimension
 13
946.1569559932376
 23
7639.31161293584
 33
0.0
 14
946.1569559932376
 24
6539.31161293584
 34
0.0
 50
90.0
100
AcDbRotatedDimension
1001
ACAD
1000
DSTYLE
1002
{
1070
   287
1070
     3
1070
    40
1040
40.0
1070
   143
1040
0.039
1070
   172
1070
     1
1070
   271
1070
     0
1070
   279
1070
     0
1070
   288
1070
     1
1002
}
  0
DIMENSION
  5
7CA0
330
19
100
AcDbEntity
  8
3
100
AcDbDimension
280
     0
  2
*D11
 10
3596.156955993238
 20
6163.557734746188
 30
0.0
 11
2271.156955993238
 21
6263.557734746187
 31
0.0
 70
    32
 71
     5
 42
-1.0
 73
     0
 74
     0
 75
     0
  3
IGA
100
AcDbAlignedDimension
 13
946.1569559932376
 23
6539.31161293584
 33
0.0
 14
3596.156955993238
 24
6539.311612935839
 34
0.0
100
AcDbRotatedDimension
1001
ACAD
1000
DSTYLE
1002
{
1070
   287
1070
     3
1070
    40
1040
40.0
1070
   143
1040
0.039
1070
   172
1070
     1
1070
   271
1070
     0
1070
   279
1070
     0
1070
   288
1070
     1
1002
}
  0
INSERT
  5
7CA1
330
19
100
AcDbEntity
  8
1
100
AcDbBlockReference
  2
YA_N
 10
10491.49125510566
 20
1972.966762031963
 30
0.0
  0
ARC
  5
7CA3
330
19
100
AcDbEntity
  8
1
100
AcDbCircle
 10
2937.156955993238
 20
4229.800457609002
 30
0.0
 40
1170.0
100
AcDbArc
 50
175.539156302126
 51
265.539156302126
  0
ARC
  5
7CA4
330
19
100
AcDbEntity
  8
1
100
AcDbCircle
 10
2755.156955993238
 20
4229.800457609002
 30
0.0
 40
988.0
100
AcDbArc
 50
84.71526704546546
 51
174.7152670454654
  0
ARC
  5
7CA5
330
19
100
AcDbEntity
  8
1
100
AcDbCircle
 10
2769.156955993238
 20
4397.800457609002
 30
0.0
 40
820.0
100
AcDbArc
 50
357.2424852442078
 51
84.61184819567256
  0
LINE
  5
7CA6
330
19
100
AcDbEntity
  8
1
100
AcDbLine
 10
2846.156955993238
 20
3063.344714770896
 30
0.0
 11
3671.156955993238
 21
2986.800457609003
 31
0.0
  0
LINE
  5
7CA7
330
19
100
AcDbEntity
  8
1
100
AcDbLine
 10
3596.156955993238
 20
2890.800457609003
 30
0.0
 11
946.1569559932376
 21
2890.800457609003
 31
0.0
1001
ACAD
1000
ASC_BOUNDS
1002
{
1070
    19
1002
}
  0
LINE
  5
7CA8
330
19
100
AcDbEntity
  8
1
100
AcDbLine
 10
3596.156955993238
 20
3015.800457609003
 30
0.0
 11
946.1569559932376
 21
3015.800457609003
 31
0.0
  0
LINE
  5
7CA9
330
19
100
AcDbEntity
  8
1
100
AcDbLine
 10
3596.156955993238
 20
3015.800457609003
 30
0.0
 11
3596.156955993238
 21
2890.800457609003
 31
0.0
  0
LINE
  5
7CAA
330
19
100
AcDbEntity
  8
1
100
AcDbLine
 10
946.1569559932376
 20
3015.800457609003
 30
0.0
 11
946.1569559932376
 21
2890.800457609003
 31
0.0
  0
LINE
  5
7CAB
330
19
100
AcDbEntity
  8
2
100
AcDbLine
 10
1226.156955993238
 20
3566.654974214713
 30
0.0
 11
1226.156955993238
 21
2710.800457609003
 31
0.0
  0
LINE
  5
7CAC
330
19
100
AcDbEntity
  8
2
100
AcDbLine
 10
1506.471172751389
 20
3275.800457609002
 30
0.0
 11
956.0509351259897
 21
3275.800457609002
 31
0.0
  0
LINE
  5
7CAF
330
19
100
AcDbEntity
  8
1
100
AcDbLine
 10
3671.156955993238
 20
4266.800457609003
 30
0.0
 11
3587.192042881842
 21
4266.800457609003
 31
0.0
  0
LINE
  5
7CB0
330
19
100
AcDbEntity
  8
1
100
AcDbLine
 10
3621.156955993237
 20
2991.439503497602
 30
0.0
 11
3621.156955993238
 21
4266.800457609003
 31
0.0
  0
LINE
  5
7CB1
330
19
100
AcDbEntity
  8
1
100
AcDbLine
 10
3671.156955993238
 20
2933.800457609003
 30
0.0
 11
3671.156955993238
 21
4319.800457609002
 31
0.0
  0
POINT
  5
7CB3
330
19
100
AcDbEntity
  8
1
100
AcDbPoint
 10
1771.356671382586
 20
4320.800457609002
 30
0.0
  0
INSERT
  5
7CB4
330
19
100
AcDbEntity
  8
1
100
AcDbBlockReference
  2
YA_N
 10
8728.263847795352
 20
749.1803445741825
 30
0.0
 41
30.0
 42
30.0
 43
30.0
  0
LINE
  5
7CB6
330
19
100
AcDbEntity
  8
1
100
AcDbLine
 10
3596.156955993238
 20
2785.800457609003
 30
0.0
 11
946.1569559932376
 21
2785.800457609003
 31
0.0
1001
ACAD
1000
ASC_BOUNDS
1002
{
1070
    19
1002
}
  0
LINE
  5
7CB7
330
19
100
AcDbEntity
  8
1
100
AcDbLine
 10
3596.156955993238
 20
2710.800457609003
 30
0.0
 11
946.1569559932376
 21
2710.800457609003
 31
0.0
  0
LINE
  5
7CB8
330
19
100
AcDbEntity
  8
1
100
AcDbLine
 10
3596.156955993238
 20
2785.800457609003
 30
0.0
 11
3596.156955993238
 21
2710.800457609003
 31
0.0
  0
LINE
  5
7CB9
330
19
100
AcDbEntity
  8
1
100
AcDbLine
 10
946.1569559932376
 20
2785.800457609003
 30
0.0
 11
946.1569559932376
 21
2710.800457609003
 31
0.0
  0
ARC
  5
7CBA
330
19
100
AcDbEntity
  8
1
100
AcDbCircle
 10
1226.156955993238
 20
3275.800457609002
 30
0.0
 40
203.5
100
AcDbArc
 50
285.6036990000001
 51
254.39624
  0
LINE
  5
7CBB
330
19
100
AcDbEntity
  8
1
100
AcDbLine
 10
1171.418918993237
 20
3079.800457609003
 30
0.0
 11
1280.894992993238
 21
3079.800457609003
 31
0.0
  0
ARC
  5
7CBC
330
19
100
AcDbEntity
  8
1
100
AcDbCircle
 10
1412.156955993238
 20
3092.800457609003
 30
0.0
 40
3.0
100
AcDbArc
 50
0.0
 51
90.0
  0
ARC
  5
7CBD
330
19
100
AcDbEntity
  8
1
100
AcDbCircle
 10
1410.156955993238
 20
3150.127118609003
 30
0.0
 40
5.000066999999999
100
AcDbArc
 50
0.0
 51
55.056335
  0
LINE
  5
7CBE
330
19
100
AcDbEntity
  8
1
100
AcDbLine
 10
1415.156955993238
 20
3150.127118609003
 30
0.0
 11
1415.156955993238
 21
3075.800457609003
 31
0.0
  0
LINE
  5
7CC1
330
19
100
AcDbEntity
  8
1
100
AcDbLine
 10
1330.259525993239
 20
3100.943646609003
 30
0.0
 11
1335.656955993238
 21
3080.800457609003
 31
0.0
  0
LINE
  5
7CC2
330
19
100
AcDbEntity
  8
1
100
AcDbLine
 10
1335.656955993238
 20
3092.800457609003
 30
0.0
 11
1335.656955993238
 21
3075.800457609003
 31
0.0
  0
LINE
  5
7CC3
330
19
100
AcDbEntity
  8
1
100
AcDbLine
 10
1338.656955993237
 20
3095.800457609003
 30
0.0
 11
1412.156955993238
 21
3095.800457609003
 31
0.0
  0
ARC
  5
7CC4
330
19
100
AcDbEntity
  8
1
100
AcDbCircle
 10
1338.656955993237
 20
3092.800457609003
 30
0.0
 40
3.0
100
AcDbArc
 50
90.0
 51
180.0
  0
LINE
  5
7CC5
330
19
100
AcDbEntity
  8
1
100
AcDbLine
 10
1413.020725993237
 20
3154.225750609003
 30
0.0
 11
1397.082859993237
 21
3165.362225609002
 31
0.0
  0
LINE
  5
7CC6
330
19
100
AcDbEntity
  8
1
100
AcDbLine
 10
1037.156955993237
 20
3150.127118609003
 30
0.0
 11
1037.156955993237
 21
3075.800457609003
 31
0.0
  0
LINE
  5
7CC9
330
19
100
AcDbEntity
  8
1
100
AcDbLine
 10
1122.054172993237
 20
3100.943768609003
 30
0.0
 11
1116.656955993237
 21
3080.800457609003
 31
0.0
  0
LINE
  5
7CCA
330
19
100
AcDbEntity
  8
1
100
AcDbLine
 10
1116.656955993237
 20
3092.800457609003
 30
0.0
 11
1116.656955993237
 21
3075.800457609003
 31
0.0
  0
LINE
  5
7CCB
330
19
100
AcDbEntity
  8
1
100
AcDbLine
 10
1113.656955993238
 20
3095.800457609003
 30
0.0
 11
1040.156955993237
 21
3095.800457609003
 31
0.0
  0
ARC
  5
7CCC
330
19
100
AcDbEntity
  8
1
100
AcDbCircle
 10
1113.656955993238
 20
3092.800457609003
 30
0.0
 40
3.0
100
AcDbArc
 50
0.0
 51
90.0
  0
ARC
  5
7CCD
330
19
100
AcDbEntity
  8
1
100
AcDbCircle
 10
1040.156955993237
 20
3092.800457609003
 30
0.0
 40
3.0
100
AcDbArc
 50
90.0
 51
180.0
  0
LINE
  5
7CCE
330
19
100
AcDbEntity
  8
1
100
AcDbLine
 10
1039.293064993239
 20
3154.225750609003
 30
0.0
 11
1055.230930993239
 21
3165.362225609002
 31
0.0
  0
ARC
  5
7CCF
330
19
100
AcDbEntity
  8
1
100
AcDbCircle
 10
1042.156955993237
 20
3150.127118609003
 30
0.0
 40
5.0
100
AcDbArc
 50
124.943661
 51
180.0
  0
LINE
  5
7CD0
330
19
100
AcDbEntity
  8
1
100
AcDbLine
 10
1469.579981035847
 20
3075.800457609003
 30
0.0
 11
1296.156955993238
 21
3075.800457609003
 31
0.0
  0
LINE
  5
7CD1
330
19
100
AcDbEntity
  8
1
100
AcDbLine
 10
1486.156955993237
 20
3015.800457609003
 30
0.0
 11
1469.579981035847
 21
3075.800457609003
 31
0.0
  0
LINE
  5
7CD2
330
19
100
AcDbEntity
  8
1
100
AcDbLine
 10
966.1569559932377
 20
3015.800457609003
 30
0.0
 11
982.3379125383562
 21
3075.800457609003
 31
0.0
  0
LINE
  5
7CD3
330
19
100
AcDbEntity
  8
1
100
AcDbLine
 10
1296.156955993238
 20
3065.800457609002
 30
0.0
 11
1156.156955993238
 21
3065.800457609002
 31
0.0
  0
LINE
  5
7CD5
330
19
100
AcDbEntity
  8
1
100
AcDbLine
 10
1156.156955993238
 20
3075.800457609003
 30
0.0
 11
1156.156955993238
 21
3065.800457609002
 31
0.0
  0
LINE
  5
7CD6
330
19
100
AcDbEntity
  8
1
100
AcDbLine
 10
1296.156955993238
 20
3075.800457609003
 30
0.0
 11
1296.156955993238
 21
3065.800457609002
 31
0.0
  0
LINE
  5
7CD9
330
19
100
AcDbEntity
  8
1
100
AcDbLine
 10
1156.156955993238
 20
3075.800457609003
 30
0.0
 11
982.3379125383562
 21
3075.800457609003
 31
0.0
  0
INSERT
  5
7CDA
330
19
100
AcDbEntity
  8
1
100
AcDbBlockReference
  2
YA_N
 10
9730.247579223819
 20
1429.411777198107
 30
0.0
 41
30.0
 42
30.0
 43
30.0
  0
DIMENSION
  5
7CDC
330
19
100
AcDbEntity
  8
3
100
AcDbDimension
280
     0
  2
*D12
 10
2846.156955993238
 20
2367.087667823366
 30
0.0
 11
3221.156955993238
 21
2467.087667823366
 31
0.0
 70
    32
 71
     5
 42
750.0
 73
     0
 74
     0
 75
     0
  3
IGA
100
AcDbAlignedDimension
 13
3596.156955993238
 23
2710.800457609003
 33
0.0
 14
2846.156955993238
 24
2710.800457609003
 34
0.0
100
AcDbRotatedDimension
1001
ACAD
1000
DSTYLE
1002
{
1070
   287
1070
     3
1070
    40
1040
40.0
1070
   143
1040
0.039
1070
   172
1070
     1
1070
   271
1070
     0
1070
   279
1070
     0
1070
   288
1070
     1
1002
}
  0
DIMENSION
  5
7CDD
330
19
100
AcDbEntity
  8
3
100
AcDbDimension
280
     0
  2
*D13
 10
3924.167988683196
 20
4266.800457609003
 30
0.0
 11
3824.167988683195
 21
3626.800457609003
 31
0.0
 70
    32
 71
     5
 42
-1.0
 73
     0
 74
     0
 75
     0
  3
IGA
100
AcDbAlignedDimension
 13
3671.156955993238
 23
2986.800457609003
 33
0.0
 14
3671.156955993238
 24
4266.800457609003
 34
0.0
 50
270.0
100
AcDbRotatedDimension
1001
ACAD
1000
DSTYLE
1002
{
1070
   287
1070
     3
1070
    40
1040
40.0
1070
   143
1040
0.039
1070
   172
1070
     1
1070
   271
1070
     0
1070
   279
1070
     0
1070
   288
1070
     1
1002
}
  0
DIMENSION
  5
7CDE
330
19
100
AcDbEntity
  8
3
100
AcDbDimension
280
     0
  2
*D14
 10
4171.230831139724
 20
4320.800457609002
 30
0.0
 11
4071.230831139724
 21
3653.800457609003
 31
0.0
 70
    32
 71
     5
 42
-1.0
 73
     0
 74
     0
 75
     0
  3
IGA
100
AcDbAlignedDimension
 13
3671.156955993238
 23
2986.800457609003
 33
0.0
 14
3749.59349424209
 24
4320.800457609002
 34
0.0
 50
270.0
100
AcDbRotatedDimension
1001
ACAD
1000
DSTYLE
1002
{
1070
   287
1070
     3
1070
    40
1040
40.0
1070
   143
1040
0.039
1070
   172
1070
     1
1070
   271
1070
     0
1070
   279
1070
     0
1070
   288
1070
     1
1002
}
  0
CIRCLE
  5
7CE0
330
19
100
AcDbEntity
  8
1
100
AcDbCircle
 10
1226.156955993238
 20
3275.800457609002
 30
0.0
 40
107.0
  0
POINT
  5
7CE1
330
19
100
AcDbEntity
  8
1
100
AcDbPoint
 10
3596.156955993238
 20
2785.800457609003
 30
0.0
  0
POINT
  5
7CE2
330
19
100
AcDbEntity
  8
1
100
AcDbPoint
 10
3596.156955993238
 20
2890.800457609003
 30
0.0
  0
POINT
  5
7CE3
330
19
100
AcDbEntity
  8
1
100
AcDbPoint
 10
3596.156955993238
 20
2785.800457609003
 30
0.0
  0
ARC
  5
7CE5
330
19
100
AcDbEntity
  8
1
100
AcDbCircle
 10
2846.156955993238
 20
4320.800457609002
 30
0.0
 40
625.0
100
AcDbArc
 50
0.0
 51
180.0
  0
ARC
  5
7CE6
330
19
100
AcDbEntity
  8
1
100
AcDbCircle
 10
2846.156955993238
 20
4320.800457609002
 30
0.0
 40
675.0
100
AcDbArc
 50
0.0
 51
180.0
  0
ARC
  5
7CE7
330
19
100
AcDbEntity
  8
1
100
AcDbCircle
 10
2846.156955993238
 20
4320.800457609002
 30
0.0
 40
625.0
100
AcDbArc
 50
180.0
 51
0.0
  0
ARC
  5
7CE8
330
19
100
AcDbEntity
  8
1
100
AcDbCircle
 10
2846.156955993238
 20
4320.800457609002
 30
0.0
 40
675.0
100
AcDbArc
 50
180.0
 51
0.0
  0
DIMENSION
  5
7CE9
330
19
100
AcDbEntity
  8
3
100
AcDbDimension
280
     0
  2
*D15
 10
2846.156955993238
 20
2366.861166084105
 30
0.0
 11
1896.156955993238
 21
2466.861166084105
 31
0.0
 70
    32
 71
     5
 42
1900.0
 73
     0
 74
     0
 75
     0
  3
IGA
100
AcDbAlignedDimension
 13
946.1569559932376
 23
2710.800457609003
 33
0.0
 14
2846.156955993238
 24
2710.800457609003
 34
0.0
100
AcDbRotatedDimension
1001
ACAD
1000
DSTYLE
1002
{
1070
   287
1070
     3
1070
    40
1040
40.0
1070
   143
1040
0.039
1070
   172
1070
     1
1070
   271
1070
     0
1070
   279
1070
     0
1070
   288
1070
     1
1002
}
  0
CIRCLE
  5
7CEB
330
19
100
AcDbEntity
  8
1
100
AcDbCircle
 10
2846.156955993238
 20
4320.800457609002
 30
0.0
 40
254.0
  0
POINT
  5
7CEC
330
19
100
AcDbEntity
  8
1
100
AcDbPoint
 10
3596.156955993238
 20
2785.800457609003
 30
0.0
  0
POINT
  5
7CEE
330
19
100
AcDbEntity
  8
1
100
AcDbPoint
 10
3596.156955993238
 20
2785.800457609003
 30
0.0
  0
POINT
  5
7CEF
330
19
100
AcDbEntity
  8
1
100
AcDbPoint
 10
3596.156955993238
 20
2890.800457609003
 30
0.0
  0
ARC
  5
7CF0
330
19
100
AcDbEntity
  8
1
100
AcDbCircle
 10
2846.156955993238
 20
4320.800457609002
 30
0.0
 40
743.0
100
AcDbArc
 50
355.8321636778381
 51
2.896908041025934
  0
INSERT
  5
7CF1
330
19
100
AcDbEntity
  8
1
100
AcDbBlockReference
  2
YA_N
 10
15253.43467482128
 20
473.2708936064664
 30
0.0
  0
ARC
  5
7CF3
330
19
100
AcDbEntity
  8
1
100
AcDbCircle
 10
2846.156955993238
 20
4320.800457609002
 30
0.0
 40
380.0
100
AcDbArc
 50
301.1431341389923
 51
131.5567209314937
  0
ARC
  5
7CF4
330
19
100
AcDbEntity
  8
1
100
AcDbCircle
 10
1226.156955993238
 20
3275.800457609002
 30
0.0
 40
220.0
100
AcDbArc
 50
131.5567209314936
 51
301.1431341389923
  0
LINE
  5
7CF5
330
19
100
AcDbEntity
  8
1
100
AcDbLine
 10
2594.079713348567
 20
4605.154222733819
 30
0.0
 11
1080.217499725269
 21
3440.426321628633
 31
0.0
  0
LINE
  5
7CF6
330
19
100
AcDbEntity
  8
1
100
AcDbLine
 10
2679.07463294789
 20
4512.110408541436
 30
0.0
 11
1155.771882899331
 21
3356.391657411248
 31
0.0
  0
LINE
  5
7CF7
330
19
100
AcDbEntity
  8
1
100
AcDbLine
 10
2979.125565501987
 20
4104.385696362664
 30
0.0
 11
1282.171291494955
 21
3184.633609367435
 31
0.0
  0
LINE
  5
7CF8
330
19
100
AcDbEntity
  8
1
100
AcDbLine
 10
3042.684523159171
 20
3995.566825670607
 30
0.0
 11
1339.936073826146
 21
3087.507302276247
 31
0.0
  0
DIMENSION
  5
7CF9
330
19
100
AcDbEntity
  8
3
100
AcDbDimension
280
     0
  2
*D16
 10
2846.156955993238
 20
5485.312615694231
 30
0.0
 11
2308.429084574184
 21
5585.312615694231
 31
0.0
 70
    32
  1
1079
 71
     5
 42
-1.0
 73
     0
 74
     0
 75
     0
  3
IGA
100
AcDbAlignedDimension
 13
1770.701213155131
 23
4320.800457609002
 33
0.0
 14
2846.156955993238
 24
5399.935007000528
 34
0.0
100
AcDbRotatedDimension
1001
ACAD
1000
DSTYLE
1002
{
1070
   287
1070
     3
1070
    40
1040
40.0
1070
   143
1040
0.039
1070
   172
1070
     1
1070
   271
1070
     0
1070
   279
1070
     0
1070
   288
1070
     1
1002
}
  0
DIMENSION
  5
7CFA
330
19
100
AcDbEntity
  8
3
100
AcDbDimension
280
     0
  2
*D17
 10
3671.156955993238
 20
5485.312615694231
 30
0.0
 11
3258.656955993238
 21
5585.312615694231
 31
0.0
 70
    32
 71
     5
 42
-1.0
 73
     0
 74
     0
 75
     0
  3
IGA
100
AcDbAlignedDimension
 13
2846.156955993238
 23
5399.935007000528
 33
0.0
 14
3671.156955993238
 24
4319.800457609002
 34
0.0
100
AcDbRotatedDimension
1001
ACAD
1000
DSTYLE
1002
{
1070
   287
1070
     3
1070
    40
1040
40.0
1070
   143
1040
0.039
1070
   172
1070
     1
1070
   271
1070
     0
1070
   279
1070
     0
1070
   288
1070
     1
1002
}
  0
DIMENSION
  5
7CFB
330
19
100
AcDbEntity
  8
3
100
AcDbDimension
280
     0
  2
*D18
 10
4422.346544791297
 20
2890.800457609003
 30
0.0
 11
4322.346544791296
 21
3605.800457609003
 31
0.0
 70
    32
 71
     5
 42
-1.0
 73
     0
 74
     0
 75
     0
  3
IGA
100
AcDbAlignedDimension
 13
3749.59349424209
 23
4320.800457609002
 33
0.0
 14
3596.156955993238
 24
2890.800457609003
 34
0.0
 50
90.0
100
AcDbRotatedDimension
1001
ACAD
1000
DSTYLE
1002
{
1070
   287
1070
     3
1070
    40
1040
40.0
1070
   143
1040
0.039
1070
   172
1070
     1
1070
   271
1070
     0
1070
   279
1070
     0
1070
   288
1070
     1
1002
}
  0
POINT
  5
7CFC
330
19
100
AcDbEntity
  8
1
100
AcDbPoint
 10
3596.156955993238
 20
2785.800457609003
 30
0.0
  0
POINT
  5
7CFE
330
19
100
AcDbEntity
  8
1
100
AcDbPoint
 10
3596.156955993238
 20
2785.800457609003
 30
0.0
  0
POINT
  5
7CFF
330
19
100
AcDbEntity
  8
1
100
AcDbPoint
 10
3596.156955993238
 20
2890.800457609003
 30
0.0
  0
LINE
  5
7D00
330
19
100
AcDbEntity
  8
1
100
AcDbLine
 10
5391.092839011054
 20
5217.800457609002
 30
0.0
 11
7091.092839011053
 21
5217.800457609002
 31
0.0
  0
LINE
  5
7D05
330
19
100
AcDbEntity
  8
1
100
AcDbLine
 10
5391.092839011053
 20
4266.800457609003
 30
0.0
 11
7091.092839011053
 21
4266.800457609003
 31
0.0
  0
LINE
  5
7D06
330
19
100
AcDbEntity
  8
1
100
AcDbLine
 10
7091.092839011053
 20
4266.800457609003
 30
0.0
 11
5391.092839011053
 21
2986.800457609003
 31
0.0
  0
LINE
  5
7D07
330
19
100
AcDbEntity
  8
1
100
AcDbLine
 10
7091.092839011054
 20
2986.800457609003
 30
0.0
 11
5391.092839011053
 21
4266.800457609003
 31
0.0
  0
DIMENSION
  5
7D0C
330
19
100
AcDbEntity
  8
3
100
AcDbDimension
280
     0
  2
*D19
 10
4422.346544791297
 20
2710.800457609003
 30
0.0
 11
4322.346544791296
 21
2413.657600466146
 31
0.0
 70
    32
 71
     5
 42
75.0
 73
     0
 74
     0
 75
     0
  3
IGA
100
AcDbAlignedDimension
 13
3596.156955993238
 23
2785.800457609003
 33
0.0
 14
3596.156955993238
 24
2710.800457609003
 34
0.0
 50
90.0
100
AcDbRotatedDimension
1001
ACAD
1000
DSTYLE
1002
{
1070
   287
1070
     3
1070
    40
1040
40.0
1070
   143
1040
0.039
1070
   172
1070
     1
1070
   271
1070
     0
1070
   279
1070
     0
1070
   288
1070
     1
1070
     6
1000
DOT
1002
}
  0
LINE
  5
7D0D
330
19
100
AcDbEntity
  8
1
100
AcDbLine
 10
7091.092839011055
 20
2986.800457609003
 30
0.0
 11
5391.092839011054
 21
2986.800457609003
 31
0.0
  0
LINE
  5
7D0F
330
19
100
AcDbEntity
  8
1
100
AcDbLine
 10
7091.092839011055
 20
3015.800457609003
 30
0.0
 11
7170.092839011054
 21
3015.800457609003
 31
0.0
  0
LINE
  5
807E
330
19
100
AcDbEntity
  8
4
100
AcDbLine
 10
7400.0
 20
1593.175156594414
 30
0.0
 11
7400.0
 21
793.1751565944141
 31
0.0
  0
LINE
  5
807F
330
19
100
AcDbEntity
  8
4
100
AcDbLine
 10
4600.0
 20
1593.175156594414
 30
0.0
 11
4600.0
 21
793.1751565944141
 31
0.0
  0
LINE
  5
8080
330
19
100
AcDbEntity
  8
4
100
AcDbLine
 10
2600.0
 20
1593.175156594414
 30
0.0
 11
2600.0
 21
793.1751565944141
 31
0.0
  0
LINE
  5
8083
330
19
100
AcDbEntity
  8
4
100
AcDbLine
 10
2600.0
 20
793.1751565944141
 30
0.0
 11
7400.0
 21
793.1751565944141
 31
0.0
  0
LINE
  5
8084
330
19
100
AcDbEntity
  8
4
100
AcDbLine
 10
2600.0
 20
1193.175156594414
 30
0.0
 11
7400.0
 21
1193.175156594414
 31
0.0
  0
TEXT
  5
8085
330
19
100
AcDbEntity
  8
4
100
AcDbText
 10
2754.008323387607
 20
1319.347260060866
 30
0.0
 40
200.0
  1
機器名称
100
AcDbText
  0
TEXT
  5
8086
330
19
100
AcDbEntity
  8
4
100
AcDbText
 10
2745.032424099191
 20
879.7557835224578
 30
0.0
 40
200.0
  1
機器型番
100
AcDbText
  0
TEXT
  5
8087
330
19
100
AcDbEntity
  8
4
100
AcDbText
 10
4711.644275701795
 20
1283.025679752749
 30
0.0
 40
170.0
  1
ミツヤリミットロードファン
100
AcDbText
  0
TEXT
  5
8088
330
19
100
AcDbEntity
  8
4
100
AcDbText
 10
4746.617982341923
 20
861.8134937141876
 30
0.0
 40
200.0
  1
LL#8-5
100
AcDbText
  0
TEXT
  5
808A
330
19
100
AcDbEntity
  8
4
100
AcDbText
 10
3150.362428668938
 20
9511.40912933649
 30
0.0
 40
216.0
  1
床置防振ベット
100
AcDbText
  0
TEXT
  5
808B
330
19
100
AcDbEntity
  8
4
100
AcDbText
 10
1264.670373317785
 20
10135.52390479719
 30
0.0
 40
288.0
  1
遠心式両吸込両持リミットロードファン
100
AcDbText
  0
LINE
  5
808C
330
19
100
AcDbEntity
  8
4
100
AcDbLine
 10
1000.0
 20
9877.635017059219
 30
0.0
 11
7400.0
 21
9877.635017059219
 31
0.0
  0
LINE
  5
808D
330
19
100
AcDbEntity
  8
4
100
AcDbLine
 10
1000.0
 20
10677.63501705922
 30
0.0
 11
7400.0
 21
10677.63501705922
 31
0.0
  0
LINE
  5
808E
330
19
100
AcDbEntity
  8
4
100
AcDbLine
 10
2600.0
 20
1593.175156594414
 30
0.0
 11
7400.0
 21
1593.175156594414
 31
0.0
  0
LINE
  5
808F
330
19
100
AcDbEntity
  8
4
100
AcDbLine
 10
1000.0
 20
10677.63501705922
 30
0.0
 11
1000.0
 21
9877.635017059219
 31
0.0
  0
TEXT
  5
8090
330
19
100
AcDbEntity
  8
4
100
AcDbText
 10
1406.927099698128
 20
9506.971674191801
 30
0.0
 40
216.0
  1
左回転右横向
100
AcDbText
  0
TEXT
  5
8091
330
19
100
AcDbEntity
  8
4
100
AcDbText
 10
5875.878236997159
 20
10824.24432598123
 30
0.0
 40
224.0
  1
No.
100
AcDbText
  0
TEXT
  5
8092
330
19
100
AcDbEntity
  8
4
100
AcDbText
 10
5245.184250400052
 20
9533.715365330063
 30
0.0
 40
216.0
  1
縮尺：1/40
100
AcDbText
  0
LINE
  5
8093
330
19
100
AcDbEntity
  8
4
100
AcDbLine
 10
7400.0
 20
10677.63501705922
 30
0.0
 11
7400.0
 21
9877.635017059219
 31
0.0
  0
LINE
  5
8094
330
19
100
AcDbEntity
  8
4
100
AcDbLine
 10
8400.0
 20
11800.0
 30
0.0
 11
8400.0
 21
11800.0
 31
0.0
  0
LINE
  5
8095
330
19
100
AcDbEntity
  8
4
100
AcDbLine
 10
5762.469689439458
 20
10725.0543325016
 30
0.0
 11
5762.469689439458
 21
11146.60904619901
 31
0.0
  0
LINE
  5
8096
330
19
100
AcDbEntity
  8
4
100
AcDbLine
 10
5762.469689439458
 20
11146.60904619901
 30
0.0
 11
7400.0
 21
11146.60904619901
 31
0.0
  0
LINE
  5
8097
330
19
100
AcDbEntity
  8
4
100
AcDbLine
 10
7400.0
 20
11146.60904619901
 30
0.0
 11
7400.0
 21
10725.0543325016
 31
0.0
  0
LINE
  5
8098
330
19
100
AcDbEntity
  8
4
100
AcDbLine
 10
7400.0
 20
10725.0543325016
 30
0.0
 11
5762.469689439458
 21
10725.0543325016
 31
0.0
  0
LINE
  5
8099
330
19
100
AcDbEntity
  8
4
100
AcDbLine
 10
0.0
 20
0.0
 30
0.0
 11
0.0
 21
11800.0
 31
0.0
  0
LINE
  5
809A
330
19
100
AcDbEntity
  8
4
100
AcDbLine
 10
0.0
 20
11800.0
 30
0.0
 11
8400.0
 21
11800.0
 31
0.0
  0
LINE
  5
809B
330
19
100
AcDbEntity
  8
4
100
AcDbLine
 10
8400.0
 20
11800.0
 30
0.0
 11
8400.0
 21
0.0
 31
0.0
  0
LINE
  5
809C
330
19
100
AcDbEntity
  8
4
100
AcDbLine
 10
8400.0
 20
0.0
 30
0.0
 11
0.0
 21
0.0
 31
0.0
  0
DIMENSION
  5
8133
330
19
100
AcDbEntity
  8
3
100
AcDbDimension
280
     0
  2
*D22
 10
946.1569559932378
 20
5738.269218418995
 30
0.0
 11
2547.044332332764
 21
5738.269218418995
 31
0.0
 70
   160
 71
     5
 42
-1.0
 73
     0
 74
     0
 75
     0
  3
IGA
100
AcDbAlignedDimension
 13
3671.156955993238
 23
4319.800457609002
 33
0.0
 14
946.1569559932376
 24
3015.800457609003
 34
0.0
100
AcDbRotatedDimension
1001
ACAD
1000
DSTYLE
1002
{
1070
   287
1070
     3
1070
    40
1040
40.0
1070
   143
1040
0.039
1070
   172
1070
     1
1070
   271
1070
     0
1070
   279
1070
     0
1070
   288
1070
     1
1002
}
  0
LINE
  5
8283
330
19
100
AcDbEntity
  8
1
100
AcDbLine
 10
5376.092839011052
 20
4104.800457609001
 30
0.0
 11
5376.092839011052
 21
4254.800457609002
 31
0.0
  0
LINE
  5
8284
330
19
100
AcDbEntity
  8
1
100
AcDbLine
 10
7118.092839011052
 20
4104.800457609002
 30
0.0
 11
7118.092839011052
 21
4254.800457609003
 31
0.0
  0
DIMENSION
  5
8292
330
19
100
AcDbEntity
  8
3
100
AcDbDimension
280
     0
  2
*D23
 10
4423.162690461969
 20
4320.800457609002
 30
0.0
 11
4323.162690461969
 21
4769.300457609002
 31
0.0
 70
    32
 71
     5
 42
-1.0
 73
     0
 74
     0
 75
     0
  3
IGA
100
AcDbAlignedDimension
 13
2755.156955993238
 23
5217.800457609002
 33
0.0
 14
3683.677800684858
 24
4320.800457609002
 34
0.0
 50
90.0
100
AcDbRotatedDimension
1001
ACAD
1000
DSTYLE
1002
{
1070
   172
1070
     1
1070
    40
1040
40.0
1070
   271
1070
     0
1070
   143
1040
0.039
1002
}
  0
DIMENSION
  5
82B9
330
19
100
AcDbEntity
  8
3
100
AcDbDimension
280
     0
  2
*D25
 10
4422.971272309791
 20
2890.800457609003
 30
0.0
 11
4558.288066079309
 21
2838.300457609003
 31
0.0
 70
   160
  1
   <>
 71
     5
 42
105.0
 73
     0
 74
     0
 75
     0
  3
IGA
100
AcDbAlignedDimension
 13
3596.156955993238
 23
2785.800457609003
 33
0.0
 14
3596.156955993238
 24
2890.800457609003
 34
0.0
 50
90.0
100
AcDbRotatedDimension
1001
ACAD
1000
DSTYLE
1002
{
1070
     3
1000
(<>)
1070
    40
1040
40.0
1070
    75
1070
     1
1070
    76
1070
     1
1070
   143
1040
0.039
1070
   172
1070
     1
1070
   271
1070
     0
1070
   343
1005
8293
1070
   344
1005
8293
1002
}
  0
DIMENSION
  5
82C6
330
19
100
AcDbEntity
  8
3
100
AcDbDimension
280
     0
  2
*D26
 10
4753.896733745765
 20
2710.800457609003
 30
0.0
 11
4622.468162317193
 21
3964.300457609003
 31
0.0
 70
    32
 71
     5
 42
2507.0
 73
     0
 74
     0
 75
     0
  3
IGA
100
AcDbAlignedDimension
 13
2775.156955993238
 23
5217.800457609002
 33
0.0
 14
3596.156955993238
 24
2710.800457609003
 34
0.0
 50
90.0
100
AcDbRotatedDimension
1001
ACAD
1000
DSTYLE
1002
{
1070
   172
1070
     1
1070
    40
1040
40.0
1070
     3
1000
(<>)
1070
   271
1070
     0
1070
   143
1040
0.039
1002
}
  0
ENDSEC
  0
SECTION
  2
OBJECTS
  0
DICTIONARY
  5
C
330
0
100
AcDbDictionary
281
     1
  3
ACAD_CIP_PREVIOUS_PRODUCT_INFO
350
842E
  3
ACAD_COLOR
350
8411
  3
ACAD_DETAILVIEWSTYLE
350
842A
  3
ACAD_GROUP
350
D
  3
ACAD_LAYOUT
350
82E8
  3
ACAD_MATERIAL
350
83DF
  3
ACAD_MLEADERSTYLE
350
8426
  3
ACAD_MLINESTYLE
350
E
  3
ACAD_PLOTSETTINGS
350
82E9
  3
ACAD_PLOTSTYLENAME
350
82E6
  3
ACAD_SCALELIST
350
8414
  3
ACAD_SECTIONVIEWSTYLE
350
8428
  3
ACAD_TABLESTYLE
350
8412
  3
ACAD_VISUALSTYLE
350
83F8
  3
ACDB_RECOMPOSE_DATA
350
84DC
  3
AcDbVariableDictionary
350
83D6
  3
AcDsDecomposeData
350
84E2
  0
DICTIONARY
  5
84C0
330
2
100
AcDbDictionary
280
     1
281
     1
  3
ACAD_LAYERSTATES
360
84C1
  0
DICTIONARY
  5
84B3
330
F
100
AcDbDictionary
280
     1
281
     1
  3
ADSK_XREC_LAYER_RECONCILED
360
84B4
  0
DICTIONARY
  5
84B5
330
31
100
AcDbDictionary
280
     1
281
     1
  3
ADSK_XREC_LAYER_RECONCILED
360
84B6
  0
DICTIONARY
  5
84B7
330
76D0
100
AcDbDictionary
280
     1
281
     1
  3
ADSK_XREC_LAYER_RECONCILED
360
84B8
  0
DICTIONARY
  5
84B9
330
76D1
100
AcDbDictionary
280
     1
281
     1
  3
ADSK_XREC_LAYER_RECONCILED
360
84BA
  0
DICTIONARY
  5
84BB
330
76D2
100
AcDbDictionary
280
     1
281
     1
  3
ADSK_XREC_LAYER_RECONCILED
360
84BC
  0
DICTIONARY
  5
8315
330
19
100
AcDbDictionary
280
     1
281
     1
  3
ACAD_LAYOUTSELFREF
360
8316
  0
DICTIONARY
  5
8313
330
16
100
AcDbDictionary
280
     1
281
     1
  3
ACAD_LAYOUTSELFREF
360
8314
  0
XRECORD
  5
842E
102
{ACAD_REACTORS
330
C
102
}
330
C
100
AcDbXrecord
280
     1
300
ACDLT
300
2023
300

  0
DICTIONARY
  5
8411
102
{ACAD_REACTORS
330
C
102
}
330
C
100
AcDbDictionary
281
     1
  0
DICTIONARY
  5
842A
102
{ACAD_REACTORS
330
C
102
}
330
C
100
AcDbDictionary
281
     1
  3
Metric50
350
842B
  0
DICTIONARY
  5
D
102
{ACAD_REACTORS
330
C
102
}
330
C
100
AcDbDictionary
281
     1
  0
DICTIONARY
  5
82E8
102
{ACAD_REACTORS
330
C
102
}
330
C
100
AcDbDictionary
281
     1
  3
Model
350
82EA
  3
ﾚｲｱｳﾄ1
350
82EB
  0
DICTIONARY
  5
83DF
102
{ACAD_REACTORS
330
C
102
}
330
C
100
AcDbDictionary
281
     1
  3
ByBlock
350
83E8
  3
ByLayer
350
83E0
  3
Global
350
83F0
  0
DICTIONARY
  5
8426
102
{ACAD_REACTORS
330
C
102
}
330
C
100
AcDbDictionary
281
     1
  3
Standard
350
8427
  0
DICTIONARY
  5
E
102
{ACAD_REACTORS
330
C
102
}
330
C
100
AcDbDictionary
281
     1
  3
STANDARD
350
1C
  0
DICTIONARY
  5
82E9
102
{ACAD_REACTORS
330
C
102
}
330
C
100
AcDbDictionary
281
     1
  0
ACDBDICTIONARYWDFLT
  5
82E6
102
{ACAD_REACTORS
330
C
102
}
330
C
100
AcDbDictionary
281
     1
  3
Normal
350
82E7
100
AcDbDictionaryWithDefault
340
82E7
  0
DICTIONARY
  5
8414
102
{ACAD_REACTORS
330
C
102
}
330
C
100
AcDbDictionary
281
     1
  3
A0
350
8415
  3
A1
350
8416
  3
A2
350
8417
  3
A3
350
8418
  3
A4
350
8419
  3
A5
350
841A
  3
A6
350
841B
  3
A7
350
841C
  3
A8
350
841D
  3
A9
350
841E
  3
B0
350
841F
  3
B1
350
8420
  3
B2
350
8421
  3
B3
350
8422
  3
B4
350
8423
  3
B5
350
8424
  3
B6
350
8425
  0
DICTIONARY
  5
8428
102
{ACAD_REACTORS
330
C
102
}
330
C
100
AcDbDictionary
281
     1
  3
Metric50
350
8429
  0
DICTIONARY
  5
8412
102
{ACAD_REACTORS
330
C
102
}
330
C
100
AcDbDictionary
281
     1
  3
Standard
350
8413
  0
DICTIONARY
  5
83F8
102
{ACAD_REACTORS
330
C
102
}
330
C
100
AcDbDictionary
281
     1
  3
2dWireframe
350
83FE
  3
Basic
350
83FD
  3
Brighten
350
8404
  3
ColorChange
350
8408
  3
Conceptual
350
8401
  3
Dim
350
8403
  3
EdgeColorOff
350
8410
  3
Facepattern
350
8407
  3
Flat
350
83F9
  3
FlatWithEdges
350
83FA
  3
Gouraud
350
83FB
  3
GouraudWithEdges
350
83FC
  3
Hidden
350
8400
  3
JitterOff
350
840E
  3
Linepattern
350
8406
  3
OverhangOff
350
840F
  3
Realistic
350
8402
  3
Shaded
350
840D
  3
Shaded with edges
350
840C
  3
Shades of Gray
350
8409
  3
Sketchy
350
840A
  3
Thicken
350
8405
  3
Wireframe
350
83FF
  3
X-Ray
350
840B
  0
XRECORD
  5
84DC
102
{ACAD_REACTORS
330
C
102
}
330
C
100
AcDbXrecord
280
     1
 90
        1
330
8413
  0
DICTIONARY
  5
83D6
102
{ACAD_REACTORS
330
C
102
}
330
C
100
AcDbDictionary
281
     1
  3
CANNOSCALE
350
84D1
  3
CMLEADERSTYLE
350
84CD
  3
CTABLESTYLE
350
84CC
  3
CVIEWDETAILSTYLE
350
84CE
  3
CVIEWSECTIONSTYLE
350
84CF
  3
DIMASSOC
350
83D7
  3
LAYEREVAL
350
84D3
  3
LAYERNOTIFY
350
84D4
  3
LIGHTINGUNITS
350
84D2
  3
MARKUPASSISTMODE
350
84D9
  3
MSLTSCALE
350
84D0
  0
DICTIONARY
  5
84E2
102
{ACAD_REACTORS
330
C
102
}
330
C
100
AcDbDictionary
281
     1
  3
AcDsRecords
350
84E4
  3
AcDsSchemas
350
84E3
1001
ACAD
1070
     2
  0
DICTIONARY
  5
84C1
102
{ACAD_REACTORS
330
84C0
102
}
330
84C0
100
AcDbDictionary
281
     1
  0
XRECORD
  5
84B4
102
{ACAD_REACTORS
330
84B3
102
}
330
84B3
100
AcDbXrecord
280
     1
290
     1
  0
XRECORD
  5
84B6
102
{ACAD_REACTORS
330
84B5
102
}
330
84B5
100
AcDbXrecord
280
     1
290
     1
  0
XRECORD
  5
84B8
102
{ACAD_REACTORS
330
84B7
102
}
330
84B7
100
AcDbXrecord
280
     1
290
     1
  0
XRECORD
  5
84BA
102
{ACAD_REACTORS
330
84B9
102
}
330
84B9
100
AcDbXrecord
280
     1
290
     1
  0
XRECORD
  5
84BC
102
{ACAD_REACTORS
330
84BB
102
}
330
84BB
100
AcDbXrecord
280
     1
290
     1
  0
XRECORD
  5
8316
102
{ACAD_REACTORS
330
8315
102
}
330
8315
100
AcDbXrecord
280
     1
340
19
  0
XRECORD
  5
8314
102
{ACAD_REACTORS
330
8313
102
}
330
8313
100
AcDbXrecord
280
     1
340
16
  0
ACDBDETAILVIEWSTYLE
  5
842B
102
{ACAD_XDICTIONARY
360
84E7
102
}
102
{ACAD_REACTORS
330
842A
102
}
330
842A
100
AcDbModelDocViewStyle
 70
     0
  3
Metric50
290
     0
100
AcDbDetailViewStyle
 70
     0
 71
     0
 90
        3
 71
     1
340
10
 62
   256
 40
5.0
340
0
 62
   256
 40
5.0
300

 40
0.0
280
     1
 71
     2
340
15
 90
       25
 62
   256
 71
     3
340
10
 62
   256
 40
5.0
 90
        0
 40
15.0
 90
        1
300
%<\AcVar ViewDetailId>% (%<\AcVar ViewScale \f "%sn">%)
 71
     4
340
15
 90
       25
 62
   256
340
15
 90
       25
 62
   256
280
     0
  0
LAYOUT
  5
82EA
102
{ACAD_REACTORS
330
82E8
102
}
330
82E8
100
AcDbPlotSettings
  1

  2
\\Txbo34x8944cqyd\EPSON LP-6100
  4

  6

 40
0.0
 41
0.0
 42
0.0
 43
0.0
 44
0.0
 45
0.0
 46
0.0
 47
0.0
 48
0.0
 49
0.0
140
0.0
141
0.0
142
1.0
143
1.0
 70
  1712
 72
     0
 73
     0
 74
     0
  7
GOD2000TABLE.ctb
 75
     0
147
1.0
 76
     0
 77
     2
 78
   300
148
0.0
149
0.0
100
AcDbLayout
  1
Model
 70
     1
 71
     0
 10
0.0
 20
0.0
 11
12.0
 21
9.0
 12
0.0
 22
0.0
 32
0.0
 14
0.0
 24
0.0
 34
0.0
 15
0.0
 25
0.0
 35
0.0
146
0.0
 13
0.0
 23
0.0
 33
0.0
 16
1.0
 26
0.0
 36
0.0
 17
0.0
 27
1.0
 37
0.0
 76
     0
330
19
331
83DD
  0
LAYOUT
  5
82EB
102
{ACAD_REACTORS
330
82E8
102
}
330
82E8
100
AcDbPlotSettings
  1

  2
\\Txbo34x8944cqyd\EPSON LP-6100
  4

  6

 40
0.0
 41
0.0
 42
0.0
 43
0.0
 44
0.0
 45
0.0
 46
0.0
 47
0.0
 48
0.0
 49
0.0
140
0.0
141
0.0
142
1.0
143
1.0
 70
   688
 72
     0
 73
     0
 74
     5
  7
GOD2000TABLE.ctb
 75
    16
147
1.0
 76
     0
 77
     2
 78
   300
148
0.0
149
0.0
100
AcDbLayout
  1
ﾚｲｱｳﾄ1
 70
     1
 71
     1
 10
0.0
 20
0.0
 11
12.0
 21
9.0
 12
0.0
 22
0.0
 32
0.0
 14
1.000000000000000E+20
 24
1.000000000000000E+20
 34
1.000000000000000E+20
 15
-1.000000000000000E+20
 25
-1.000000000000000E+20
 35
-1.000000000000000E+20
146
0.0
 13
0.0
 23
0.0
 33
0.0
 16
1.0
 26
0.0
 36
0.0
 17
0.0
 27
1.0
 37
0.0
 76
     0
330
16
  0
MATERIAL
  5
83E8
102
{ACAD_XDICTIONARY
360
83E9
102
}
102
{ACAD_REACTORS
330
83DF
102
}
330
83DF
100
AcDbMaterial
  1
ByBlock
 72
     0
 43
0.0208333333333333
 43
0.0
 43
0.0
 43
0.0
 43
0.0
 43
0.0208333333333333
 43
0.0
 43
0.0
 43
0.0
 43
0.0
 43
1.0
 43
0.0
 43
0.0
 43
0.0
 43
0.0
 43
1.0
 77
     0
 47
0.0208333333333333
 47
0.0
 47
0.0
 47
0.0
 47
0.0
 47
0.0208333333333333
 47
0.0
 47
0.0
 47
0.0
 47
0.0
 47
1.0
 47
0.0
 47
0.0
 47
0.0
 47
0.0
 47
1.0
171
     0
 49
0.0208333333333333
 49
0.0
 49
0.0
 49
0.0
 49
0.0
 49
0.0208333333333333
 49
0.0
 49
0.0
 49
0.0
 49
0.0
 49
1.0
 49
0.0
 49
0.0
 49
0.0
 49
0.0
 49
1.0
175
     0
142
0.0208333333333333
142
0.0
142
0.0
142
0.0
142
0.0
142
0.0208333333333333
142
0.0
142
0.0
142
0.0
142
0.0
142
1.0
142
0.0
142
0.0
142
0.0
142
0.0
142
1.0
179
     0
144
0.0208333333333333
144
0.0
144
0.0
144
0.0
144
0.0
144
0.0208333333333333
144
0.0
144
0.0
144
0.0
144
0.0
144
1.0
144
0.0
144
0.0
144
0.0
144
0.0
144
1.0
147
0.0208333333333333
147
0.0
147
0.0
147
0.0
147
0.0
147
0.0208333333333333
147
0.0
147
0.0
147
0.0
147
0.0
147
1.0
147
0.0
147
0.0
147
0.0
147
0.0
147
1.0
  0
MATERIAL
  5
83E0
102
{ACAD_XDICTIONARY
360
83E1
102
}
102
{ACAD_REACTORS
330
83DF
102
}
330
83DF
100
AcDbMaterial
  1
ByLayer
 72
     0
 43
0.0208333333333333
 43
0.0
 43
0.0
 43
0.0
 43
0.0
 43
0.0208333333333333
 43
0.0
 43
0.0
 43
0.0
 43
0.0
 43
1.0
 43
0.0
 43
0.0
 43
0.0
 43
0.0
 43
1.0
 77
     0
 47
0.0208333333333333
 47
0.0
 47
0.0
 47
0.0
 47
0.0
 47
0.0208333333333333
 47
0.0
 47
0.0
 47
0.0
 47
0.0
 47
1.0
 47
0.0
 47
0.0
 47
0.0
 47
0.0
 47
1.0
171
     0
 49
0.0208333333333333
 49
0.0
 49
0.0
 49
0.0
 49
0.0
 49
0.0208333333333333
 49
0.0
 49
0.0
 49
0.0
 49
0.0
 49
1.0
 49
0.0
 49
0.0
 49
0.0
 49
0.0
 49
1.0
175
     0
142
0.0208333333333333
142
0.0
142
0.0
142
0.0
142
0.0
142
0.0208333333333333
142
0.0
142
0.0
142
0.0
142
0.0
142
1.0
142
0.0
142
0.0
142
0.0
142
0.0
142
1.0
179
     0
144
0.0208333333333333
144
0.0
144
0.0
144
0.0
144
0.0
144
0.0208333333333333
144
0.0
144
0.0
144
0.0
144
0.0
144
1.0
144
0.0
144
0.0
144
0.0
144
0.0
144
1.0
147
0.0208333333333333
147
0.0
147
0.0
147
0.0
147
0.0
147
0.0208333333333333
147
0.0
147
0.0
147
0.0
147
0.0
147
1.0
147
0.0
147
0.0
147
0.0
147
0.0
147
1.0
  0
MATERIAL
  5
83F0
102
{ACAD_XDICTIONARY
360
83F1
102
}
102
{ACAD_REACTORS
330
83DF
102
}
330
83DF
100
AcDbMaterial
  1
Global
 72
     0
 43
0.0208333333333333
 43
0.0
 43
0.0
 43
0.0
 43
0.0
 43
0.0208333333333333
 43
0.0
 43
0.0
 43
0.0
 43
0.0
 43
1.0
 43
0.0
 43
0.0
 43
0.0
 43
0.0
 43
1.0
 77
     0
 47
0.0208333333333333
 47
0.0
 47
0.0
 47
0.0
 47
0.0
 47
0.0208333333333333
 47
0.0
 47
0.0
 47
0.0
 47
0.0
 47
1.0
 47
0.0
 47
0.0
 47
0.0
 47
0.0
 47
1.0
171
     0
 49
0.0208333333333333
 49
0.0
 49
0.0
 49
0.0
 49
0.0
 49
0.0208333333333333
 49
0.0
 49
0.0
 49
0.0
 49
0.0
 49
1.0
 49
0.0
 49
0.0
 49
0.0
 49
0.0
 49
1.0
175
     0
142
0.0208333333333333
142
0.0
142
0.0
142
0.0
142
0.0
142
0.0208333333333333
142
0.0
142
0.0
142
0.0
142
0.0
142
1.0
142
0.0
142
0.0
142
0.0
142
0.0
142
1.0
179
     0
144
0.0208333333333333
144
0.0
144
0.0
144
0.0
144
0.0
144
0.0208333333333333
144
0.0
144
0.0
144
0.0
144
0.0
144
1.0
144
0.0
144
0.0
144
0.0
144
0.0
144
1.0
147
0.0208333333333333
147
0.0
147
0.0
147
0.0
147
0.0
147
0.0208333333333333
147
0.0
147
0.0
147
0.0
147
0.0
147
1.0
147
0.0
147
0.0
147
0.0
147
0.0
147
1.0
  0
MLEADERSTYLE
  5
8427
102
{ACAD_REACTORS
330
8426
102
}
330
8426
100
AcDbMLeaderStyle
179
     2
170
     2
171
     1
172
     0
 90
        2
 40
0.0
 41
0.0
173
     1
 91
-1056964608
340
13
 92
       -2
290
     1
 42
2.0
291
     1
 43
0.36
  3
Standard
 44
4.0
300

342
10
174
     1
178
     6
175
     1
176
     0
 93
-1056964608
 45
4.0
292
     0
297
     0
 46
4.0
 94
-1056964608
 47
1.0
 49
1.0
140
1.0
293
     1
141
0.0
294
     1
177
     0
142
1.0
295
     0
296
     0
143
0.125
271
     0
272
     9
273
     9
298
     1
  0
MLINESTYLE
  5
1C
102
{ACAD_REACTORS
330
E
102
}
330
E
100
AcDbMlineStyle
  2
STANDARD
 70
     0
  3

 62
     0
 51
90.0
 52
90.0
 71
     2
 49
0.5
 62
   256
  6
BYLAYER
 49
-0.5
 62
   256
  6
BYLAYER
  0
ACDBPLACEHOLDER
  5
82E7
102
{ACAD_REACTORS
330
82E6
102
}
330
82E6
  0
SCALE
  5
8415
102
{ACAD_REACTORS
330
8414
102
}
330
8414
100
AcDbScale
 70
     0
300
1:1
140
1.0
141
1.0
290
     1
  0
SCALE
  5
8416
102
{ACAD_REACTORS
330
8414
102
}
330
8414
100
AcDbScale
 70
     0
300
1:2
140
1.0
141
2.0
290
     0
  0
SCALE
  5
8417
102
{ACAD_REACTORS
330
8414
102
}
330
8414
100
AcDbScale
 70
     0
300
1:4
140
1.0
141
4.0
290
     0
  0
SCALE
  5
8418
102
{ACAD_REACTORS
330
8414
102
}
330
8414
100
AcDbScale
 70
     0
300
1:5
140
1.0
141
5.0
290
     0
  0
SCALE
  5
8419
102
{ACAD_REACTORS
330
8414
102
}
330
8414
100
AcDbScale
 70
     0
300
1:8
140
1.0
141
8.0
290
     0
  0
SCALE
  5
841A
102
{ACAD_REACTORS
330
8414
102
}
330
8414
100
AcDbScale
 70
     0
300
1:10
140
1.0
141
10.0
290
     0
  0
SCALE
  5
841B
102
{ACAD_REACTORS
330
8414
102
}
330
8414
100
AcDbScale
 70
     0
300
1:16
140
1.0
141
16.0
290
     0
  0
SCALE
  5
841C
102
{ACAD_REACTORS
330
8414
102
}
330
8414
100
AcDbScale
 70
     0
300
1:20
140
1.0
141
20.0
290
     0
  0
SCALE
  5
841D
102
{ACAD_REACTORS
330
8414
102
}
330
8414
100
AcDbScale
 70
     0
300
1:30
140
1.0
141
30.0
290
     0
  0
SCALE
  5
841E
102
{ACAD_REACTORS
330
8414
102
}
330
8414
100
AcDbScale
 70
     0
300
1:40
140
1.0
141
40.0
290
     0
  0
SCALE
  5
841F
102
{ACAD_REACTORS
330
8414
102
}
330
8414
100
AcDbScale
 70
     0
300
1:50
140
1.0
141
50.0
290
     0
  0
SCALE
  5
8420
102
{ACAD_REACTORS
330
8414
102
}
330
8414
100
AcDbScale
 70
     0
300
1:100
140
1.0
141
100.0
290
     0
  0
SCALE
  5
8421
102
{ACAD_REACTORS
330
8414
102
}
330
8414
100
AcDbScale
 70
     0
300
2:1
140
2.0
141
1.0
290
     0
  0
SCALE
  5
8422
102
{ACAD_REACTORS
330
8414
102
}
330
8414
100
AcDbScale
 70
     0
300
4:1
140
4.0
141
1.0
290
     0
  0
SCALE
  5
8423
102
{ACAD_REACTORS
330
8414
102
}
330
8414
100
AcDbScale
 70
     0
300
8:1
140
8.0
141
1.0
290
     0
  0
SCALE
  5
8424
102
{ACAD_REACTORS
330
8414
102
}
330
8414
100
AcDbScale
 70
     0
300
10:1
140
10.0
141
1.0
290
     0
  0
SCALE
  5
8425
102
{ACAD_REACTORS
330
8414
102
}
330
8414
100
AcDbScale
 70
     0
300
100:1
140
100.0
141
1.0
290
     0
  0
ACDBSECTIONVIEWSTYLE
  5
8429
102
{ACAD_XDICTIONARY
360
84E5
102
}
102
{ACAD_REACTORS
330
8428
102
}
330
8428
100
AcDbModelDocViewStyle
 70
     0
  3
Metric50
290
     0
100
AcDbSectionViewStyle
 70
     0
 71
     0
 90
      102
 71
     1
340
10
 62
   256
 40
5.0
340
0
340
0
 62
   256
 40
5.0
300
I, O, Q, S, X, Z
 40
10.0
 90
        0
 40
2.5
 90
        0
 71
     2
340
15
 90
       25
 62
   256
340
15
 90
       50
 62
   256
 40
5.0
 40
2.5
 40
5.0
 71
     3
340
10
 62
   256
 40
5.0
 90
        0
 40
15.0
 90
        1
300
%<\AcVar ViewSectionStartId>%-%<\AcVar ViewSectionEndId>% (%<\AcVar ViewScale \f "%sn">%)
 71
     4
 62
   256
 62
   257
300
ANSI31
 40
1.0
 90
        0
290
     0
290
     0
 90
        6
 40
0.0
 40
1.570796326794896
 40
0.2617993877991494
 40
1.308996938995747
 40
-0.2617993877991494
 40
1.832595714594046
  0
TABLESTYLE
  5
8413
102
{ACAD_XDICTIONARY
360
84DA
102
}
102
{ACAD_REACTORS
330
8412
102
}
330
8412
100
AcDbTableStyle
280
     0
  3
Standard
 70
     0
 71
     0
 40
1.5
 41
1.5
280
     0
281
     0
  7
STANDARD
140
4.5
170
     2
 62
     0
 63
     7
283
     0
 90
      512
 91
        0
  1

274
    -2
284
     1
 64
     0
275
    -2
285
     1
 65
     0
276
    -2
286
     1
 66
     0
277
    -2
287
     1
 67
     0
278
    -2
288
     1
 68
     0
279
    -2
289
     1
 69
     0
  7
STANDARD
140
6.0
170
     5
 62
     0
 63
     7
283
     0
 90
      512
 91
        0
  1

274
    -2
284
     1
 64
     0
275
    -2
285
     1
 65
     0
276
    -2
286
     1
 66
     0
277
    -2
287
     1
 67
     0
278
    -2
288
     1
 68
     0
279
    -2
289
     1
 69
     0
  7
STANDARD
140
4.5
170
     5
 62
     0
 63
     7
283
     0
 90
      512
 91
        0
  1

274
    -2
284
     1
 64
     0
275
    -2
285
     1
 65
     0
276
    -2
286
     1
 66
     0
277
    -2
287
     1
 67
     0
278
    -2
288
     1
 68
     0
279
    -2
289
     1
 69
     0
  0
VISUALSTYLE
  5
83FE
102
{ACAD_REACTORS
330
83F8
102
}
330
83F8
100
AcDbVisualStyle
  2
2dWireframe
 70
     4
177
     3
291
     0
 70
    58
 90
        0
176
     1
 90
        2
176
     1
 90
        0
176
     1
 90
        0
176
     1
 40
0.6
176
     1
 40
30.0
176
     1
 62
     7
420
 16777215
176
     1
 90
        1
176
     1
 90
        4
176
     1
 62
     7
176
     1
 62
   257
176
     1
 90
        1
176
     1
 90
        1
176
     1
 40
1.0
176
     1
 90
        0
176
     1
 62
   257
176
     1
 40
1.0
176
     1
 90
        1
176
     1
 90
        6
176
     1
 90
        2
176
     1
 62
     7
176
     1
 90
        5
176
     1
 90
        0
176
     1
 90
        0
176
     1
290
     0
176
     1
 90
        1
176
     1
 40
0.0
176
     1
 90
        0
176
     1
290
     1
176
     1
290
     1
176
     1
290
     0
176
     1
290
     0
176
     1
290
     0
176
     1
290
     0
176
     1
290
     0
176
     1
290
     0
176
     1
290
     0
176
     1
 90
       50
176
     1
 40
0.0
176
     1
 40
1.0
176
     1
 90
        0
176
     1
 62
    18
420
        0
176
     1
 90
       50
176
     1
 90
        3
176
     1
 62
     5
420
      255
176
     1
290
     0
176
     1
 90
       50
176
     1
 90
       50
176
     1
 90
       50
176
     1
290
     0
176
     1
 90
       50
176
     1
 62
   256
176
     0
 40
1.0
176
     0
 90
        2
176
     1
  1
strokes_ogs.tif
176
     1
290
     0
176
     1
 40
1.0
176
     1
 40
1.0
176
     1
1001
ACAD
1000
AcDbSavedByObjectVersion
1070
     0
  0
VISUALSTYLE
  5
83FD
102
{ACAD_REACTORS
330
83F8
102
}
330
83F8
100
AcDbVisualStyle
  2
Basic
 70
     7
177
     3
291
     1
 70
    58
 90
        1
176
     1
 90
        0
176
     1
 90
        1
176
     1
 90
        0
176
     1
 40
0.6
176
     1
 40
30.0
176
     1
 62
     7
420
 16777215
176
     1
 90
        0
176
     1
 90
        4
176
     1
 62
     7
176
     1
 62
   257
176
     1
 90
        1
176
     1
 90
        1
176
     1
 40
1.0
176
     1
 90
        8
176
     1
 62
     7
176
     1
 40
1.0
176
     1
 90
        1
176
     1
 90
        6
176
     1
 90
        2
176
     1
 62
     7
176
     1
 90
        5
176
     1
 90
        0
176
     1
 90
        0
176
     1
290
     0
176
     1
 90
        1
176
     1
 40
0.0
176
     1
 90
        0
176
     1
290
     0
176
     1
290
     1
176
     1
290
     1
176
     1
290
     0
176
     1
290
     0
176
     1
290
     0
176
     1
290
     0
176
     1
290
     0
176
     1
290
     0
176
     1
 90
       50
176
     1
 40
0.0
176
     1
 40
1.0
176
     1
 90
        0
176
     1
 62
    18
420
        0
176
     1
 90
       50
176
     1
 90
        3
176
     1
 62
     5
420
      255
176
     1
290
     0
176
     1
 90
       50
176
     1
 90
       50
176
     1
 90
       50
176
     1
290
     0
176
     1
 90
       50
176
     1
 62
   256
176
     0
 40
1.0
176
     0
 90
        2
176
     1
  1
strokes_ogs.tif
176
     1
290
     0
176
     1
 40
1.0
176
     1
 40
1.0
176
     1
1001
ACAD
1000
AcDbSavedByObjectVersion
1070
     0
  0
VISUALSTYLE
  5
8404
102
{ACAD_REACTORS
330
83F8
102
}
330
83F8
100
AcDbVisualStyle
  2
Brighten
 70
    12
177
     3
291
     1
 70
    58
 90
        2
176
     1
 90
        2
176
     1
 90
        0
176
     1
 90
        0
176
     1
 40
0.6
176
     1
 40
30.0
176
     1
 62
     7
420
 16777215
176
     1
 90
        1
176
     1
 90
        4
176
     1
 62
     7
176
     1
 62
   257
176
     1
 90
        1
176
     1
 90
        1
176
     1
 40
1.0
176
     1
 90
        8
176
     1
 62
     7
176
     1
 40
1.0
176
     1
 90
        1
176
     1
 90
        6
176
     1
 90
        2
176
     1
 62
     7
176
     1
 90
        5
176
     1
 90
        0
176
     1
 90
        0
176
     1
290
     0
176
     1
 90
        1
176
     1
 40
50.0
176
     1
 90
        0
176
     1
290
     0
176
     1
290
     1
176
     1
290
     1
176
     1
290
     0
176
     1
290
     0
176
     1
290
     0
176
     1
290
     0
176
     1
290
     0
176
     1
290
     0
176
     1
 90
       50
176
     1
 40
0.0
176
     1
 40
1.0
176
     1
 90
        0
176
     1
 62
    18
420
        0
176
     1
 90
       50
176
     1
 90
        3
176
     1
 62
     5
420
      255
176
     1
290
     0
176
     1
 90
       50
176
     1
 90
       50
176
     1
 90
       50
176
     1
290
     0
176
     1
 90
       50
176
     1
 62
   256
176
     0
 40
1.0
176
     0
 90
        2
176
     1
  1
strokes_ogs.tif
176
     1
290
     0
176
     1
 40
1.0
176
     1
 40
1.0
176
     1
1001
ACAD
1000
AcDbSavedByObjectVersion
1070
     0
  0
VISUALSTYLE
  5
8408
102
{ACAD_REACTORS
330
83F8
102
}
330
83F8
100
AcDbVisualStyle
  2
ColorChange
 70
    16
177
     3
291
     1
 70
    58
 90
        2
176
     1
 90
        2
176
     1
 90
        3
176
     1
 90
        0
176
     1
 40
0.6
176
     1
 40
30.0
176
     1
 62
     8
420
  8421504
176
     1
 90
        1
176
     1
 90
        4
176
     1
 62
     7
176
     1
 62
   257
176
     1
 90
        1
176
     1
 90
        1
176
     1
 40
1.0
176
     1
 90
        8
176
     1
 62
     8
420
  8421504
176
     1
 40
1.0
176
     1
 90
        1
176
     1
 90
        6
176
     1
 90
        2
176
     1
 62
     7
176
     1
 90
        5
176
     1
 90
        0
176
     1
 90
        0
176
     1
290
     0
176
     1
 90
        1
176
     1
 40
0.0
176
     1
 90
        0
176
     1
290
     0
176
     1
290
     1
176
     1
290
     1
176
     1
290
     0
176
     1
290
     0
176
     1
290
     0
176
     1
290
     0
176
     1
290
     0
176
     1
290
     0
176
     1
 90
       50
176
     1
 40
0.0
176
     1
 40
1.0
176
     1
 90
        0
176
     1
 62
    18
420
        0
176
     1
 90
       50
176
     1
 90
        3
176
     1
 62
     5
420
      255
176
     1
290
     0
176
     1
 90
       50
176
     1
 90
       50
176
     1
 90
       50
176
     1
290
     0
176
     1
 90
       50
176
     1
 62
   256
176
     0
 40
1.0
176
     0
 90
        2
176
     1
  1
strokes_ogs.tif
176
     1
290
     0
176
     1
 40
1.0
176
     1
 40
1.0
176
     1
1001
ACAD
1000
AcDbSavedByObjectVersion
1070
     0
  0
VISUALSTYLE
  5
8401
102
{ACAD_REACTORS
330
83F8
102
}
330
83F8
100
AcDbVisualStyle
  2
Conceptual
 70
     9
177
     3
291
     0
 70
    58
 90
        3
176
     1
 90
        2
176
     1
 90
        0
176
     1
 90
        0
176
     1
 40
0.6
176
     1
 40
30.0
176
     1
 62
     7
420
 16777215
176
     1
 90
        2
176
     1
 90
        2
176
     1
 62
     7
176
     1
 62
   257
176
     1
 90
        1
176
     1
 90
        1
176
     1
 40
179.0
176
     1
 90
        8
176
     1
 62
     7
176
     1
 40
1.0
176
     1
 90
        1
176
     1
 90
        6
176
     1
 90
        2
176
     1
 62
     7
176
     1
 90
        3
176
     1
 90
        0
176
     1
 90
        0
176
     1
290
     0
176
     1
 90
        1
176
     1
 40
0.0
176
     1
 90
        0
176
     1
290
     0
176
     1
290
     1
176
     1
290
     1
176
     1
290
     0
176
     1
290
     0
176
     1
290
     0
176
     1
290
     0
176
     1
290
     0
176
     1
290
     0
176
     1
 90
       50
176
     1
 40
0.0
176
     1
 40
1.0
176
     1
 90
        0
176
     1
 62
    18
420
        0
176
     1
 90
       50
176
     1
 90
        3
176
     1
 62
     5
420
      255
176
     1
290
     0
176
     1
 90
       50
176
     1
 90
       50
176
     1
 90
       50
176
     1
290
     0
176
     1
 90
       50
176
     1
 62
   256
176
     0
 40
1.0
176
     0
 90
        2
176
     1
  1
strokes_ogs.tif
176
     1
290
     0
176
     1
 40
1.0
176
     1
 40
1.0
176
     1
1001
ACAD
1000
AcDbSavedByObjectVersion
1070
     0
  0
VISUALSTYLE
  5
8403
102
{ACAD_REACTORS
330
83F8
102
}
330
83F8
100
AcDbVisualStyle
  2
Dim
 70
    11
177
     3
291
     1
 70
    58
 90
        2
176
     1
 90
        2
176
     1
 90
        0
176
     1
 90
        0
176
     1
 40
0.6
176
     1
 40
30.0
176
     1
 62
     7
420
 16777215
176
     1
 90
        1
176
     1
 90
        4
176
     1
 62
     7
176
     1
 62
   257
176
     1
 90
        1
176
     1
 90
        1
176
     1
 40
1.0
176
     1
 90
        8
176
     1
 62
     7
176
     1
 40
1.0
176
     1
 90
        1
176
     1
 90
        6
176
     1
 90
        2
176
     1
 62
     7
176
     1
 90
        5
176
     1
 90
        0
176
     1
 90
        0
176
     1
290
     0
176
     1
 90
        1
176
     1
 40
-50.0
176
     1
 90
        0
176
     1
290
     0
176
     1
290
     1
176
     1
290
     1
176
     1
290
     0
176
     1
290
     0
176
     1
290
     0
176
     1
290
     0
176
     1
290
     0
176
     1
290
     0
176
     1
 90
       50
176
     1
 40
0.0
176
     1
 40
1.0
176
     1
 90
        0
176
     1
 62
    18
420
        0
176
     1
 90
       50
176
     1
 90
        3
176
     1
 62
     5
420
      255
176
     1
290
     0
176
     1
 90
       50
176
     1
 90
       50
176
     1
 90
       50
176
     1
290
     0
176
     1
 90
       50
176
     1
 62
   256
176
     0
 40
1.0
176
     0
 90
        2
176
     1
  1
strokes_ogs.tif
176
     1
290
     0
176
     1
 40
1.0
176
     1
 40
1.0
176
     1
1001
ACAD
1000
AcDbSavedByObjectVersion
1070
     0
  0
VISUALSTYLE
  5
8410
102
{ACAD_REACTORS
330
83F8
102
}
330
83F8
100
AcDbVisualStyle
  2
EdgeColorOff
 70
    22
177
     3
291
     1
 70
    58
 90
        2
176
     0
 90
        2
176
     0
 90
        0
176
     0
 90
        0
176
     0
 40
0.6
176
     0
 40
30.0
176
     0
 62
     7
420
 16777215
176
     0
 90
        1
176
     0
 90
        4
176
     0
 62
     7
176
     0
 62
   257
176
     0
 90
        1
176
     0
 90
        1
176
     0
 40
1.0
176
     0
 90
        8
176
     2
 62
     7
176
     0
 40
1.0
176
     0
 90
        1
176
     0
 90
        6
176
     0
 90
        2
176
     0
 62
     7
176
     0
 90
        5
176
     0
 90
        0
176
     0
 90
        0
176
     0
290
     0
176
     0
 90
        1
176
     0
 40
0.0
176
     0
 90
        0
176
     0
290
     0
176
     0
290
     1
176
     0
290
     1
176
     0
290
     0
176
     0
290
     0
176
     0
290
     0
176
     0
290
     0
176
     0
290
     0
176
     0
290
     0
176
     0
 90
       50
176
     0
 40
0.0
176
     0
 40
1.0
176
     0
 90
        0
176
     0
 62
    18
420
        0
176
     0
 90
       50
176
     0
 90
        3
176
     0
 62
     5
420
      255
176
     0
290
     0
176
     0
 90
       50
176
     0
 90
       50
176
     0
 90
       50
176
     0
290
     0
176
     0
 90
       50
176
     0
 62
   256
176
     0
 40
1.0
176
     0
 90
        2
176
     0
  1
strokes_ogs.tif
176
     0
290
     0
176
     0
 40
1.0
176
     0
 40
1.0
176
     0
1001
ACAD
1000
AcDbSavedByObjectVersion
1070
     0
  0
VISUALSTYLE
  5
8407
102
{ACAD_REACTORS
330
83F8
102
}
330
83F8
100
AcDbVisualStyle
  2
Facepattern
 70
    15
177
     3
291
     1
 70
    58
 90
        2
176
     1
 90
        2
176
     1
 90
        0
176
     1
 90
        0
176
     1
 40
0.6
176
     1
 40
30.0
176
     1
 62
     7
420
 16777215
176
     1
 90
        1
176
     1
 90
        4
176
     1
 62
     7
176
     1
 62
   257
176
     1
 90
        1
176
     1
 90
        1
176
     1
 40
1.0
176
     1
 90
        8
176
     1
 62
     7
176
     1
 40
1.0
176
     1
 90
        1
176
     1
 90
        6
176
     1
 90
        2
176
     1
 62
     7
176
     1
 90
        5
176
     1
 90
        0
176
     1
 90
        0
176
     1
290
     0
176
     1
 90
        1
176
     1
 40
0.0
176
     1
 90
        0
176
     1
290
     0
176
     1
290
     1
176
     1
290
     1
176
     1
290
     0
176
     1
290
     0
176
     1
290
     0
176
     1
290
     0
176
     1
290
     0
176
     1
290
     0
176
     1
 90
       50
176
     1
 40
0.0
176
     1
 40
1.0
176
     1
 90
        0
176
     1
 62
    18
420
        0
176
     1
 90
       50
176
     1
 90
        3
176
     1
 62
     5
420
      255
176
     1
290
     0
176
     1
 90
       50
176
     1
 90
       50
176
     1
 90
       50
176
     1
290
     0
176
     1
 90
       50
176
     1
 62
   256
176
     0
 40
1.0
176
     0
 90
        2
176
     1
  1
strokes_ogs.tif
176
     1
290
     0
176
     1
 40
1.0
176
     1
 40
1.0
176
     1
1001
ACAD
1000
AcDbSavedByObjectVersion
1070
     0
  0
VISUALSTYLE
  5
83F9
102
{ACAD_REACTORS
330
83F8
102
}
330
83F8
100
AcDbVisualStyle
  2
Flat
 70
     0
177
     3
291
     1
 70
    58
 90
        2
176
     1
 90
        1
176
     1
 90
        1
176
     1
 90
        2
176
     1
 40
0.6
176
     1
 40
30.0
176
     1
 62
     7
420
 16777215
176
     1
 90
        0
176
     1
 90
        0
176
     1
 62
     7
176
     1
 62
   257
176
     1
 90
        1
176
     1
 90
        1
176
     1
 40
1.0
176
     1
 90
        8
176
     1
 62
     7
176
     1
 40
1.0
176
     1
 90
        1
176
     1
 90
        6
176
     1
 90
        2
176
     1
 62
     7
176
     1
 90
        5
176
     1
 90
        0
176
     1
 90
        0
176
     1
290
     0
176
     1
 90
       13
176
     1
 40
0.0
176
     1
 90
        0
176
     1
290
     0
176
     1
290
     1
176
     1
290
     1
176
     1
290
     0
176
     1
290
     0
176
     1
290
     0
176
     1
290
     0
176
     1
290
     0
176
     1
290
     0
176
     1
 90
       50
176
     1
 40
0.0
176
     1
 40
1.0
176
     1
 90
        0
176
     1
 62
    18
420
        0
176
     1
 90
       50
176
     1
 90
        3
176
     1
 62
     5
420
      255
176
     1
290
     0
176
     1
 90
       50
176
     1
 90
       50
176
     1
 90
       50
176
     1
290
     0
176
     1
 90
       50
176
     1
 62
   256
176
     0
 40
1.0
176
     0
 90
        2
176
     1
  1
strokes_ogs.tif
176
     1
290
     0
176
     1
 40
1.0
176
     1
 40
1.0
176
     1
1001
ACAD
1000
AcDbSavedByObjectVersion
1070
     0
  0
VISUALSTYLE
  5
83FA
102
{ACAD_REACTORS
330
83F8
102
}
330
83F8
100
AcDbVisualStyle
  2
FlatWithEdges
 70
     1
177
     3
291
     1
 70
    58
 90
        2
176
     1
 90
        1
176
     1
 90
        1
176
     1
 90
        2
176
     1
 40
0.6
176
     1
 40
30.0
176
     1
 62
     7
420
 16777215
176
     1
 90
        1
176
     1
 90
        0
176
     1
 62
     7
176
     1
 62
   257
176
     1
 90
        1
176
     1
 90
        1
176
     1
 40
1.0
176
     1
 90
        0
176
     1
 62
   257
176
     1
 40
1.0
176
     1
 90
        1
176
     1
 90
        6
176
     1
 90
        2
176
     1
 62
     7
176
     1
 90
        5
176
     1
 90
        0
176
     1
 90
        0
176
     1
290
     0
176
     1
 90
       13
176
     1
 40
0.0
176
     1
 90
        0
176
     1
290
     0
176
     1
290
     1
176
     1
290
     1
176
     1
290
     0
176
     1
290
     0
176
     1
290
     0
176
     1
290
     0
176
     1
290
     0
176
     1
290
     0
176
     1
 90
       50
176
     1
 40
0.0
176
     1
 40
1.0
176
     1
 90
        0
176
     1
 62
    18
420
        0
176
     1
 90
       50
176
     1
 90
        3
176
     1
 62
     5
420
      255
176
     1
290
     0
176
     1
 90
       50
176
     1
 90
       50
176
     1
 90
       50
176
     1
290
     0
176
     1
 90
       50
176
     1
 62
   256
176
     0
 40
1.0
176
     0
 90
        2
176
     1
  1
strokes_ogs.tif
176
     1
290
     0
176
     1
 40
1.0
176
     1
 40
1.0
176
     1
1001
ACAD
1000
AcDbSavedByObjectVersion
1070
     0
  0
VISUALSTYLE
  5
83FB
102
{ACAD_REACTORS
330
83F8
102
}
330
83F8
100
AcDbVisualStyle
  2
Gouraud
 70
     2
177
     3
291
     1
 70
    58
 90
        2
176
     1
 90
        2
176
     1
 90
        1
176
     1
 90
        2
176
     1
 40
0.6
176
     1
 40
30.0
176
     1
 62
     7
420
 16777215
176
     1
 90
        0
176
     1
 90
        0
176
     1
 62
     7
176
     1
 62
   257
176
     1
 90
        1
176
     1
 90
        1
176
     1
 40
1.0
176
     1
 90
        0
176
     1
 62
     7
176
     1
 40
1.0
176
     1
 90
        1
176
     1
 90
        6
176
     1
 90
        2
176
     1
 62
     7
176
     1
 90
        5
176
     1
 90
        0
176
     1
 90
        0
176
     1
290
     0
176
     1
 90
       13
176
     1
 40
0.0
176
     1
 90
        0
176
     1
290
     0
176
     1
290
     1
176
     1
290
     1
176
     1
290
     0
176
     1
290
     0
176
     1
290
     0
176
     1
290
     0
176
     1
290
     0
176
     1
290
     0
176
     1
 90
       50
176
     1
 40
0.0
176
     1
 40
1.0
176
     1
 90
        0
176
     1
 62
    18
420
        0
176
     1
 90
       50
176
     1
 90
        3
176
     1
 62
     5
420
      255
176
     1
290
     0
176
     1
 90
       50
176
     1
 90
       50
176
     1
 90
       50
176
     1
290
     0
176
     1
 90
       50
176
     1
 62
   256
176
     0
 40
1.0
176
     0
 90
        2
176
     1
  1
strokes_ogs.tif
176
     1
290
     0
176
     1
 40
1.0
176
     1
 40
1.0
176
     1
1001
ACAD
1000
AcDbSavedByObjectVersion
1070
     0
  0
VISUALSTYLE
  5
83FC
102
{ACAD_REACTORS
330
83F8
102
}
330
83F8
100
AcDbVisualStyle
  2
GouraudWithEdges
 70
     3
177
     3
291
     1
 70
    58
 90
        2
176
     1
 90
        2
176
     1
 90
        1
176
     1
 90
        2
176
     1
 40
0.6
176
     1
 40
30.0
176
     1
 62
     7
420
 16777215
176
     1
 90
        1
176
     1
 90
        0
176
     1
 62
     7
176
     1
 62
   257
176
     1
 90
        1
176
     1
 90
        1
176
     1
 40
1.0
176
     1
 90
        0
176
     1
 62
   257
176
     1
 40
1.0
176
     1
 90
        1
176
     1
 90
        6
176
     1
 90
        2
176
     1
 62
     7
176
     1
 90
        5
176
     1
 90
        0
176
     1
 90
        0
176
     1
290
     0
176
     1
 90
       13
176
     1
 40
0.0
176
     1
 90
        0
176
     1
290
     0
176
     1
290
     1
176
     1
290
     1
176
     1
290
     0
176
     1
290
     0
176
     1
290
     0
176
     1
290
     0
176
     1
290
     0
176
     1
290
     0
176
     1
 90
       50
176
     1
 40
0.0
176
     1
 40
1.0
176
     1
 90
        0
176
     1
 62
    18
420
        0
176
     1
 90
       50
176
     1
 90
        3
176
     1
 62
     5
420
      255
176
     1
290
     0
176
     1
 90
       50
176
     1
 90
       50
176
     1
 90
       50
176
     1
290
     0
176
     1
 90
       50
176
     1
 62
   256
176
     0
 40
1.0
176
     0
 90
        2
176
     1
  1
strokes_ogs.tif
176
     1
290
     0
176
     1
 40
1.0
176
     1
 40
1.0
176
     1
1001
ACAD
1000
AcDbSavedByObjectVersion
1070
     0
  0
VISUALSTYLE
  5
8400
102
{ACAD_REACTORS
330
83F8
102
}
330
83F8
100
AcDbVisualStyle
  2
Hidden
 70
     6
177
     3
291
     0
 70
    58
 90
        1
176
     1
 90
        2
176
     1
 90
        2
176
     1
 90
        0
176
     1
 40
0.6
176
     1
 40
30.0
176
     1
 62
     7
420
 16777215
176
     1
 90
        2
176
     1
 90
        2
176
     1
 62
     7
176
     1
 62
   257
176
     1
 90
        2
176
     1
 90
        1
176
     1
 40
40.0
176
     1
 90
        0
176
     1
 62
   257
176
     1
 40
1.0
176
     1
 90
        1
176
     1
 90
        6
176
     1
 90
        2
176
     1
 62
     7
176
     1
 90
        3
176
     1
 90
        0
176
     1
 90
        0
176
     1
290
     0
176
     1
 90
        1
176
     1
 40
0.0
176
     1
 90
        0
176
     1
290
     0
176
     1
290
     1
176
     1
290
     1
176
     1
290
     0
176
     1
290
     0
176
     1
290
     0
176
     1
290
     0
176
     1
290
     0
176
     1
290
     0
176
     1
 90
       50
176
     1
 40
0.0
176
     1
 40
1.0
176
     1
 90
        0
176
     1
 62
    18
420
        0
176
     1
 90
       50
176
     1
 90
        3
176
     1
 62
     5
420
      255
176
     1
290
     0
176
     1
 90
       50
176
     1
 90
       50
176
     1
 90
       50
176
     1
290
     0
176
     1
 90
       50
176
     1
 62
   256
176
     0
 40
1.0
176
     0
 90
        2
176
     1
  1
strokes_ogs.tif
176
     1
290
     0
176
     1
 40
1.0
176
     1
 40
1.0
176
     1
1001
ACAD
1000
AcDbSavedByObjectVersion
1070
     0
  0
VISUALSTYLE
  5
840E
102
{ACAD_REACTORS
330
83F8
102
}
330
83F8
100
AcDbVisualStyle
  2
JitterOff
 70
    20
177
     3
291
     1
 70
    58
 90
        2
176
     0
 90
        2
176
     0
 90
        0
176
     0
 90
        0
176
     0
 40
0.6
176
     0
 40
30.0
176
     0
 62
     7
420
 16777215
176
     0
 90
        1
176
     0
 90
        4
176
     0
 62
     7
176
     0
 62
   257
176
     0
 90
        1
176
     0
 90
        1
176
     0
 40
1.0
176
     0
 90
       10
176
     2
 62
     7
176
     0
 40
1.0
176
     0
 90
        1
176
     0
 90
        6
176
     0
 90
        2
176
     0
 62
     7
176
     0
 90
        5
176
     0
 90
        0
176
     0
 90
        0
176
     0
290
     0
176
     0
 90
        1
176
     0
 40
0.0
176
     0
 90
        0
176
     0
290
     0
176
     0
290
     1
176
     0
290
     1
176
     0
290
     0
176
     0
290
     0
176
     0
290
     0
176
     0
290
     0
176
     0
290
     0
176
     0
290
     0
176
     0
 90
       50
176
     0
 40
0.0
176
     0
 40
1.0
176
     0
 90
        0
176
     0
 62
    18
420
        0
176
     0
 90
       50
176
     0
 90
        3
176
     0
 62
     5
420
      255
176
     0
290
     0
176
     0
 90
       50
176
     0
 90
       50
176
     0
 90
       50
176
     0
290
     0
176
     0
 90
       50
176
     0
 62
   256
176
     0
 40
1.0
176
     0
 90
        2
176
     0
  1
strokes_ogs.tif
176
     0
290
     0
176
     0
 40
1.0
176
     0
 40
1.0
176
     0
1001
ACAD
1000
AcDbSavedByObjectVersion
1070
     0
  0
VISUALSTYLE
  5
8406
102
{ACAD_REACTORS
330
83F8
102
}
330
83F8
100
AcDbVisualStyle
  2
Linepattern
 70
    14
177
     3
291
     1
 70
    58
 90
        2
176
     1
 90
        2
176
     1
 90
        0
176
     1
 90
        0
176
     1
 40
0.6
176
     1
 40
30.0
176
     1
 62
     7
420
 16777215
176
     1
 90
        1
176
     1
 90
        4
176
     1
 62
     7
176
     1
 62
   257
176
     1
 90
        7
176
     1
 90
        7
176
     1
 40
1.0
176
     1
 90
        8
176
     1
 62
     7
176
     1
 40
1.0
176
     1
 90
        1
176
     1
 90
        6
176
     1
 90
        2
176
     1
 62
     7
176
     1
 90
        5
176
     1
 90
        0
176
     1
 90
        0
176
     1
290
     0
176
     1
 90
        1
176
     1
 40
0.0
176
     1
 90
        0
176
     1
290
     0
176
     1
290
     1
176
     1
290
     1
176
     1
290
     0
176
     1
290
     0
176
     1
290
     0
176
     1
290
     0
176
     1
290
     0
176
     1
290
     0
176
     1
 90
       50
176
     1
 40
0.0
176
     1
 40
1.0
176
     1
 90
        0
176
     1
 62
    18
420
        0
176
     1
 90
       50
176
     1
 90
        3
176
     1
 62
     5
420
      255
176
     1
290
     0
176
     1
 90
       50
176
     1
 90
       50
176
     1
 90
       50
176
     1
290
     0
176
     1
 90
       50
176
     1
 62
   256
176
     0
 40
1.0
176
     0
 90
        2
176
     1
  1
strokes_ogs.tif
176
     1
290
     0
176
     1
 40
1.0
176
     1
 40
1.0
176
     1
1001
ACAD
1000
AcDbSavedByObjectVersion
1070
     0
  0
VISUALSTYLE
  5
840F
102
{ACAD_REACTORS
330
83F8
102
}
330
83F8
100
AcDbVisualStyle
  2
OverhangOff
 70
    21
177
     3
291
     1
 70
    58
 90
        2
176
     0
 90
        2
176
     0
 90
        0
176
     0
 90
        0
176
     0
 40
0.6
176
     0
 40
30.0
176
     0
 62
     7
420
 16777215
176
     0
 90
        1
176
     0
 90
        4
176
     0
 62
     7
176
     0
 62
   257
176
     0
 90
        1
176
     0
 90
        1
176
     0
 40
1.0
176
     0
 90
        9
176
     2
 62
     7
176
     0
 40
1.0
176
     0
 90
        1
176
     0
 90
        6
176
     0
 90
        2
176
     0
 62
     7
176
     0
 90
        5
176
     0
 90
        0
176
     0
 90
        0
176
     0
290
     0
176
     0
 90
        1
176
     0
 40
0.0
176
     0
 90
        0
176
     0
290
     0
176
     0
290
     1
176
     0
290
     1
176
     0
290
     0
176
     0
290
     0
176
     0
290
     0
176
     0
290
     0
176
     0
290
     0
176
     0
290
     0
176
     0
 90
       50
176
     0
 40
0.0
176
     0
 40
1.0
176
     0
 90
        0
176
     0
 62
    18
420
        0
176
     0
 90
       50
176
     0
 90
        3
176
     0
 62
     5
420
      255
176
     0
290
     0
176
     0
 90
       50
176
     0
 90
       50
176
     0
 90
       50
176
     0
290
     0
176
     0
 90
       50
176
     0
 62
   256
176
     0
 40
1.0
176
     0
 90
        2
176
     0
  1
strokes_ogs.tif
176
     0
290
     0
176
     0
 40
1.0
176
     0
 40
1.0
176
     0
1001
ACAD
1000
AcDbSavedByObjectVersion
1070
     0
  0
VISUALSTYLE
  5
8402
102
{ACAD_REACTORS
330
83F8
102
}
330
83F8
100
AcDbVisualStyle
  2
Realistic
 70
     8
177
     3
291
     0
 70
    58
 90
        2
176
     1
 90
        3
176
     1
 90
        0
176
     1
 90
        2
176
     1
 40
0.6
176
     1
 40
30.0
176
     1
 62
     7
420
 16777215
176
     1
 90
        0
176
     1
 90
        0
176
     1
 62
     7
176
     1
 62
   257
176
     1
 90
        1
176
     1
 90
        1
176
     1
 40
1.0
176
     1
 90
        8
176
     1
 62
   257
176
     1
 40
1.0
176
     1
 90
        1
176
     1
 90
        6
176
     1
 90
        2
176
     1
 62
     7
176
     1
 90
        3
176
     1
 90
        0
176
     1
 90
        0
176
     1
290
     0
176
     1
 90
       13
176
     1
 40
0.0
176
     1
 90
        0
176
     1
290
     0
176
     1
290
     1
176
     1
290
     1
176
     1
290
     0
176
     1
290
     0
176
     1
290
     0
176
     1
290
     0
176
     1
290
     0
176
     1
290
     0
176
     1
 90
       50
176
     1
 40
0.0
176
     1
 40
1.0
176
     1
 90
        0
176
     1
 62
    18
420
        0
176
     1
 90
       50
176
     1
 90
        3
176
     1
 62
     5
420
      255
176
     1
290
     0
176
     1
 90
       50
176
     1
 90
       50
176
     1
 90
       50
176
     1
290
     0
176
     1
 90
       50
176
     1
 62
   256
176
     0
 40
1.0
176
     0
 90
        2
176
     1
  1
strokes_ogs.tif
176
     1
290
     0
176
     1
 40
1.0
176
     1
 40
1.0
176
     1
1001
ACAD
1000
AcDbSavedByObjectVersion
1070
     0
  0
VISUALSTYLE
  5
840D
102
{ACAD_REACTORS
330
83F8
102
}
330
83F8
100
AcDbVisualStyle
  2
Shaded
 70
    27
177
     3
291
     0
 70
    58
 90
        2
176
     1
 90
        2
176
     1
 90
        1
176
     1
 90
        2
176
     1
 40
0.6
176
     1
 40
30.0
176
     1
 62
     7
420
 16777215
176
     1
 90
        0
176
     1
 90
        4
176
     1
 62
     7
176
     1
 62
   257
176
     1
 90
        1
176
     1
 90
        1
176
     1
 40
1.0
176
     1
 90
        8
176
     1
 62
   257
176
     1
 40
1.0
176
     1
 90
        1
176
     1
 90
        6
176
     1
 90
        2
176
     1
 62
     8
420
  7895160
176
     1
 90
        3
176
     1
 90
        0
176
     1
 90
        0
176
     1
290
     0
176
     1
 90
        5
176
     1
 40
0.0
176
     1
 90
        0
176
     1
290
     0
176
     1
290
     1
176
     1
290
     1
176
     1
290
     0
176
     1
290
     0
176
     1
290
     0
176
     1
290
     0
176
     1
290
     0
176
     1
290
     0
176
     1
 90
       50
176
     1
 40
0.0
176
     1
 40
1.0
176
     1
 90
        0
176
     1
 62
    18
420
        0
176
     1
 90
       50
176
     1
 90
        3
176
     1
 62
     5
420
      255
176
     1
290
     0
176
     1
 90
       50
176
     1
 90
       50
176
     1
 90
       50
176
     1
290
     0
176
     1
 90
       50
176
     1
 62
   256
176
     0
 40
1.0
176
     0
 90
        2
176
     1
  1
strokes_ogs.tif
176
     1
290
     0
176
     1
 40
1.0
176
     1
 40
1.0
176
     1
1001
ACAD
1000
AcDbSavedByObjectVersion
1070
     0
  0
VISUALSTYLE
  5
840C
102
{ACAD_REACTORS
330
83F8
102
}
330
83F8
100
AcDbVisualStyle
  2
Shaded with edges
 70
    26
177
     3
291
     0
 70
    58
 90
        2
176
     1
 90
        2
176
     1
 90
        1
176
     1
 90
        2
176
     1
 40
0.6
176
     1
 40
30.0
176
     1
 62
     7
420
 16777215
176
     1
 90
        1
176
     1
 90
        2
176
     1
 62
     7
176
     1
 62
   257
176
     1
 90
        2
176
     1
 90
        1
176
     1
 40
1.0
176
     1
 90
        8
176
     1
 62
   257
176
     1
 40
1.0
176
     1
 90
        1
176
     1
 90
        6
176
     1
 90
        2
176
     1
 62
     7
176
     1
 90
        3
176
     1
 90
        0
176
     1
 90
        0
176
     1
290
     0
176
     1
 90
        5
176
     1
 40
0.0
176
     1
 90
        0
176
     1
290
     0
176
     1
290
     1
176
     1
290
     1
176
     1
290
     0
176
     1
290
     0
176
     1
290
     0
176
     1
290
     0
176
     1
290
     0
176
     1
290
     0
176
     1
 90
       50
176
     1
 40
0.0
176
     1
 40
1.0
176
     1
 90
        0
176
     1
 62
    18
420
        0
176
     1
 90
       50
176
     1
 90
        3
176
     1
 62
     5
420
      255
176
     1
290
     0
176
     1
 90
       50
176
     1
 90
       50
176
     1
 90
       50
176
     1
290
     0
176
     1
 90
       50
176
     1
 62
   256
176
     0
 40
1.0
176
     0
 90
        2
176
     1
  1
strokes_ogs.tif
176
     1
290
     0
176
     1
 40
1.0
176
     1
 40
1.0
176
     1
1001
ACAD
1000
AcDbSavedByObjectVersion
1070
     0
  0
VISUALSTYLE
  5
8409
102
{ACAD_REACTORS
330
83F8
102
}
330
83F8
100
AcDbVisualStyle
  2
Shades of Gray
 70
    23
177
     3
291
     0
 70
    58
 90
        2
176
     1
 90
        2
176
     1
 90
        3
176
     1
 90
        0
176
     1
 40
0.6
176
     1
 40
30.0
176
     1
 62
     7
420
 16777215
176
     1
 90
        2
176
     1
 90
        2
176
     1
 62
     7
176
     1
 62
     7
176
     1
 90
        1
176
     1
 90
        1
176
     1
 40
40.0
176
     1
 90
        8
176
     1
 62
     7
176
     1
 40
1.0
176
     1
 90
        1
176
     1
 90
        6
176
     1
 90
        2
176
     1
 62
     7
176
     1
 90
        3
176
     1
 90
        0
176
     1
 90
        0
176
     1
290
     0
176
     1
 90
        1
176
     1
 40
0.0
176
     1
 90
        0
176
     1
290
     0
176
     1
290
     1
176
     1
290
     1
176
     1
290
     0
176
     1
290
     0
176
     1
290
     0
176
     1
290
     0
176
     1
290
     0
176
     1
290
     0
176
     1
 90
       50
176
     1
 40
0.0
176
     1
 40
1.0
176
     1
 90
        0
176
     1
 62
    18
420
        0
176
     1
 90
       50
176
     1
 90
        3
176
     1
 62
     5
420
      255
176
     1
290
     0
176
     1
 90
       50
176
     1
 90
       50
176
     1
 90
       50
176
     1
290
     0
176
     1
 90
       50
176
     1
 62
   256
176
     0
 40
1.0
176
     0
 90
        2
176
     1
  1
strokes_ogs.tif
176
     1
290
     0
176
     1
 40
1.0
176
     1
 40
1.0
176
     1
1001
ACAD
1000
AcDbSavedByObjectVersion
1070
     0
  0
VISUALSTYLE
  5
840A
102
{ACAD_REACTORS
330
83F8
102
}
330
83F8
100
AcDbVisualStyle
  2
Sketchy
 70
    24
177
     3
291
     0
 70
    58
 90
        1
176
     1
 90
        2
176
     1
 90
        2
176
     1
 90
        0
176
     1
 40
0.6
176
     1
 40
30.0
176
     1
 62
     7
420
 16777215
176
     1
 90
        2
176
     1
 90
        2
176
     1
 62
     7
176
     1
 62
     7
176
     1
 90
        1
176
     1
 90
        1
176
     1
 40
40.0
176
     1
 90
       11
176
     1
 62
     7
176
     1
 40
1.0
176
     1
 90
        1
176
     1
 90
        6
176
     1
 90
        2
176
     1
 62
     7
176
     1
 90
        6
176
     1
 90
        0
176
     1
 90
        0
176
     1
290
     0
176
     1
 90
        1
176
     1
 40
0.0
176
     1
 90
        0
176
     1
290
     0
176
     1
290
     1
176
     1
290
     1
176
     1
290
     0
176
     1
290
     0
176
     1
290
     0
176
     1
290
     0
176
     1
290
     0
176
     1
290
     0
176
     1
 90
       50
176
     1
 40
0.0
176
     1
 40
1.0
176
     1
 90
        0
176
     1
 62
    18
420
        0
176
     1
 90
       50
176
     1
 90
        3
176
     1
 62
     5
420
      255
176
     1
290
     0
176
     1
 90
       50
176
     1
 90
       50
176
     1
 90
       50
176
     1
290
     0
176
     1
 90
       50
176
     1
 62
   256
176
     0
 40
1.0
176
     0
 90
        2
176
     1
  1
strokes_ogs.tif
176
     1
290
     0
176
     1
 40
1.0
176
     1
 40
1.0
176
     1
1001
ACAD
1000
AcDbSavedByObjectVersion
1070
     0
  0
VISUALSTYLE
  5
8405
102
{ACAD_REACTORS
330
83F8
102
}
330
83F8
100
AcDbVisualStyle
  2
Thicken
 70
    13
177
     3
291
     1
 70
    58
 90
        2
176
     1
 90
        2
176
     1
 90
        0
176
     1
 90
        0
176
     1
 40
0.6
176
     1
 40
30.0
176
     1
 62
     7
420
 16777215
176
     1
 90
        1
176
     1
 90
        4
176
     1
 62
     7
176
     1
 62
   257
176
     1
 90
        1
176
     1
 90
        1
176
     1
 40
1.0
176
     1
 90
       12
176
     1
 62
     7
176
     1
 40
1.0
176
     1
 90
        1
176
     1
 90
        6
176
     1
 90
        2
176
     1
 62
     7
176
     1
 90
        5
176
     1
 90
        0
176
     1
 90
        0
176
     1
290
     0
176
     1
 90
        1
176
     1
 40
0.0
176
     1
 90
        0
176
     1
290
     0
176
     1
290
     1
176
     1
290
     1
176
     1
290
     0
176
     1
290
     0
176
     1
290
     0
176
     1
290
     0
176
     1
290
     0
176
     1
290
     0
176
     1
 90
       50
176
     1
 40
0.0
176
     1
 40
1.0
176
     1
 90
        0
176
     1
 62
    18
420
        0
176
     1
 90
       50
176
     1
 90
        3
176
     1
 62
     5
420
      255
176
     1
290
     0
176
     1
 90
       50
176
     1
 90
       50
176
     1
 90
       50
176
     1
290
     0
176
     1
 90
       50
176
     1
 62
   256
176
     0
 40
1.0
176
     0
 90
        2
176
     1
  1
strokes_ogs.tif
176
     1
290
     0
176
     1
 40
1.0
176
     1
 40
1.0
176
     1
1001
ACAD
1000
AcDbSavedByObjectVersion
1070
     0
  0
VISUALSTYLE
  5
83FF
102
{ACAD_REACTORS
330
83F8
102
}
330
83F8
100
AcDbVisualStyle
  2
Wireframe
 70
     5
177
     3
291
     0
 70
    58
 90
        0
176
     1
 90
        2
176
     1
 90
        0
176
     1
 90
        0
176
     1
 40
0.6
176
     1
 40
30.0
176
     1
 62
     7
420
 16777215
176
     1
 90
        1
176
     1
 90
        4
176
     1
 62
     7
176
     1
 62
   257
176
     1
 90
        1
176
     1
 90
        1
176
     1
 40
1.0
176
     1
 90
        0
176
     1
 62
   257
176
     1
 40
1.0
176
     1
 90
        1
176
     1
 90
        6
176
     1
 90
        2
176
     1
 62
     7
176
     1
 90
        3
176
     1
 90
        0
176
     1
 90
        0
176
     1
290
     0
176
     1
 90
        1
176
     1
 40
0.0
176
     1
 90
        0
176
     1
290
     0
176
     1
290
     1
176
     1
290
     1
176
     1
290
     0
176
     1
290
     0
176
     1
290
     0
176
     1
290
     0
176
     1
290
     0
176
     1
290
     0
176
     1
 90
       50
176
     1
 40
0.0
176
     1
 40
1.0
176
     1
 90
        0
176
     1
 62
    18
420
        0
176
     1
 90
       50
176
     1
 90
        3
176
     1
 62
     5
420
      255
176
     1
290
     0
176
     1
 90
       50
176
     1
 90
       50
176
     1
 90
       50
176
     1
290
     0
176
     1
 90
       50
176
     1
 62
   256
176
     0
 40
1.0
176
     0
 90
        2
176
     1
  1
strokes_ogs.tif
176
     1
290
     0
176
     1
 40
1.0
176
     1
 40
1.0
176
     1
1001
ACAD
1000
AcDbSavedByObjectVersion
1070
     0
  0
VISUALSTYLE
  5
840B
102
{ACAD_REACTORS
330
83F8
102
}
330
83F8
100
AcDbVisualStyle
  2
X-Ray
 70
    25
177
     3
291
     0
 70
    58
 90
        2
176
     1
 90
        2
176
     1
 90
        1
176
     1
 90
        1
176
     1
 40
0.5
176
     1
 40
30.0
176
     1
 62
     7
420
 16777215
176
     1
 90
        1
176
     1
 90
        0
176
     1
 62
     7
176
     1
 62
   257
176
     1
 90
        1
176
     1
 90
        1
176
     1
 40
1.0
176
     1
 90
        8
176
     1
 62
     7
176
     1
 40
1.0
176
     1
 90
        1
176
     1
 90
        6
176
     1
 90
        2
176
     1
 62
     7
176
     1
 90
        3
176
     1
 90
        0
176
     1
 90
        0
176
     1
290
     0
176
     1
 90
       13
176
     1
 40
0.0
176
     1
 90
        0
176
     1
290
     0
176
     1
290
     1
176
     1
290
     1
176
     1
290
     0
176
     1
290
     0
176
     1
290
     0
176
     1
290
     0
176
     1
290
     0
176
     1
290
     0
176
     1
 90
       50
176
     1
 40
0.0
176
     1
 40
1.0
176
     1
 90
        0
176
     1
 62
    18
420
        0
176
     1
 90
       50
176
     1
 90
        3
176
     1
 62
     5
420
      255
176
     1
290
     0
176
     1
 90
       50
176
     1
 90
       50
176
     1
 90
       50
176
     1
290
     0
176
     1
 90
       50
176
     1
 62
   256
176
     0
 40
1.0
176
     0
 90
        2
176
     1
  1
strokes_ogs.tif
176
     1
290
     0
176
     1
 40
1.0
176
     1
 40
1.0
176
     1
1001
ACAD
1000
AcDbSavedByObjectVersion
1070
     0
  0
DICTIONARYVAR
  5
84D1
102
{ACAD_REACTORS
330
83D6
102
}
330
83D6
100
DictionaryVariables
280
     0
  1
1:1
  0
DICTIONARYVAR
  5
84CD
102
{ACAD_REACTORS
330
83D6
102
}
330
83D6
100
DictionaryVariables
280
     0
  1
STANDARD
  0
DICTIONARYVAR
  5
84CC
102
{ACAD_REACTORS
330
83D6
102
}
330
83D6
100
DictionaryVariables
280
     0
  1
STANDARD
  0
DICTIONARYVAR
  5
84CE
102
{ACAD_REACTORS
330
83D6
102
}
330
83D6
100
DictionaryVariables
280
     0
  1
Metric50
  0
DICTIONARYVAR
  5
84CF
102
{ACAD_REACTORS
330
83D6
102
}
330
83D6
100
DictionaryVariables
280
     0
  1
Metric50
  0
DICTIONARYVAR
  5
83D7
102
{ACAD_REACTORS
330
83D6
102
}
330
83D6
100
DictionaryVariables
280
     0
  1
1
  0
DICTIONARYVAR
  5
84D3
102
{ACAD_REACTORS
330
83D6
102
}
330
83D6
100
DictionaryVariables
280
     0
  1
1
  0
DICTIONARYVAR
  5
84D4
102
{ACAD_REACTORS
330
83D6
102
}
330
83D6
100
DictionaryVariables
280
     0
  1
15
  0
DICTIONARYVAR
  5
84D2
102
{ACAD_REACTORS
330
83D6
102
}
330
83D6
100
DictionaryVariables
280
     0
  1
0
  0
DICTIONARYVAR
  5
84D9
102
{ACAD_REACTORS
330
83D6
102
}
330
83D6
100
DictionaryVariables
280
     0
  1
0
  0
DICTIONARYVAR
  5
84D0
102
{ACAD_REACTORS
330
83D6
102
}
330
83D6
100
DictionaryVariables
280
     0
  1
0
  0
DICTIONARY
  5
84E4
102
{ACAD_REACTORS
330
84E2
102
}
330
84E2
100
AcDbDictionary
281
     1
  0
DICTIONARY
  5
84E3
102
{ACAD_REACTORS
330
84E2
102
}
330
84E2
100
AcDbDictionary
281
     1
  3
2049004338256
350
84DD
  3
2049004338272
350
84DE
  3
2049004338288
350
84DF
  3
2049004338304
350
84E0
  3
2049004338320
350
84E1
  0
DICTIONARY
  5
84E7
330
842B
100
AcDbDictionary
280
     1
281
     1
  3
ACAD_XREC_ROUNDTRIP
360
84E8
  0
DICTIONARY
  5
83E9
330
83E8
100
AcDbDictionary
280
     1
281
     1
  3
BUMPTILE
360
83EB
  3
DIFFUSETILE
360
83EA
  3
OPACITYTILE
360
83EE
  3
REFLECTIONTILE
360
83ED
  3
REFRACTIONTILE
360
83EF
  3
SPECULARTILE
360
83EC
  0
DICTIONARY
  5
83E1
330
83E0
100
AcDbDictionary
280
     1
281
     1
  3
BUMPTILE
360
83E3
  3
DIFFUSETILE
360
83E2
  3
OPACITYTILE
360
83E6
  3
REFLECTIONTILE
360
83E5
  3
REFRACTIONTILE
360
83E7
  3
SPECULARTILE
360
83E4
  0
DICTIONARY
  5
83F1
330
83F0
100
AcDbDictionary
280
     1
281
     1
  3
BUMPTILE
360
83F3
  3
DIFFUSETILE
360
83F2
  3
OPACITYTILE
360
83F6
  3
REFLECTIONTILE
360
83F5
  3
REFRACTIONTILE
360
83F7
  3
SPECULARTILE
360
83F4
  0
DICTIONARY
  5
84E5
330
8429
100
AcDbDictionary
280
     1
281
     1
  3
ACAD_XREC_ROUNDTRIP
360
84E6
  0
DICTIONARY
  5
84DA
330
8413
100
AcDbDictionary
280
     1
281
     1
  3
ACAD_ROUNDTRIP_2008_TABLESTYLE_CELLSTYLEMAP
360
84DB
  0
XRECORD
  5
84DD
102
{ACAD_REACTORS
330
84E3
102
}
330
84E3
100
AcDbXrecord
280
     1
  1
AcDb_Thumbnail_Schema
102
{ATTRRECORD
341
84DE
  2
AcDbDs::TreatedAsObjectData
280
     1
291
     1
102
ATTRRECORD}
102
{ATTRRECORD
341
84DF
  2
AcDbDs::Legacy
280
     1
291
     1
102
ATTRRECORD}
  2
AcDbDs::ID
280
    10
 91
        8
102
{ATTRRECORD
341
84E0
  2
AcDs:Indexable
280
     1
291
     1
102
ATTRRECORD}
102
{ATTRRECORD
341
84E1
  2
AcDbDs::HandleAttribute
280
     7
282
     1
102
ATTRRECORD}
  2
Thumbnail_Data
280
    15
 91
        0
  0
XRECORD
  5
84DE
102
{ACAD_REACTORS
330
84E3
102
}
330
84E3
100
AcDbXrecord
280
     1
  1
AcDbDs::TreatedAsObjectDataSchema
  2
AcDbDs::TreatedAsObjectData
280
     1
 91
        0
  0
XRECORD
  5
84DF
102
{ACAD_REACTORS
330
84E3
102
}
330
84E3
100
AcDbXrecord
280
     1
  1
AcDbDs::LegacySchema
  2
AcDbDs::Legacy
280
     1
 91
        0
  0
XRECORD
  5
84E0
102
{ACAD_REACTORS
330
84E3
102
}
330
84E3
100
AcDbXrecord
280
     1
  1
AcDbDs::IndexedPropertySchema
  2
AcDs:Indexable
280
     1
 91
        0
  0
XRECORD
  5
84E1
102
{ACAD_REACTORS
330
84E3
102
}
330
84E3
100
AcDbXrecord
280
     1
  1
AcDbDs::HandleAttributeSchema
  2
AcDbDs::HandleAttribute
280
     7
 91
        1
284
     1
  0
XRECORD
  5
84E8
102
{ACAD_REACTORS
330
84E7
102
}
330
84E7
100
AcDbXrecord
280
     1
102
DISPLAYNAME
  1
Metric50
102
FLAGS
 90
        0
  0
XRECORD
  5
83EB
102
{ACAD_REACTORS
330
83E9
102
}
330
83E9
100
AcDbXrecord
280
     1
270
     1
271
     1
  0
XRECORD
  5
83EA
102
{ACAD_REACTORS
330
83E9
102
}
330
83E9
100
AcDbXrecord
280
     1
270
     1
271
     1
  0
XRECORD
  5
83EE
102
{ACAD_REACTORS
330
83E9
102
}
330
83E9
100
AcDbXrecord
280
     1
270
     1
271
     1
  0
XRECORD
  5
83ED
102
{ACAD_REACTORS
330
83E9
102
}
330
83E9
100
AcDbXrecord
280
     1
270
     1
271
     1
  0
XRECORD
  5
83EF
102
{ACAD_REACTORS
330
83E9
102
}
330
83E9
100
AcDbXrecord
280
     1
270
     1
271
     1
  0
XRECORD
  5
83EC
102
{ACAD_REACTORS
330
83E9
102
}
330
83E9
100
AcDbXrecord
280
     1
270
     1
271
     1
  0
XRECORD
  5
83E3
102
{ACAD_REACTORS
330
83E1
102
}
330
83E1
100
AcDbXrecord
280
     1
270
     1
271
     1
  0
XRECORD
  5
83E2
102
{ACAD_REACTORS
330
83E1
102
}
330
83E1
100
AcDbXrecord
280
     1
270
     1
271
     1
  0
XRECORD
  5
83E6
102
{ACAD_REACTORS
330
83E1
102
}
330
83E1
100
AcDbXrecord
280
     1
270
     1
271
     1
  0
XRECORD
  5
83E5
102
{ACAD_REACTORS
330
83E1
102
}
330
83E1
100
AcDbXrecord
280
     1
270
     1
271
     1
  0
XRECORD
  5
83E7
102
{ACAD_REACTORS
330
83E1
102
}
330
83E1
100
AcDbXrecord
280
     1
270
     1
271
     1
  0
XRECORD
  5
83E4
102
{ACAD_REACTORS
330
83E1
102
}
330
83E1
100
AcDbXrecord
280
     1
270
     1
271
     1
  0
XRECORD
  5
83F3
102
{ACAD_REACTORS
330
83F1
102
}
330
83F1
100
AcDbXrecord
280
     1
270
     1
271
     1
  0
XRECORD
  5
83F2
102
{ACAD_REACTORS
330
83F1
102
}
330
83F1
100
AcDbXrecord
280
     1
270
     1
271
     1
  0
XRECORD
  5
83F6
102
{ACAD_REACTORS
330
83F1
102
}
330
83F1
100
AcDbXrecord
280
     1
270
     1
271
     1
  0
XRECORD
  5
83F5
102
{ACAD_REACTORS
330
83F1
102
}
330
83F1
100
AcDbXrecord
280
     1
270
     1
271
     1
  0
XRECORD
  5
83F7
102
{ACAD_REACTORS
330
83F1
102
}
330
83F1
100
AcDbXrecord
280
     1
270
     1
271
     1
  0
XRECORD
  5
83F4
102
{ACAD_REACTORS
330
83F1
102
}
330
83F1
100
AcDbXrecord
280
     1
270
     1
271
     1
  0
XRECORD
  5
84E6
102
{ACAD_REACTORS
330
84E5
102
}
330
84E5
100
AcDbXrecord
280
     1
102
DISPLAYNAME
  1
Metric50
102
FLAGS
 90
        0
  0
CELLSTYLEMAP
  5
84DB
102
{ACAD_REACTORS
330
84DA
102
}
330
84DA
100
AcDbCellStyleMap
 90
        3
300
CELLSTYLE
  1
TABLEFORMAT_BEGIN
 90
        5
170
     1
 91
        0
 92
    32768
 62
   257
 93
        1
300
CONTENTFORMAT
  1
CONTENTFORMAT_BEGIN
 90
        0
 91
        0
 92
      512
 93
        0
300

 40
0.0
140
1.0
 94
        5
 62
     0
340
10
144
6.0
309
CONTENTFORMAT_END
171
     1
301
MARGIN
  1
CELLMARGIN_BEGIN
 40
1.5
 40
1.5
 40
1.5
 40
1.5
 40
4.5
 40
4.5
309
CELLMARGIN_END
 94
        6
 95
        1
302
GRIDFORMAT
  1
GRIDFORMAT_BEGIN
 90
        0
 91
        1
 62
     0
 92
       -2
340
0
 93
        0
 40
1.125
309
GRIDFORMAT_END
 95
        2
302
GRIDFORMAT
  1
GRIDFORMAT_BEGIN
 90
        0
 91
        1
 62
     0
 92
       -2
340
0
 93
        0
 40
1.125
309
GRIDFORMAT_END
 95
        4
302
GRIDFORMAT
  1
GRIDFORMAT_BEGIN
 90
        0
 91
        1
 62
     0
 92
       -2
340
0
 93
        0
 40
1.125
309
GRIDFORMAT_END
 95
        8
302
GRIDFORMAT
  1
GRIDFORMAT_BEGIN
 90
        0
 91
        1
 62
     0
 92
       -2
340
0
 93
        0
 40
1.125
309
GRIDFORMAT_END
 95
       16
302
GRIDFORMAT
  1
GRIDFORMAT_BEGIN
 90
        0
 91
        1
 62
     0
 92
       -2
340
0
 93
        0
 40
1.125
309
GRIDFORMAT_END
 95
       32
302
GRIDFORMAT
  1
GRIDFORMAT_BEGIN
 90
        0
 91
        1
 62
     0
 92
       -2
340
0
 93
        0
 40
1.125
309
GRIDFORMAT_END
309
TABLEFORMAT_END
  1
CELLSTYLE_BEGIN
 90
        1
 91
        1
300
_TITLE
309
CELLSTYLE_END
300
CELLSTYLE
  1
TABLEFORMAT_BEGIN
 90
        5
170
     1
 91
        0
 92
        0
 62
   257
 93
        1
300
CONTENTFORMAT
  1
CONTENTFORMAT_BEGIN
 90
        0
 91
        0
 92
      512
 93
        0
300

 40
0.0
140
1.0
 94
        5
 62
     0
340
10
144
4.5
309
CONTENTFORMAT_END
171
     1
301
MARGIN
  1
CELLMARGIN_BEGIN
 40
1.5
 40
1.5
 40
1.5
 40
1.5
 40
4.5
 40
4.5
309
CELLMARGIN_END
 94
        6
 95
        1
302
GRIDFORMAT
  1
GRIDFORMAT_BEGIN
 90
        0
 91
        1
 62
     0
 92
       -2
340
0
 93
        0
 40
1.125
309
GRIDFORMAT_END
 95
        2
302
GRIDFORMAT
  1
GRIDFORMAT_BEGIN
 90
        0
 91
        1
 62
     0
 92
       -2
340
0
 93
        0
 40
1.125
309
GRIDFORMAT_END
 95
        4
302
GRIDFORMAT
  1
GRIDFORMAT_BEGIN
 90
        0
 91
        1
 62
     0
 92
       -2
340
0
 93
        0
 40
1.125
309
GRIDFORMAT_END
 95
        8
302
GRIDFORMAT
  1
GRIDFORMAT_BEGIN
 90
        0
 91
        1
 62
     0
 92
       -2
340
0
 93
        0
 40
1.125
309
GRIDFORMAT_END
 95
       16
302
GRIDFORMAT
  1
GRIDFORMAT_BEGIN
 90
        0
 91
        1
 62
     0
 92
       -2
340
0
 93
        0
 40
1.125
309
GRIDFORMAT_END
 95
       32
302
GRIDFORMAT
  1
GRIDFORMAT_BEGIN
 90
        0
 91
        1
 62
     0
 92
       -2
340
0
 93
        0
 40
1.125
309
GRIDFORMAT_END
309
TABLEFORMAT_END
  1
CELLSTYLE_BEGIN
 90
        2
 91
        1
300
_HEADER
309
CELLSTYLE_END
300
CELLSTYLE
  1
TABLEFORMAT_BEGIN
 90
        5
170
     1
 91
        0
 92
        0
 62
   257
 93
        1
300
CONTENTFORMAT
  1
CONTENTFORMAT_BEGIN
 90
        0
 91
        0
 92
      512
 93
        0
300

 40
0.0
140
1.0
 94
        2
 62
     0
340
10
144
4.5
309
CONTENTFORMAT_END
171
     1
301
MARGIN
  1
CELLMARGIN_BEGIN
 40
1.5
 40
1.5
 40
1.5
 40
1.5
 40
4.5
 40
4.5
309
CELLMARGIN_END
 94
        6
 95
        1
302
GRIDFORMAT
  1
GRIDFORMAT_BEGIN
 90
        0
 91
        1
 62
     0
 92
       -2
340
0
 93
        0
 40
1.125
309
GRIDFORMAT_END
 95
        2
302
GRIDFORMAT
  1
GRIDFORMAT_BEGIN
 90
        0
 91
        1
 62
     0
 92
       -2
340
0
 93
        0
 40
1.125
309
GRIDFORMAT_END
 95
        4
302
GRIDFORMAT
  1
GRIDFORMAT_BEGIN
 90
        0
 91
        1
 62
     0
 92
       -2
340
0
 93
        0
 40
1.125
309
GRIDFORMAT_END
 95
        8
302
GRIDFORMAT
  1
GRIDFORMAT_BEGIN
 90
        0
 91
        1
 62
     0
 92
       -2
340
0
 93
        0
 40
1.125
309
GRIDFORMAT_END
 95
       16
302
GRIDFORMAT
  1
GRIDFORMAT_BEGIN
 90
        0
 91
        1
 62
     0
 92
       -2
340
0
 93
        0
 40
1.125
309
GRIDFORMAT_END
 95
       32
302
GRIDFORMAT
  1
GRIDFORMAT_BEGIN
 90
        0
 91
        1
 62
     0
 92
       -2
340
0
 93
        0
 40
1.125
309
GRIDFORMAT_END
309
TABLEFORMAT_END
  1
CELLSTYLE_BEGIN
 90
        3
 91
        2
300
_DATA
309
CELLSTYLE_END
  0
ENDSEC
  0
SECTION
  2
ACDSDATA
 70
     2
 71
     8
  0
ACDSSCHEMA
 90
        0
  1
AcDb_Thumbnail_Schema
  2
AcDbDs::ID
280
    10
 91
        8
  2
Thumbnail_Data
280
    15
 91
        0
101
ACDSRECORD
 95
        0
 90
        1
  2
AcDbDs::TreatedAsObjectData
280
     1
291
     1
101
ACDSRECORD
 95
        0
 90
        2
  2
AcDbDs::Legacy
280
     1
291
     1
101
ACDSRECORD
  1
AcDbDs::ID
 90
        3
  2
AcDs:Indexable
280
     1
291
     1
101
ACDSRECORD
  1
AcDbDs::ID
 90
        4
  2
AcDbDs::HandleAttribute
280
     7
282
     1
  0
ACDSSCHEMA
 90
        1
  1
AcDbDs::TreatedAsObjectDataSchema
  2
AcDbDs::TreatedAsObjectData
280
     1
 91
        0
  0
ACDSSCHEMA
 90
        2
  1
AcDbDs::LegacySchema
  2
AcDbDs::Legacy
280
     1
 91
        0
  0
ACDSSCHEMA
 90
        3
  1
AcDbDs::IndexedPropertySchema
  2
AcDs:Indexable
280
     1
 91
        0
  0
ACDSSCHEMA
 90
        4
  1
AcDbDs::HandleAttributeSchema
  2
AcDbDs::HandleAttribute
280
     7
 91
        1
284
     1
  0
ACDSRECORD
 90
        0
  2
AcDbDs::ID
280
    10
320
82EA
  2
Thumbnail_Data
280
    15
 94
     1945
310
89504E470D0A1A0A0000000D49484452000001000000009108030000001BE1960600000300504C5445000000000000C8C8C80000000000000000000000000000000000000000000000000000330000660000990000CC0000FF0033000033330033660033990033CC0033FF0066000066330066660066990066CC0066FF0099
310
000099330099660099990099CC0099FF00CC0000CC3300CC6600CC9900CCCC00CCFF00FF0000FF3300FF6600FF9900FFCC00FFFF3300003300333300663300993300CC3300FF3333003333333333663333993333CC3333FF3366003366333366663366993366CC3366FF3399003399333399663399993399CC3399FF33CC00
310
33CC3333CC6633CC9933CCCC33CCFF33FF0033FF3333FF6633FF9933FFCC33FFFF6600006600336600666600996600CC6600FF6633006633336633666633996633CC6633FF6666006666336666666666996666CC6666FF6699006699336699666699996699CC6699FF66CC0066CC3366CC6666CC9966CCCC66CCFF66FF0066
310
FF3366FF6666FF9966FFCC66FFFF9900009900339900669900999900CC9900FF9933009933339933669933999933CC9933FF9966009966339966669966999966CC9966FF9999009999339999669999999999CC9999FF99CC0099CC3399CC6699CC9999CCCC99CCFF99FF0099FF3399FF6699FF9999FFCC99FFFFCC0000CC00
310
33CC0066CC0099CC00CCCC00FFCC3300CC3333CC3366CC3399CC33CCCC33FFCC6600CC6633CC6666CC6699CC66CCCC66FFCC9900CC9933CC9966CC9999CC99CCCC99FFCCCC00CCCC33CCCC66CCCC99CCCCCCCCCCFFCCFF00CCFF33CCFF66CCFF99CCFFCCCCFFFFFF0000FF0033FF0066FF0099FF00CCFF00FFFF3300FF3333
310
FF3366FF3399FF33CCFF33FFFF6600FF6633FF6666FF6699FF66CCFF66FFFF9900FF9933FF9966FF9999FF99CCFF99FFFFCC00FFCC33FFCC66FFCC99FFCCCCFFCCFFFFFF00FFFF33FFFF66FFFF99FFFFCCFFFFFF0000000D0D0D1A1A1A2828283535354343435050505D5D5D6B6B6B787878868686939393A1A1A1AEAEAEBB
310
BBBBC9C9C9D6D6D6E4E4E4F1F1F1FFFFFF00000000000000000000000000000000000000000000000000000000000008F1915C000004544944415478DAED9D5976DB300C45B11CFE60FF9BE136F45F4B2241808324B7B11B0CEC496C4D8E79F53090448F007EB06D5F6AF05BDB66EACF04800010000240000800FFE39BDDC5
310
7EFB006EF63950000CE9DEE6D004BC2B4012F0A800E54EF08323402500D47C7400F8DCB7DCF6DF1B77EC25C2D5F7CF7BA91440EB73EBF84E850CFB44B4B56BC8DAB9E577B05401607DAD3FC0891400675FDBD142855EF502D84600C2B5D3CFA00068070E309A4DA0B8033287B363A257DBCD674614080091097A180BB47850
310
82DFA67C46687E2B67F756A64B04E07672E4B72BE01A00507A48E19E2204D444C1BA024A9A470A004A8FC080097CE6B3625A3C00048000A00440DEDBC57600300C20DF35F300A414EA9B343F1E00CC03C0BEFD83216803808B76380A1700F82949EE0E000120000480001000028057005E32C1346DAFDD66011C59BEC8799D
310
2960EF17BA36810040634097008E7EBDFA9ECECEFB0B83012000780700A10001603D2708A6C36005201AED7000E0A21109CBA9F0300C68C911017032189A36FB0B23C83C7E1705103C2C8DDDF8005F6B8313BD0700F300BC1748FC55EBD81CEF4754A601F032A29556940278227CD965DD00F2FCEE2E4F78C3611871823D00
310
B8D8CEEA1530287B54C095BDF801906700B27200EF98C0E24CE500E07E77AF003E7706A60024CF00DA2CC0D2221683471300CEE9A104759A28F3E3F526E34C012600D46E2718E6435D00402EF06E4AC8030094067E2E0D5390BC03D0874D7D00B0749F4C00DB5D7D00E03837837200E764789D1445570090BC2059C00B4107
310
A0AD18D80470F4ADAD8BEC2941AF80EA1D670044E6AC13C021FBB25E880C408D0268184075817B0F1389C10B8094F251168969FF775648E2BE2DB2E0178074D8C7BCA452B702AAF73BDE3105D481EEF906E1662151350084BA24DE7CC0990BE5D3011600D01694131B42012A07401D6B99A004D014406E20317CA81C40D13C
310
B47CB010E901F09AA2C4ECA79B3E5006A0CABFB9020A097300403973A1A61B00B27BBF7BF9A6883ADF3700A8CE826DA905707456004052849C0F9279C04E8AFCA16200CDFB63F1F15438C4008C0A6033289A87C389DDFCDEB90B00B34C1017F5F68A00B09B3D0DEFCD075400EDB4D104F401A8C11F91DFCD0E000805E08513
310
5408A0667642DA894BBC86C10EC0340C6A04700E815098F41A403A62C43211D2A9005E2B8AB802D00643304F853503E08765AD700FA0FB4F766230A4D5049ED4CA9E594086CBF26A8D00F006C0B8FE2D8F27ED00E4ACD6D5BEB1006075B13605E06305648326B02896CE0B00B9BF826F659DA9F0B4E5F1789E5E91D79FA50C
310
4057FD5A0A60793914BF824ECE6CC31300B003E0619D64EE4AE31E1494592B96CEDFF933BF1700048000100002400008001E00B87FC68878CAD27B3DB206403E3C423C90AC3D6B82BD8041052C016CEDF163ECC51400184D60EB7ED5A7EDB0278E841334A400785BD3E67D00D7FDE614C054EE8601CCF71B57403C6D2E0643
310
0120000480001000024000B00AE04BED27BFF31FCE255D9A6A8629890000000049454E44AE426082
  0
ENDSEC
  0
EOF
