  0
SECTION
  2
HEADER
  9
$ACADVER
  1
AC1027
  9
$ACADMAINTVER
 70
   125
  9
$DWGCODEPAGE
  3
ANSI_932
  9
$LASTSAVEDBY
  1
yasukiyo.ogawa
  9
$REQUIREDVERSIONS
160
                 0
  9
$INSBASE
 10
0.0
 20
0.0
 30
0.0
  9
$EXTMIN
 10
0.0
 20
0.0
 30
0.0
  9
$EXTMAX
 10
8400.0
 20
11800.0
 30
0.0
  9
$LIMMIN
 10
0.0
 20
0.0
  9
$LIMMAX
 10
297.0
 20
210.0
  9
$ORTHOMODE
 70
     1
  9
$REGENMODE
 70
     1
  9
$FILLMODE
 70
     0
  9
$QTEXTMODE
 70
     0
  9
$MIRRTEXT
 70
     1
  9
$LTSCALE
 40
100.0
  9
$ATTMODE
 70
     1
  9
$TEXTSIZE
 40
180.0
  9
$TRACEWID
 40
0.05
  9
$TEXTSTYLE
  7
STANDARD
  9
$CLAYER
  8
3
  9
$CELTYPE
  6
BYLAYER
  9
$CECOLOR
 62
   256
  9
$CELTSCALE
 40
1.0
  9
$DISPSILH
 70
     0
  9
$DIMSCALE
 40
40.0
  9
$DIMASZ
 40
2.0
  9
$DIMEXO
 40
0.5
  9
$DIMDLI
 40
10.0
  9
$DIMRND
 40
0.0
  9
$DIMDLE
 40
0.0
  9
$DIMEXE
 40
1.0
  9
$DIMTP
 40
1.0
  9
$DIMTM
 40
1.0
  9
$DIMTXT
 40
3.0
  9
$DIMCEN
 40
0.0
  9
$DIMTSZ
 40
0.0
  9
$DIMTOL
 70
     0
  9
$DIMLIM
 70
     0
  9
$DIMTIH
 70
     0
  9
$DIMTOH
 70
     0
  9
$DIMSE1
 70
     1
  9
$DIMSE2
 70
     1
  9
$DIMTAD
 70
     1
  9
$DIMZIN
 70
     8
  9
$DIMBLK
  1

  9
$DIMASO
 70
     1
  9
$DIMSHO
 70
     1
  9
$DIMPOST
  1
(<>)
  9
$DIMAPOST
  1

  9
$DIMALT
 70
     0
  9
$DIMALTD
 70
     2
  9
$DIMALTF
 40
0.039
  9
$DIMLFAC
 40
1.0
  9
$DIMTOFL
 70
     1
  9
$DIMTVP
 40
0.0
  9
$DIMTIX
 70
     0
  9
$DIMSOXD
 70
     0
  9
$DIMSAH
 70
     1
  9
$DIMBLK1
  1
NONE
  9
$DIMBLK2
  1
NONE
  9
$DIMSTYLE
  2
IGA
  9
$DIMCLRD
 70
     0
  9
$DIMCLRE
 70
     0
  9
$DIMCLRT
 70
     0
  9
$DIMTFAC
 40
10.0
  9
$DIMGAP
 40
1.0
  9
$DIMJUST
 70
     0
  9
$DIMSD1
 70
     0
  9
$DIMSD2
 70
     0
  9
$DIMTOLJ
 70
     1
  9
$DIMTZIN
 70
     8
  9
$DIMALTZ
 70
     0
  9
$DIMALTTZ
 70
     0
  9
$DIMUPT
 70
     0
  9
$DIMDEC
 70
     0
  9
$DIMTDEC
 70
     0
  9
$DIMALTU
 70
     2
  9
$DIMALTTD
 70
     2
  9
$DIMTXSTY
  7
STANDARD
  9
$DIMAUNIT
 70
     0
  9
$DIMADEC
 70
     0
  9
$DIMALTRND
 40
0.0
  9
$DIMAZIN
 70
     0
  9
$DIMDSEP
 70
    46
  9
$DIMATFIT
 70
     3
  9
$DIMFRAC
 70
     0
  9
$DIMLDRBLK
  1
NONE
  9
$DIMLUNIT
 70
     2
  9
$DIMLWD
 70
    -2
  9
$DIMLWE
 70
    -2
  9
$DIMTMOVE
 70
     2
  9
$DIMFXL
 40
1.0
  9
$DIMFXLON
 70
     0
  9
$DIMJOGANG
 40
0.7853981633974483
  9
$DIMTFILL
 70
     0
  9
$DIMTFILLCLR
 70
     0
  9
$DIMARCSYM
 70
     0
  9
$DIMLTYPE
  6

  9
$DIMLTEX1
  6

  9
$DIMLTEX2
  6

  9
$DIMTXTDIRECTION
 70
     0
  9
$LUNITS
 70
     2
  9
$LUPREC
 70
     3
  9
$SKETCHINC
 40
0.1
  9
$FILLETRAD
 40
50.0
  9
$AUNITS
 70
     0
  9
$AUPREC
 70
     0
  9
$MENU
  1
acad
  9
$ELEVATION
 40
0.0
  9
$PELEVATION
 40
0.0
  9
$THICKNESS
 40
0.0
  9
$LIMCHECK
 70
     0
  9
$CHAMFERA
 40
0.5
  9
$CHAMFERB
 40
0.5
  9
$CHAMFERC
 40
20.0
  9
$CHAMFERD
 40
0.0
  9
$SKPOLY
 70
     0
  9
$TDCREATE
 40
2451898.396168982
  9
$TDUCREATE
 40
2451898.021178704
  9
$TDUPDATE
 40
2460241.769421296
  9
$TDUUPDATE
 40
2460241.394430509
  9
$TDINDWG
 40
0.0231303588
  9
$TDUSRTIMER
 40
0.0231303588
  9
$USRTIMER
 70
     1
  9
$ANGBASE
 50
0.0
  9
$ANGDIR
 70
     0
  9
$PDMODE
 70
     0
  9
$PDSIZE
 40
0.0
  9
$PLINEWID
 40
0.0
  9
$SPLFRAME
 70
     0
  9
$SPLINETYPE
 70
     6
  9
$SPLINESEGS
 70
     8
  9
$HANDSEED
  5
8461
  9
$SURFTAB1
 70
     6
  9
$SURFTAB2
 70
     6
  9
$SURFTYPE
 70
     6
  9
$SURFU
 70
     6
  9
$SURFV
 70
     6
  9
$UCSBASE
  2

  9
$UCSNAME
  2

  9
$UCSORG
 10
0.0
 20
0.0
 30
0.0
  9
$UCSXDIR
 10
1.0
 20
0.0
 30
0.0
  9
$UCSYDIR
 10
0.0
 20
1.0
 30
0.0
  9
$UCSORTHOREF
  2

  9
$UCSORTHOVIEW
 70
     0
  9
$UCSORGTOP
 10
0.0
 20
0.0
 30
0.0
  9
$UCSORGBOTTOM
 10
0.0
 20
0.0
 30
0.0
  9
$UCSORGLEFT
 10
0.0
 20
0.0
 30
0.0
  9
$UCSORGRIGHT
 10
0.0
 20
0.0
 30
0.0
  9
$UCSORGFRONT
 10
0.0
 20
0.0
 30
0.0
  9
$UCSORGBACK
 10
0.0
 20
0.0
 30
0.0
  9
$PUCSBASE
  2

  9
$PUCSNAME
  2

  9
$PUCSORG
 10
0.0
 20
0.0
 30
0.0
  9
$PUCSXDIR
 10
1.0
 20
0.0
 30
0.0
  9
$PUCSYDIR
 10
0.0
 20
1.0
 30
0.0
  9
$PUCSORTHOREF
  2

  9
$PUCSORTHOVIEW
 70
     0
  9
$PUCSORGTOP
 10
0.0
 20
0.0
 30
0.0
  9
$PUCSORGBOTTOM
 10
0.0
 20
0.0
 30
0.0
  9
$PUCSORGLEFT
 10
0.0
 20
0.0
 30
0.0
  9
$PUCSORGRIGHT
 10
0.0
 20
0.0
 30
0.0
  9
$PUCSORGFRONT
 10
0.0
 20
0.0
 30
0.0
  9
$PUCSORGBACK
 10
0.0
 20
0.0
 30
0.0
  9
$USERI1
 70
     0
  9
$USERI2
 70
     0
  9
$USERI3
 70
     0
  9
$USERI4
 70
     0
  9
$USERI5
 70
     0
  9
$USERR1
 40
0.0
  9
$USERR2
 40
0.0
  9
$USERR3
 40
0.0
  9
$USERR4
 40
0.0
  9
$USERR5
 40
0.0
  9
$WORLDVIEW
 70
     1
  9
$SHADEDGE
 70
     3
  9
$SHADEDIF
 70
    70
  9
$TILEMODE
 70
     1
  9
$MAXACTVP
 70
    16
  9
$PINSBASE
 10
0.0
 20
0.0
 30
0.0
  9
$PLIMCHECK
 70
     0
  9
$PEXTMIN
 10
1.000000000000000E+20
 20
1.000000000000000E+20
 30
1.000000000000000E+20
  9
$PEXTMAX
 10
-1.000000000000000E+20
 20
-1.000000000000000E+20
 30
-1.000000000000000E+20
  9
$PLIMMIN
 10
0.0
 20
0.0
  9
$PLIMMAX
 10
12.0
 20
9.0
  9
$UNITMODE
 70
     0
  9
$VISRETAIN
 70
     0
  9
$PLINEGEN
 70
     0
  9
$PSLTSCALE
 70
     1
  9
$TREEDEPTH
 70
  3020
  9
$CMLSTYLE
  2
STANDARD
  9
$CMLJUST
 70
     0
  9
$CMLSCALE
 40
20.0
  9
$PROXYGRAPHICS
 70
     1
  9
$MEASUREMENT
 70
     1
  9
$CELWEIGHT
370
    -1
  9
$ENDCAPS
280
     0
  9
$JOINSTYLE
280
     0
  9
$LWDISPLAY
290
     0
  9
$INSUNITS
 70
     0
  9
$HYPERLINKBASE
  1

  9
$STYLESHEET
  1

  9
$XEDIT
290
     1
  9
$CEPSNTYPE
380
     0
  9
$PSTYLEMODE
290
     1
  9
$FINGERPRINTGUID
  2
{086B1C9B-39DB-49BF-9302-130354D1D6A1}
  9
$VERSIONGUID
  2
{9FCE73CC-E068-40FB-A598-8F8A97FDE36D}
  9
$EXTNAMES
290
     1
  9
$PSVPSCALE
 40
0.0
  9
$OLESTARTUP
290
     0
  9
$SORTENTS
280
   127
  9
$INDEXCTL
280
     0
  9
$HIDETEXT
280
     0
  9
$XCLIPFRAME
280
     2
  9
$HALOGAP
280
     0
  9
$OBSCOLOR
 70
   257
  9
$OBSLTYPE
280
     0
  9
$INTERSECTIONDISPLAY
280
     0
  9
$INTERSECTIONCOLOR
 70
   257
  9
$DIMASSOC
280
     1
  9
$PROJECTNAME
  1

  9
$CAMERADISPLAY
290
     0
  9
$LENSLENGTH
 40
50.0
  9
$CAMERAHEIGHT
 40
0.0
  9
$STEPSPERSEC
 40
2.0
  9
$STEPSIZE
 40
6.0
  9
$3DDWFPREC
 40
2.0
  9
$PSOLWIDTH
 40
0.25
  9
$PSOLHEIGHT
 40
4.0
  9
$LOFTANG1
 40
1.570796326794896
  9
$LOFTANG2
 40
1.570796326794896
  9
$LOFTMAG1
 40
0.0
  9
$LOFTMAG2
 40
0.0
  9
$LOFTPARAM
 70
     7
  9
$LOFTNORMALS
280
     1
  9
$LATITUDE
 40
37.795
  9
$LONGITUDE
 40
-122.394
  9
$NORTHDIRECTION
 40
0.0
  9
$TIMEZONE
 70
 -8000
  9
$LIGHTGLYPHDISPLAY
280
     1
  9
$TILEMODELIGHTSYNCH
280
     1
  9
$CMATERIAL
347
839A
  9
$SOLIDHIST
280
     0
  9
$SHOWHIST
280
     1
  9
$DWFFRAME
280
     2
  9
$DGNFRAME
280
     0
  9
$REALWORLDSCALE
290
     1
  9
$INTERFERECOLOR
 62
     1
  9
$INTERFEREOBJVS
345
83BC
  9
$INTERFEREVPVS
346
83B9
  9
$CSHADOW
280
     0
  9
$SHADOWPLANELOCATION
 40
0.0
  0
ENDSEC
  0
SECTION
  2
CLASSES
  0
CLASS
  1
ACDBDICTIONARYWDFLT
  2
AcDbDictionaryWithDefault
  3
ObjectDBX Classes
 90
        0
 91
        1
280
     0
281
     0
  0
CLASS
  1
DICTIONARYVAR
  2
AcDbDictionaryVar
  3
ObjectDBX Classes
 90
        0
 91
       11
280
     0
281
     0
  0
CLASS
  1
MATERIAL
  2
AcDbMaterial
  3
ObjectDBX Classes
 90
     1153
 91
        3
280
     0
281
     0
  0
CLASS
  1
VISUALSTYLE
  2
AcDbVisualStyle
  3
ObjectDBX Classes
 90
     4095
 91
       24
280
     0
281
     0
  0
CLASS
  1
TABLESTYLE
  2
AcDbTableStyle
  3
ObjectDBX Classes
 90
     4095
 91
        1
280
     0
281
     0
  0
CLASS
  1
SCALE
  2
AcDbScale
  3
ObjectDBX Classes
 90
     1153
 91
       17
280
     0
281
     0
  0
CLASS
  1
MLEADERSTYLE
  2
AcDbMLeaderStyle
  3
ACDB_MLEADERSTYLE_CLASS
 90
     4095
 91
        1
280
     0
281
     0
  0
CLASS
  1
ACDBSECTIONVIEWSTYLE
  2
AcDbSectionViewStyle
  3
ObjectDBX Classes
 90
     1025
 91
        1
280
     0
281
     0
  0
CLASS
  1
ACDBDETAILVIEWSTYLE
  2
AcDbDetailViewStyle
  3
ObjectDBX Classes
 90
     1025
 91
        1
280
     0
281
     0
  0
CLASS
  1
CELLSTYLEMAP
  2
AcDbCellStyleMap
  3
ObjectDBX Classes
 90
     1152
 91
        1
280
     0
281
     0
  0
ENDSEC
  0
SECTION
  2
TABLES
  0
TABLE
  2
VPORT
  5
8
330
0
100
AcDbSymbolTable
 70
     1
1001
ACAD
1000
DbSaveVer
1071
      278
  0
VPORT
  5
8397
330
8
100
AcDbSymbolTableRecord
100
AcDbViewportTableRecord
  2
*Active
 70
     0
 10
0.0
 20
0.0
 11
1.0
 21
1.0
 12
7113.841116720781
 22
5900.000027474012
 13
0.0
 23
0.0
 14
10.0
 24
10.0
 15
10.0
 25
10.0
 16
0.0
 26
0.0
 36
1.0
 17
0.0
 27
0.0
 37
0.0
 40
11876.28512550527
 41
2.250314465408805
 42
50.0
 43
0.0
 44
0.0
 50
0.0
 51
0.0
 71
     0
 72
   100
 73
     1
 74
     0
 75
     0
 76
     0
 77
     0
 78
     0
281
     0
 65
     1
110
0.0
120
0.0
130
0.0
111
1.0
121
0.0
131
0.0
112
0.0
122
1.0
132
0.0
 79
     0
146
0.0
348
83B8
 60
     3
 61
     5
292
     1
282
     1
141
0.0
142
0.0
 63
   250
421
  3355443
1001
ACAD_NAV_VCDISPLAY
1070
     3
  0
ENDTAB
  0
TABLE
  2
LTYPE
  5
5
330
0
100
AcDbSymbolTable
 70
     2
  0
LTYPE
  5
13
330
5
100
AcDbSymbolTableRecord
100
AcDbLinetypeTableRecord
  2
BYBLOCK
 70
     0
  3

 72
    65
 73
     0
 40
0.0
  0
LTYPE
  5
14
330
5
100
AcDbSymbolTableRecord
100
AcDbLinetypeTableRecord
  2
BYLAYER
 70
     0
  3

 72
    65
 73
     0
 40
0.0
  0
LTYPE
  5
15
330
5
100
AcDbSymbolTableRecord
100
AcDbLinetypeTableRecord
  2
CONTINUOUS
 70
     0
  3
Solid line
 72
    65
 73
     0
 40
0.0
  0
LTYPE
  5
1F
330
5
100
AcDbSymbolTableRecord
100
AcDbLinetypeTableRecord
  2
CENTER
 70
     0
  3
____ _ ____ _ ____ _ ____ _ ____ _ ____ _ ____ 
 72
    65
 73
     4
 40
2.0
 49
1.25
 74
     0
 49
-0.25
 74
     0
 49
0.25
 74
     0
 49
-0.25
 74
     0
  0
ENDTAB
  0
TABLE
  2
LAYER
  5
2
102
{ACAD_XDICTIONARY
360
8438
102
}
330
0
100
AcDbSymbolTable
 70
     6
  0
LAYER
  5
F
102
{ACAD_XDICTIONARY
360
842B
102
}
330
2
100
AcDbSymbolTableRecord
100
AcDbLayerTableRecord
  2
0
 70
     0
 62
     7
  6
CONTINUOUS
370
    -3
390
82A2
347
83AA
348
0
  0
LAYER
  5
31
102
{ACAD_XDICTIONARY
360
842D
102
}
330
2
100
AcDbSymbolTableRecord
100
AcDbLayerTableRecord
  2
3
 70
     0
 62
     2
  6
CONTINUOUS
370
    -3
390
82A2
347
83AA
348
0
  0
LAYER
  5
76D0
102
{ACAD_XDICTIONARY
360
842F
102
}
330
2
100
AcDbSymbolTableRecord
100
AcDbLayerTableRecord
  2
2
 70
     0
 62
     3
  6
CENTER
370
    -3
390
82A2
347
83AA
348
0
  0
LAYER
  5
76D1
102
{ACAD_XDICTIONARY
360
8431
102
}
330
2
100
AcDbSymbolTableRecord
100
AcDbLayerTableRecord
  2
1
 70
     0
 62
     4
  6
CONTINUOUS
370
    -3
390
82A2
347
83AA
348
0
  0
LAYER
  5
76D2
102
{ACAD_XDICTIONARY
360
8433
102
}
330
2
100
AcDbSymbolTableRecord
100
AcDbLayerTableRecord
  2
4
 70
     0
 62
     7
  6
CONTINUOUS
370
    -3
390
82A2
347
83AA
348
0
  0
LAYER
  5
7B3B
330
2
100
AcDbSymbolTableRecord
100
AcDbLayerTableRecord
  2
DEFPOINTS
 70
     0
 62
     7
  6
CONTINUOUS
290
     0
370
    -3
390
82A2
347
83AA
348
0
  0
ENDTAB
  0
TABLE
  2
STYLE
  5
3
330
0
100
AcDbSymbolTable
 70
     1
  0
STYLE
  5
10
330
3
100
AcDbSymbolTableRecord
100
AcDbTextStyleTableRecord
  2
STANDARD
 70
     0
 40
0.0
 41
1.0
 50
0.0
 71
     0
 42
180.0
  3
simplex.shx
  4
extfont.shx
  0
ENDTAB
  0
TABLE
  2
VIEW
  5
6
330
0
100
AcDbSymbolTable
 70
     0
  0
ENDTAB
  0
TABLE
  2
UCS
  5
7
330
0
100
AcDbSymbolTable
 70
     0
  0
ENDTAB
  0
TABLE
  2
APPID
  5
9
330
0
100
AcDbSymbolTable
 70
     4
  0
APPID
  5
11
330
9
100
AcDbSymbolTableRecord
100
AcDbRegAppTableRecord
  2
ACAD
 70
     0
  0
APPID
  5
83E9
330
9
100
AcDbSymbolTableRecord
100
AcDbRegAppTableRecord
  2
AcadAnnoMonitorAlertIconDisabled
 70
     0
  0
APPID
  5
83EA
330
9
100
AcDbSymbolTableRecord
100
AcDbRegAppTableRecord
  2
ACAD_EXEMPT_FROM_CAD_STANDARDS
 70
     0
  0
APPID
  5
843E
330
9
100
AcDbSymbolTableRecord
100
AcDbRegAppTableRecord
  2
ACAD_NAV_VCDISPLAY
 70
     0
  0
ENDTAB
  0
TABLE
  2
DIMSTYLE
  5
A
330
0
100
AcDbSymbolTable
 70
     1
100
AcDbDimStyleTable
 71
     0
  0
DIMSTYLE
105
1D
102
{ACAD_REACTORS
330
7C62
330
7C74
330
7C75
330
7C76
330
7C7F
330
7C80
330
7CC3
330
7CC4
330
7CC5
330
7CC6
330
7CC7
330
7D04
330
7D05
330
7D06
330
7D11
330
7D22
330
7D23
330
7D29
330
80C7
330
80DE
330
826C
330
827B
102
}
330
A
100
AcDbSymbolTableRecord
100
AcDbDimStyleTableRecord
  2
IGA
 70
     0
 40
2.0
 41
2.0
 42
0.5
 43
10.0
 44
1.0
 47
1.0
 48
1.0
 73
     0
 74
     0
 77
     1
 78
     8
140
3.0
141
0.0
143
0.03937
146
10.0
147
1.0
173
     1
271
     1
272
     0
279
     2
284
     8
340
10
341
7F77
343
7F77
344
7F77
  0
ENDTAB
  0
TABLE
  2
BLOCK_RECORD
  5
1
330
0
100
AcDbSymbolTable
 70
    26
  0
BLOCK_RECORD
  5
19
102
{ACAD_XDICTIONARY
360
82D0
102
}
330
1
100
AcDbSymbolTableRecord
100
AcDbBlockTableRecord
  2
*MODEL_SPACE
340
82A5
 70
     0
280
     1
281
     0
  0
BLOCK_RECORD
  5
16
102
{ACAD_XDICTIONARY
360
82CE
102
}
330
1
100
AcDbSymbolTableRecord
100
AcDbBlockTableRecord
  2
*PAPER_SPACE
340
82A6
 70
     0
280
     1
281
     0
  0
BLOCK_RECORD
  5
79FC
330
1
100
AcDbSymbolTableRecord
100
AcDbBlockTableRecord
  2
YA_N
340
0
102
{BLKREFS
331
7D02
331
7D19
331
7C7B
331
7CC8
331
7CD8
331
7C3A
331
7C55
331
7C56
102
}
 70
     0
280
     1
281
     0
  0
BLOCK_RECORD
  5
7D33
330
1
100
AcDbSymbolTableRecord
100
AcDbBlockTableRecord
  2
*D1
340
0
 70
     0
280
     1
281
     0
  0
BLOCK_RECORD
  5
7D3F
330
1
100
AcDbSymbolTableRecord
100
AcDbBlockTableRecord
  2
*D2
340
0
 70
     0
280
     1
281
     0
  0
BLOCK_RECORD
  5
7D4B
330
1
100
AcDbSymbolTableRecord
100
AcDbBlockTableRecord
  2
*D3
340
0
 70
     0
280
     1
281
     0
  0
BLOCK_RECORD
  5
7D57
330
1
100
AcDbSymbolTableRecord
100
AcDbBlockTableRecord
  2
*D4
340
0
 70
     0
280
     1
281
     0
  0
BLOCK_RECORD
  5
7D63
330
1
100
AcDbSymbolTableRecord
100
AcDbBlockTableRecord
  2
*D5
340
0
 70
     0
280
     1
281
     0
  0
BLOCK_RECORD
  5
7D6F
330
1
100
AcDbSymbolTableRecord
100
AcDbBlockTableRecord
  2
*D6
340
0
 70
     0
280
     1
281
     0
  0
BLOCK_RECORD
  5
7D93
330
1
100
AcDbSymbolTableRecord
100
AcDbBlockTableRecord
  2
*D7
340
0
 70
     0
280
     1
281
     0
  0
BLOCK_RECORD
  5
7D9F
330
1
100
AcDbSymbolTableRecord
100
AcDbBlockTableRecord
  2
*D8
340
0
 70
     0
280
     1
281
     0
  0
BLOCK_RECORD
  5
7DAB
330
1
100
AcDbSymbolTableRecord
100
AcDbBlockTableRecord
  2
*D9
340
0
 70
     0
280
     1
281
     0
  0
BLOCK_RECORD
  5
7DB6
330
1
100
AcDbSymbolTableRecord
100
AcDbBlockTableRecord
  2
*D10
340
0
 70
     0
280
     1
281
     0
  0
BLOCK_RECORD
  5
7DC2
330
1
100
AcDbSymbolTableRecord
100
AcDbBlockTableRecord
  2
*D11
340
0
 70
     0
280
     1
281
     0
  0
BLOCK_RECORD
  5
7DCE
330
1
100
AcDbSymbolTableRecord
100
AcDbBlockTableRecord
  2
*D12
340
0
 70
     0
280
     1
281
     0
  0
BLOCK_RECORD
  5
7DDA
330
1
100
AcDbSymbolTableRecord
100
AcDbBlockTableRecord
  2
*D13
340
0
 70
     0
280
     1
281
     0
  0
BLOCK_RECORD
  5
7DE6
330
1
100
AcDbSymbolTableRecord
100
AcDbBlockTableRecord
  2
*D14
340
0
 70
     0
280
     1
281
     0
  0
BLOCK_RECORD
  5
7DF2
330
1
100
AcDbSymbolTableRecord
100
AcDbBlockTableRecord
  2
*D15
340
0
 70
     0
280
     1
281
     0
  0
BLOCK_RECORD
  5
7E16
330
1
100
AcDbSymbolTableRecord
100
AcDbBlockTableRecord
  2
*D16
340
0
 70
     0
280
     1
281
     0
  0
BLOCK_RECORD
  5
7E22
330
1
100
AcDbSymbolTableRecord
100
AcDbBlockTableRecord
  2
*D17
340
0
 70
     0
280
     1
281
     0
  0
BLOCK_RECORD
  5
7E3B
330
1
100
AcDbSymbolTableRecord
100
AcDbBlockTableRecord
  2
*D18
340
0
 70
     0
280
     1
281
     0
  0
BLOCK_RECORD
  5
7F77
330
1
100
AcDbSymbolTableRecord
100
AcDbBlockTableRecord
  2
_OPEN
340
0
102
{BLKREFS
331
841C
331
841D
331
8425
331
8426
331
82D9
331
82DA
331
82F4
331
82F5
331
82FD
331
82FE
331
8306
331
8307
331
830F
331
8310
331
8318
331
8319
331
8321
331
8322
331
832A
331
832B
331
8333
331
8334
331
8265
331
8266
331
833C
331
833D
331
8345
331
8346
331
834E
331
834F
331
8357
331
8358
331
8360
331
8361
331
8369
331
836A
331
8375
331
837C
331
837D
331
8385
331
8386
102
}
 70
     0
280
     1
281
     0
  0
BLOCK_RECORD
  5
80BC
330
1
100
AcDbSymbolTableRecord
100
AcDbBlockTableRecord
  2
*D20
340
0
 70
     0
280
     1
281
     0
  0
BLOCK_RECORD
  5
80D2
330
1
100
AcDbSymbolTableRecord
100
AcDbBlockTableRecord
  2
*D21
340
0
 70
     0
280
     1
281
     0
  0
BLOCK_RECORD
  5
8106
330
1
100
AcDbSymbolTableRecord
100
AcDbBlockTableRecord
  2
_DOT
340
0
102
{BLKREFS
331
8374
102
}
 70
     0
280
     1
281
     0
  0
BLOCK_RECORD
  5
8260
330
1
100
AcDbSymbolTableRecord
100
AcDbBlockTableRecord
  2
*D23
340
0
 70
     0
280
     1
281
     0
  0
BLOCK_RECORD
  5
826D
330
1
100
AcDbSymbolTableRecord
100
AcDbBlockTableRecord
  2
_NONE
340
0
 70
     0
280
     1
281
     0
  0
BLOCK_RECORD
  5
8271
330
1
100
AcDbSymbolTableRecord
100
AcDbBlockTableRecord
  2
*D25
340
0
 70
     0
280
     1
281
     0
  0
ENDTAB
  0
ENDSEC
  0
SECTION
  2
BLOCKS
  0
BLOCK
  5
1A
330
19
100
AcDbEntity
  8
0
100
AcDbBlockBegin
  2
*MODEL_SPACE
 70
     0
 10
0.0
 20
0.0
 30
0.0
  3
*MODEL_SPACE
  1

  0
ENDBLK
  5
1B
330
19
100
AcDbEntity
  8
0
100
AcDbBlockEnd
  0
BLOCK
  5
17
330
16
100
AcDbEntity
 67
     1
  8
0
100
AcDbBlockBegin
  2
*PAPER_SPACE
 70
     0
 10
0.0
 20
0.0
 30
0.0
  3
*PAPER_SPACE
  1

  0
ENDBLK
  5
18
330
16
100
AcDbEntity
 67
     1
  8
0
100
AcDbBlockEnd
  0
BLOCK
  5
79FD
330
79FC
100
AcDbEntity
  8
0
100
AcDbBlockBegin
  2
YA_N
 70
     0
 10
0.0
 20
0.0
 30
0.0
  3
YA_N
  1

  0
ENDBLK
  5
79FE
330
79FC
100
AcDbEntity
  8
0
100
AcDbBlockEnd
  0
BLOCK
  5
807E
330
7D33
100
AcDbEntity
  8
0
100
AcDbBlockBegin
  2
*D1
 70
     1
 10
0.0
 20
0.0
 30
0.0
  3
*D1
  1

  0
LINE
  5
82D6
330
7D33
100
AcDbEntity
  8
3
 62
     0
440
 16777216
100
AcDbLine
 10
5545.659262902689
 20
4757.552393784735
 30
0.0
 11
5545.659262902689
 21
5025.952180251301
 31
0.0
  0
LINE
  5
82D7
330
7D33
100
AcDbEntity
  8
3
 62
     0
440
 16777216
100
AcDbLine
 10
7245.659262902688
 20
4757.552393784735
 30
0.0
 11
7245.659262902688
 21
5025.952180251301
 31
0.0
  0
LINE
  5
82D8
330
7D33
100
AcDbEntity
  8
3
 62
     0
440
 16777216
100
AcDbLine
 10
5625.659262902689
 20
4985.952180251301
 30
0.0
 11
7165.659262902689
 21
4985.952180251301
 31
0.0
  0
INSERT
  5
82D9
330
7D33
100
AcDbEntity
  8
3
 62
     0
440
 16777216
100
AcDbBlockReference
  2
_OPEN
 10
5545.659262902689
 20
4985.952180251301
 30
0.0
 41
80.0
 42
80.0
 43
80.0
 50
180.0
  0
INSERT
  5
82DA
330
7D33
100
AcDbEntity
  8
3
 62
     0
440
 16777216
100
AcDbBlockReference
  2
_OPEN
 10
7245.659262902688
 20
4985.952180251301
 30
0.0
 41
80.0
 42
80.0
 43
80.0
  0
MTEXT
  5
82DB
330
7D33
100
AcDbEntity
  8
3
 62
     0
440
 16777216
100
AcDbMText
 10
6395.65926290269
 20
5085.9521802513
 30
0.0
 40
120.0
 41
0.0
 46
0.0
 71
     5
 72
     5
  1
\A1;1700
 73
     1
 44
1.0
  0
POINT
  5
82DC
330
7D33
100
AcDbEntity
  8
DEFPOINTS
 62
     0
440
 16777216
100
AcDbPoint
 10
5545.659262902689
 20
4737.552393784735
 30
0.0
  0
POINT
  5
82DD
330
7D33
100
AcDbEntity
  8
DEFPOINTS
 62
     0
440
 16777216
100
AcDbPoint
 10
7245.659262902688
 20
4737.552393784735
 30
0.0
  0
POINT
  5
82DE
330
7D33
100
AcDbEntity
  8
DEFPOINTS
 62
     0
440
 16777216
100
AcDbPoint
 10
7245.659262902688
 20
4985.952180251301
 30
0.0
  0
ENDBLK
  5
8088
330
7D33
100
AcDbEntity
  8
0
100
AcDbBlockEnd
  0
BLOCK
  5
8186
330
7D3F
100
AcDbEntity
  8
0
100
AcDbBlockBegin
  2
*D2
 70
     1
 10
0.0
 20
0.0
 30
0.0
  3
*D2
  1

  0
LINE
  5
8422
330
7D3F
100
AcDbEntity
  8
3
 62
     0
440
 16777216
370
    -2
100
AcDbLine
 10
5075.659262902689
 20
4227.929630863207
 30
0.0
 11
5075.659262902689
 21
5279.303072215389
 31
0.0
  0
LINE
  5
8423
330
7D3F
100
AcDbEntity
  8
3
 62
     0
440
 16777216
370
    -2
100
AcDbLine
 10
6395.65926290269
 20
5196.920362397316
 30
0.0
 11
6395.65926290269
 21
5279.303072215389
 31
0.0
  0
LINE
  5
8424
330
7D3F
100
AcDbEntity
  8
3
 62
     0
440
 16777216
370
    -2
100
AcDbLine
 10
5155.65926290269
 20
5239.303072215388
 30
0.0
 11
6315.659262902689
 21
5239.303072215388
 31
0.0
  0
INSERT
  5
8425
330
7D3F
100
AcDbEntity
  8
3
 62
     0
440
 16777216
370
    -2
100
AcDbBlockReference
  2
_OPEN
 10
5075.659262902689
 20
5239.303072215388
 30
0.0
 41
80.0
 42
80.0
 43
80.0
 50
180.0
  0
INSERT
  5
8426
330
7D3F
100
AcDbEntity
  8
3
 62
     0
440
 16777216
370
    -2
100
AcDbBlockReference
  2
_OPEN
 10
6395.65926290269
 20
5239.303072215388
 30
0.0
 41
80.0
 42
80.0
 43
80.0
  0
MTEXT
  5
8427
330
7D3F
100
AcDbEntity
  8
3
 62
     0
440
 16777216
100
AcDbMText
 10
5735.659262902689
 20
5370.73164364396
 30
0.0
 40
120.0
 41
0.0
 46
0.0
 71
     5
 72
     1
  1
\A1;(1320)
 73
     1
 44
1.0
  0
POINT
  5
8428
330
7D3F
100
AcDbEntity
  8
DEFPOINTS
 62
     0
440
 16777216
100
AcDbPoint
 10
5075.659262902689
 20
4207.929630863207
 30
0.0
  0
POINT
  5
8429
330
7D3F
100
AcDbEntity
  8
DEFPOINTS
 62
     0
440
 16777216
100
AcDbPoint
 10
6395.65926290269
 20
5176.920362397315
 30
0.0
  0
POINT
  5
842A
330
7D3F
100
AcDbEntity
  8
DEFPOINTS
 62
     0
440
 16777216
100
AcDbPoint
 10
6395.65926290269
 20
5239.303072215388
 30
0.0
  0
ENDBLK
  5
8190
330
7D3F
100
AcDbEntity
  8
0
100
AcDbBlockEnd
  0
BLOCK
  5
817B
330
7D4B
100
AcDbEntity
  8
0
100
AcDbBlockBegin
  2
*D3
 70
     1
 10
0.0
 20
0.0
 30
0.0
  3
*D3
  1

  0
LINE
  5
8419
330
7D4B
100
AcDbEntity
  8
3
 62
     0
440
 16777216
370
    -2
100
AcDbLine
 10
6395.65926290269
 20
5196.920362397316
 30
0.0
 11
6395.65926290269
 21
5278.915485110204
 31
0.0
  0
LINE
  5
841A
330
7D4B
100
AcDbEntity
  8
3
 62
     0
440
 16777216
370
    -2
100
AcDbLine
 10
7415.159262902689
 20
3871.929630863208
 30
0.0
 11
7415.159262902689
 21
5278.915485110204
 31
0.0
  0
LINE
  5
841B
330
7D4B
100
AcDbEntity
  8
3
 62
     0
440
 16777216
370
    -2
100
AcDbLine
 10
6475.65926290269
 20
5238.915485110203
 30
0.0
 11
7335.159262902689
 21
5238.915485110203
 31
0.0
  0
INSERT
  5
841C
330
7D4B
100
AcDbEntity
  8
3
 62
     0
440
 16777216
370
    -2
100
AcDbBlockReference
  2
_OPEN
 10
6395.65926290269
 20
5238.915485110203
 30
0.0
 41
80.0
 42
80.0
 43
80.0
 50
180.0
  0
INSERT
  5
841D
330
7D4B
100
AcDbEntity
  8
3
 62
     0
440
 16777216
370
    -2
100
AcDbBlockReference
  2
_OPEN
 10
7415.159262902689
 20
5238.915485110203
 30
0.0
 41
80.0
 42
80.0
 43
80.0
  0
MTEXT
  5
841E
330
7D4B
100
AcDbEntity
  8
3
 62
     0
440
 16777216
100
AcDbMText
 10
6905.40926290269
 20
5370.344056538774
 30
0.0
 40
120.0
 41
0.0
 46
0.0
 71
     5
 72
     1
  1
\A1;(1020)
 73
     1
 44
1.0
  0
POINT
  5
841F
330
7D4B
100
AcDbEntity
  8
DEFPOINTS
 62
     0
440
 16777216
100
AcDbPoint
 10
6395.65926290269
 20
5176.920362397315
 30
0.0
  0
POINT
  5
8420
330
7D4B
100
AcDbEntity
  8
DEFPOINTS
 62
     0
440
 16777216
100
AcDbPoint
 10
7415.159262902689
 20
3851.929630863207
 30
0.0
  0
POINT
  5
8421
330
7D4B
100
AcDbEntity
  8
DEFPOINTS
 62
     0
440
 16777216
100
AcDbPoint
 10
7415.159262902689
 20
5238.915485110203
 30
0.0
  0
ENDBLK
  5
8185
330
7D4B
100
AcDbEntity
  8
0
100
AcDbBlockEnd
  0
BLOCK
  5
805D
330
7D57
100
AcDbEntity
  8
0
100
AcDbBlockBegin
  2
*D4
 70
     1
 10
0.0
 20
0.0
 30
0.0
  3
*D4
  1

  0
LINE
  5
82F1
330
7D57
100
AcDbEntity
  8
3
 62
     0
440
 16777216
100
AcDbLine
 10
7267.95926290269
 20
4552.929630863207
 30
0.0
 11
7696.928887815193
 21
4552.929630863207
 31
0.0
  0
LINE
  5
82F2
330
7D57
100
AcDbEntity
  8
3
 62
     0
440
 16777216
100
AcDbLine
 10
7267.95926290269
 20
3302.929630863206
 30
0.0
 11
7696.928887815193
 21
3302.929630863206
 31
0.0
  0
LINE
  5
82F3
330
7D57
100
AcDbEntity
  8
3
 62
     0
440
 16777216
100
AcDbLine
 10
7656.928887815194
 20
4472.929630863207
 30
0.0
 11
7656.928887815194
 21
3382.929630863207
 31
0.0
  0
INSERT
  5
82F4
330
7D57
100
AcDbEntity
  8
3
 62
     0
440
 16777216
100
AcDbBlockReference
  2
_OPEN
 10
7656.928887815194
 20
4552.929630863207
 30
0.0
 41
80.0
 42
80.0
 43
80.0
 50
90.0
  0
INSERT
  5
82F5
330
7D57
100
AcDbEntity
  8
3
 62
     0
440
 16777216
100
AcDbBlockReference
  2
_OPEN
 10
7656.928887815194
 20
3302.929630863206
 30
0.0
 41
80.0
 42
80.0
 43
80.0
 50
270.0
  0
MTEXT
  5
82F6
330
7D57
100
AcDbEntity
  8
3
 62
     0
440
 16777216
100
AcDbMText
 10
7556.928887815193
 20
3927.929630863209
 30
0.0
 40
120.0
 41
0.0
 46
0.0
 71
     5
 72
     5
  1
\A1;φ1250
 11
0.0000000000000001
 21
1.0
 31
0.0
 73
     1
 44
1.0
  0
POINT
  5
82F7
330
7D57
100
AcDbEntity
  8
DEFPOINTS
 62
     0
440
 16777216
100
AcDbPoint
 10
7247.959262902689
 20
4552.929630863207
 30
0.0
  0
POINT
  5
82F8
330
7D57
100
AcDbEntity
  8
DEFPOINTS
 62
     0
440
 16777216
100
AcDbPoint
 10
7247.959262902689
 20
3302.929630863206
 30
0.0
  0
POINT
  5
82F9
330
7D57
100
AcDbEntity
  8
DEFPOINTS
 62
     0
440
 16777216
100
AcDbPoint
 10
7656.928887815194
 20
3302.929630863206
 30
0.0
  0
ENDBLK
  5
8067
330
7D57
100
AcDbEntity
  8
0
100
AcDbBlockEnd
  0
BLOCK
  5
81DA
330
7D63
100
AcDbEntity
  8
0
100
AcDbBlockBegin
  2
*D5
 70
     1
 10
0.0
 20
0.0
 30
0.0
  3
*D5
  1

  0
LINE
  5
82FA
330
7D63
100
AcDbEntity
  8
3
 62
     0
440
 16777216
100
AcDbLine
 10
5204.659262902688
 20
2677.929630863208
 30
0.0
 11
5204.659262902688
 21
2314.339839180699
 31
0.0
  0
LINE
  5
82FB
330
7D63
100
AcDbEntity
  8
3
 62
     0
440
 16777216
100
AcDbLine
 10
6395.659262902689
 20
2677.929630863208
 30
0.0
 11
6395.659262902689
 21
2314.339839180699
 31
0.0
  0
LINE
  5
82FC
330
7D63
100
AcDbEntity
  8
3
 62
     0
440
 16777216
100
AcDbLine
 10
5284.659262902688
 20
2354.339839180699
 30
0.0
 11
6315.659262902688
 21
2354.339839180699
 31
0.0
  0
INSERT
  5
82FD
330
7D63
100
AcDbEntity
  8
3
 62
     0
440
 16777216
100
AcDbBlockReference
  2
_OPEN
 10
5204.659262902688
 20
2354.339839180699
 30
0.0
 41
80.0
 42
80.0
 43
80.0
 50
180.0
  0
INSERT
  5
82FE
330
7D63
100
AcDbEntity
  8
3
 62
     0
440
 16777216
100
AcDbBlockReference
  2
_OPEN
 10
6395.659262902689
 20
2354.339839180699
 30
0.0
 41
80.0
 42
80.0
 43
80.0
  0
MTEXT
  5
82FF
330
7D63
100
AcDbEntity
  8
3
 62
     0
440
 16777216
100
AcDbMText
 10
5800.159262902688
 20
2454.339839180699
 30
0.0
 40
120.0
 41
0.0
 46
0.0
 71
     5
 72
     5
  1
\A1;1191
 73
     1
 44
1.0
  0
POINT
  5
8300
330
7D63
100
AcDbEntity
  8
DEFPOINTS
 62
     0
440
 16777216
100
AcDbPoint
 10
5204.659262902688
 20
2697.929630863208
 30
0.0
  0
POINT
  5
8301
330
7D63
100
AcDbEntity
  8
DEFPOINTS
 62
     0
440
 16777216
100
AcDbPoint
 10
6395.659262902689
 20
2697.929630863208
 30
0.0
  0
POINT
  5
8302
330
7D63
100
AcDbEntity
  8
DEFPOINTS
 62
     0
440
 16777216
100
AcDbPoint
 10
6395.659262902689
 20
2354.339839180699
 30
0.0
  0
ENDBLK
  5
81E4
330
7D63
100
AcDbEntity
  8
0
100
AcDbBlockEnd
  0
BLOCK
  5
81CF
330
7D6F
100
AcDbEntity
  8
0
100
AcDbBlockBegin
  2
*D6
 70
     1
 10
0.0
 20
0.0
 30
0.0
  3
*D6
  1

  0
LINE
  5
8303
330
7D6F
100
AcDbEntity
  8
3
 62
     0
440
 16777216
100
AcDbLine
 10
6395.659262902689
 20
2677.929630863208
 30
0.0
 11
6395.659262902689
 21
2314.339839180699
 31
0.0
  0
LINE
  5
8304
330
7D6F
100
AcDbEntity
  8
3
 62
     0
440
 16777216
100
AcDbLine
 10
7324.659262902689
 20
2677.929630863208
 30
0.0
 11
7324.659262902689
 21
2314.339839180699
 31
0.0
  0
LINE
  5
8305
330
7D6F
100
AcDbEntity
  8
3
 62
     0
440
 16777216
100
AcDbLine
 10
6475.659262902688
 20
2354.339839180699
 30
0.0
 11
7244.65926290269
 21
2354.339839180699
 31
0.0
  0
INSERT
  5
8306
330
7D6F
100
AcDbEntity
  8
3
 62
     0
440
 16777216
100
AcDbBlockReference
  2
_OPEN
 10
6395.659262902689
 20
2354.339839180699
 30
0.0
 41
80.0
 42
80.0
 43
80.0
 50
180.0
  0
INSERT
  5
8307
330
7D6F
100
AcDbEntity
  8
3
 62
     0
440
 16777216
100
AcDbBlockReference
  2
_OPEN
 10
7324.659262902689
 20
2354.339839180699
 30
0.0
 41
80.0
 42
80.0
 43
80.0
  0
MTEXT
  5
8308
330
7D6F
100
AcDbEntity
  8
3
 62
     0
440
 16777216
100
AcDbMText
 10
6860.15926290269
 20
2454.339839180699
 30
0.0
 40
120.0
 41
0.0
 46
0.0
 71
     5
 72
     5
  1
\A1;929
 73
     1
 44
1.0
  0
POINT
  5
8309
330
7D6F
100
AcDbEntity
  8
DEFPOINTS
 62
     0
440
 16777216
100
AcDbPoint
 10
6395.659262902689
 20
2697.929630863208
 30
0.0
  0
POINT
  5
830A
330
7D6F
100
AcDbEntity
  8
DEFPOINTS
 62
     0
440
 16777216
100
AcDbPoint
 10
7324.659262902689
 20
2697.929630863208
 30
0.0
  0
POINT
  5
830B
330
7D6F
100
AcDbEntity
  8
DEFPOINTS
 62
     0
440
 16777216
100
AcDbPoint
 10
7324.659262902689
 20
2354.339839180699
 30
0.0
  0
ENDBLK
  5
81D9
330
7D6F
100
AcDbEntity
  8
0
100
AcDbBlockEnd
  0
BLOCK
  5
81FB
330
7D93
100
AcDbEntity
  8
0
100
AcDbBlockBegin
  2
*D7
 70
     1
 10
0.0
 20
0.0
 30
0.0
  3
*D7
  1

  0
LINE
  5
830C
330
7D93
100
AcDbEntity
  8
3
 62
     0
440
 16777216
100
AcDbLine
 10
3965.557756892302
 20
8650.308553199739
 30
0.0
 11
4434.573898128135
 21
8650.308553199737
 31
0.0
  0
LINE
  5
830D
330
7D93
100
AcDbEntity
  8
3
 62
     0
440
 16777216
100
AcDbLine
 10
3965.557756892302
 20
6530.30855319974
 30
0.0
 11
4434.573898128135
 21
6530.30855319974
 31
0.0
  0
LINE
  5
830E
330
7D93
100
AcDbEntity
  8
3
 62
     0
440
 16777216
100
AcDbLine
 10
4394.573898128135
 20
8570.308553199737
 30
0.0
 11
4394.573898128135
 21
6610.30855319974
 31
0.0
  0
INSERT
  5
830F
330
7D93
100
AcDbEntity
  8
3
 62
     0
440
 16777216
100
AcDbBlockReference
  2
_OPEN
 10
4394.573898128135
 20
8650.308553199737
 30
0.0
 41
80.0
 42
80.0
 43
80.0
 50
90.0
  0
INSERT
  5
8310
330
7D93
100
AcDbEntity
  8
3
 62
     0
440
 16777216
100
AcDbBlockReference
  2
_OPEN
 10
4394.573898128135
 20
6530.30855319974
 30
0.0
 41
80.0
 42
80.0
 43
80.0
 50
270.0
  0
MTEXT
  5
8311
330
7D93
100
AcDbEntity
  8
3
 62
     0
440
 16777216
100
AcDbMText
 10
4294.573898128134
 20
7590.308553199739
 30
0.0
 40
120.0
 41
0.0
 46
0.0
 71
     5
 72
     5
  1
\A1;2120
 11
0.0000000000000001
 21
1.0
 31
0.0
 73
     1
 44
1.0
  0
POINT
  5
8312
330
7D93
100
AcDbEntity
  8
DEFPOINTS
 62
     0
440
 16777216
100
AcDbPoint
 10
3945.557756892302
 20
8650.308553199739
 30
0.0
  0
POINT
  5
8313
330
7D93
100
AcDbEntity
  8
DEFPOINTS
 62
     0
440
 16777216
100
AcDbPoint
 10
3945.557756892302
 20
6530.30855319974
 30
0.0
  0
POINT
  5
8314
330
7D93
100
AcDbEntity
  8
DEFPOINTS
 62
     0
440
 16777216
100
AcDbPoint
 10
4394.573898128135
 20
6530.30855319974
 30
0.0
  0
ENDBLK
  5
8205
330
7D93
100
AcDbEntity
  8
0
100
AcDbBlockEnd
  0
BLOCK
  5
8026
330
7D9F
100
AcDbEntity
  8
0
100
AcDbBlockBegin
  2
*D8
 70
     1
 10
0.0
 20
0.0
 30
0.0
  3
*D8
  1

  0
LINE
  5
8315
330
7D9F
100
AcDbEntity
  8
3
 62
     0
440
 16777216
100
AcDbLine
 10
3945.557756892302
 20
8670.308553199738
 30
0.0
 11
3945.557756892302
 21
8894.944691704925
 31
0.0
  0
LINE
  5
8316
330
7D9F
100
AcDbEntity
  8
3
 62
     0
440
 16777216
100
AcDbLine
 10
2445.557756892302
 20
8670.30855319974
 30
0.0
 11
2445.557756892302
 21
8894.944691704925
 31
0.0
  0
LINE
  5
8317
330
7D9F
100
AcDbEntity
  8
3
 62
     0
440
 16777216
100
AcDbLine
 10
3865.557756892302
 20
8854.944691704925
 30
0.0
 11
2525.557756892302
 21
8854.944691704925
 31
0.0
  0
INSERT
  5
8318
330
7D9F
100
AcDbEntity
  8
3
 62
     0
440
 16777216
100
AcDbBlockReference
  2
_OPEN
 10
3945.557756892302
 20
8854.944691704925
 30
0.0
 41
80.0
 42
80.0
 43
80.0
  0
INSERT
  5
8319
330
7D9F
100
AcDbEntity
  8
3
 62
     0
440
 16777216
100
AcDbBlockReference
  2
_OPEN
 10
2445.557756892302
 20
8854.944691704925
 30
0.0
 41
80.0
 42
80.0
 43
80.0
 50
180.0
  0
MTEXT
  5
831A
330
7D9F
100
AcDbEntity
  8
3
 62
     0
440
 16777216
100
AcDbMText
 10
3195.557756892302
 20
8954.944691704925
 30
0.0
 40
120.0
 41
0.0
 46
0.0
 71
     5
 72
     5
  1
\A1;1500
 73
     1
 44
1.0
  0
POINT
  5
831B
330
7D9F
100
AcDbEntity
  8
DEFPOINTS
 62
     0
440
 16777216
100
AcDbPoint
 10
3945.557756892302
 20
8650.308553199739
 30
0.0
  0
POINT
  5
831C
330
7D9F
100
AcDbEntity
  8
DEFPOINTS
 62
     0
440
 16777216
100
AcDbPoint
 10
2445.557756892302
 20
8650.308553199741
 30
0.0
  0
POINT
  5
831D
330
7D9F
100
AcDbEntity
  8
DEFPOINTS
 62
     0
440
 16777216
100
AcDbPoint
 10
2445.557756892302
 20
8854.944691704925
 30
0.0
  0
ENDBLK
  5
8030
330
7D9F
100
AcDbEntity
  8
0
100
AcDbBlockEnd
  0
BLOCK
  5
8232
330
7DAB
100
AcDbEntity
  8
0
100
AcDbBlockBegin
  2
*D9
 70
     1
 10
0.0
 20
0.0
 30
0.0
  3
*D9
  1

  0
LINE
  5
831E
330
7DAB
100
AcDbEntity
  8
3
 62
     0
440
 16777216
100
AcDbLine
 10
2445.557756892302
 20
8670.30855319974
 30
0.0
 11
2445.557756892302
 21
8894.944691704925
 31
0.0
  0
LINE
  5
831F
330
7DAB
100
AcDbEntity
  8
3
 62
     0
440
 16777216
100
AcDbLine
 10
1295.557756892302
 20
7650.30855319974
 30
0.0
 11
1295.557756892302
 21
8894.944691704925
 31
0.0
  0
LINE
  5
8320
330
7DAB
100
AcDbEntity
  8
3
 62
     0
440
 16777216
100
AcDbLine
 10
2365.557756892302
 20
8854.944691704925
 30
0.0
 11
1375.557756892302
 21
8854.944691704925
 31
0.0
  0
INSERT
  5
8321
330
7DAB
100
AcDbEntity
  8
3
 62
     0
440
 16777216
100
AcDbBlockReference
  2
_OPEN
 10
2445.557756892302
 20
8854.944691704925
 30
0.0
 41
80.0
 42
80.0
 43
80.0
  0
INSERT
  5
8322
330
7DAB
100
AcDbEntity
  8
3
 62
     0
440
 16777216
100
AcDbBlockReference
  2
_OPEN
 10
1295.557756892302
 20
8854.944691704925
 30
0.0
 41
80.0
 42
80.0
 43
80.0
 50
180.0
  0
MTEXT
  5
8323
330
7DAB
100
AcDbEntity
  8
3
 62
     0
440
 16777216
100
AcDbMText
 10
1870.557756892302
 20
8954.944691704925
 30
0.0
 40
120.0
 41
0.0
 46
0.0
 71
     5
 72
     5
  1
\A1;1150
 73
     1
 44
1.0
  0
POINT
  5
8324
330
7DAB
100
AcDbEntity
  8
DEFPOINTS
 62
     0
440
 16777216
100
AcDbPoint
 10
2445.557756892302
 20
8650.308553199741
 30
0.0
  0
POINT
  5
8325
330
7DAB
100
AcDbEntity
  8
DEFPOINTS
 62
     0
440
 16777216
100
AcDbPoint
 10
1295.557756892302
 20
7630.308553199741
 30
0.0
  0
POINT
  5
8326
330
7DAB
100
AcDbEntity
  8
DEFPOINTS
 62
     0
440
 16777216
100
AcDbPoint
 10
1295.557756892302
 20
8854.944691704925
 30
0.0
  0
ENDBLK
  5
823C
330
7DAB
100
AcDbEntity
  8
0
100
AcDbBlockEnd
  0
BLOCK
  5
8227
330
7DB6
100
AcDbEntity
  8
0
100
AcDbBlockBegin
  2
*D10
 70
     1
 10
0.0
 20
0.0
 30
0.0
  3
*D10
  1

  0
LINE
  5
8327
330
7DB6
100
AcDbEntity
  8
3
 62
     0
440
 16777216
100
AcDbLine
 10
1275.557756892301
 20
7630.308553199741
 30
0.0
 11
989.2313557847231
 21
7630.308553199741
 31
0.0
  0
LINE
  5
8328
330
7DB6
100
AcDbEntity
  8
3
 62
     0
440
 16777216
100
AcDbLine
 10
1275.557756892301
 20
6530.308553199741
 30
0.0
 11
989.2313557847229
 21
6530.308553199741
 31
0.0
  0
LINE
  5
8329
330
7DB6
100
AcDbEntity
  8
3
 62
     0
440
 16777216
100
AcDbLine
 10
1029.231355784723
 20
7550.30855319974
 30
0.0
 11
1029.231355784723
 21
6610.30855319974
 31
0.0
  0
INSERT
  5
832A
330
7DB6
100
AcDbEntity
  8
3
 62
     0
440
 16777216
100
AcDbBlockReference
  2
_OPEN
 10
1029.231355784723
 20
7630.308553199741
 30
0.0
 41
80.0
 42
80.0
 43
80.0
 50
90.0
  0
INSERT
  5
832B
330
7DB6
100
AcDbEntity
  8
3
 62
     0
440
 16777216
100
AcDbBlockReference
  2
_OPEN
 10
1029.231355784723
 20
6530.308553199741
 30
0.0
 41
80.0
 42
80.0
 43
80.0
 50
270.0
  0
MTEXT
  5
832C
330
7DB6
100
AcDbEntity
  8
3
 62
     0
440
 16777216
100
AcDbMText
 10
929.2313557847219
 20
7080.308553199741
 30
0.0
 40
120.0
 41
0.0
 46
0.0
 71
     5
 72
     5
  1
\A1;1100
 11
0.0000000000000001
 21
1.0
 31
0.0
 73
     1
 44
1.0
  0
POINT
  5
832D
330
7DB6
100
AcDbEntity
  8
DEFPOINTS
 62
     0
440
 16777216
100
AcDbPoint
 10
1295.557756892302
 20
7630.308553199741
 30
0.0
  0
POINT
  5
832E
330
7DB6
100
AcDbEntity
  8
DEFPOINTS
 62
     0
440
 16777216
100
AcDbPoint
 10
1295.557756892302
 20
6530.308553199741
 30
0.0
  0
POINT
  5
832F
330
7DB6
100
AcDbEntity
  8
DEFPOINTS
 62
     0
440
 16777216
100
AcDbPoint
 10
1029.231355784723
 20
6530.308553199741
 30
0.0
  0
ENDBLK
  5
8231
330
7DB6
100
AcDbEntity
  8
0
100
AcDbBlockEnd
  0
BLOCK
  5
823D
330
7DC2
100
AcDbEntity
  8
0
100
AcDbBlockBegin
  2
*D11
 70
     1
 10
0.0
 20
0.0
 30
0.0
  3
*D11
  1

  0
LINE
  5
8330
330
7DC2
100
AcDbEntity
  8
3
 62
     0
440
 16777216
100
AcDbLine
 10
1295.557756892302
 20
6510.308553199741
 30
0.0
 11
1295.557756892302
 21
6114.554675010087
 31
0.0
  0
LINE
  5
8331
330
7DC2
100
AcDbEntity
  8
3
 62
     0
440
 16777216
100
AcDbLine
 10
3945.557756892302
 20
6510.308553199739
 30
0.0
 11
3945.557756892302
 21
6114.554675010087
 31
0.0
  0
LINE
  5
8332
330
7DC2
100
AcDbEntity
  8
3
 62
     0
440
 16777216
100
AcDbLine
 10
1375.557756892302
 20
6154.554675010087
 30
0.0
 11
3865.557756892302
 21
6154.554675010087
 31
0.0
  0
INSERT
  5
8333
330
7DC2
100
AcDbEntity
  8
3
 62
     0
440
 16777216
100
AcDbBlockReference
  2
_OPEN
 10
1295.557756892302
 20
6154.554675010087
 30
0.0
 41
80.0
 42
80.0
 43
80.0
 50
180.0
  0
INSERT
  5
8334
330
7DC2
100
AcDbEntity
  8
3
 62
     0
440
 16777216
100
AcDbBlockReference
  2
_OPEN
 10
3945.557756892302
 20
6154.554675010087
 30
0.0
 41
80.0
 42
80.0
 43
80.0
  0
MTEXT
  5
8335
330
7DC2
100
AcDbEntity
  8
3
 62
     0
440
 16777216
100
AcDbMText
 10
2620.557756892302
 20
6254.554675010087
 30
0.0
 40
120.0
 41
0.0
 46
0.0
 71
     5
 72
     5
  1
\A1;2650
 73
     1
 44
1.0
  0
POINT
  5
8336
330
7DC2
100
AcDbEntity
  8
DEFPOINTS
 62
     0
440
 16777216
100
AcDbPoint
 10
1295.557756892302
 20
6530.308553199741
 30
0.0
  0
POINT
  5
8337
330
7DC2
100
AcDbEntity
  8
DEFPOINTS
 62
     0
440
 16777216
100
AcDbPoint
 10
3945.557756892302
 20
6530.30855319974
 30
0.0
  0
POINT
  5
8338
330
7DC2
100
AcDbEntity
  8
DEFPOINTS
 62
     0
440
 16777216
100
AcDbPoint
 10
3945.557756892302
 20
6154.554675010087
 30
0.0
  0
ENDBLK
  5
8247
330
7DC2
100
AcDbEntity
  8
0
100
AcDbBlockEnd
  0
BLOCK
  5
815A
330
7DCE
100
AcDbEntity
  8
0
100
AcDbBlockBegin
  2
*D12
 70
     1
 10
0.0
 20
0.0
 30
0.0
  3
*D12
  1

  0
LINE
  5
8339
330
7DCE
100
AcDbEntity
  8
3
 62
     0
440
 16777216
100
AcDbLine
 10
3945.557756892302
 20
2677.929630863208
 30
0.0
 11
3945.557756892302
 21
2317.994004136526
 31
0.0
  0
LINE
  5
833A
330
7DCE
100
AcDbEntity
  8
3
 62
     0
440
 16777216
100
AcDbLine
 10
3195.557756892302
 20
2677.929630863208
 30
0.0
 11
3195.557756892302
 21
2317.994004136526
 31
0.0
  0
LINE
  5
833B
330
7DCE
100
AcDbEntity
  8
3
 62
     0
440
 16777216
100
AcDbLine
 10
3865.557756892302
 20
2357.994004136526
 30
0.0
 11
3275.557756892302
 21
2357.994004136526
 31
0.0
  0
INSERT
  5
833C
330
7DCE
100
AcDbEntity
  8
3
 62
     0
440
 16777216
100
AcDbBlockReference
  2
_OPEN
 10
3945.557756892302
 20
2357.994004136526
 30
0.0
 41
80.0
 42
80.0
 43
80.0
  0
INSERT
  5
833D
330
7DCE
100
AcDbEntity
  8
3
 62
     0
440
 16777216
100
AcDbBlockReference
  2
_OPEN
 10
3195.557756892302
 20
2357.994004136526
 30
0.0
 41
80.0
 42
80.0
 43
80.0
 50
180.0
  0
MTEXT
  5
833E
330
7DCE
100
AcDbEntity
  8
3
 62
     0
440
 16777216
100
AcDbMText
 10
3570.557756892302
 20
2457.994004136526
 30
0.0
 40
120.0
 41
0.0
 46
0.0
 71
     5
 72
     5
  1
\A1;750
 73
     1
 44
1.0
  0
POINT
  5
833F
330
7DCE
100
AcDbEntity
  8
DEFPOINTS
 62
     0
440
 16777216
100
AcDbPoint
 10
3945.557756892302
 20
2697.929630863208
 30
0.0
  0
POINT
  5
8340
330
7DCE
100
AcDbEntity
  8
DEFPOINTS
 62
     0
440
 16777216
100
AcDbPoint
 10
3195.557756892302
 20
2697.929630863208
 30
0.0
  0
POINT
  5
8341
330
7DCE
100
AcDbEntity
  8
DEFPOINTS
 62
     0
440
 16777216
100
AcDbPoint
 10
3195.557756892302
 20
2357.994004136526
 30
0.0
  0
ENDBLK
  5
8164
330
7DCE
100
AcDbEntity
  8
0
100
AcDbBlockEnd
  0
BLOCK
  5
7FEF
330
7DDA
100
AcDbEntity
  8
0
100
AcDbBlockBegin
  2
*D13
 70
     1
 10
0.0
 20
0.0
 30
0.0
  3
*D13
  1

  0
LINE
  5
8342
330
7DDA
100
AcDbEntity
  8
3
 62
     0
440
 16777216
100
AcDbLine
 10
1861.557756892302
 20
4772.929630863207
 30
0.0
 11
1861.557756892302
 21
5045.940663553165
 31
0.0
  0
LINE
  5
8343
330
7DDA
100
AcDbEntity
  8
3
 62
     0
440
 16777216
100
AcDbLine
 10
3141.557756892302
 20
4772.929630863207
 30
0.0
 11
3141.557756892302
 21
5045.940663553165
 31
0.0
  0
LINE
  5
8344
330
7DDA
100
AcDbEntity
  8
3
 62
     0
440
 16777216
100
AcDbLine
 10
1941.557756892302
 20
5005.940663553165
 30
0.0
 11
3061.557756892302
 21
5005.940663553165
 31
0.0
  0
INSERT
  5
8345
330
7DDA
100
AcDbEntity
  8
3
 62
     0
440
 16777216
100
AcDbBlockReference
  2
_OPEN
 10
1861.557756892302
 20
5005.940663553165
 30
0.0
 41
80.0
 42
80.0
 43
80.0
 50
180.0
  0
INSERT
  5
8346
330
7DDA
100
AcDbEntity
  8
3
 62
     0
440
 16777216
100
AcDbBlockReference
  2
_OPEN
 10
3141.557756892302
 20
5005.940663553165
 30
0.0
 41
80.0
 42
80.0
 43
80.0
  0
MTEXT
  5
8347
330
7DDA
100
AcDbEntity
  8
3
 62
     0
440
 16777216
100
AcDbMText
 10
2501.557756892302
 20
5105.940663553165
 30
0.0
 40
120.0
 41
0.0
 46
0.0
 71
     5
 72
     5
  1
\A1;1280
 73
     1
 44
1.0
  0
POINT
  5
8348
330
7DDA
100
AcDbEntity
  8
DEFPOINTS
 62
     0
440
 16777216
100
AcDbPoint
 10
1861.557756892302
 20
4752.929630863207
 30
0.0
  0
POINT
  5
8349
330
7DDA
100
AcDbEntity
  8
DEFPOINTS
 62
     0
440
 16777216
100
AcDbPoint
 10
3141.557756892302
 20
4752.929630863207
 30
0.0
  0
POINT
  5
834A
330
7DDA
100
AcDbEntity
  8
DEFPOINTS
 62
     0
440
 16777216
100
AcDbPoint
 10
3141.557756892302
 20
5005.940663553165
 30
0.0
  0
ENDBLK
  5
7FF9
330
7DDA
100
AcDbEntity
  8
0
100
AcDbBlockEnd
  0
BLOCK
  5
7FE4
330
7DE6
100
AcDbEntity
  8
0
100
AcDbBlockBegin
  2
*D14
 70
     1
 10
0.0
 20
0.0
 30
0.0
  3
*D14
  1

  0
LINE
  5
834B
330
7DE6
100
AcDbEntity
  8
3
 62
     0
440
 16777216
100
AcDbLine
 10
1861.557756892302
 20
4772.929630863207
 30
0.0
 11
1861.557756892302
 21
5293.003506009694
 31
0.0
  0
LINE
  5
834C
330
7DE6
100
AcDbEntity
  8
3
 62
     0
440
 16777216
100
AcDbLine
 10
3195.557756892302
 20
4851.366169112059
 30
0.0
 11
3195.557756892302
 21
5293.003506009694
 31
0.0
  0
LINE
  5
834D
330
7DE6
100
AcDbEntity
  8
3
 62
     0
440
 16777216
100
AcDbLine
 10
1941.557756892302
 20
5253.003506009694
 30
0.0
 11
3115.557756892302
 21
5253.003506009694
 31
0.0
  0
INSERT
  5
834E
330
7DE6
100
AcDbEntity
  8
3
 62
     0
440
 16777216
100
AcDbBlockReference
  2
_OPEN
 10
1861.557756892302
 20
5253.003506009694
 30
0.0
 41
80.0
 42
80.0
 43
80.0
 50
180.0
  0
INSERT
  5
834F
330
7DE6
100
AcDbEntity
  8
3
 62
     0
440
 16777216
100
AcDbBlockReference
  2
_OPEN
 10
3195.557756892302
 20
5253.003506009694
 30
0.0
 41
80.0
 42
80.0
 43
80.0
  0
MTEXT
  5
8350
330
7DE6
100
AcDbEntity
  8
3
 62
     0
440
 16777216
100
AcDbMText
 10
2528.557756892302
 20
5353.003506009694
 30
0.0
 40
120.0
 41
0.0
 46
0.0
 71
     5
 72
     5
  1
\A1;1334
 73
     1
 44
1.0
  0
POINT
  5
8351
330
7DE6
100
AcDbEntity
  8
DEFPOINTS
 62
     0
440
 16777216
100
AcDbPoint
 10
1861.557756892302
 20
4752.929630863207
 30
0.0
  0
POINT
  5
8352
330
7DE6
100
AcDbEntity
  8
DEFPOINTS
 62
     0
440
 16777216
100
AcDbPoint
 10
3195.557756892302
 20
4831.36616911206
 30
0.0
  0
POINT
  5
8353
330
7DE6
100
AcDbEntity
  8
DEFPOINTS
 62
     0
440
 16777216
100
AcDbPoint
 10
3195.557756892302
 20
5253.003506009694
 30
0.0
  0
ENDBLK
  5
7FEE
330
7DE6
100
AcDbEntity
  8
0
100
AcDbBlockEnd
  0
BLOCK
  5
81AC
330
7DF2
100
AcDbEntity
  8
0
100
AcDbBlockBegin
  2
*D15
 70
     1
 10
0.0
 20
0.0
 30
0.0
  3
*D15
  1

  0
LINE
  5
8354
330
7DF2
100
AcDbEntity
  8
3
 62
     0
440
 16777216
100
AcDbLine
 10
1295.557756892302
 20
2677.929630863208
 30
0.0
 11
1295.557756892302
 21
2317.767502397266
 31
0.0
  0
LINE
  5
8355
330
7DF2
100
AcDbEntity
  8
3
 62
     0
440
 16777216
100
AcDbLine
 10
3195.557756892302
 20
2677.929630863208
 30
0.0
 11
3195.557756892302
 21
2317.767502397266
 31
0.0
  0
LINE
  5
8356
330
7DF2
100
AcDbEntity
  8
3
 62
     0
440
 16777216
100
AcDbLine
 10
1375.557756892302
 20
2357.767502397266
 30
0.0
 11
3115.557756892302
 21
2357.767502397266
 31
0.0
  0
INSERT
  5
8357
330
7DF2
100
AcDbEntity
  8
3
 62
     0
440
 16777216
100
AcDbBlockReference
  2
_OPEN
 10
1295.557756892302
 20
2357.767502397266
 30
0.0
 41
80.0
 42
80.0
 43
80.0
 50
180.0
  0
INSERT
  5
8358
330
7DF2
100
AcDbEntity
  8
3
 62
     0
440
 16777216
100
AcDbBlockReference
  2
_OPEN
 10
3195.557756892302
 20
2357.767502397266
 30
0.0
 41
80.0
 42
80.0
 43
80.0
  0
MTEXT
  5
8359
330
7DF2
100
AcDbEntity
  8
3
 62
     0
440
 16777216
100
AcDbMText
 10
2245.557756892302
 20
2457.767502397266
 30
0.0
 40
120.0
 41
0.0
 46
0.0
 71
     5
 72
     5
  1
\A1;1900
 73
     1
 44
1.0
  0
POINT
  5
835A
330
7DF2
100
AcDbEntity
  8
DEFPOINTS
 62
     0
440
 16777216
100
AcDbPoint
 10
1295.557756892302
 20
2697.929630863208
 30
0.0
  0
POINT
  5
835B
330
7DF2
100
AcDbEntity
  8
DEFPOINTS
 62
     0
440
 16777216
100
AcDbPoint
 10
3195.557756892302
 20
2697.929630863208
 30
0.0
  0
POINT
  5
835C
330
7DF2
100
AcDbEntity
  8
DEFPOINTS
 62
     0
440
 16777216
100
AcDbPoint
 10
3195.557756892302
 20
2357.767502397266
 30
0.0
  0
ENDBLK
  5
81B6
330
7DF2
100
AcDbEntity
  8
0
100
AcDbBlockEnd
  0
BLOCK
  5
7FB8
330
7E16
100
AcDbEntity
  8
0
100
AcDbBlockBegin
  2
*D16
 70
     1
 10
0.0
 20
0.0
 30
0.0
  3
*D16
  1

  0
LINE
  5
835D
330
7E16
100
AcDbEntity
  8
3
 62
     0
440
 16777216
100
AcDbLine
 10
3214.557756892302
 20
4752.929630863207
 30
0.0
 11
4399.792441257581
 21
4752.929630863207
 31
0.0
  0
LINE
  5
835E
330
7E16
100
AcDbEntity
  8
3
 62
     0
440
 16777216
100
AcDbLine
 10
4201.583893614581
 20
3927.929630863208
 30
0.0
 11
4399.792441257581
 21
3927.929630863208
 31
0.0
  0
LINE
  5
835F
330
7E16
100
AcDbEntity
  8
3
 62
     0
440
 16777216
100
AcDbLine
 10
4359.792441257581
 20
4672.929630863207
 30
0.0
 11
4359.792441257581
 21
4007.929630863207
 31
0.0
  0
INSERT
  5
8360
330
7E16
100
AcDbEntity
  8
3
 62
     0
440
 16777216
100
AcDbBlockReference
  2
_OPEN
 10
4359.792441257581
 20
4752.929630863207
 30
0.0
 41
80.0
 42
80.0
 43
80.0
 50
90.0
  0
INSERT
  5
8361
330
7E16
100
AcDbEntity
  8
3
 62
     0
440
 16777216
100
AcDbBlockReference
  2
_OPEN
 10
4359.792441257581
 20
3927.929630863208
 30
0.0
 41
80.0
 42
80.0
 43
80.0
 50
270.0
  0
MTEXT
  5
8362
330
7E16
100
AcDbEntity
  8
3
 62
     0
440
 16777216
100
AcDbMText
 10
4259.79244125758
 20
4340.429630863208
 30
0.0
 40
120.0
 41
0.0
 46
0.0
 71
     5
 72
     5
  1
\A1;825
 11
0.0000000000000001
 21
1.0
 31
0.0
 73
     1
 44
1.0
  0
POINT
  5
8363
330
7E16
100
AcDbEntity
  8
DEFPOINTS
 62
     0
440
 16777216
100
AcDbPoint
 10
3194.557756892302
 20
4752.929630863207
 30
0.0
  0
POINT
  5
8364
330
7E16
100
AcDbEntity
  8
DEFPOINTS
 62
     0
440
 16777216
100
AcDbPoint
 10
4181.583893614581
 20
3927.929630863208
 30
0.0
  0
POINT
  5
8365
330
7E16
100
AcDbEntity
  8
DEFPOINTS
 62
     0
440
 16777216
100
AcDbPoint
 10
4359.792441257581
 20
3927.929630863208
 30
0.0
  0
ENDBLK
  5
7FC2
330
7E16
100
AcDbEntity
  8
0
100
AcDbBlockEnd
  0
BLOCK
  5
7FAD
330
7E22
100
AcDbEntity
  8
0
100
AcDbBlockBegin
  2
*D17
 70
     1
 10
0.0
 20
0.0
 30
0.0
  3
*D17
  1

  0
LINE
  5
8366
330
7E22
100
AcDbEntity
  8
3
 62
     0
440
 16777216
100
AcDbLine
 10
4201.583893614581
 20
3927.929630863208
 30
0.0
 11
4399.792441257581
 21
3927.929630863208
 31
0.0
  0
LINE
  5
8367
330
7E22
100
AcDbEntity
  8
3
 62
     0
440
 16777216
100
AcDbLine
 10
3965.557756892302
 20
2817.929630863208
 30
0.0
 11
4399.792441257581
 21
2817.929630863208
 31
0.0
  0
LINE
  5
8368
330
7E22
100
AcDbEntity
  8
3
 62
     0
440
 16777216
100
AcDbLine
 10
4359.792441257581
 20
3847.929630863207
 30
0.0
 11
4359.792441257581
 21
2897.929630863208
 31
0.0
  0
INSERT
  5
8369
330
7E22
100
AcDbEntity
  8
3
 62
     0
440
 16777216
100
AcDbBlockReference
  2
_OPEN
 10
4359.792441257581
 20
3927.929630863208
 30
0.0
 41
80.0
 42
80.0
 43
80.0
 50
90.0
  0
INSERT
  5
836A
330
7E22
100
AcDbEntity
  8
3
 62
     0
440
 16777216
100
AcDbBlockReference
  2
_OPEN
 10
4359.792441257581
 20
2817.929630863208
 30
0.0
 41
80.0
 42
80.0
 43
80.0
 50
270.0
  0
MTEXT
  5
836B
330
7E22
100
AcDbEntity
  8
3
 62
     0
440
 16777216
100
AcDbMText
 10
4259.79244125758
 20
3372.929630863208
 30
0.0
 40
120.0
 41
0.0
 46
0.0
 71
     5
 72
     5
  1
\A1;1110
 11
0.0000000000000001
 21
1.0
 31
0.0
 73
     1
 44
1.0
  0
POINT
  5
836C
330
7E22
100
AcDbEntity
  8
DEFPOINTS
 62
     0
440
 16777216
100
AcDbPoint
 10
4181.583893614581
 20
3927.929630863208
 30
0.0
  0
POINT
  5
836D
330
7E22
100
AcDbEntity
  8
DEFPOINTS
 62
     0
440
 16777216
100
AcDbPoint
 10
3945.557756892302
 20
2817.929630863208
 30
0.0
  0
POINT
  5
836E
330
7E22
100
AcDbEntity
  8
DEFPOINTS
 62
     0
440
 16777216
100
AcDbPoint
 10
4359.792441257581
 20
2817.929630863208
 30
0.0
  0
ENDBLK
  5
7FB7
330
7E22
100
AcDbEntity
  8
0
100
AcDbBlockEnd
  0
BLOCK
  5
81C2
330
7E3B
100
AcDbEntity
  8
0
100
AcDbBlockBegin
  2
*D18
 70
     1
 10
0.0
 20
0.0
 30
0.0
  3
*D18
  1

  0
LINE
  5
836F
330
7E3B
100
AcDbEntity
  8
3
 62
     0
440
 16777216
100
AcDbLine
 10
3965.557756892302
 20
2772.929630863208
 30
0.0
 11
4399.792441257581
 21
2772.929630863208
 31
0.0
  0
LINE
  5
8370
330
7E3B
100
AcDbEntity
  8
3
 62
     0
440
 16777216
100
AcDbLine
 10
3965.557756892302
 20
2697.929630863208
 30
0.0
 11
4399.792441257581
 21
2697.929630863208
 31
0.0
  0
LINE
  5
8371
330
7E3B
100
AcDbEntity
  8
3
 62
     0
440
 16777216
100
AcDbLine
 10
4359.792441257581
 20
2852.929630863208
 30
0.0
 11
4359.792441257581
 21
2932.929630863208
 31
0.0
  0
LINE
  5
8372
330
7E3B
100
AcDbEntity
  8
3
 62
     0
440
 16777216
100
AcDbLine
 10
4359.792441257581
 20
2617.929630863208
 30
0.0
 11
4359.792441257581
 21
2263.643916577493
 31
0.0
  0
LINE
  5
8373
330
7E3B
100
AcDbEntity
  8
3
 62
     0
440
 16777216
100
AcDbLine
 10
4359.792441257581
 20
2772.929630863208
 30
0.0
 11
4359.792441257581
 21
2697.929630863208
 31
0.0
  0
INSERT
  5
8374
330
7E3B
100
AcDbEntity
  8
3
 62
     0
440
 16777216
100
AcDbBlockReference
  2
_DOT
 10
4359.792441257581
 20
2772.929630863208
 30
0.0
 41
80.0
 42
80.0
 43
80.0
 50
270.0
  0
INSERT
  5
8375
330
7E3B
100
AcDbEntity
  8
3
 62
     0
440
 16777216
100
AcDbBlockReference
  2
_OPEN
 10
4359.792441257581
 20
2697.929630863208
 30
0.0
 41
80.0
 42
80.0
 43
80.0
 50
90.0
  0
MTEXT
  5
8376
330
7E3B
100
AcDbEntity
  8
3
 62
     0
440
 16777216
100
AcDbMText
 10
4259.79244125758
 20
2400.786773720351
 30
0.0
 40
120.0
 41
0.0
 46
0.0
 71
     5
 72
     5
  1
\A1;75
 11
0.0000000000000001
 21
1.0
 31
0.0
 73
     1
 44
1.0
  0
POINT
  5
8377
330
7E3B
100
AcDbEntity
  8
DEFPOINTS
 62
     0
440
 16777216
100
AcDbPoint
 10
3945.557756892302
 20
2772.929630863208
 30
0.0
  0
POINT
  5
8378
330
7E3B
100
AcDbEntity
  8
DEFPOINTS
 62
     0
440
 16777216
100
AcDbPoint
 10
3945.557756892302
 20
2697.929630863208
 30
0.0
  0
POINT
  5
8379
330
7E3B
100
AcDbEntity
  8
DEFPOINTS
 62
     0
440
 16777216
100
AcDbPoint
 10
4359.792441257581
 20
2697.929630863208
 30
0.0
  0
ENDBLK
  5
81CE
330
7E3B
100
AcDbEntity
  8
0
100
AcDbBlockEnd
  0
BLOCK
  5
7F78
330
7F77
100
AcDbEntity
  8
0
100
AcDbBlockBegin
  2
_OPEN
 70
     0
 10
0.0
 20
0.0
 30
0.0
  3
_OPEN
  1

  0
LINE
  5
7F79
330
7F77
100
AcDbEntity
  8
0
  6
ByBlock
 62
     0
100
AcDbLine
 10
-1.0
 20
0.1666666666666666
 30
0.0
 11
0.0
 21
0.0
 31
0.0
  0
LINE
  5
7F7A
330
7F77
100
AcDbEntity
  8
0
  6
ByBlock
 62
     0
100
AcDbLine
 10
0.0
 20
0.0
 30
0.0
 11
-1.0
 21
-0.1666666666666666
 31
0.0
  0
LINE
  5
7F7B
330
7F77
100
AcDbEntity
  8
0
  6
ByBlock
 62
     0
100
AcDbLine
 10
0.0
 20
0.0
 30
0.0
 11
-1.0
 21
0.0
 31
0.0
  0
ENDBLK
  5
7F7C
330
7F77
100
AcDbEntity
  8
0
100
AcDbBlockEnd
  0
BLOCK
  5
80C8
330
80BC
100
AcDbEntity
  8
0
100
AcDbBlockBegin
  2
*D20
 70
     1
 10
0.0
 20
0.0
 30
0.0
  3
*D20
  1

  0
LINE
  5
837A
330
80BC
100
AcDbEntity
  8
3
 62
     0
440
 16777216
100
AcDbLine
 10
4092.557756892301
 20
3856.929630863208
 30
0.0
 11
4092.557756892301
 21
5293.003506009694
 31
0.0
  0
LINE
  5
837B
330
80BC
100
AcDbEntity
  8
3
 62
     0
440
 16777216
100
AcDbLine
 10
3275.557756892302
 20
5253.003506009694
 30
0.0
 11
4012.557756892301
 21
5253.003506009694
 31
0.0
  0
INSERT
  5
837C
330
80BC
100
AcDbEntity
  8
3
 62
     0
440
 16777216
100
AcDbBlockReference
  2
_OPEN
 10
3195.557756892302
 20
5253.003506009694
 30
0.0
 41
80.0
 42
80.0
 43
80.0
 50
180.0
  0
INSERT
  5
837D
330
80BC
100
AcDbEntity
  8
3
 62
     0
440
 16777216
100
AcDbBlockReference
  2
_OPEN
 10
4092.557756892301
 20
5253.003506009694
 30
0.0
 41
80.0
 42
80.0
 43
80.0
  0
MTEXT
  5
837E
330
80BC
100
AcDbEntity
  8
3
 62
     0
440
 16777216
100
AcDbMText
 10
3644.057756892302
 20
5353.003506009694
 30
0.0
 40
120.0
 41
0.0
 46
0.0
 71
     5
 72
     5
  1
\A1;897
 73
     1
 44
1.0
  0
POINT
  5
837F
330
80BC
100
AcDbEntity
  8
DEFPOINTS
 62
     0
440
 16777216
100
AcDbPoint
 10
3195.557756892302
 20
4831.36616911206
 30
0.0
  0
POINT
  5
8380
330
80BC
100
AcDbEntity
  8
DEFPOINTS
 62
     0
440
 16777216
100
AcDbPoint
 10
4092.557756892301
 20
3836.929630863208
 30
0.0
  0
POINT
  5
8381
330
80BC
100
AcDbEntity
  8
DEFPOINTS
 62
     0
440
 16777216
100
AcDbPoint
 10
4092.557756892301
 20
5253.003506009694
 30
0.0
  0
ENDBLK
  5
80D1
330
80BC
100
AcDbEntity
  8
0
100
AcDbBlockEnd
  0
BLOCK
  5
81A1
330
80D2
100
AcDbEntity
  8
0
100
AcDbBlockBegin
  2
*D21
 70
     1
 10
0.0
 20
0.0
 30
0.0
  3
*D21
  1

  0
LINE
  5
8382
330
80D2
100
AcDbEntity
  8
3
 62
     0
440
 16777216
100
AcDbLine
 10
4092.557756892301
 20
3856.929630863208
 30
0.0
 11
4092.557756892301
 21
5560.793946915612
 31
0.0
  0
LINE
  5
8383
330
80D2
100
AcDbEntity
  8
3
 62
     0
440
 16777216
100
AcDbLine
 10
1295.557756892302
 20
2962.929630863208
 30
0.0
 11
1295.557756892302
 21
5560.793946915612
 31
0.0
  0
LINE
  5
8384
330
80D2
100
AcDbEntity
  8
3
 62
     0
440
 16777216
100
AcDbLine
 10
4012.557756892301
 20
5520.793946915611
 30
0.0
 11
1375.557756892302
 21
5520.793946915611
 31
0.0
  0
INSERT
  5
8385
330
80D2
100
AcDbEntity
  8
3
 62
     0
440
 16777216
100
AcDbBlockReference
  2
_OPEN
 10
4092.557756892301
 20
5520.793946915611
 30
0.0
 41
80.0
 42
80.0
 43
80.0
  0
INSERT
  5
8386
330
80D2
100
AcDbEntity
  8
3
 62
     0
440
 16777216
100
AcDbBlockReference
  2
_OPEN
 10
1295.557756892302
 20
5520.793946915611
 30
0.0
 41
80.0
 42
80.0
 43
80.0
 50
180.0
  0
MTEXT
  5
8387
330
80D2
100
AcDbEntity
  8
3
 62
     0
440
 16777216
100
AcDbMText
 10
2944.192497705095
 20
5620.793946915611
 30
0.0
 40
120.0
 41
0.0
 46
0.0
 71
     5
 72
     5
  1
\A1;2797
 73
     1
 44
1.0
  0
POINT
  5
8388
330
80D2
100
AcDbEntity
  8
DEFPOINTS
 62
     0
440
 16777216
100
AcDbPoint
 10
4092.557756892301
 20
3836.929630863208
 30
0.0
  0
POINT
  5
8389
330
80D2
100
AcDbEntity
  8
DEFPOINTS
 62
     0
440
 16777216
100
AcDbPoint
 10
1295.557756892302
 20
2942.929630863208
 30
0.0
  0
POINT
  5
838A
330
80D2
100
AcDbEntity
  8
DEFPOINTS
 62
     0
440
 16777216
100
AcDbPoint
 10
1295.557756892302
 20
5520.793946915611
 30
0.0
  0
ENDBLK
  5
81AB
330
80D2
100
AcDbEntity
  8
0
100
AcDbBlockEnd
  0
BLOCK
  5
8107
330
8106
100
AcDbEntity
  8
0
100
AcDbBlockBegin
  2
_DOT
 70
     0
 10
0.0
 20
0.0
 30
0.0
  3
_DOT
  1

  0
LINE
  5
8128
330
8106
100
AcDbEntity
  8
0
  6
ByBlock
 62
     0
100
AcDbLine
 10
0.0
 20
0.0
 30
0.0
 11
-1.0
 21
-0.0000000000000284
 31
0.0
  0
LWPOLYLINE
  5
8129
330
8106
100
AcDbEntity
  8
0
  6
ByBlock
 62
     0
100
AcDbPolyline
 90
        2
 70
     1
 43
0.1666666666666666
 10
-0.0833333333333286
 20
-0.0000000000000284
 42
1.0
 10
0.0833333333333286
 20
-0.0000000000000284
 42
1.0
  0
ENDBLK
  5
810D
330
8106
100
AcDbEntity
  8
0
100
AcDbBlockEnd
  0
BLOCK
  5
8261
330
8260
100
AcDbEntity
  8
0
100
AcDbBlockBegin
  2
*D23
 70
     1
 10
0.0
 20
0.0
 30
0.0
  3
*D23
  1

  0
LINE
  5
8262
330
8260
100
AcDbEntity
  8
0
  6
ByBlock
 62
     0
440
 16777216
100
AcDbLine
 10
3214.557756892302
 20
4752.929630863207
 30
0.0
 11
4724.810109400772
 21
4752.929630863207
 31
0.0
  0
LINE
  5
8263
330
8260
100
AcDbEntity
  8
0
  6
ByBlock
 62
     0
440
 16777216
100
AcDbLine
 10
3965.557756892302
 20
2697.929630863208
 30
0.0
 11
4724.810109400772
 21
2697.929630863208
 31
0.0
  0
LINE
  5
8264
330
8260
100
AcDbEntity
  8
0
  6
ByBlock
 62
     0
440
 16777216
100
AcDbLine
 10
4684.810109400772
 20
4672.929630863207
 30
0.0
 11
4684.810109400772
 21
2777.929630863207
 31
0.0
  0
INSERT
  5
8265
330
8260
100
AcDbEntity
  8
0
  6
ByBlock
 62
     0
440
 16777216
100
AcDbBlockReference
  2
_OPEN
 10
4684.810109400772
 20
4752.929630863207
 30
0.0
 41
80.0
 42
80.0
 43
80.0
 50
90.0
  0
INSERT
  5
8266
330
8260
100
AcDbEntity
  8
0
  6
ByBlock
 62
     0
440
 16777216
100
AcDbBlockReference
  2
_OPEN
 10
4684.810109400772
 20
2697.929630863208
 30
0.0
 41
80.0
 42
80.0
 43
80.0
 50
270.0
  0
MTEXT
  5
8267
330
8260
100
AcDbEntity
  8
0
  6
ByBlock
 62
     0
440
 16777216
100
AcDbMText
 10
4553.3815379722
 20
3725.429630863208
 30
0.0
 40
120.0
 41
0.0
 46
0.0
 71
     5
 72
     5
  1
\A1;(2055)
 11
0.0
 21
1.0
 31
0.0
 73
     1
 44
1.0
  0
POINT
  5
8268
330
8260
100
AcDbEntity
  8
DEFPOINTS
  6
ByBlock
 62
     0
440
 16777216
100
AcDbPoint
 10
3194.557756892302
 20
4752.929630863207
 30
0.0
  0
POINT
  5
8269
330
8260
100
AcDbEntity
  8
DEFPOINTS
  6
ByBlock
 62
     0
440
 16777216
100
AcDbPoint
 10
3945.557756892302
 20
2697.929630863208
 30
0.0
  0
POINT
  5
826A
330
8260
100
AcDbEntity
  8
DEFPOINTS
  6
ByBlock
 62
     0
440
 16777216
100
AcDbPoint
 10
4684.810109400772
 20
2697.929630863208
 30
0.0
  0
ENDBLK
  5
826B
330
8260
100
AcDbEntity
  8
0
100
AcDbBlockEnd
  0
BLOCK
  5
826E
330
826D
100
AcDbEntity
  8
0
100
AcDbBlockBegin
  2
_NONE
 70
     0
 10
0.0
 20
0.0
 30
0.0
  3
_NONE
  1

  0
CIRCLE
  5
826F
330
826D
100
AcDbEntity
  8
0
  6
ByBlock
 62
     0
100
AcDbCircle
 10
0.0
 20
0.0
 30
0.0
 40
0.25
  0
ENDBLK
  5
8270
330
826D
100
AcDbEntity
  8
0
100
AcDbBlockEnd
  0
BLOCK
  5
8292
330
8271
100
AcDbEntity
  8
0
100
AcDbBlockBegin
  2
*D25
 70
     1
 10
0.0
 20
0.0
 30
0.0
  3
*D25
  1

  0
LINE
  5
8293
330
8271
100
AcDbEntity
  8
0
  6
ByBlock
 62
     0
440
 16777216
100
AcDbLine
 10
4359.903580282262
 20
2772.929630863208
 30
0.0
 11
4359.903580282262
 21
2772.929630863208
 31
0.0
  0
LINE
  5
8294
330
8271
100
AcDbEntity
  8
0
  6
ByBlock
 62
     0
440
 16777216
100
AcDbLine
 10
4359.903580282262
 20
2817.929630863208
 30
0.0
 11
4359.903580282262
 21
2977.929630863208
 31
0.0
  0
MTEXT
  5
8295
330
8271
100
AcDbEntity
  8
0
  6
ByBlock
 62
     0
440
 16777216
100
AcDbMText
 10
4551.332151710833
 20
2795.429630863207
 30
0.0
 40
120.0
 41
0.0
 46
0.0
 71
     5
 72
     5
  1
\A1;   (45)
 11
0.0
 21
1.0
 31
0.0
 73
     1
 44
1.0
  0
LINE
  5
8296
330
8271
100
AcDbEntity
  8
0
  6
ByBlock
 62
     0
440
 16777216
100
AcDbLine
 10
4359.903580282262
 20
2772.929630863208
 30
0.0
 11
4359.903580282262
 21
2817.929630863208
 31
0.0
  0
POINT
  5
8297
330
8271
100
AcDbEntity
  8
DEFPOINTS
  6
ByBlock
 62
     0
440
 16777216
100
AcDbPoint
 10
3945.557756892302
 20
2772.929630863208
 30
0.0
  0
POINT
  5
8298
330
8271
100
AcDbEntity
  8
DEFPOINTS
  6
ByBlock
 62
     0
440
 16777216
100
AcDbPoint
 10
3945.557756892302
 20
2817.929630863208
 30
0.0
  0
POINT
  5
8299
330
8271
100
AcDbEntity
  8
DEFPOINTS
  6
ByBlock
 62
     0
440
 16777216
100
AcDbPoint
 10
4359.903580282262
 20
2817.929630863208
 30
0.0
  0
ENDBLK
  5
829A
330
8271
100
AcDbEntity
  8
0
100
AcDbBlockEnd
  0
ENDSEC
  0
SECTION
  2
ENTITIES
  0
INSERT
  5
7C3A
330
19
100
AcDbEntity
  8
1
100
AcDbBlockReference
  2
YA_N
 10
6.0
 20
5.0
 30
0.0
  0
LINE
  5
7C3B
330
19
100
AcDbEntity
  8
2
100
AcDbLine
 10
3195.557756892302
 20
4793.547431885436
 30
0.0
 11
3195.557756892302
 21
2697.929630863208
 31
0.0
  0
LINE
  5
7C3C
330
19
100
AcDbEntity
  8
1
100
AcDbLine
 10
5204.659262902689
 20
2817.929630863208
 30
0.0
 11
7324.659262902688
 21
2817.929630863208
 31
0.0
1001
ACAD
1000
ASC_BOUNDS
1002
{
1070
    19
1005
0
1005
0
1002
}
  0
LINE
  5
7C3D
330
19
100
AcDbEntity
  8
1
100
AcDbLine
 10
5204.659262902689
 20
2942.929630863208
 30
0.0
 11
7324.659262902691
 21
2942.929630863208
 31
0.0
  0
LINE
  5
7C3E
330
19
100
AcDbEntity
  8
1
100
AcDbLine
 10
7245.659262902688
 20
4752.929630863207
 30
0.0
 11
7245.659262902691
 21
3927.929630863208
 31
0.0
  0
LINE
  5
7C3F
330
19
100
AcDbEntity
  8
1
100
AcDbLine
 10
5545.659262902689
 20
4752.929630863207
 30
0.0
 11
5545.659262902689
 21
3927.929630863208
 31
0.0
  0
LINE
  5
7C40
330
19
100
AcDbEntity
  8
2
100
AcDbLine
 10
4167.879024977992
 20
3928.765272351444
 30
0.0
 11
1772.679382344941
 21
3927.929630863208
 31
0.0
  0
LINE
  5
7C41
330
19
100
AcDbEntity
  8
2
100
AcDbLine
 10
5180.35926290269
 20
3927.929630863208
 30
0.0
 11
7429.169749141926
 21
3927.929630863208
 31
0.0
  0
LINE
  5
7C42
330
19
100
AcDbEntity
  8
2
100
AcDbLine
 10
5084.156536306313
 20
3202.929630863208
 30
0.0
 11
5545.659262902689
 21
3202.929630863207
 31
0.0
  0
LINE
  5
7C43
330
19
100
AcDbEntity
  8
1
100
AcDbLine
 10
5200.659262902689
 20
3308.929630863207
 30
0.0
 11
5278.559262902689
 21
3308.929630863207
 31
0.0
  0
LINE
  5
7C44
330
19
100
AcDbEntity
  8
1
100
AcDbLine
 10
5200.659262902689
 20
3096.929630863208
 30
0.0
 11
5278.559262902689
 21
3096.929630863208
 31
0.0
  0
LINE
  5
7C45
330
19
100
AcDbEntity
  8
1
100
AcDbLine
 10
5298.65926290269
 20
3997.929630863207
 30
0.0
 11
5298.65926290269
 21
3857.929630863207
 31
0.0
  0
LINE
  5
7C46
330
19
100
AcDbEntity
  8
1
100
AcDbLine
 10
5278.559262902689
 20
4181.929630863208
 30
0.0
 11
5278.559262902689
 21
3997.929630863207
 31
0.0
  0
LINE
  5
7C47
330
19
100
AcDbEntity
  8
1
100
AcDbLine
 10
5278.559262902689
 20
3997.929630863207
 30
0.0
 11
5298.65926290269
 21
3997.929630863207
 31
0.0
  0
LINE
  5
7C48
330
19
100
AcDbEntity
  8
1
100
AcDbLine
 10
5278.559262902689
 20
3857.929630863207
 30
0.0
 11
5298.65926290269
 21
3857.929630863207
 31
0.0
  0
LINE
  5
7C49
330
19
100
AcDbEntity
  8
1
100
AcDbLine
 10
5278.559262902689
 20
3857.929630863207
 30
0.0
 11
5278.559262902689
 21
3262.929630863208
 31
0.0
  0
LINE
  5
7C4A
330
19
100
AcDbEntity
  8
1
100
AcDbLine
 10
5200.659262902689
 20
4181.929630863208
 30
0.0
 11
5200.659262902689
 21
3096.929630863208
 31
0.0
  0
LINE
  5
7C4B
330
19
100
AcDbEntity
  8
1
100
AcDbLine
 10
5293.65926290269
 20
3262.929630863208
 30
0.0
 11
5293.65926290269
 21
3142.929630863207
 31
0.0
  0
LINE
  5
7C4C
330
19
100
AcDbEntity
  8
1
100
AcDbLine
 10
5278.559262902689
 20
3262.929630863208
 30
0.0
 11
5293.65926290269
 21
3262.929630863208
 31
0.0
  0
LINE
  5
7C4D
330
19
100
AcDbEntity
  8
1
100
AcDbLine
 10
5278.559262902689
 20
3142.929630863207
 30
0.0
 11
5293.65926290269
 21
3142.929630863207
 31
0.0
  0
LINE
  5
7C4E
330
19
100
AcDbEntity
  8
1
100
AcDbLine
 10
5278.559262902689
 20
3142.929630863207
 30
0.0
 11
5278.559262902689
 21
3096.929630863208
 31
0.0
  0
LINE
  5
7C4F
330
19
100
AcDbEntity
  8
1
100
AcDbLine
 10
5075.659262902689
 20
2982.929630863207
 30
0.0
 11
5360.659262902689
 21
2982.929630863207
 31
0.0
  0
LINE
  5
7C50
330
19
100
AcDbEntity
  8
1
100
AcDbLine
 10
5075.659262902689
 20
4307.929630863207
 30
0.0
 11
5075.659262902689
 21
2982.929630863207
 31
0.0
  0
LINE
  5
7C51
330
19
100
AcDbEntity
  8
1
100
AcDbLine
 10
5360.659262902689
 20
4307.929630863207
 30
0.0
 11
5360.659262902689
 21
4287.929630863207
 31
0.0
  0
LINE
  5
7C52
330
19
100
AcDbEntity
  8
2
100
AcDbLine
 10
3195.557756892302
 20
8749.992895925505
 30
0.0
 11
3195.557756892302
 21
6401.308553199742
 31
0.0
  0
LINE
  5
7C53
330
19
100
AcDbEntity
  8
2
100
AcDbLine
 10
1575.557756892301
 20
7375.758553199741
 30
0.0
 11
1575.557756892301
 21
6401.308553199742
 31
0.0
  0
LINE
  5
7C54
330
19
100
AcDbEntity
  8
2
100
AcDbLine
 10
6395.65926290269
 20
4920.908808331319
 30
0.0
 11
6395.659262902689
 21
2697.929630863208
 31
0.0
  0
INSERT
  5
7C55
330
19
100
AcDbEntity
  8
1
100
AcDbBlockReference
  2
YA_N
 10
-1757.227407310314
 20
-1218.786417457781
 30
0.0
 41
30.0
 42
30.0
 43
30.0
  0
INSERT
  5
7C56
330
19
100
AcDbEntity
  8
1
100
AcDbBlockReference
  2
YA_N
 10
-755.2436758818475
 20
-538.554984833856
 30
0.0
 41
30.0
 42
30.0
 43
30.0
  0
LINE
  5
7C57
330
19
100
AcDbEntity
  8
1
100
AcDbLine
 10
5204.659262902687
 20
2772.929630863208
 30
0.0
 11
7324.659262902691
 21
2772.929630863208
 31
0.0
1001
ACAD
1000
ASC_BOUNDS
1002
{
1070
    19
1005
0
1005
0
1002
}
  0
LINE
  5
7C58
330
19
100
AcDbEntity
  8
1
100
AcDbLine
 10
5204.659262902688
 20
2697.929630863208
 30
0.0
 11
7324.659262902689
 21
2697.929630863208
 31
0.0
  0
LINE
  5
7C59
330
19
100
AcDbEntity
  8
1
100
AcDbLine
 10
7324.659262902689
 20
2772.929630863208
 30
0.0
 11
7324.659262902689
 21
2697.929630863208
 31
0.0
  0
LINE
  5
7C5A
330
19
100
AcDbEntity
  8
1
100
AcDbLine
 10
7245.659262902688
 20
3928.929630863208
 30
0.0
 11
7245.659262902688
 21
2942.929630863208
 31
0.0
  0
LINE
  5
7C5B
330
19
100
AcDbEntity
  8
1
100
AcDbLine
 10
5545.659262902689
 20
3928.929630863208
 30
0.0
 11
5545.659262902689
 21
2942.929630863208
 31
0.0
  0
LINE
  5
7C5C
330
19
100
AcDbEntity
  8
1
100
AcDbLine
 10
3945.557756892302
 20
8650.308553199739
 30
0.0
 11
2445.557756892302
 21
8650.308553199741
 31
0.0
  0
LINE
  5
7C5D
330
19
100
AcDbEntity
  8
1
100
AcDbLine
 10
3945.557756892302
 20
6530.30855319974
 30
0.0
 11
1295.557756892302
 21
6530.308553199741
 31
0.0
  0
LINE
  5
7C5E
330
19
100
AcDbEntity
  8
1
100
AcDbLine
 10
3945.557756892302
 20
8650.308553199739
 30
0.0
 11
3945.557756892302
 21
8571.308553199742
 31
0.0
  0
LINE
  5
7C5F
330
19
100
AcDbEntity
  8
1
100
AcDbLine
 10
1295.557756892302
 20
7630.308553199741
 30
0.0
 11
1295.557756892302
 21
6530.30855319974
 31
0.0
  0
LINE
  5
7C60
330
19
100
AcDbEntity
  8
1
100
AcDbLine
 10
2445.557756892302
 20
8650.308553199739
 30
0.0
 11
2445.557756892302
 21
8571.308553199742
 31
0.0
  0
LINE
  5
7C61
330
19
100
AcDbEntity
  8
1
100
AcDbLine
 10
1861.557756892302
 20
7630.308553199739
 30
0.0
 11
1295.557756892302
 21
7630.308553199741
 31
0.0
  0
DIMENSION
  5
7C62
330
19
100
AcDbEntity
  8
3
100
AcDbDimension
280
     0
  2
*D1
 10
7245.659262902688
 20
4985.952180251301
 30
0.0
 11
6395.65926290269
 21
5085.9521802513
 31
0.0
 70
    32
 71
     5
 42
-1.0
 73
     0
 74
     0
 75
     0
  3
IGA
100
AcDbAlignedDimension
 13
5545.659262902689
 23
4737.552393784735
 33
0.0
 14
7245.659262902688
 24
4737.552393784735
 34
0.0
100
AcDbRotatedDimension
1001
ACAD
1000
DSTYLE
1002
{
1070
   287
1070
     3
1070
    40
1040
40.0
1070
   143
1040
0.039
1070
   172
1070
     1
1070
   271
1070
     0
1070
   279
1070
     0
1070
   288
1070
     1
1002
}
  0
LINE
  5
7C63
330
19
100
AcDbEntity
  8
1
100
AcDbLine
 10
5388.159262902689
 20
3851.929630863207
 30
0.0
 11
5388.159262902689
 21
3721.929630863208
 31
0.0
  0
LINE
  5
7C64
330
19
100
AcDbEntity
  8
1
100
AcDbLine
 10
5528.159262902689
 20
3861.929630863207
 30
0.0
 11
5528.159262902689
 21
3711.929630863207
 31
0.0
  0
LINE
  5
7C65
330
19
100
AcDbEntity
  8
1
100
AcDbLine
 10
5398.15926290269
 20
3861.929630863207
 30
0.0
 11
5468.359262902691
 21
3861.929630863207
 31
0.0
  0
LINE
  5
7C66
330
19
100
AcDbEntity
  8
1
100
AcDbLine
 10
5398.15926290269
 20
3711.929630863207
 30
0.0
 11
5468.359262902691
 21
3711.929630863207
 31
0.0
  0
ARC
  5
7C67
330
19
100
AcDbEntity
  8
1
100
AcDbCircle
 10
5398.15926290269
 20
3851.929630863207
 30
0.0
 40
10.0
100
AcDbArc
 50
90.0
 51
180.0
  0
ARC
  5
7C68
330
19
100
AcDbEntity
  8
1
100
AcDbCircle
 10
5398.15926290269
 20
3721.929630863208
 30
0.0
 40
10.0
100
AcDbArc
 50
180.0
 51
270.0
  0
LINE
  5
7C69
330
19
100
AcDbEntity
  8
1
100
AcDbLine
 10
5468.35926290269
 20
3711.929630863207
 30
0.0
 11
5528.159262902689
 21
3711.929630863207
 31
0.0
  0
LINE
  5
7C6A
330
19
100
AcDbEntity
  8
1
100
AcDbLine
 10
5468.35926290269
 20
3861.929630863207
 30
0.0
 11
5528.159262902689
 21
3861.929630863207
 31
0.0
  0
LINE
  5
7C6B
330
19
100
AcDbEntity
  8
1
100
AcDbLine
 10
7415.159262902689
 20
3851.929630863207
 30
0.0
 11
7415.159262902689
 21
3721.929630863208
 31
0.0
  0
LINE
  5
7C6C
330
19
100
AcDbEntity
  8
1
100
AcDbLine
 10
7275.159262902689
 20
3861.929630863207
 30
0.0
 11
7275.159262902689
 21
3711.929630863207
 31
0.0
  0
LINE
  5
7C6D
330
19
100
AcDbEntity
  8
1
100
AcDbLine
 10
7405.15926290269
 20
3711.929630863207
 30
0.0
 11
7334.959262902689
 21
3711.929630863207
 31
0.0
  0
ARC
  5
7C6E
330
19
100
AcDbEntity
  8
1
100
AcDbCircle
 10
7405.15926290269
 20
3721.929630863208
 30
0.0
 40
10.0
100
AcDbArc
 50
270.0
 51
0.0
  0
LINE
  5
7C6F
330
19
100
AcDbEntity
  8
1
100
AcDbLine
 10
7334.959262902689
 20
3711.929630863207
 30
0.0
 11
7275.159262902689
 21
3711.929630863207
 31
0.0
  0
LINE
  5
7C70
330
19
100
AcDbEntity
  8
1
100
AcDbLine
 10
7405.15926290269
 20
3861.929630863207
 30
0.0
 11
7334.959262902689
 21
3861.929630863207
 31
0.0
  0
ARC
  5
7C71
330
19
100
AcDbEntity
  8
1
100
AcDbCircle
 10
7405.15926290269
 20
3851.929630863207
 30
0.0
 40
10.0
100
AcDbArc
 50
0.0
 51
90.0
  0
LINE
  5
7C72
330
19
100
AcDbEntity
  8
1
100
AcDbLine
 10
7334.959262902689
 20
3861.929630863207
 30
0.0
 11
7275.159262902689
 21
3861.929630863207
 31
0.0
  0
DIMENSION
  5
7C74
330
19
100
AcDbEntity
  8
3
100
AcDbDimension
280
     0
  2
*D2
 10
6395.65926290269
 20
5239.303072215388
 30
0.0
 11
5735.659262902689
 21
5370.73164364396
 31
0.0
 70
    32
  1
(<>)
 71
     5
 42
1319.999999999999
 73
     0
 74
     0
 75
     0
  3
IGA
100
AcDbAlignedDimension
 13
5075.659262902689
 23
4207.929630863207
 33
0.0
 14
6395.65926290269
 24
5176.920362397315
 34
0.0
100
AcDbRotatedDimension
1001
ACAD
1000
DSTYLE
1002
{
1070
   287
1070
     3
1070
    40
1040
40.0
1070
   143
1040
0.039
1070
   172
1070
     1
1070
   271
1070
     0
1070
   279
1070
     0
1070
   288
1070
     1
1002
}
  0
DIMENSION
  5
7C75
330
19
100
AcDbEntity
  8
3
100
AcDbDimension
280
     0
  2
*D3
 10
7415.159262902689
 20
5238.915485110203
 30
0.0
 11
6905.40926290269
 21
5370.344056538774
 31
0.0
 70
    32
  1
(<>)
 71
     5
 42
1019.5
 73
     0
 74
     0
 75
     0
  3
IGA
100
AcDbAlignedDimension
 13
6395.65926290269
 23
5176.920362397315
 33
0.0
 14
7415.159262902689
 24
3851.929630863207
 34
0.0
100
AcDbRotatedDimension
1001
ACAD
1000
DSTYLE
1002
{
1070
   287
1070
     3
1070
    40
1040
40.0
1070
   143
1040
0.039
1070
   172
1070
     1
1070
   271
1070
     0
1070
   279
1070
     0
1070
   288
1070
     1
1002
}
  0
DIMENSION
  5
7C76
330
19
100
AcDbEntity
  8
3
100
AcDbDimension
280
     0
  2
*D4
 10
7656.928887815194
 20
3302.929630863206
 30
0.0
 11
7556.928887815193
 21
3927.929630863209
 31
0.0
 70
    32
  1
φ<>
 71
     5
 42
-1.0
 73
     0
 74
     0
 75
     0
  3
IGA
100
AcDbAlignedDimension
 13
7247.959262902689
 23
4552.929630863207
 33
0.0
 14
7247.959262902689
 24
3302.929630863206
 34
0.0
 50
90.0
100
AcDbRotatedDimension
1001
ACAD
1000
DSTYLE
1002
{
1070
   287
1070
     3
1070
    40
1040
40.0
1070
   143
1040
0.039
1070
   172
1070
     1
1070
   271
1070
     0
1070
   279
1070
     0
1070
   288
1070
     1
1002
}
  0
LINE
  5
7C77
330
19
100
AcDbEntity
  8
1
100
AcDbLine
 10
5200.659262902689
 20
4181.929630863208
 30
0.0
 11
5278.559262902689
 21
4181.929630863208
 31
0.0
  0
LINE
  5
7C78
330
19
100
AcDbEntity
  8
1
100
AcDbLine
 10
5200.659262902689
 20
3673.929630863208
 30
0.0
 11
5278.559262902689
 21
3673.929630863208
 31
0.0
  0
LINE
  5
7C79
330
19
100
AcDbEntity
  8
1
100
AcDbLine
 10
5075.659262902689
 20
4307.929630863207
 30
0.0
 11
5360.659262902689
 21
4307.929630863207
 31
0.0
  0
LINE
  5
7C7A
330
19
100
AcDbEntity
  8
1
100
AcDbLine
 10
5360.659262902689
 20
3002.929630863207
 30
0.0
 11
5360.659262902689
 21
2982.929630863207
 31
0.0
  0
INSERT
  5
7C7B
330
19
100
AcDbEntity
  8
1
100
AcDbBlockReference
  2
YA_N
 10
4767.943419715615
 20
-1494.695868425497
 30
0.0
  0
LINE
  5
7C7C
330
19
100
AcDbEntity
  8
1
100
AcDbLine
 10
7324.659262902689
 20
2942.929630863208
 30
0.0
 11
7324.659262902688
 21
2817.929630863208
 31
0.0
  0
LINE
  5
7C7D
330
19
100
AcDbEntity
  8
1
100
AcDbLine
 10
5204.659262902688
 20
2772.929630863208
 30
0.0
 11
5204.659262902691
 21
2697.929630863208
 31
0.0
  0
LINE
  5
7C7E
330
19
100
AcDbEntity
  8
1
100
AcDbLine
 10
5204.659262902689
 20
2942.929630863208
 30
0.0
 11
5204.659262902689
 21
2817.929630863208
 31
0.0
  0
DIMENSION
  5
7C7F
330
19
100
AcDbEntity
  8
3
100
AcDbDimension
280
     0
  2
*D5
 10
6395.659262902689
 20
2354.339839180699
 30
0.0
 11
5800.159262902688
 21
2454.339839180699
 31
0.0
 70
    32
 71
     5
 42
-1.0
 73
     0
 74
     0
 75
     0
  3
IGA
100
AcDbAlignedDimension
 13
5204.659262902688
 23
2697.929630863208
 33
0.0
 14
6395.659262902689
 24
2697.929630863208
 34
0.0
100
AcDbRotatedDimension
1001
ACAD
1000
DSTYLE
1002
{
1070
   287
1070
     3
1070
    40
1040
40.0
1070
   143
1040
0.039
1070
   172
1070
     1
1070
   271
1070
     0
1070
   279
1070
     0
1070
   288
1070
     1
1002
}
  0
DIMENSION
  5
7C80
330
19
100
AcDbEntity
  8
3
100
AcDbDimension
280
     0
  2
*D6
 10
7324.659262902689
 20
2354.339839180699
 30
0.0
 11
6860.15926290269
 21
2454.339839180699
 31
0.0
 70
    32
 71
     5
 42
-1.0
 73
     0
 74
     0
 75
     0
  3
IGA
100
AcDbAlignedDimension
 13
6395.659262902689
 23
2697.929630863208
 33
0.0
 14
7324.659262902689
 24
2697.929630863208
 34
0.0
100
AcDbRotatedDimension
1001
ACAD
1000
DSTYLE
1002
{
1070
   287
1070
     3
1070
    40
1040
40.0
1070
   143
1040
0.039
1070
   172
1070
     1
1070
   271
1070
     0
1070
   279
1070
     0
1070
   288
1070
     1
1002
}
  0
LINE
  5
7C82
330
19
100
AcDbEntity
  8
1
100
AcDbLine
 10
5298.65926290269
 20
3965.429630863208
 30
0.0
 11
5545.659262902688
 21
3965.429630863208
 31
0.0
  0
LINE
  5
7C83
330
19
100
AcDbEntity
  8
1
100
AcDbLine
 10
5298.65926290269
 20
3890.429630863208
 30
0.0
 11
5545.659262902688
 21
3890.429630863208
 31
0.0
  0
LINE
  5
7C84
330
19
100
AcDbEntity
  8
1
100
AcDbLine
 10
5389.609262902691
 20
3002.929630863207
 30
0.0
 11
5389.609262902689
 21
3202.929630863208
 31
0.0
  0
LINE
  5
7C85
330
19
100
AcDbEntity
  8
1
100
AcDbLine
 10
5389.609262902691
 20
3002.929630863209
 30
0.0
 11
5545.659262902688
 21
3002.92963086321
 31
0.0
  0
LINE
  5
7C86
330
19
100
AcDbEntity
  8
1
100
AcDbLine
 10
5545.659262902688
 20
3412.929630863209
 30
0.0
 11
5389.609262902689
 21
3412.929630863209
 31
0.0
  0
LINE
  5
7C87
330
19
100
AcDbEntity
  8
1
100
AcDbLine
 10
5379.60926290269
 20
3172.929630863209
 30
0.0
 11
5293.65926290269
 21
3172.929630863208
 31
0.0
  0
LINE
  5
7C88
330
19
100
AcDbEntity
  8
1
100
AcDbLine
 10
5379.60926290269
 20
3232.929630863208
 30
0.0
 11
5293.65926290269
 21
3232.929630863208
 31
0.0
  0
LINE
  5
7C89
330
19
100
AcDbEntity
  8
1
100
AcDbLine
 10
5389.609262902689
 20
3412.929630863209
 30
0.0
 11
5389.609262902689
 21
3202.929630863208
 31
0.0
  0
LINE
  5
7C8A
330
19
100
AcDbEntity
  8
1
100
AcDbLine
 10
5379.60926290269
 20
3170.429630863209
 30
0.0
 11
5379.60926290269
 21
3235.429630863209
 31
0.0
  0
LINE
  5
7C8B
330
19
100
AcDbEntity
  8
1
100
AcDbLine
 10
5379.60926290269
 20
3170.429630863209
 30
0.0
 11
5389.609262902689
 21
3170.429630863209
 31
0.0
  0
LINE
  5
7C8C
330
19
100
AcDbEntity
  8
1
100
AcDbLine
 10
5379.60926290269
 20
3235.429630863209
 30
0.0
 11
5389.609262902689
 21
3235.429630863209
 31
0.0
  0
LINE
  5
7C9B
330
19
100
AcDbEntity
  8
2
100
AcDbLine
 10
4171.384877614022
 20
7721.308553199742
 30
0.0
 11
1861.557756892302
 21
7721.308553199742
 31
0.0
  0
LINE
  5
7C9C
330
19
100
AcDbEntity
  8
1
100
AcDbLine
 10
3575.557756892302
 20
6401.308553199742
 30
0.0
 11
1355.557756892302
 21
6401.308553199742
 31
0.0
  0
LINE
  5
7C9D
330
19
100
AcDbEntity
  8
1
100
AcDbLine
 10
3449.557756892302
 20
6537.308553199742
 30
0.0
 11
2941.557756892302
 21
6537.308553199742
 31
0.0
  0
LINE
  5
7C9E
330
19
100
AcDbEntity
  8
1
100
AcDbLine
 10
3125.557756892302
 20
6615.208553199741
 30
0.0
 11
2941.557756892302
 21
6615.208553199741
 31
0.0
  0
LINE
  5
7C9F
330
19
100
AcDbEntity
  8
1
100
AcDbLine
 10
1545.557756892302
 20
6716.258553199742
 30
0.0
 11
1545.557756892302
 21
6630.308553199743
 31
0.0
  0
LINE
  5
7CA0
330
19
100
AcDbEntity
  8
1
100
AcDbLine
 10
1605.557756892302
 20
6716.258553199742
 30
0.0
 11
1605.557756892302
 21
6630.308553199743
 31
0.0
  0
LINE
  5
7CA1
330
19
100
AcDbEntity
  8
1
100
AcDbLine
 10
1355.557756892302
 20
6401.308553199742
 30
0.0
 11
1355.557756892302
 21
6697.308553199743
 31
0.0
  0
LINE
  5
7CA2
330
19
100
AcDbEntity
  8
1
100
AcDbLine
 10
2395.557756892302
 20
6530.308553199741
 30
0.0
 11
2270.557756892302
 21
6530.308553199741
 31
0.0
  0
LINE
  5
7CA3
330
19
100
AcDbEntity
  8
1
100
AcDbLine
 10
2251.557756892302
 20
6530.308553199741
 30
0.0
 11
1986.557756892302
 21
6530.308553199742
 31
0.0
  0
LINE
  5
7CA4
330
19
100
AcDbEntity
  8
1
100
AcDbLine
 10
1635.557756892302
 20
6630.308553199743
 30
0.0
 11
1515.557756892302
 21
6630.308553199743
 31
0.0
  0
LINE
  5
7CA5
330
19
100
AcDbEntity
  8
1
100
AcDbLine
 10
1515.557756892302
 20
6615.208553199741
 30
0.0
 11
1469.557756892301
 21
6615.208553199741
 31
0.0
  0
LINE
  5
7CA6
330
19
100
AcDbEntity
  8
1
100
AcDbLine
 10
1469.557756892301
 20
6537.308553199742
 30
0.0
 11
1469.557756892301
 21
6615.208553199741
 31
0.0
  0
LINE
  5
7CA7
330
19
100
AcDbEntity
  8
1
100
AcDbLine
 10
1515.557756892302
 20
6615.208553199741
 30
0.0
 11
1515.557756892302
 21
6630.308553199743
 31
0.0
  0
LINE
  5
7CA8
330
19
100
AcDbEntity
  8
1
100
AcDbLine
 10
1681.557756892302
 20
6537.308553199742
 30
0.0
 11
1681.557756892302
 21
6615.208553199741
 31
0.0
  0
LINE
  5
7CA9
330
19
100
AcDbEntity
  8
1
100
AcDbLine
 10
1635.557756892302
 20
6615.208553199741
 30
0.0
 11
1635.557756892302
 21
6630.308553199743
 31
0.0
  0
LINE
  5
7CAA
330
19
100
AcDbEntity
  8
1
100
AcDbLine
 10
2941.557756892302
 20
6537.308553199742
 30
0.0
 11
2941.557756892302
 21
6615.208553199741
 31
0.0
  0
LINE
  5
7CAB
330
19
100
AcDbEntity
  8
1
100
AcDbLine
 10
1785.557756892302
 20
6726.258553199741
 30
0.0
 11
1575.557756892302
 21
6726.258553199741
 31
0.0
  0
LINE
  5
7CAC
330
19
100
AcDbEntity
  8
1
100
AcDbLine
 10
1543.057756892302
 20
6716.258553199742
 30
0.0
 11
1608.057756892302
 21
6716.258553199742
 31
0.0
  0
LINE
  5
7CAD
330
19
100
AcDbEntity
  8
1
100
AcDbLine
 10
1375.557756892302
 20
6726.258553199745
 30
0.0
 11
1375.557756892309
 21
7375.758553199744
 31
0.0
  0
LINE
  5
7CAE
330
19
100
AcDbEntity
  8
1
100
AcDbLine
 10
1375.557756892302
 20
6726.258553199743
 30
0.0
 11
1575.557756892302
 21
6726.258553199741
 31
0.0
  0
LINE
  5
7CAF
330
19
100
AcDbEntity
  8
1
100
AcDbLine
 10
1543.057756892302
 20
6716.258553199742
 30
0.0
 11
1543.057756892302
 21
6726.258553199741
 31
0.0
  0
LINE
  5
7CB0
330
19
100
AcDbEntity
  8
1
100
AcDbLine
 10
1375.557756892303
 20
6901.758553199742
 30
0.0
 11
1376.557756892303
 21
6901.758553199742
 31
0.0
  0
LINE
  5
7CB1
330
19
100
AcDbEntity
  8
1
100
AcDbLine
 10
1785.557756892309
 20
7375.758553199741
 30
0.0
 11
1785.557756892302
 21
6726.258553199741
 31
0.0
  0
LINE
  5
7CB2
330
19
100
AcDbEntity
  8
1
100
AcDbLine
 10
1608.057756892302
 20
6716.258553199742
 30
0.0
 11
1608.057756892302
 21
6726.258553199741
 31
0.0
  0
LINE
  5
7CB3
330
19
100
AcDbEntity
  8
1
100
AcDbLine
 10
3158.057756892302
 20
6635.308553199742
 30
0.0
 11
3158.057756892302
 21
6871.308553199741
 31
0.0
  0
LINE
  5
7CB4
330
19
100
AcDbEntity
  8
1
100
AcDbLine
 10
3233.057756892302
 20
6635.308553199742
 30
0.0
 11
3233.057756892302
 21
6871.308553199739
 31
0.0
  0
LINE
  5
7CB5
330
19
100
AcDbEntity
  8
1
100
AcDbLine
 10
3575.557756892302
 20
6401.308553199742
 30
0.0
 11
3575.557756892302
 21
6697.308553199739
 31
0.0
  0
LINE
  5
7CB6
330
19
100
AcDbEntity
  8
1
100
AcDbLine
 10
3265.557756892302
 20
6635.308553199742
 30
0.0
 11
3125.557756892302
 21
6635.308553199742
 31
0.0
  0
LINE
  5
7CB7
330
19
100
AcDbEntity
  8
1
100
AcDbLine
 10
3125.557756892302
 20
6615.208553199741
 30
0.0
 11
3125.557756892302
 21
6635.308553199742
 31
0.0
  0
LINE
  5
7CB8
330
19
100
AcDbEntity
  8
1
100
AcDbLine
 10
3449.557756892302
 20
6615.208553199741
 30
0.0
 11
3265.557756892302
 21
6615.208553199741
 31
0.0
  0
LINE
  5
7CB9
330
19
100
AcDbEntity
  8
1
100
AcDbLine
 10
3265.557756892302
 20
6615.208553199741
 30
0.0
 11
3265.557756892302
 21
6635.308553199742
 31
0.0
  0
LINE
  5
7CBA
330
19
100
AcDbEntity
  8
1
100
AcDbLine
 10
3449.557756892302
 20
6537.308553199742
 30
0.0
 11
3449.557756892302
 21
6615.208553199741
 31
0.0
  0
LINE
  5
7CBB
330
19
100
AcDbEntity
  8
1
100
AcDbLine
 10
3575.557756892302
 20
6697.308553199741
 30
0.0
 11
1355.557756892302
 21
6697.308553199833
 31
0.0
  0
LINE
  5
7CBD
330
19
100
AcDbEntity
  8
1
100
AcDbLine
 10
1375.557756892304
 20
7375.758553199744
 30
0.0
 11
1785.557756892309
 21
7375.758553199741
 31
0.0
  0
LINE
  5
7CBE
330
19
100
AcDbEntity
  8
1
100
AcDbLine
 10
4092.557756892301
 20
8571.308553199742
 30
0.0
 11
1861.557756892302
 21
8571.308553199742
 31
0.0
  0
LINE
  5
7CBF
330
19
100
AcDbEntity
  8
1
100
AcDbLine
 10
4092.557756892301
 20
6871.308553199739
 30
0.0
 11
1861.557756892302
 21
6871.308553199741
 31
0.0
  0
LINE
  5
7CC0
330
19
100
AcDbEntity
  8
1
100
AcDbLine
 10
3945.557756892302
 20
6882.308553199741
 30
0.0
 11
3945.557756892302
 21
6530.308553199738
 31
0.0
  0
LINE
  5
7CC1
330
19
100
AcDbEntity
  8
1
100
AcDbLine
 10
1681.557756892302
 20
6615.208553199741
 30
0.0
 11
1635.557756892302
 21
6615.208553199741
 31
0.0
  0
LINE
  5
7CC2
330
19
100
AcDbEntity
  8
1
100
AcDbLine
 10
1681.557756892302
 20
6537.308553199742
 30
0.0
 11
1469.557756892301
 21
6537.308553199742
 31
0.0
  0
DIMENSION
  5
7CC3
330
19
100
AcDbEntity
  8
3
100
AcDbDimension
280
     0
  2
*D7
 10
4394.573898128135
 20
6530.30855319974
 30
0.0
 11
4294.573898128134
 21
7590.308553199739
 31
0.0
 70
    32
 71
     5
 42
-1.0
 73
     0
 74
     0
 75
     0
  3
IGA
100
AcDbAlignedDimension
 13
3945.557756892302
 23
8650.308553199739
 33
0.0
 14
3945.557756892302
 24
6530.30855319974
 34
0.0
 50
90.0
100
AcDbRotatedDimension
1001
ACAD
1000
DSTYLE
1002
{
1070
   287
1070
     3
1070
    40
1040
40.0
1070
   143
1040
0.039
1070
   172
1070
     1
1070
   271
1070
     0
1070
   279
1070
     0
1070
   288
1070
     1
1002
}
  0
DIMENSION
  5
7CC4
330
19
100
AcDbEntity
  8
3
100
AcDbDimension
280
     0
  2
*D8
 10
2445.557756892302
 20
8854.944691704925
 30
0.0
 11
3195.557756892302
 21
8954.944691704925
 31
0.0
 70
    32
 71
     5
 42
-1.0
 73
     0
 74
     0
 75
     0
  3
IGA
100
AcDbAlignedDimension
 13
3945.557756892302
 23
8650.308553199739
 33
0.0
 14
2445.557756892302
 24
8650.308553199741
 34
0.0
100
AcDbRotatedDimension
1001
ACAD
1000
DSTYLE
1002
{
1070
   287
1070
     3
1070
    40
1040
40.0
1070
   143
1040
0.039
1070
   172
1070
     1
1070
   271
1070
     0
1070
   279
1070
     0
1070
   288
1070
     1
1002
}
  0
DIMENSION
  5
7CC5
330
19
100
AcDbEntity
  8
3
100
AcDbDimension
280
     0
  2
*D9
 10
1295.557756892302
 20
8854.944691704925
 30
0.0
 11
1870.557756892302
 21
8954.944691704925
 31
0.0
 70
    32
 71
     5
 42
-1.0
 73
     0
 74
     0
 75
     0
  3
IGA
100
AcDbAlignedDimension
 13
2445.557756892302
 23
8650.308553199741
 33
0.0
 14
1295.557756892302
 24
7630.308553199741
 34
0.0
100
AcDbRotatedDimension
1001
ACAD
1000
DSTYLE
1002
{
1070
   287
1070
     3
1070
    40
1040
40.0
1070
   143
1040
0.039
1070
   172
1070
     1
1070
   271
1070
     0
1070
   279
1070
     0
1070
   288
1070
     1
1002
}
  0
DIMENSION
  5
7CC6
330
19
100
AcDbEntity
  8
3
100
AcDbDimension
280
     0
  2
*D10
 10
1029.231355784723
 20
6530.308553199741
 30
0.0
 11
929.2313557847219
 21
7080.308553199741
 31
0.0
 70
    32
 71
     5
 42
-1.0
 73
     0
 74
     0
 75
     0
  3
IGA
100
AcDbAlignedDimension
 13
1295.557756892302
 23
7630.308553199741
 33
0.0
 14
1295.557756892302
 24
6530.308553199741
 34
0.0
 50
90.0
100
AcDbRotatedDimension
1001
ACAD
1000
DSTYLE
1002
{
1070
   287
1070
     3
1070
    40
1040
40.0
1070
   143
1040
0.039
1070
   172
1070
     1
1070
   271
1070
     0
1070
   279
1070
     0
1070
   288
1070
     1
1002
}
  0
DIMENSION
  5
7CC7
330
19
100
AcDbEntity
  8
3
100
AcDbDimension
280
     0
  2
*D11
 10
3945.557756892302
 20
6154.554675010087
 30
0.0
 11
2620.557756892302
 21
6254.554675010087
 31
0.0
 70
    32
 71
     5
 42
-1.0
 73
     0
 74
     0
 75
     0
  3
IGA
100
AcDbAlignedDimension
 13
1295.557756892302
 23
6530.308553199741
 33
0.0
 14
3945.557756892302
 24
6530.30855319974
 34
0.0
100
AcDbRotatedDimension
1001
ACAD
1000
DSTYLE
1002
{
1070
   287
1070
     3
1070
    40
1040
40.0
1070
   143
1040
0.039
1070
   172
1070
     1
1070
   271
1070
     0
1070
   279
1070
     0
1070
   288
1070
     1
1002
}
  0
INSERT
  5
7CC8
330
19
100
AcDbEntity
  8
1
100
AcDbBlockReference
  2
YA_N
 10
10738.86349375249
 20
1135.274830878665
 30
0.0
  0
ARC
  5
7CCA
330
19
100
AcDbEntity
  8
1
100
AcDbCircle
 10
3104.557756892302
 20
4018.929630863207
 30
0.0
 40
1170.0
100
AcDbArc
 50
184.4608436978739
 51
246.8761524324772
  0
ARC
  5
7CCB
330
19
100
AcDbEntity
  8
1
100
AcDbCircle
 10
3104.557756892302
 20
3836.929630863208
 30
0.0
 40
988.0
100
AcDbArc
 50
295.1957948442135
 51
5.28473295453451
  0
ARC
  5
7CCC
330
19
100
AcDbEntity
  8
1
100
AcDbCircle
 10
3272.557756892302
 20
3850.929630863208
 30
0.0
 40
820.0
100
AcDbArc
 50
5.388151804327394
 51
92.75751475579212
  0
LINE
  5
7CCD
330
19
100
AcDbEntity
  8
1
100
AcDbLine
 10
1938.102014054195
 20
3927.929630863208
 30
0.0
 11
1861.557756892302
 21
4752.929630863207
 31
0.0
  0
LINE
  5
7CCE
330
19
100
AcDbEntity
  8
1
100
AcDbLine
 10
3945.557756892302
 20
2817.929630863208
 30
0.0
 11
1295.557756892302
 21
2817.929630863208
 31
0.0
1001
ACAD
1000
ASC_BOUNDS
1002
{
1070
    19
1002
}
  0
LINE
  5
7CCF
330
19
100
AcDbEntity
  8
1
100
AcDbLine
 10
3945.557756892302
 20
2942.929630863208
 30
0.0
 11
1295.557756892302
 21
2942.929630863208
 31
0.0
  0
LINE
  5
7CD0
330
19
100
AcDbEntity
  8
1
100
AcDbLine
 10
3945.557756892302
 20
2942.929630863208
 30
0.0
 11
3945.557756892302
 21
2817.929630863208
 31
0.0
  0
LINE
  5
7CD1
330
19
100
AcDbEntity
  8
1
100
AcDbLine
 10
1295.557756892302
 20
2942.929630863208
 30
0.0
 11
1295.557756892302
 21
2817.929630863208
 31
0.0
  0
LINE
  5
7CD2
330
19
100
AcDbEntity
  8
2
100
AcDbLine
 10
1575.557756892302
 20
3493.784147468918
 30
0.0
 11
1575.557756892302
 21
2697.929630863208
 31
0.0
  0
LINE
  5
7CD3
330
19
100
AcDbEntity
  8
2
100
AcDbLine
 10
1855.871973650453
 20
3202.929630863208
 30
0.0
 11
1168.393278597587
 21
3202.929630863208
 31
0.0
  0
LINE
  5
7CD4
330
19
100
AcDbEntity
  8
1
100
AcDbLine
 10
3141.557756892302
 20
4752.929630863207
 30
0.0
 11
3141.557756892304
 21
4668.964717751811
 31
0.0
  0
LINE
  5
7CD5
330
19
100
AcDbEntity
  8
1
100
AcDbLine
 10
1866.196802780901
 20
4702.929630863208
 30
0.0
 11
3141.557756892302
 21
4702.929630863208
 31
0.0
  0
LINE
  5
7CD6
330
19
100
AcDbEntity
  8
1
100
AcDbLine
 10
1808.557756892302
 20
4752.929630863207
 30
0.0
 11
3194.557756892302
 21
4752.929630863207
 31
0.0
  0
POINT
  5
7CD7
330
19
100
AcDbEntity
  8
1
100
AcDbPoint
 10
2120.75747228165
 20
3927.929630863208
 30
0.0
  0
INSERT
  5
7CD8
330
19
100
AcDbEntity
  8
1
100
AcDbBlockReference
  2
YA_N
 10
8975.636086442174
 20
-88.51158657911582
 30
0.0
 41
30.0
 42
30.0
 43
30.0
  0
LINE
  5
7CDA
330
19
100
AcDbEntity
  8
1
100
AcDbLine
 10
3945.557756892302
 20
2772.929630863208
 30
0.0
 11
1295.557756892302
 21
2772.929630863208
 31
0.0
1001
ACAD
1000
ASC_BOUNDS
1002
{
1070
    19
1002
}
  0
LINE
  5
7CDB
330
19
100
AcDbEntity
  8
1
100
AcDbLine
 10
3945.557756892302
 20
2697.929630863208
 30
0.0
 11
1295.557756892302
 21
2697.929630863208
 31
0.0
  0
LINE
  5
7CDC
330
19
100
AcDbEntity
  8
1
100
AcDbLine
 10
3945.557756892302
 20
2772.929630863208
 30
0.0
 11
3945.557756892302
 21
2697.929630863208
 31
0.0
  0
LINE
  5
7CDD
330
19
100
AcDbEntity
  8
1
100
AcDbLine
 10
1295.557756892302
 20
2772.929630863208
 30
0.0
 11
1295.557756892302
 21
2697.929630863208
 31
0.0
  0
ARC
  5
7CDE
330
19
100
AcDbEntity
  8
1
100
AcDbCircle
 10
1575.557756892302
 20
3202.929630863208
 30
0.0
 40
203.5
100
AcDbArc
 50
285.6036990000001
 51
254.39624
  0
LINE
  5
7CDF
330
19
100
AcDbEntity
  8
1
100
AcDbLine
 10
1520.8197198923
 20
3006.929630863208
 30
0.0
 11
1630.295793892303
 21
3006.929630863208
 31
0.0
  0
ARC
  5
7CE0
330
19
100
AcDbEntity
  8
1
100
AcDbCircle
 10
1761.557756892302
 20
3019.929630863208
 30
0.0
 40
3.0
100
AcDbArc
 50
0.0
 51
90.0
  0
ARC
  5
7CE1
330
19
100
AcDbEntity
  8
1
100
AcDbCircle
 10
1759.557756892302
 20
3077.256291863208
 30
0.0
 40
5.000066999999999
100
AcDbArc
 50
0.0
 51
55.056335
  0
LINE
  5
7CE2
330
19
100
AcDbEntity
  8
1
100
AcDbLine
 10
1764.557756892301
 20
3077.256291863208
 30
0.0
 11
1764.557756892301
 21
3002.929630863207
 31
0.0
  0
LINE
  5
7CE6
330
19
100
AcDbEntity
  8
1
100
AcDbLine
 10
1679.660326892303
 20
3028.072819863208
 30
0.0
 11
1685.057756892302
 21
3007.929630863208
 31
0.0
  0
LINE
  5
7CE7
330
19
100
AcDbEntity
  8
1
100
AcDbLine
 10
1685.057756892302
 20
3019.929630863208
 30
0.0
 11
1685.057756892302
 21
3002.929630863207
 31
0.0
  0
LINE
  5
7CE8
330
19
100
AcDbEntity
  8
1
100
AcDbLine
 10
1688.057756892302
 20
3022.929630863208
 30
0.0
 11
1761.557756892302
 21
3022.929630863208
 31
0.0
  0
ARC
  5
7CE9
330
19
100
AcDbEntity
  8
1
100
AcDbCircle
 10
1688.057756892302
 20
3019.929630863208
 30
0.0
 40
3.0
100
AcDbArc
 50
90.0
 51
180.0
  0
LINE
  5
7CEA
330
19
100
AcDbEntity
  8
1
100
AcDbLine
 10
1762.421526892302
 20
3081.354923863208
 30
0.0
 11
1746.483660892301
 21
3092.491398863208
 31
0.0
  0
LINE
  5
7CEB
330
19
100
AcDbEntity
  8
1
100
AcDbLine
 10
1386.557756892301
 20
3077.256291863208
 30
0.0
 11
1386.557756892301
 21
3002.929630863207
 31
0.0
  0
LINE
  5
7CEF
330
19
100
AcDbEntity
  8
1
100
AcDbLine
 10
1471.454973892301
 20
3028.072941863208
 30
0.0
 11
1466.057756892302
 21
3007.929630863208
 31
0.0
  0
LINE
  5
7CF0
330
19
100
AcDbEntity
  8
1
100
AcDbLine
 10
1466.057756892302
 20
3019.929630863208
 30
0.0
 11
1466.057756892302
 21
3002.929630863207
 31
0.0
  0
LINE
  5
7CF1
330
19
100
AcDbEntity
  8
1
100
AcDbLine
 10
1463.057756892301
 20
3022.929630863208
 30
0.0
 11
1389.557756892302
 21
3022.929630863208
 31
0.0
  0
ARC
  5
7CF2
330
19
100
AcDbEntity
  8
1
100
AcDbCircle
 10
1463.057756892301
 20
3019.929630863208
 30
0.0
 40
3.0
100
AcDbArc
 50
0.0
 51
90.0
  0
ARC
  5
7CF3
330
19
100
AcDbEntity
  8
1
100
AcDbCircle
 10
1389.557756892302
 20
3019.929630863208
 30
0.0
 40
3.0
100
AcDbArc
 50
90.0
 51
180.0
  0
LINE
  5
7CF4
330
19
100
AcDbEntity
  8
1
100
AcDbLine
 10
1388.693865892302
 20
3081.354923863208
 30
0.0
 11
1404.631731892303
 21
3092.491398863208
 31
0.0
  0
ARC
  5
7CF5
330
19
100
AcDbEntity
  8
1
100
AcDbCircle
 10
1391.557756892302
 20
3077.256291863208
 30
0.0
 40
5.0
100
AcDbArc
 50
124.943661
 51
180.0
  0
LINE
  5
7CF6
330
19
100
AcDbEntity
  8
1
100
AcDbLine
 10
1818.980781934912
 20
3002.929630863207
 30
0.0
 11
1645.557756892302
 21
3002.929630863207
 31
0.0
  0
LINE
  5
7CF7
330
19
100
AcDbEntity
  8
1
100
AcDbLine
 10
1835.557756892302
 20
2942.929630863208
 30
0.0
 11
1818.980781934912
 21
3002.929630863207
 31
0.0
  0
LINE
  5
7CF8
330
19
100
AcDbEntity
  8
1
100
AcDbLine
 10
1315.557756892302
 20
2942.929630863208
 30
0.0
 11
1331.73871343742
 21
3002.929630863207
 31
0.0
  0
LINE
  5
7CF9
330
19
100
AcDbEntity
  8
1
100
AcDbLine
 10
1645.557756892302
 20
2992.929630863208
 30
0.0
 11
1505.557756892302
 21
2992.929630863208
 31
0.0
  0
LINE
  5
7CFB
330
19
100
AcDbEntity
  8
1
100
AcDbLine
 10
1505.557756892302
 20
3002.929630863207
 30
0.0
 11
1505.557756892302
 21
2992.929630863208
 31
0.0
  0
LINE
  5
7CFC
330
19
100
AcDbEntity
  8
1
100
AcDbLine
 10
1645.557756892302
 20
3002.929630863207
 30
0.0
 11
1645.557756892302
 21
2992.929630863208
 31
0.0
  0
LINE
  5
7CFF
330
19
100
AcDbEntity
  8
1
100
AcDbLine
 10
1505.557756892302
 20
3002.929630863207
 30
0.0
 11
1331.73871343742
 21
3002.929630863207
 31
0.0
  0
INSERT
  5
7D02
330
19
100
AcDbEntity
  8
1
100
AcDbBlockReference
  2
YA_N
 10
9977.619817870641
 20
591.7198460448089
 30
0.0
 41
30.0
 42
30.0
 43
30.0
  0
DIMENSION
  5
7D04
330
19
100
AcDbEntity
  8
3
100
AcDbDimension
280
     0
  2
*D12
 10
3195.557756892302
 20
2357.994004136526
 30
0.0
 11
3570.557756892302
 21
2457.994004136526
 31
0.0
 70
    32
 71
     5
 42
-1.0
 73
     0
 74
     0
 75
     0
  3
IGA
100
AcDbAlignedDimension
 13
3945.557756892302
 23
2697.929630863208
 33
0.0
 14
3195.557756892302
 24
2697.929630863208
 34
0.0
100
AcDbRotatedDimension
1001
ACAD
1000
DSTYLE
1002
{
1070
   287
1070
     3
1070
    40
1040
40.0
1070
   143
1040
0.039
1070
   172
1070
     1
1070
   271
1070
     0
1070
   279
1070
     0
1070
   288
1070
     1
1002
}
  0
DIMENSION
  5
7D05
330
19
100
AcDbEntity
  8
3
100
AcDbDimension
280
     0
  2
*D13
 10
3141.557756892302
 20
5005.940663553165
 30
0.0
 11
2501.557756892302
 21
5105.940663553165
 31
0.0
 70
    32
 71
     5
 42
-1.0
 73
     0
 74
     0
 75
     0
  3
IGA
100
AcDbAlignedDimension
 13
1861.557756892302
 23
4752.929630863207
 33
0.0
 14
3141.557756892302
 24
4752.929630863207
 34
0.0
100
AcDbRotatedDimension
1001
ACAD
1000
DSTYLE
1002
{
1070
   287
1070
     3
1070
    40
1040
40.0
1070
   143
1040
0.039
1070
   172
1070
     1
1070
   271
1070
     0
1070
   279
1070
     0
1070
   288
1070
     1
1002
}
  0
DIMENSION
  5
7D06
330
19
100
AcDbEntity
  8
3
100
AcDbDimension
280
     0
  2
*D14
 10
3195.557756892302
 20
5253.003506009694
 30
0.0
 11
2528.557756892302
 21
5353.003506009694
 31
0.0
 70
    32
 71
     5
 42
-1.0
 73
     0
 74
     0
 75
     0
  3
IGA
100
AcDbAlignedDimension
 13
1861.557756892302
 23
4752.929630863207
 33
0.0
 14
3195.557756892302
 24
4831.36616911206
 34
0.0
100
AcDbRotatedDimension
1001
ACAD
1000
DSTYLE
1002
{
1070
   287
1070
     3
1070
    40
1040
40.0
1070
   143
1040
0.039
1070
   172
1070
     1
1070
   271
1070
     0
1070
   279
1070
     0
1070
   288
1070
     1
1002
}
  0
CIRCLE
  5
7D08
330
19
100
AcDbEntity
  8
1
100
AcDbCircle
 10
1575.557756892302
 20
3202.929630863208
 30
0.0
 40
107.0
  0
ARC
  5
7D0D
330
19
100
AcDbEntity
  8
1
100
AcDbCircle
 10
3195.557756892302
 20
3927.929630863208
 30
0.0
 40
625.0
100
AcDbArc
 50
0.0
 51
180.0
  0
ARC
  5
7D0E
330
19
100
AcDbEntity
  8
1
100
AcDbCircle
 10
3195.557756892302
 20
3927.929630863208
 30
0.0
 40
675.0
100
AcDbArc
 50
0.0
 51
180.0
  0
ARC
  5
7D0F
330
19
100
AcDbEntity
  8
1
100
AcDbCircle
 10
3195.557756892302
 20
3927.929630863208
 30
0.0
 40
625.0
100
AcDbArc
 50
180.0
 51
0.0
  0
ARC
  5
7D10
330
19
100
AcDbEntity
  8
1
100
AcDbCircle
 10
3195.557756892302
 20
3927.929630863208
 30
0.0
 40
675.0
100
AcDbArc
 50
180.0
 51
0.0
  0
DIMENSION
  5
7D11
330
19
100
AcDbEntity
  8
3
100
AcDbDimension
280
     0
  2
*D15
 10
3195.557756892302
 20
2357.767502397266
 30
0.0
 11
2245.557756892302
 21
2457.767502397266
 31
0.0
 70
    32
 71
     5
 42
-1.0
 73
     0
 74
     0
 75
     0
  3
IGA
100
AcDbAlignedDimension
 13
1295.557756892302
 23
2697.929630863208
 33
0.0
 14
3195.557756892302
 24
2697.929630863208
 34
0.0
100
AcDbRotatedDimension
1001
ACAD
1000
DSTYLE
1002
{
1070
   287
1070
     3
1070
    40
1040
40.0
1070
   143
1040
0.039
1070
   172
1070
     1
1070
   271
1070
     0
1070
   279
1070
     0
1070
   288
1070
     1
1002
}
  0
CIRCLE
  5
7D13
330
19
100
AcDbEntity
  8
1
100
AcDbCircle
 10
3195.557756892302
 20
3927.929630863208
 30
0.0
 40
254.0
  0
ARC
  5
7D18
330
19
100
AcDbEntity
  8
1
100
AcDbCircle
 10
3195.557756892302
 20
3927.929630863208
 30
0.0
 40
743.0
100
AcDbArc
 50
87.10309195897407
 51
94.1678363221616
  0
INSERT
  5
7D19
330
19
100
AcDbEntity
  8
1
100
AcDbBlockReference
  2
YA_N
 10
15500.8069134681
 20
-364.4210375468319
 30
0.0
  0
ARC
  5
7D1B
330
19
100
AcDbEntity
  8
1
100
AcDbCircle
 10
3195.557756892302
 20
3927.929630863208
 30
0.0
 40
380.0
100
AcDbArc
 50
291.2876978829832
 51
122.8066865543592
  0
ARC
  5
7D1C
330
19
100
AcDbEntity
  8
1
100
AcDbCircle
 10
1575.557756892302
 20
3202.929630863208
 30
0.0
 40
220.0
100
AcDbArc
 50
122.8066865543592
 51
291.2876978829832
  0
LINE
  5
7D1D
330
19
100
AcDbEntity
  8
1
100
AcDbLine
 10
2989.671361856981
 20
4247.320914932387
 30
0.0
 11
1456.360370292905
 21
3387.84037427168
 31
0.0
  0
LINE
  5
7D1E
330
19
100
AcDbEntity
  8
1
100
AcDbLine
 10
3059.692393604441
 20
4142.537652751154
 30
0.0
 11
1518.323135349777
 21
3293.335372367186
 31
0.0
  0
LINE
  5
7D1F
330
19
100
AcDbEntity
  8
1
100
AcDbLine
 10
3289.708377012805
 20
3692.023588696152
 30
0.0
 11
1615.219632297396
 21
3103.551888690472
 31
0.0
  0
LINE
  5
7D20
330
19
100
AcDbEntity
  8
1
100
AcDbLine
 10
3333.517203923572
 20
3573.85733460886
 30
0.0
 11
1655.429015699879
 21
2997.940406715954
 31
0.0
  0
DIMENSION
  5
7D22
330
19
100
AcDbEntity
  8
3
100
AcDbDimension
280
     0
  2
*D16
 10
4359.792441257581
 20
3927.929630863208
 30
0.0
 11
4259.79244125758
 21
4340.429630863208
 31
0.0
 70
    32
 71
     5
 42
-1.0
 73
     0
 74
     0
 75
     0
  3
IGA
100
AcDbAlignedDimension
 13
3194.557756892302
 23
4752.929630863207
 33
0.0
 14
4181.583893614581
 24
3927.929630863208
 34
0.0
 50
90.0
100
AcDbRotatedDimension
1001
ACAD
1000
DSTYLE
1002
{
1070
   287
1070
     3
1070
    40
1040
40.0
1070
   143
1040
0.039
1070
   172
1070
     1
1070
   271
1070
     0
1070
   279
1070
     0
1070
   288
1070
     1
1002
}
  0
DIMENSION
  5
7D23
330
19
100
AcDbEntity
  8
3
100
AcDbDimension
280
     0
  2
*D17
 10
4359.792441257581
 20
2817.929630863208
 30
0.0
 11
4259.79244125758
 21
3372.929630863208
 31
0.0
 70
    32
 71
     5
 42
-1.0
 73
     0
 74
     0
 75
     0
  3
IGA
100
AcDbAlignedDimension
 13
4181.583893614581
 23
3927.929630863208
 33
0.0
 14
3945.557756892302
 24
2817.929630863208
 34
0.0
 50
90.0
100
AcDbRotatedDimension
1001
ACAD
1000
DSTYLE
1002
{
1070
   287
1070
     3
1070
    40
1040
40.0
1070
   143
1040
0.039
1070
   172
1070
     1
1070
   271
1070
     0
1070
   279
1070
     0
1070
   288
1070
     1
1002
}
  0
DIMENSION
  5
7D29
330
19
100
AcDbEntity
  8
3
100
AcDbDimension
280
     0
  2
*D18
 10
4359.792441257581
 20
2697.929630863208
 30
0.0
 11
4259.79244125758
 21
2400.786773720351
 31
0.0
 70
    32
 71
     5
 42
-1.0
 73
     0
 74
     0
 75
     0
  3
IGA
100
AcDbAlignedDimension
 13
3945.557756892302
 23
2772.929630863208
 33
0.0
 14
3945.557756892302
 24
2697.929630863208
 34
0.0
 50
90.0
100
AcDbRotatedDimension
1001
ACAD
1000
DSTYLE
1002
{
1070
   287
1070
     3
1070
    40
1040
40.0
1070
   143
1040
0.039
1070
   172
1070
     1
1070
   271
1070
     0
1070
   279
1070
     0
1070
   288
1070
     1
1070
     6
1000
DOT
1002
}
  0
LINE
  5
7D2A
330
19
100
AcDbEntity
  8
1
100
AcDbLine
 10
5492.65926290269
 20
4752.929630863207
 30
0.0
 11
7298.659262902688
 21
4752.929630863207
 31
0.0
  0
LINE
  5
7D2B
330
19
100
AcDbEntity
  8
1
100
AcDbLine
 10
5545.659262902688
 20
4702.929630863208
 30
0.0
 11
7245.659262902688
 21
4702.929630863208
 31
0.0
  0
LINE
  5
7D2C
330
19
100
AcDbEntity
  8
1
100
AcDbLine
 10
4092.557756892301
 20
8571.308553199742
 30
0.0
 11
4092.557756892301
 21
6871.308553199739
 31
0.0
  0
LINE
  5
7D2D
330
19
100
AcDbEntity
  8
1
100
AcDbLine
 10
1861.557756892302
 20
8571.308553199742
 30
0.0
 11
1861.557756892302
 21
6871.308553199741
 31
0.0
  0
LINE
  5
7D2E
330
19
100
AcDbEntity
  8
1
100
AcDbLine
 10
3141.557756892302
 20
8571.308553199742
 30
0.0
 11
3141.557756892302
 21
6871.308553199741
 31
0.0
  0
LINE
  5
7D2F
330
19
100
AcDbEntity
  8
1
100
AcDbLine
 10
3141.557756892302
 20
8571.308553199742
 30
0.0
 11
1861.557756892302
 21
6871.308553199741
 31
0.0
  0
LINE
  5
7D30
330
19
100
AcDbEntity
  8
1
100
AcDbLine
 10
1861.557756892302
 20
8571.308553199742
 30
0.0
 11
3141.557756892302
 21
6871.308553199741
 31
0.0
  0
DIMENSION
  5
80C7
330
19
100
AcDbEntity
  8
3
100
AcDbDimension
280
     0
  2
*D20
 10
4092.557756892301
 20
5253.003506009694
 30
0.0
 11
3644.057756892302
 21
5353.003506009694
 31
0.0
 70
    32
 71
     5
 42
-1.0
 73
     0
 74
     0
 75
     0
  3
IGA
100
AcDbAlignedDimension
 13
3195.557756892302
 23
4831.36616911206
 33
0.0
 14
4092.557756892301
 24
3836.929630863208
 34
0.0
100
AcDbRotatedDimension
1001
ACAD
1000
DSTYLE
1002
{
1070
   287
1070
     4
1070
    40
1040
40.0
1070
    75
1070
     1
1070
   143
1040
0.039
1070
   172
1070
     1
1070
   271
1070
     0
1070
   279
1070
     1
1070
   288
1070
     1
1002
}
  0
DIMENSION
  5
80DE
330
19
100
AcDbEntity
  8
3
100
AcDbDimension
280
     0
  2
*D21
 10
1295.557756892302
 20
5520.793946915611
 30
0.0
 11
2944.192497705095
 21
5520.793946915611
 31
0.0
 70
   160
 71
     5
 42
-1.0
 73
     0
 74
     0
 75
     0
  3
IGA
100
AcDbAlignedDimension
 13
4092.557756892301
 23
3836.929630863208
 33
0.0
 14
1295.557756892302
 24
2942.929630863208
 34
0.0
100
AcDbRotatedDimension
1001
ACAD
1000
DSTYLE
1002
{
1070
   287
1070
     3
1070
    40
1040
40.0
1070
   143
1040
0.039
1070
   172
1070
     1
1070
   271
1070
     0
1070
   279
1070
     0
1070
   288
1070
     1
1002
}
  0
LINE
  5
80E3
330
19
100
AcDbEntity
  8
4
100
AcDbLine
 10
7400.0
 20
1613.487493352488
 30
0.0
 11
7400.0
 21
813.487493352488
 31
0.0
  0
LINE
  5
80E4
330
19
100
AcDbEntity
  8
4
100
AcDbLine
 10
4600.0
 20
1613.487493352488
 30
0.0
 11
4600.0
 21
813.487493352488
 31
0.0
  0
LINE
  5
80E5
330
19
100
AcDbEntity
  8
4
100
AcDbLine
 10
2600.0
 20
1613.487493352488
 30
0.0
 11
2600.0
 21
813.487493352488
 31
0.0
  0
LINE
  5
80E8
330
19
100
AcDbEntity
  8
4
100
AcDbLine
 10
2600.0
 20
813.487493352488
 30
0.0
 11
7400.0
 21
813.487493352488
 31
0.0
  0
LINE
  5
80E9
330
19
100
AcDbEntity
  8
4
100
AcDbLine
 10
2600.0
 20
1213.487493352488
 30
0.0
 11
7400.0
 21
1213.487493352488
 31
0.0
  0
TEXT
  5
80EA
330
19
100
AcDbEntity
  8
4
100
AcDbText
 10
2754.008323387607
 20
1339.659596818939
 30
0.0
 40
200.0
  1
機器名称
100
AcDbText
  0
TEXT
  5
80EB
330
19
100
AcDbEntity
  8
4
100
AcDbText
 10
2745.032424099191
 20
900.0681202805317
 30
0.0
 40
200.0
  1
機器型番
100
AcDbText
  0
TEXT
  5
80EC
330
19
100
AcDbEntity
  8
4
100
AcDbText
 10
4711.644275701795
 20
1306.829138347287
 30
0.0
 40
170.0
  1
ミツヤリミットロードファン
100
AcDbText
  0
TEXT
  5
80ED
330
19
100
AcDbEntity
  8
4
100
AcDbText
 10
4746.617982341923
 20
882.1258304722615
 30
0.0
 40
200.0
  1
LL#8-5
100
AcDbText
  0
TEXT
  5
80EF
330
19
100
AcDbEntity
  8
4
100
AcDbText
 10
3239.654004135526
 20
9533.715365330063
 30
0.0
 40
216.0
  1
床置防振ベット
100
AcDbText
  0
TEXT
  5
80F0
330
19
100
AcDbEntity
  8
4
100
AcDbText
 10
1264.670373317785
 20
10135.52390479719
 30
0.0
 40
288.0
  1
遠心式両吸込両持リミットロードファン
100
AcDbText
  0
LINE
  5
80F1
330
19
100
AcDbEntity
  8
4
100
AcDbLine
 10
1000.0
 20
9877.635017059219
 30
0.0
 11
7400.0
 21
9877.635017059219
 31
0.0
  0
LINE
  5
80F2
330
19
100
AcDbEntity
  8
4
100
AcDbLine
 10
1000.0
 20
10677.63501705922
 30
0.0
 11
7400.0
 21
10677.63501705922
 31
0.0
  0
LINE
  5
80F3
330
19
100
AcDbEntity
  8
4
100
AcDbLine
 10
2600.0
 20
1613.487493352488
 30
0.0
 11
7400.0
 21
1613.487493352488
 31
0.0
  0
LINE
  5
80F4
330
19
100
AcDbEntity
  8
4
100
AcDbLine
 10
1000.0
 20
10677.63501705922
 30
0.0
 11
1000.0
 21
9877.635017059219
 31
0.0
  0
TEXT
  5
80F5
330
19
100
AcDbEntity
  8
4
100
AcDbText
 10
1496.218675164717
 20
9529.277910185374
 30
0.0
 40
216.0
  1
右回転上向
100
AcDbText
  0
TEXT
  5
80F6
330
19
100
AcDbEntity
  8
4
100
AcDbText
 10
5875.878236997159
 20
10824.24432598123
 30
0.0
 40
224.0
  1
No.
100
AcDbText
  0
TEXT
  5
80F7
330
19
100
AcDbEntity
  8
4
100
AcDbText
 10
5245.184250400052
 20
9533.715365330063
 30
0.0
 40
216.0
  1
縮尺：1/40
100
AcDbText
  0
LINE
  5
80F8
330
19
100
AcDbEntity
  8
4
100
AcDbLine
 10
7400.0
 20
10677.63501705922
 30
0.0
 11
7400.0
 21
9877.635017059219
 31
0.0
  0
LINE
  5
80F9
330
19
100
AcDbEntity
  8
4
100
AcDbLine
 10
8400.0
 20
11800.0
 30
0.0
 11
8400.0
 21
11800.0
 31
0.0
  0
LINE
  5
80FA
330
19
100
AcDbEntity
  8
4
100
AcDbLine
 10
5762.469689439458
 20
10725.0543325016
 30
0.0
 11
5762.469689439458
 21
11146.60904619901
 31
0.0
  0
LINE
  5
80FB
330
19
100
AcDbEntity
  8
4
100
AcDbLine
 10
5762.469689439458
 20
11146.60904619901
 30
0.0
 11
7400.0
 21
11146.60904619901
 31
0.0
  0
LINE
  5
80FC
330
19
100
AcDbEntity
  8
4
100
AcDbLine
 10
7400.0
 20
11146.60904619901
 30
0.0
 11
7400.0
 21
10725.0543325016
 31
0.0
  0
LINE
  5
80FD
330
19
100
AcDbEntity
  8
4
100
AcDbLine
 10
7400.0
 20
10725.0543325016
 30
0.0
 11
5762.469689439458
 21
10725.0543325016
 31
0.0
  0
LINE
  5
80FE
330
19
100
AcDbEntity
  8
4
100
AcDbLine
 10
0.0
 20
0.0
 30
0.0
 11
0.0
 21
11800.0
 31
0.0
  0
LINE
  5
80FF
330
19
100
AcDbEntity
  8
4
100
AcDbLine
 10
0.0
 20
11800.0
 30
0.0
 11
8400.0
 21
11800.0
 31
0.0
  0
LINE
  5
8100
330
19
100
AcDbEntity
  8
4
100
AcDbLine
 10
8400.0
 20
11800.0
 30
0.0
 11
8400.0
 21
0.0
 31
0.0
  0
LINE
  5
8101
330
19
100
AcDbEntity
  8
4
100
AcDbLine
 10
8400.0
 20
0.0
 30
0.0
 11
0.0
 21
0.0
 31
0.0
  0
DIMENSION
  5
826C
330
19
100
AcDbEntity
  8
3
100
AcDbDimension
280
     0
  2
*D23
 10
4684.810109400772
 20
2697.929630863208
 30
0.0
 11
4553.3815379722
 21
3725.429630863208
 31
0.0
 70
    32
 71
     5
 42
-1.0
 73
     0
 74
     0
 75
     0
  3
IGA
100
AcDbAlignedDimension
 13
3194.557756892302
 23
4752.929630863207
 33
0.0
 14
3945.557756892302
 24
2697.929630863208
 34
0.0
 50
90.0
100
AcDbRotatedDimension
1001
ACAD
1000
DSTYLE
1002
{
1070
   172
1070
     1
1070
    40
1040
40.0
1070
     3
1000
(<>)
1070
   271
1070
     0
1070
   143
1040
0.039
1002
}
  0
DIMENSION
  5
827B
330
19
100
AcDbEntity
  8
3
100
AcDbDimension
280
     0
  2
*D25
 10
4359.903580282262
 20
2817.929630863208
 30
0.0
 11
4551.332151710833
 21
2795.429630863207
 31
0.0
 70
    32
  1
   <>
 71
     5
 42
-1.0
 73
     0
 74
     0
 75
     0
  3
IGA
100
AcDbAlignedDimension
 13
3945.557756892302
 23
2772.929630863208
 33
0.0
 14
3945.557756892302
 24
2817.929630863208
 34
0.0
 50
90.0
100
AcDbRotatedDimension
1001
ACAD
1000
DSTYLE
1002
{
1070
   172
1070
     1
1070
    76
1070
     1
1070
    75
1070
     1
1070
    40
1040
40.0
1070
     3
1000
(<>)
1070
   271
1070
     0
1070
     7
1000
_NONE
1070
     6
1000
_NONE
1070
   143
1040
0.039
1002
}
  0
ENDSEC
  0
SECTION
  2
OBJECTS
  0
DICTIONARY
  5
C
330
0
100
AcDbDictionary
281
     1
  3
ACAD_CIP_PREVIOUS_PRODUCT_INFO
350
83E8
  3
ACAD_COLOR
350
83CB
  3
ACAD_DETAILVIEWSTYLE
350
83E4
  3
ACAD_GROUP
350
D
  3
ACAD_LAYOUT
350
82A3
  3
ACAD_MATERIAL
350
8399
  3
ACAD_MLEADERSTYLE
350
83E0
  3
ACAD_MLINESTYLE
350
E
  3
ACAD_PLOTSETTINGS
350
82A4
  3
ACAD_PLOTSTYLENAME
350
82A1
  3
ACAD_SCALELIST
350
83CE
  3
ACAD_SECTIONVIEWSTYLE
350
83E2
  3
ACAD_TABLESTYLE
350
83CC
  3
ACAD_VISUALSTYLE
350
83B2
  3
ACDB_RECOMPOSE_DATA
350
8454
  3
AcDbVariableDictionary
350
8390
  3
AcDsDecomposeData
350
845A
  0
DICTIONARY
  5
8438
330
2
100
AcDbDictionary
280
     1
281
     1
  3
ACAD_LAYERSTATES
360
8439
  0
DICTIONARY
  5
842B
330
F
100
AcDbDictionary
280
     1
281
     1
  3
ADSK_XREC_LAYER_RECONCILED
360
842C
  0
DICTIONARY
  5
842D
330
31
100
AcDbDictionary
280
     1
281
     1
  3
ADSK_XREC_LAYER_RECONCILED
360
842E
  0
DICTIONARY
  5
842F
330
76D0
100
AcDbDictionary
280
     1
281
     1
  3
ADSK_XREC_LAYER_RECONCILED
360
8430
  0
DICTIONARY
  5
8431
330
76D1
100
AcDbDictionary
280
     1
281
     1
  3
ADSK_XREC_LAYER_RECONCILED
360
8432
  0
DICTIONARY
  5
8433
330
76D2
100
AcDbDictionary
280
     1
281
     1
  3
ADSK_XREC_LAYER_RECONCILED
360
8434
  0
DICTIONARY
  5
82D0
330
19
100
AcDbDictionary
280
     1
281
     1
  3
ACAD_LAYOUTSELFREF
360
82D1
  0
DICTIONARY
  5
82CE
330
16
100
AcDbDictionary
280
     1
281
     1
  3
ACAD_LAYOUTSELFREF
360
82CF
  0
XRECORD
  5
83E8
102
{ACAD_REACTORS
330
C
102
}
330
C
100
AcDbXrecord
280
     1
300
ACDLT
300
2023
300

  0
DICTIONARY
  5
83CB
102
{ACAD_REACTORS
330
C
102
}
330
C
100
AcDbDictionary
281
     1
  0
DICTIONARY
  5
83E4
102
{ACAD_REACTORS
330
C
102
}
330
C
100
AcDbDictionary
281
     1
  3
Metric50
350
83E5
  0
DICTIONARY
  5
D
102
{ACAD_REACTORS
330
C
102
}
330
C
100
AcDbDictionary
281
     1
  0
DICTIONARY
  5
82A3
102
{ACAD_REACTORS
330
C
102
}
330
C
100
AcDbDictionary
281
     1
  3
Model
350
82A5
  3
ﾚｲｱｳﾄ1
350
82A6
  0
DICTIONARY
  5
8399
102
{ACAD_REACTORS
330
C
102
}
330
C
100
AcDbDictionary
281
     1
  3
ByBlock
350
83A2
  3
ByLayer
350
839A
  3
Global
350
83AA
  0
DICTIONARY
  5
83E0
102
{ACAD_REACTORS
330
C
102
}
330
C
100
AcDbDictionary
281
     1
  3
Standard
350
83E1
  0
DICTIONARY
  5
E
102
{ACAD_REACTORS
330
C
102
}
330
C
100
AcDbDictionary
281
     1
  3
STANDARD
350
1C
  0
DICTIONARY
  5
82A4
102
{ACAD_REACTORS
330
C
102
}
330
C
100
AcDbDictionary
281
     1
  0
ACDBDICTIONARYWDFLT
  5
82A1
102
{ACAD_REACTORS
330
C
102
}
330
C
100
AcDbDictionary
281
     1
  3
Normal
350
82A2
100
AcDbDictionaryWithDefault
340
82A2
  0
DICTIONARY
  5
83CE
102
{ACAD_REACTORS
330
C
102
}
330
C
100
AcDbDictionary
281
     1
  3
A0
350
83CF
  3
A1
350
83D0
  3
A2
350
83D1
  3
A3
350
83D2
  3
A4
350
83D3
  3
A5
350
83D4
  3
A6
350
83D5
  3
A7
350
83D6
  3
A8
350
83D7
  3
A9
350
83D8
  3
B0
350
83D9
  3
B1
350
83DA
  3
B2
350
83DB
  3
B3
350
83DC
  3
B4
350
83DD
  3
B5
350
83DE
  3
B6
350
83DF
  0
DICTIONARY
  5
83E2
102
{ACAD_REACTORS
330
C
102
}
330
C
100
AcDbDictionary
281
     1
  3
Metric50
350
83E3
  0
DICTIONARY
  5
83CC
102
{ACAD_REACTORS
330
C
102
}
330
C
100
AcDbDictionary
281
     1
  3
Standard
350
83CD
  0
DICTIONARY
  5
83B2
102
{ACAD_REACTORS
330
C
102
}
330
C
100
AcDbDictionary
281
     1
  3
2dWireframe
350
83B8
  3
Basic
350
83B7
  3
Brighten
350
83BE
  3
ColorChange
350
83C2
  3
Conceptual
350
83BB
  3
Dim
350
83BD
  3
EdgeColorOff
350
83CA
  3
Facepattern
350
83C1
  3
Flat
350
83B3
  3
FlatWithEdges
350
83B4
  3
Gouraud
350
83B5
  3
GouraudWithEdges
350
83B6
  3
Hidden
350
83BA
  3
JitterOff
350
83C8
  3
Linepattern
350
83C0
  3
OverhangOff
350
83C9
  3
Realistic
350
83BC
  3
Shaded
350
83C7
  3
Shaded with edges
350
83C6
  3
Shades of Gray
350
83C3
  3
Sketchy
350
83C4
  3
Thicken
350
83BF
  3
Wireframe
350
83B9
  3
X-Ray
350
83C5
  0
XRECORD
  5
8454
102
{ACAD_REACTORS
330
C
102
}
330
C
100
AcDbXrecord
280
     1
 90
        1
330
83CD
  0
DICTIONARY
  5
8390
102
{ACAD_REACTORS
330
C
102
}
330
C
100
AcDbDictionary
281
     1
  3
CANNOSCALE
350
8449
  3
CMLEADERSTYLE
350
8445
  3
CTABLESTYLE
350
8444
  3
CVIEWDETAILSTYLE
350
8446
  3
CVIEWSECTIONSTYLE
350
8447
  3
DIMASSOC
350
8391
  3
LAYEREVAL
350
844B
  3
LAYERNOTIFY
350
844C
  3
LIGHTINGUNITS
350
844A
  3
MARKUPASSISTMODE
350
8451
  3
MSLTSCALE
350
8448
  0
DICTIONARY
  5
845A
102
{ACAD_REACTORS
330
C
102
}
330
C
100
AcDbDictionary
281
     1
  3
AcDsRecords
350
845C
  3
AcDsSchemas
350
845B
1001
ACAD
1070
     2
  0
DICTIONARY
  5
8439
102
{ACAD_REACTORS
330
8438
102
}
330
8438
100
AcDbDictionary
281
     1
  0
XRECORD
  5
842C
102
{ACAD_REACTORS
330
842B
102
}
330
842B
100
AcDbXrecord
280
     1
290
     1
  0
XRECORD
  5
842E
102
{ACAD_REACTORS
330
842D
102
}
330
842D
100
AcDbXrecord
280
     1
290
     1
  0
XRECORD
  5
8430
102
{ACAD_REACTORS
330
842F
102
}
330
842F
100
AcDbXrecord
280
     1
290
     1
  0
XRECORD
  5
8432
102
{ACAD_REACTORS
330
8431
102
}
330
8431
100
AcDbXrecord
280
     1
290
     1
  0
XRECORD
  5
8434
102
{ACAD_REACTORS
330
8433
102
}
330
8433
100
AcDbXrecord
280
     1
290
     1
  0
XRECORD
  5
82D1
102
{ACAD_REACTORS
330
82D0
102
}
330
82D0
100
AcDbXrecord
280
     1
340
19
  0
XRECORD
  5
82CF
102
{ACAD_REACTORS
330
82CE
102
}
330
82CE
100
AcDbXrecord
280
     1
340
16
  0
ACDBDETAILVIEWSTYLE
  5
83E5
102
{ACAD_XDICTIONARY
360
845F
102
}
102
{ACAD_REACTORS
330
83E4
102
}
330
83E4
100
AcDbModelDocViewStyle
 70
     0
  3
Metric50
290
     0
100
AcDbDetailViewStyle
 70
     0
 71
     0
 90
        3
 71
     1
340
10
 62
   256
 40
5.0
340
0
 62
   256
 40
5.0
300

 40
0.0
280
     1
 71
     2
340
15
 90
       25
 62
   256
 71
     3
340
10
 62
   256
 40
5.0
 90
        0
 40
15.0
 90
        1
300
%<\AcVar ViewDetailId>% (%<\AcVar ViewScale \f "%sn">%)
 71
     4
340
15
 90
       25
 62
   256
340
15
 90
       25
 62
   256
280
     0
  0
LAYOUT
  5
82A5
102
{ACAD_REACTORS
330
82A3
102
}
330
82A3
100
AcDbPlotSettings
  1

  2
\\Txbo34x8944cqyd\EPSON LP-6100
  4

  6

 40
0.0
 41
0.0
 42
0.0
 43
0.0
 44
0.0
 45
0.0
 46
0.0
 47
0.0
 48
0.0
 49
0.0
140
0.0
141
0.0
142
1.0
143
1.0
 70
  1712
 72
     0
 73
     0
 74
     0
  7
GOD2000TABLE.ctb
 75
     0
147
1.0
 76
     0
 77
     2
 78
   300
148
0.0
149
0.0
100
AcDbLayout
  1
Model
 70
     1
 71
     0
 10
0.0
 20
0.0
 11
12.0
 21
9.0
 12
0.0
 22
0.0
 32
0.0
 14
0.0
 24
0.0
 34
0.0
 15
0.0
 25
0.0
 35
0.0
146
0.0
 13
0.0
 23
0.0
 33
0.0
 16
1.0
 26
0.0
 36
0.0
 17
0.0
 27
1.0
 37
0.0
 76
     0
330
19
331
8397
  0
LAYOUT
  5
82A6
102
{ACAD_REACTORS
330
82A3
102
}
330
82A3
100
AcDbPlotSettings
  1

  2
\\Txbo34x8944cqyd\EPSON LP-6100
  4

  6

 40
0.0
 41
0.0
 42
0.0
 43
0.0
 44
0.0
 45
0.0
 46
0.0
 47
0.0
 48
0.0
 49
0.0
140
0.0
141
0.0
142
1.0
143
1.0
 70
   688
 72
     0
 73
     0
 74
     5
  7
GOD2000TABLE.ctb
 75
    16
147
1.0
 76
     0
 77
     2
 78
   300
148
0.0
149
0.0
100
AcDbLayout
  1
ﾚｲｱｳﾄ1
 70
     1
 71
     1
 10
0.0
 20
0.0
 11
12.0
 21
9.0
 12
0.0
 22
0.0
 32
0.0
 14
1.000000000000000E+20
 24
1.000000000000000E+20
 34
1.000000000000000E+20
 15
-1.000000000000000E+20
 25
-1.000000000000000E+20
 35
-1.000000000000000E+20
146
0.0
 13
0.0
 23
0.0
 33
0.0
 16
1.0
 26
0.0
 36
0.0
 17
0.0
 27
1.0
 37
0.0
 76
     0
330
16
  0
MATERIAL
  5
83A2
102
{ACAD_XDICTIONARY
360
83A3
102
}
102
{ACAD_REACTORS
330
8399
102
}
330
8399
100
AcDbMaterial
  1
ByBlock
 72
     0
 43
0.0208333333333333
 43
0.0
 43
0.0
 43
0.0
 43
0.0
 43
0.0208333333333333
 43
0.0
 43
0.0
 43
0.0
 43
0.0
 43
1.0
 43
0.0
 43
0.0
 43
0.0
 43
0.0
 43
1.0
 77
     0
 47
0.0208333333333333
 47
0.0
 47
0.0
 47
0.0
 47
0.0
 47
0.0208333333333333
 47
0.0
 47
0.0
 47
0.0
 47
0.0
 47
1.0
 47
0.0
 47
0.0
 47
0.0
 47
0.0
 47
1.0
171
     0
 49
0.0208333333333333
 49
0.0
 49
0.0
 49
0.0
 49
0.0
 49
0.0208333333333333
 49
0.0
 49
0.0
 49
0.0
 49
0.0
 49
1.0
 49
0.0
 49
0.0
 49
0.0
 49
0.0
 49
1.0
175
     0
142
0.0208333333333333
142
0.0
142
0.0
142
0.0
142
0.0
142
0.0208333333333333
142
0.0
142
0.0
142
0.0
142
0.0
142
1.0
142
0.0
142
0.0
142
0.0
142
0.0
142
1.0
179
     0
144
0.0208333333333333
144
0.0
144
0.0
144
0.0
144
0.0
144
0.0208333333333333
144
0.0
144
0.0
144
0.0
144
0.0
144
1.0
144
0.0
144
0.0
144
0.0
144
0.0
144
1.0
147
0.0208333333333333
147
0.0
147
0.0
147
0.0
147
0.0
147
0.0208333333333333
147
0.0
147
0.0
147
0.0
147
0.0
147
1.0
147
0.0
147
0.0
147
0.0
147
0.0
147
1.0
  0
MATERIAL
  5
839A
102
{ACAD_XDICTIONARY
360
839B
102
}
102
{ACAD_REACTORS
330
8399
102
}
330
8399
100
AcDbMaterial
  1
ByLayer
 72
     0
 43
0.0208333333333333
 43
0.0
 43
0.0
 43
0.0
 43
0.0
 43
0.0208333333333333
 43
0.0
 43
0.0
 43
0.0
 43
0.0
 43
1.0
 43
0.0
 43
0.0
 43
0.0
 43
0.0
 43
1.0
 77
     0
 47
0.0208333333333333
 47
0.0
 47
0.0
 47
0.0
 47
0.0
 47
0.0208333333333333
 47
0.0
 47
0.0
 47
0.0
 47
0.0
 47
1.0
 47
0.0
 47
0.0
 47
0.0
 47
0.0
 47
1.0
171
     0
 49
0.0208333333333333
 49
0.0
 49
0.0
 49
0.0
 49
0.0
 49
0.0208333333333333
 49
0.0
 49
0.0
 49
0.0
 49
0.0
 49
1.0
 49
0.0
 49
0.0
 49
0.0
 49
0.0
 49
1.0
175
     0
142
0.0208333333333333
142
0.0
142
0.0
142
0.0
142
0.0
142
0.0208333333333333
142
0.0
142
0.0
142
0.0
142
0.0
142
1.0
142
0.0
142
0.0
142
0.0
142
0.0
142
1.0
179
     0
144
0.0208333333333333
144
0.0
144
0.0
144
0.0
144
0.0
144
0.0208333333333333
144
0.0
144
0.0
144
0.0
144
0.0
144
1.0
144
0.0
144
0.0
144
0.0
144
0.0
144
1.0
147
0.0208333333333333
147
0.0
147
0.0
147
0.0
147
0.0
147
0.0208333333333333
147
0.0
147
0.0
147
0.0
147
0.0
147
1.0
147
0.0
147
0.0
147
0.0
147
0.0
147
1.0
  0
MATERIAL
  5
83AA
102
{ACAD_XDICTIONARY
360
83AB
102
}
102
{ACAD_REACTORS
330
8399
102
}
330
8399
100
AcDbMaterial
  1
Global
 72
     0
 43
0.0208333333333333
 43
0.0
 43
0.0
 43
0.0
 43
0.0
 43
0.0208333333333333
 43
0.0
 43
0.0
 43
0.0
 43
0.0
 43
1.0
 43
0.0
 43
0.0
 43
0.0
 43
0.0
 43
1.0
 77
     0
 47
0.0208333333333333
 47
0.0
 47
0.0
 47
0.0
 47
0.0
 47
0.0208333333333333
 47
0.0
 47
0.0
 47
0.0
 47
0.0
 47
1.0
 47
0.0
 47
0.0
 47
0.0
 47
0.0
 47
1.0
171
     0
 49
0.0208333333333333
 49
0.0
 49
0.0
 49
0.0
 49
0.0
 49
0.0208333333333333
 49
0.0
 49
0.0
 49
0.0
 49
0.0
 49
1.0
 49
0.0
 49
0.0
 49
0.0
 49
0.0
 49
1.0
175
     0
142
0.0208333333333333
142
0.0
142
0.0
142
0.0
142
0.0
142
0.0208333333333333
142
0.0
142
0.0
142
0.0
142
0.0
142
1.0
142
0.0
142
0.0
142
0.0
142
0.0
142
1.0
179
     0
144
0.0208333333333333
144
0.0
144
0.0
144
0.0
144
0.0
144
0.0208333333333333
144
0.0
144
0.0
144
0.0
144
0.0
144
1.0
144
0.0
144
0.0
144
0.0
144
0.0
144
1.0
147
0.0208333333333333
147
0.0
147
0.0
147
0.0
147
0.0
147
0.0208333333333333
147
0.0
147
0.0
147
0.0
147
0.0
147
1.0
147
0.0
147
0.0
147
0.0
147
0.0
147
1.0
  0
MLEADERSTYLE
  5
83E1
102
{ACAD_REACTORS
330
83E0
102
}
330
83E0
100
AcDbMLeaderStyle
179
     2
170
     2
171
     1
172
     0
 90
        2
 40
0.0
 41
0.0
173
     1
 91
-1056964608
340
13
 92
       -2
290
     1
 42
2.0
291
     1
 43
0.36
  3
Standard
 44
4.0
300

342
10
174
     1
178
     6
175
     1
176
     0
 93
-1056964608
 45
4.0
292
     0
297
     0
 46
4.0
 94
-1056964608
 47
1.0
 49
1.0
140
1.0
293
     1
141
0.0
294
     1
177
     0
142
1.0
295
     0
296
     0
143
0.125
271
     0
272
     9
273
     9
298
     1
  0
MLINESTYLE
  5
1C
102
{ACAD_REACTORS
330
E
102
}
330
E
100
AcDbMlineStyle
  2
STANDARD
 70
     0
  3

 62
     0
 51
90.0
 52
90.0
 71
     2
 49
0.5
 62
   256
  6
BYLAYER
 49
-0.5
 62
   256
  6
BYLAYER
  0
ACDBPLACEHOLDER
  5
82A2
102
{ACAD_REACTORS
330
82A1
102
}
330
82A1
  0
SCALE
  5
83CF
102
{ACAD_REACTORS
330
83CE
102
}
330
83CE
100
AcDbScale
 70
     0
300
1:1
140
1.0
141
1.0
290
     1
  0
SCALE
  5
83D0
102
{ACAD_REACTORS
330
83CE
102
}
330
83CE
100
AcDbScale
 70
     0
300
1:2
140
1.0
141
2.0
290
     0
  0
SCALE
  5
83D1
102
{ACAD_REACTORS
330
83CE
102
}
330
83CE
100
AcDbScale
 70
     0
300
1:4
140
1.0
141
4.0
290
     0
  0
SCALE
  5
83D2
102
{ACAD_REACTORS
330
83CE
102
}
330
83CE
100
AcDbScale
 70
     0
300
1:5
140
1.0
141
5.0
290
     0
  0
SCALE
  5
83D3
102
{ACAD_REACTORS
330
83CE
102
}
330
83CE
100
AcDbScale
 70
     0
300
1:8
140
1.0
141
8.0
290
     0
  0
SCALE
  5
83D4
102
{ACAD_REACTORS
330
83CE
102
}
330
83CE
100
AcDbScale
 70
     0
300
1:10
140
1.0
141
10.0
290
     0
  0
SCALE
  5
83D5
102
{ACAD_REACTORS
330
83CE
102
}
330
83CE
100
AcDbScale
 70
     0
300
1:16
140
1.0
141
16.0
290
     0
  0
SCALE
  5
83D6
102
{ACAD_REACTORS
330
83CE
102
}
330
83CE
100
AcDbScale
 70
     0
300
1:20
140
1.0
141
20.0
290
     0
  0
SCALE
  5
83D7
102
{ACAD_REACTORS
330
83CE
102
}
330
83CE
100
AcDbScale
 70
     0
300
1:30
140
1.0
141
30.0
290
     0
  0
SCALE
  5
83D8
102
{ACAD_REACTORS
330
83CE
102
}
330
83CE
100
AcDbScale
 70
     0
300
1:40
140
1.0
141
40.0
290
     0
  0
SCALE
  5
83D9
102
{ACAD_REACTORS
330
83CE
102
}
330
83CE
100
AcDbScale
 70
     0
300
1:50
140
1.0
141
50.0
290
     0
  0
SCALE
  5
83DA
102
{ACAD_REACTORS
330
83CE
102
}
330
83CE
100
AcDbScale
 70
     0
300
1:100
140
1.0
141
100.0
290
     0
  0
SCALE
  5
83DB
102
{ACAD_REACTORS
330
83CE
102
}
330
83CE
100
AcDbScale
 70
     0
300
2:1
140
2.0
141
1.0
290
     0
  0
SCALE
  5
83DC
102
{ACAD_REACTORS
330
83CE
102
}
330
83CE
100
AcDbScale
 70
     0
300
4:1
140
4.0
141
1.0
290
     0
  0
SCALE
  5
83DD
102
{ACAD_REACTORS
330
83CE
102
}
330
83CE
100
AcDbScale
 70
     0
300
8:1
140
8.0
141
1.0
290
     0
  0
SCALE
  5
83DE
102
{ACAD_REACTORS
330
83CE
102
}
330
83CE
100
AcDbScale
 70
     0
300
10:1
140
10.0
141
1.0
290
     0
  0
SCALE
  5
83DF
102
{ACAD_REACTORS
330
83CE
102
}
330
83CE
100
AcDbScale
 70
     0
300
100:1
140
100.0
141
1.0
290
     0
  0
ACDBSECTIONVIEWSTYLE
  5
83E3
102
{ACAD_XDICTIONARY
360
845D
102
}
102
{ACAD_REACTORS
330
83E2
102
}
330
83E2
100
AcDbModelDocViewStyle
 70
     0
  3
Metric50
290
     0
100
AcDbSectionViewStyle
 70
     0
 71
     0
 90
      102
 71
     1
340
10
 62
   256
 40
5.0
340
0
340
0
 62
   256
 40
5.0
300
I, O, Q, S, X, Z
 40
10.0
 90
        0
 40
2.5
 90
        0
 71
     2
340
15
 90
       25
 62
   256
340
15
 90
       50
 62
   256
 40
5.0
 40
2.5
 40
5.0
 71
     3
340
10
 62
   256
 40
5.0
 90
        0
 40
15.0
 90
        1
300
%<\AcVar ViewSectionStartId>%-%<\AcVar ViewSectionEndId>% (%<\AcVar ViewScale \f "%sn">%)
 71
     4
 62
   256
 62
   257
300
ANSI31
 40
1.0
 90
        0
290
     0
290
     0
 90
        6
 40
0.0
 40
1.570796326794896
 40
0.2617993877991494
 40
1.308996938995747
 40
-0.2617993877991494
 40
1.832595714594046
  0
TABLESTYLE
  5
83CD
102
{ACAD_XDICTIONARY
360
8452
102
}
102
{ACAD_REACTORS
330
83CC
102
}
330
83CC
100
AcDbTableStyle
280
     0
  3
Standard
 70
     0
 71
     0
 40
1.5
 41
1.5
280
     0
281
     0
  7
STANDARD
140
4.5
170
     2
 62
     0
 63
     7
283
     0
 90
      512
 91
        0
  1

274
    -2
284
     1
 64
     0
275
    -2
285
     1
 65
     0
276
    -2
286
     1
 66
     0
277
    -2
287
     1
 67
     0
278
    -2
288
     1
 68
     0
279
    -2
289
     1
 69
     0
  7
STANDARD
140
6.0
170
     5
 62
     0
 63
     7
283
     0
 90
      512
 91
        0
  1

274
    -2
284
     1
 64
     0
275
    -2
285
     1
 65
     0
276
    -2
286
     1
 66
     0
277
    -2
287
     1
 67
     0
278
    -2
288
     1
 68
     0
279
    -2
289
     1
 69
     0
  7
STANDARD
140
4.5
170
     5
 62
     0
 63
     7
283
     0
 90
      512
 91
        0
  1

274
    -2
284
     1
 64
     0
275
    -2
285
     1
 65
     0
276
    -2
286
     1
 66
     0
277
    -2
287
     1
 67
     0
278
    -2
288
     1
 68
     0
279
    -2
289
     1
 69
     0
  0
VISUALSTYLE
  5
83B8
102
{ACAD_REACTORS
330
83B2
102
}
330
83B2
100
AcDbVisualStyle
  2
2dWireframe
 70
     4
177
     3
291
     0
 70
    58
 90
        0
176
     1
 90
        2
176
     1
 90
        0
176
     1
 90
        0
176
     1
 40
0.6
176
     1
 40
30.0
176
     1
 62
     7
420
 16777215
176
     1
 90
        1
176
     1
 90
        4
176
     1
 62
     7
176
     1
 62
   257
176
     1
 90
        1
176
     1
 90
        1
176
     1
 40
1.0
176
     1
 90
        0
176
     1
 62
   257
176
     1
 40
1.0
176
     1
 90
        1
176
     1
 90
        6
176
     1
 90
        2
176
     1
 62
     7
176
     1
 90
        5
176
     1
 90
        0
176
     1
 90
        0
176
     1
290
     0
176
     1
 90
        1
176
     1
 40
0.0
176
     1
 90
        0
176
     1
290
     1
176
     1
290
     1
176
     1
290
     0
176
     1
290
     0
176
     1
290
     0
176
     1
290
     0
176
     1
290
     0
176
     1
290
     0
176
     1
290
     0
176
     1
 90
       50
176
     1
 40
0.0
176
     1
 40
1.0
176
     1
 90
        0
176
     1
 62
    18
420
        0
176
     1
 90
       50
176
     1
 90
        3
176
     1
 62
     5
420
      255
176
     1
290
     0
176
     1
 90
       50
176
     1
 90
       50
176
     1
 90
       50
176
     1
290
     0
176
     1
 90
       50
176
     1
 62
   256
176
     0
 40
1.0
176
     0
 90
        2
176
     1
  1
strokes_ogs.tif
176
     1
290
     0
176
     1
 40
1.0
176
     1
 40
1.0
176
     1
1001
ACAD
1000
AcDbSavedByObjectVersion
1070
     0
  0
VISUALSTYLE
  5
83B7
102
{ACAD_REACTORS
330
83B2
102
}
330
83B2
100
AcDbVisualStyle
  2
Basic
 70
     7
177
     3
291
     1
 70
    58
 90
        1
176
     1
 90
        0
176
     1
 90
        1
176
     1
 90
        0
176
     1
 40
0.6
176
     1
 40
30.0
176
     1
 62
     7
420
 16777215
176
     1
 90
        0
176
     1
 90
        4
176
     1
 62
     7
176
     1
 62
   257
176
     1
 90
        1
176
     1
 90
        1
176
     1
 40
1.0
176
     1
 90
        8
176
     1
 62
     7
176
     1
 40
1.0
176
     1
 90
        1
176
     1
 90
        6
176
     1
 90
        2
176
     1
 62
     7
176
     1
 90
        5
176
     1
 90
        0
176
     1
 90
        0
176
     1
290
     0
176
     1
 90
        1
176
     1
 40
0.0
176
     1
 90
        0
176
     1
290
     0
176
     1
290
     1
176
     1
290
     1
176
     1
290
     0
176
     1
290
     0
176
     1
290
     0
176
     1
290
     0
176
     1
290
     0
176
     1
290
     0
176
     1
 90
       50
176
     1
 40
0.0
176
     1
 40
1.0
176
     1
 90
        0
176
     1
 62
    18
420
        0
176
     1
 90
       50
176
     1
 90
        3
176
     1
 62
     5
420
      255
176
     1
290
     0
176
     1
 90
       50
176
     1
 90
       50
176
     1
 90
       50
176
     1
290
     0
176
     1
 90
       50
176
     1
 62
   256
176
     0
 40
1.0
176
     0
 90
        2
176
     1
  1
strokes_ogs.tif
176
     1
290
     0
176
     1
 40
1.0
176
     1
 40
1.0
176
     1
1001
ACAD
1000
AcDbSavedByObjectVersion
1070
     0
  0
VISUALSTYLE
  5
83BE
102
{ACAD_REACTORS
330
83B2
102
}
330
83B2
100
AcDbVisualStyle
  2
Brighten
 70
    12
177
     3
291
     1
 70
    58
 90
        2
176
     1
 90
        2
176
     1
 90
        0
176
     1
 90
        0
176
     1
 40
0.6
176
     1
 40
30.0
176
     1
 62
     7
420
 16777215
176
     1
 90
        1
176
     1
 90
        4
176
     1
 62
     7
176
     1
 62
   257
176
     1
 90
        1
176
     1
 90
        1
176
     1
 40
1.0
176
     1
 90
        8
176
     1
 62
     7
176
     1
 40
1.0
176
     1
 90
        1
176
     1
 90
        6
176
     1
 90
        2
176
     1
 62
     7
176
     1
 90
        5
176
     1
 90
        0
176
     1
 90
        0
176
     1
290
     0
176
     1
 90
        1
176
     1
 40
50.0
176
     1
 90
        0
176
     1
290
     0
176
     1
290
     1
176
     1
290
     1
176
     1
290
     0
176
     1
290
     0
176
     1
290
     0
176
     1
290
     0
176
     1
290
     0
176
     1
290
     0
176
     1
 90
       50
176
     1
 40
0.0
176
     1
 40
1.0
176
     1
 90
        0
176
     1
 62
    18
420
        0
176
     1
 90
       50
176
     1
 90
        3
176
     1
 62
     5
420
      255
176
     1
290
     0
176
     1
 90
       50
176
     1
 90
       50
176
     1
 90
       50
176
     1
290
     0
176
     1
 90
       50
176
     1
 62
   256
176
     0
 40
1.0
176
     0
 90
        2
176
     1
  1
strokes_ogs.tif
176
     1
290
     0
176
     1
 40
1.0
176
     1
 40
1.0
176
     1
1001
ACAD
1000
AcDbSavedByObjectVersion
1070
     0
  0
VISUALSTYLE
  5
83C2
102
{ACAD_REACTORS
330
83B2
102
}
330
83B2
100
AcDbVisualStyle
  2
ColorChange
 70
    16
177
     3
291
     1
 70
    58
 90
        2
176
     1
 90
        2
176
     1
 90
        3
176
     1
 90
        0
176
     1
 40
0.6
176
     1
 40
30.0
176
     1
 62
     8
420
  8421504
176
     1
 90
        1
176
     1
 90
        4
176
     1
 62
     7
176
     1
 62
   257
176
     1
 90
        1
176
     1
 90
        1
176
     1
 40
1.0
176
     1
 90
        8
176
     1
 62
     8
420
  8421504
176
     1
 40
1.0
176
     1
 90
        1
176
     1
 90
        6
176
     1
 90
        2
176
     1
 62
     7
176
     1
 90
        5
176
     1
 90
        0
176
     1
 90
        0
176
     1
290
     0
176
     1
 90
        1
176
     1
 40
0.0
176
     1
 90
        0
176
     1
290
     0
176
     1
290
     1
176
     1
290
     1
176
     1
290
     0
176
     1
290
     0
176
     1
290
     0
176
     1
290
     0
176
     1
290
     0
176
     1
290
     0
176
     1
 90
       50
176
     1
 40
0.0
176
     1
 40
1.0
176
     1
 90
        0
176
     1
 62
    18
420
        0
176
     1
 90
       50
176
     1
 90
        3
176
     1
 62
     5
420
      255
176
     1
290
     0
176
     1
 90
       50
176
     1
 90
       50
176
     1
 90
       50
176
     1
290
     0
176
     1
 90
       50
176
     1
 62
   256
176
     0
 40
1.0
176
     0
 90
        2
176
     1
  1
strokes_ogs.tif
176
     1
290
     0
176
     1
 40
1.0
176
     1
 40
1.0
176
     1
1001
ACAD
1000
AcDbSavedByObjectVersion
1070
     0
  0
VISUALSTYLE
  5
83BB
102
{ACAD_REACTORS
330
83B2
102
}
330
83B2
100
AcDbVisualStyle
  2
Conceptual
 70
     9
177
     3
291
     0
 70
    58
 90
        3
176
     1
 90
        2
176
     1
 90
        0
176
     1
 90
        0
176
     1
 40
0.6
176
     1
 40
30.0
176
     1
 62
     7
420
 16777215
176
     1
 90
        2
176
     1
 90
        2
176
     1
 62
     7
176
     1
 62
   257
176
     1
 90
        1
176
     1
 90
        1
176
     1
 40
179.0
176
     1
 90
        8
176
     1
 62
     7
176
     1
 40
1.0
176
     1
 90
        1
176
     1
 90
        6
176
     1
 90
        2
176
     1
 62
     7
176
     1
 90
        3
176
     1
 90
        0
176
     1
 90
        0
176
     1
290
     0
176
     1
 90
        1
176
     1
 40
0.0
176
     1
 90
        0
176
     1
290
     0
176
     1
290
     1
176
     1
290
     1
176
     1
290
     0
176
     1
290
     0
176
     1
290
     0
176
     1
290
     0
176
     1
290
     0
176
     1
290
     0
176
     1
 90
       50
176
     1
 40
0.0
176
     1
 40
1.0
176
     1
 90
        0
176
     1
 62
    18
420
        0
176
     1
 90
       50
176
     1
 90
        3
176
     1
 62
     5
420
      255
176
     1
290
     0
176
     1
 90
       50
176
     1
 90
       50
176
     1
 90
       50
176
     1
290
     0
176
     1
 90
       50
176
     1
 62
   256
176
     0
 40
1.0
176
     0
 90
        2
176
     1
  1
strokes_ogs.tif
176
     1
290
     0
176
     1
 40
1.0
176
     1
 40
1.0
176
     1
1001
ACAD
1000
AcDbSavedByObjectVersion
1070
     0
  0
VISUALSTYLE
  5
83BD
102
{ACAD_REACTORS
330
83B2
102
}
330
83B2
100
AcDbVisualStyle
  2
Dim
 70
    11
177
     3
291
     1
 70
    58
 90
        2
176
     1
 90
        2
176
     1
 90
        0
176
     1
 90
        0
176
     1
 40
0.6
176
     1
 40
30.0
176
     1
 62
     7
420
 16777215
176
     1
 90
        1
176
     1
 90
        4
176
     1
 62
     7
176
     1
 62
   257
176
     1
 90
        1
176
     1
 90
        1
176
     1
 40
1.0
176
     1
 90
        8
176
     1
 62
     7
176
     1
 40
1.0
176
     1
 90
        1
176
     1
 90
        6
176
     1
 90
        2
176
     1
 62
     7
176
     1
 90
        5
176
     1
 90
        0
176
     1
 90
        0
176
     1
290
     0
176
     1
 90
        1
176
     1
 40
-50.0
176
     1
 90
        0
176
     1
290
     0
176
     1
290
     1
176
     1
290
     1
176
     1
290
     0
176
     1
290
     0
176
     1
290
     0
176
     1
290
     0
176
     1
290
     0
176
     1
290
     0
176
     1
 90
       50
176
     1
 40
0.0
176
     1
 40
1.0
176
     1
 90
        0
176
     1
 62
    18
420
        0
176
     1
 90
       50
176
     1
 90
        3
176
     1
 62
     5
420
      255
176
     1
290
     0
176
     1
 90
       50
176
     1
 90
       50
176
     1
 90
       50
176
     1
290
     0
176
     1
 90
       50
176
     1
 62
   256
176
     0
 40
1.0
176
     0
 90
        2
176
     1
  1
strokes_ogs.tif
176
     1
290
     0
176
     1
 40
1.0
176
     1
 40
1.0
176
     1
1001
ACAD
1000
AcDbSavedByObjectVersion
1070
     0
  0
VISUALSTYLE
  5
83CA
102
{ACAD_REACTORS
330
83B2
102
}
330
83B2
100
AcDbVisualStyle
  2
EdgeColorOff
 70
    22
177
     3
291
     1
 70
    58
 90
        2
176
     0
 90
        2
176
     0
 90
        0
176
     0
 90
        0
176
     0
 40
0.6
176
     0
 40
30.0
176
     0
 62
     7
420
 16777215
176
     0
 90
        1
176
     0
 90
        4
176
     0
 62
     7
176
     0
 62
   257
176
     0
 90
        1
176
     0
 90
        1
176
     0
 40
1.0
176
     0
 90
        8
176
     2
 62
     7
176
     0
 40
1.0
176
     0
 90
        1
176
     0
 90
        6
176
     0
 90
        2
176
     0
 62
     7
176
     0
 90
        5
176
     0
 90
        0
176
     0
 90
        0
176
     0
290
     0
176
     0
 90
        1
176
     0
 40
0.0
176
     0
 90
        0
176
     0
290
     0
176
     0
290
     1
176
     0
290
     1
176
     0
290
     0
176
     0
290
     0
176
     0
290
     0
176
     0
290
     0
176
     0
290
     0
176
     0
290
     0
176
     0
 90
       50
176
     0
 40
0.0
176
     0
 40
1.0
176
     0
 90
        0
176
     0
 62
    18
420
        0
176
     0
 90
       50
176
     0
 90
        3
176
     0
 62
     5
420
      255
176
     0
290
     0
176
     0
 90
       50
176
     0
 90
       50
176
     0
 90
       50
176
     0
290
     0
176
     0
 90
       50
176
     0
 62
   256
176
     0
 40
1.0
176
     0
 90
        2
176
     0
  1
strokes_ogs.tif
176
     0
290
     0
176
     0
 40
1.0
176
     0
 40
1.0
176
     0
1001
ACAD
1000
AcDbSavedByObjectVersion
1070
     0
  0
VISUALSTYLE
  5
83C1
102
{ACAD_REACTORS
330
83B2
102
}
330
83B2
100
AcDbVisualStyle
  2
Facepattern
 70
    15
177
     3
291
     1
 70
    58
 90
        2
176
     1
 90
        2
176
     1
 90
        0
176
     1
 90
        0
176
     1
 40
0.6
176
     1
 40
30.0
176
     1
 62
     7
420
 16777215
176
     1
 90
        1
176
     1
 90
        4
176
     1
 62
     7
176
     1
 62
   257
176
     1
 90
        1
176
     1
 90
        1
176
     1
 40
1.0
176
     1
 90
        8
176
     1
 62
     7
176
     1
 40
1.0
176
     1
 90
        1
176
     1
 90
        6
176
     1
 90
        2
176
     1
 62
     7
176
     1
 90
        5
176
     1
 90
        0
176
     1
 90
        0
176
     1
290
     0
176
     1
 90
        1
176
     1
 40
0.0
176
     1
 90
        0
176
     1
290
     0
176
     1
290
     1
176
     1
290
     1
176
     1
290
     0
176
     1
290
     0
176
     1
290
     0
176
     1
290
     0
176
     1
290
     0
176
     1
290
     0
176
     1
 90
       50
176
     1
 40
0.0
176
     1
 40
1.0
176
     1
 90
        0
176
     1
 62
    18
420
        0
176
     1
 90
       50
176
     1
 90
        3
176
     1
 62
     5
420
      255
176
     1
290
     0
176
     1
 90
       50
176
     1
 90
       50
176
     1
 90
       50
176
     1
290
     0
176
     1
 90
       50
176
     1
 62
   256
176
     0
 40
1.0
176
     0
 90
        2
176
     1
  1
strokes_ogs.tif
176
     1
290
     0
176
     1
 40
1.0
176
     1
 40
1.0
176
     1
1001
ACAD
1000
AcDbSavedByObjectVersion
1070
     0
  0
VISUALSTYLE
  5
83B3
102
{ACAD_REACTORS
330
83B2
102
}
330
83B2
100
AcDbVisualStyle
  2
Flat
 70
     0
177
     3
291
     1
 70
    58
 90
        2
176
     1
 90
        1
176
     1
 90
        1
176
     1
 90
        2
176
     1
 40
0.6
176
     1
 40
30.0
176
     1
 62
     7
420
 16777215
176
     1
 90
        0
176
     1
 90
        0
176
     1
 62
     7
176
     1
 62
   257
176
     1
 90
        1
176
     1
 90
        1
176
     1
 40
1.0
176
     1
 90
        8
176
     1
 62
     7
176
     1
 40
1.0
176
     1
 90
        1
176
     1
 90
        6
176
     1
 90
        2
176
     1
 62
     7
176
     1
 90
        5
176
     1
 90
        0
176
     1
 90
        0
176
     1
290
     0
176
     1
 90
       13
176
     1
 40
0.0
176
     1
 90
        0
176
     1
290
     0
176
     1
290
     1
176
     1
290
     1
176
     1
290
     0
176
     1
290
     0
176
     1
290
     0
176
     1
290
     0
176
     1
290
     0
176
     1
290
     0
176
     1
 90
       50
176
     1
 40
0.0
176
     1
 40
1.0
176
     1
 90
        0
176
     1
 62
    18
420
        0
176
     1
 90
       50
176
     1
 90
        3
176
     1
 62
     5
420
      255
176
     1
290
     0
176
     1
 90
       50
176
     1
 90
       50
176
     1
 90
       50
176
     1
290
     0
176
     1
 90
       50
176
     1
 62
   256
176
     0
 40
1.0
176
     0
 90
        2
176
     1
  1
strokes_ogs.tif
176
     1
290
     0
176
     1
 40
1.0
176
     1
 40
1.0
176
     1
1001
ACAD
1000
AcDbSavedByObjectVersion
1070
     0
  0
VISUALSTYLE
  5
83B4
102
{ACAD_REACTORS
330
83B2
102
}
330
83B2
100
AcDbVisualStyle
  2
FlatWithEdges
 70
     1
177
     3
291
     1
 70
    58
 90
        2
176
     1
 90
        1
176
     1
 90
        1
176
     1
 90
        2
176
     1
 40
0.6
176
     1
 40
30.0
176
     1
 62
     7
420
 16777215
176
     1
 90
        1
176
     1
 90
        0
176
     1
 62
     7
176
     1
 62
   257
176
     1
 90
        1
176
     1
 90
        1
176
     1
 40
1.0
176
     1
 90
        0
176
     1
 62
   257
176
     1
 40
1.0
176
     1
 90
        1
176
     1
 90
        6
176
     1
 90
        2
176
     1
 62
     7
176
     1
 90
        5
176
     1
 90
        0
176
     1
 90
        0
176
     1
290
     0
176
     1
 90
       13
176
     1
 40
0.0
176
     1
 90
        0
176
     1
290
     0
176
     1
290
     1
176
     1
290
     1
176
     1
290
     0
176
     1
290
     0
176
     1
290
     0
176
     1
290
     0
176
     1
290
     0
176
     1
290
     0
176
     1
 90
       50
176
     1
 40
0.0
176
     1
 40
1.0
176
     1
 90
        0
176
     1
 62
    18
420
        0
176
     1
 90
       50
176
     1
 90
        3
176
     1
 62
     5
420
      255
176
     1
290
     0
176
     1
 90
       50
176
     1
 90
       50
176
     1
 90
       50
176
     1
290
     0
176
     1
 90
       50
176
     1
 62
   256
176
     0
 40
1.0
176
     0
 90
        2
176
     1
  1
strokes_ogs.tif
176
     1
290
     0
176
     1
 40
1.0
176
     1
 40
1.0
176
     1
1001
ACAD
1000
AcDbSavedByObjectVersion
1070
     0
  0
VISUALSTYLE
  5
83B5
102
{ACAD_REACTORS
330
83B2
102
}
330
83B2
100
AcDbVisualStyle
  2
Gouraud
 70
     2
177
     3
291
     1
 70
    58
 90
        2
176
     1
 90
        2
176
     1
 90
        1
176
     1
 90
        2
176
     1
 40
0.6
176
     1
 40
30.0
176
     1
 62
     7
420
 16777215
176
     1
 90
        0
176
     1
 90
        0
176
     1
 62
     7
176
     1
 62
   257
176
     1
 90
        1
176
     1
 90
        1
176
     1
 40
1.0
176
     1
 90
        0
176
     1
 62
     7
176
     1
 40
1.0
176
     1
 90
        1
176
     1
 90
        6
176
     1
 90
        2
176
     1
 62
     7
176
     1
 90
        5
176
     1
 90
        0
176
     1
 90
        0
176
     1
290
     0
176
     1
 90
       13
176
     1
 40
0.0
176
     1
 90
        0
176
     1
290
     0
176
     1
290
     1
176
     1
290
     1
176
     1
290
     0
176
     1
290
     0
176
     1
290
     0
176
     1
290
     0
176
     1
290
     0
176
     1
290
     0
176
     1
 90
       50
176
     1
 40
0.0
176
     1
 40
1.0
176
     1
 90
        0
176
     1
 62
    18
420
        0
176
     1
 90
       50
176
     1
 90
        3
176
     1
 62
     5
420
      255
176
     1
290
     0
176
     1
 90
       50
176
     1
 90
       50
176
     1
 90
       50
176
     1
290
     0
176
     1
 90
       50
176
     1
 62
   256
176
     0
 40
1.0
176
     0
 90
        2
176
     1
  1
strokes_ogs.tif
176
     1
290
     0
176
     1
 40
1.0
176
     1
 40
1.0
176
     1
1001
ACAD
1000
AcDbSavedByObjectVersion
1070
     0
  0
VISUALSTYLE
  5
83B6
102
{ACAD_REACTORS
330
83B2
102
}
330
83B2
100
AcDbVisualStyle
  2
GouraudWithEdges
 70
     3
177
     3
291
     1
 70
    58
 90
        2
176
     1
 90
        2
176
     1
 90
        1
176
     1
 90
        2
176
     1
 40
0.6
176
     1
 40
30.0
176
     1
 62
     7
420
 16777215
176
     1
 90
        1
176
     1
 90
        0
176
     1
 62
     7
176
     1
 62
   257
176
     1
 90
        1
176
     1
 90
        1
176
     1
 40
1.0
176
     1
 90
        0
176
     1
 62
   257
176
     1
 40
1.0
176
     1
 90
        1
176
     1
 90
        6
176
     1
 90
        2
176
     1
 62
     7
176
     1
 90
        5
176
     1
 90
        0
176
     1
 90
        0
176
     1
290
     0
176
     1
 90
       13
176
     1
 40
0.0
176
     1
 90
        0
176
     1
290
     0
176
     1
290
     1
176
     1
290
     1
176
     1
290
     0
176
     1
290
     0
176
     1
290
     0
176
     1
290
     0
176
     1
290
     0
176
     1
290
     0
176
     1
 90
       50
176
     1
 40
0.0
176
     1
 40
1.0
176
     1
 90
        0
176
     1
 62
    18
420
        0
176
     1
 90
       50
176
     1
 90
        3
176
     1
 62
     5
420
      255
176
     1
290
     0
176
     1
 90
       50
176
     1
 90
       50
176
     1
 90
       50
176
     1
290
     0
176
     1
 90
       50
176
     1
 62
   256
176
     0
 40
1.0
176
     0
 90
        2
176
     1
  1
strokes_ogs.tif
176
     1
290
     0
176
     1
 40
1.0
176
     1
 40
1.0
176
     1
1001
ACAD
1000
AcDbSavedByObjectVersion
1070
     0
  0
VISUALSTYLE
  5
83BA
102
{ACAD_REACTORS
330
83B2
102
}
330
83B2
100
AcDbVisualStyle
  2
Hidden
 70
     6
177
     3
291
     0
 70
    58
 90
        1
176
     1
 90
        2
176
     1
 90
        2
176
     1
 90
        0
176
     1
 40
0.6
176
     1
 40
30.0
176
     1
 62
     7
420
 16777215
176
     1
 90
        2
176
     1
 90
        2
176
     1
 62
     7
176
     1
 62
   257
176
     1
 90
        2
176
     1
 90
        1
176
     1
 40
40.0
176
     1
 90
        0
176
     1
 62
   257
176
     1
 40
1.0
176
     1
 90
        1
176
     1
 90
        6
176
     1
 90
        2
176
     1
 62
     7
176
     1
 90
        3
176
     1
 90
        0
176
     1
 90
        0
176
     1
290
     0
176
     1
 90
        1
176
     1
 40
0.0
176
     1
 90
        0
176
     1
290
     0
176
     1
290
     1
176
     1
290
     1
176
     1
290
     0
176
     1
290
     0
176
     1
290
     0
176
     1
290
     0
176
     1
290
     0
176
     1
290
     0
176
     1
 90
       50
176
     1
 40
0.0
176
     1
 40
1.0
176
     1
 90
        0
176
     1
 62
    18
420
        0
176
     1
 90
       50
176
     1
 90
        3
176
     1
 62
     5
420
      255
176
     1
290
     0
176
     1
 90
       50
176
     1
 90
       50
176
     1
 90
       50
176
     1
290
     0
176
     1
 90
       50
176
     1
 62
   256
176
     0
 40
1.0
176
     0
 90
        2
176
     1
  1
strokes_ogs.tif
176
     1
290
     0
176
     1
 40
1.0
176
     1
 40
1.0
176
     1
1001
ACAD
1000
AcDbSavedByObjectVersion
1070
     0
  0
VISUALSTYLE
  5
83C8
102
{ACAD_REACTORS
330
83B2
102
}
330
83B2
100
AcDbVisualStyle
  2
JitterOff
 70
    20
177
     3
291
     1
 70
    58
 90
        2
176
     0
 90
        2
176
     0
 90
        0
176
     0
 90
        0
176
     0
 40
0.6
176
     0
 40
30.0
176
     0
 62
     7
420
 16777215
176
     0
 90
        1
176
     0
 90
        4
176
     0
 62
     7
176
     0
 62
   257
176
     0
 90
        1
176
     0
 90
        1
176
     0
 40
1.0
176
     0
 90
       10
176
     2
 62
     7
176
     0
 40
1.0
176
     0
 90
        1
176
     0
 90
        6
176
     0
 90
        2
176
     0
 62
     7
176
     0
 90
        5
176
     0
 90
        0
176
     0
 90
        0
176
     0
290
     0
176
     0
 90
        1
176
     0
 40
0.0
176
     0
 90
        0
176
     0
290
     0
176
     0
290
     1
176
     0
290
     1
176
     0
290
     0
176
     0
290
     0
176
     0
290
     0
176
     0
290
     0
176
     0
290
     0
176
     0
290
     0
176
     0
 90
       50
176
     0
 40
0.0
176
     0
 40
1.0
176
     0
 90
        0
176
     0
 62
    18
420
        0
176
     0
 90
       50
176
     0
 90
        3
176
     0
 62
     5
420
      255
176
     0
290
     0
176
     0
 90
       50
176
     0
 90
       50
176
     0
 90
       50
176
     0
290
     0
176
     0
 90
       50
176
     0
 62
   256
176
     0
 40
1.0
176
     0
 90
        2
176
     0
  1
strokes_ogs.tif
176
     0
290
     0
176
     0
 40
1.0
176
     0
 40
1.0
176
     0
1001
ACAD
1000
AcDbSavedByObjectVersion
1070
     0
  0
VISUALSTYLE
  5
83C0
102
{ACAD_REACTORS
330
83B2
102
}
330
83B2
100
AcDbVisualStyle
  2
Linepattern
 70
    14
177
     3
291
     1
 70
    58
 90
        2
176
     1
 90
        2
176
     1
 90
        0
176
     1
 90
        0
176
     1
 40
0.6
176
     1
 40
30.0
176
     1
 62
     7
420
 16777215
176
     1
 90
        1
176
     1
 90
        4
176
     1
 62
     7
176
     1
 62
   257
176
     1
 90
        7
176
     1
 90
        7
176
     1
 40
1.0
176
     1
 90
        8
176
     1
 62
     7
176
     1
 40
1.0
176
     1
 90
        1
176
     1
 90
        6
176
     1
 90
        2
176
     1
 62
     7
176
     1
 90
        5
176
     1
 90
        0
176
     1
 90
        0
176
     1
290
     0
176
     1
 90
        1
176
     1
 40
0.0
176
     1
 90
        0
176
     1
290
     0
176
     1
290
     1
176
     1
290
     1
176
     1
290
     0
176
     1
290
     0
176
     1
290
     0
176
     1
290
     0
176
     1
290
     0
176
     1
290
     0
176
     1
 90
       50
176
     1
 40
0.0
176
     1
 40
1.0
176
     1
 90
        0
176
     1
 62
    18
420
        0
176
     1
 90
       50
176
     1
 90
        3
176
     1
 62
     5
420
      255
176
     1
290
     0
176
     1
 90
       50
176
     1
 90
       50
176
     1
 90
       50
176
     1
290
     0
176
     1
 90
       50
176
     1
 62
   256
176
     0
 40
1.0
176
     0
 90
        2
176
     1
  1
strokes_ogs.tif
176
     1
290
     0
176
     1
 40
1.0
176
     1
 40
1.0
176
     1
1001
ACAD
1000
AcDbSavedByObjectVersion
1070
     0
  0
VISUALSTYLE
  5
83C9
102
{ACAD_REACTORS
330
83B2
102
}
330
83B2
100
AcDbVisualStyle
  2
OverhangOff
 70
    21
177
     3
291
     1
 70
    58
 90
        2
176
     0
 90
        2
176
     0
 90
        0
176
     0
 90
        0
176
     0
 40
0.6
176
     0
 40
30.0
176
     0
 62
     7
420
 16777215
176
     0
 90
        1
176
     0
 90
        4
176
     0
 62
     7
176
     0
 62
   257
176
     0
 90
        1
176
     0
 90
        1
176
     0
 40
1.0
176
     0
 90
        9
176
     2
 62
     7
176
     0
 40
1.0
176
     0
 90
        1
176
     0
 90
        6
176
     0
 90
        2
176
     0
 62
     7
176
     0
 90
        5
176
     0
 90
        0
176
     0
 90
        0
176
     0
290
     0
176
     0
 90
        1
176
     0
 40
0.0
176
     0
 90
        0
176
     0
290
     0
176
     0
290
     1
176
     0
290
     1
176
     0
290
     0
176
     0
290
     0
176
     0
290
     0
176
     0
290
     0
176
     0
290
     0
176
     0
290
     0
176
     0
 90
       50
176
     0
 40
0.0
176
     0
 40
1.0
176
     0
 90
        0
176
     0
 62
    18
420
        0
176
     0
 90
       50
176
     0
 90
        3
176
     0
 62
     5
420
      255
176
     0
290
     0
176
     0
 90
       50
176
     0
 90
       50
176
     0
 90
       50
176
     0
290
     0
176
     0
 90
       50
176
     0
 62
   256
176
     0
 40
1.0
176
     0
 90
        2
176
     0
  1
strokes_ogs.tif
176
     0
290
     0
176
     0
 40
1.0
176
     0
 40
1.0
176
     0
1001
ACAD
1000
AcDbSavedByObjectVersion
1070
     0
  0
VISUALSTYLE
  5
83BC
102
{ACAD_REACTORS
330
83B2
102
}
330
83B2
100
AcDbVisualStyle
  2
Realistic
 70
     8
177
     3
291
     0
 70
    58
 90
        2
176
     1
 90
        3
176
     1
 90
        0
176
     1
 90
        2
176
     1
 40
0.6
176
     1
 40
30.0
176
     1
 62
     7
420
 16777215
176
     1
 90
        0
176
     1
 90
        0
176
     1
 62
     7
176
     1
 62
   257
176
     1
 90
        1
176
     1
 90
        1
176
     1
 40
1.0
176
     1
 90
        8
176
     1
 62
   257
176
     1
 40
1.0
176
     1
 90
        1
176
     1
 90
        6
176
     1
 90
        2
176
     1
 62
     7
176
     1
 90
        3
176
     1
 90
        0
176
     1
 90
        0
176
     1
290
     0
176
     1
 90
       13
176
     1
 40
0.0
176
     1
 90
        0
176
     1
290
     0
176
     1
290
     1
176
     1
290
     1
176
     1
290
     0
176
     1
290
     0
176
     1
290
     0
176
     1
290
     0
176
     1
290
     0
176
     1
290
     0
176
     1
 90
       50
176
     1
 40
0.0
176
     1
 40
1.0
176
     1
 90
        0
176
     1
 62
    18
420
        0
176
     1
 90
       50
176
     1
 90
        3
176
     1
 62
     5
420
      255
176
     1
290
     0
176
     1
 90
       50
176
     1
 90
       50
176
     1
 90
       50
176
     1
290
     0
176
     1
 90
       50
176
     1
 62
   256
176
     0
 40
1.0
176
     0
 90
        2
176
     1
  1
strokes_ogs.tif
176
     1
290
     0
176
     1
 40
1.0
176
     1
 40
1.0
176
     1
1001
ACAD
1000
AcDbSavedByObjectVersion
1070
     0
  0
VISUALSTYLE
  5
83C7
102
{ACAD_REACTORS
330
83B2
102
}
330
83B2
100
AcDbVisualStyle
  2
Shaded
 70
    27
177
     3
291
     0
 70
    58
 90
        2
176
     1
 90
        2
176
     1
 90
        1
176
     1
 90
        2
176
     1
 40
0.6
176
     1
 40
30.0
176
     1
 62
     7
420
 16777215
176
     1
 90
        0
176
     1
 90
        4
176
     1
 62
     7
176
     1
 62
   257
176
     1
 90
        1
176
     1
 90
        1
176
     1
 40
1.0
176
     1
 90
        8
176
     1
 62
   257
176
     1
 40
1.0
176
     1
 90
        1
176
     1
 90
        6
176
     1
 90
        2
176
     1
 62
     8
420
  7895160
176
     1
 90
        3
176
     1
 90
        0
176
     1
 90
        0
176
     1
290
     0
176
     1
 90
        5
176
     1
 40
0.0
176
     1
 90
        0
176
     1
290
     0
176
     1
290
     1
176
     1
290
     1
176
     1
290
     0
176
     1
290
     0
176
     1
290
     0
176
     1
290
     0
176
     1
290
     0
176
     1
290
     0
176
     1
 90
       50
176
     1
 40
0.0
176
     1
 40
1.0
176
     1
 90
        0
176
     1
 62
    18
420
        0
176
     1
 90
       50
176
     1
 90
        3
176
     1
 62
     5
420
      255
176
     1
290
     0
176
     1
 90
       50
176
     1
 90
       50
176
     1
 90
       50
176
     1
290
     0
176
     1
 90
       50
176
     1
 62
   256
176
     0
 40
1.0
176
     0
 90
        2
176
     1
  1
strokes_ogs.tif
176
     1
290
     0
176
     1
 40
1.0
176
     1
 40
1.0
176
     1
1001
ACAD
1000
AcDbSavedByObjectVersion
1070
     0
  0
VISUALSTYLE
  5
83C6
102
{ACAD_REACTORS
330
83B2
102
}
330
83B2
100
AcDbVisualStyle
  2
Shaded with edges
 70
    26
177
     3
291
     0
 70
    58
 90
        2
176
     1
 90
        2
176
     1
 90
        1
176
     1
 90
        2
176
     1
 40
0.6
176
     1
 40
30.0
176
     1
 62
     7
420
 16777215
176
     1
 90
        1
176
     1
 90
        2
176
     1
 62
     7
176
     1
 62
   257
176
     1
 90
        2
176
     1
 90
        1
176
     1
 40
1.0
176
     1
 90
        8
176
     1
 62
   257
176
     1
 40
1.0
176
     1
 90
        1
176
     1
 90
        6
176
     1
 90
        2
176
     1
 62
     7
176
     1
 90
        3
176
     1
 90
        0
176
     1
 90
        0
176
     1
290
     0
176
     1
 90
        5
176
     1
 40
0.0
176
     1
 90
        0
176
     1
290
     0
176
     1
290
     1
176
     1
290
     1
176
     1
290
     0
176
     1
290
     0
176
     1
290
     0
176
     1
290
     0
176
     1
290
     0
176
     1
290
     0
176
     1
 90
       50
176
     1
 40
0.0
176
     1
 40
1.0
176
     1
 90
        0
176
     1
 62
    18
420
        0
176
     1
 90
       50
176
     1
 90
        3
176
     1
 62
     5
420
      255
176
     1
290
     0
176
     1
 90
       50
176
     1
 90
       50
176
     1
 90
       50
176
     1
290
     0
176
     1
 90
       50
176
     1
 62
   256
176
     0
 40
1.0
176
     0
 90
        2
176
     1
  1
strokes_ogs.tif
176
     1
290
     0
176
     1
 40
1.0
176
     1
 40
1.0
176
     1
1001
ACAD
1000
AcDbSavedByObjectVersion
1070
     0
  0
VISUALSTYLE
  5
83C3
102
{ACAD_REACTORS
330
83B2
102
}
330
83B2
100
AcDbVisualStyle
  2
Shades of Gray
 70
    23
177
     3
291
     0
 70
    58
 90
        2
176
     1
 90
        2
176
     1
 90
        3
176
     1
 90
        0
176
     1
 40
0.6
176
     1
 40
30.0
176
     1
 62
     7
420
 16777215
176
     1
 90
        2
176
     1
 90
        2
176
     1
 62
     7
176
     1
 62
     7
176
     1
 90
        1
176
     1
 90
        1
176
     1
 40
40.0
176
     1
 90
        8
176
     1
 62
     7
176
     1
 40
1.0
176
     1
 90
        1
176
     1
 90
        6
176
     1
 90
        2
176
     1
 62
     7
176
     1
 90
        3
176
     1
 90
        0
176
     1
 90
        0
176
     1
290
     0
176
     1
 90
        1
176
     1
 40
0.0
176
     1
 90
        0
176
     1
290
     0
176
     1
290
     1
176
     1
290
     1
176
     1
290
     0
176
     1
290
     0
176
     1
290
     0
176
     1
290
     0
176
     1
290
     0
176
     1
290
     0
176
     1
 90
       50
176
     1
 40
0.0
176
     1
 40
1.0
176
     1
 90
        0
176
     1
 62
    18
420
        0
176
     1
 90
       50
176
     1
 90
        3
176
     1
 62
     5
420
      255
176
     1
290
     0
176
     1
 90
       50
176
     1
 90
       50
176
     1
 90
       50
176
     1
290
     0
176
     1
 90
       50
176
     1
 62
   256
176
     0
 40
1.0
176
     0
 90
        2
176
     1
  1
strokes_ogs.tif
176
     1
290
     0
176
     1
 40
1.0
176
     1
 40
1.0
176
     1
1001
ACAD
1000
AcDbSavedByObjectVersion
1070
     0
  0
VISUALSTYLE
  5
83C4
102
{ACAD_REACTORS
330
83B2
102
}
330
83B2
100
AcDbVisualStyle
  2
Sketchy
 70
    24
177
     3
291
     0
 70
    58
 90
        1
176
     1
 90
        2
176
     1
 90
        2
176
     1
 90
        0
176
     1
 40
0.6
176
     1
 40
30.0
176
     1
 62
     7
420
 16777215
176
     1
 90
        2
176
     1
 90
        2
176
     1
 62
     7
176
     1
 62
     7
176
     1
 90
        1
176
     1
 90
        1
176
     1
 40
40.0
176
     1
 90
       11
176
     1
 62
     7
176
     1
 40
1.0
176
     1
 90
        1
176
     1
 90
        6
176
     1
 90
        2
176
     1
 62
     7
176
     1
 90
        6
176
     1
 90
        0
176
     1
 90
        0
176
     1
290
     0
176
     1
 90
        1
176
     1
 40
0.0
176
     1
 90
        0
176
     1
290
     0
176
     1
290
     1
176
     1
290
     1
176
     1
290
     0
176
     1
290
     0
176
     1
290
     0
176
     1
290
     0
176
     1
290
     0
176
     1
290
     0
176
     1
 90
       50
176
     1
 40
0.0
176
     1
 40
1.0
176
     1
 90
        0
176
     1
 62
    18
420
        0
176
     1
 90
       50
176
     1
 90
        3
176
     1
 62
     5
420
      255
176
     1
290
     0
176
     1
 90
       50
176
     1
 90
       50
176
     1
 90
       50
176
     1
290
     0
176
     1
 90
       50
176
     1
 62
   256
176
     0
 40
1.0
176
     0
 90
        2
176
     1
  1
strokes_ogs.tif
176
     1
290
     0
176
     1
 40
1.0
176
     1
 40
1.0
176
     1
1001
ACAD
1000
AcDbSavedByObjectVersion
1070
     0
  0
VISUALSTYLE
  5
83BF
102
{ACAD_REACTORS
330
83B2
102
}
330
83B2
100
AcDbVisualStyle
  2
Thicken
 70
    13
177
     3
291
     1
 70
    58
 90
        2
176
     1
 90
        2
176
     1
 90
        0
176
     1
 90
        0
176
     1
 40
0.6
176
     1
 40
30.0
176
     1
 62
     7
420
 16777215
176
     1
 90
        1
176
     1
 90
        4
176
     1
 62
     7
176
     1
 62
   257
176
     1
 90
        1
176
     1
 90
        1
176
     1
 40
1.0
176
     1
 90
       12
176
     1
 62
     7
176
     1
 40
1.0
176
     1
 90
        1
176
     1
 90
        6
176
     1
 90
        2
176
     1
 62
     7
176
     1
 90
        5
176
     1
 90
        0
176
     1
 90
        0
176
     1
290
     0
176
     1
 90
        1
176
     1
 40
0.0
176
     1
 90
        0
176
     1
290
     0
176
     1
290
     1
176
     1
290
     1
176
     1
290
     0
176
     1
290
     0
176
     1
290
     0
176
     1
290
     0
176
     1
290
     0
176
     1
290
     0
176
     1
 90
       50
176
     1
 40
0.0
176
     1
 40
1.0
176
     1
 90
        0
176
     1
 62
    18
420
        0
176
     1
 90
       50
176
     1
 90
        3
176
     1
 62
     5
420
      255
176
     1
290
     0
176
     1
 90
       50
176
     1
 90
       50
176
     1
 90
       50
176
     1
290
     0
176
     1
 90
       50
176
     1
 62
   256
176
     0
 40
1.0
176
     0
 90
        2
176
     1
  1
strokes_ogs.tif
176
     1
290
     0
176
     1
 40
1.0
176
     1
 40
1.0
176
     1
1001
ACAD
1000
AcDbSavedByObjectVersion
1070
     0
  0
VISUALSTYLE
  5
83B9
102
{ACAD_REACTORS
330
83B2
102
}
330
83B2
100
AcDbVisualStyle
  2
Wireframe
 70
     5
177
     3
291
     0
 70
    58
 90
        0
176
     1
 90
        2
176
     1
 90
        0
176
     1
 90
        0
176
     1
 40
0.6
176
     1
 40
30.0
176
     1
 62
     7
420
 16777215
176
     1
 90
        1
176
     1
 90
        4
176
     1
 62
     7
176
     1
 62
   257
176
     1
 90
        1
176
     1
 90
        1
176
     1
 40
1.0
176
     1
 90
        0
176
     1
 62
   257
176
     1
 40
1.0
176
     1
 90
        1
176
     1
 90
        6
176
     1
 90
        2
176
     1
 62
     7
176
     1
 90
        3
176
     1
 90
        0
176
     1
 90
        0
176
     1
290
     0
176
     1
 90
        1
176
     1
 40
0.0
176
     1
 90
        0
176
     1
290
     0
176
     1
290
     1
176
     1
290
     1
176
     1
290
     0
176
     1
290
     0
176
     1
290
     0
176
     1
290
     0
176
     1
290
     0
176
     1
290
     0
176
     1
 90
       50
176
     1
 40
0.0
176
     1
 40
1.0
176
     1
 90
        0
176
     1
 62
    18
420
        0
176
     1
 90
       50
176
     1
 90
        3
176
     1
 62
     5
420
      255
176
     1
290
     0
176
     1
 90
       50
176
     1
 90
       50
176
     1
 90
       50
176
     1
290
     0
176
     1
 90
       50
176
     1
 62
   256
176
     0
 40
1.0
176
     0
 90
        2
176
     1
  1
strokes_ogs.tif
176
     1
290
     0
176
     1
 40
1.0
176
     1
 40
1.0
176
     1
1001
ACAD
1000
AcDbSavedByObjectVersion
1070
     0
  0
VISUALSTYLE
  5
83C5
102
{ACAD_REACTORS
330
83B2
102
}
330
83B2
100
AcDbVisualStyle
  2
X-Ray
 70
    25
177
     3
291
     0
 70
    58
 90
        2
176
     1
 90
        2
176
     1
 90
        1
176
     1
 90
        1
176
     1
 40
0.5
176
     1
 40
30.0
176
     1
 62
     7
420
 16777215
176
     1
 90
        1
176
     1
 90
        0
176
     1
 62
     7
176
     1
 62
   257
176
     1
 90
        1
176
     1
 90
        1
176
     1
 40
1.0
176
     1
 90
        8
176
     1
 62
     7
176
     1
 40
1.0
176
     1
 90
        1
176
     1
 90
        6
176
     1
 90
        2
176
     1
 62
     7
176
     1
 90
        3
176
     1
 90
        0
176
     1
 90
        0
176
     1
290
     0
176
     1
 90
       13
176
     1
 40
0.0
176
     1
 90
        0
176
     1
290
     0
176
     1
290
     1
176
     1
290
     1
176
     1
290
     0
176
     1
290
     0
176
     1
290
     0
176
     1
290
     0
176
     1
290
     0
176
     1
290
     0
176
     1
 90
       50
176
     1
 40
0.0
176
     1
 40
1.0
176
     1
 90
        0
176
     1
 62
    18
420
        0
176
     1
 90
       50
176
     1
 90
        3
176
     1
 62
     5
420
      255
176
     1
290
     0
176
     1
 90
       50
176
     1
 90
       50
176
     1
 90
       50
176
     1
290
     0
176
     1
 90
       50
176
     1
 62
   256
176
     0
 40
1.0
176
     0
 90
        2
176
     1
  1
strokes_ogs.tif
176
     1
290
     0
176
     1
 40
1.0
176
     1
 40
1.0
176
     1
1001
ACAD
1000
AcDbSavedByObjectVersion
1070
     0
  0
DICTIONARYVAR
  5
8449
102
{ACAD_REACTORS
330
8390
102
}
330
8390
100
DictionaryVariables
280
     0
  1
1:1
  0
DICTIONARYVAR
  5
8445
102
{ACAD_REACTORS
330
8390
102
}
330
8390
100
DictionaryVariables
280
     0
  1
STANDARD
  0
DICTIONARYVAR
  5
8444
102
{ACAD_REACTORS
330
8390
102
}
330
8390
100
DictionaryVariables
280
     0
  1
STANDARD
  0
DICTIONARYVAR
  5
8446
102
{ACAD_REACTORS
330
8390
102
}
330
8390
100
DictionaryVariables
280
     0
  1
Metric50
  0
DICTIONARYVAR
  5
8447
102
{ACAD_REACTORS
330
8390
102
}
330
8390
100
DictionaryVariables
280
     0
  1
Metric50
  0
DICTIONARYVAR
  5
8391
102
{ACAD_REACTORS
330
8390
102
}
330
8390
100
DictionaryVariables
280
     0
  1
1
  0
DICTIONARYVAR
  5
844B
102
{ACAD_REACTORS
330
8390
102
}
330
8390
100
DictionaryVariables
280
     0
  1
1
  0
DICTIONARYVAR
  5
844C
102
{ACAD_REACTORS
330
8390
102
}
330
8390
100
DictionaryVariables
280
     0
  1
15
  0
DICTIONARYVAR
  5
844A
102
{ACAD_REACTORS
330
8390
102
}
330
8390
100
DictionaryVariables
280
     0
  1
0
  0
DICTIONARYVAR
  5
8451
102
{ACAD_REACTORS
330
8390
102
}
330
8390
100
DictionaryVariables
280
     0
  1
0
  0
DICTIONARYVAR
  5
8448
102
{ACAD_REACTORS
330
8390
102
}
330
8390
100
DictionaryVariables
280
     0
  1
0
  0
DICTIONARY
  5
845C
102
{ACAD_REACTORS
330
845A
102
}
330
845A
100
AcDbDictionary
281
     1
  0
DICTIONARY
  5
845B
102
{ACAD_REACTORS
330
845A
102
}
330
845A
100
AcDbDictionary
281
     1
  3
2048713234512
350
8455
  3
2048713234528
350
8456
  3
2048713234544
350
8457
  3
2048713234560
350
8458
  3
2048713234576
350
8459
  0
DICTIONARY
  5
845F
330
83E5
100
AcDbDictionary
280
     1
281
     1
  3
ACAD_XREC_ROUNDTRIP
360
8460
  0
DICTIONARY
  5
83A3
330
83A2
100
AcDbDictionary
280
     1
281
     1
  3
BUMPTILE
360
83A5
  3
DIFFUSETILE
360
83A4
  3
OPACITYTILE
360
83A8
  3
REFLECTIONTILE
360
83A7
  3
REFRACTIONTILE
360
83A9
  3
SPECULARTILE
360
83A6
  0
DICTIONARY
  5
839B
330
839A
100
AcDbDictionary
280
     1
281
     1
  3
BUMPTILE
360
839D
  3
DIFFUSETILE
360
839C
  3
OPACITYTILE
360
83A0
  3
REFLECTIONTILE
360
839F
  3
REFRACTIONTILE
360
83A1
  3
SPECULARTILE
360
839E
  0
DICTIONARY
  5
83AB
330
83AA
100
AcDbDictionary
280
     1
281
     1
  3
BUMPTILE
360
83AD
  3
DIFFUSETILE
360
83AC
  3
OPACITYTILE
360
83B0
  3
REFLECTIONTILE
360
83AF
  3
REFRACTIONTILE
360
83B1
  3
SPECULARTILE
360
83AE
  0
DICTIONARY
  5
845D
330
83E3
100
AcDbDictionary
280
     1
281
     1
  3
ACAD_XREC_ROUNDTRIP
360
845E
  0
DICTIONARY
  5
8452
330
83CD
100
AcDbDictionary
280
     1
281
     1
  3
ACAD_ROUNDTRIP_2008_TABLESTYLE_CELLSTYLEMAP
360
8453
  0
XRECORD
  5
8455
102
{ACAD_REACTORS
330
845B
102
}
330
845B
100
AcDbXrecord
280
     1
  1
AcDb_Thumbnail_Schema
102
{ATTRRECORD
341
8456
  2
AcDbDs::TreatedAsObjectData
280
     1
291
     1
102
ATTRRECORD}
102
{ATTRRECORD
341
8457
  2
AcDbDs::Legacy
280
     1
291
     1
102
ATTRRECORD}
  2
AcDbDs::ID
280
    10
 91
        8
102
{ATTRRECORD
341
8458
  2
AcDs:Indexable
280
     1
291
     1
102
ATTRRECORD}
102
{ATTRRECORD
341
8459
  2
AcDbDs::HandleAttribute
280
     7
282
     1
102
ATTRRECORD}
  2
Thumbnail_Data
280
    15
 91
        0
  0
XRECORD
  5
8456
102
{ACAD_REACTORS
330
845B
102
}
330
845B
100
AcDbXrecord
280
     1
  1
AcDbDs::TreatedAsObjectDataSchema
  2
AcDbDs::TreatedAsObjectData
280
     1
 91
        0
  0
XRECORD
  5
8457
102
{ACAD_REACTORS
330
845B
102
}
330
845B
100
AcDbXrecord
280
     1
  1
AcDbDs::LegacySchema
  2
AcDbDs::Legacy
280
     1
 91
        0
  0
XRECORD
  5
8458
102
{ACAD_REACTORS
330
845B
102
}
330
845B
100
AcDbXrecord
280
     1
  1
AcDbDs::IndexedPropertySchema
  2
AcDs:Indexable
280
     1
 91
        0
  0
XRECORD
  5
8459
102
{ACAD_REACTORS
330
845B
102
}
330
845B
100
AcDbXrecord
280
     1
  1
AcDbDs::HandleAttributeSchema
  2
AcDbDs::HandleAttribute
280
     7
 91
        1
284
     1
  0
XRECORD
  5
8460
102
{ACAD_REACTORS
330
845F
102
}
330
845F
100
AcDbXrecord
280
     1
102
DISPLAYNAME
  1
Metric50
102
FLAGS
 90
        0
  0
XRECORD
  5
83A5
102
{ACAD_REACTORS
330
83A3
102
}
330
83A3
100
AcDbXrecord
280
     1
270
     1
271
     1
  0
XRECORD
  5
83A4
102
{ACAD_REACTORS
330
83A3
102
}
330
83A3
100
AcDbXrecord
280
     1
270
     1
271
     1
  0
XRECORD
  5
83A8
102
{ACAD_REACTORS
330
83A3
102
}
330
83A3
100
AcDbXrecord
280
     1
270
     1
271
     1
  0
XRECORD
  5
83A7
102
{ACAD_REACTORS
330
83A3
102
}
330
83A3
100
AcDbXrecord
280
     1
270
     1
271
     1
  0
XRECORD
  5
83A9
102
{ACAD_REACTORS
330
83A3
102
}
330
83A3
100
AcDbXrecord
280
     1
270
     1
271
     1
  0
XRECORD
  5
83A6
102
{ACAD_REACTORS
330
83A3
102
}
330
83A3
100
AcDbXrecord
280
     1
270
     1
271
     1
  0
XRECORD
  5
839D
102
{ACAD_REACTORS
330
839B
102
}
330
839B
100
AcDbXrecord
280
     1
270
     1
271
     1
  0
XRECORD
  5
839C
102
{ACAD_REACTORS
330
839B
102
}
330
839B
100
AcDbXrecord
280
     1
270
     1
271
     1
  0
XRECORD
  5
83A0
102
{ACAD_REACTORS
330
839B
102
}
330
839B
100
AcDbXrecord
280
     1
270
     1
271
     1
  0
XRECORD
  5
839F
102
{ACAD_REACTORS
330
839B
102
}
330
839B
100
AcDbXrecord
280
     1
270
     1
271
     1
  0
XRECORD
  5
83A1
102
{ACAD_REACTORS
330
839B
102
}
330
839B
100
AcDbXrecord
280
     1
270
     1
271
     1
  0
XRECORD
  5
839E
102
{ACAD_REACTORS
330
839B
102
}
330
839B
100
AcDbXrecord
280
     1
270
     1
271
     1
  0
XRECORD
  5
83AD
102
{ACAD_REACTORS
330
83AB
102
}
330
83AB
100
AcDbXrecord
280
     1
270
     1
271
     1
  0
XRECORD
  5
83AC
102
{ACAD_REACTORS
330
83AB
102
}
330
83AB
100
AcDbXrecord
280
     1
270
     1
271
     1
  0
XRECORD
  5
83B0
102
{ACAD_REACTORS
330
83AB
102
}
330
83AB
100
AcDbXrecord
280
     1
270
     1
271
     1
  0
XRECORD
  5
83AF
102
{ACAD_REACTORS
330
83AB
102
}
330
83AB
100
AcDbXrecord
280
     1
270
     1
271
     1
  0
XRECORD
  5
83B1
102
{ACAD_REACTORS
330
83AB
102
}
330
83AB
100
AcDbXrecord
280
     1
270
     1
271
     1
  0
XRECORD
  5
83AE
102
{ACAD_REACTORS
330
83AB
102
}
330
83AB
100
AcDbXrecord
280
     1
270
     1
271
     1
  0
XRECORD
  5
845E
102
{ACAD_REACTORS
330
845D
102
}
330
845D
100
AcDbXrecord
280
     1
102
DISPLAYNAME
  1
Metric50
102
FLAGS
 90
        0
  0
CELLSTYLEMAP
  5
8453
102
{ACAD_REACTORS
330
8452
102
}
330
8452
100
AcDbCellStyleMap
 90
        3
300
CELLSTYLE
  1
TABLEFORMAT_BEGIN
 90
        5
170
     1
 91
        0
 92
    32768
 62
   257
 93
        1
300
CONTENTFORMAT
  1
CONTENTFORMAT_BEGIN
 90
        0
 91
        0
 92
      512
 93
        0
300

 40
0.0
140
1.0
 94
        5
 62
     0
340
10
144
6.0
309
CONTENTFORMAT_END
171
     1
301
MARGIN
  1
CELLMARGIN_BEGIN
 40
1.5
 40
1.5
 40
1.5
 40
1.5
 40
4.5
 40
4.5
309
CELLMARGIN_END
 94
        6
 95
        1
302
GRIDFORMAT
  1
GRIDFORMAT_BEGIN
 90
        0
 91
        1
 62
     0
 92
       -2
340
0
 93
        0
 40
1.125
309
GRIDFORMAT_END
 95
        2
302
GRIDFORMAT
  1
GRIDFORMAT_BEGIN
 90
        0
 91
        1
 62
     0
 92
       -2
340
0
 93
        0
 40
1.125
309
GRIDFORMAT_END
 95
        4
302
GRIDFORMAT
  1
GRIDFORMAT_BEGIN
 90
        0
 91
        1
 62
     0
 92
       -2
340
0
 93
        0
 40
1.125
309
GRIDFORMAT_END
 95
        8
302
GRIDFORMAT
  1
GRIDFORMAT_BEGIN
 90
        0
 91
        1
 62
     0
 92
       -2
340
0
 93
        0
 40
1.125
309
GRIDFORMAT_END
 95
       16
302
GRIDFORMAT
  1
GRIDFORMAT_BEGIN
 90
        0
 91
        1
 62
     0
 92
       -2
340
0
 93
        0
 40
1.125
309
GRIDFORMAT_END
 95
       32
302
GRIDFORMAT
  1
GRIDFORMAT_BEGIN
 90
        0
 91
        1
 62
     0
 92
       -2
340
0
 93
        0
 40
1.125
309
GRIDFORMAT_END
309
TABLEFORMAT_END
  1
CELLSTYLE_BEGIN
 90
        1
 91
        1
300
_TITLE
309
CELLSTYLE_END
300
CELLSTYLE
  1
TABLEFORMAT_BEGIN
 90
        5
170
     1
 91
        0
 92
        0
 62
   257
 93
        1
300
CONTENTFORMAT
  1
CONTENTFORMAT_BEGIN
 90
        0
 91
        0
 92
      512
 93
        0
300

 40
0.0
140
1.0
 94
        5
 62
     0
340
10
144
4.5
309
CONTENTFORMAT_END
171
     1
301
MARGIN
  1
CELLMARGIN_BEGIN
 40
1.5
 40
1.5
 40
1.5
 40
1.5
 40
4.5
 40
4.5
309
CELLMARGIN_END
 94
        6
 95
        1
302
GRIDFORMAT
  1
GRIDFORMAT_BEGIN
 90
        0
 91
        1
 62
     0
 92
       -2
340
0
 93
        0
 40
1.125
309
GRIDFORMAT_END
 95
        2
302
GRIDFORMAT
  1
GRIDFORMAT_BEGIN
 90
        0
 91
        1
 62
     0
 92
       -2
340
0
 93
        0
 40
1.125
309
GRIDFORMAT_END
 95
        4
302
GRIDFORMAT
  1
GRIDFORMAT_BEGIN
 90
        0
 91
        1
 62
     0
 92
       -2
340
0
 93
        0
 40
1.125
309
GRIDFORMAT_END
 95
        8
302
GRIDFORMAT
  1
GRIDFORMAT_BEGIN
 90
        0
 91
        1
 62
     0
 92
       -2
340
0
 93
        0
 40
1.125
309
GRIDFORMAT_END
 95
       16
302
GRIDFORMAT
  1
GRIDFORMAT_BEGIN
 90
        0
 91
        1
 62
     0
 92
       -2
340
0
 93
        0
 40
1.125
309
GRIDFORMAT_END
 95
       32
302
GRIDFORMAT
  1
GRIDFORMAT_BEGIN
 90
        0
 91
        1
 62
     0
 92
       -2
340
0
 93
        0
 40
1.125
309
GRIDFORMAT_END
309
TABLEFORMAT_END
  1
CELLSTYLE_BEGIN
 90
        2
 91
        1
300
_HEADER
309
CELLSTYLE_END
300
CELLSTYLE
  1
TABLEFORMAT_BEGIN
 90
        5
170
     1
 91
        0
 92
        0
 62
   257
 93
        1
300
CONTENTFORMAT
  1
CONTENTFORMAT_BEGIN
 90
        0
 91
        0
 92
      512
 93
        0
300

 40
0.0
140
1.0
 94
        2
 62
     0
340
10
144
4.5
309
CONTENTFORMAT_END
171
     1
301
MARGIN
  1
CELLMARGIN_BEGIN
 40
1.5
 40
1.5
 40
1.5
 40
1.5
 40
4.5
 40
4.5
309
CELLMARGIN_END
 94
        6
 95
        1
302
GRIDFORMAT
  1
GRIDFORMAT_BEGIN
 90
        0
 91
        1
 62
     0
 92
       -2
340
0
 93
        0
 40
1.125
309
GRIDFORMAT_END
 95
        2
302
GRIDFORMAT
  1
GRIDFORMAT_BEGIN
 90
        0
 91
        1
 62
     0
 92
       -2
340
0
 93
        0
 40
1.125
309
GRIDFORMAT_END
 95
        4
302
GRIDFORMAT
  1
GRIDFORMAT_BEGIN
 90
        0
 91
        1
 62
     0
 92
       -2
340
0
 93
        0
 40
1.125
309
GRIDFORMAT_END
 95
        8
302
GRIDFORMAT
  1
GRIDFORMAT_BEGIN
 90
        0
 91
        1
 62
     0
 92
       -2
340
0
 93
        0
 40
1.125
309
GRIDFORMAT_END
 95
       16
302
GRIDFORMAT
  1
GRIDFORMAT_BEGIN
 90
        0
 91
        1
 62
     0
 92
       -2
340
0
 93
        0
 40
1.125
309
GRIDFORMAT_END
 95
       32
302
GRIDFORMAT
  1
GRIDFORMAT_BEGIN
 90
        0
 91
        1
 62
     0
 92
       -2
340
0
 93
        0
 40
1.125
309
GRIDFORMAT_END
309
TABLEFORMAT_END
  1
CELLSTYLE_BEGIN
 90
        3
 91
        2
300
_DATA
309
CELLSTYLE_END
  0
ENDSEC
  0
SECTION
  2
ACDSDATA
 70
     2
 71
     8
  0
ACDSSCHEMA
 90
        0
  1
AcDb_Thumbnail_Schema
  2
AcDbDs::ID
280
    10
 91
        8
  2
Thumbnail_Data
280
    15
 91
        0
101
ACDSRECORD
 95
        0
 90
        1
  2
AcDbDs::TreatedAsObjectData
280
     1
291
     1
101
ACDSRECORD
 95
        0
 90
        2
  2
AcDbDs::Legacy
280
     1
291
     1
101
ACDSRECORD
  1
AcDbDs::ID
 90
        3
  2
AcDs:Indexable
280
     1
291
     1
101
ACDSRECORD
  1
AcDbDs::ID
 90
        4
  2
AcDbDs::HandleAttribute
280
     7
282
     1
  0
ACDSSCHEMA
 90
        1
  1
AcDbDs::TreatedAsObjectDataSchema
  2
AcDbDs::TreatedAsObjectData
280
     1
 91
        0
  0
ACDSSCHEMA
 90
        2
  1
AcDbDs::LegacySchema
  2
AcDbDs::Legacy
280
     1
 91
        0
  0
ACDSSCHEMA
 90
        3
  1
AcDbDs::IndexedPropertySchema
  2
AcDs:Indexable
280
     1
 91
        0
  0
ACDSSCHEMA
 90
        4
  1
AcDbDs::HandleAttributeSchema
  2
AcDbDs::HandleAttribute
280
     7
 91
        1
284
     1
  0
ACDSRECORD
 90
        0
  2
AcDbDs::ID
280
    10
320
82A5
  2
Thumbnail_Data
280
    15
 94
     1907
310
89504E470D0A1A0A0000000D49484452000001000000009108030000001BE1960600000300504C5445000000000000C8C8C80000000000000000000000000000000000000000000000000000330000660000990000CC0000FF0033000033330033660033990033CC0033FF0066000066330066660066990066CC0066FF0099
310
000099330099660099990099CC0099FF00CC0000CC3300CC6600CC9900CCCC00CCFF00FF0000FF3300FF6600FF9900FFCC00FFFF3300003300333300663300993300CC3300FF3333003333333333663333993333CC3333FF3366003366333366663366993366CC3366FF3399003399333399663399993399CC3399FF33CC00
310
33CC3333CC6633CC9933CCCC33CCFF33FF0033FF3333FF6633FF9933FFCC33FFFF6600006600336600666600996600CC6600FF6633006633336633666633996633CC6633FF6666006666336666666666996666CC6666FF6699006699336699666699996699CC6699FF66CC0066CC3366CC6666CC9966CCCC66CCFF66FF0066
310
FF3366FF6666FF9966FFCC66FFFF9900009900339900669900999900CC9900FF9933009933339933669933999933CC9933FF9966009966339966669966999966CC9966FF9999009999339999669999999999CC9999FF99CC0099CC3399CC6699CC9999CCCC99CCFF99FF0099FF3399FF6699FF9999FFCC99FFFFCC0000CC00
310
33CC0066CC0099CC00CCCC00FFCC3300CC3333CC3366CC3399CC33CCCC33FFCC6600CC6633CC6666CC6699CC66CCCC66FFCC9900CC9933CC9966CC9999CC99CCCC99FFCCCC00CCCC33CCCC66CCCC99CCCCCCCCCCFFCCFF00CCFF33CCFF66CCFF99CCFFCCCCFFFFFF0000FF0033FF0066FF0099FF00CCFF00FFFF3300FF3333
310
FF3366FF3399FF33CCFF33FFFF6600FF6633FF6666FF6699FF66CCFF66FFFF9900FF9933FF9966FF9999FF99CCFF99FFFFCC00FFCC33FFCC66FFCC99FFCCCCFFCCFFFFFF00FFFF33FFFF66FFFF99FFFFCCFFFFFF0000000D0D0D1A1A1A2828283535354343435050505D5D5D6B6B6B787878868686939393A1A1A1AEAEAEBB
310
BBBBC9C9C9D6D6D6E4E4E4F1F1F1FFFFFF00000000000000000000000000000000000000000000000000000000000008F1915C0000042E4944415478DAED9D4996E3200C40390E1BDDFF325C837DC76690C4603BE954756BA05E62832927FA9684C0CA73085F2CF9974AF85F4B56F5310EC001380007E0001CC0BFF8667763
310
BF7E00376D0634204CE15E366802D6358013B0A801C29DE00FCE00850010736A07F073DF321FEF993AF63AC2B5FDE7520A058032A3E007956ED80551C6FFE9D64E2D7F80250A0091B5BD022552011459F168A5D2B77201E4190073EDFD356940C0032718C92650DD4137872218932ADF9CD3470107E091A0D0B940C6A0008F
310
775790E91048C783D649FC8A50A6433E1FE3F9D5CD345CEA006E17472401C84B00818D87384284162868019089383C38E816829163B5170D26F013E7F2657107E0001C802000E92817759B00920D00E9AEA807B0AEC5F57107A01E008CE543431007002ECA277A2010006BA55523000225C06A0EC008002233ABD801D085A6
310
FBA60054A9C9AE3500E4DA3B009B00D0FD33002622C158CAB83D77D50238A37C8C770D6A400A5CE08D0F7000AA011013D8C5015A019C72BD448F75F6672E121C00D89B0B70000667830E8002B0B822C401985C1344006337A043827200D7D7DE0880F1F29746F500E8646857F4DF1801BC0D464AFCD8FFCB03F065FF2F7441
310
841A45DA1F77000A01584F9090FD310EC001380007F0F56FF6F74982C286C12580AB0EC6E2800DA1DEFCDA59F4121A0972496A6D0720AD6A6201A4C1FC53AD0533009E99C0635B91A901448CB43692CBA9535262026F00088A00ECD57906B03100051AB0947A01A0D723530707201700A4F562F0681567EFDD02A2680DD8AD
310
89961EA9BE1A2E8D0068DBB42EDC654F43E7B81B13250338E58E6573B453EDBF00008186CDB20134C90A011B005028E85A50F32626FFA71B40BD251C6BA6D0EB6FD400DD004EAD87D02EF4514D8102E0E9541C80642788004EF18B06400580A3001800500CBF02081540930D024F275003E0C80987D7DB515AAA786989914E
310
8FA07599CB99542E5B03AAFDA3137C4F03403880227E150E22F2A87E1001EC7C00888E04DBD507C0F17E0360A7018201A0F2D7DDC3D63128480CC076140852E30072E5AB2D00A5710AAF19401DF95B0C5CA48FCD2DCC00B6C3A050002811CE81F9AF28E85C60EF04C54E876BE4433326E97A08848700E0F263FE5B0031410B
310
80969215C54600F174908A00609E20972232A99EC501A201B0D510BA203200806B27281340BCCB18A7778DF9C138AFA14A03003700C67B451A01C03300E9AEBF702738C8BD0390D6DD8E7DA100D6DD12DBD9DC02BEB8732C10008FE4FA22400A61BE573C2592240500C23B00822200F7396243D6DCA36C325599A2E9831F0D
310
78AAAC0370000EC001380007201080C9678CF0E36B91F27BA7D608803C90AC3F9C8D6E9401089700C8D346C833EA9400D8B6E7F1AD91E10DEE0415F900DE4E1E2A93B34527580164CB0096CAA118C0BA5DB9065877823E1972000EC001380007E0001C805E00BF54BEF99DFF000F310D0E023739770000000049454E44AE42
310
6082
  0
ENDSEC
  0
EOF
