  0
SECTION
  2
HEADER
  9
$ACADVER
  1
AC1027
  9
$ACADMAINTVER
 70
   125
  9
$DWGCODEPAGE
  3
ANSI_932
  9
$LASTSAVEDBY
  1
yasukiyo.ogawa
  9
$REQUIREDVERSIONS
160
                 0
  9
$INSBASE
 10
0.0
 20
0.0
 30
0.0
  9
$EXTMIN
 10
0.0
 20
0.0
 30
0.0
  9
$EXTMAX
 10
8400.0
 20
11800.0
 30
0.0
  9
$LIMMIN
 10
0.0
 20
0.0
  9
$LIMMAX
 10
297.0
 20
210.0
  9
$ORTHOMODE
 70
     1
  9
$REGENMODE
 70
     1
  9
$FILLMODE
 70
     0
  9
$QTEXTMODE
 70
     0
  9
$MIRRTEXT
 70
     1
  9
$LTSCALE
 40
100.0
  9
$ATTMODE
 70
     1
  9
$TEXTSIZE
 40
180.0
  9
$TRACEWID
 40
0.05
  9
$TEXTSTYLE
  7
STANDARD
  9
$CLAYER
  8
3
  9
$CELTYPE
  6
BYLAYER
  9
$CECOLOR
 62
   256
  9
$CELTSCALE
 40
1.0
  9
$DISPSILH
 70
     0
  9
$DIMSCALE
 40
40.0
  9
$DIMASZ
 40
2.0
  9
$DIMEXO
 40
0.5
  9
$DIMDLI
 40
10.0
  9
$DIMRND
 40
0.0
  9
$DIMDLE
 40
0.0
  9
$DIMEXE
 40
1.0
  9
$DIMTP
 40
1.0
  9
$DIMTM
 40
1.0
  9
$DIMTXT
 40
3.0
  9
$DIMCEN
 40
0.0
  9
$DIMTSZ
 40
0.0
  9
$DIMTOL
 70
     0
  9
$DIMLIM
 70
     0
  9
$DIMTIH
 70
     0
  9
$DIMTOH
 70
     0
  9
$DIMSE1
 70
     0
  9
$DIMSE2
 70
     0
  9
$DIMTAD
 70
     1
  9
$DIMZIN
 70
     8
  9
$DIMBLK
  1

  9
$DIMASO
 70
     1
  9
$DIMSHO
 70
     1
  9
$DIMPOST
  1
(<>)
  9
$DIMAPOST
  1

  9
$DIMALT
 70
     0
  9
$DIMALTD
 70
     2
  9
$DIMALTF
 40
0.039
  9
$DIMLFAC
 40
1.0
  9
$DIMTOFL
 70
     1
  9
$DIMTVP
 40
0.0
  9
$DIMTIX
 70
     0
  9
$DIMSOXD
 70
     0
  9
$DIMSAH
 70
     1
  9
$DIMBLK1
  1
OPEN
  9
$DIMBLK2
  1
OPEN
  9
$DIMSTYLE
  2
IGA
  9
$DIMCLRD
 70
     0
  9
$DIMCLRE
 70
     0
  9
$DIMCLRT
 70
     0
  9
$DIMTFAC
 40
10.0
  9
$DIMGAP
 40
1.0
  9
$DIMJUST
 70
     0
  9
$DIMSD1
 70
     0
  9
$DIMSD2
 70
     0
  9
$DIMTOLJ
 70
     1
  9
$DIMTZIN
 70
     8
  9
$DIMALTZ
 70
     0
  9
$DIMALTTZ
 70
     0
  9
$DIMUPT
 70
     0
  9
$DIMDEC
 70
     0
  9
$DIMTDEC
 70
     0
  9
$DIMALTU
 70
     2
  9
$DIMALTTD
 70
     2
  9
$DIMTXSTY
  7
STANDARD
  9
$DIMAUNIT
 70
     0
  9
$DIMADEC
 70
     0
  9
$DIMALTRND
 40
0.0
  9
$DIMAZIN
 70
     0
  9
$DIMDSEP
 70
    46
  9
$DIMATFIT
 70
     3
  9
$DIMFRAC
 70
     0
  9
$DIMLDRBLK
  1
OPEN
  9
$DIMLUNIT
 70
     2
  9
$DIMLWD
 70
    -2
  9
$DIMLWE
 70
    -2
  9
$DIMTMOVE
 70
     2
  9
$DIMFXL
 40
1.0
  9
$DIMFXLON
 70
     0
  9
$DIMJOGANG
 40
0.7853981633974483
  9
$DIMTFILL
 70
     0
  9
$DIMTFILLCLR
 70
     0
  9
$DIMARCSYM
 70
     0
  9
$DIMLTYPE
  6

  9
$DIMLTEX1
  6

  9
$DIMLTEX2
  6

  9
$DIMTXTDIRECTION
 70
     0
  9
$LUNITS
 70
     2
  9
$LUPREC
 70
     3
  9
$SKETCHINC
 40
0.1
  9
$FILLETRAD
 40
50.0
  9
$AUNITS
 70
     0
  9
$AUPREC
 70
     0
  9
$MENU
  1
acad
  9
$ELEVATION
 40
0.0
  9
$PELEVATION
 40
0.0
  9
$THICKNESS
 40
0.0
  9
$LIMCHECK
 70
     0
  9
$CHAMFERA
 40
0.5
  9
$CHAMFERB
 40
0.5
  9
$CHAMFERC
 40
20.0
  9
$CHAMFERD
 40
0.0
  9
$SKPOLY
 70
     0
  9
$TDCREATE
 40
2451898.497233796
  9
$TDUCREATE
 40
2451898.122236458
  9
$TDUPDATE
 40
2460241.766504630
  9
$TDUUPDATE
 40
2460241.391508773
  9
$TDINDWG
 40
0.0521043287
  9
$TDUSRTIMER
 40
0.0521043287
  9
$USRTIMER
 70
     1
  9
$ANGBASE
 50
0.0
  9
$ANGDIR
 70
     0
  9
$PDMODE
 70
     0
  9
$PDSIZE
 40
0.0
  9
$PLINEWID
 40
0.0
  9
$SPLFRAME
 70
     0
  9
$SPLINETYPE
 70
     6
  9
$SPLINESEGS
 70
     8
  9
$HANDSEED
  5
8439
  9
$SURFTAB1
 70
     6
  9
$SURFTAB2
 70
     6
  9
$SURFTYPE
 70
     6
  9
$SURFU
 70
     6
  9
$SURFV
 70
     6
  9
$UCSBASE
  2

  9
$UCSNAME
  2

  9
$UCSORG
 10
0.0
 20
0.0
 30
0.0
  9
$UCSXDIR
 10
1.0
 20
0.0
 30
0.0
  9
$UCSYDIR
 10
0.0
 20
1.0
 30
0.0
  9
$UCSORTHOREF
  2

  9
$UCSORTHOVIEW
 70
     0
  9
$UCSORGTOP
 10
0.0
 20
0.0
 30
0.0
  9
$UCSORGBOTTOM
 10
0.0
 20
0.0
 30
0.0
  9
$UCSORGLEFT
 10
0.0
 20
0.0
 30
0.0
  9
$UCSORGRIGHT
 10
0.0
 20
0.0
 30
0.0
  9
$UCSORGFRONT
 10
0.0
 20
0.0
 30
0.0
  9
$UCSORGBACK
 10
0.0
 20
0.0
 30
0.0
  9
$PUCSBASE
  2

  9
$PUCSNAME
  2

  9
$PUCSORG
 10
0.0
 20
0.0
 30
0.0
  9
$PUCSXDIR
 10
1.0
 20
0.0
 30
0.0
  9
$PUCSYDIR
 10
0.0
 20
1.0
 30
0.0
  9
$PUCSORTHOREF
  2

  9
$PUCSORTHOVIEW
 70
     0
  9
$PUCSORGTOP
 10
0.0
 20
0.0
 30
0.0
  9
$PUCSORGBOTTOM
 10
0.0
 20
0.0
 30
0.0
  9
$PUCSORGLEFT
 10
0.0
 20
0.0
 30
0.0
  9
$PUCSORGRIGHT
 10
0.0
 20
0.0
 30
0.0
  9
$PUCSORGFRONT
 10
0.0
 20
0.0
 30
0.0
  9
$PUCSORGBACK
 10
0.0
 20
0.0
 30
0.0
  9
$USERI1
 70
     0
  9
$USERI2
 70
     0
  9
$USERI3
 70
     0
  9
$USERI4
 70
     0
  9
$USERI5
 70
     0
  9
$USERR1
 40
0.0
  9
$USERR2
 40
0.0
  9
$USERR3
 40
0.0
  9
$USERR4
 40
0.0
  9
$USERR5
 40
0.0
  9
$WORLDVIEW
 70
     1
  9
$SHADEDGE
 70
     3
  9
$SHADEDIF
 70
    70
  9
$TILEMODE
 70
     1
  9
$MAXACTVP
 70
    16
  9
$PINSBASE
 10
0.0
 20
0.0
 30
0.0
  9
$PLIMCHECK
 70
     0
  9
$PEXTMIN
 10
1.000000000000000E+20
 20
1.000000000000000E+20
 30
1.000000000000000E+20
  9
$PEXTMAX
 10
-1.000000000000000E+20
 20
-1.000000000000000E+20
 30
-1.000000000000000E+20
  9
$PLIMMIN
 10
0.0
 20
0.0
  9
$PLIMMAX
 10
12.0
 20
9.0
  9
$UNITMODE
 70
     0
  9
$VISRETAIN
 70
     0
  9
$PLINEGEN
 70
     0
  9
$PSLTSCALE
 70
     1
  9
$TREEDEPTH
 70
  3020
  9
$CMLSTYLE
  2
STANDARD
  9
$CMLJUST
 70
     0
  9
$CMLSCALE
 40
20.0
  9
$PROXYGRAPHICS
 70
     1
  9
$MEASUREMENT
 70
     1
  9
$CELWEIGHT
370
    -1
  9
$ENDCAPS
280
     0
  9
$JOINSTYLE
280
     0
  9
$LWDISPLAY
290
     0
  9
$INSUNITS
 70
     0
  9
$HYPERLINKBASE
  1

  9
$STYLESHEET
  1

  9
$XEDIT
290
     1
  9
$CEPSNTYPE
380
     0
  9
$PSTYLEMODE
290
     1
  9
$FINGERPRINTGUID
  2
{F91275EC-F9DF-49A8-BB0B-7BADE135607E}
  9
$VERSIONGUID
  2
{8EE70DD3-2EB8-45D6-9EC0-5C52FBEAC017}
  9
$EXTNAMES
290
     1
  9
$PSVPSCALE
 40
0.0
  9
$OLESTARTUP
290
     0
  9
$SORTENTS
280
   127
  9
$INDEXCTL
280
     0
  9
$HIDETEXT
280
     0
  9
$XCLIPFRAME
280
     2
  9
$HALOGAP
280
     0
  9
$OBSCOLOR
 70
   257
  9
$OBSLTYPE
280
     0
  9
$INTERSECTIONDISPLAY
280
     0
  9
$INTERSECTIONCOLOR
 70
   257
  9
$DIMASSOC
280
     1
  9
$PROJECTNAME
  1

  9
$CAMERADISPLAY
290
     0
  9
$LENSLENGTH
 40
50.0
  9
$CAMERAHEIGHT
 40
0.0
  9
$STEPSPERSEC
 40
2.0
  9
$STEPSIZE
 40
6.0
  9
$3DDWFPREC
 40
2.0
  9
$PSOLWIDTH
 40
0.25
  9
$PSOLHEIGHT
 40
4.0
  9
$LOFTANG1
 40
1.570796326794896
  9
$LOFTANG2
 40
1.570796326794896
  9
$LOFTMAG1
 40
0.0
  9
$LOFTMAG2
 40
0.0
  9
$LOFTPARAM
 70
     7
  9
$LOFTNORMALS
280
     1
  9
$LATITUDE
 40
37.795
  9
$LONGITUDE
 40
-122.394
  9
$NORTHDIRECTION
 40
0.0
  9
$TIMEZONE
 70
 -8000
  9
$LIGHTGLYPHDISPLAY
280
     1
  9
$TILEMODELIGHTSYNCH
280
     1
  9
$CMATERIAL
347
8369
  9
$SOLIDHIST
280
     0
  9
$SHOWHIST
280
     1
  9
$DWFFRAME
280
     2
  9
$DGNFRAME
280
     0
  9
$REALWORLDSCALE
290
     1
  9
$INTERFERECOLOR
 62
     1
  9
$INTERFEREOBJVS
345
838B
  9
$INTERFEREVPVS
346
8388
  9
$CSHADOW
280
     0
  9
$SHADOWPLANELOCATION
 40
0.0
  0
ENDSEC
  0
SECTION
  2
CLASSES
  0
CLASS
  1
ACDBDICTIONARYWDFLT
  2
AcDbDictionaryWithDefault
  3
ObjectDBX Classes
 90
        0
 91
        1
280
     0
281
     0
  0
CLASS
  1
DICTIONARYVAR
  2
AcDbDictionaryVar
  3
ObjectDBX Classes
 90
        0
 91
       11
280
     0
281
     0
  0
CLASS
  1
MATERIAL
  2
AcDbMaterial
  3
ObjectDBX Classes
 90
     1153
 91
        3
280
     0
281
     0
  0
CLASS
  1
VISUALSTYLE
  2
AcDbVisualStyle
  3
ObjectDBX Classes
 90
     4095
 91
       24
280
     0
281
     0
  0
CLASS
  1
TABLESTYLE
  2
AcDbTableStyle
  3
ObjectDBX Classes
 90
     4095
 91
        1
280
     0
281
     0
  0
CLASS
  1
SCALE
  2
AcDbScale
  3
ObjectDBX Classes
 90
     1153
 91
       17
280
     0
281
     0
  0
CLASS
  1
MLEADERSTYLE
  2
AcDbMLeaderStyle
  3
ACDB_MLEADERSTYLE_CLASS
 90
     4095
 91
        1
280
     0
281
     0
  0
CLASS
  1
ACDBSECTIONVIEWSTYLE
  2
AcDbSectionViewStyle
  3
ObjectDBX Classes
 90
     1025
 91
        1
280
     0
281
     0
  0
CLASS
  1
ACDBDETAILVIEWSTYLE
  2
AcDbDetailViewStyle
  3
ObjectDBX Classes
 90
     1025
 91
        1
280
     0
281
     0
  0
CLASS
  1
CELLSTYLEMAP
  2
AcDbCellStyleMap
  3
ObjectDBX Classes
 90
     1152
 91
        1
280
     0
281
     0
  0
ENDSEC
  0
SECTION
  2
TABLES
  0
TABLE
  2
VPORT
  5
8
330
0
100
AcDbSymbolTable
 70
     1
1001
ACAD
1000
DbSaveVer
1071
      278
  0
VPORT
  5
8366
330
8
100
AcDbSymbolTableRecord
100
AcDbViewportTableRecord
  2
*Active
 70
     0
 10
0.0
 20
0.0
 11
1.0
 21
1.0
 12
7113.841116720781
 22
5900.000027474012
 13
0.0
 23
0.0
 14
10.0
 24
10.0
 15
10.0
 25
10.0
 16
0.0
 26
0.0
 36
1.0
 17
0.0
 27
0.0
 37
0.0
 40
11876.28512550527
 41
2.250314465408805
 42
50.0
 43
0.0
 44
0.0
 50
0.0
 51
0.0
 71
     0
 72
   100
 73
     1
 74
     0
 75
     0
 76
     0
 77
     0
 78
     0
281
     0
 65
     1
110
0.0
120
0.0
130
0.0
111
1.0
121
0.0
131
0.0
112
0.0
122
1.0
132
0.0
 79
     0
146
0.0
348
8387
 60
     3
 61
     5
292
     1
282
     1
141
0.0
142
0.0
 63
   250
421
  3355443
1001
ACAD_NAV_VCDISPLAY
1070
     3
  0
ENDTAB
  0
TABLE
  2
LTYPE
  5
5
330
0
100
AcDbSymbolTable
 70
     2
  0
LTYPE
  5
13
330
5
100
AcDbSymbolTableRecord
100
AcDbLinetypeTableRecord
  2
BYBLOCK
 70
     0
  3

 72
    65
 73
     0
 40
0.0
  0
LTYPE
  5
14
330
5
100
AcDbSymbolTableRecord
100
AcDbLinetypeTableRecord
  2
BYLAYER
 70
     0
  3

 72
    65
 73
     0
 40
0.0
  0
LTYPE
  5
15
330
5
100
AcDbSymbolTableRecord
100
AcDbLinetypeTableRecord
  2
CONTINUOUS
 70
     0
  3
Solid line
 72
    65
 73
     0
 40
0.0
  0
LTYPE
  5
1F
330
5
100
AcDbSymbolTableRecord
100
AcDbLinetypeTableRecord
  2
CENTER
 70
     0
  3
____ _ ____ _ ____ _ ____ _ ____ _ ____ _ ____ 
 72
    65
 73
     4
 40
2.0
 49
1.25
 74
     0
 49
-0.25
 74
     0
 49
0.25
 74
     0
 49
-0.25
 74
     0
  0
ENDTAB
  0
TABLE
  2
LAYER
  5
2
102
{ACAD_XDICTIONARY
360
8410
102
}
330
0
100
AcDbSymbolTable
 70
     6
  0
LAYER
  5
F
102
{ACAD_XDICTIONARY
360
8403
102
}
330
2
100
AcDbSymbolTableRecord
100
AcDbLayerTableRecord
  2
0
 70
     0
 62
     7
  6
CONTINUOUS
370
    -3
390
8270
347
8379
348
0
  0
LAYER
  5
31
102
{ACAD_XDICTIONARY
360
8405
102
}
330
2
100
AcDbSymbolTableRecord
100
AcDbLayerTableRecord
  2
3
 70
     0
 62
     2
  6
CONTINUOUS
370
    -3
390
8270
347
8379
348
0
  0
LAYER
  5
76D0
102
{ACAD_XDICTIONARY
360
8407
102
}
330
2
100
AcDbSymbolTableRecord
100
AcDbLayerTableRecord
  2
2
 70
     0
 62
     3
  6
CENTER
370
    -3
390
8270
347
8379
348
0
  0
LAYER
  5
76D1
102
{ACAD_XDICTIONARY
360
8409
102
}
330
2
100
AcDbSymbolTableRecord
100
AcDbLayerTableRecord
  2
1
 70
     0
 62
     4
  6
CONTINUOUS
370
    -3
390
8270
347
8379
348
0
  0
LAYER
  5
76D2
102
{ACAD_XDICTIONARY
360
840B
102
}
330
2
100
AcDbSymbolTableRecord
100
AcDbLayerTableRecord
  2
4
 70
     0
 62
     7
  6
CONTINUOUS
370
    -3
390
8270
347
8379
348
0
  0
LAYER
  5
7B2E
330
2
100
AcDbSymbolTableRecord
100
AcDbLayerTableRecord
  2
DEFPOINTS
 70
     0
 62
     7
  6
CONTINUOUS
290
     0
370
    -3
390
8270
347
8379
348
0
  0
ENDTAB
  0
TABLE
  2
STYLE
  5
3
330
0
100
AcDbSymbolTable
 70
     1
  0
STYLE
  5
10
330
3
100
AcDbSymbolTableRecord
100
AcDbTextStyleTableRecord
  2
STANDARD
 70
     0
 40
0.0
 41
1.0
 50
0.0
 71
     0
 42
180.0
  3
simplex.shx
  4
extfont.shx
  0
ENDTAB
  0
TABLE
  2
VIEW
  5
6
330
0
100
AcDbSymbolTable
 70
     0
  0
ENDTAB
  0
TABLE
  2
UCS
  5
7
330
0
100
AcDbSymbolTable
 70
     0
  0
ENDTAB
  0
TABLE
  2
APPID
  5
9
330
0
100
AcDbSymbolTable
 70
     4
  0
APPID
  5
11
330
9
100
AcDbSymbolTableRecord
100
AcDbRegAppTableRecord
  2
ACAD
 70
     0
  0
APPID
  5
83B8
330
9
100
AcDbSymbolTableRecord
100
AcDbRegAppTableRecord
  2
AcadAnnoMonitorAlertIconDisabled
 70
     0
  0
APPID
  5
83B9
330
9
100
AcDbSymbolTableRecord
100
AcDbRegAppTableRecord
  2
ACAD_EXEMPT_FROM_CAD_STANDARDS
 70
     0
  0
APPID
  5
8416
330
9
100
AcDbSymbolTableRecord
100
AcDbRegAppTableRecord
  2
ACAD_NAV_VCDISPLAY
 70
     0
  0
ENDTAB
  0
TABLE
  2
DIMSTYLE
  5
A
330
0
100
AcDbSymbolTable
 70
     1
100
AcDbDimStyleTable
 71
     0
  0
DIMSTYLE
105
1D
102
{ACAD_REACTORS
330
7C49
330
7C5B
330
7C5C
330
7C5D
330
7C66
330
7C67
330
7C9B
330
7C9C
330
7C9D
330
7C9E
330
7C9F
330
7CDC
330
7CDD
330
7CDE
330
7CE9
330
7CF9
330
7CFA
330
7D00
330
7D09
330
7D0D
330
823C
330
8249
102
}
330
A
100
AcDbSymbolTableRecord
100
AcDbDimStyleTableRecord
  2
IGA
 70
     0
 40
2.0
 41
2.0
 42
0.5
 43
10.0
 44
1.0
 47
1.0
 48
1.0
 73
     0
 74
     0
 77
     1
 78
     8
140
3.0
141
0.0
143
0.03937
146
10.0
147
1.0
173
     1
271
     1
272
     0
279
     2
284
     8
340
10
341
7F38
343
7F38
344
7F38
  0
ENDTAB
  0
TABLE
  2
BLOCK_RECORD
  5
1
330
0
100
AcDbSymbolTable
 70
    26
  0
BLOCK_RECORD
  5
19
102
{ACAD_XDICTIONARY
360
829E
102
}
330
1
100
AcDbSymbolTableRecord
100
AcDbBlockTableRecord
  2
*MODEL_SPACE
340
8273
 70
     0
280
     1
281
     0
  0
BLOCK_RECORD
  5
16
102
{ACAD_XDICTIONARY
360
829C
102
}
330
1
100
AcDbSymbolTableRecord
100
AcDbBlockTableRecord
  2
*PAPER_SPACE
340
8274
 70
     0
280
     1
281
     0
  0
BLOCK_RECORD
  5
79FC
330
1
100
AcDbSymbolTableRecord
100
AcDbBlockTableRecord
  2
YA_N
340
0
102
{BLKREFS
331
7CDA
331
7CF1
331
7C21
331
7C3C
331
7C3D
331
7C62
331
7CA0
331
7CB0
102
}
 70
     0
280
     1
281
     0
  0
BLOCK_RECORD
  5
7D0E
330
1
100
AcDbSymbolTableRecord
100
AcDbBlockTableRecord
  2
*D1
340
0
 70
     0
280
     1
281
     0
  0
BLOCK_RECORD
  5
7D1A
330
1
100
AcDbSymbolTableRecord
100
AcDbBlockTableRecord
  2
*D2
340
0
 70
     0
280
     1
281
     0
  0
BLOCK_RECORD
  5
7D26
330
1
100
AcDbSymbolTableRecord
100
AcDbBlockTableRecord
  2
*D3
340
0
 70
     0
280
     1
281
     0
  0
BLOCK_RECORD
  5
7D32
330
1
100
AcDbSymbolTableRecord
100
AcDbBlockTableRecord
  2
*D4
340
0
 70
     0
280
     1
281
     0
  0
BLOCK_RECORD
  5
7D3E
330
1
100
AcDbSymbolTableRecord
100
AcDbBlockTableRecord
  2
*D5
340
0
 70
     0
280
     1
281
     0
  0
BLOCK_RECORD
  5
7D4A
330
1
100
AcDbSymbolTableRecord
100
AcDbBlockTableRecord
  2
*D6
340
0
 70
     0
280
     1
281
     0
  0
BLOCK_RECORD
  5
7D62
330
1
100
AcDbSymbolTableRecord
100
AcDbBlockTableRecord
  2
*D7
340
0
 70
     0
280
     1
281
     0
  0
BLOCK_RECORD
  5
7D6E
330
1
100
AcDbSymbolTableRecord
100
AcDbBlockTableRecord
  2
*D8
340
0
 70
     0
280
     1
281
     0
  0
BLOCK_RECORD
  5
7D7A
330
1
100
AcDbSymbolTableRecord
100
AcDbBlockTableRecord
  2
*D9
340
0
 70
     0
280
     1
281
     0
  0
BLOCK_RECORD
  5
7D85
330
1
100
AcDbSymbolTableRecord
100
AcDbBlockTableRecord
  2
*D10
340
0
 70
     0
280
     1
281
     0
  0
BLOCK_RECORD
  5
7D91
330
1
100
AcDbSymbolTableRecord
100
AcDbBlockTableRecord
  2
*D11
340
0
 70
     0
280
     1
281
     0
  0
BLOCK_RECORD
  5
7D9D
330
1
100
AcDbSymbolTableRecord
100
AcDbBlockTableRecord
  2
*D12
340
0
 70
     0
280
     1
281
     0
  0
BLOCK_RECORD
  5
7DA9
330
1
100
AcDbSymbolTableRecord
100
AcDbBlockTableRecord
  2
*D13
340
0
 70
     0
280
     1
281
     0
  0
BLOCK_RECORD
  5
7DB5
330
1
100
AcDbSymbolTableRecord
100
AcDbBlockTableRecord
  2
*D14
340
0
 70
     0
280
     1
281
     0
  0
BLOCK_RECORD
  5
7DC1
330
1
100
AcDbSymbolTableRecord
100
AcDbBlockTableRecord
  2
*D15
340
0
 70
     0
280
     1
281
     0
  0
BLOCK_RECORD
  5
7DD9
330
1
100
AcDbSymbolTableRecord
100
AcDbBlockTableRecord
  2
*D16
340
0
 70
     0
280
     1
281
     0
  0
BLOCK_RECORD
  5
7DE5
330
1
100
AcDbSymbolTableRecord
100
AcDbBlockTableRecord
  2
*D17
340
0
 70
     0
280
     1
281
     0
  0
BLOCK_RECORD
  5
7DFE
330
1
100
AcDbSymbolTableRecord
100
AcDbBlockTableRecord
  2
*D18
340
0
 70
     0
280
     1
281
     0
  0
BLOCK_RECORD
  5
7E18
330
1
100
AcDbSymbolTableRecord
100
AcDbBlockTableRecord
  2
*D19
340
0
 70
     0
280
     1
281
     0
  0
BLOCK_RECORD
  5
7E24
330
1
100
AcDbSymbolTableRecord
100
AcDbBlockTableRecord
  2
*D20
340
0
 70
     0
280
     1
281
     0
  0
BLOCK_RECORD
  5
7F38
330
1
100
AcDbSymbolTableRecord
100
AcDbBlockTableRecord
  2
_OPEN
340
0
102
{BLKREFS
331
83F4
331
83F5
331
83FD
331
83FE
331
8242
331
8243
331
830A
331
830B
331
8313
331
8314
331
831C
331
831D
331
8325
331
8326
331
832E
331
832F
331
8337
331
8338
331
8343
331
834B
331
834C
331
8354
331
8355
331
82A7
331
82A8
331
82C2
331
82C3
331
82CB
331
82CC
331
82D4
331
82D5
331
82DD
331
82DE
331
82E6
331
82E7
331
82EF
331
82F0
331
82F8
331
82F9
331
8301
331
8302
102
}
 70
     0
280
     1
281
     0
  0
BLOCK_RECORD
  5
80CC
330
1
100
AcDbSymbolTableRecord
100
AcDbBlockTableRecord
  2
_DOT
340
0
102
{BLKREFS
331
8342
102
}
 70
     0
280
     1
281
     0
  0
BLOCK_RECORD
  5
822E
330
1
100
AcDbSymbolTableRecord
100
AcDbBlockTableRecord
  2
_NONE
340
0
 70
     0
280
     1
281
     0
  0
BLOCK_RECORD
  5
8232
330
1
100
AcDbSymbolTableRecord
100
AcDbBlockTableRecord
  2
*D24
340
0
 70
     0
280
     1
281
     0
  0
BLOCK_RECORD
  5
823D
330
1
100
AcDbSymbolTableRecord
100
AcDbBlockTableRecord
  2
*D25
340
0
 70
     0
280
     1
281
     0
  0
ENDTAB
  0
ENDSEC
  0
SECTION
  2
BLOCKS
  0
BLOCK
  5
1A
330
19
100
AcDbEntity
  8
0
100
AcDbBlockBegin
  2
*MODEL_SPACE
 70
     0
 10
0.0
 20
0.0
 30
0.0
  3
*MODEL_SPACE
  1

  0
ENDBLK
  5
1B
330
19
100
AcDbEntity
  8
0
100
AcDbBlockEnd
  0
BLOCK
  5
17
330
16
100
AcDbEntity
 67
     1
  8
0
100
AcDbBlockBegin
  2
*PAPER_SPACE
 70
     0
 10
0.0
 20
0.0
 30
0.0
  3
*PAPER_SPACE
  1

  0
ENDBLK
  5
18
330
16
100
AcDbEntity
 67
     1
  8
0
100
AcDbBlockEnd
  0
BLOCK
  5
79FD
330
79FC
100
AcDbEntity
  8
0
100
AcDbBlockBegin
  2
YA_N
 70
     0
 10
0.0
 20
0.0
 30
0.0
  3
YA_N
  1

  0
ENDBLK
  5
79FE
330
79FC
100
AcDbEntity
  8
0
100
AcDbBlockEnd
  0
BLOCK
  5
812A
330
7D0E
100
AcDbEntity
  8
0
100
AcDbBlockBegin
  2
*D1
 70
     1
 10
0.0
 20
0.0
 30
0.0
  3
*D1
  1

  0
LINE
  5
82A4
330
7D0E
100
AcDbEntity
  8
3
 62
     0
440
 16777216
100
AcDbLine
 10
5228.039116178846
 20
4757.552421855573
 30
0.0
 11
5228.039116178846
 21
5040.007557733632
 31
0.0
  0
LINE
  5
82A5
330
7D0E
100
AcDbEntity
  8
3
 62
     0
440
 16777216
100
AcDbLine
 10
6928.039116178847
 20
4757.552421855573
 30
0.0
 11
6928.039116178847
 21
5040.007557733632
 31
0.0
  0
LINE
  5
82A6
330
7D0E
100
AcDbEntity
  8
3
 62
     0
440
 16777216
100
AcDbLine
 10
5308.039116178846
 20
5000.007557733631
 30
0.0
 11
6848.039116178846
 21
5000.007557733631
 31
0.0
  0
INSERT
  5
82A7
330
7D0E
100
AcDbEntity
  8
3
 62
     0
440
 16777216
100
AcDbBlockReference
  2
_OPEN
 10
5228.039116178846
 20
5000.007557733631
 30
0.0
 41
80.0
 42
80.0
 43
80.0
 50
180.0
  0
INSERT
  5
82A8
330
7D0E
100
AcDbEntity
  8
3
 62
     0
440
 16777216
100
AcDbBlockReference
  2
_OPEN
 10
6928.039116178847
 20
5000.007557733631
 30
0.0
 41
80.0
 42
80.0
 43
80.0
  0
MTEXT
  5
82A9
330
7D0E
100
AcDbEntity
  8
3
 62
     0
440
 16777216
100
AcDbMText
 10
6078.039116178846
 20
5100.007557733632
 30
0.0
 40
120.0
 41
0.0
 46
0.0
 71
     5
 72
     5
  1
\A1;1700
 73
     1
 44
1.0
  0
POINT
  5
82AA
330
7D0E
100
AcDbEntity
  8
DEFPOINTS
 62
     0
440
 16777216
100
AcDbPoint
 10
5228.039116178846
 20
4737.552421855573
 30
0.0
  0
POINT
  5
82AB
330
7D0E
100
AcDbEntity
  8
DEFPOINTS
 62
     0
440
 16777216
100
AcDbPoint
 10
6928.039116178847
 20
4737.552421855573
 30
0.0
  0
POINT
  5
82AC
330
7D0E
100
AcDbEntity
  8
DEFPOINTS
 62
     0
440
 16777216
100
AcDbPoint
 10
6928.039116178847
 20
5000.007557733631
 30
0.0
  0
ENDBLK
  5
8134
330
7D0E
100
AcDbEntity
  8
0
100
AcDbBlockEnd
  0
BLOCK
  5
8135
330
7D1A
100
AcDbEntity
  8
0
100
AcDbBlockBegin
  2
*D2
 70
     1
 10
0.0
 20
0.0
 30
0.0
  3
*D2
  1

  0
LINE
  5
83FA
330
7D1A
100
AcDbEntity
  8
3
 62
     0
440
 16777216
370
    -2
100
AcDbLine
 10
4758.039116178848
 20
4227.929658934044
 30
0.0
 11
4758.039116178848
 21
5328.496809489447
 31
0.0
  0
LINE
  5
83FB
330
7D1A
100
AcDbEntity
  8
3
 62
     0
440
 16777216
370
    -2
100
AcDbLine
 10
6078.039116178846
 20
5185.719398998529
 30
0.0
 11
6078.039116178846
 21
5328.496809489447
 31
0.0
  0
LINE
  5
83FC
330
7D1A
100
AcDbEntity
  8
3
 62
     0
440
 16777216
370
    -2
100
AcDbLine
 10
4838.039116178848
 20
5288.496809489447
 30
0.0
 11
5998.039116178847
 21
5288.496809489447
 31
0.0
  0
INSERT
  5
83FD
330
7D1A
100
AcDbEntity
  8
3
 62
     0
440
 16777216
370
    -2
100
AcDbBlockReference
  2
_OPEN
 10
4758.039116178848
 20
5288.496809489447
 30
0.0
 41
80.0
 42
80.0
 43
80.0
 50
180.0
  0
INSERT
  5
83FE
330
7D1A
100
AcDbEntity
  8
3
 62
     0
440
 16777216
370
    -2
100
AcDbBlockReference
  2
_OPEN
 10
6078.039116178846
 20
5288.496809489447
 30
0.0
 41
80.0
 42
80.0
 43
80.0
  0
MTEXT
  5
83FF
330
7D1A
100
AcDbEntity
  8
3
 62
     0
440
 16777216
100
AcDbMText
 10
5418.039116178846
 20
5419.925380918019
 30
0.0
 40
120.0
 41
0.0
 46
0.0
 71
     5
 72
     1
  1
\A1;(1320)
 73
     1
 44
1.0
  0
POINT
  5
8400
330
7D1A
100
AcDbEntity
  8
DEFPOINTS
 62
     0
440
 16777216
100
AcDbPoint
 10
4758.039116178848
 20
4207.929658934045
 30
0.0
  0
POINT
  5
8401
330
7D1A
100
AcDbEntity
  8
DEFPOINTS
 62
     0
440
 16777216
100
AcDbPoint
 10
6078.039116178846
 20
5165.719398998528
 30
0.0
  0
POINT
  5
8402
330
7D1A
100
AcDbEntity
  8
DEFPOINTS
 62
     0
440
 16777216
100
AcDbPoint
 10
6078.039116178846
 20
5288.496809489447
 30
0.0
  0
ENDBLK
  5
813F
330
7D1A
100
AcDbEntity
  8
0
100
AcDbBlockEnd
  0
BLOCK
  5
8140
330
7D26
100
AcDbEntity
  8
0
100
AcDbBlockBegin
  2
*D3
 70
     1
 10
0.0
 20
0.0
 30
0.0
  3
*D3
  1

  0
LINE
  5
83F1
330
7D26
100
AcDbEntity
  8
3
 62
     0
440
 16777216
370
    -2
100
AcDbLine
 10
6078.039116178846
 20
5185.719398998529
 30
0.0
 11
6078.039116178846
 21
5328.10922238426
 31
0.0
  0
LINE
  5
83F2
330
7D26
100
AcDbEntity
  8
3
 62
     0
440
 16777216
370
    -2
100
AcDbLine
 10
7097.539116178847
 20
3871.929658934045
 30
0.0
 11
7097.539116178847
 21
5328.10922238426
 31
0.0
  0
LINE
  5
83F3
330
7D26
100
AcDbEntity
  8
3
 62
     0
440
 16777216
370
    -2
100
AcDbLine
 10
6158.039116178847
 20
5288.10922238426
 30
0.0
 11
7017.539116178847
 21
5288.10922238426
 31
0.0
  0
INSERT
  5
83F4
330
7D26
100
AcDbEntity
  8
3
 62
     0
440
 16777216
370
    -2
100
AcDbBlockReference
  2
_OPEN
 10
6078.039116178846
 20
5288.10922238426
 30
0.0
 41
80.0
 42
80.0
 43
80.0
 50
180.0
  0
INSERT
  5
83F5
330
7D26
100
AcDbEntity
  8
3
 62
     0
440
 16777216
370
    -2
100
AcDbBlockReference
  2
_OPEN
 10
7097.539116178847
 20
5288.10922238426
 30
0.0
 41
80.0
 42
80.0
 43
80.0
  0
MTEXT
  5
83F6
330
7D26
100
AcDbEntity
  8
3
 62
     0
440
 16777216
100
AcDbMText
 10
6587.789116178846
 20
5419.537793812832
 30
0.0
 40
120.0
 41
0.0
 46
0.0
 71
     5
 72
     1
  1
\A1;(1020)
 73
     1
 44
1.0
  0
POINT
  5
83F7
330
7D26
100
AcDbEntity
  8
DEFPOINTS
 62
     0
440
 16777216
100
AcDbPoint
 10
6078.039116178846
 20
5165.719398998528
 30
0.0
  0
POINT
  5
83F8
330
7D26
100
AcDbEntity
  8
DEFPOINTS
 62
     0
440
 16777216
100
AcDbPoint
 10
7097.539116178847
 20
3851.929658934045
 30
0.0
  0
POINT
  5
83F9
330
7D26
100
AcDbEntity
  8
DEFPOINTS
 62
     0
440
 16777216
100
AcDbPoint
 10
7097.539116178847
 20
5288.10922238426
 30
0.0
  0
ENDBLK
  5
814A
330
7D26
100
AcDbEntity
  8
0
100
AcDbBlockEnd
  0
BLOCK
  5
801E
330
7D32
100
AcDbEntity
  8
0
100
AcDbBlockBegin
  2
*D4
 70
     1
 10
0.0
 20
0.0
 30
0.0
  3
*D4
  1

  0
LINE
  5
82BF
330
7D32
100
AcDbEntity
  8
3
 62
     0
440
 16777216
100
AcDbLine
 10
6950.339116178849
 20
4552.929658934044
 30
0.0
 11
7379.30874109135
 21
4552.929658934044
 31
0.0
  0
LINE
  5
82C0
330
7D32
100
AcDbEntity
  8
3
 62
     0
440
 16777216
100
AcDbLine
 10
6950.339116178849
 20
3302.929658934044
 30
0.0
 11
7379.30874109135
 21
3302.929658934043
 31
0.0
  0
LINE
  5
82C1
330
7D32
100
AcDbEntity
  8
3
 62
     0
440
 16777216
100
AcDbLine
 10
7339.30874109135
 20
4472.929658934044
 30
0.0
 11
7339.30874109135
 21
3382.929658934044
 31
0.0
  0
INSERT
  5
82C2
330
7D32
100
AcDbEntity
  8
3
 62
     0
440
 16777216
100
AcDbBlockReference
  2
_OPEN
 10
7339.30874109135
 20
4552.929658934044
 30
0.0
 41
80.0
 42
80.0
 43
80.0
 50
90.0
  0
INSERT
  5
82C3
330
7D32
100
AcDbEntity
  8
3
 62
     0
440
 16777216
100
AcDbBlockReference
  2
_OPEN
 10
7339.30874109135
 20
3302.929658934043
 30
0.0
 41
80.0
 42
80.0
 43
80.0
 50
270.0
  0
MTEXT
  5
82C4
330
7D32
100
AcDbEntity
  8
3
 62
     0
440
 16777216
100
AcDbMText
 10
7239.308741091349
 20
3927.929658934046
 30
0.0
 40
120.0
 41
0.0
 46
0.0
 71
     5
 72
     5
  1
\A1;φ1250
 11
0.0000000000000001
 21
1.0
 31
0.0
 73
     1
 44
1.0
  0
POINT
  5
82C5
330
7D32
100
AcDbEntity
  8
DEFPOINTS
 62
     0
440
 16777216
100
AcDbPoint
 10
6930.339116178848
 20
4552.929658934044
 30
0.0
  0
POINT
  5
82C6
330
7D32
100
AcDbEntity
  8
DEFPOINTS
 62
     0
440
 16777216
100
AcDbPoint
 10
6930.339116178848
 20
3302.929658934044
 30
0.0
  0
POINT
  5
82C7
330
7D32
100
AcDbEntity
  8
DEFPOINTS
 62
     0
440
 16777216
100
AcDbPoint
 10
7339.30874109135
 20
3302.929658934043
 30
0.0
  0
ENDBLK
  5
8028
330
7D32
100
AcDbEntity
  8
0
100
AcDbBlockEnd
  0
BLOCK
  5
81C1
330
7D3E
100
AcDbEntity
  8
0
100
AcDbBlockBegin
  2
*D5
 70
     1
 10
0.0
 20
0.0
 30
0.0
  3
*D5
  1

  0
LINE
  5
82C8
330
7D3E
100
AcDbEntity
  8
3
 62
     0
440
 16777216
100
AcDbLine
 10
4887.039116178846
 20
2677.929658934045
 30
0.0
 11
4887.039116178846
 21
2337.614040301978
 31
0.0
  0
LINE
  5
82C9
330
7D3E
100
AcDbEntity
  8
3
 62
     0
440
 16777216
100
AcDbLine
 10
6078.039116178846
 20
2677.929658934045
 30
0.0
 11
6078.039116178846
 21
2337.614040301978
 31
0.0
  0
LINE
  5
82CA
330
7D3E
100
AcDbEntity
  8
3
 62
     0
440
 16777216
100
AcDbLine
 10
4967.039116178845
 20
2377.614040301978
 30
0.0
 11
5998.039116178846
 21
2377.614040301978
 31
0.0
  0
INSERT
  5
82CB
330
7D3E
100
AcDbEntity
  8
3
 62
     0
440
 16777216
100
AcDbBlockReference
  2
_OPEN
 10
4887.039116178846
 20
2377.614040301978
 30
0.0
 41
80.0
 42
80.0
 43
80.0
 50
180.0
  0
INSERT
  5
82CC
330
7D3E
100
AcDbEntity
  8
3
 62
     0
440
 16777216
100
AcDbBlockReference
  2
_OPEN
 10
6078.039116178846
 20
2377.614040301978
 30
0.0
 41
80.0
 42
80.0
 43
80.0
  0
MTEXT
  5
82CD
330
7D3E
100
AcDbEntity
  8
3
 62
     0
440
 16777216
100
AcDbMText
 10
5482.539116178846
 20
2477.614040301978
 30
0.0
 40
120.0
 41
0.0
 46
0.0
 71
     5
 72
     5
  1
\A1;1191
 73
     1
 44
1.0
  0
POINT
  5
82CE
330
7D3E
100
AcDbEntity
  8
DEFPOINTS
 62
     0
440
 16777216
100
AcDbPoint
 10
4887.039116178846
 20
2697.929658934045
 30
0.0
  0
POINT
  5
82CF
330
7D3E
100
AcDbEntity
  8
DEFPOINTS
 62
     0
440
 16777216
100
AcDbPoint
 10
6078.039116178846
 20
2697.929658934045
 30
0.0
  0
POINT
  5
82D0
330
7D3E
100
AcDbEntity
  8
DEFPOINTS
 62
     0
440
 16777216
100
AcDbPoint
 10
6078.039116178846
 20
2377.614040301978
 30
0.0
  0
ENDBLK
  5
81CB
330
7D3E
100
AcDbEntity
  8
0
100
AcDbBlockEnd
  0
BLOCK
  5
81B6
330
7D4A
100
AcDbEntity
  8
0
100
AcDbBlockBegin
  2
*D6
 70
     1
 10
0.0
 20
0.0
 30
0.0
  3
*D6
  1

  0
LINE
  5
82D1
330
7D4A
100
AcDbEntity
  8
3
 62
     0
440
 16777216
100
AcDbLine
 10
6078.039116178846
 20
2677.929658934045
 30
0.0
 11
6078.039116178846
 21
2337.614040301978
 31
0.0
  0
LINE
  5
82D2
330
7D4A
100
AcDbEntity
  8
3
 62
     0
440
 16777216
100
AcDbLine
 10
7007.039116178846
 20
2677.929658934045
 30
0.0
 11
7007.039116178846
 21
2337.614040301978
 31
0.0
  0
LINE
  5
82D3
330
7D4A
100
AcDbEntity
  8
3
 62
     0
440
 16777216
100
AcDbLine
 10
6158.039116178845
 20
2377.614040301978
 30
0.0
 11
6927.039116178846
 21
2377.614040301978
 31
0.0
  0
INSERT
  5
82D4
330
7D4A
100
AcDbEntity
  8
3
 62
     0
440
 16777216
100
AcDbBlockReference
  2
_OPEN
 10
6078.039116178846
 20
2377.614040301978
 30
0.0
 41
80.0
 42
80.0
 43
80.0
 50
180.0
  0
INSERT
  5
82D5
330
7D4A
100
AcDbEntity
  8
3
 62
     0
440
 16777216
100
AcDbBlockReference
  2
_OPEN
 10
7007.039116178846
 20
2377.614040301978
 30
0.0
 41
80.0
 42
80.0
 43
80.0
  0
MTEXT
  5
82D6
330
7D4A
100
AcDbEntity
  8
3
 62
     0
440
 16777216
100
AcDbMText
 10
6542.539116178847
 20
2477.614040301978
 30
0.0
 40
120.0
 41
0.0
 46
0.0
 71
     5
 72
     5
  1
\A1;929
 73
     1
 44
1.0
  0
POINT
  5
82D7
330
7D4A
100
AcDbEntity
  8
DEFPOINTS
 62
     0
440
 16777216
100
AcDbPoint
 10
6078.039116178846
 20
2697.929658934045
 30
0.0
  0
POINT
  5
82D8
330
7D4A
100
AcDbEntity
  8
DEFPOINTS
 62
     0
440
 16777216
100
AcDbPoint
 10
7007.039116178846
 20
2697.929658934045
 30
0.0
  0
POINT
  5
82D9
330
7D4A
100
AcDbEntity
  8
DEFPOINTS
 62
     0
440
 16777216
100
AcDbPoint
 10
7007.039116178846
 20
2377.614040301978
 30
0.0
  0
ENDBLK
  5
81C0
330
7D4A
100
AcDbEntity
  8
0
100
AcDbBlockEnd
  0
BLOCK
  5
81E2
330
7D62
100
AcDbEntity
  8
0
100
AcDbBlockBegin
  2
*D7
 70
     1
 10
0.0
 20
0.0
 30
0.0
  3
*D7
  1

  0
LINE
  5
82DA
330
7D62
100
AcDbEntity
  8
3
 62
     0
440
 16777216
100
AcDbLine
 10
1680.169444624878
 20
8716.437268273022
 30
0.0
 11
1211.153303389045
 21
8716.437268273022
 31
0.0
  0
LINE
  5
82DB
330
7D62
100
AcDbEntity
  8
3
 62
     0
440
 16777216
100
AcDbLine
 10
1680.169444624878
 20
6596.437268273021
 30
0.0
 11
1211.153303389044
 21
6596.437268273021
 31
0.0
  0
LINE
  5
82DC
330
7D62
100
AcDbEntity
  8
3
 62
     0
440
 16777216
100
AcDbLine
 10
1251.153303389045
 20
8636.43726827302
 30
0.0
 11
1251.153303389045
 21
6676.437268273023
 31
0.0
  0
INSERT
  5
82DD
330
7D62
100
AcDbEntity
  8
3
 62
     0
440
 16777216
100
AcDbBlockReference
  2
_OPEN
 10
1251.153303389045
 20
8716.437268273022
 30
0.0
 41
80.0
 42
80.0
 43
80.0
 50
90.0
  0
INSERT
  5
82DE
330
7D62
100
AcDbEntity
  8
3
 62
     0
440
 16777216
100
AcDbBlockReference
  2
_OPEN
 10
1251.153303389044
 20
6596.437268273021
 30
0.0
 41
80.0
 42
80.0
 43
80.0
 50
270.0
  0
MTEXT
  5
82DF
330
7D62
100
AcDbEntity
  8
3
 62
     0
440
 16777216
100
AcDbMText
 10
1151.153303389043
 20
7656.437268273021
 30
0.0
 40
120.0
 41
0.0
 46
0.0
 71
     5
 72
     5
  1
\A1;2120
 11
0.0000000000000001
 21
1.0
 31
0.0
 73
     1
 44
1.0
  0
POINT
  5
82E0
330
7D62
100
AcDbEntity
  8
DEFPOINTS
 62
     0
440
 16777216
100
AcDbPoint
 10
1700.169444624878
 20
8716.437268273022
 30
0.0
  0
POINT
  5
82E1
330
7D62
100
AcDbEntity
  8
DEFPOINTS
 62
     0
440
 16777216
100
AcDbPoint
 10
1700.169444624878
 20
6596.437268273021
 30
0.0
  0
POINT
  5
82E2
330
7D62
100
AcDbEntity
  8
DEFPOINTS
 62
     0
440
 16777216
100
AcDbPoint
 10
1251.153303389044
 20
6596.437268273021
 30
0.0
  0
ENDBLK
  5
81EC
330
7D62
100
AcDbEntity
  8
0
100
AcDbBlockEnd
  0
BLOCK
  5
7FE7
330
7D6E
100
AcDbEntity
  8
0
100
AcDbBlockBegin
  2
*D8
 70
     1
 10
0.0
 20
0.0
 30
0.0
  3
*D8
  1

  0
LINE
  5
82E3
330
7D6E
100
AcDbEntity
  8
3
 62
     0
440
 16777216
100
AcDbLine
 10
1700.169444624878
 20
8736.43726827302
 30
0.0
 11
1700.169444624878
 21
8961.073406778208
 31
0.0
  0
LINE
  5
82E4
330
7D6E
100
AcDbEntity
  8
3
 62
     0
440
 16777216
100
AcDbLine
 10
3200.169444624878
 20
8736.437268273023
 30
0.0
 11
3200.169444624878
 21
8961.073406778208
 31
0.0
  0
LINE
  5
82E5
330
7D6E
100
AcDbEntity
  8
3
 62
     0
440
 16777216
100
AcDbLine
 10
1780.169444624878
 20
8921.073406778207
 30
0.0
 11
3120.169444624878
 21
8921.073406778207
 31
0.0
  0
INSERT
  5
82E6
330
7D6E
100
AcDbEntity
  8
3
 62
     0
440
 16777216
100
AcDbBlockReference
  2
_OPEN
 10
1700.169444624878
 20
8921.073406778207
 30
0.0
 41
80.0
 42
80.0
 43
80.0
 50
180.0
  0
INSERT
  5
82E7
330
7D6E
100
AcDbEntity
  8
3
 62
     0
440
 16777216
100
AcDbBlockReference
  2
_OPEN
 10
3200.169444624878
 20
8921.073406778207
 30
0.0
 41
80.0
 42
80.0
 43
80.0
  0
MTEXT
  5
82E8
330
7D6E
100
AcDbEntity
  8
3
 62
     0
440
 16777216
100
AcDbMText
 10
2450.169444624878
 20
9021.073406778207
 30
0.0
 40
120.0
 41
0.0
 46
0.0
 71
     5
 72
     5
  1
\A1;1500
 73
     1
 44
1.0
  0
POINT
  5
82E9
330
7D6E
100
AcDbEntity
  8
DEFPOINTS
 62
     0
440
 16777216
100
AcDbPoint
 10
1700.169444624878
 20
8716.437268273022
 30
0.0
  0
POINT
  5
82EA
330
7D6E
100
AcDbEntity
  8
DEFPOINTS
 62
     0
440
 16777216
100
AcDbPoint
 10
3200.169444624878
 20
8716.437268273024
 30
0.0
  0
POINT
  5
82EB
330
7D6E
100
AcDbEntity
  8
DEFPOINTS
 62
     0
440
 16777216
100
AcDbPoint
 10
3200.169444624878
 20
8921.073406778207
 30
0.0
  0
ENDBLK
  5
7FF1
330
7D6E
100
AcDbEntity
  8
0
100
AcDbBlockEnd
  0
BLOCK
  5
821B
330
7D7A
100
AcDbEntity
  8
0
100
AcDbBlockBegin
  2
*D9
 70
     1
 10
0.0
 20
0.0
 30
0.0
  3
*D9
  1

  0
LINE
  5
82EC
330
7D7A
100
AcDbEntity
  8
3
 62
     0
440
 16777216
100
AcDbLine
 10
3200.169444624878
 20
8736.437268273023
 30
0.0
 11
3200.169444624878
 21
8961.073406778208
 31
0.0
  0
LINE
  5
82ED
330
7D7A
100
AcDbEntity
  8
3
 62
     0
440
 16777216
100
AcDbLine
 10
4350.169444624878
 20
7716.437268273023
 30
0.0
 11
4350.169444624878
 21
8961.073406778208
 31
0.0
  0
LINE
  5
82EE
330
7D7A
100
AcDbEntity
  8
3
 62
     0
440
 16777216
100
AcDbLine
 10
3280.169444624879
 20
8921.073406778207
 30
0.0
 11
4270.169444624879
 21
8921.073406778207
 31
0.0
  0
INSERT
  5
82EF
330
7D7A
100
AcDbEntity
  8
3
 62
     0
440
 16777216
100
AcDbBlockReference
  2
_OPEN
 10
3200.169444624878
 20
8921.073406778207
 30
0.0
 41
80.0
 42
80.0
 43
80.0
 50
180.0
  0
INSERT
  5
82F0
330
7D7A
100
AcDbEntity
  8
3
 62
     0
440
 16777216
100
AcDbBlockReference
  2
_OPEN
 10
4350.169444624878
 20
8921.073406778207
 30
0.0
 41
80.0
 42
80.0
 43
80.0
  0
MTEXT
  5
82F1
330
7D7A
100
AcDbEntity
  8
3
 62
     0
440
 16777216
100
AcDbMText
 10
3775.169444624879
 20
9021.073406778207
 30
0.0
 40
120.0
 41
0.0
 46
0.0
 71
     5
 72
     5
  1
\A1;1150
 73
     1
 44
1.0
  0
POINT
  5
82F2
330
7D7A
100
AcDbEntity
  8
DEFPOINTS
 62
     0
440
 16777216
100
AcDbPoint
 10
3200.169444624878
 20
8716.437268273024
 30
0.0
  0
POINT
  5
82F3
330
7D7A
100
AcDbEntity
  8
DEFPOINTS
 62
     0
440
 16777216
100
AcDbPoint
 10
4350.169444624878
 20
7696.437268273022
 30
0.0
  0
POINT
  5
82F4
330
7D7A
100
AcDbEntity
  8
DEFPOINTS
 62
     0
440
 16777216
100
AcDbPoint
 10
4350.169444624878
 20
8921.073406778207
 30
0.0
  0
ENDBLK
  5
8225
330
7D7A
100
AcDbEntity
  8
0
100
AcDbBlockEnd
  0
BLOCK
  5
81F8
330
7D85
100
AcDbEntity
  8
0
100
AcDbBlockBegin
  2
*D10
 70
     1
 10
0.0
 20
0.0
 30
0.0
  3
*D10
  1

  0
LINE
  5
82F5
330
7D85
100
AcDbEntity
  8
3
 62
     0
440
 16777216
100
AcDbLine
 10
4370.169444624878
 20
7696.437268273022
 30
0.0
 11
4656.495845732457
 21
7696.437268273022
 31
0.0
  0
LINE
  5
82F6
330
7D85
100
AcDbEntity
  8
3
 62
     0
440
 16777216
100
AcDbLine
 10
4370.169444624878
 20
6596.437268273023
 30
0.0
 11
4656.495845732457
 21
6596.437268273023
 31
0.0
  0
LINE
  5
82F7
330
7D85
100
AcDbEntity
  8
3
 62
     0
440
 16777216
100
AcDbLine
 10
4616.495845732457
 20
7616.437268273023
 30
0.0
 11
4616.495845732457
 21
6676.437268273023
 31
0.0
  0
INSERT
  5
82F8
330
7D85
100
AcDbEntity
  8
3
 62
     0
440
 16777216
100
AcDbBlockReference
  2
_OPEN
 10
4616.495845732457
 20
7696.437268273022
 30
0.0
 41
80.0
 42
80.0
 43
80.0
 50
90.0
  0
INSERT
  5
82F9
330
7D85
100
AcDbEntity
  8
3
 62
     0
440
 16777216
100
AcDbBlockReference
  2
_OPEN
 10
4616.495845732457
 20
6596.437268273023
 30
0.0
 41
80.0
 42
80.0
 43
80.0
 50
270.0
  0
MTEXT
  5
82FA
330
7D85
100
AcDbEntity
  8
3
 62
     0
440
 16777216
100
AcDbMText
 10
4516.495845732456
 20
7146.437268273024
 30
0.0
 40
120.0
 41
0.0
 46
0.0
 71
     5
 72
     5
  1
\A1;1100
 11
0.0000000000000001
 21
1.0
 31
0.0
 73
     1
 44
1.0
  0
POINT
  5
82FB
330
7D85
100
AcDbEntity
  8
DEFPOINTS
 62
     0
440
 16777216
100
AcDbPoint
 10
4350.169444624878
 20
7696.437268273022
 30
0.0
  0
POINT
  5
82FC
330
7D85
100
AcDbEntity
  8
DEFPOINTS
 62
     0
440
 16777216
100
AcDbPoint
 10
4350.169444624878
 20
6596.437268273023
 30
0.0
  0
POINT
  5
82FD
330
7D85
100
AcDbEntity
  8
DEFPOINTS
 62
     0
440
 16777216
100
AcDbPoint
 10
4616.495845732457
 20
6596.437268273023
 30
0.0
  0
ENDBLK
  5
8202
330
7D85
100
AcDbEntity
  8
0
100
AcDbBlockEnd
  0
BLOCK
  5
8210
330
7D91
100
AcDbEntity
  8
0
100
AcDbBlockBegin
  2
*D11
 70
     1
 10
0.0
 20
0.0
 30
0.0
  3
*D11
  1

  0
LINE
  5
82FE
330
7D91
100
AcDbEntity
  8
3
 62
     0
440
 16777216
100
AcDbLine
 10
4350.169444624878
 20
6576.437268273022
 30
0.0
 11
4350.169444624878
 21
6191.68339008337
 31
0.0
  0
LINE
  5
82FF
330
7D91
100
AcDbEntity
  8
3
 62
     0
440
 16777216
100
AcDbLine
 10
1700.169444624878
 20
6576.437268273022
 30
0.0
 11
1700.169444624878
 21
6191.68339008337
 31
0.0
  0
LINE
  5
8300
330
7D91
100
AcDbEntity
  8
3
 62
     0
440
 16777216
100
AcDbLine
 10
4270.169444624879
 20
6231.68339008337
 30
0.0
 11
1780.169444624878
 21
6231.68339008337
 31
0.0
  0
INSERT
  5
8301
330
7D91
100
AcDbEntity
  8
3
 62
     0
440
 16777216
100
AcDbBlockReference
  2
_OPEN
 10
4350.169444624878
 20
6231.68339008337
 30
0.0
 41
80.0
 42
80.0
 43
80.0
  0
INSERT
  5
8302
330
7D91
100
AcDbEntity
  8
3
 62
     0
440
 16777216
100
AcDbBlockReference
  2
_OPEN
 10
1700.169444624878
 20
6231.68339008337
 30
0.0
 41
80.0
 42
80.0
 43
80.0
 50
180.0
  0
MTEXT
  5
8303
330
7D91
100
AcDbEntity
  8
3
 62
     0
440
 16777216
100
AcDbMText
 10
3025.169444624879
 20
6331.683390083369
 30
0.0
 40
120.0
 41
0.0
 46
0.0
 71
     5
 72
     5
  1
\A1;2650
 73
     1
 44
1.0
  0
POINT
  5
8304
330
7D91
100
AcDbEntity
  8
DEFPOINTS
 62
     0
440
 16777216
100
AcDbPoint
 10
4350.169444624878
 20
6596.437268273023
 30
0.0
  0
POINT
  5
8305
330
7D91
100
AcDbEntity
  8
DEFPOINTS
 62
     0
440
 16777216
100
AcDbPoint
 10
1700.169444624878
 20
6596.437268273021
 30
0.0
  0
POINT
  5
8306
330
7D91
100
AcDbEntity
  8
DEFPOINTS
 62
     0
440
 16777216
100
AcDbPoint
 10
1700.169444624878
 20
6231.68339008337
 30
0.0
  0
ENDBLK
  5
821A
330
7D91
100
AcDbEntity
  8
0
100
AcDbBlockEnd
  0
BLOCK
  5
816C
330
7D9D
100
AcDbEntity
  8
0
100
AcDbBlockBegin
  2
*D12
 70
     1
 10
0.0
 20
0.0
 30
0.0
  3
*D12
  1

  0
LINE
  5
8307
330
7D9D
100
AcDbEntity
  8
3
 62
     0
440
 16777216
100
AcDbLine
 10
1700.169444624878
 20
2677.929658934045
 30
0.0
 11
1700.169444624878
 21
2341.268205257806
 31
0.0
  0
LINE
  5
8308
330
7D9D
100
AcDbEntity
  8
3
 62
     0
440
 16777216
100
AcDbLine
 10
2450.169444624878
 20
2677.929658934045
 30
0.0
 11
2450.169444624878
 21
2341.268205257806
 31
0.0
  0
LINE
  5
8309
330
7D9D
100
AcDbEntity
  8
3
 62
     0
440
 16777216
100
AcDbLine
 10
1780.169444624878
 20
2381.268205257806
 30
0.0
 11
2370.169444624878
 21
2381.268205257806
 31
0.0
  0
INSERT
  5
830A
330
7D9D
100
AcDbEntity
  8
3
 62
     0
440
 16777216
100
AcDbBlockReference
  2
_OPEN
 10
1700.169444624878
 20
2381.268205257806
 30
0.0
 41
80.0
 42
80.0
 43
80.0
 50
180.0
  0
INSERT
  5
830B
330
7D9D
100
AcDbEntity
  8
3
 62
     0
440
 16777216
100
AcDbBlockReference
  2
_OPEN
 10
2450.169444624878
 20
2381.268205257806
 30
0.0
 41
80.0
 42
80.0
 43
80.0
  0
MTEXT
  5
830C
330
7D9D
100
AcDbEntity
  8
3
 62
     0
440
 16777216
100
AcDbMText
 10
2075.169444624878
 20
2481.268205257806
 30
0.0
 40
120.0
 41
0.0
 46
0.0
 71
     5
 72
     5
  1
\A1;750
 73
     1
 44
1.0
  0
POINT
  5
830D
330
7D9D
100
AcDbEntity
  8
DEFPOINTS
 62
     0
440
 16777216
100
AcDbPoint
 10
1700.169444624878
 20
2697.929658934045
 30
0.0
  0
POINT
  5
830E
330
7D9D
100
AcDbEntity
  8
DEFPOINTS
 62
     0
440
 16777216
100
AcDbPoint
 10
2450.169444624878
 20
2697.929658934045
 30
0.0
  0
POINT
  5
830F
330
7D9D
100
AcDbEntity
  8
DEFPOINTS
 62
     0
440
 16777216
100
AcDbPoint
 10
2450.169444624878
 20
2381.268205257806
 30
0.0
  0
ENDBLK
  5
8176
330
7D9D
100
AcDbEntity
  8
0
100
AcDbBlockEnd
  0
BLOCK
  5
7FB0
330
7DA9
100
AcDbEntity
  8
0
100
AcDbBlockBegin
  2
*D13
 70
     1
 10
0.0
 20
0.0
 30
0.0
  3
*D13
  1

  0
LINE
  5
8310
330
7DA9
100
AcDbEntity
  8
3
 62
     0
440
 16777216
100
AcDbLine
 10
3784.169444624879
 20
4772.929658934045
 30
0.0
 11
3784.169444624879
 21
5045.940691624003
 31
0.0
  0
LINE
  5
8311
330
7DA9
100
AcDbEntity
  8
3
 62
     0
440
 16777216
100
AcDbLine
 10
2504.169444624878
 20
4772.929658934045
 30
0.0
 11
2504.169444624878
 21
5045.940691624003
 31
0.0
  0
LINE
  5
8312
330
7DA9
100
AcDbEntity
  8
3
 62
     0
440
 16777216
100
AcDbLine
 10
3704.169444624878
 20
5005.940691624002
 30
0.0
 11
2584.169444624878
 21
5005.940691624002
 31
0.0
  0
INSERT
  5
8313
330
7DA9
100
AcDbEntity
  8
3
 62
     0
440
 16777216
100
AcDbBlockReference
  2
_OPEN
 10
3784.169444624879
 20
5005.940691624002
 30
0.0
 41
80.0
 42
80.0
 43
80.0
  0
INSERT
  5
8314
330
7DA9
100
AcDbEntity
  8
3
 62
     0
440
 16777216
100
AcDbBlockReference
  2
_OPEN
 10
2504.169444624878
 20
5005.940691624002
 30
0.0
 41
80.0
 42
80.0
 43
80.0
 50
180.0
  0
MTEXT
  5
8315
330
7DA9
100
AcDbEntity
  8
3
 62
     0
440
 16777216
100
AcDbMText
 10
3144.169444624879
 20
5105.940691624002
 30
0.0
 40
120.0
 41
0.0
 46
0.0
 71
     5
 72
     5
  1
\A1;1280
 73
     1
 44
1.0
  0
POINT
  5
8316
330
7DA9
100
AcDbEntity
  8
DEFPOINTS
 62
     0
440
 16777216
100
AcDbPoint
 10
3784.169444624879
 20
4752.929658934045
 30
0.0
  0
POINT
  5
8317
330
7DA9
100
AcDbEntity
  8
DEFPOINTS
 62
     0
440
 16777216
100
AcDbPoint
 10
2504.169444624878
 20
4752.929658934045
 30
0.0
  0
POINT
  5
8318
330
7DA9
100
AcDbEntity
  8
DEFPOINTS
 62
     0
440
 16777216
100
AcDbPoint
 10
2504.169444624878
 20
5005.940691624002
 30
0.0
  0
ENDBLK
  5
7FBA
330
7DA9
100
AcDbEntity
  8
0
100
AcDbBlockEnd
  0
BLOCK
  5
7FA5
330
7DB5
100
AcDbEntity
  8
0
100
AcDbBlockBegin
  2
*D14
 70
     1
 10
0.0
 20
0.0
 30
0.0
  3
*D14
  1

  0
LINE
  5
8319
330
7DB5
100
AcDbEntity
  8
3
 62
     0
440
 16777216
100
AcDbLine
 10
3784.169444624879
 20
4772.929658934045
 30
0.0
 11
3784.169444624879
 21
5293.003534080532
 31
0.0
  0
LINE
  5
831A
330
7DB5
100
AcDbEntity
  8
3
 62
     0
440
 16777216
100
AcDbLine
 10
2450.169444624878
 20
4851.366197182898
 30
0.0
 11
2450.169444624878
 21
5293.003534080532
 31
0.0
  0
LINE
  5
831B
330
7DB5
100
AcDbEntity
  8
3
 62
     0
440
 16777216
100
AcDbLine
 10
3704.169444624878
 20
5253.003534080532
 30
0.0
 11
2530.169444624879
 21
5253.003534080532
 31
0.0
  0
INSERT
  5
831C
330
7DB5
100
AcDbEntity
  8
3
 62
     0
440
 16777216
100
AcDbBlockReference
  2
_OPEN
 10
3784.169444624879
 20
5253.003534080532
 30
0.0
 41
80.0
 42
80.0
 43
80.0
  0
INSERT
  5
831D
330
7DB5
100
AcDbEntity
  8
3
 62
     0
440
 16777216
100
AcDbBlockReference
  2
_OPEN
 10
2450.169444624878
 20
5253.003534080532
 30
0.0
 41
80.0
 42
80.0
 43
80.0
 50
180.0
  0
MTEXT
  5
831E
330
7DB5
100
AcDbEntity
  8
3
 62
     0
440
 16777216
100
AcDbMText
 10
3117.169444624879
 20
5353.003534080531
 30
0.0
 40
120.0
 41
0.0
 46
0.0
 71
     5
 72
     5
  1
\A1;1334
 73
     1
 44
1.0
  0
POINT
  5
831F
330
7DB5
100
AcDbEntity
  8
DEFPOINTS
 62
     0
440
 16777216
100
AcDbPoint
 10
3784.169444624879
 20
4752.929658934045
 30
0.0
  0
POINT
  5
8320
330
7DB5
100
AcDbEntity
  8
DEFPOINTS
 62
     0
440
 16777216
100
AcDbPoint
 10
2450.169444624878
 20
4831.366197182897
 30
0.0
  0
POINT
  5
8321
330
7DB5
100
AcDbEntity
  8
DEFPOINTS
 62
     0
440
 16777216
100
AcDbPoint
 10
2450.169444624878
 20
5253.003534080532
 30
0.0
  0
ENDBLK
  5
7FAF
330
7DB5
100
AcDbEntity
  8
0
100
AcDbBlockEnd
  0
BLOCK
  5
81AB
330
7DC1
100
AcDbEntity
  8
0
100
AcDbBlockBegin
  2
*D15
 70
     1
 10
0.0
 20
0.0
 30
0.0
  3
*D15
  1

  0
LINE
  5
8322
330
7DC1
100
AcDbEntity
  8
3
 62
     0
440
 16777216
100
AcDbLine
 10
4350.169444624878
 20
2677.929658934045
 30
0.0
 11
4350.169444624878
 21
2341.041703518546
 31
0.0
  0
LINE
  5
8323
330
7DC1
100
AcDbEntity
  8
3
 62
     0
440
 16777216
100
AcDbLine
 10
2450.169444624878
 20
2677.929658934045
 30
0.0
 11
2450.169444624878
 21
2341.041703518546
 31
0.0
  0
LINE
  5
8324
330
7DC1
100
AcDbEntity
  8
3
 62
     0
440
 16777216
100
AcDbLine
 10
4270.169444624879
 20
2381.041703518546
 30
0.0
 11
2530.169444624879
 21
2381.041703518546
 31
0.0
  0
INSERT
  5
8325
330
7DC1
100
AcDbEntity
  8
3
 62
     0
440
 16777216
100
AcDbBlockReference
  2
_OPEN
 10
4350.169444624878
 20
2381.041703518546
 30
0.0
 41
80.0
 42
80.0
 43
80.0
  0
INSERT
  5
8326
330
7DC1
100
AcDbEntity
  8
3
 62
     0
440
 16777216
100
AcDbBlockReference
  2
_OPEN
 10
2450.169444624878
 20
2381.041703518546
 30
0.0
 41
80.0
 42
80.0
 43
80.0
 50
180.0
  0
MTEXT
  5
8327
330
7DC1
100
AcDbEntity
  8
3
 62
     0
440
 16777216
100
AcDbMText
 10
3400.169444624879
 20
2481.041703518546
 30
0.0
 40
120.0
 41
0.0
 46
0.0
 71
     5
 72
     5
  1
\A1;1900
 73
     1
 44
1.0
  0
POINT
  5
8328
330
7DC1
100
AcDbEntity
  8
DEFPOINTS
 62
     0
440
 16777216
100
AcDbPoint
 10
4350.169444624878
 20
2697.929658934045
 30
0.0
  0
POINT
  5
8329
330
7DC1
100
AcDbEntity
  8
DEFPOINTS
 62
     0
440
 16777216
100
AcDbPoint
 10
2450.169444624878
 20
2697.929658934045
 30
0.0
  0
POINT
  5
832A
330
7DC1
100
AcDbEntity
  8
DEFPOINTS
 62
     0
440
 16777216
100
AcDbPoint
 10
2450.169444624878
 20
2381.041703518546
 30
0.0
  0
ENDBLK
  5
81B5
330
7DC1
100
AcDbEntity
  8
0
100
AcDbBlockEnd
  0
BLOCK
  5
7F84
330
7DD9
100
AcDbEntity
  8
0
100
AcDbBlockBegin
  2
*D16
 70
     1
 10
0.0
 20
0.0
 30
0.0
  3
*D16
  1

  0
LINE
  5
832B
330
7DD9
100
AcDbEntity
  8
3
 62
     0
440
 16777216
100
AcDbLine
 10
2431.169444624879
 20
4752.929658934045
 30
0.0
 11
1245.934760259599
 21
4752.929658934045
 31
0.0
  0
LINE
  5
832C
330
7DD9
100
AcDbEntity
  8
3
 62
     0
440
 16777216
100
AcDbLine
 10
1444.143307902599
 20
3927.929658934045
 30
0.0
 11
1245.934760259599
 21
3927.929658934045
 31
0.0
  0
LINE
  5
832D
330
7DD9
100
AcDbEntity
  8
3
 62
     0
440
 16777216
100
AcDbLine
 10
1285.934760259599
 20
4672.929658934045
 30
0.0
 11
1285.934760259599
 21
4007.929658934044
 31
0.0
  0
INSERT
  5
832E
330
7DD9
100
AcDbEntity
  8
3
 62
     0
440
 16777216
100
AcDbBlockReference
  2
_OPEN
 10
1285.934760259599
 20
4752.929658934045
 30
0.0
 41
80.0
 42
80.0
 43
80.0
 50
90.0
  0
INSERT
  5
832F
330
7DD9
100
AcDbEntity
  8
3
 62
     0
440
 16777216
100
AcDbBlockReference
  2
_OPEN
 10
1285.934760259599
 20
3927.929658934045
 30
0.0
 41
80.0
 42
80.0
 43
80.0
 50
270.0
  0
MTEXT
  5
8330
330
7DD9
100
AcDbEntity
  8
3
 62
     0
440
 16777216
100
AcDbMText
 10
1185.934760259598
 20
4340.429658934045
 30
0.0
 40
120.0
 41
0.0
 46
0.0
 71
     5
 72
     5
  1
\A1;825
 11
0.0000000000000001
 21
1.0
 31
0.0
 73
     1
 44
1.0
  0
POINT
  5
8331
330
7DD9
100
AcDbEntity
  8
DEFPOINTS
 62
     0
440
 16777216
100
AcDbPoint
 10
2451.169444624879
 20
4752.929658934045
 30
0.0
  0
POINT
  5
8332
330
7DD9
100
AcDbEntity
  8
DEFPOINTS
 62
     0
440
 16777216
100
AcDbPoint
 10
1464.143307902599
 20
3927.929658934045
 30
0.0
  0
POINT
  5
8333
330
7DD9
100
AcDbEntity
  8
DEFPOINTS
 62
     0
440
 16777216
100
AcDbPoint
 10
1285.934760259599
 20
3927.929658934045
 30
0.0
  0
ENDBLK
  5
7F8E
330
7DD9
100
AcDbEntity
  8
0
100
AcDbBlockEnd
  0
BLOCK
  5
7F79
330
7DE5
100
AcDbEntity
  8
0
100
AcDbBlockBegin
  2
*D17
 70
     1
 10
0.0
 20
0.0
 30
0.0
  3
*D17
  1

  0
LINE
  5
8334
330
7DE5
100
AcDbEntity
  8
3
 62
     0
440
 16777216
100
AcDbLine
 10
1444.143307902599
 20
3927.929658934045
 30
0.0
 11
1245.934760259599
 21
3927.929658934045
 31
0.0
  0
LINE
  5
8335
330
7DE5
100
AcDbEntity
  8
3
 62
     0
440
 16777216
100
AcDbLine
 10
1680.169444624878
 20
2817.929658934045
 30
0.0
 11
1245.934760259599
 21
2817.929658934045
 31
0.0
  0
LINE
  5
8336
330
7DE5
100
AcDbEntity
  8
3
 62
     0
440
 16777216
100
AcDbLine
 10
1285.934760259599
 20
3847.929658934045
 30
0.0
 11
1285.934760259599
 21
2897.929658934044
 31
0.0
  0
INSERT
  5
8337
330
7DE5
100
AcDbEntity
  8
3
 62
     0
440
 16777216
100
AcDbBlockReference
  2
_OPEN
 10
1285.934760259599
 20
3927.929658934045
 30
0.0
 41
80.0
 42
80.0
 43
80.0
 50
90.0
  0
INSERT
  5
8338
330
7DE5
100
AcDbEntity
  8
3
 62
     0
440
 16777216
100
AcDbBlockReference
  2
_OPEN
 10
1285.934760259599
 20
2817.929658934045
 30
0.0
 41
80.0
 42
80.0
 43
80.0
 50
270.0
  0
MTEXT
  5
8339
330
7DE5
100
AcDbEntity
  8
3
 62
     0
440
 16777216
100
AcDbMText
 10
1185.934760259598
 20
3372.929658934045
 30
0.0
 40
120.0
 41
0.0
 46
0.0
 71
     5
 72
     5
  1
\A1;1110
 11
0.0000000000000001
 21
1.0
 31
0.0
 73
     1
 44
1.0
  0
POINT
  5
833A
330
7DE5
100
AcDbEntity
  8
DEFPOINTS
 62
     0
440
 16777216
100
AcDbPoint
 10
1464.143307902599
 20
3927.929658934045
 30
0.0
  0
POINT
  5
833B
330
7DE5
100
AcDbEntity
  8
DEFPOINTS
 62
     0
440
 16777216
100
AcDbPoint
 10
1700.169444624878
 20
2817.929658934045
 30
0.0
  0
POINT
  5
833C
330
7DE5
100
AcDbEntity
  8
DEFPOINTS
 62
     0
440
 16777216
100
AcDbPoint
 10
1285.934760259599
 20
2817.929658934045
 30
0.0
  0
ENDBLK
  5
7F83
330
7DE5
100
AcDbEntity
  8
0
100
AcDbBlockEnd
  0
BLOCK
  5
8193
330
7DFE
100
AcDbEntity
  8
0
100
AcDbBlockBegin
  2
*D18
 70
     1
 10
0.0
 20
0.0
 30
0.0
  3
*D18
  1

  0
LINE
  5
833D
330
7DFE
100
AcDbEntity
  8
3
 62
     0
440
 16777216
100
AcDbLine
 10
1680.169444624878
 20
2772.929658934045
 30
0.0
 11
1245.934760259599
 21
2772.929658934045
 31
0.0
  0
LINE
  5
833E
330
7DFE
100
AcDbEntity
  8
3
 62
     0
440
 16777216
100
AcDbLine
 10
1680.169444624878
 20
2697.929658934045
 30
0.0
 11
1245.934760259599
 21
2697.929658934045
 31
0.0
  0
LINE
  5
833F
330
7DFE
100
AcDbEntity
  8
3
 62
     0
440
 16777216
100
AcDbLine
 10
1285.934760259599
 20
2852.929658934045
 30
0.0
 11
1285.934760259599
 21
2932.929658934045
 31
0.0
  0
LINE
  5
8340
330
7DFE
100
AcDbEntity
  8
3
 62
     0
440
 16777216
100
AcDbLine
 10
1285.934760259599
 20
2617.929658934045
 30
0.0
 11
1285.934760259599
 21
2263.64394464833
 31
0.0
  0
LINE
  5
8341
330
7DFE
100
AcDbEntity
  8
3
 62
     0
440
 16777216
100
AcDbLine
 10
1285.934760259599
 20
2772.929658934045
 30
0.0
 11
1285.934760259599
 21
2697.929658934045
 31
0.0
  0
INSERT
  5
8342
330
7DFE
100
AcDbEntity
  8
3
 62
     0
440
 16777216
100
AcDbBlockReference
  2
_DOT
 10
1285.934760259599
 20
2772.929658934045
 30
0.0
 41
80.0
 42
80.0
 43
80.0
 50
270.0
  0
INSERT
  5
8343
330
7DFE
100
AcDbEntity
  8
3
 62
     0
440
 16777216
100
AcDbBlockReference
  2
_OPEN
 10
1285.934760259599
 20
2697.929658934045
 30
0.0
 41
80.0
 42
80.0
 43
80.0
 50
90.0
  0
MTEXT
  5
8344
330
7DFE
100
AcDbEntity
  8
3
 62
     0
440
 16777216
100
AcDbMText
 10
1185.934760259598
 20
2400.786801791188
 30
0.0
 40
120.0
 41
0.0
 46
0.0
 71
     5
 72
     5
  1
\A1;75
 11
0.0000000000000001
 21
1.0
 31
0.0
 73
     1
 44
1.0
  0
POINT
  5
8345
330
7DFE
100
AcDbEntity
  8
DEFPOINTS
 62
     0
440
 16777216
100
AcDbPoint
 10
1700.169444624878
 20
2772.929658934045
 30
0.0
  0
POINT
  5
8346
330
7DFE
100
AcDbEntity
  8
DEFPOINTS
 62
     0
440
 16777216
100
AcDbPoint
 10
1700.169444624878
 20
2697.929658934045
 30
0.0
  0
POINT
  5
8347
330
7DFE
100
AcDbEntity
  8
DEFPOINTS
 62
     0
440
 16777216
100
AcDbPoint
 10
1285.934760259599
 20
2697.929658934045
 30
0.0
  0
ENDBLK
  5
819F
330
7DFE
100
AcDbEntity
  8
0
100
AcDbBlockEnd
  0
BLOCK
  5
81A0
330
7E18
100
AcDbEntity
  8
0
100
AcDbBlockBegin
  2
*D19
 70
     1
 10
0.0
 20
0.0
 30
0.0
  3
*D19
  1

  0
LINE
  5
8348
330
7E18
100
AcDbEntity
  8
3
 62
     0
440
 16777216
100
AcDbLine
 10
4350.169444624878
 20
2962.929658934045
 30
0.0
 11
4350.169444624878
 21
5534.836675797563
 31
0.0
  0
LINE
  5
8349
330
7E18
100
AcDbEntity
  8
3
 62
     0
440
 16777216
100
AcDbLine
 10
1553.169444624878
 20
3856.929658934045
 30
0.0
 11
1553.169444624878
 21
5534.836675797563
 31
0.0
  0
LINE
  5
834A
330
7E18
100
AcDbEntity
  8
3
 62
     0
440
 16777216
100
AcDbLine
 10
4270.169444624879
 20
5494.836675797563
 30
0.0
 11
1633.169444624878
 21
5494.836675797563
 31
0.0
  0
INSERT
  5
834B
330
7E18
100
AcDbEntity
  8
3
 62
     0
440
 16777216
100
AcDbBlockReference
  2
_OPEN
 10
4350.169444624878
 20
5494.836675797563
 30
0.0
 41
80.0
 42
80.0
 43
80.0
  0
INSERT
  5
834C
330
7E18
100
AcDbEntity
  8
3
 62
     0
440
 16777216
100
AcDbBlockReference
  2
_OPEN
 10
1553.169444624878
 20
5494.836675797563
 30
0.0
 41
80.0
 42
80.0
 43
80.0
 50
180.0
  0
MTEXT
  5
834D
330
7E18
100
AcDbEntity
  8
3
 62
     0
440
 16777216
100
AcDbMText
 10
2951.669444624879
 20
5594.836675797563
 30
0.0
 40
120.0
 41
0.0
 46
0.0
 71
     5
 72
     5
  1
\A1;2797
 73
     1
 44
1.0
  0
POINT
  5
834E
330
7E18
100
AcDbEntity
  8
DEFPOINTS
 62
     0
440
 16777216
100
AcDbPoint
 10
4350.169444624878
 20
2942.929658934045
 30
0.0
  0
POINT
  5
834F
330
7E18
100
AcDbEntity
  8
DEFPOINTS
 62
     0
440
 16777216
100
AcDbPoint
 10
1553.169444624878
 20
3836.929658934045
 30
0.0
  0
POINT
  5
8350
330
7E18
100
AcDbEntity
  8
DEFPOINTS
 62
     0
440
 16777216
100
AcDbPoint
 10
1553.169444624878
 20
5494.836675797563
 30
0.0
  0
ENDBLK
  5
81AA
330
7E18
100
AcDbEntity
  8
0
100
AcDbBlockEnd
  0
BLOCK
  5
7F3E
330
7E24
100
AcDbEntity
  8
0
100
AcDbBlockBegin
  2
*D20
 70
     1
 10
0.0
 20
0.0
 30
0.0
  3
*D20
  1

  0
LINE
  5
8351
330
7E24
100
AcDbEntity
  8
3
 62
     0
440
 16777216
100
AcDbLine
 10
2450.169444624878
 20
4851.366197182898
 30
0.0
 11
2450.169444624878
 21
5293.003534080532
 31
0.0
  0
LINE
  5
8352
330
7E24
100
AcDbEntity
  8
3
 62
     0
440
 16777216
100
AcDbLine
 10
1553.169444624878
 20
3856.929658934045
 30
0.0
 11
1553.169444624878
 21
5293.003534080532
 31
0.0
  0
LINE
  5
8353
330
7E24
100
AcDbEntity
  8
3
 62
     0
440
 16777216
100
AcDbLine
 10
2370.169444624878
 20
5253.003534080532
 30
0.0
 11
1633.169444624878
 21
5253.003534080532
 31
0.0
  0
INSERT
  5
8354
330
7E24
100
AcDbEntity
  8
3
 62
     0
440
 16777216
100
AcDbBlockReference
  2
_OPEN
 10
2450.169444624878
 20
5253.003534080532
 30
0.0
 41
80.0
 42
80.0
 43
80.0
  0
INSERT
  5
8355
330
7E24
100
AcDbEntity
  8
3
 62
     0
440
 16777216
100
AcDbBlockReference
  2
_OPEN
 10
1553.169444624878
 20
5253.003534080532
 30
0.0
 41
80.0
 42
80.0
 43
80.0
 50
180.0
  0
MTEXT
  5
8356
330
7E24
100
AcDbEntity
  8
3
 62
     0
440
 16777216
100
AcDbMText
 10
2001.669444624878
 20
5353.003534080531
 30
0.0
 40
120.0
 41
0.0
 46
0.0
 71
     5
 72
     5
  1
\A1;897
 73
     1
 44
1.0
  0
POINT
  5
8357
330
7E24
100
AcDbEntity
  8
DEFPOINTS
 62
     0
440
 16777216
100
AcDbPoint
 10
2450.169444624878
 20
4831.366197182897
 30
0.0
  0
POINT
  5
8358
330
7E24
100
AcDbEntity
  8
DEFPOINTS
 62
     0
440
 16777216
100
AcDbPoint
 10
1553.169444624878
 20
3836.929658934045
 30
0.0
  0
POINT
  5
8359
330
7E24
100
AcDbEntity
  8
DEFPOINTS
 62
     0
440
 16777216
100
AcDbPoint
 10
1553.169444624878
 20
5253.003534080532
 30
0.0
  0
ENDBLK
  5
7F48
330
7E24
100
AcDbEntity
  8
0
100
AcDbBlockEnd
  0
BLOCK
  5
7F39
330
7F38
100
AcDbEntity
  8
0
100
AcDbBlockBegin
  2
_OPEN
 70
     0
 10
0.0
 20
0.0
 30
0.0
  3
_OPEN
  1

  0
LINE
  5
7F3A
330
7F38
100
AcDbEntity
  8
0
  6
ByBlock
 62
     0
100
AcDbLine
 10
-1.0
 20
0.1666666666666666
 30
0.0
 11
0.0
 21
0.0
 31
0.0
  0
LINE
  5
7F3B
330
7F38
100
AcDbEntity
  8
0
  6
ByBlock
 62
     0
100
AcDbLine
 10
0.0
 20
0.0
 30
0.0
 11
-1.0
 21
-0.1666666666666666
 31
0.0
  0
LINE
  5
7F3C
330
7F38
100
AcDbEntity
  8
0
  6
ByBlock
 62
     0
100
AcDbLine
 10
0.0
 20
0.0
 30
0.0
 11
-1.0
 21
0.0
 31
0.0
  0
ENDBLK
  5
7F3D
330
7F38
100
AcDbEntity
  8
0
100
AcDbBlockEnd
  0
BLOCK
  5
80CD
330
80CC
100
AcDbEntity
  8
0
100
AcDbBlockBegin
  2
_DOT
 70
     0
 10
0.0
 20
0.0
 30
0.0
  3
_DOT
  1

  0
LINE
  5
80EE
330
80CC
100
AcDbEntity
  8
0
  6
ByBlock
 62
     0
100
AcDbLine
 10
0.0
 20
0.0
 30
0.0
 11
-1.0
 21
-0.0000000000000284
 31
0.0
  0
LWPOLYLINE
  5
80EF
330
80CC
100
AcDbEntity
  8
0
  6
ByBlock
 62
     0
100
AcDbPolyline
 90
        2
 70
     1
 43
0.1666666666666666
 10
-0.0833333333333286
 20
-0.0000000000000284
 42
1.0
 10
0.0833333333333286
 20
-0.0000000000000284
 42
1.0
  0
ENDBLK
  5
80D3
330
80CC
100
AcDbEntity
  8
0
100
AcDbBlockEnd
  0
BLOCK
  5
822F
330
822E
100
AcDbEntity
  8
0
100
AcDbBlockBegin
  2
_NONE
 70
     0
 10
0.0
 20
0.0
 30
0.0
  3
_NONE
  1

  0
CIRCLE
  5
8230
330
822E
100
AcDbEntity
  8
0
  6
ByBlock
 62
     0
100
AcDbCircle
 10
0.0
 20
0.0
 30
0.0
 40
0.25
  0
ENDBLK
  5
8231
330
822E
100
AcDbEntity
  8
0
100
AcDbBlockEnd
  0
BLOCK
  5
8260
330
8232
100
AcDbEntity
  8
0
100
AcDbBlockBegin
  2
*D24
 70
     1
 10
0.0
 20
0.0
 30
0.0
  3
*D24
  1

  0
LINE
  5
8261
330
8232
100
AcDbEntity
  8
0
  6
ByBlock
 62
     0
440
 16777216
100
AcDbLine
 10
1289.263283677843
 20
2772.929658934045
 30
0.0
 11
1289.263283677843
 21
2772.929658934045
 31
0.0
  0
LINE
  5
8262
330
8232
100
AcDbEntity
  8
0
  6
ByBlock
 62
     0
440
 16777216
100
AcDbLine
 10
1289.263283677843
 20
2817.929658934045
 30
0.0
 11
1289.263283677843
 21
2977.929658934045
 31
0.0
  0
MTEXT
  5
8263
330
8232
100
AcDbEntity
  8
0
  6
ByBlock
 62
     0
440
 16777216
100
AcDbMText
 10
1097.834712249271
 20
2795.429658934045
 30
0.0
 40
120.0
 41
0.0
 46
0.0
 71
     5
 72
     5
  1
\A1;   (45)
 11
0.0
 21
1.0
 31
0.0
 73
     1
 44
1.0
  0
LINE
  5
8264
330
8232
100
AcDbEntity
  8
0
  6
ByBlock
 62
     0
440
 16777216
100
AcDbLine
 10
1289.263283677843
 20
2772.929658934045
 30
0.0
 11
1289.263283677843
 21
2817.929658934045
 31
0.0
  0
POINT
  5
8265
330
8232
100
AcDbEntity
  8
DEFPOINTS
  6
ByBlock
 62
     0
440
 16777216
100
AcDbPoint
 10
1700.169444624878
 20
2772.929658934045
 30
0.0
  0
POINT
  5
8266
330
8232
100
AcDbEntity
  8
DEFPOINTS
  6
ByBlock
 62
     0
440
 16777216
100
AcDbPoint
 10
1700.169444624878
 20
2817.929658934045
 30
0.0
  0
POINT
  5
8267
330
8232
100
AcDbEntity
  8
DEFPOINTS
  6
ByBlock
 62
     0
440
 16777216
100
AcDbPoint
 10
1289.263283677843
 20
2817.929658934045
 30
0.0
  0
ENDBLK
  5
8268
330
8232
100
AcDbEntity
  8
0
100
AcDbBlockEnd
  0
BLOCK
  5
823E
330
823D
100
AcDbEntity
  8
0
100
AcDbBlockBegin
  2
*D25
 70
     1
 10
0.0
 20
0.0
 30
0.0
  3
*D25
  1

  0
LINE
  5
823F
330
823D
100
AcDbEntity
  8
0
  6
ByBlock
 62
     0
440
 16777216
100
AcDbLine
 10
2431.169444624879
 20
4752.929658934045
 30
0.0
 11
911.3230045800156
 21
4752.929658934045
 31
0.0
  0
LINE
  5
8240
330
823D
100
AcDbEntity
  8
0
  6
ByBlock
 62
     0
440
 16777216
100
AcDbLine
 10
1680.169444624878
 20
2697.929658934045
 30
0.0
 11
911.3230045800156
 21
2697.929658934045
 31
0.0
  0
LINE
  5
8241
330
823D
100
AcDbEntity
  8
0
  6
ByBlock
 62
     0
440
 16777216
100
AcDbLine
 10
951.3230045800154
 20
4672.929658934044
 30
0.0
 11
951.3230045800154
 21
2777.929658934045
 31
0.0
  0
INSERT
  5
8242
330
823D
100
AcDbEntity
  8
0
  6
ByBlock
 62
     0
440
 16777216
100
AcDbBlockReference
  2
_OPEN
 10
951.3230045800154
 20
4752.929658934045
 30
0.0
 41
80.0
 42
80.0
 43
80.0
 50
90.0
  0
INSERT
  5
8243
330
823D
100
AcDbEntity
  8
0
  6
ByBlock
 62
     0
440
 16777216
100
AcDbBlockReference
  2
_OPEN
 10
951.3230045800154
 20
2697.929658934045
 30
0.0
 41
80.0
 42
80.0
 43
80.0
 50
270.0
  0
MTEXT
  5
8244
330
823D
100
AcDbEntity
  8
0
  6
ByBlock
 62
     0
440
 16777216
100
AcDbMText
 10
819.8944331514441
 20
3725.429658934045
 30
0.0
 40
120.0
 41
0.0
 46
0.0
 71
     5
 72
     5
  1
\A1;(2055)
 11
0.0
 21
1.0
 31
0.0
 73
     1
 44
1.0
  0
POINT
  5
8245
330
823D
100
AcDbEntity
  8
DEFPOINTS
  6
ByBlock
 62
     0
440
 16777216
100
AcDbPoint
 10
2451.169444624879
 20
4752.929658934045
 30
0.0
  0
POINT
  5
8246
330
823D
100
AcDbEntity
  8
DEFPOINTS
  6
ByBlock
 62
     0
440
 16777216
100
AcDbPoint
 10
1700.169444624878
 20
2697.929658934045
 30
0.0
  0
POINT
  5
8247
330
823D
100
AcDbEntity
  8
DEFPOINTS
  6
ByBlock
 62
     0
440
 16777216
100
AcDbPoint
 10
951.3230045800154
 20
2697.929658934045
 30
0.0
  0
ENDBLK
  5
8248
330
823D
100
AcDbEntity
  8
0
100
AcDbBlockEnd
  0
ENDSEC
  0
SECTION
  2
ENTITIES
  0
INSERT
  5
7C21
330
19
100
AcDbEntity
  8
1
100
AcDbBlockReference
  2
YA_N
 10
6.0
 20
5.0
 30
0.0
  0
LINE
  5
7C22
330
19
100
AcDbEntity
  8
2
100
AcDbLine
 10
2450.169444624878
 20
4793.547459956273
 30
0.0
 11
2450.169444624878
 21
2697.929658934045
 31
0.0
  0
LINE
  5
7C23
330
19
100
AcDbEntity
  8
1
100
AcDbLine
 10
4887.039116178847
 20
2817.929658934045
 30
0.0
 11
7007.039116178846
 21
2817.929658934045
 31
0.0
1001
ACAD
1000
ASC_BOUNDS
1002
{
1070
    19
1005
0
1005
0
1002
}
  0
LINE
  5
7C24
330
19
100
AcDbEntity
  8
1
100
AcDbLine
 10
4887.039116178847
 20
2942.929658934045
 30
0.0
 11
7007.039116178848
 21
2942.929658934045
 31
0.0
  0
LINE
  5
7C25
330
19
100
AcDbEntity
  8
1
100
AcDbLine
 10
6928.039116178847
 20
4752.929658934045
 30
0.0
 11
6928.039116178848
 21
3927.929658934045
 31
0.0
  0
LINE
  5
7C26
330
19
100
AcDbEntity
  8
1
100
AcDbLine
 10
5228.039116178846
 20
4752.929658934045
 30
0.0
 11
5228.039116178846
 21
3927.929658934045
 31
0.0
  0
LINE
  5
7C27
330
19
100
AcDbEntity
  8
2
100
AcDbLine
 10
1546.732906376026
 20
3927.929658934045
 30
0.0
 11
3873.04781917224
 21
3927.929658934045
 31
0.0
  0
LINE
  5
7C28
330
19
100
AcDbEntity
  8
2
100
AcDbLine
 10
4862.739116178847
 20
3927.929658934045
 30
0.0
 11
7111.549602418083
 21
3927.929658934045
 31
0.0
  0
LINE
  5
7C29
330
19
100
AcDbEntity
  8
2
100
AcDbLine
 10
4766.53638958247
 20
3202.929658934044
 30
0.0
 11
5721.489116178848
 21
3202.929658934044
 31
0.0
  0
LINE
  5
7C2A
330
19
100
AcDbEntity
  8
1
100
AcDbLine
 10
4883.039116178848
 20
3308.929658934044
 30
0.0
 11
4960.939116178846
 21
3308.929658934044
 31
0.0
  0
LINE
  5
7C2B
330
19
100
AcDbEntity
  8
1
100
AcDbLine
 10
4883.039116178848
 20
3096.929658934044
 30
0.0
 11
4960.939116178847
 21
3096.929658934044
 31
0.0
  0
LINE
  5
7C2C
330
19
100
AcDbEntity
  8
1
100
AcDbLine
 10
4981.039116178847
 20
3997.929658934045
 30
0.0
 11
4981.039116178847
 21
3857.929658934045
 31
0.0
  0
LINE
  5
7C2D
330
19
100
AcDbEntity
  8
1
100
AcDbLine
 10
4960.939116178847
 20
4181.929658934044
 30
0.0
 11
4960.939116178847
 21
3997.929658934045
 31
0.0
  0
LINE
  5
7C2E
330
19
100
AcDbEntity
  8
1
100
AcDbLine
 10
4960.939116178847
 20
3997.929658934045
 30
0.0
 11
4981.039116178847
 21
3997.929658934045
 31
0.0
  0
LINE
  5
7C2F
330
19
100
AcDbEntity
  8
1
100
AcDbLine
 10
4960.939116178846
 20
3857.929658934045
 30
0.0
 11
4981.039116178847
 21
3857.929658934045
 31
0.0
  0
LINE
  5
7C30
330
19
100
AcDbEntity
  8
1
100
AcDbLine
 10
4960.939116178847
 20
3857.929658934045
 30
0.0
 11
4960.939116178847
 21
3262.929658934044
 31
0.0
  0
LINE
  5
7C31
330
19
100
AcDbEntity
  8
1
100
AcDbLine
 10
4883.039116178848
 20
4181.929658934044
 30
0.0
 11
4883.039116178848
 21
3096.929658934044
 31
0.0
  0
LINE
  5
7C32
330
19
100
AcDbEntity
  8
1
100
AcDbLine
 10
4976.039116178847
 20
3262.929658934044
 30
0.0
 11
4976.039116178847
 21
3142.929658934044
 31
0.0
  0
LINE
  5
7C33
330
19
100
AcDbEntity
  8
1
100
AcDbLine
 10
4960.939116178847
 20
3262.929658934044
 30
0.0
 11
4976.039116178847
 21
3262.929658934044
 31
0.0
  0
LINE
  5
7C34
330
19
100
AcDbEntity
  8
1
100
AcDbLine
 10
4960.939116178847
 20
3142.929658934044
 30
0.0
 11
4976.039116178847
 21
3142.929658934044
 31
0.0
  0
LINE
  5
7C35
330
19
100
AcDbEntity
  8
1
100
AcDbLine
 10
4960.939116178847
 20
3142.929658934044
 30
0.0
 11
4960.939116178847
 21
3096.929658934044
 31
0.0
  0
LINE
  5
7C36
330
19
100
AcDbEntity
  8
1
100
AcDbLine
 10
4758.039116178848
 20
2982.929658934045
 30
0.0
 11
5043.039116178848
 21
2982.929658934045
 31
0.0
  0
LINE
  5
7C37
330
19
100
AcDbEntity
  8
1
100
AcDbLine
 10
4758.039116178848
 20
4307.929658934045
 30
0.0
 11
4758.039116178848
 21
2982.929658934045
 31
0.0
  0
LINE
  5
7C38
330
19
100
AcDbEntity
  8
1
100
AcDbLine
 10
5043.039116178846
 20
4307.929658934045
 30
0.0
 11
5043.039116178848
 21
4287.929658934045
 31
0.0
  0
LINE
  5
7C39
330
19
100
AcDbEntity
  8
2
100
AcDbLine
 10
2450.169444624878
 20
8816.121610998788
 30
0.0
 11
2450.169444624878
 21
6467.437268273025
 31
0.0
  0
LINE
  5
7C3A
330
19
100
AcDbEntity
  8
2
100
AcDbLine
 10
4070.169444624879
 20
7441.887268273024
 30
0.0
 11
4070.169444624879
 21
6467.437268273025
 31
0.0
  0
LINE
  5
7C3B
330
19
100
AcDbEntity
  8
2
100
AcDbLine
 10
6078.039116178846
 20
4963.074884636642
 30
0.0
 11
6078.039116178846
 21
2697.929658934045
 31
0.0
  0
INSERT
  5
7C3C
330
19
100
AcDbEntity
  8
1
100
AcDbBlockReference
  2
YA_N
 10
-1757.227407310314
 20
-1218.786417457781
 30
0.0
 41
30.0
 42
30.0
 43
30.0
  0
INSERT
  5
7C3D
330
19
100
AcDbEntity
  8
1
100
AcDbBlockReference
  2
YA_N
 10
-755.2436758818475
 20
-538.554984833856
 30
0.0
 41
30.0
 42
30.0
 43
30.0
  0
LINE
  5
7C3E
330
19
100
AcDbEntity
  8
1
100
AcDbLine
 10
4887.039116178844
 20
2772.929658934045
 30
0.0
 11
7007.039116178848
 21
2772.929658934045
 31
0.0
1001
ACAD
1000
ASC_BOUNDS
1002
{
1070
    19
1005
0
1005
0
1002
}
  0
LINE
  5
7C3F
330
19
100
AcDbEntity
  8
1
100
AcDbLine
 10
4887.039116178846
 20
2697.929658934045
 30
0.0
 11
7007.039116178846
 21
2697.929658934045
 31
0.0
  0
LINE
  5
7C40
330
19
100
AcDbEntity
  8
1
100
AcDbLine
 10
7007.039116178846
 20
2772.929658934045
 30
0.0
 11
7007.039116178846
 21
2697.929658934045
 31
0.0
  0
LINE
  5
7C41
330
19
100
AcDbEntity
  8
1
100
AcDbLine
 10
6928.039116178847
 20
3928.929658934045
 30
0.0
 11
6928.039116178847
 21
2942.929658934045
 31
0.0
  0
LINE
  5
7C42
330
19
100
AcDbEntity
  8
1
100
AcDbLine
 10
5228.039116178846
 20
3928.929658934045
 30
0.0
 11
5228.039116178845
 21
3412.929658934046
 31
0.0
  0
LINE
  5
7C43
330
19
100
AcDbEntity
  8
1
100
AcDbLine
 10
1700.169444624878
 20
8716.437268273022
 30
0.0
 11
3200.169444624878
 21
8716.437268273024
 31
0.0
  0
LINE
  5
7C44
330
19
100
AcDbEntity
  8
1
100
AcDbLine
 10
1700.169444624878
 20
6596.437268273021
 30
0.0
 11
4350.169444624878
 21
6596.437268273023
 31
0.0
  0
LINE
  5
7C45
330
19
100
AcDbEntity
  8
1
100
AcDbLine
 10
1700.169444624878
 20
8716.437268273022
 30
0.0
 11
1700.169444624878
 21
8637.437268273025
 31
0.0
  0
LINE
  5
7C46
330
19
100
AcDbEntity
  8
1
100
AcDbLine
 10
4350.169444624878
 20
7696.437268273022
 30
0.0
 11
4350.169444624878
 21
6596.437268273021
 31
0.0
  0
LINE
  5
7C47
330
19
100
AcDbEntity
  8
1
100
AcDbLine
 10
3200.169444624878
 20
8716.437268273022
 30
0.0
 11
3200.169444624878
 21
8637.437268273025
 31
0.0
  0
LINE
  5
7C48
330
19
100
AcDbEntity
  8
1
100
AcDbLine
 10
3784.169444624879
 20
7696.437268273022
 30
0.0
 11
4350.169444624878
 21
7696.437268273022
 31
0.0
  0
DIMENSION
  5
7C49
330
19
100
AcDbEntity
  8
3
100
AcDbDimension
280
     0
  2
*D1
 10
6928.039116178847
 20
5000.007557733631
 30
0.0
 11
6078.039116178846
 21
5100.007557733632
 31
0.0
 70
    32
 71
     5
 42
-1.0
 73
     0
 74
     0
 75
     0
  3
IGA
100
AcDbAlignedDimension
 13
5228.039116178846
 23
4737.552421855573
 33
0.0
 14
6928.039116178847
 24
4737.552421855573
 34
0.0
100
AcDbRotatedDimension
1001
ACAD
1000
DSTYLE
1002
{
1070
   287
1070
     3
1070
    40
1040
40.0
1070
   143
1040
0.039
1070
   172
1070
     1
1070
   271
1070
     0
1070
   279
1070
     0
1070
   288
1070
     1
1002
}
  0
LINE
  5
7C4A
330
19
100
AcDbEntity
  8
1
100
AcDbLine
 10
5070.539116178847
 20
3851.929658934045
 30
0.0
 11
5070.539116178847
 21
3721.929658934044
 31
0.0
  0
LINE
  5
7C4B
330
19
100
AcDbEntity
  8
1
100
AcDbLine
 10
5210.539116178846
 20
3861.929658934045
 30
0.0
 11
5210.539116178846
 21
3711.929658934045
 31
0.0
  0
LINE
  5
7C4C
330
19
100
AcDbEntity
  8
1
100
AcDbLine
 10
5080.539116178847
 20
3861.929658934045
 30
0.0
 11
5150.739116178848
 21
3861.929658934045
 31
0.0
  0
LINE
  5
7C4D
330
19
100
AcDbEntity
  8
1
100
AcDbLine
 10
5080.539116178847
 20
3711.929658934045
 30
0.0
 11
5150.739116178848
 21
3711.929658934045
 31
0.0
  0
ARC
  5
7C4E
330
19
100
AcDbEntity
  8
1
100
AcDbCircle
 10
5080.539116178847
 20
3851.929658934045
 30
0.0
 40
10.0
100
AcDbArc
 50
90.0
 51
180.0
  0
ARC
  5
7C4F
330
19
100
AcDbEntity
  8
1
100
AcDbCircle
 10
5080.539116178847
 20
3721.929658934044
 30
0.0
 40
10.0
100
AcDbArc
 50
180.0
 51
270.0
  0
LINE
  5
7C50
330
19
100
AcDbEntity
  8
1
100
AcDbLine
 10
5150.739116178847
 20
3711.929658934045
 30
0.0
 11
5210.539116178846
 21
3711.929658934045
 31
0.0
  0
LINE
  5
7C51
330
19
100
AcDbEntity
  8
1
100
AcDbLine
 10
5150.739116178847
 20
3861.929658934045
 30
0.0
 11
5210.539116178846
 21
3861.929658934045
 31
0.0
  0
LINE
  5
7C52
330
19
100
AcDbEntity
  8
1
100
AcDbLine
 10
7097.539116178847
 20
3851.929658934045
 30
0.0
 11
7097.539116178847
 21
3721.929658934044
 31
0.0
  0
LINE
  5
7C53
330
19
100
AcDbEntity
  8
1
100
AcDbLine
 10
6957.539116178847
 20
3861.929658934045
 30
0.0
 11
6957.539116178847
 21
3711.929658934045
 31
0.0
  0
LINE
  5
7C54
330
19
100
AcDbEntity
  8
1
100
AcDbLine
 10
7087.539116178847
 20
3711.929658934045
 30
0.0
 11
7017.339116178845
 21
3711.929658934045
 31
0.0
  0
ARC
  5
7C55
330
19
100
AcDbEntity
  8
1
100
AcDbCircle
 10
7087.539116178847
 20
3721.929658934044
 30
0.0
 40
10.0
100
AcDbArc
 50
270.0
 51
0.0
  0
LINE
  5
7C56
330
19
100
AcDbEntity
  8
1
100
AcDbLine
 10
7017.339116178845
 20
3711.929658934045
 30
0.0
 11
6957.539116178847
 21
3711.929658934045
 31
0.0
  0
LINE
  5
7C57
330
19
100
AcDbEntity
  8
1
100
AcDbLine
 10
7087.539116178847
 20
3861.929658934045
 30
0.0
 11
7017.339116178845
 21
3861.929658934045
 31
0.0
  0
ARC
  5
7C58
330
19
100
AcDbEntity
  8
1
100
AcDbCircle
 10
7087.539116178847
 20
3851.929658934045
 30
0.0
 40
10.0
100
AcDbArc
 50
0.0
 51
90.0
  0
LINE
  5
7C59
330
19
100
AcDbEntity
  8
1
100
AcDbLine
 10
7017.339116178845
 20
3861.929658934045
 30
0.0
 11
6957.539116178847
 21
3861.929658934045
 31
0.0
  0
DIMENSION
  5
7C5B
330
19
100
AcDbEntity
  8
3
100
AcDbDimension
280
     0
  2
*D2
 10
6078.039116178846
 20
5288.496809489447
 30
0.0
 11
5418.039116178846
 21
5419.925380918019
 31
0.0
 70
    32
  1
(<>)
 71
     5
 42
1319.999999999999
 73
     0
 74
     0
 75
     0
  3
IGA
100
AcDbAlignedDimension
 13
4758.039116178848
 23
4207.929658934045
 33
0.0
 14
6078.039116178846
 24
5165.719398998528
 34
0.0
100
AcDbRotatedDimension
1001
ACAD
1000
DSTYLE
1002
{
1070
   287
1070
     3
1070
    40
1040
40.0
1070
   143
1040
0.039
1070
   172
1070
     1
1070
   271
1070
     0
1070
   279
1070
     0
1070
   288
1070
     1
1002
}
  0
DIMENSION
  5
7C5C
330
19
100
AcDbEntity
  8
3
100
AcDbDimension
280
     0
  2
*D3
 10
7097.539116178847
 20
5288.10922238426
 30
0.0
 11
6587.789116178846
 21
5419.537793812832
 31
0.0
 70
    32
  1
(<>)
 71
     5
 42
1019.5
 73
     0
 74
     0
 75
     0
  3
IGA
100
AcDbAlignedDimension
 13
6078.039116178846
 23
5165.719398998528
 33
0.0
 14
7097.539116178847
 24
3851.929658934045
 34
0.0
100
AcDbRotatedDimension
1001
ACAD
1000
DSTYLE
1002
{
1070
   287
1070
     3
1070
    40
1040
40.0
1070
   143
1040
0.039
1070
   172
1070
     1
1070
   271
1070
     0
1070
   279
1070
     0
1070
   288
1070
     1
1002
}
  0
DIMENSION
  5
7C5D
330
19
100
AcDbEntity
  8
3
100
AcDbDimension
280
     0
  2
*D4
 10
7339.30874109135
 20
3302.929658934043
 30
0.0
 11
7239.308741091349
 21
3927.929658934046
 31
0.0
 70
    32
  1
φ<>
 71
     5
 42
-1.0
 73
     0
 74
     0
 75
     0
  3
IGA
100
AcDbAlignedDimension
 13
6930.339116178848
 23
4552.929658934044
 33
0.0
 14
6930.339116178848
 24
3302.929658934044
 34
0.0
 50
90.0
100
AcDbRotatedDimension
1001
ACAD
1000
DSTYLE
1002
{
1070
   287
1070
     3
1070
    40
1040
40.0
1070
   143
1040
0.039
1070
   172
1070
     1
1070
   271
1070
     0
1070
   279
1070
     0
1070
   288
1070
     1
1002
}
  0
LINE
  5
7C5E
330
19
100
AcDbEntity
  8
1
100
AcDbLine
 10
4883.039116178848
 20
4181.929658934044
 30
0.0
 11
4960.939116178846
 21
4181.929658934044
 31
0.0
  0
LINE
  5
7C5F
330
19
100
AcDbEntity
  8
1
100
AcDbLine
 10
4883.039116178848
 20
3673.929658934045
 30
0.0
 11
4960.939116178846
 21
3673.929658934045
 31
0.0
  0
LINE
  5
7C60
330
19
100
AcDbEntity
  8
1
100
AcDbLine
 10
4758.039116178847
 20
4307.929658934045
 30
0.0
 11
5043.039116178846
 21
4307.929658934045
 31
0.0
  0
LINE
  5
7C61
330
19
100
AcDbEntity
  8
1
100
AcDbLine
 10
5043.039116178848
 20
3002.929658934045
 30
0.0
 11
5043.039116178848
 21
2982.929658934045
 31
0.0
  0
INSERT
  5
7C62
330
19
100
AcDbEntity
  8
1
100
AcDbBlockReference
  2
YA_N
 10
4767.943419715615
 20
-1494.695868425497
 30
0.0
  0
LINE
  5
7C63
330
19
100
AcDbEntity
  8
1
100
AcDbLine
 10
7007.039116178846
 20
2942.929658934045
 30
0.0
 11
7007.039116178846
 21
2817.929658934045
 31
0.0
  0
LINE
  5
7C64
330
19
100
AcDbEntity
  8
1
100
AcDbLine
 10
4887.039116178846
 20
2772.929658934045
 30
0.0
 11
4887.039116178847
 21
2697.929658934045
 31
0.0
  0
LINE
  5
7C65
330
19
100
AcDbEntity
  8
1
100
AcDbLine
 10
4887.039116178847
 20
2942.929658934045
 30
0.0
 11
4887.039116178847
 21
2817.929658934045
 31
0.0
  0
DIMENSION
  5
7C66
330
19
100
AcDbEntity
  8
3
100
AcDbDimension
280
     0
  2
*D5
 10
6078.039116178846
 20
2377.614040301978
 30
0.0
 11
5482.539116178846
 21
2477.614040301978
 31
0.0
 70
    32
 71
     5
 42
-1.0
 73
     0
 74
     0
 75
     0
  3
IGA
100
AcDbAlignedDimension
 13
4887.039116178846
 23
2697.929658934045
 33
0.0
 14
6078.039116178846
 24
2697.929658934045
 34
0.0
100
AcDbRotatedDimension
1001
ACAD
1000
DSTYLE
1002
{
1070
   287
1070
     3
1070
    40
1040
40.0
1070
   143
1040
0.039
1070
   172
1070
     1
1070
   271
1070
     0
1070
   279
1070
     0
1070
   288
1070
     1
1002
}
  0
DIMENSION
  5
7C67
330
19
100
AcDbEntity
  8
3
100
AcDbDimension
280
     0
  2
*D6
 10
7007.039116178846
 20
2377.614040301978
 30
0.0
 11
6542.539116178847
 21
2477.614040301978
 31
0.0
 70
    32
 71
     5
 42
-1.0
 73
     0
 74
     0
 75
     0
  3
IGA
100
AcDbAlignedDimension
 13
6078.039116178846
 23
2697.929658934045
 33
0.0
 14
7007.039116178846
 24
2697.929658934045
 34
0.0
100
AcDbRotatedDimension
1001
ACAD
1000
DSTYLE
1002
{
1070
   287
1070
     3
1070
    40
1040
40.0
1070
   143
1040
0.039
1070
   172
1070
     1
1070
   271
1070
     0
1070
   279
1070
     0
1070
   288
1070
     1
1002
}
  0
LINE
  5
7C69
330
19
100
AcDbEntity
  8
1
100
AcDbLine
 10
4981.039116178847
 20
3965.429658934045
 30
0.0
 11
5228.039116178845
 21
3965.429658934045
 31
0.0
  0
LINE
  5
7C6A
330
19
100
AcDbEntity
  8
1
100
AcDbLine
 10
4981.039116178847
 20
3890.429658934045
 30
0.0
 11
5228.039116178845
 21
3890.429658934045
 31
0.0
  0
LINE
  5
7C6B
330
19
100
AcDbEntity
  8
1
100
AcDbLine
 10
5071.989116178848
 20
3002.929658934045
 30
0.0
 11
5071.989116178848
 21
3202.929658934046
 31
0.0
  0
LINE
  5
7C6C
330
19
100
AcDbEntity
  8
1
100
AcDbLine
 10
5071.989116178849
 20
3002.929658934045
 30
0.0
 11
5721.489116178848
 21
3002.929658934048
 31
0.0
  0
LINE
  5
7C6D
330
19
100
AcDbEntity
  8
1
100
AcDbLine
 10
5721.489116178847
 20
3412.929658934049
 30
0.0
 11
5071.989116178847
 21
3412.929658934046
 31
0.0
  0
LINE
  5
7C6E
330
19
100
AcDbEntity
  8
1
100
AcDbLine
 10
5061.989116178847
 20
3172.929658934045
 30
0.0
 11
4976.039116178847
 21
3172.929658934045
 31
0.0
  0
LINE
  5
7C6F
330
19
100
AcDbEntity
  8
1
100
AcDbLine
 10
5061.989116178847
 20
3232.929658934045
 30
0.0
 11
4976.039116178847
 21
3232.929658934045
 31
0.0
  0
LINE
  5
7C70
330
19
100
AcDbEntity
  8
1
100
AcDbLine
 10
5071.989116178848
 20
3412.929658934046
 30
0.0
 11
5071.989116178848
 21
3202.929658934046
 31
0.0
  0
LINE
  5
7C71
330
19
100
AcDbEntity
  8
1
100
AcDbLine
 10
5061.989116178847
 20
3170.429658934045
 30
0.0
 11
5061.989116178847
 21
3235.429658934045
 31
0.0
  0
LINE
  5
7C72
330
19
100
AcDbEntity
  8
1
100
AcDbLine
 10
5061.989116178847
 20
3170.429658934045
 30
0.0
 11
5071.989116178848
 21
3170.429658934045
 31
0.0
  0
LINE
  5
7C73
330
19
100
AcDbEntity
  8
1
100
AcDbLine
 10
5061.989116178847
 20
3235.429658934045
 30
0.0
 11
5071.989116178848
 21
3235.429658934045
 31
0.0
  0
LINE
  5
7C74
330
19
100
AcDbEntity
  8
2
100
AcDbLine
 10
1474.342323903158
 20
7787.437268273025
 30
0.0
 11
3784.169444624879
 21
7787.437268273023
 31
0.0
  0
LINE
  5
7C75
330
19
100
AcDbEntity
  8
1
100
AcDbLine
 10
2070.169444624879
 20
6467.437268273025
 30
0.0
 11
4290.169444624878
 21
6467.437268273025
 31
0.0
  0
LINE
  5
7C76
330
19
100
AcDbEntity
  8
1
100
AcDbLine
 10
2196.169444624878
 20
6603.437268273025
 30
0.0
 11
2704.169444624878
 21
6603.437268273025
 31
0.0
  0
LINE
  5
7C77
330
19
100
AcDbEntity
  8
1
100
AcDbLine
 10
2520.169444624878
 20
6681.337268273025
 30
0.0
 11
2704.169444624878
 21
6681.337268273025
 31
0.0
  0
LINE
  5
7C78
330
19
100
AcDbEntity
  8
1
100
AcDbLine
 10
4100.169444624878
 20
6782.387268273024
 30
0.0
 11
4100.169444624878
 21
6696.437268273024
 31
0.0
  0
LINE
  5
7C79
330
19
100
AcDbEntity
  8
1
100
AcDbLine
 10
4040.169444624878
 20
6782.387268273024
 30
0.0
 11
4040.169444624878
 21
6696.437268273024
 31
0.0
  0
LINE
  5
7C7A
330
19
100
AcDbEntity
  8
1
100
AcDbLine
 10
4290.169444624878
 20
6467.437268273025
 30
0.0
 11
4290.169444624878
 21
6763.437268273024
 31
0.0
  0
LINE
  5
7C7B
330
19
100
AcDbEntity
  8
1
100
AcDbLine
 10
3250.169444624879
 20
6596.437268273025
 30
0.0
 11
3375.169444624879
 21
6596.437268273025
 31
0.0
  0
LINE
  5
7C7C
330
19
100
AcDbEntity
  8
1
100
AcDbLine
 10
3394.169444624878
 20
6596.437268273023
 30
0.0
 11
3459.169444624879
 21
6596.437268273025
 31
0.0
  0
LINE
  5
7C7D
330
19
100
AcDbEntity
  8
1
100
AcDbLine
 10
4010.169444624878
 20
6696.437268273024
 30
0.0
 11
4130.169444624878
 21
6696.437268273024
 31
0.0
  0
LINE
  5
7C7E
330
19
100
AcDbEntity
  8
1
100
AcDbLine
 10
4130.169444624878
 20
6681.337268273025
 30
0.0
 11
4176.169444624878
 21
6681.337268273025
 31
0.0
  0
LINE
  5
7C7F
330
19
100
AcDbEntity
  8
1
100
AcDbLine
 10
4176.169444624878
 20
6603.437268273025
 30
0.0
 11
4176.169444624878
 21
6681.337268273025
 31
0.0
  0
LINE
  5
7C80
330
19
100
AcDbEntity
  8
1
100
AcDbLine
 10
4130.169444624878
 20
6681.337268273025
 30
0.0
 11
4130.169444624878
 21
6696.437268273024
 31
0.0
  0
LINE
  5
7C81
330
19
100
AcDbEntity
  8
1
100
AcDbLine
 10
3964.169444624879
 20
6603.437268273025
 30
0.0
 11
3964.169444624879
 21
6681.337268273023
 31
0.0
  0
LINE
  5
7C82
330
19
100
AcDbEntity
  8
1
100
AcDbLine
 10
4010.169444624878
 20
6681.337268273025
 30
0.0
 11
4010.169444624878
 21
6696.437268273024
 31
0.0
  0
LINE
  5
7C83
330
19
100
AcDbEntity
  8
1
100
AcDbLine
 10
2704.169444624878
 20
6603.437268273025
 30
0.0
 11
2704.169444624878
 21
6681.337268273023
 31
0.0
  0
LINE
  5
7C84
330
19
100
AcDbEntity
  8
1
100
AcDbLine
 10
3860.169444624879
 20
6792.387268273024
 30
0.0
 11
4070.169444624879
 21
6792.387268273024
 31
0.0
  0
LINE
  5
7C85
330
19
100
AcDbEntity
  8
1
100
AcDbLine
 10
4102.669444624878
 20
6782.387268273024
 30
0.0
 11
4037.669444624878
 21
6782.387268273024
 31
0.0
  0
LINE
  5
7C86
330
19
100
AcDbEntity
  8
1
100
AcDbLine
 10
4270.169444624879
 20
6792.387268273026
 30
0.0
 11
4270.169444624872
 21
7441.887268273025
 31
0.0
  0
LINE
  5
7C87
330
19
100
AcDbEntity
  8
1
100
AcDbLine
 10
4270.169444624879
 20
6792.387268273024
 30
0.0
 11
4070.169444624879
 21
6792.387268273024
 31
0.0
  0
LINE
  5
7C88
330
19
100
AcDbEntity
  8
1
100
AcDbLine
 10
4102.669444624878
 20
6782.387268273024
 30
0.0
 11
4102.669444624878
 21
6792.387268273024
 31
0.0
  0
LINE
  5
7C89
330
19
100
AcDbEntity
  8
1
100
AcDbLine
 10
4270.169444624876
 20
6967.887268273026
 30
0.0
 11
4269.169444624877
 21
6967.887268273026
 31
0.0
  0
LINE
  5
7C8A
330
19
100
AcDbEntity
  8
1
100
AcDbLine
 10
3860.169444624872
 20
7441.887268273024
 30
0.0
 11
3860.169444624879
 21
6792.387268273023
 31
0.0
  0
LINE
  5
7C8B
330
19
100
AcDbEntity
  8
1
100
AcDbLine
 10
4037.669444624878
 20
6782.387268273024
 30
0.0
 11
4037.669444624878
 21
6792.387268273024
 31
0.0
  0
LINE
  5
7C8C
330
19
100
AcDbEntity
  8
1
100
AcDbLine
 10
2487.669444624879
 20
6701.437268273024
 30
0.0
 11
2487.669444624879
 21
6937.437268273022
 31
0.0
  0
LINE
  5
7C8D
330
19
100
AcDbEntity
  8
1
100
AcDbLine
 10
2412.669444624878
 20
6701.437268273024
 30
0.0
 11
2412.669444624878
 21
6937.437268273021
 31
0.0
  0
LINE
  5
7C8E
330
19
100
AcDbEntity
  8
1
100
AcDbLine
 10
2070.169444624879
 20
6467.437268273023
 30
0.0
 11
2070.169444624879
 21
6763.437268273023
 31
0.0
  0
LINE
  5
7C8F
330
19
100
AcDbEntity
  8
1
100
AcDbLine
 10
2380.169444624879
 20
6701.437268273024
 30
0.0
 11
2520.169444624878
 21
6701.437268273024
 31
0.0
  0
LINE
  5
7C90
330
19
100
AcDbEntity
  8
1
100
AcDbLine
 10
2520.169444624878
 20
6681.337268273023
 30
0.0
 11
2520.169444624878
 21
6701.437268273024
 31
0.0
  0
LINE
  5
7C91
330
19
100
AcDbEntity
  8
1
100
AcDbLine
 10
2196.169444624878
 20
6681.337268273025
 30
0.0
 11
2380.169444624879
 21
6681.337268273025
 31
0.0
  0
LINE
  5
7C92
330
19
100
AcDbEntity
  8
1
100
AcDbLine
 10
2380.169444624879
 20
6681.337268273025
 30
0.0
 11
2380.169444624879
 21
6701.437268273024
 31
0.0
  0
LINE
  5
7C93
330
19
100
AcDbEntity
  8
1
100
AcDbLine
 10
2196.169444624878
 20
6603.437268273025
 30
0.0
 11
2196.169444624878
 21
6681.337268273023
 31
0.0
  0
LINE
  5
7C94
330
19
100
AcDbEntity
  8
1
100
AcDbLine
 10
2070.169444624879
 20
6763.437268273023
 30
0.0
 11
4290.169444624878
 21
6763.437268273115
 31
0.0
  0
LINE
  5
7C95
330
19
100
AcDbEntity
  8
1
100
AcDbLine
 10
4270.169444624875
 20
7441.887268273025
 30
0.0
 11
3860.169444624873
 21
7441.887268273024
 31
0.0
  0
LINE
  5
7C96
330
19
100
AcDbEntity
  8
1
100
AcDbLine
 10
1553.169444624878
 20
8637.437268273025
 30
0.0
 11
3784.169444624879
 21
8637.437268273025
 31
0.0
  0
LINE
  5
7C97
330
19
100
AcDbEntity
  8
1
100
AcDbLine
 10
1553.169444624878
 20
6937.437268273022
 30
0.0
 11
3784.169444624879
 21
6937.437268273024
 31
0.0
  0
LINE
  5
7C98
330
19
100
AcDbEntity
  8
1
100
AcDbLine
 10
1700.169444624878
 20
6937.437268273021
 30
0.0
 11
1700.169444624878
 21
6596.437268273021
 31
0.0
  0
LINE
  5
7C99
330
19
100
AcDbEntity
  8
1
100
AcDbLine
 10
3964.169444624879
 20
6681.337268273025
 30
0.0
 11
4010.169444624878
 21
6681.337268273025
 31
0.0
  0
LINE
  5
7C9A
330
19
100
AcDbEntity
  8
1
100
AcDbLine
 10
3964.169444624879
 20
6603.437268273025
 30
0.0
 11
4176.169444624878
 21
6603.437268273025
 31
0.0
  0
DIMENSION
  5
7C9B
330
19
100
AcDbEntity
  8
3
100
AcDbDimension
280
     0
  2
*D7
 10
1251.153303389044
 20
6596.437268273021
 30
0.0
 11
1151.153303389043
 21
7656.437268273021
 31
0.0
 70
    32
 71
     5
 42
-1.0
 73
     0
 74
     0
 75
     0
  3
IGA
100
AcDbAlignedDimension
 13
1700.169444624878
 23
8716.437268273022
 33
0.0
 14
1700.169444624878
 24
6596.437268273021
 34
0.0
 50
270.0
100
AcDbRotatedDimension
1001
ACAD
1000
DSTYLE
1002
{
1070
   287
1070
     3
1070
    40
1040
40.0
1070
   143
1040
0.039
1070
   172
1070
     1
1070
   271
1070
     0
1070
   279
1070
     0
1070
   288
1070
     1
1002
}
  0
DIMENSION
  5
7C9C
330
19
100
AcDbEntity
  8
3
100
AcDbDimension
280
     0
  2
*D8
 10
3200.169444624878
 20
8921.073406778207
 30
0.0
 11
2450.169444624878
 21
9021.073406778207
 31
0.0
 70
    32
 71
     5
 42
-1.0
 73
     0
 74
     0
 75
     0
  3
IGA
100
AcDbAlignedDimension
 13
1700.169444624878
 23
8716.437268273022
 33
0.0
 14
3200.169444624878
 24
8716.437268273024
 34
0.0
100
AcDbRotatedDimension
1001
ACAD
1000
DSTYLE
1002
{
1070
   287
1070
     3
1070
    40
1040
40.0
1070
   143
1040
0.039
1070
   172
1070
     1
1070
   271
1070
     0
1070
   279
1070
     0
1070
   288
1070
     1
1002
}
  0
DIMENSION
  5
7C9D
330
19
100
AcDbEntity
  8
3
100
AcDbDimension
280
     0
  2
*D9
 10
4350.169444624878
 20
8921.073406778207
 30
0.0
 11
3775.169444624879
 21
9021.073406778207
 31
0.0
 70
    32
 71
     5
 42
-1.0
 73
     0
 74
     0
 75
     0
  3
IGA
100
AcDbAlignedDimension
 13
3200.169444624878
 23
8716.437268273024
 33
0.0
 14
4350.169444624878
 24
7696.437268273022
 34
0.0
100
AcDbRotatedDimension
1001
ACAD
1000
DSTYLE
1002
{
1070
   287
1070
     3
1070
    40
1040
40.0
1070
   143
1040
0.039
1070
   172
1070
     1
1070
   271
1070
     0
1070
   279
1070
     0
1070
   288
1070
     1
1002
}
  0
DIMENSION
  5
7C9E
330
19
100
AcDbEntity
  8
3
100
AcDbDimension
280
     0
  2
*D10
 10
4616.495845732457
 20
6596.437268273023
 30
0.0
 11
4516.495845732456
 21
7146.437268273024
 31
0.0
 70
    32
 71
     5
 42
-1.0
 73
     0
 74
     0
 75
     0
  3
IGA
100
AcDbAlignedDimension
 13
4350.169444624878
 23
7696.437268273022
 33
0.0
 14
4350.169444624878
 24
6596.437268273023
 34
0.0
 50
270.0
100
AcDbRotatedDimension
1001
ACAD
1000
DSTYLE
1002
{
1070
   287
1070
     3
1070
    40
1040
40.0
1070
   143
1040
0.039
1070
   172
1070
     1
1070
   271
1070
     0
1070
   279
1070
     0
1070
   288
1070
     1
1002
}
  0
DIMENSION
  5
7C9F
330
19
100
AcDbEntity
  8
3
100
AcDbDimension
280
     0
  2
*D11
 10
1700.169444624878
 20
6231.68339008337
 30
0.0
 11
3025.169444624879
 21
6331.683390083369
 31
0.0
 70
    32
 71
     5
 42
-1.0
 73
     0
 74
     0
 75
     0
  3
IGA
100
AcDbAlignedDimension
 13
4350.169444624878
 23
6596.437268273023
 33
0.0
 14
1700.169444624878
 24
6596.437268273021
 34
0.0
100
AcDbRotatedDimension
1001
ACAD
1000
DSTYLE
1002
{
1070
   287
1070
     3
1070
    40
1040
40.0
1070
   143
1040
0.039
1070
   172
1070
     1
1070
   271
1070
     0
1070
   279
1070
     0
1070
   288
1070
     1
1002
}
  0
INSERT
  5
7CA0
330
19
100
AcDbEntity
  8
1
100
AcDbBlockReference
  2
YA_N
 10
10738.86349375249
 20
1135.274830878665
 30
0.0
  0
ARC
  5
7CA2
330
19
100
AcDbEntity
  8
1
100
AcDbCircle
 10
2541.169444624879
 20
4018.929658934045
 30
0.0
 40
1170.0
100
AcDbArc
 50
293.1238475675229
 51
355.539156302126
  0
ARC
  5
7CA3
330
19
100
AcDbEntity
  8
1
100
AcDbCircle
 10
2541.169444624879
 20
3836.929658934045
 30
0.0
 40
988.0
100
AcDbArc
 50
174.7152670454655
 51
244.8042051557864
  0
ARC
  5
7CA4
330
19
100
AcDbEntity
  8
1
100
AcDbCircle
 10
2373.169444624878
 20
3850.929658934045
 30
0.0
 40
820.0
100
AcDbArc
 50
87.24248524420787
 51
174.6118481956726
  0
LINE
  5
7CA5
330
19
100
AcDbEntity
  8
1
100
AcDbLine
 10
3707.625187462986
 20
3927.929658934045
 30
0.0
 11
3784.169444624879
 21
4752.929658934045
 31
0.0
  0
LINE
  5
7CA6
330
19
100
AcDbEntity
  8
1
100
AcDbLine
 10
1700.169444624878
 20
2817.929658934045
 30
0.0
 11
4350.169444624878
 21
2817.929658934045
 31
0.0
1001
ACAD
1000
ASC_BOUNDS
1002
{
1070
    19
1002
}
  0
LINE
  5
7CA7
330
19
100
AcDbEntity
  8
1
100
AcDbLine
 10
1700.169444624878
 20
2942.929658934045
 30
0.0
 11
4350.169444624878
 21
2942.929658934045
 31
0.0
  0
LINE
  5
7CA8
330
19
100
AcDbEntity
  8
1
100
AcDbLine
 10
1700.169444624878
 20
2942.929658934045
 30
0.0
 11
1700.169444624878
 21
2817.929658934045
 31
0.0
  0
LINE
  5
7CA9
330
19
100
AcDbEntity
  8
1
100
AcDbLine
 10
4350.169444624878
 20
2942.929658934045
 30
0.0
 11
4350.169444624878
 21
2817.929658934045
 31
0.0
  0
LINE
  5
7CAA
330
19
100
AcDbEntity
  8
2
100
AcDbLine
 10
4070.169444624879
 20
3493.784175539755
 30
0.0
 11
4070.169444624879
 21
2697.929658934045
 31
0.0
  0
LINE
  5
7CAB
330
19
100
AcDbEntity
  8
2
100
AcDbLine
 10
3789.855227866727
 20
3202.929658934045
 30
0.0
 11
4401.209108324415
 21
3202.929658934045
 31
0.0
  0
LINE
  5
7CAC
330
19
100
AcDbEntity
  8
1
100
AcDbLine
 10
2504.169444624878
 20
4752.929658934045
 30
0.0
 11
2504.169444624877
 21
4668.964745822647
 31
0.0
  0
LINE
  5
7CAD
330
19
100
AcDbEntity
  8
1
100
AcDbLine
 10
3779.530398736279
 20
4702.929658934045
 30
0.0
 11
2504.169444624878
 21
4702.929658934045
 31
0.0
  0
LINE
  5
7CAE
330
19
100
AcDbEntity
  8
1
100
AcDbLine
 10
3837.169444624879
 20
4752.929658934045
 30
0.0
 11
2451.169444624879
 21
4752.929658934045
 31
0.0
  0
POINT
  5
7CAF
330
19
100
AcDbEntity
  8
1
100
AcDbPoint
 10
3524.969729235531
 20
3927.929658934045
 30
0.0
  0
INSERT
  5
7CB0
330
19
100
AcDbEntity
  8
1
100
AcDbBlockReference
  2
YA_N
 10
8975.636086442174
 20
-88.51158657911582
 30
0.0
 41
30.0
 42
30.0
 43
30.0
  0
LINE
  5
7CB2
330
19
100
AcDbEntity
  8
1
100
AcDbLine
 10
1700.169444624878
 20
2772.929658934045
 30
0.0
 11
4350.169444624878
 21
2772.929658934045
 31
0.0
1001
ACAD
1000
ASC_BOUNDS
1002
{
1070
    19
1002
}
  0
LINE
  5
7CB3
330
19
100
AcDbEntity
  8
1
100
AcDbLine
 10
1700.169444624878
 20
2697.929658934045
 30
0.0
 11
4350.169444624878
 21
2697.929658934045
 31
0.0
  0
LINE
  5
7CB4
330
19
100
AcDbEntity
  8
1
100
AcDbLine
 10
1700.169444624878
 20
2772.929658934045
 30
0.0
 11
1700.169444624878
 21
2697.929658934045
 31
0.0
  0
LINE
  5
7CB5
330
19
100
AcDbEntity
  8
1
100
AcDbLine
 10
4350.169444624878
 20
2772.929658934045
 30
0.0
 11
4350.169444624878
 21
2697.929658934045
 31
0.0
  0
ARC
  5
7CB6
330
19
100
AcDbEntity
  8
1
100
AcDbCircle
 10
4070.169444624879
 20
3202.929658934045
 30
0.0
 40
203.5
100
AcDbArc
 50
285.60376
 51
254.396301
  0
LINE
  5
7CB7
330
19
100
AcDbEntity
  8
1
100
AcDbLine
 10
4124.907481624879
 20
3006.929658934045
 30
0.0
 11
4015.431407624877
 21
3006.929658934045
 31
0.0
  0
ARC
  5
7CB8
330
19
100
AcDbEntity
  8
1
100
AcDbCircle
 10
3884.169444624879
 20
3019.929658934045
 30
0.0
 40
3.0
100
AcDbArc
 50
90.0
 51
180.0
  0
ARC
  5
7CB9
330
19
100
AcDbEntity
  8
1
100
AcDbCircle
 10
3886.169444624878
 20
3077.256319934045
 30
0.0
 40
5.000066999999999
100
AcDbArc
 50
124.943665
 51
180.0
  0
LINE
  5
7CBA
330
19
100
AcDbEntity
  8
1
100
AcDbLine
 10
3881.169444624879
 20
3077.256319934045
 30
0.0
 11
3881.169444624879
 21
3002.929658934045
 31
0.0
  0
LINE
  5
7CBE
330
19
100
AcDbEntity
  8
1
100
AcDbLine
 10
3966.066874624877
 20
3028.072847934045
 30
0.0
 11
3960.669444624879
 21
3007.929658934045
 31
0.0
  0
LINE
  5
7CBF
330
19
100
AcDbEntity
  8
1
100
AcDbLine
 10
3960.669444624879
 20
3019.929658934045
 30
0.0
 11
3960.669444624879
 21
3002.929658934045
 31
0.0
  0
LINE
  5
7CC0
330
19
100
AcDbEntity
  8
1
100
AcDbLine
 10
3957.669444624879
 20
3022.929658934045
 30
0.0
 11
3884.169444624879
 21
3022.929658934045
 31
0.0
  0
ARC
  5
7CC1
330
19
100
AcDbEntity
  8
1
100
AcDbCircle
 10
3957.669444624879
 20
3019.929658934045
 30
0.0
 40
3.0
100
AcDbArc
 50
0.0
 51
90.0
  0
LINE
  5
7CC2
330
19
100
AcDbEntity
  8
1
100
AcDbLine
 10
3883.305674624878
 20
3081.354951934045
 30
0.0
 11
3899.243540624879
 21
3092.491426934045
 31
0.0
  0
LINE
  5
7CC3
330
19
100
AcDbEntity
  8
1
100
AcDbLine
 10
4259.169444624879
 20
3077.256319934045
 30
0.0
 11
4259.169444624879
 21
3002.929658934045
 31
0.0
  0
LINE
  5
7CC7
330
19
100
AcDbEntity
  8
1
100
AcDbLine
 10
4174.272227624879
 20
3028.072969934044
 30
0.0
 11
4179.669444624878
 21
3007.929658934045
 31
0.0
  0
LINE
  5
7CC8
330
19
100
AcDbEntity
  8
1
100
AcDbLine
 10
4179.669444624878
 20
3019.929658934045
 30
0.0
 11
4179.669444624878
 21
3002.929658934045
 31
0.0
  0
LINE
  5
7CC9
330
19
100
AcDbEntity
  8
1
100
AcDbLine
 10
4182.669444624878
 20
3022.929658934045
 30
0.0
 11
4256.169444624879
 21
3022.929658934045
 31
0.0
  0
ARC
  5
7CCA
330
19
100
AcDbEntity
  8
1
100
AcDbCircle
 10
4182.669444624878
 20
3019.929658934045
 30
0.0
 40
3.0
100
AcDbArc
 50
90.0
 51
180.0
  0
ARC
  5
7CCB
330
19
100
AcDbEntity
  8
1
100
AcDbCircle
 10
4256.169444624879
 20
3019.929658934045
 30
0.0
 40
3.0
100
AcDbArc
 50
0.0
 51
90.0
  0
LINE
  5
7CCC
330
19
100
AcDbEntity
  8
1
100
AcDbLine
 10
4257.033335624877
 20
3081.354951934045
 30
0.0
 11
4241.095469624877
 21
3092.491426934045
 31
0.0
  0
ARC
  5
7CCD
330
19
100
AcDbEntity
  8
1
100
AcDbCircle
 10
4254.169444624878
 20
3077.256319934045
 30
0.0
 40
5.0
100
AcDbArc
 50
0.0
 51
55.05633899999998
  0
LINE
  5
7CCE
330
19
100
AcDbEntity
  8
1
100
AcDbLine
 10
3826.746419582269
 20
3002.929658934045
 30
0.0
 11
4000.169444624878
 21
3002.929658934045
 31
0.0
  0
LINE
  5
7CCF
330
19
100
AcDbEntity
  8
1
100
AcDbLine
 10
3810.169444624879
 20
2942.929658934045
 30
0.0
 11
3826.746419582269
 21
3002.929658934045
 31
0.0
  0
LINE
  5
7CD0
330
19
100
AcDbEntity
  8
1
100
AcDbLine
 10
4330.169444624878
 20
2942.929658934045
 30
0.0
 11
4313.98848807976
 21
3002.929658934045
 31
0.0
  0
LINE
  5
7CD1
330
19
100
AcDbEntity
  8
1
100
AcDbLine
 10
4000.169444624878
 20
2992.929658934045
 30
0.0
 11
4140.169444624878
 21
2992.929658934045
 31
0.0
  0
LINE
  5
7CD3
330
19
100
AcDbEntity
  8
1
100
AcDbLine
 10
4140.169444624878
 20
3002.929658934045
 30
0.0
 11
4140.169444624878
 21
2992.929658934045
 31
0.0
  0
LINE
  5
7CD4
330
19
100
AcDbEntity
  8
1
100
AcDbLine
 10
4000.169444624878
 20
3002.929658934045
 30
0.0
 11
4000.169444624878
 21
2992.929658934045
 31
0.0
  0
LINE
  5
7CD7
330
19
100
AcDbEntity
  8
1
100
AcDbLine
 10
4140.169444624878
 20
3002.929658934045
 30
0.0
 11
4313.98848807976
 21
3002.929658934045
 31
0.0
  0
INSERT
  5
7CDA
330
19
100
AcDbEntity
  8
1
100
AcDbBlockReference
  2
YA_N
 10
9977.619817870641
 20
591.7198460448089
 30
0.0
 41
30.0
 42
30.0
 43
30.0
  0
DIMENSION
  5
7CDC
330
19
100
AcDbEntity
  8
3
100
AcDbDimension
280
     0
  2
*D12
 10
2450.169444624878
 20
2381.268205257806
 30
0.0
 11
2075.169444624878
 21
2481.268205257806
 31
0.0
 70
    32
 71
     5
 42
-1.0
 73
     0
 74
     0
 75
     0
  3
IGA
100
AcDbAlignedDimension
 13
1700.169444624878
 23
2697.929658934045
 33
0.0
 14
2450.169444624878
 24
2697.929658934045
 34
0.0
100
AcDbRotatedDimension
1001
ACAD
1000
DSTYLE
1002
{
1070
   287
1070
     3
1070
    40
1040
40.0
1070
   143
1040
0.039
1070
   172
1070
     1
1070
   271
1070
     0
1070
   279
1070
     0
1070
   288
1070
     1
1002
}
  0
DIMENSION
  5
7CDD
330
19
100
AcDbEntity
  8
3
100
AcDbDimension
280
     0
  2
*D13
 10
2504.169444624878
 20
5005.940691624002
 30
0.0
 11
3144.169444624879
 21
5105.940691624002
 31
0.0
 70
    32
 71
     5
 42
-1.0
 73
     0
 74
     0
 75
     0
  3
IGA
100
AcDbAlignedDimension
 13
3784.169444624879
 23
4752.929658934045
 33
0.0
 14
2504.169444624878
 24
4752.929658934045
 34
0.0
100
AcDbRotatedDimension
1001
ACAD
1000
DSTYLE
1002
{
1070
   287
1070
     3
1070
    40
1040
40.0
1070
   143
1040
0.039
1070
   172
1070
     1
1070
   271
1070
     0
1070
   279
1070
     0
1070
   288
1070
     1
1002
}
  0
DIMENSION
  5
7CDE
330
19
100
AcDbEntity
  8
3
100
AcDbDimension
280
     0
  2
*D14
 10
2450.169444624878
 20
5253.003534080532
 30
0.0
 11
3117.169444624879
 21
5353.003534080531
 31
0.0
 70
    32
 71
     5
 42
-1.0
 73
     0
 74
     0
 75
     0
  3
IGA
100
AcDbAlignedDimension
 13
3784.169444624879
 23
4752.929658934045
 33
0.0
 14
2450.169444624878
 24
4831.366197182897
 34
0.0
100
AcDbRotatedDimension
1001
ACAD
1000
DSTYLE
1002
{
1070
   287
1070
     3
1070
    40
1040
40.0
1070
   143
1040
0.039
1070
   172
1070
     1
1070
   271
1070
     0
1070
   279
1070
     0
1070
   288
1070
     1
1002
}
  0
CIRCLE
  5
7CE0
330
19
100
AcDbEntity
  8
1
100
AcDbCircle
 10
4070.169444624879
 20
3202.929658934045
 30
0.0
 40
107.0
  0
POINT
  5
7CE1
330
19
100
AcDbEntity
  8
1
100
AcDbPoint
 10
1700.169444624878
 20
2772.929658934045
 30
0.0
  0
POINT
  5
7CE2
330
19
100
AcDbEntity
  8
1
100
AcDbPoint
 10
1700.169444624878
 20
2817.929658934045
 30
0.0
  0
POINT
  5
7CE3
330
19
100
AcDbEntity
  8
1
100
AcDbPoint
 10
1700.169444624878
 20
2772.929658934045
 30
0.0
  0
ARC
  5
7CE5
330
19
100
AcDbEntity
  8
1
100
AcDbCircle
 10
2450.169444624878
 20
3927.929658934045
 30
0.0
 40
625.0
100
AcDbArc
 50
0.0
 51
180.0
  0
ARC
  5
7CE6
330
19
100
AcDbEntity
  8
1
100
AcDbCircle
 10
2450.169444624878
 20
3927.929658934045
 30
0.0
 40
675.0
100
AcDbArc
 50
0.0
 51
180.0
  0
ARC
  5
7CE7
330
19
100
AcDbEntity
  8
1
100
AcDbCircle
 10
2450.169444624878
 20
3927.929658934045
 30
0.0
 40
625.0
100
AcDbArc
 50
180.0
 51
0.0
  0
ARC
  5
7CE8
330
19
100
AcDbEntity
  8
1
100
AcDbCircle
 10
2450.169444624878
 20
3927.929658934045
 30
0.0
 40
675.0
100
AcDbArc
 50
180.0
 51
0.0
  0
DIMENSION
  5
7CE9
330
19
100
AcDbEntity
  8
3
100
AcDbDimension
280
     0
  2
*D15
 10
2450.169444624878
 20
2381.041703518546
 30
0.0
 11
3400.169444624879
 21
2481.041703518546
 31
0.0
 70
    32
 71
     5
 42
-1.0
 73
     0
 74
     0
 75
     0
  3
IGA
100
AcDbAlignedDimension
 13
4350.169444624878
 23
2697.929658934045
 33
0.0
 14
2450.169444624878
 24
2697.929658934045
 34
0.0
100
AcDbRotatedDimension
1001
ACAD
1000
DSTYLE
1002
{
1070
   287
1070
     3
1070
    40
1040
40.0
1070
   143
1040
0.039
1070
   172
1070
     1
1070
   271
1070
     0
1070
   279
1070
     0
1070
   288
1070
     1
1002
}
  0
CIRCLE
  5
7CEB
330
19
100
AcDbEntity
  8
1
100
AcDbCircle
 10
2450.169444624878
 20
3927.929658934045
 30
0.0
 40
254.0
  0
POINT
  5
7CEC
330
19
100
AcDbEntity
  8
1
100
AcDbPoint
 10
1700.169444624878
 20
2772.929658934045
 30
0.0
  0
POINT
  5
7CEE
330
19
100
AcDbEntity
  8
1
100
AcDbPoint
 10
1700.169444624878
 20
2772.929658934045
 30
0.0
  0
POINT
  5
7CEF
330
19
100
AcDbEntity
  8
1
100
AcDbPoint
 10
1700.169444624878
 20
2817.929658934045
 30
0.0
  0
ARC
  5
7CF0
330
19
100
AcDbEntity
  8
1
100
AcDbCircle
 10
2450.169444624878
 20
3927.929658934045
 30
0.0
 40
743.0
100
AcDbArc
 50
85.83216367783839
 51
92.89690804102594
  0
INSERT
  5
7CF1
330
19
100
AcDbEntity
  8
1
100
AcDbBlockReference
  2
YA_N
 10
15500.8069134681
 20
-364.4210375468319
 30
0.0
  0
ARC
  5
7CF3
330
19
100
AcDbEntity
  8
1
100
AcDbCircle
 10
2450.169444624878
 20
3927.929658934045
 30
0.0
 40
380.0
100
AcDbArc
 50
57.19331344564078
 51
248.7123021170168
  0
ARC
  5
7CF4
330
19
100
AcDbEntity
  8
1
100
AcDbCircle
 10
4070.169444624879
 20
3202.929658934045
 30
0.0
 40
220.0
100
AcDbArc
 50
248.7123021170168
 51
57.19331344564078
  0
LINE
  5
7CF5
330
19
100
AcDbEntity
  8
1
100
AcDbLine
 10
2656.055839660199
 20
4247.320943003225
 30
0.0
 11
4189.366831224275
 21
3387.840402342518
 31
0.0
  0
LINE
  5
7CF6
330
19
100
AcDbEntity
  8
1
100
AcDbLine
 10
2586.03480791274
 20
4142.537680821991
 30
0.0
 11
4127.404066167403
 21
3293.335400438023
 31
0.0
  0
LINE
  5
7CF7
330
19
100
AcDbEntity
  8
1
100
AcDbLine
 10
2356.018824504376
 20
3692.023616766989
 30
0.0
 11
4030.507569219785
 21
3103.551916761309
 31
0.0
  0
LINE
  5
7CF8
330
19
100
AcDbEntity
  8
1
100
AcDbLine
 10
2312.209997593609
 20
3573.857362679697
 30
0.0
 11
3990.298185817301
 21
2997.940434786791
 31
0.0
  0
DIMENSION
  5
7CF9
330
19
100
AcDbEntity
  8
3
100
AcDbDimension
280
     0
  2
*D16
 10
1285.934760259599
 20
3927.929658934045
 30
0.0
 11
1185.934760259598
 21
4340.429658934045
 31
0.0
 70
    32
 71
     5
 42
-1.0
 73
     0
 74
     0
 75
     0
  3
IGA
100
AcDbAlignedDimension
 13
2451.169444624879
 23
4752.929658934045
 33
0.0
 14
1464.143307902599
 24
3927.929658934045
 34
0.0
 50
270.0
100
AcDbRotatedDimension
1001
ACAD
1000
DSTYLE
1002
{
1070
   287
1070
     3
1070
    40
1040
40.0
1070
   143
1040
0.039
1070
   172
1070
     1
1070
   271
1070
     0
1070
   279
1070
     0
1070
   288
1070
     1
1002
}
  0
DIMENSION
  5
7CFA
330
19
100
AcDbEntity
  8
3
100
AcDbDimension
280
     0
  2
*D17
 10
1285.934760259599
 20
2817.929658934045
 30
0.0
 11
1185.934760259598
 21
3372.929658934045
 31
0.0
 70
    32
 71
     5
 42
-1.0
 73
     0
 74
     0
 75
     0
  3
IGA
100
AcDbAlignedDimension
 13
1464.143307902599
 23
3927.929658934045
 33
0.0
 14
1700.169444624878
 24
2817.929658934045
 34
0.0
 50
270.0
100
AcDbRotatedDimension
1001
ACAD
1000
DSTYLE
1002
{
1070
   287
1070
     3
1070
    40
1040
40.0
1070
   143
1040
0.039
1070
   172
1070
     1
1070
   271
1070
     0
1070
   279
1070
     0
1070
   288
1070
     1
1002
}
  0
POINT
  5
7CFB
330
19
100
AcDbEntity
  8
1
100
AcDbPoint
 10
1700.169444624878
 20
2772.929658934045
 30
0.0
  0
POINT
  5
7CFD
330
19
100
AcDbEntity
  8
1
100
AcDbPoint
 10
1700.169444624878
 20
2772.929658934045
 30
0.0
  0
POINT
  5
7CFE
330
19
100
AcDbEntity
  8
1
100
AcDbPoint
 10
1700.169444624878
 20
2817.929658934045
 30
0.0
  0
DIMENSION
  5
7D00
330
19
100
AcDbEntity
  8
3
100
AcDbDimension
280
     0
  2
*D18
 10
1285.934760259599
 20
2697.929658934045
 30
0.0
 11
1185.934760259598
 21
2400.786801791188
 31
0.0
 70
    32
 71
     5
 42
-1.0
 73
     0
 74
     0
 75
     0
  3
IGA
100
AcDbAlignedDimension
 13
1700.169444624878
 23
2772.929658934045
 33
0.0
 14
1700.169444624878
 24
2697.929658934045
 34
0.0
 50
270.0
100
AcDbRotatedDimension
1001
ACAD
1000
DSTYLE
1002
{
1070
   287
1070
     3
1070
    40
1040
40.0
1070
   143
1040
0.039
1070
   172
1070
     1
1070
   271
1070
     0
1070
   279
1070
     0
1070
   288
1070
     1
1070
     6
1000
DOT
1002
}
  0
LINE
  5
7D01
330
19
100
AcDbEntity
  8
1
100
AcDbLine
 10
5175.039116178847
 20
4752.929658934045
 30
0.0
 11
6981.039116178847
 21
4752.929658934045
 31
0.0
  0
LINE
  5
7D02
330
19
100
AcDbEntity
  8
1
100
AcDbLine
 10
5228.039116178845
 20
4702.929658934045
 30
0.0
 11
6928.039116178846
 21
4702.929658934045
 31
0.0
  0
LINE
  5
7D03
330
19
100
AcDbEntity
  8
1
100
AcDbLine
 10
1553.169444624878
 20
8637.437268273025
 30
0.0
 11
1553.169444624878
 21
6937.437268273021
 31
0.0
  0
LINE
  5
7D04
330
19
100
AcDbEntity
  8
1
100
AcDbLine
 10
3784.169444624879
 20
8637.437268273025
 30
0.0
 11
3784.169444624879
 21
6937.437268273022
 31
0.0
  0
LINE
  5
7D05
330
19
100
AcDbEntity
  8
1
100
AcDbLine
 10
2504.169444624878
 20
8637.437268273025
 30
0.0
 11
2504.169444624878
 21
6937.437268273022
 31
0.0
  0
LINE
  5
7D06
330
19
100
AcDbEntity
  8
1
100
AcDbLine
 10
2504.169444624878
 20
8637.437268273025
 30
0.0
 11
3784.169444624879
 21
6937.437268273024
 31
0.0
  0
LINE
  5
7D07
330
19
100
AcDbEntity
  8
1
100
AcDbLine
 10
3784.169444624878
 20
8637.437268273025
 30
0.0
 11
2504.169444624878
 21
6937.437268273022
 31
0.0
  0
DIMENSION
  5
7D09
330
19
100
AcDbEntity
  8
3
100
AcDbDimension
280
     0
  2
*D19
 10
1553.169444624878
 20
5494.836675797563
 30
0.0
 11
2951.669444624879
 21
5594.836675797563
 31
0.0
 70
    32
 71
     5
 42
-1.0
 73
     0
 74
     0
 75
     0
  3
IGA
100
AcDbAlignedDimension
 13
4350.169444624878
 23
2942.929658934045
 33
0.0
 14
1553.169444624878
 24
3836.929658934045
 34
0.0
100
AcDbRotatedDimension
1001
ACAD
1000
DSTYLE
1002
{
1070
   287
1070
     3
1070
    40
1040
40.0
1070
   143
1040
0.039
1070
   172
1070
     1
1070
   271
1070
     0
1070
   279
1070
     0
1070
   288
1070
     1
1002
}
  0
LINE
  5
7D0A
330
19
100
AcDbEntity
  8
1
100
AcDbLine
 10
5721.489116178848
 20
3002.929658934047
 30
0.0
 11
5721.489116178847
 21
3412.929658934049
 31
0.0
  0
LINE
  5
7D0B
330
19
100
AcDbEntity
  8
1
100
AcDbLine
 10
5228.039116178845
 20
3002.929658934046
 30
0.0
 11
5228.039116178846
 21
2942.929658934045
 31
0.0
  0
LINE
  5
7D0C
330
19
100
AcDbEntity
  8
1
100
AcDbLine
 10
5636.18896220007
 20
3002.929658934048
 30
0.0
 11
5636.18896220007
 21
2942.929658934045
 31
0.0
  0
DIMENSION
  5
7D0D
330
19
100
AcDbEntity
  8
3
100
AcDbDimension
280
     0
  2
*D20
 10
1553.169444624878
 20
5253.003534080532
 30
0.0
 11
2001.669444624878
 21
5353.003534080531
 31
0.0
 70
    32
 71
     5
 42
-1.0
 73
     0
 74
     0
 75
     0
  3
IGA
100
AcDbAlignedDimension
 13
2450.169444624878
 23
4831.366197182897
 33
0.0
 14
1553.169444624878
 24
3836.929658934045
 34
0.0
100
AcDbRotatedDimension
1001
ACAD
1000
DSTYLE
1002
{
1070
   287
1070
     3
1070
    40
1040
40.0
1070
   143
1040
0.039
1070
   172
1070
     1
1070
   271
1070
     0
1070
   279
1070
     0
1070
   288
1070
     1
1002
}
  0
LINE
  5
80A3
330
19
100
AcDbEntity
  8
4
100
AcDbLine
 10
7400.0
 20
1613.487493352484
 30
0.0
 11
7400.0
 21
813.4874933524844
 31
0.0
  0
LINE
  5
80A4
330
19
100
AcDbEntity
  8
4
100
AcDbLine
 10
4600.0
 20
1613.487493352484
 30
0.0
 11
4600.0
 21
813.4874933524844
 31
0.0
  0
LINE
  5
80A5
330
19
100
AcDbEntity
  8
4
100
AcDbLine
 10
2600.0
 20
1613.487493352484
 30
0.0
 11
2600.0
 21
813.4874933524844
 31
0.0
  0
LINE
  5
80A8
330
19
100
AcDbEntity
  8
4
100
AcDbLine
 10
2600.0
 20
813.4874933524843
 30
0.0
 11
7400.0
 21
813.4874933524843
 31
0.0
  0
LINE
  5
80A9
330
19
100
AcDbEntity
  8
4
100
AcDbLine
 10
2600.0
 20
1213.487493352484
 30
0.0
 11
7400.0
 21
1213.487493352484
 31
0.0
  0
TEXT
  5
80AA
330
19
100
AcDbEntity
  8
4
100
AcDbText
 10
2754.008323387607
 20
1339.659596818936
 30
0.0
 40
200.0
  1
機器名称
100
AcDbText
  0
TEXT
  5
80AB
330
19
100
AcDbEntity
  8
4
100
AcDbText
 10
2745.032424099191
 20
900.068120280528
 30
0.0
 40
200.0
  1
機器型番
100
AcDbText
  0
TEXT
  5
80AC
330
19
100
AcDbEntity
  8
4
100
AcDbText
 10
4715.138286072682
 20
1303.338016510819
 30
0.0
 40
170.0
  1
ミツヤリミットロードファン
100
AcDbText
  0
TEXT
  5
80AD
330
19
100
AcDbEntity
  8
4
100
AcDbText
 10
4746.617982341923
 20
882.1258304722578
 30
0.0
 40
200.0
  1
LL#8-5
100
AcDbText
  0
TEXT
  5
80AF
330
19
100
AcDbEntity
  8
4
100
AcDbText
 10
3284.299786541094
 20
9533.715365330063
 30
0.0
 40
216.0
  1
床置防振ベット
100
AcDbText
  0
TEXT
  5
80B0
330
19
100
AcDbEntity
  8
4
100
AcDbText
 10
1264.670373317785
 20
10135.52390479719
 30
0.0
 40
288.0
  1
遠心式両吸込両持リミットロードファン
100
AcDbText
  0
LINE
  5
80B1
330
19
100
AcDbEntity
  8
4
100
AcDbLine
 10
1000.0
 20
9877.635017059219
 30
0.0
 11
7400.0
 21
9877.635017059219
 31
0.0
  0
LINE
  5
80B2
330
19
100
AcDbEntity
  8
4
100
AcDbLine
 10
1000.0
 20
10677.63501705922
 30
0.0
 11
7400.0
 21
10677.63501705922
 31
0.0
  0
LINE
  5
80B3
330
19
100
AcDbEntity
  8
4
100
AcDbLine
 10
2600.0
 20
1613.487493352484
 30
0.0
 11
7400.0
 21
1613.487493352484
 31
0.0
  0
LINE
  5
80B4
330
19
100
AcDbEntity
  8
4
100
AcDbLine
 10
1000.0
 20
10677.63501705922
 30
0.0
 11
1000.0
 21
9877.635017059219
 31
0.0
  0
TEXT
  5
80B5
330
19
100
AcDbEntity
  8
4
100
AcDbText
 10
1540.864457570285
 20
9529.277910185374
 30
0.0
 40
216.0
  1
左回転上向
100
AcDbText
  0
TEXT
  5
80B6
330
19
100
AcDbEntity
  8
4
100
AcDbText
 10
5875.878236997159
 20
10824.24432598123
 30
0.0
 40
224.0
  1
No.
100
AcDbText
  0
TEXT
  5
80B7
330
19
100
AcDbEntity
  8
4
100
AcDbText
 10
5245.184250400052
 20
9533.715365330063
 30
0.0
 40
216.0
  1
縮尺：1/40
100
AcDbText
  0
LINE
  5
80B8
330
19
100
AcDbEntity
  8
4
100
AcDbLine
 10
7400.0
 20
10677.63501705922
 30
0.0
 11
7400.0
 21
9877.635017059219
 31
0.0
  0
LINE
  5
80B9
330
19
100
AcDbEntity
  8
4
100
AcDbLine
 10
8400.0
 20
11800.0
 30
0.0
 11
8400.0
 21
11800.0
 31
0.0
  0
LINE
  5
80BA
330
19
100
AcDbEntity
  8
4
100
AcDbLine
 10
5762.469689439458
 20
10725.0543325016
 30
0.0
 11
5762.469689439458
 21
11146.60904619901
 31
0.0
  0
LINE
  5
80BB
330
19
100
AcDbEntity
  8
4
100
AcDbLine
 10
5762.469689439458
 20
11146.60904619901
 30
0.0
 11
7400.0
 21
11146.60904619901
 31
0.0
  0
LINE
  5
80BC
330
19
100
AcDbEntity
  8
4
100
AcDbLine
 10
7400.0
 20
11146.60904619901
 30
0.0
 11
7400.0
 21
10725.0543325016
 31
0.0
  0
LINE
  5
80BD
330
19
100
AcDbEntity
  8
4
100
AcDbLine
 10
7400.0
 20
10725.0543325016
 30
0.0
 11
5762.469689439458
 21
10725.0543325016
 31
0.0
  0
LINE
  5
80BE
330
19
100
AcDbEntity
  8
4
100
AcDbLine
 10
0.0
 20
0.0
 30
0.0
 11
0.0
 21
11800.0
 31
0.0
  0
LINE
  5
80BF
330
19
100
AcDbEntity
  8
4
100
AcDbLine
 10
0.0
 20
11800.0
 30
0.0
 11
8400.0
 21
11800.0
 31
0.0
  0
LINE
  5
80C0
330
19
100
AcDbEntity
  8
4
100
AcDbLine
 10
8400.0
 20
11800.0
 30
0.0
 11
8400.0
 21
0.0
 31
0.0
  0
LINE
  5
80C1
330
19
100
AcDbEntity
  8
4
100
AcDbLine
 10
8400.0
 20
0.0
 30
0.0
 11
0.0
 21
0.0
 31
0.0
  0
DIMENSION
  5
823C
330
19
100
AcDbEntity
  8
3
100
AcDbDimension
280
     0
  2
*D24
 10
1289.263283677843
 20
2817.929658934045
 30
0.0
 11
1097.834712249271
 21
2795.429658934045
 31
0.0
 70
    32
  1
   <>
 71
     5
 42
-1.0
 73
     0
 74
     0
 75
     0
  3
IGA
100
AcDbAlignedDimension
 13
1700.169444624878
 23
2772.929658934045
 33
0.0
 14
1700.169444624878
 24
2817.929658934045
 34
0.0
 50
90.0
100
AcDbRotatedDimension
1001
ACAD
1000
DSTYLE
1002
{
1070
   172
1070
     1
1070
    76
1070
     1
1070
    75
1070
     1
1070
    40
1040
40.0
1070
     3
1000
(<>)
1070
   271
1070
     0
1070
     7
1000
_NONE
1070
     6
1000
_NONE
1070
   143
1040
0.039
1002
}
  0
DIMENSION
  5
8249
330
19
100
AcDbEntity
  8
3
100
AcDbDimension
280
     0
  2
*D25
 10
951.3230045800154
 20
2697.929658934045
 30
0.0
 11
819.8944331514441
 21
3725.429658934045
 31
0.0
 70
    32
 71
     5
 42
-1.0
 73
     0
 74
     0
 75
     0
  3
IGA
100
AcDbAlignedDimension
 13
2451.169444624879
 23
4752.929658934045
 33
0.0
 14
1700.169444624878
 24
2697.929658934045
 34
0.0
 50
90.0
100
AcDbRotatedDimension
1001
ACAD
1000
DSTYLE
1002
{
1070
   172
1070
     1
1070
    40
1040
40.0
1070
     3
1000
(<>)
1070
   271
1070
     0
1070
   143
1040
0.039
1002
}
  0
ENDSEC
  0
SECTION
  2
OBJECTS
  0
DICTIONARY
  5
C
330
0
100
AcDbDictionary
281
     1
  3
ACAD_CIP_PREVIOUS_PRODUCT_INFO
350
83B7
  3
ACAD_COLOR
350
839A
  3
ACAD_DETAILVIEWSTYLE
350
83B3
  3
ACAD_GROUP
350
D
  3
ACAD_LAYOUT
350
8271
  3
ACAD_MATERIAL
350
8368
  3
ACAD_MLEADERSTYLE
350
83AF
  3
ACAD_MLINESTYLE
350
E
  3
ACAD_PLOTSETTINGS
350
8272
  3
ACAD_PLOTSTYLENAME
350
826F
  3
ACAD_SCALELIST
350
839D
  3
ACAD_SECTIONVIEWSTYLE
350
83B1
  3
ACAD_TABLESTYLE
350
839B
  3
ACAD_VISUALSTYLE
350
8381
  3
ACDB_RECOMPOSE_DATA
350
842C
  3
AcDbVariableDictionary
350
835F
  3
AcDsDecomposeData
350
8432
  0
DICTIONARY
  5
8410
330
2
100
AcDbDictionary
280
     1
281
     1
  3
ACAD_LAYERSTATES
360
8411
  0
DICTIONARY
  5
8403
330
F
100
AcDbDictionary
280
     1
281
     1
  3
ADSK_XREC_LAYER_RECONCILED
360
8404
  0
DICTIONARY
  5
8405
330
31
100
AcDbDictionary
280
     1
281
     1
  3
ADSK_XREC_LAYER_RECONCILED
360
8406
  0
DICTIONARY
  5
8407
330
76D0
100
AcDbDictionary
280
     1
281
     1
  3
ADSK_XREC_LAYER_RECONCILED
360
8408
  0
DICTIONARY
  5
8409
330
76D1
100
AcDbDictionary
280
     1
281
     1
  3
ADSK_XREC_LAYER_RECONCILED
360
840A
  0
DICTIONARY
  5
840B
330
76D2
100
AcDbDictionary
280
     1
281
     1
  3
ADSK_XREC_LAYER_RECONCILED
360
840C
  0
DICTIONARY
  5
829E
330
19
100
AcDbDictionary
280
     1
281
     1
  3
ACAD_LAYOUTSELFREF
360
829F
  0
DICTIONARY
  5
829C
330
16
100
AcDbDictionary
280
     1
281
     1
  3
ACAD_LAYOUTSELFREF
360
829D
  0
XRECORD
  5
83B7
102
{ACAD_REACTORS
330
C
102
}
330
C
100
AcDbXrecord
280
     1
300
ACDLT
300
2023
300

  0
DICTIONARY
  5
839A
102
{ACAD_REACTORS
330
C
102
}
330
C
100
AcDbDictionary
281
     1
  0
DICTIONARY
  5
83B3
102
{ACAD_REACTORS
330
C
102
}
330
C
100
AcDbDictionary
281
     1
  3
Metric50
350
83B4
  0
DICTIONARY
  5
D
102
{ACAD_REACTORS
330
C
102
}
330
C
100
AcDbDictionary
281
     1
  0
DICTIONARY
  5
8271
102
{ACAD_REACTORS
330
C
102
}
330
C
100
AcDbDictionary
281
     1
  3
Model
350
8273
  3
ﾚｲｱｳﾄ1
350
8274
  0
DICTIONARY
  5
8368
102
{ACAD_REACTORS
330
C
102
}
330
C
100
AcDbDictionary
281
     1
  3
ByBlock
350
8371
  3
ByLayer
350
8369
  3
Global
350
8379
  0
DICTIONARY
  5
83AF
102
{ACAD_REACTORS
330
C
102
}
330
C
100
AcDbDictionary
281
     1
  3
Standard
350
83B0
  0
DICTIONARY
  5
E
102
{ACAD_REACTORS
330
C
102
}
330
C
100
AcDbDictionary
281
     1
  3
STANDARD
350
1C
  0
DICTIONARY
  5
8272
102
{ACAD_REACTORS
330
C
102
}
330
C
100
AcDbDictionary
281
     1
  0
ACDBDICTIONARYWDFLT
  5
826F
102
{ACAD_REACTORS
330
C
102
}
330
C
100
AcDbDictionary
281
     1
  3
Normal
350
8270
100
AcDbDictionaryWithDefault
340
8270
  0
DICTIONARY
  5
839D
102
{ACAD_REACTORS
330
C
102
}
330
C
100
AcDbDictionary
281
     1
  3
A0
350
839E
  3
A1
350
839F
  3
A2
350
83A0
  3
A3
350
83A1
  3
A4
350
83A2
  3
A5
350
83A3
  3
A6
350
83A4
  3
A7
350
83A5
  3
A8
350
83A6
  3
A9
350
83A7
  3
B0
350
83A8
  3
B1
350
83A9
  3
B2
350
83AA
  3
B3
350
83AB
  3
B4
350
83AC
  3
B5
350
83AD
  3
B6
350
83AE
  0
DICTIONARY
  5
83B1
102
{ACAD_REACTORS
330
C
102
}
330
C
100
AcDbDictionary
281
     1
  3
Metric50
350
83B2
  0
DICTIONARY
  5
839B
102
{ACAD_REACTORS
330
C
102
}
330
C
100
AcDbDictionary
281
     1
  3
Standard
350
839C
  0
DICTIONARY
  5
8381
102
{ACAD_REACTORS
330
C
102
}
330
C
100
AcDbDictionary
281
     1
  3
2dWireframe
350
8387
  3
Basic
350
8386
  3
Brighten
350
838D
  3
ColorChange
350
8391
  3
Conceptual
350
838A
  3
Dim
350
838C
  3
EdgeColorOff
350
8399
  3
Facepattern
350
8390
  3
Flat
350
8382
  3
FlatWithEdges
350
8383
  3
Gouraud
350
8384
  3
GouraudWithEdges
350
8385
  3
Hidden
350
8389
  3
JitterOff
350
8397
  3
Linepattern
350
838F
  3
OverhangOff
350
8398
  3
Realistic
350
838B
  3
Shaded
350
8396
  3
Shaded with edges
350
8395
  3
Shades of Gray
350
8392
  3
Sketchy
350
8393
  3
Thicken
350
838E
  3
Wireframe
350
8388
  3
X-Ray
350
8394
  0
XRECORD
  5
842C
102
{ACAD_REACTORS
330
C
102
}
330
C
100
AcDbXrecord
280
     1
 90
        1
330
839C
  0
DICTIONARY
  5
835F
102
{ACAD_REACTORS
330
C
102
}
330
C
100
AcDbDictionary
281
     1
  3
CANNOSCALE
350
8421
  3
CMLEADERSTYLE
350
841D
  3
CTABLESTYLE
350
841C
  3
CVIEWDETAILSTYLE
350
841E
  3
CVIEWSECTIONSTYLE
350
841F
  3
DIMASSOC
350
8360
  3
LAYEREVAL
350
8423
  3
LAYERNOTIFY
350
8424
  3
LIGHTINGUNITS
350
8422
  3
MARKUPASSISTMODE
350
8429
  3
MSLTSCALE
350
8420
  0
DICTIONARY
  5
8432
102
{ACAD_REACTORS
330
C
102
}
330
C
100
AcDbDictionary
281
     1
  3
AcDsRecords
350
8434
  3
AcDsSchemas
350
8433
1001
ACAD
1070
     2
  0
DICTIONARY
  5
8411
102
{ACAD_REACTORS
330
8410
102
}
330
8410
100
AcDbDictionary
281
     1
  0
XRECORD
  5
8404
102
{ACAD_REACTORS
330
8403
102
}
330
8403
100
AcDbXrecord
280
     1
290
     1
  0
XRECORD
  5
8406
102
{ACAD_REACTORS
330
8405
102
}
330
8405
100
AcDbXrecord
280
     1
290
     1
  0
XRECORD
  5
8408
102
{ACAD_REACTORS
330
8407
102
}
330
8407
100
AcDbXrecord
280
     1
290
     1
  0
XRECORD
  5
840A
102
{ACAD_REACTORS
330
8409
102
}
330
8409
100
AcDbXrecord
280
     1
290
     1
  0
XRECORD
  5
840C
102
{ACAD_REACTORS
330
840B
102
}
330
840B
100
AcDbXrecord
280
     1
290
     1
  0
XRECORD
  5
829F
102
{ACAD_REACTORS
330
829E
102
}
330
829E
100
AcDbXrecord
280
     1
340
19
  0
XRECORD
  5
829D
102
{ACAD_REACTORS
330
829C
102
}
330
829C
100
AcDbXrecord
280
     1
340
16
  0
ACDBDETAILVIEWSTYLE
  5
83B4
102
{ACAD_XDICTIONARY
360
8437
102
}
102
{ACAD_REACTORS
330
83B3
102
}
330
83B3
100
AcDbModelDocViewStyle
 70
     0
  3
Metric50
290
     0
100
AcDbDetailViewStyle
 70
     0
 71
     0
 90
        3
 71
     1
340
10
 62
   256
 40
5.0
340
0
 62
   256
 40
5.0
300

 40
0.0
280
     1
 71
     2
340
15
 90
       25
 62
   256
 71
     3
340
10
 62
   256
 40
5.0
 90
        0
 40
15.0
 90
        1
300
%<\AcVar ViewDetailId>% (%<\AcVar ViewScale \f "%sn">%)
 71
     4
340
15
 90
       25
 62
   256
340
15
 90
       25
 62
   256
280
     0
  0
LAYOUT
  5
8273
102
{ACAD_REACTORS
330
8271
102
}
330
8271
100
AcDbPlotSettings
  1

  2
\\Txbo34x8944cqyd\EPSON LP-6100
  4

  6

 40
0.0
 41
0.0
 42
0.0
 43
0.0
 44
0.0
 45
0.0
 46
0.0
 47
0.0
 48
0.0
 49
0.0
140
0.0
141
0.0
142
1.0
143
1.0
 70
  1712
 72
     0
 73
     0
 74
     0
  7
GOD2000TABLE.ctb
 75
     0
147
1.0
 76
     0
 77
     2
 78
   300
148
0.0
149
0.0
100
AcDbLayout
  1
Model
 70
     1
 71
     0
 10
0.0
 20
0.0
 11
12.0
 21
9.0
 12
0.0
 22
0.0
 32
0.0
 14
0.0
 24
0.0
 34
0.0
 15
0.0
 25
0.0
 35
0.0
146
0.0
 13
0.0
 23
0.0
 33
0.0
 16
1.0
 26
0.0
 36
0.0
 17
0.0
 27
1.0
 37
0.0
 76
     0
330
19
331
8366
  0
LAYOUT
  5
8274
102
{ACAD_REACTORS
330
8271
102
}
330
8271
100
AcDbPlotSettings
  1

  2
\\Txbo34x8944cqyd\EPSON LP-6100
  4

  6

 40
0.0
 41
0.0
 42
0.0
 43
0.0
 44
0.0
 45
0.0
 46
0.0
 47
0.0
 48
0.0
 49
0.0
140
0.0
141
0.0
142
1.0
143
1.0
 70
   688
 72
     0
 73
     0
 74
     5
  7
GOD2000TABLE.ctb
 75
    16
147
1.0
 76
     0
 77
     2
 78
   300
148
0.0
149
0.0
100
AcDbLayout
  1
ﾚｲｱｳﾄ1
 70
     1
 71
     1
 10
0.0
 20
0.0
 11
12.0
 21
9.0
 12
0.0
 22
0.0
 32
0.0
 14
1.000000000000000E+20
 24
1.000000000000000E+20
 34
1.000000000000000E+20
 15
-1.000000000000000E+20
 25
-1.000000000000000E+20
 35
-1.000000000000000E+20
146
0.0
 13
0.0
 23
0.0
 33
0.0
 16
1.0
 26
0.0
 36
0.0
 17
0.0
 27
1.0
 37
0.0
 76
     0
330
16
  0
MATERIAL
  5
8371
102
{ACAD_XDICTIONARY
360
8372
102
}
102
{ACAD_REACTORS
330
8368
102
}
330
8368
100
AcDbMaterial
  1
ByBlock
 72
     0
 43
0.0208333333333333
 43
0.0
 43
0.0
 43
0.0
 43
0.0
 43
0.0208333333333333
 43
0.0
 43
0.0
 43
0.0
 43
0.0
 43
1.0
 43
0.0
 43
0.0
 43
0.0
 43
0.0
 43
1.0
 77
     0
 47
0.0208333333333333
 47
0.0
 47
0.0
 47
0.0
 47
0.0
 47
0.0208333333333333
 47
0.0
 47
0.0
 47
0.0
 47
0.0
 47
1.0
 47
0.0
 47
0.0
 47
0.0
 47
0.0
 47
1.0
171
     0
 49
0.0208333333333333
 49
0.0
 49
0.0
 49
0.0
 49
0.0
 49
0.0208333333333333
 49
0.0
 49
0.0
 49
0.0
 49
0.0
 49
1.0
 49
0.0
 49
0.0
 49
0.0
 49
0.0
 49
1.0
175
     0
142
0.0208333333333333
142
0.0
142
0.0
142
0.0
142
0.0
142
0.0208333333333333
142
0.0
142
0.0
142
0.0
142
0.0
142
1.0
142
0.0
142
0.0
142
0.0
142
0.0
142
1.0
179
     0
144
0.0208333333333333
144
0.0
144
0.0
144
0.0
144
0.0
144
0.0208333333333333
144
0.0
144
0.0
144
0.0
144
0.0
144
1.0
144
0.0
144
0.0
144
0.0
144
0.0
144
1.0
147
0.0208333333333333
147
0.0
147
0.0
147
0.0
147
0.0
147
0.0208333333333333
147
0.0
147
0.0
147
0.0
147
0.0
147
1.0
147
0.0
147
0.0
147
0.0
147
0.0
147
1.0
  0
MATERIAL
  5
8369
102
{ACAD_XDICTIONARY
360
836A
102
}
102
{ACAD_REACTORS
330
8368
102
}
330
8368
100
AcDbMaterial
  1
ByLayer
 72
     0
 43
0.0208333333333333
 43
0.0
 43
0.0
 43
0.0
 43
0.0
 43
0.0208333333333333
 43
0.0
 43
0.0
 43
0.0
 43
0.0
 43
1.0
 43
0.0
 43
0.0
 43
0.0
 43
0.0
 43
1.0
 77
     0
 47
0.0208333333333333
 47
0.0
 47
0.0
 47
0.0
 47
0.0
 47
0.0208333333333333
 47
0.0
 47
0.0
 47
0.0
 47
0.0
 47
1.0
 47
0.0
 47
0.0
 47
0.0
 47
0.0
 47
1.0
171
     0
 49
0.0208333333333333
 49
0.0
 49
0.0
 49
0.0
 49
0.0
 49
0.0208333333333333
 49
0.0
 49
0.0
 49
0.0
 49
0.0
 49
1.0
 49
0.0
 49
0.0
 49
0.0
 49
0.0
 49
1.0
175
     0
142
0.0208333333333333
142
0.0
142
0.0
142
0.0
142
0.0
142
0.0208333333333333
142
0.0
142
0.0
142
0.0
142
0.0
142
1.0
142
0.0
142
0.0
142
0.0
142
0.0
142
1.0
179
     0
144
0.0208333333333333
144
0.0
144
0.0
144
0.0
144
0.0
144
0.0208333333333333
144
0.0
144
0.0
144
0.0
144
0.0
144
1.0
144
0.0
144
0.0
144
0.0
144
0.0
144
1.0
147
0.0208333333333333
147
0.0
147
0.0
147
0.0
147
0.0
147
0.0208333333333333
147
0.0
147
0.0
147
0.0
147
0.0
147
1.0
147
0.0
147
0.0
147
0.0
147
0.0
147
1.0
  0
MATERIAL
  5
8379
102
{ACAD_XDICTIONARY
360
837A
102
}
102
{ACAD_REACTORS
330
8368
102
}
330
8368
100
AcDbMaterial
  1
Global
 72
     0
 43
0.0208333333333333
 43
0.0
 43
0.0
 43
0.0
 43
0.0
 43
0.0208333333333333
 43
0.0
 43
0.0
 43
0.0
 43
0.0
 43
1.0
 43
0.0
 43
0.0
 43
0.0
 43
0.0
 43
1.0
 77
     0
 47
0.0208333333333333
 47
0.0
 47
0.0
 47
0.0
 47
0.0
 47
0.0208333333333333
 47
0.0
 47
0.0
 47
0.0
 47
0.0
 47
1.0
 47
0.0
 47
0.0
 47
0.0
 47
0.0
 47
1.0
171
     0
 49
0.0208333333333333
 49
0.0
 49
0.0
 49
0.0
 49
0.0
 49
0.0208333333333333
 49
0.0
 49
0.0
 49
0.0
 49
0.0
 49
1.0
 49
0.0
 49
0.0
 49
0.0
 49
0.0
 49
1.0
175
     0
142
0.0208333333333333
142
0.0
142
0.0
142
0.0
142
0.0
142
0.0208333333333333
142
0.0
142
0.0
142
0.0
142
0.0
142
1.0
142
0.0
142
0.0
142
0.0
142
0.0
142
1.0
179
     0
144
0.0208333333333333
144
0.0
144
0.0
144
0.0
144
0.0
144
0.0208333333333333
144
0.0
144
0.0
144
0.0
144
0.0
144
1.0
144
0.0
144
0.0
144
0.0
144
0.0
144
1.0
147
0.0208333333333333
147
0.0
147
0.0
147
0.0
147
0.0
147
0.0208333333333333
147
0.0
147
0.0
147
0.0
147
0.0
147
1.0
147
0.0
147
0.0
147
0.0
147
0.0
147
1.0
  0
MLEADERSTYLE
  5
83B0
102
{ACAD_REACTORS
330
83AF
102
}
330
83AF
100
AcDbMLeaderStyle
179
     2
170
     2
171
     1
172
     0
 90
        2
 40
0.0
 41
0.0
173
     1
 91
-1056964608
340
13
 92
       -2
290
     1
 42
2.0
291
     1
 43
0.36
  3
Standard
 44
4.0
300

342
10
174
     1
178
     6
175
     1
176
     0
 93
-1056964608
 45
4.0
292
     0
297
     0
 46
4.0
 94
-1056964608
 47
1.0
 49
1.0
140
1.0
293
     1
141
0.0
294
     1
177
     0
142
1.0
295
     0
296
     0
143
0.125
271
     0
272
     9
273
     9
298
     1
  0
MLINESTYLE
  5
1C
102
{ACAD_REACTORS
330
E
102
}
330
E
100
AcDbMlineStyle
  2
STANDARD
 70
     0
  3

 62
     0
 51
90.0
 52
90.0
 71
     2
 49
0.5
 62
   256
  6
BYLAYER
 49
-0.5
 62
   256
  6
BYLAYER
  0
ACDBPLACEHOLDER
  5
8270
102
{ACAD_REACTORS
330
826F
102
}
330
826F
  0
SCALE
  5
839E
102
{ACAD_REACTORS
330
839D
102
}
330
839D
100
AcDbScale
 70
     0
300
1:1
140
1.0
141
1.0
290
     1
  0
SCALE
  5
839F
102
{ACAD_REACTORS
330
839D
102
}
330
839D
100
AcDbScale
 70
     0
300
1:2
140
1.0
141
2.0
290
     0
  0
SCALE
  5
83A0
102
{ACAD_REACTORS
330
839D
102
}
330
839D
100
AcDbScale
 70
     0
300
1:4
140
1.0
141
4.0
290
     0
  0
SCALE
  5
83A1
102
{ACAD_REACTORS
330
839D
102
}
330
839D
100
AcDbScale
 70
     0
300
1:5
140
1.0
141
5.0
290
     0
  0
SCALE
  5
83A2
102
{ACAD_REACTORS
330
839D
102
}
330
839D
100
AcDbScale
 70
     0
300
1:8
140
1.0
141
8.0
290
     0
  0
SCALE
  5
83A3
102
{ACAD_REACTORS
330
839D
102
}
330
839D
100
AcDbScale
 70
     0
300
1:10
140
1.0
141
10.0
290
     0
  0
SCALE
  5
83A4
102
{ACAD_REACTORS
330
839D
102
}
330
839D
100
AcDbScale
 70
     0
300
1:16
140
1.0
141
16.0
290
     0
  0
SCALE
  5
83A5
102
{ACAD_REACTORS
330
839D
102
}
330
839D
100
AcDbScale
 70
     0
300
1:20
140
1.0
141
20.0
290
     0
  0
SCALE
  5
83A6
102
{ACAD_REACTORS
330
839D
102
}
330
839D
100
AcDbScale
 70
     0
300
1:30
140
1.0
141
30.0
290
     0
  0
SCALE
  5
83A7
102
{ACAD_REACTORS
330
839D
102
}
330
839D
100
AcDbScale
 70
     0
300
1:40
140
1.0
141
40.0
290
     0
  0
SCALE
  5
83A8
102
{ACAD_REACTORS
330
839D
102
}
330
839D
100
AcDbScale
 70
     0
300
1:50
140
1.0
141
50.0
290
     0
  0
SCALE
  5
83A9
102
{ACAD_REACTORS
330
839D
102
}
330
839D
100
AcDbScale
 70
     0
300
1:100
140
1.0
141
100.0
290
     0
  0
SCALE
  5
83AA
102
{ACAD_REACTORS
330
839D
102
}
330
839D
100
AcDbScale
 70
     0
300
2:1
140
2.0
141
1.0
290
     0
  0
SCALE
  5
83AB
102
{ACAD_REACTORS
330
839D
102
}
330
839D
100
AcDbScale
 70
     0
300
4:1
140
4.0
141
1.0
290
     0
  0
SCALE
  5
83AC
102
{ACAD_REACTORS
330
839D
102
}
330
839D
100
AcDbScale
 70
     0
300
8:1
140
8.0
141
1.0
290
     0
  0
SCALE
  5
83AD
102
{ACAD_REACTORS
330
839D
102
}
330
839D
100
AcDbScale
 70
     0
300
10:1
140
10.0
141
1.0
290
     0
  0
SCALE
  5
83AE
102
{ACAD_REACTORS
330
839D
102
}
330
839D
100
AcDbScale
 70
     0
300
100:1
140
100.0
141
1.0
290
     0
  0
ACDBSECTIONVIEWSTYLE
  5
83B2
102
{ACAD_XDICTIONARY
360
8435
102
}
102
{ACAD_REACTORS
330
83B1
102
}
330
83B1
100
AcDbModelDocViewStyle
 70
     0
  3
Metric50
290
     0
100
AcDbSectionViewStyle
 70
     0
 71
     0
 90
      102
 71
     1
340
10
 62
   256
 40
5.0
340
0
340
0
 62
   256
 40
5.0
300
I, O, Q, S, X, Z
 40
10.0
 90
        0
 40
2.5
 90
        0
 71
     2
340
15
 90
       25
 62
   256
340
15
 90
       50
 62
   256
 40
5.0
 40
2.5
 40
5.0
 71
     3
340
10
 62
   256
 40
5.0
 90
        0
 40
15.0
 90
        1
300
%<\AcVar ViewSectionStartId>%-%<\AcVar ViewSectionEndId>% (%<\AcVar ViewScale \f "%sn">%)
 71
     4
 62
   256
 62
   257
300
ANSI31
 40
1.0
 90
        0
290
     0
290
     0
 90
        6
 40
0.0
 40
1.570796326794896
 40
0.2617993877991494
 40
1.308996938995747
 40
-0.2617993877991494
 40
1.832595714594046
  0
TABLESTYLE
  5
839C
102
{ACAD_XDICTIONARY
360
842A
102
}
102
{ACAD_REACTORS
330
839B
102
}
330
839B
100
AcDbTableStyle
280
     0
  3
Standard
 70
     0
 71
     0
 40
1.5
 41
1.5
280
     0
281
     0
  7
STANDARD
140
4.5
170
     2
 62
     0
 63
     7
283
     0
 90
      512
 91
        0
  1

274
    -2
284
     1
 64
     0
275
    -2
285
     1
 65
     0
276
    -2
286
     1
 66
     0
277
    -2
287
     1
 67
     0
278
    -2
288
     1
 68
     0
279
    -2
289
     1
 69
     0
  7
STANDARD
140
6.0
170
     5
 62
     0
 63
     7
283
     0
 90
      512
 91
        0
  1

274
    -2
284
     1
 64
     0
275
    -2
285
     1
 65
     0
276
    -2
286
     1
 66
     0
277
    -2
287
     1
 67
     0
278
    -2
288
     1
 68
     0
279
    -2
289
     1
 69
     0
  7
STANDARD
140
4.5
170
     5
 62
     0
 63
     7
283
     0
 90
      512
 91
        0
  1

274
    -2
284
     1
 64
     0
275
    -2
285
     1
 65
     0
276
    -2
286
     1
 66
     0
277
    -2
287
     1
 67
     0
278
    -2
288
     1
 68
     0
279
    -2
289
     1
 69
     0
  0
VISUALSTYLE
  5
8387
102
{ACAD_REACTORS
330
8381
102
}
330
8381
100
AcDbVisualStyle
  2
2dWireframe
 70
     4
177
     3
291
     0
 70
    58
 90
        0
176
     1
 90
        2
176
     1
 90
        0
176
     1
 90
        0
176
     1
 40
0.6
176
     1
 40
30.0
176
     1
 62
     7
420
 16777215
176
     1
 90
        1
176
     1
 90
        4
176
     1
 62
     7
176
     1
 62
   257
176
     1
 90
        1
176
     1
 90
        1
176
     1
 40
1.0
176
     1
 90
        0
176
     1
 62
   257
176
     1
 40
1.0
176
     1
 90
        1
176
     1
 90
        6
176
     1
 90
        2
176
     1
 62
     7
176
     1
 90
        5
176
     1
 90
        0
176
     1
 90
        0
176
     1
290
     0
176
     1
 90
        1
176
     1
 40
0.0
176
     1
 90
        0
176
     1
290
     1
176
     1
290
     1
176
     1
290
     0
176
     1
290
     0
176
     1
290
     0
176
     1
290
     0
176
     1
290
     0
176
     1
290
     0
176
     1
290
     0
176
     1
 90
       50
176
     1
 40
0.0
176
     1
 40
1.0
176
     1
 90
        0
176
     1
 62
    18
420
        0
176
     1
 90
       50
176
     1
 90
        3
176
     1
 62
     5
420
      255
176
     1
290
     0
176
     1
 90
       50
176
     1
 90
       50
176
     1
 90
       50
176
     1
290
     0
176
     1
 90
       50
176
     1
 62
   256
176
     0
 40
1.0
176
     0
 90
        2
176
     1
  1
strokes_ogs.tif
176
     1
290
     0
176
     1
 40
1.0
176
     1
 40
1.0
176
     1
1001
ACAD
1000
AcDbSavedByObjectVersion
1070
     0
  0
VISUALSTYLE
  5
8386
102
{ACAD_REACTORS
330
8381
102
}
330
8381
100
AcDbVisualStyle
  2
Basic
 70
     7
177
     3
291
     1
 70
    58
 90
        1
176
     1
 90
        0
176
     1
 90
        1
176
     1
 90
        0
176
     1
 40
0.6
176
     1
 40
30.0
176
     1
 62
     7
420
 16777215
176
     1
 90
        0
176
     1
 90
        4
176
     1
 62
     7
176
     1
 62
   257
176
     1
 90
        1
176
     1
 90
        1
176
     1
 40
1.0
176
     1
 90
        8
176
     1
 62
     7
176
     1
 40
1.0
176
     1
 90
        1
176
     1
 90
        6
176
     1
 90
        2
176
     1
 62
     7
176
     1
 90
        5
176
     1
 90
        0
176
     1
 90
        0
176
     1
290
     0
176
     1
 90
        1
176
     1
 40
0.0
176
     1
 90
        0
176
     1
290
     0
176
     1
290
     1
176
     1
290
     1
176
     1
290
     0
176
     1
290
     0
176
     1
290
     0
176
     1
290
     0
176
     1
290
     0
176
     1
290
     0
176
     1
 90
       50
176
     1
 40
0.0
176
     1
 40
1.0
176
     1
 90
        0
176
     1
 62
    18
420
        0
176
     1
 90
       50
176
     1
 90
        3
176
     1
 62
     5
420
      255
176
     1
290
     0
176
     1
 90
       50
176
     1
 90
       50
176
     1
 90
       50
176
     1
290
     0
176
     1
 90
       50
176
     1
 62
   256
176
     0
 40
1.0
176
     0
 90
        2
176
     1
  1
strokes_ogs.tif
176
     1
290
     0
176
     1
 40
1.0
176
     1
 40
1.0
176
     1
1001
ACAD
1000
AcDbSavedByObjectVersion
1070
     0
  0
VISUALSTYLE
  5
838D
102
{ACAD_REACTORS
330
8381
102
}
330
8381
100
AcDbVisualStyle
  2
Brighten
 70
    12
177
     3
291
     1
 70
    58
 90
        2
176
     1
 90
        2
176
     1
 90
        0
176
     1
 90
        0
176
     1
 40
0.6
176
     1
 40
30.0
176
     1
 62
     7
420
 16777215
176
     1
 90
        1
176
     1
 90
        4
176
     1
 62
     7
176
     1
 62
   257
176
     1
 90
        1
176
     1
 90
        1
176
     1
 40
1.0
176
     1
 90
        8
176
     1
 62
     7
176
     1
 40
1.0
176
     1
 90
        1
176
     1
 90
        6
176
     1
 90
        2
176
     1
 62
     7
176
     1
 90
        5
176
     1
 90
        0
176
     1
 90
        0
176
     1
290
     0
176
     1
 90
        1
176
     1
 40
50.0
176
     1
 90
        0
176
     1
290
     0
176
     1
290
     1
176
     1
290
     1
176
     1
290
     0
176
     1
290
     0
176
     1
290
     0
176
     1
290
     0
176
     1
290
     0
176
     1
290
     0
176
     1
 90
       50
176
     1
 40
0.0
176
     1
 40
1.0
176
     1
 90
        0
176
     1
 62
    18
420
        0
176
     1
 90
       50
176
     1
 90
        3
176
     1
 62
     5
420
      255
176
     1
290
     0
176
     1
 90
       50
176
     1
 90
       50
176
     1
 90
       50
176
     1
290
     0
176
     1
 90
       50
176
     1
 62
   256
176
     0
 40
1.0
176
     0
 90
        2
176
     1
  1
strokes_ogs.tif
176
     1
290
     0
176
     1
 40
1.0
176
     1
 40
1.0
176
     1
1001
ACAD
1000
AcDbSavedByObjectVersion
1070
     0
  0
VISUALSTYLE
  5
8391
102
{ACAD_REACTORS
330
8381
102
}
330
8381
100
AcDbVisualStyle
  2
ColorChange
 70
    16
177
     3
291
     1
 70
    58
 90
        2
176
     1
 90
        2
176
     1
 90
        3
176
     1
 90
        0
176
     1
 40
0.6
176
     1
 40
30.0
176
     1
 62
     8
420
  8421504
176
     1
 90
        1
176
     1
 90
        4
176
     1
 62
     7
176
     1
 62
   257
176
     1
 90
        1
176
     1
 90
        1
176
     1
 40
1.0
176
     1
 90
        8
176
     1
 62
     8
420
  8421504
176
     1
 40
1.0
176
     1
 90
        1
176
     1
 90
        6
176
     1
 90
        2
176
     1
 62
     7
176
     1
 90
        5
176
     1
 90
        0
176
     1
 90
        0
176
     1
290
     0
176
     1
 90
        1
176
     1
 40
0.0
176
     1
 90
        0
176
     1
290
     0
176
     1
290
     1
176
     1
290
     1
176
     1
290
     0
176
     1
290
     0
176
     1
290
     0
176
     1
290
     0
176
     1
290
     0
176
     1
290
     0
176
     1
 90
       50
176
     1
 40
0.0
176
     1
 40
1.0
176
     1
 90
        0
176
     1
 62
    18
420
        0
176
     1
 90
       50
176
     1
 90
        3
176
     1
 62
     5
420
      255
176
     1
290
     0
176
     1
 90
       50
176
     1
 90
       50
176
     1
 90
       50
176
     1
290
     0
176
     1
 90
       50
176
     1
 62
   256
176
     0
 40
1.0
176
     0
 90
        2
176
     1
  1
strokes_ogs.tif
176
     1
290
     0
176
     1
 40
1.0
176
     1
 40
1.0
176
     1
1001
ACAD
1000
AcDbSavedByObjectVersion
1070
     0
  0
VISUALSTYLE
  5
838A
102
{ACAD_REACTORS
330
8381
102
}
330
8381
100
AcDbVisualStyle
  2
Conceptual
 70
     9
177
     3
291
     0
 70
    58
 90
        3
176
     1
 90
        2
176
     1
 90
        0
176
     1
 90
        0
176
     1
 40
0.6
176
     1
 40
30.0
176
     1
 62
     7
420
 16777215
176
     1
 90
        2
176
     1
 90
        2
176
     1
 62
     7
176
     1
 62
   257
176
     1
 90
        1
176
     1
 90
        1
176
     1
 40
179.0
176
     1
 90
        8
176
     1
 62
     7
176
     1
 40
1.0
176
     1
 90
        1
176
     1
 90
        6
176
     1
 90
        2
176
     1
 62
     7
176
     1
 90
        3
176
     1
 90
        0
176
     1
 90
        0
176
     1
290
     0
176
     1
 90
        1
176
     1
 40
0.0
176
     1
 90
        0
176
     1
290
     0
176
     1
290
     1
176
     1
290
     1
176
     1
290
     0
176
     1
290
     0
176
     1
290
     0
176
     1
290
     0
176
     1
290
     0
176
     1
290
     0
176
     1
 90
       50
176
     1
 40
0.0
176
     1
 40
1.0
176
     1
 90
        0
176
     1
 62
    18
420
        0
176
     1
 90
       50
176
     1
 90
        3
176
     1
 62
     5
420
      255
176
     1
290
     0
176
     1
 90
       50
176
     1
 90
       50
176
     1
 90
       50
176
     1
290
     0
176
     1
 90
       50
176
     1
 62
   256
176
     0
 40
1.0
176
     0
 90
        2
176
     1
  1
strokes_ogs.tif
176
     1
290
     0
176
     1
 40
1.0
176
     1
 40
1.0
176
     1
1001
ACAD
1000
AcDbSavedByObjectVersion
1070
     0
  0
VISUALSTYLE
  5
838C
102
{ACAD_REACTORS
330
8381
102
}
330
8381
100
AcDbVisualStyle
  2
Dim
 70
    11
177
     3
291
     1
 70
    58
 90
        2
176
     1
 90
        2
176
     1
 90
        0
176
     1
 90
        0
176
     1
 40
0.6
176
     1
 40
30.0
176
     1
 62
     7
420
 16777215
176
     1
 90
        1
176
     1
 90
        4
176
     1
 62
     7
176
     1
 62
   257
176
     1
 90
        1
176
     1
 90
        1
176
     1
 40
1.0
176
     1
 90
        8
176
     1
 62
     7
176
     1
 40
1.0
176
     1
 90
        1
176
     1
 90
        6
176
     1
 90
        2
176
     1
 62
     7
176
     1
 90
        5
176
     1
 90
        0
176
     1
 90
        0
176
     1
290
     0
176
     1
 90
        1
176
     1
 40
-50.0
176
     1
 90
        0
176
     1
290
     0
176
     1
290
     1
176
     1
290
     1
176
     1
290
     0
176
     1
290
     0
176
     1
290
     0
176
     1
290
     0
176
     1
290
     0
176
     1
290
     0
176
     1
 90
       50
176
     1
 40
0.0
176
     1
 40
1.0
176
     1
 90
        0
176
     1
 62
    18
420
        0
176
     1
 90
       50
176
     1
 90
        3
176
     1
 62
     5
420
      255
176
     1
290
     0
176
     1
 90
       50
176
     1
 90
       50
176
     1
 90
       50
176
     1
290
     0
176
     1
 90
       50
176
     1
 62
   256
176
     0
 40
1.0
176
     0
 90
        2
176
     1
  1
strokes_ogs.tif
176
     1
290
     0
176
     1
 40
1.0
176
     1
 40
1.0
176
     1
1001
ACAD
1000
AcDbSavedByObjectVersion
1070
     0
  0
VISUALSTYLE
  5
8399
102
{ACAD_REACTORS
330
8381
102
}
330
8381
100
AcDbVisualStyle
  2
EdgeColorOff
 70
    22
177
     3
291
     1
 70
    58
 90
        2
176
     0
 90
        2
176
     0
 90
        0
176
     0
 90
        0
176
     0
 40
0.6
176
     0
 40
30.0
176
     0
 62
     7
420
 16777215
176
     0
 90
        1
176
     0
 90
        4
176
     0
 62
     7
176
     0
 62
   257
176
     0
 90
        1
176
     0
 90
        1
176
     0
 40
1.0
176
     0
 90
        8
176
     2
 62
     7
176
     0
 40
1.0
176
     0
 90
        1
176
     0
 90
        6
176
     0
 90
        2
176
     0
 62
     7
176
     0
 90
        5
176
     0
 90
        0
176
     0
 90
        0
176
     0
290
     0
176
     0
 90
        1
176
     0
 40
0.0
176
     0
 90
        0
176
     0
290
     0
176
     0
290
     1
176
     0
290
     1
176
     0
290
     0
176
     0
290
     0
176
     0
290
     0
176
     0
290
     0
176
     0
290
     0
176
     0
290
     0
176
     0
 90
       50
176
     0
 40
0.0
176
     0
 40
1.0
176
     0
 90
        0
176
     0
 62
    18
420
        0
176
     0
 90
       50
176
     0
 90
        3
176
     0
 62
     5
420
      255
176
     0
290
     0
176
     0
 90
       50
176
     0
 90
       50
176
     0
 90
       50
176
     0
290
     0
176
     0
 90
       50
176
     0
 62
   256
176
     0
 40
1.0
176
     0
 90
        2
176
     0
  1
strokes_ogs.tif
176
     0
290
     0
176
     0
 40
1.0
176
     0
 40
1.0
176
     0
1001
ACAD
1000
AcDbSavedByObjectVersion
1070
     0
  0
VISUALSTYLE
  5
8390
102
{ACAD_REACTORS
330
8381
102
}
330
8381
100
AcDbVisualStyle
  2
Facepattern
 70
    15
177
     3
291
     1
 70
    58
 90
        2
176
     1
 90
        2
176
     1
 90
        0
176
     1
 90
        0
176
     1
 40
0.6
176
     1
 40
30.0
176
     1
 62
     7
420
 16777215
176
     1
 90
        1
176
     1
 90
        4
176
     1
 62
     7
176
     1
 62
   257
176
     1
 90
        1
176
     1
 90
        1
176
     1
 40
1.0
176
     1
 90
        8
176
     1
 62
     7
176
     1
 40
1.0
176
     1
 90
        1
176
     1
 90
        6
176
     1
 90
        2
176
     1
 62
     7
176
     1
 90
        5
176
     1
 90
        0
176
     1
 90
        0
176
     1
290
     0
176
     1
 90
        1
176
     1
 40
0.0
176
     1
 90
        0
176
     1
290
     0
176
     1
290
     1
176
     1
290
     1
176
     1
290
     0
176
     1
290
     0
176
     1
290
     0
176
     1
290
     0
176
     1
290
     0
176
     1
290
     0
176
     1
 90
       50
176
     1
 40
0.0
176
     1
 40
1.0
176
     1
 90
        0
176
     1
 62
    18
420
        0
176
     1
 90
       50
176
     1
 90
        3
176
     1
 62
     5
420
      255
176
     1
290
     0
176
     1
 90
       50
176
     1
 90
       50
176
     1
 90
       50
176
     1
290
     0
176
     1
 90
       50
176
     1
 62
   256
176
     0
 40
1.0
176
     0
 90
        2
176
     1
  1
strokes_ogs.tif
176
     1
290
     0
176
     1
 40
1.0
176
     1
 40
1.0
176
     1
1001
ACAD
1000
AcDbSavedByObjectVersion
1070
     0
  0
VISUALSTYLE
  5
8382
102
{ACAD_REACTORS
330
8381
102
}
330
8381
100
AcDbVisualStyle
  2
Flat
 70
     0
177
     3
291
     1
 70
    58
 90
        2
176
     1
 90
        1
176
     1
 90
        1
176
     1
 90
        2
176
     1
 40
0.6
176
     1
 40
30.0
176
     1
 62
     7
420
 16777215
176
     1
 90
        0
176
     1
 90
        0
176
     1
 62
     7
176
     1
 62
   257
176
     1
 90
        1
176
     1
 90
        1
176
     1
 40
1.0
176
     1
 90
        8
176
     1
 62
     7
176
     1
 40
1.0
176
     1
 90
        1
176
     1
 90
        6
176
     1
 90
        2
176
     1
 62
     7
176
     1
 90
        5
176
     1
 90
        0
176
     1
 90
        0
176
     1
290
     0
176
     1
 90
       13
176
     1
 40
0.0
176
     1
 90
        0
176
     1
290
     0
176
     1
290
     1
176
     1
290
     1
176
     1
290
     0
176
     1
290
     0
176
     1
290
     0
176
     1
290
     0
176
     1
290
     0
176
     1
290
     0
176
     1
 90
       50
176
     1
 40
0.0
176
     1
 40
1.0
176
     1
 90
        0
176
     1
 62
    18
420
        0
176
     1
 90
       50
176
     1
 90
        3
176
     1
 62
     5
420
      255
176
     1
290
     0
176
     1
 90
       50
176
     1
 90
       50
176
     1
 90
       50
176
     1
290
     0
176
     1
 90
       50
176
     1
 62
   256
176
     0
 40
1.0
176
     0
 90
        2
176
     1
  1
strokes_ogs.tif
176
     1
290
     0
176
     1
 40
1.0
176
     1
 40
1.0
176
     1
1001
ACAD
1000
AcDbSavedByObjectVersion
1070
     0
  0
VISUALSTYLE
  5
8383
102
{ACAD_REACTORS
330
8381
102
}
330
8381
100
AcDbVisualStyle
  2
FlatWithEdges
 70
     1
177
     3
291
     1
 70
    58
 90
        2
176
     1
 90
        1
176
     1
 90
        1
176
     1
 90
        2
176
     1
 40
0.6
176
     1
 40
30.0
176
     1
 62
     7
420
 16777215
176
     1
 90
        1
176
     1
 90
        0
176
     1
 62
     7
176
     1
 62
   257
176
     1
 90
        1
176
     1
 90
        1
176
     1
 40
1.0
176
     1
 90
        0
176
     1
 62
   257
176
     1
 40
1.0
176
     1
 90
        1
176
     1
 90
        6
176
     1
 90
        2
176
     1
 62
     7
176
     1
 90
        5
176
     1
 90
        0
176
     1
 90
        0
176
     1
290
     0
176
     1
 90
       13
176
     1
 40
0.0
176
     1
 90
        0
176
     1
290
     0
176
     1
290
     1
176
     1
290
     1
176
     1
290
     0
176
     1
290
     0
176
     1
290
     0
176
     1
290
     0
176
     1
290
     0
176
     1
290
     0
176
     1
 90
       50
176
     1
 40
0.0
176
     1
 40
1.0
176
     1
 90
        0
176
     1
 62
    18
420
        0
176
     1
 90
       50
176
     1
 90
        3
176
     1
 62
     5
420
      255
176
     1
290
     0
176
     1
 90
       50
176
     1
 90
       50
176
     1
 90
       50
176
     1
290
     0
176
     1
 90
       50
176
     1
 62
   256
176
     0
 40
1.0
176
     0
 90
        2
176
     1
  1
strokes_ogs.tif
176
     1
290
     0
176
     1
 40
1.0
176
     1
 40
1.0
176
     1
1001
ACAD
1000
AcDbSavedByObjectVersion
1070
     0
  0
VISUALSTYLE
  5
8384
102
{ACAD_REACTORS
330
8381
102
}
330
8381
100
AcDbVisualStyle
  2
Gouraud
 70
     2
177
     3
291
     1
 70
    58
 90
        2
176
     1
 90
        2
176
     1
 90
        1
176
     1
 90
        2
176
     1
 40
0.6
176
     1
 40
30.0
176
     1
 62
     7
420
 16777215
176
     1
 90
        0
176
     1
 90
        0
176
     1
 62
     7
176
     1
 62
   257
176
     1
 90
        1
176
     1
 90
        1
176
     1
 40
1.0
176
     1
 90
        0
176
     1
 62
     7
176
     1
 40
1.0
176
     1
 90
        1
176
     1
 90
        6
176
     1
 90
        2
176
     1
 62
     7
176
     1
 90
        5
176
     1
 90
        0
176
     1
 90
        0
176
     1
290
     0
176
     1
 90
       13
176
     1
 40
0.0
176
     1
 90
        0
176
     1
290
     0
176
     1
290
     1
176
     1
290
     1
176
     1
290
     0
176
     1
290
     0
176
     1
290
     0
176
     1
290
     0
176
     1
290
     0
176
     1
290
     0
176
     1
 90
       50
176
     1
 40
0.0
176
     1
 40
1.0
176
     1
 90
        0
176
     1
 62
    18
420
        0
176
     1
 90
       50
176
     1
 90
        3
176
     1
 62
     5
420
      255
176
     1
290
     0
176
     1
 90
       50
176
     1
 90
       50
176
     1
 90
       50
176
     1
290
     0
176
     1
 90
       50
176
     1
 62
   256
176
     0
 40
1.0
176
     0
 90
        2
176
     1
  1
strokes_ogs.tif
176
     1
290
     0
176
     1
 40
1.0
176
     1
 40
1.0
176
     1
1001
ACAD
1000
AcDbSavedByObjectVersion
1070
     0
  0
VISUALSTYLE
  5
8385
102
{ACAD_REACTORS
330
8381
102
}
330
8381
100
AcDbVisualStyle
  2
GouraudWithEdges
 70
     3
177
     3
291
     1
 70
    58
 90
        2
176
     1
 90
        2
176
     1
 90
        1
176
     1
 90
        2
176
     1
 40
0.6
176
     1
 40
30.0
176
     1
 62
     7
420
 16777215
176
     1
 90
        1
176
     1
 90
        0
176
     1
 62
     7
176
     1
 62
   257
176
     1
 90
        1
176
     1
 90
        1
176
     1
 40
1.0
176
     1
 90
        0
176
     1
 62
   257
176
     1
 40
1.0
176
     1
 90
        1
176
     1
 90
        6
176
     1
 90
        2
176
     1
 62
     7
176
     1
 90
        5
176
     1
 90
        0
176
     1
 90
        0
176
     1
290
     0
176
     1
 90
       13
176
     1
 40
0.0
176
     1
 90
        0
176
     1
290
     0
176
     1
290
     1
176
     1
290
     1
176
     1
290
     0
176
     1
290
     0
176
     1
290
     0
176
     1
290
     0
176
     1
290
     0
176
     1
290
     0
176
     1
 90
       50
176
     1
 40
0.0
176
     1
 40
1.0
176
     1
 90
        0
176
     1
 62
    18
420
        0
176
     1
 90
       50
176
     1
 90
        3
176
     1
 62
     5
420
      255
176
     1
290
     0
176
     1
 90
       50
176
     1
 90
       50
176
     1
 90
       50
176
     1
290
     0
176
     1
 90
       50
176
     1
 62
   256
176
     0
 40
1.0
176
     0
 90
        2
176
     1
  1
strokes_ogs.tif
176
     1
290
     0
176
     1
 40
1.0
176
     1
 40
1.0
176
     1
1001
ACAD
1000
AcDbSavedByObjectVersion
1070
     0
  0
VISUALSTYLE
  5
8389
102
{ACAD_REACTORS
330
8381
102
}
330
8381
100
AcDbVisualStyle
  2
Hidden
 70
     6
177
     3
291
     0
 70
    58
 90
        1
176
     1
 90
        2
176
     1
 90
        2
176
     1
 90
        0
176
     1
 40
0.6
176
     1
 40
30.0
176
     1
 62
     7
420
 16777215
176
     1
 90
        2
176
     1
 90
        2
176
     1
 62
     7
176
     1
 62
   257
176
     1
 90
        2
176
     1
 90
        1
176
     1
 40
40.0
176
     1
 90
        0
176
     1
 62
   257
176
     1
 40
1.0
176
     1
 90
        1
176
     1
 90
        6
176
     1
 90
        2
176
     1
 62
     7
176
     1
 90
        3
176
     1
 90
        0
176
     1
 90
        0
176
     1
290
     0
176
     1
 90
        1
176
     1
 40
0.0
176
     1
 90
        0
176
     1
290
     0
176
     1
290
     1
176
     1
290
     1
176
     1
290
     0
176
     1
290
     0
176
     1
290
     0
176
     1
290
     0
176
     1
290
     0
176
     1
290
     0
176
     1
 90
       50
176
     1
 40
0.0
176
     1
 40
1.0
176
     1
 90
        0
176
     1
 62
    18
420
        0
176
     1
 90
       50
176
     1
 90
        3
176
     1
 62
     5
420
      255
176
     1
290
     0
176
     1
 90
       50
176
     1
 90
       50
176
     1
 90
       50
176
     1
290
     0
176
     1
 90
       50
176
     1
 62
   256
176
     0
 40
1.0
176
     0
 90
        2
176
     1
  1
strokes_ogs.tif
176
     1
290
     0
176
     1
 40
1.0
176
     1
 40
1.0
176
     1
1001
ACAD
1000
AcDbSavedByObjectVersion
1070
     0
  0
VISUALSTYLE
  5
8397
102
{ACAD_REACTORS
330
8381
102
}
330
8381
100
AcDbVisualStyle
  2
JitterOff
 70
    20
177
     3
291
     1
 70
    58
 90
        2
176
     0
 90
        2
176
     0
 90
        0
176
     0
 90
        0
176
     0
 40
0.6
176
     0
 40
30.0
176
     0
 62
     7
420
 16777215
176
     0
 90
        1
176
     0
 90
        4
176
     0
 62
     7
176
     0
 62
   257
176
     0
 90
        1
176
     0
 90
        1
176
     0
 40
1.0
176
     0
 90
       10
176
     2
 62
     7
176
     0
 40
1.0
176
     0
 90
        1
176
     0
 90
        6
176
     0
 90
        2
176
     0
 62
     7
176
     0
 90
        5
176
     0
 90
        0
176
     0
 90
        0
176
     0
290
     0
176
     0
 90
        1
176
     0
 40
0.0
176
     0
 90
        0
176
     0
290
     0
176
     0
290
     1
176
     0
290
     1
176
     0
290
     0
176
     0
290
     0
176
     0
290
     0
176
     0
290
     0
176
     0
290
     0
176
     0
290
     0
176
     0
 90
       50
176
     0
 40
0.0
176
     0
 40
1.0
176
     0
 90
        0
176
     0
 62
    18
420
        0
176
     0
 90
       50
176
     0
 90
        3
176
     0
 62
     5
420
      255
176
     0
290
     0
176
     0
 90
       50
176
     0
 90
       50
176
     0
 90
       50
176
     0
290
     0
176
     0
 90
       50
176
     0
 62
   256
176
     0
 40
1.0
176
     0
 90
        2
176
     0
  1
strokes_ogs.tif
176
     0
290
     0
176
     0
 40
1.0
176
     0
 40
1.0
176
     0
1001
ACAD
1000
AcDbSavedByObjectVersion
1070
     0
  0
VISUALSTYLE
  5
838F
102
{ACAD_REACTORS
330
8381
102
}
330
8381
100
AcDbVisualStyle
  2
Linepattern
 70
    14
177
     3
291
     1
 70
    58
 90
        2
176
     1
 90
        2
176
     1
 90
        0
176
     1
 90
        0
176
     1
 40
0.6
176
     1
 40
30.0
176
     1
 62
     7
420
 16777215
176
     1
 90
        1
176
     1
 90
        4
176
     1
 62
     7
176
     1
 62
   257
176
     1
 90
        7
176
     1
 90
        7
176
     1
 40
1.0
176
     1
 90
        8
176
     1
 62
     7
176
     1
 40
1.0
176
     1
 90
        1
176
     1
 90
        6
176
     1
 90
        2
176
     1
 62
     7
176
     1
 90
        5
176
     1
 90
        0
176
     1
 90
        0
176
     1
290
     0
176
     1
 90
        1
176
     1
 40
0.0
176
     1
 90
        0
176
     1
290
     0
176
     1
290
     1
176
     1
290
     1
176
     1
290
     0
176
     1
290
     0
176
     1
290
     0
176
     1
290
     0
176
     1
290
     0
176
     1
290
     0
176
     1
 90
       50
176
     1
 40
0.0
176
     1
 40
1.0
176
     1
 90
        0
176
     1
 62
    18
420
        0
176
     1
 90
       50
176
     1
 90
        3
176
     1
 62
     5
420
      255
176
     1
290
     0
176
     1
 90
       50
176
     1
 90
       50
176
     1
 90
       50
176
     1
290
     0
176
     1
 90
       50
176
     1
 62
   256
176
     0
 40
1.0
176
     0
 90
        2
176
     1
  1
strokes_ogs.tif
176
     1
290
     0
176
     1
 40
1.0
176
     1
 40
1.0
176
     1
1001
ACAD
1000
AcDbSavedByObjectVersion
1070
     0
  0
VISUALSTYLE
  5
8398
102
{ACAD_REACTORS
330
8381
102
}
330
8381
100
AcDbVisualStyle
  2
OverhangOff
 70
    21
177
     3
291
     1
 70
    58
 90
        2
176
     0
 90
        2
176
     0
 90
        0
176
     0
 90
        0
176
     0
 40
0.6
176
     0
 40
30.0
176
     0
 62
     7
420
 16777215
176
     0
 90
        1
176
     0
 90
        4
176
     0
 62
     7
176
     0
 62
   257
176
     0
 90
        1
176
     0
 90
        1
176
     0
 40
1.0
176
     0
 90
        9
176
     2
 62
     7
176
     0
 40
1.0
176
     0
 90
        1
176
     0
 90
        6
176
     0
 90
        2
176
     0
 62
     7
176
     0
 90
        5
176
     0
 90
        0
176
     0
 90
        0
176
     0
290
     0
176
     0
 90
        1
176
     0
 40
0.0
176
     0
 90
        0
176
     0
290
     0
176
     0
290
     1
176
     0
290
     1
176
     0
290
     0
176
     0
290
     0
176
     0
290
     0
176
     0
290
     0
176
     0
290
     0
176
     0
290
     0
176
     0
 90
       50
176
     0
 40
0.0
176
     0
 40
1.0
176
     0
 90
        0
176
     0
 62
    18
420
        0
176
     0
 90
       50
176
     0
 90
        3
176
     0
 62
     5
420
      255
176
     0
290
     0
176
     0
 90
       50
176
     0
 90
       50
176
     0
 90
       50
176
     0
290
     0
176
     0
 90
       50
176
     0
 62
   256
176
     0
 40
1.0
176
     0
 90
        2
176
     0
  1
strokes_ogs.tif
176
     0
290
     0
176
     0
 40
1.0
176
     0
 40
1.0
176
     0
1001
ACAD
1000
AcDbSavedByObjectVersion
1070
     0
  0
VISUALSTYLE
  5
838B
102
{ACAD_REACTORS
330
8381
102
}
330
8381
100
AcDbVisualStyle
  2
Realistic
 70
     8
177
     3
291
     0
 70
    58
 90
        2
176
     1
 90
        3
176
     1
 90
        0
176
     1
 90
        2
176
     1
 40
0.6
176
     1
 40
30.0
176
     1
 62
     7
420
 16777215
176
     1
 90
        0
176
     1
 90
        0
176
     1
 62
     7
176
     1
 62
   257
176
     1
 90
        1
176
     1
 90
        1
176
     1
 40
1.0
176
     1
 90
        8
176
     1
 62
   257
176
     1
 40
1.0
176
     1
 90
        1
176
     1
 90
        6
176
     1
 90
        2
176
     1
 62
     7
176
     1
 90
        3
176
     1
 90
        0
176
     1
 90
        0
176
     1
290
     0
176
     1
 90
       13
176
     1
 40
0.0
176
     1
 90
        0
176
     1
290
     0
176
     1
290
     1
176
     1
290
     1
176
     1
290
     0
176
     1
290
     0
176
     1
290
     0
176
     1
290
     0
176
     1
290
     0
176
     1
290
     0
176
     1
 90
       50
176
     1
 40
0.0
176
     1
 40
1.0
176
     1
 90
        0
176
     1
 62
    18
420
        0
176
     1
 90
       50
176
     1
 90
        3
176
     1
 62
     5
420
      255
176
     1
290
     0
176
     1
 90
       50
176
     1
 90
       50
176
     1
 90
       50
176
     1
290
     0
176
     1
 90
       50
176
     1
 62
   256
176
     0
 40
1.0
176
     0
 90
        2
176
     1
  1
strokes_ogs.tif
176
     1
290
     0
176
     1
 40
1.0
176
     1
 40
1.0
176
     1
1001
ACAD
1000
AcDbSavedByObjectVersion
1070
     0
  0
VISUALSTYLE
  5
8396
102
{ACAD_REACTORS
330
8381
102
}
330
8381
100
AcDbVisualStyle
  2
Shaded
 70
    27
177
     3
291
     0
 70
    58
 90
        2
176
     1
 90
        2
176
     1
 90
        1
176
     1
 90
        2
176
     1
 40
0.6
176
     1
 40
30.0
176
     1
 62
     7
420
 16777215
176
     1
 90
        0
176
     1
 90
        4
176
     1
 62
     7
176
     1
 62
   257
176
     1
 90
        1
176
     1
 90
        1
176
     1
 40
1.0
176
     1
 90
        8
176
     1
 62
   257
176
     1
 40
1.0
176
     1
 90
        1
176
     1
 90
        6
176
     1
 90
        2
176
     1
 62
     8
420
  7895160
176
     1
 90
        3
176
     1
 90
        0
176
     1
 90
        0
176
     1
290
     0
176
     1
 90
        5
176
     1
 40
0.0
176
     1
 90
        0
176
     1
290
     0
176
     1
290
     1
176
     1
290
     1
176
     1
290
     0
176
     1
290
     0
176
     1
290
     0
176
     1
290
     0
176
     1
290
     0
176
     1
290
     0
176
     1
 90
       50
176
     1
 40
0.0
176
     1
 40
1.0
176
     1
 90
        0
176
     1
 62
    18
420
        0
176
     1
 90
       50
176
     1
 90
        3
176
     1
 62
     5
420
      255
176
     1
290
     0
176
     1
 90
       50
176
     1
 90
       50
176
     1
 90
       50
176
     1
290
     0
176
     1
 90
       50
176
     1
 62
   256
176
     0
 40
1.0
176
     0
 90
        2
176
     1
  1
strokes_ogs.tif
176
     1
290
     0
176
     1
 40
1.0
176
     1
 40
1.0
176
     1
1001
ACAD
1000
AcDbSavedByObjectVersion
1070
     0
  0
VISUALSTYLE
  5
8395
102
{ACAD_REACTORS
330
8381
102
}
330
8381
100
AcDbVisualStyle
  2
Shaded with edges
 70
    26
177
     3
291
     0
 70
    58
 90
        2
176
     1
 90
        2
176
     1
 90
        1
176
     1
 90
        2
176
     1
 40
0.6
176
     1
 40
30.0
176
     1
 62
     7
420
 16777215
176
     1
 90
        1
176
     1
 90
        2
176
     1
 62
     7
176
     1
 62
   257
176
     1
 90
        2
176
     1
 90
        1
176
     1
 40
1.0
176
     1
 90
        8
176
     1
 62
   257
176
     1
 40
1.0
176
     1
 90
        1
176
     1
 90
        6
176
     1
 90
        2
176
     1
 62
     7
176
     1
 90
        3
176
     1
 90
        0
176
     1
 90
        0
176
     1
290
     0
176
     1
 90
        5
176
     1
 40
0.0
176
     1
 90
        0
176
     1
290
     0
176
     1
290
     1
176
     1
290
     1
176
     1
290
     0
176
     1
290
     0
176
     1
290
     0
176
     1
290
     0
176
     1
290
     0
176
     1
290
     0
176
     1
 90
       50
176
     1
 40
0.0
176
     1
 40
1.0
176
     1
 90
        0
176
     1
 62
    18
420
        0
176
     1
 90
       50
176
     1
 90
        3
176
     1
 62
     5
420
      255
176
     1
290
     0
176
     1
 90
       50
176
     1
 90
       50
176
     1
 90
       50
176
     1
290
     0
176
     1
 90
       50
176
     1
 62
   256
176
     0
 40
1.0
176
     0
 90
        2
176
     1
  1
strokes_ogs.tif
176
     1
290
     0
176
     1
 40
1.0
176
     1
 40
1.0
176
     1
1001
ACAD
1000
AcDbSavedByObjectVersion
1070
     0
  0
VISUALSTYLE
  5
8392
102
{ACAD_REACTORS
330
8381
102
}
330
8381
100
AcDbVisualStyle
  2
Shades of Gray
 70
    23
177
     3
291
     0
 70
    58
 90
        2
176
     1
 90
        2
176
     1
 90
        3
176
     1
 90
        0
176
     1
 40
0.6
176
     1
 40
30.0
176
     1
 62
     7
420
 16777215
176
     1
 90
        2
176
     1
 90
        2
176
     1
 62
     7
176
     1
 62
     7
176
     1
 90
        1
176
     1
 90
        1
176
     1
 40
40.0
176
     1
 90
        8
176
     1
 62
     7
176
     1
 40
1.0
176
     1
 90
        1
176
     1
 90
        6
176
     1
 90
        2
176
     1
 62
     7
176
     1
 90
        3
176
     1
 90
        0
176
     1
 90
        0
176
     1
290
     0
176
     1
 90
        1
176
     1
 40
0.0
176
     1
 90
        0
176
     1
290
     0
176
     1
290
     1
176
     1
290
     1
176
     1
290
     0
176
     1
290
     0
176
     1
290
     0
176
     1
290
     0
176
     1
290
     0
176
     1
290
     0
176
     1
 90
       50
176
     1
 40
0.0
176
     1
 40
1.0
176
     1
 90
        0
176
     1
 62
    18
420
        0
176
     1
 90
       50
176
     1
 90
        3
176
     1
 62
     5
420
      255
176
     1
290
     0
176
     1
 90
       50
176
     1
 90
       50
176
     1
 90
       50
176
     1
290
     0
176
     1
 90
       50
176
     1
 62
   256
176
     0
 40
1.0
176
     0
 90
        2
176
     1
  1
strokes_ogs.tif
176
     1
290
     0
176
     1
 40
1.0
176
     1
 40
1.0
176
     1
1001
ACAD
1000
AcDbSavedByObjectVersion
1070
     0
  0
VISUALSTYLE
  5
8393
102
{ACAD_REACTORS
330
8381
102
}
330
8381
100
AcDbVisualStyle
  2
Sketchy
 70
    24
177
     3
291
     0
 70
    58
 90
        1
176
     1
 90
        2
176
     1
 90
        2
176
     1
 90
        0
176
     1
 40
0.6
176
     1
 40
30.0
176
     1
 62
     7
420
 16777215
176
     1
 90
        2
176
     1
 90
        2
176
     1
 62
     7
176
     1
 62
     7
176
     1
 90
        1
176
     1
 90
        1
176
     1
 40
40.0
176
     1
 90
       11
176
     1
 62
     7
176
     1
 40
1.0
176
     1
 90
        1
176
     1
 90
        6
176
     1
 90
        2
176
     1
 62
     7
176
     1
 90
        6
176
     1
 90
        0
176
     1
 90
        0
176
     1
290
     0
176
     1
 90
        1
176
     1
 40
0.0
176
     1
 90
        0
176
     1
290
     0
176
     1
290
     1
176
     1
290
     1
176
     1
290
     0
176
     1
290
     0
176
     1
290
     0
176
     1
290
     0
176
     1
290
     0
176
     1
290
     0
176
     1
 90
       50
176
     1
 40
0.0
176
     1
 40
1.0
176
     1
 90
        0
176
     1
 62
    18
420
        0
176
     1
 90
       50
176
     1
 90
        3
176
     1
 62
     5
420
      255
176
     1
290
     0
176
     1
 90
       50
176
     1
 90
       50
176
     1
 90
       50
176
     1
290
     0
176
     1
 90
       50
176
     1
 62
   256
176
     0
 40
1.0
176
     0
 90
        2
176
     1
  1
strokes_ogs.tif
176
     1
290
     0
176
     1
 40
1.0
176
     1
 40
1.0
176
     1
1001
ACAD
1000
AcDbSavedByObjectVersion
1070
     0
  0
VISUALSTYLE
  5
838E
102
{ACAD_REACTORS
330
8381
102
}
330
8381
100
AcDbVisualStyle
  2
Thicken
 70
    13
177
     3
291
     1
 70
    58
 90
        2
176
     1
 90
        2
176
     1
 90
        0
176
     1
 90
        0
176
     1
 40
0.6
176
     1
 40
30.0
176
     1
 62
     7
420
 16777215
176
     1
 90
        1
176
     1
 90
        4
176
     1
 62
     7
176
     1
 62
   257
176
     1
 90
        1
176
     1
 90
        1
176
     1
 40
1.0
176
     1
 90
       12
176
     1
 62
     7
176
     1
 40
1.0
176
     1
 90
        1
176
     1
 90
        6
176
     1
 90
        2
176
     1
 62
     7
176
     1
 90
        5
176
     1
 90
        0
176
     1
 90
        0
176
     1
290
     0
176
     1
 90
        1
176
     1
 40
0.0
176
     1
 90
        0
176
     1
290
     0
176
     1
290
     1
176
     1
290
     1
176
     1
290
     0
176
     1
290
     0
176
     1
290
     0
176
     1
290
     0
176
     1
290
     0
176
     1
290
     0
176
     1
 90
       50
176
     1
 40
0.0
176
     1
 40
1.0
176
     1
 90
        0
176
     1
 62
    18
420
        0
176
     1
 90
       50
176
     1
 90
        3
176
     1
 62
     5
420
      255
176
     1
290
     0
176
     1
 90
       50
176
     1
 90
       50
176
     1
 90
       50
176
     1
290
     0
176
     1
 90
       50
176
     1
 62
   256
176
     0
 40
1.0
176
     0
 90
        2
176
     1
  1
strokes_ogs.tif
176
     1
290
     0
176
     1
 40
1.0
176
     1
 40
1.0
176
     1
1001
ACAD
1000
AcDbSavedByObjectVersion
1070
     0
  0
VISUALSTYLE
  5
8388
102
{ACAD_REACTORS
330
8381
102
}
330
8381
100
AcDbVisualStyle
  2
Wireframe
 70
     5
177
     3
291
     0
 70
    58
 90
        0
176
     1
 90
        2
176
     1
 90
        0
176
     1
 90
        0
176
     1
 40
0.6
176
     1
 40
30.0
176
     1
 62
     7
420
 16777215
176
     1
 90
        1
176
     1
 90
        4
176
     1
 62
     7
176
     1
 62
   257
176
     1
 90
        1
176
     1
 90
        1
176
     1
 40
1.0
176
     1
 90
        0
176
     1
 62
   257
176
     1
 40
1.0
176
     1
 90
        1
176
     1
 90
        6
176
     1
 90
        2
176
     1
 62
     7
176
     1
 90
        3
176
     1
 90
        0
176
     1
 90
        0
176
     1
290
     0
176
     1
 90
        1
176
     1
 40
0.0
176
     1
 90
        0
176
     1
290
     0
176
     1
290
     1
176
     1
290
     1
176
     1
290
     0
176
     1
290
     0
176
     1
290
     0
176
     1
290
     0
176
     1
290
     0
176
     1
290
     0
176
     1
 90
       50
176
     1
 40
0.0
176
     1
 40
1.0
176
     1
 90
        0
176
     1
 62
    18
420
        0
176
     1
 90
       50
176
     1
 90
        3
176
     1
 62
     5
420
      255
176
     1
290
     0
176
     1
 90
       50
176
     1
 90
       50
176
     1
 90
       50
176
     1
290
     0
176
     1
 90
       50
176
     1
 62
   256
176
     0
 40
1.0
176
     0
 90
        2
176
     1
  1
strokes_ogs.tif
176
     1
290
     0
176
     1
 40
1.0
176
     1
 40
1.0
176
     1
1001
ACAD
1000
AcDbSavedByObjectVersion
1070
     0
  0
VISUALSTYLE
  5
8394
102
{ACAD_REACTORS
330
8381
102
}
330
8381
100
AcDbVisualStyle
  2
X-Ray
 70
    25
177
     3
291
     0
 70
    58
 90
        2
176
     1
 90
        2
176
     1
 90
        1
176
     1
 90
        1
176
     1
 40
0.5
176
     1
 40
30.0
176
     1
 62
     7
420
 16777215
176
     1
 90
        1
176
     1
 90
        0
176
     1
 62
     7
176
     1
 62
   257
176
     1
 90
        1
176
     1
 90
        1
176
     1
 40
1.0
176
     1
 90
        8
176
     1
 62
     7
176
     1
 40
1.0
176
     1
 90
        1
176
     1
 90
        6
176
     1
 90
        2
176
     1
 62
     7
176
     1
 90
        3
176
     1
 90
        0
176
     1
 90
        0
176
     1
290
     0
176
     1
 90
       13
176
     1
 40
0.0
176
     1
 90
        0
176
     1
290
     0
176
     1
290
     1
176
     1
290
     1
176
     1
290
     0
176
     1
290
     0
176
     1
290
     0
176
     1
290
     0
176
     1
290
     0
176
     1
290
     0
176
     1
 90
       50
176
     1
 40
0.0
176
     1
 40
1.0
176
     1
 90
        0
176
     1
 62
    18
420
        0
176
     1
 90
       50
176
     1
 90
        3
176
     1
 62
     5
420
      255
176
     1
290
     0
176
     1
 90
       50
176
     1
 90
       50
176
     1
 90
       50
176
     1
290
     0
176
     1
 90
       50
176
     1
 62
   256
176
     0
 40
1.0
176
     0
 90
        2
176
     1
  1
strokes_ogs.tif
176
     1
290
     0
176
     1
 40
1.0
176
     1
 40
1.0
176
     1
1001
ACAD
1000
AcDbSavedByObjectVersion
1070
     0
  0
DICTIONARYVAR
  5
8421
102
{ACAD_REACTORS
330
835F
102
}
330
835F
100
DictionaryVariables
280
     0
  1
1:1
  0
DICTIONARYVAR
  5
841D
102
{ACAD_REACTORS
330
835F
102
}
330
835F
100
DictionaryVariables
280
     0
  1
STANDARD
  0
DICTIONARYVAR
  5
841C
102
{ACAD_REACTORS
330
835F
102
}
330
835F
100
DictionaryVariables
280
     0
  1
STANDARD
  0
DICTIONARYVAR
  5
841E
102
{ACAD_REACTORS
330
835F
102
}
330
835F
100
DictionaryVariables
280
     0
  1
Metric50
  0
DICTIONARYVAR
  5
841F
102
{ACAD_REACTORS
330
835F
102
}
330
835F
100
DictionaryVariables
280
     0
  1
Metric50
  0
DICTIONARYVAR
  5
8360
102
{ACAD_REACTORS
330
835F
102
}
330
835F
100
DictionaryVariables
280
     0
  1
1
  0
DICTIONARYVAR
  5
8423
102
{ACAD_REACTORS
330
835F
102
}
330
835F
100
DictionaryVariables
280
     0
  1
1
  0
DICTIONARYVAR
  5
8424
102
{ACAD_REACTORS
330
835F
102
}
330
835F
100
DictionaryVariables
280
     0
  1
15
  0
DICTIONARYVAR
  5
8422
102
{ACAD_REACTORS
330
835F
102
}
330
835F
100
DictionaryVariables
280
     0
  1
0
  0
DICTIONARYVAR
  5
8429
102
{ACAD_REACTORS
330
835F
102
}
330
835F
100
DictionaryVariables
280
     0
  1
0
  0
DICTIONARYVAR
  5
8420
102
{ACAD_REACTORS
330
835F
102
}
330
835F
100
DictionaryVariables
280
     0
  1
0
  0
DICTIONARY
  5
8434
102
{ACAD_REACTORS
330
8432
102
}
330
8432
100
AcDbDictionary
281
     1
  0
DICTIONARY
  5
8433
102
{ACAD_REACTORS
330
8432
102
}
330
8432
100
AcDbDictionary
281
     1
  3
2048535885904
350
842D
  3
2048535885920
350
842E
  3
2048535885936
350
842F
  3
2048535885952
350
8430
  3
2048535885968
350
8431
  0
DICTIONARY
  5
8437
330
83B4
100
AcDbDictionary
280
     1
281
     1
  3
ACAD_XREC_ROUNDTRIP
360
8438
  0
DICTIONARY
  5
8372
330
8371
100
AcDbDictionary
280
     1
281
     1
  3
BUMPTILE
360
8374
  3
DIFFUSETILE
360
8373
  3
OPACITYTILE
360
8377
  3
REFLECTIONTILE
360
8376
  3
REFRACTIONTILE
360
8378
  3
SPECULARTILE
360
8375
  0
DICTIONARY
  5
836A
330
8369
100
AcDbDictionary
280
     1
281
     1
  3
BUMPTILE
360
836C
  3
DIFFUSETILE
360
836B
  3
OPACITYTILE
360
836F
  3
REFLECTIONTILE
360
836E
  3
REFRACTIONTILE
360
8370
  3
SPECULARTILE
360
836D
  0
DICTIONARY
  5
837A
330
8379
100
AcDbDictionary
280
     1
281
     1
  3
BUMPTILE
360
837C
  3
DIFFUSETILE
360
837B
  3
OPACITYTILE
360
837F
  3
REFLECTIONTILE
360
837E
  3
REFRACTIONTILE
360
8380
  3
SPECULARTILE
360
837D
  0
DICTIONARY
  5
8435
330
83B2
100
AcDbDictionary
280
     1
281
     1
  3
ACAD_XREC_ROUNDTRIP
360
8436
  0
DICTIONARY
  5
842A
330
839C
100
AcDbDictionary
280
     1
281
     1
  3
ACAD_ROUNDTRIP_2008_TABLESTYLE_CELLSTYLEMAP
360
842B
  0
XRECORD
  5
842D
102
{ACAD_REACTORS
330
8433
102
}
330
8433
100
AcDbXrecord
280
     1
  1
AcDb_Thumbnail_Schema
102
{ATTRRECORD
341
842E
  2
AcDbDs::TreatedAsObjectData
280
     1
291
     1
102
ATTRRECORD}
102
{ATTRRECORD
341
842F
  2
AcDbDs::Legacy
280
     1
291
     1
102
ATTRRECORD}
  2
AcDbDs::ID
280
    10
 91
        8
102
{ATTRRECORD
341
8430
  2
AcDs:Indexable
280
     1
291
     1
102
ATTRRECORD}
102
{ATTRRECORD
341
8431
  2
AcDbDs::HandleAttribute
280
     7
282
     1
102
ATTRRECORD}
  2
Thumbnail_Data
280
    15
 91
        0
  0
XRECORD
  5
842E
102
{ACAD_REACTORS
330
8433
102
}
330
8433
100
AcDbXrecord
280
     1
  1
AcDbDs::TreatedAsObjectDataSchema
  2
AcDbDs::TreatedAsObjectData
280
     1
 91
        0
  0
XRECORD
  5
842F
102
{ACAD_REACTORS
330
8433
102
}
330
8433
100
AcDbXrecord
280
     1
  1
AcDbDs::LegacySchema
  2
AcDbDs::Legacy
280
     1
 91
        0
  0
XRECORD
  5
8430
102
{ACAD_REACTORS
330
8433
102
}
330
8433
100
AcDbXrecord
280
     1
  1
AcDbDs::IndexedPropertySchema
  2
AcDs:Indexable
280
     1
 91
        0
  0
XRECORD
  5
8431
102
{ACAD_REACTORS
330
8433
102
}
330
8433
100
AcDbXrecord
280
     1
  1
AcDbDs::HandleAttributeSchema
  2
AcDbDs::HandleAttribute
280
     7
 91
        1
284
     1
  0
XRECORD
  5
8438
102
{ACAD_REACTORS
330
8437
102
}
330
8437
100
AcDbXrecord
280
     1
102
DISPLAYNAME
  1
Metric50
102
FLAGS
 90
        0
  0
XRECORD
  5
8374
102
{ACAD_REACTORS
330
8372
102
}
330
8372
100
AcDbXrecord
280
     1
270
     1
271
     1
  0
XRECORD
  5
8373
102
{ACAD_REACTORS
330
8372
102
}
330
8372
100
AcDbXrecord
280
     1
270
     1
271
     1
  0
XRECORD
  5
8377
102
{ACAD_REACTORS
330
8372
102
}
330
8372
100
AcDbXrecord
280
     1
270
     1
271
     1
  0
XRECORD
  5
8376
102
{ACAD_REACTORS
330
8372
102
}
330
8372
100
AcDbXrecord
280
     1
270
     1
271
     1
  0
XRECORD
  5
8378
102
{ACAD_REACTORS
330
8372
102
}
330
8372
100
AcDbXrecord
280
     1
270
     1
271
     1
  0
XRECORD
  5
8375
102
{ACAD_REACTORS
330
8372
102
}
330
8372
100
AcDbXrecord
280
     1
270
     1
271
     1
  0
XRECORD
  5
836C
102
{ACAD_REACTORS
330
836A
102
}
330
836A
100
AcDbXrecord
280
     1
270
     1
271
     1
  0
XRECORD
  5
836B
102
{ACAD_REACTORS
330
836A
102
}
330
836A
100
AcDbXrecord
280
     1
270
     1
271
     1
  0
XRECORD
  5
836F
102
{ACAD_REACTORS
330
836A
102
}
330
836A
100
AcDbXrecord
280
     1
270
     1
271
     1
  0
XRECORD
  5
836E
102
{ACAD_REACTORS
330
836A
102
}
330
836A
100
AcDbXrecord
280
     1
270
     1
271
     1
  0
XRECORD
  5
8370
102
{ACAD_REACTORS
330
836A
102
}
330
836A
100
AcDbXrecord
280
     1
270
     1
271
     1
  0
XRECORD
  5
836D
102
{ACAD_REACTORS
330
836A
102
}
330
836A
100
AcDbXrecord
280
     1
270
     1
271
     1
  0
XRECORD
  5
837C
102
{ACAD_REACTORS
330
837A
102
}
330
837A
100
AcDbXrecord
280
     1
270
     1
271
     1
  0
XRECORD
  5
837B
102
{ACAD_REACTORS
330
837A
102
}
330
837A
100
AcDbXrecord
280
     1
270
     1
271
     1
  0
XRECORD
  5
837F
102
{ACAD_REACTORS
330
837A
102
}
330
837A
100
AcDbXrecord
280
     1
270
     1
271
     1
  0
XRECORD
  5
837E
102
{ACAD_REACTORS
330
837A
102
}
330
837A
100
AcDbXrecord
280
     1
270
     1
271
     1
  0
XRECORD
  5
8380
102
{ACAD_REACTORS
330
837A
102
}
330
837A
100
AcDbXrecord
280
     1
270
     1
271
     1
  0
XRECORD
  5
837D
102
{ACAD_REACTORS
330
837A
102
}
330
837A
100
AcDbXrecord
280
     1
270
     1
271
     1
  0
XRECORD
  5
8436
102
{ACAD_REACTORS
330
8435
102
}
330
8435
100
AcDbXrecord
280
     1
102
DISPLAYNAME
  1
Metric50
102
FLAGS
 90
        0
  0
CELLSTYLEMAP
  5
842B
102
{ACAD_REACTORS
330
842A
102
}
330
842A
100
AcDbCellStyleMap
 90
        3
300
CELLSTYLE
  1
TABLEFORMAT_BEGIN
 90
        5
170
     1
 91
        0
 92
    32768
 62
   257
 93
        1
300
CONTENTFORMAT
  1
CONTENTFORMAT_BEGIN
 90
        0
 91
        0
 92
      512
 93
        0
300

 40
0.0
140
1.0
 94
        5
 62
     0
340
10
144
6.0
309
CONTENTFORMAT_END
171
     1
301
MARGIN
  1
CELLMARGIN_BEGIN
 40
1.5
 40
1.5
 40
1.5
 40
1.5
 40
4.5
 40
4.5
309
CELLMARGIN_END
 94
        6
 95
        1
302
GRIDFORMAT
  1
GRIDFORMAT_BEGIN
 90
        0
 91
        1
 62
     0
 92
       -2
340
0
 93
        0
 40
1.125
309
GRIDFORMAT_END
 95
        2
302
GRIDFORMAT
  1
GRIDFORMAT_BEGIN
 90
        0
 91
        1
 62
     0
 92
       -2
340
0
 93
        0
 40
1.125
309
GRIDFORMAT_END
 95
        4
302
GRIDFORMAT
  1
GRIDFORMAT_BEGIN
 90
        0
 91
        1
 62
     0
 92
       -2
340
0
 93
        0
 40
1.125
309
GRIDFORMAT_END
 95
        8
302
GRIDFORMAT
  1
GRIDFORMAT_BEGIN
 90
        0
 91
        1
 62
     0
 92
       -2
340
0
 93
        0
 40
1.125
309
GRIDFORMAT_END
 95
       16
302
GRIDFORMAT
  1
GRIDFORMAT_BEGIN
 90
        0
 91
        1
 62
     0
 92
       -2
340
0
 93
        0
 40
1.125
309
GRIDFORMAT_END
 95
       32
302
GRIDFORMAT
  1
GRIDFORMAT_BEGIN
 90
        0
 91
        1
 62
     0
 92
       -2
340
0
 93
        0
 40
1.125
309
GRIDFORMAT_END
309
TABLEFORMAT_END
  1
CELLSTYLE_BEGIN
 90
        1
 91
        1
300
_TITLE
309
CELLSTYLE_END
300
CELLSTYLE
  1
TABLEFORMAT_BEGIN
 90
        5
170
     1
 91
        0
 92
        0
 62
   257
 93
        1
300
CONTENTFORMAT
  1
CONTENTFORMAT_BEGIN
 90
        0
 91
        0
 92
      512
 93
        0
300

 40
0.0
140
1.0
 94
        5
 62
     0
340
10
144
4.5
309
CONTENTFORMAT_END
171
     1
301
MARGIN
  1
CELLMARGIN_BEGIN
 40
1.5
 40
1.5
 40
1.5
 40
1.5
 40
4.5
 40
4.5
309
CELLMARGIN_END
 94
        6
 95
        1
302
GRIDFORMAT
  1
GRIDFORMAT_BEGIN
 90
        0
 91
        1
 62
     0
 92
       -2
340
0
 93
        0
 40
1.125
309
GRIDFORMAT_END
 95
        2
302
GRIDFORMAT
  1
GRIDFORMAT_BEGIN
 90
        0
 91
        1
 62
     0
 92
       -2
340
0
 93
        0
 40
1.125
309
GRIDFORMAT_END
 95
        4
302
GRIDFORMAT
  1
GRIDFORMAT_BEGIN
 90
        0
 91
        1
 62
     0
 92
       -2
340
0
 93
        0
 40
1.125
309
GRIDFORMAT_END
 95
        8
302
GRIDFORMAT
  1
GRIDFORMAT_BEGIN
 90
        0
 91
        1
 62
     0
 92
       -2
340
0
 93
        0
 40
1.125
309
GRIDFORMAT_END
 95
       16
302
GRIDFORMAT
  1
GRIDFORMAT_BEGIN
 90
        0
 91
        1
 62
     0
 92
       -2
340
0
 93
        0
 40
1.125
309
GRIDFORMAT_END
 95
       32
302
GRIDFORMAT
  1
GRIDFORMAT_BEGIN
 90
        0
 91
        1
 62
     0
 92
       -2
340
0
 93
        0
 40
1.125
309
GRIDFORMAT_END
309
TABLEFORMAT_END
  1
CELLSTYLE_BEGIN
 90
        2
 91
        1
300
_HEADER
309
CELLSTYLE_END
300
CELLSTYLE
  1
TABLEFORMAT_BEGIN
 90
        5
170
     1
 91
        0
 92
        0
 62
   257
 93
        1
300
CONTENTFORMAT
  1
CONTENTFORMAT_BEGIN
 90
        0
 91
        0
 92
      512
 93
        0
300

 40
0.0
140
1.0
 94
        2
 62
     0
340
10
144
4.5
309
CONTENTFORMAT_END
171
     1
301
MARGIN
  1
CELLMARGIN_BEGIN
 40
1.5
 40
1.5
 40
1.5
 40
1.5
 40
4.5
 40
4.5
309
CELLMARGIN_END
 94
        6
 95
        1
302
GRIDFORMAT
  1
GRIDFORMAT_BEGIN
 90
        0
 91
        1
 62
     0
 92
       -2
340
0
 93
        0
 40
1.125
309
GRIDFORMAT_END
 95
        2
302
GRIDFORMAT
  1
GRIDFORMAT_BEGIN
 90
        0
 91
        1
 62
     0
 92
       -2
340
0
 93
        0
 40
1.125
309
GRIDFORMAT_END
 95
        4
302
GRIDFORMAT
  1
GRIDFORMAT_BEGIN
 90
        0
 91
        1
 62
     0
 92
       -2
340
0
 93
        0
 40
1.125
309
GRIDFORMAT_END
 95
        8
302
GRIDFORMAT
  1
GRIDFORMAT_BEGIN
 90
        0
 91
        1
 62
     0
 92
       -2
340
0
 93
        0
 40
1.125
309
GRIDFORMAT_END
 95
       16
302
GRIDFORMAT
  1
GRIDFORMAT_BEGIN
 90
        0
 91
        1
 62
     0
 92
       -2
340
0
 93
        0
 40
1.125
309
GRIDFORMAT_END
 95
       32
302
GRIDFORMAT
  1
GRIDFORMAT_BEGIN
 90
        0
 91
        1
 62
     0
 92
       -2
340
0
 93
        0
 40
1.125
309
GRIDFORMAT_END
309
TABLEFORMAT_END
  1
CELLSTYLE_BEGIN
 90
        3
 91
        2
300
_DATA
309
CELLSTYLE_END
  0
ENDSEC
  0
SECTION
  2
ACDSDATA
 70
     2
 71
     8
  0
ACDSSCHEMA
 90
        0
  1
AcDb_Thumbnail_Schema
  2
AcDbDs::ID
280
    10
 91
        8
  2
Thumbnail_Data
280
    15
 91
        0
101
ACDSRECORD
 95
        0
 90
        1
  2
AcDbDs::TreatedAsObjectData
280
     1
291
     1
101
ACDSRECORD
 95
        0
 90
        2
  2
AcDbDs::Legacy
280
     1
291
     1
101
ACDSRECORD
  1
AcDbDs::ID
 90
        3
  2
AcDs:Indexable
280
     1
291
     1
101
ACDSRECORD
  1
AcDbDs::ID
 90
        4
  2
AcDbDs::HandleAttribute
280
     7
282
     1
  0
ACDSSCHEMA
 90
        1
  1
AcDbDs::TreatedAsObjectDataSchema
  2
AcDbDs::TreatedAsObjectData
280
     1
 91
        0
  0
ACDSSCHEMA
 90
        2
  1
AcDbDs::LegacySchema
  2
AcDbDs::Legacy
280
     1
 91
        0
  0
ACDSSCHEMA
 90
        3
  1
AcDbDs::IndexedPropertySchema
  2
AcDs:Indexable
280
     1
 91
        0
  0
ACDSSCHEMA
 90
        4
  1
AcDbDs::HandleAttributeSchema
  2
AcDbDs::HandleAttribute
280
     7
 91
        1
284
     1
  0
ACDSRECORD
 90
        0
  2
AcDbDs::ID
280
    10
320
8273
  2
Thumbnail_Data
280
    15
 94
     1949
310
89504E470D0A1A0A0000000D49484452000001000000009108030000001BE1960600000300504C5445000000000000C8C8C80000000000000000000000000000000000000000000000000000330000660000990000CC0000FF0033000033330033660033990033CC0033FF0066000066330066660066990066CC0066FF0099
310
000099330099660099990099CC0099FF00CC0000CC3300CC6600CC9900CCCC00CCFF00FF0000FF3300FF6600FF9900FFCC00FFFF3300003300333300663300993300CC3300FF3333003333333333663333993333CC3333FF3366003366333366663366993366CC3366FF3399003399333399663399993399CC3399FF33CC00
310
33CC3333CC6633CC9933CCCC33CCFF33FF0033FF3333FF6633FF9933FFCC33FFFF6600006600336600666600996600CC6600FF6633006633336633666633996633CC6633FF6666006666336666666666996666CC6666FF6699006699336699666699996699CC6699FF66CC0066CC3366CC6666CC9966CCCC66CCFF66FF0066
310
FF3366FF6666FF9966FFCC66FFFF9900009900339900669900999900CC9900FF9933009933339933669933999933CC9933FF9966009966339966669966999966CC9966FF9999009999339999669999999999CC9999FF99CC0099CC3399CC6699CC9999CCCC99CCFF99FF0099FF3399FF6699FF9999FFCC99FFFFCC0000CC00
310
33CC0066CC0099CC00CCCC00FFCC3300CC3333CC3366CC3399CC33CCCC33FFCC6600CC6633CC6666CC6699CC66CCCC66FFCC9900CC9933CC9966CC9999CC99CCCC99FFCCCC00CCCC33CCCC66CCCC99CCCCCCCCCCFFCCFF00CCFF33CCFF66CCFF99CCFFCCCCFFFFFF0000FF0033FF0066FF0099FF00CCFF00FFFF3300FF3333
310
FF3366FF3399FF33CCFF33FFFF6600FF6633FF6666FF6699FF66CCFF66FFFF9900FF9933FF9966FF9999FF99CCFF99FFFFCC00FFCC33FFCC66FFCC99FFCCCCFFCCFFFFFF00FFFF33FFFF66FFFF99FFFFCCFFFFFF0000000D0D0D1A1A1A2828283535354343435050505D5D5D6B6B6B787878868686939393A1A1A1AEAEAEBB
310
BBBBC9C9C9D6D6D6E4E4E4F1F1F1FFFFFF00000000000000000000000000000000000000000000000000000000000008F1915C000004584944415478DAED9D5B76E3200C40B51CFF68FF9B611BFCCFD880241EC6F199B6533D384D63439A5A377A01CA31C017B6FC430D7E6BCBA6FE4D000800012000048000F03FAEEC29F6
310
DB07F0D0E74003604AF7B24313F0AE013D018F1AA0DC097EE30C500900356F1D00BEEF2AF3F93B4BC75E235C3BFE5C4AA500586616FCA442865D1065FE1BB27669F9032C550084ACED019248055064E5D14A859EF502C83380CEB5D363D200E0810B8C6613A8EE80CCA108D649951FDE33A24000884C50E95C208BAC805F40
310
1131E7DE69B478D05EA37E4548868131C87372C42180B383EA336D00A8D14E008049C3337411025AA260460332CB331977660D004A8FC084097CC77BC5B2780008000A01A4B36DCE7D0048F7E77601A4A7661FC04C64376C0F403B38A69EC599290055C5716C8E0000E0A6990770CA867C7620CA418F00E4997B0074E20A00
310
9FF2B12F00ED5C1C3A03503BBC031028DC0160EB370FE0CAF9670014FF5C0038F0E086FD7368409D19BC9E122B0730FA007C3D25D60D608A02F8DA0C0C002879004F0A6D0278CC04F15C247106A09B0B3400569DE0E36CD037004087008615211F00F68B82F60148BF87C3B08B28B005E0210F6859DF7E75DC288034039875
310
C0F05CE0766768D8274A769DA0B0830D00B3EB01B05AF09877C403807900DE0B24D4FE9B00100002400008005F7D65FF501EA914409AE647A3FCC6F380943E4F84FA8EFB3C499D0674726C52E1010098024092B254490078952C9B31810EC0F857E3BA8A0127B8D5805DAC300320F54E60069056009221001B13D8D88B350D
310
1887161A204AEB6D698027004B651E5643710070B76FA053036AE4AF17FFF47D8174FF2A0B00CEED8F79676401606902532EA405C075D9094A2DC45FD10FE8097C08008522E90480A514A008250878018055E8FAF1130194C1A09887650097099422495C00A89662114095BF7DC638D64A370088F726A0D4099628400A7069
310
40F30793091803C02B00093A00420526003244D8007005F0E3402C8F5A28FFF7F0FCB98E4700C7A2E1614A036A1CC0171A80AA016013B8450168AE700670E703503B00A03040A9908806CF1A807A7D009785C365FA28BF2F520F9FA300E8CB03CA424E2AE94DCB701051CC068886030054190E6246882DFF952640E3DA0170
310
26281C5F37C7679D104E9025B6331D86BE5252AC7B34BFF004003F5979FB9D00683968E5D94B3B019CFD97873CF8FB84160088F56C1C0074D5B36635405A2E4A002CA900807B27A85903B685C20795CA4EFDE3E2A94A0D782C963E70F822AD3700780300D503586C87A46DB5781A364D36E5E4CABE3192BAB3B9A5D568BA39
310
56058077C1136D112C72BBA9508416D4BACA124B00E016009804F05995D88B7A7A350020FD8CABF9BD4E10024000080001200004800040E31EEF31D28FAF45CAEFDEDA2200714332BA399B7C320600F600B2BC3509DD75C30680DBFE3CFE6A64FA8E7082867C40DF2F6E2A93B347274877D9710C60A91C8601ACFB8D6B8077
310
271893A10010000240000800012000D805F043ED2BAFF90F496C13D0E4BAD87C0000000049454E44AE426082
  0
ENDSEC
  0
EOF
