  0
SECTION
  2
HEADER
  9
$ACADVER
  1
AC1027
  9
$ACADMAINTVER
 70
   125
  9
$DWGCODEPAGE
  3
ANSI_932
  9
$LASTSAVEDBY
  1
yasukiyo.ogawa
  9
$REQUIREDVERSIONS
160
                 0
  9
$INSBASE
 10
0.0
 20
0.0
 30
0.0
  9
$EXTMIN
 10
0.0
 20
0.0
 30
0.0
  9
$EXTMAX
 10
8400.0
 20
11800.0
 30
0.0
  9
$LIMMIN
 10
0.0
 20
0.0
  9
$LIMMAX
 10
297.0
 20
210.0
  9
$ORTHOMODE
 70
     1
  9
$REGENMODE
 70
     1
  9
$FILLMODE
 70
     0
  9
$QTEXTMODE
 70
     0
  9
$MIRRTEXT
 70
     1
  9
$LTSCALE
 40
100.0
  9
$ATTMODE
 70
     1
  9
$TEXTSIZE
 40
180.0
  9
$TRACEWID
 40
0.05
  9
$TEXTSTYLE
  7
STANDARD
  9
$CLAYER
  8
3
  9
$CELTYPE
  6
BYLAYER
  9
$CECOLOR
 62
   256
  9
$CELTSCALE
 40
1.0
  9
$DISPSILH
 70
     0
  9
$DIMSCALE
 40
40.0
  9
$DIMASZ
 40
2.0
  9
$DIMEXO
 40
0.5
  9
$DIMDLI
 40
10.0
  9
$DIMRND
 40
0.0
  9
$DIMDLE
 40
0.0
  9
$DIMEXE
 40
1.0
  9
$DIMTP
 40
1.0
  9
$DIMTM
 40
1.0
  9
$DIMTXT
 40
3.0
  9
$DIMCEN
 40
0.0
  9
$DIMTSZ
 40
0.0
  9
$DIMTOL
 70
     0
  9
$DIMLIM
 70
     0
  9
$DIMTIH
 70
     0
  9
$DIMTOH
 70
     0
  9
$DIMSE1
 70
     0
  9
$DIMSE2
 70
     0
  9
$DIMTAD
 70
     1
  9
$DIMZIN
 70
     8
  9
$DIMBLK
  1

  9
$DIMASO
 70
     1
  9
$DIMSHO
 70
     1
  9
$DIMPOST
  1
(<>)
  9
$DIMAPOST
  1

  9
$DIMALT
 70
     0
  9
$DIMALTD
 70
     2
  9
$DIMALTF
 40
0.039
  9
$DIMLFAC
 40
1.0
  9
$DIMTOFL
 70
     1
  9
$DIMTVP
 40
0.0
  9
$DIMTIX
 70
     0
  9
$DIMSOXD
 70
     0
  9
$DIMSAH
 70
     1
  9
$DIMBLK1
  1
OPEN
  9
$DIMBLK2
  1
OPEN
  9
$DIMSTYLE
  2
IGA
  9
$DIMCLRD
 70
     0
  9
$DIMCLRE
 70
     0
  9
$DIMCLRT
 70
     0
  9
$DIMTFAC
 40
10.0
  9
$DIMGAP
 40
1.0
  9
$DIMJUST
 70
     0
  9
$DIMSD1
 70
     0
  9
$DIMSD2
 70
     0
  9
$DIMTOLJ
 70
     1
  9
$DIMTZIN
 70
     8
  9
$DIMALTZ
 70
     0
  9
$DIMALTTZ
 70
     0
  9
$DIMUPT
 70
     0
  9
$DIMDEC
 70
     0
  9
$DIMTDEC
 70
     0
  9
$DIMALTU
 70
     2
  9
$DIMALTTD
 70
     2
  9
$DIMTXSTY
  7
STANDARD
  9
$DIMAUNIT
 70
     0
  9
$DIMADEC
 70
     0
  9
$DIMALTRND
 40
0.0
  9
$DIMAZIN
 70
     0
  9
$DIMDSEP
 70
    46
  9
$DIMATFIT
 70
     3
  9
$DIMFRAC
 70
     0
  9
$DIMLDRBLK
  1
OPEN
  9
$DIMLUNIT
 70
     2
  9
$DIMLWD
 70
    -2
  9
$DIMLWE
 70
    -2
  9
$DIMTMOVE
 70
     2
  9
$DIMFXL
 40
1.0
  9
$DIMFXLON
 70
     0
  9
$DIMJOGANG
 40
0.7853981633974483
  9
$DIMTFILL
 70
     0
  9
$DIMTFILLCLR
 70
     0
  9
$DIMARCSYM
 70
     0
  9
$DIMLTYPE
  6

  9
$DIMLTEX1
  6

  9
$DIMLTEX2
  6

  9
$DIMTXTDIRECTION
 70
     0
  9
$LUNITS
 70
     2
  9
$LUPREC
 70
     3
  9
$SKETCHINC
 40
0.1
  9
$FILLETRAD
 40
50.0
  9
$AUNITS
 70
     0
  9
$AUPREC
 70
     0
  9
$MENU
  1
acad
  9
$ELEVATION
 40
0.0
  9
$PELEVATION
 40
0.0
  9
$THICKNESS
 40
0.0
  9
$LIMCHECK
 70
     0
  9
$CHAMFERA
 40
0.5
  9
$CHAMFERB
 40
0.5
  9
$CHAMFERC
 40
20.0
  9
$CHAMFERD
 40
0.0
  9
$SKPOLY
 70
     0
  9
$TDCREATE
 40
2451898.488101852
  9
$TDUCREATE
 40
2451898.113112731
  9
$TDUPDATE
 40
2460241.765567130
  9
$TDUUPDATE
 40
2460241.390572662
  9
$TDINDWG
 40
0.0131743171
  9
$TDUSRTIMER
 40
0.0131743171
  9
$USRTIMER
 70
     1
  9
$ANGBASE
 50
0.0
  9
$ANGDIR
 70
     0
  9
$PDMODE
 70
     0
  9
$PDSIZE
 40
0.0
  9
$PLINEWID
 40
0.0
  9
$SPLFRAME
 70
     0
  9
$SPLINETYPE
 70
     6
  9
$SPLINESEGS
 70
     8
  9
$HANDSEED
  5
8416
  9
$SURFTAB1
 70
     6
  9
$SURFTAB2
 70
     6
  9
$SURFTYPE
 70
     6
  9
$SURFU
 70
     6
  9
$SURFV
 70
     6
  9
$UCSBASE
  2

  9
$UCSNAME
  2

  9
$UCSORG
 10
0.0
 20
0.0
 30
0.0
  9
$UCSXDIR
 10
1.0
 20
0.0
 30
0.0
  9
$UCSYDIR
 10
0.0
 20
1.0
 30
0.0
  9
$UCSORTHOREF
  2

  9
$UCSORTHOVIEW
 70
     0
  9
$UCSORGTOP
 10
0.0
 20
0.0
 30
0.0
  9
$UCSORGBOTTOM
 10
0.0
 20
0.0
 30
0.0
  9
$UCSORGLEFT
 10
0.0
 20
0.0
 30
0.0
  9
$UCSORGRIGHT
 10
0.0
 20
0.0
 30
0.0
  9
$UCSORGFRONT
 10
0.0
 20
0.0
 30
0.0
  9
$UCSORGBACK
 10
0.0
 20
0.0
 30
0.0
  9
$PUCSBASE
  2

  9
$PUCSNAME
  2

  9
$PUCSORG
 10
0.0
 20
0.0
 30
0.0
  9
$PUCSXDIR
 10
1.0
 20
0.0
 30
0.0
  9
$PUCSYDIR
 10
0.0
 20
1.0
 30
0.0
  9
$PUCSORTHOREF
  2

  9
$PUCSORTHOVIEW
 70
     0
  9
$PUCSORGTOP
 10
0.0
 20
0.0
 30
0.0
  9
$PUCSORGBOTTOM
 10
0.0
 20
0.0
 30
0.0
  9
$PUCSORGLEFT
 10
0.0
 20
0.0
 30
0.0
  9
$PUCSORGRIGHT
 10
0.0
 20
0.0
 30
0.0
  9
$PUCSORGFRONT
 10
0.0
 20
0.0
 30
0.0
  9
$PUCSORGBACK
 10
0.0
 20
0.0
 30
0.0
  9
$USERI1
 70
     0
  9
$USERI2
 70
     0
  9
$USERI3
 70
     0
  9
$USERI4
 70
     0
  9
$USERI5
 70
     0
  9
$USERR1
 40
0.0
  9
$USERR2
 40
0.0
  9
$USERR3
 40
0.0
  9
$USERR4
 40
0.0
  9
$USERR5
 40
0.0
  9
$WORLDVIEW
 70
     1
  9
$SHADEDGE
 70
     3
  9
$SHADEDIF
 70
    70
  9
$TILEMODE
 70
     1
  9
$MAXACTVP
 70
    16
  9
$PINSBASE
 10
0.0
 20
0.0
 30
0.0
  9
$PLIMCHECK
 70
     0
  9
$PEXTMIN
 10
1.000000000000000E+20
 20
1.000000000000000E+20
 30
1.000000000000000E+20
  9
$PEXTMAX
 10
-1.000000000000000E+20
 20
-1.000000000000000E+20
 30
-1.000000000000000E+20
  9
$PLIMMIN
 10
0.0
 20
0.0
  9
$PLIMMAX
 10
12.0
 20
9.0
  9
$UNITMODE
 70
     0
  9
$VISRETAIN
 70
     0
  9
$PLINEGEN
 70
     0
  9
$PSLTSCALE
 70
     1
  9
$TREEDEPTH
 70
  3020
  9
$CMLSTYLE
  2
STANDARD
  9
$CMLJUST
 70
     0
  9
$CMLSCALE
 40
20.0
  9
$PROXYGRAPHICS
 70
     1
  9
$MEASUREMENT
 70
     1
  9
$CELWEIGHT
370
    -1
  9
$ENDCAPS
280
     0
  9
$JOINSTYLE
280
     0
  9
$LWDISPLAY
290
     0
  9
$INSUNITS
 70
     0
  9
$HYPERLINKBASE
  1

  9
$STYLESHEET
  1

  9
$XEDIT
290
     1
  9
$CEPSNTYPE
380
     0
  9
$PSTYLEMODE
290
     1
  9
$FINGERPRINTGUID
  2
{850326D6-A225-446B-BA33-076AB7452293}
  9
$VERSIONGUID
  2
{1A1D5EB4-9745-4329-87AB-B0739DE19E09}
  9
$EXTNAMES
290
     1
  9
$PSVPSCALE
 40
0.0
  9
$OLESTARTUP
290
     0
  9
$SORTENTS
280
   127
  9
$INDEXCTL
280
     0
  9
$HIDETEXT
280
     0
  9
$XCLIPFRAME
280
     2
  9
$HALOGAP
280
     0
  9
$OBSCOLOR
 70
   257
  9
$OBSLTYPE
280
     0
  9
$INTERSECTIONDISPLAY
280
     0
  9
$INTERSECTIONCOLOR
 70
   257
  9
$DIMASSOC
280
     1
  9
$PROJECTNAME
  1

  9
$CAMERADISPLAY
290
     0
  9
$LENSLENGTH
 40
50.0
  9
$CAMERAHEIGHT
 40
0.0
  9
$STEPSPERSEC
 40
2.0
  9
$STEPSIZE
 40
6.0
  9
$3DDWFPREC
 40
2.0
  9
$PSOLWIDTH
 40
0.25
  9
$PSOLHEIGHT
 40
4.0
  9
$LOFTANG1
 40
1.570796326794896
  9
$LOFTANG2
 40
1.570796326794896
  9
$LOFTMAG1
 40
0.0
  9
$LOFTMAG2
 40
0.0
  9
$LOFTPARAM
 70
     7
  9
$LOFTNORMALS
280
     1
  9
$LATITUDE
 40
37.795
  9
$LONGITUDE
 40
-122.394
  9
$NORTHDIRECTION
 40
0.0
  9
$TIMEZONE
 70
 -8000
  9
$LIGHTGLYPHDISPLAY
280
     1
  9
$TILEMODELIGHTSYNCH
280
     1
  9
$CMATERIAL
347
834F
  9
$SOLIDHIST
280
     0
  9
$SHOWHIST
280
     1
  9
$DWFFRAME
280
     2
  9
$DGNFRAME
280
     0
  9
$REALWORLDSCALE
290
     1
  9
$INTERFERECOLOR
 62
     1
  9
$INTERFEREOBJVS
345
8371
  9
$INTERFEREVPVS
346
836E
  9
$CSHADOW
280
     0
  9
$SHADOWPLANELOCATION
 40
0.0
  0
ENDSEC
  0
SECTION
  2
CLASSES
  0
CLASS
  1
ACDBDICTIONARYWDFLT
  2
AcDbDictionaryWithDefault
  3
ObjectDBX Classes
 90
        0
 91
        1
280
     0
281
     0
  0
CLASS
  1
DICTIONARYVAR
  2
AcDbDictionaryVar
  3
ObjectDBX Classes
 90
        0
 91
       11
280
     0
281
     0
  0
CLASS
  1
MATERIAL
  2
AcDbMaterial
  3
ObjectDBX Classes
 90
     1153
 91
        3
280
     0
281
     0
  0
CLASS
  1
VISUALSTYLE
  2
AcDbVisualStyle
  3
ObjectDBX Classes
 90
     4095
 91
       24
280
     0
281
     0
  0
CLASS
  1
TABLESTYLE
  2
AcDbTableStyle
  3
ObjectDBX Classes
 90
     4095
 91
        1
280
     0
281
     0
  0
CLASS
  1
SCALE
  2
AcDbScale
  3
ObjectDBX Classes
 90
     1153
 91
       17
280
     0
281
     0
  0
CLASS
  1
MLEADERSTYLE
  2
AcDbMLeaderStyle
  3
ACDB_MLEADERSTYLE_CLASS
 90
     4095
 91
        1
280
     0
281
     0
  0
CLASS
  1
ACDBSECTIONVIEWSTYLE
  2
AcDbSectionViewStyle
  3
ObjectDBX Classes
 90
     1025
 91
        1
280
     0
281
     0
  0
CLASS
  1
ACDBDETAILVIEWSTYLE
  2
AcDbDetailViewStyle
  3
ObjectDBX Classes
 90
     1025
 91
        1
280
     0
281
     0
  0
CLASS
  1
CELLSTYLEMAP
  2
AcDbCellStyleMap
  3
ObjectDBX Classes
 90
     1152
 91
        1
280
     0
281
     0
  0
ENDSEC
  0
SECTION
  2
TABLES
  0
TABLE
  2
VPORT
  5
8
330
0
100
AcDbSymbolTable
 70
     1
1001
ACAD
1000
DbSaveVer
1071
      278
  0
VPORT
  5
834C
330
8
100
AcDbSymbolTableRecord
100
AcDbViewportTableRecord
  2
*Active
 70
     0
 10
0.0
 20
0.0
 11
1.0
 21
1.0
 12
7113.841116720781
 22
5900.000027474012
 13
0.0
 23
0.0
 14
10.0
 24
10.0
 15
10.0
 25
10.0
 16
0.0
 26
0.0
 36
1.0
 17
0.0
 27
0.0
 37
0.0
 40
11876.28512550527
 41
2.250314465408805
 42
50.0
 43
0.0
 44
0.0
 50
0.0
 51
0.0
 71
     0
 72
   100
 73
     1
 74
     0
 75
     0
 76
     0
 77
     0
 78
     0
281
     0
 65
     1
110
0.0
120
0.0
130
0.0
111
1.0
121
0.0
131
0.0
112
0.0
122
1.0
132
0.0
 79
     0
146
0.0
348
836D
 60
     3
 61
     5
292
     1
282
     1
141
0.0
142
0.0
 63
   250
421
  3355443
1001
ACAD_NAV_VCDISPLAY
1070
     3
  0
ENDTAB
  0
TABLE
  2
LTYPE
  5
5
330
0
100
AcDbSymbolTable
 70
     2
  0
LTYPE
  5
13
330
5
100
AcDbSymbolTableRecord
100
AcDbLinetypeTableRecord
  2
BYBLOCK
 70
     0
  3

 72
    65
 73
     0
 40
0.0
  0
LTYPE
  5
14
330
5
100
AcDbSymbolTableRecord
100
AcDbLinetypeTableRecord
  2
BYLAYER
 70
     0
  3

 72
    65
 73
     0
 40
0.0
  0
LTYPE
  5
15
330
5
100
AcDbSymbolTableRecord
100
AcDbLinetypeTableRecord
  2
CONTINUOUS
 70
     0
  3
Solid line
 72
    65
 73
     0
 40
0.0
  0
LTYPE
  5
1F
330
5
100
AcDbSymbolTableRecord
100
AcDbLinetypeTableRecord
  2
CENTER
 70
     0
  3
____ _ ____ _ ____ _ ____ _ ____ _ ____ _ ____ 
 72
    65
 73
     4
 40
2.0
 49
1.25
 74
     0
 49
-0.25
 74
     0
 49
0.25
 74
     0
 49
-0.25
 74
     0
  0
ENDTAB
  0
TABLE
  2
LAYER
  5
2
102
{ACAD_XDICTIONARY
360
83ED
102
}
330
0
100
AcDbSymbolTable
 70
     6
  0
LAYER
  5
F
102
{ACAD_XDICTIONARY
360
83E0
102
}
330
2
100
AcDbSymbolTableRecord
100
AcDbLayerTableRecord
  2
0
 70
     0
 62
     7
  6
CONTINUOUS
370
    -3
390
8256
347
835F
348
0
  0
LAYER
  5
31
102
{ACAD_XDICTIONARY
360
83E2
102
}
330
2
100
AcDbSymbolTableRecord
100
AcDbLayerTableRecord
  2
3
 70
     0
 62
     2
  6
CONTINUOUS
370
    -3
390
8256
347
835F
348
0
  0
LAYER
  5
76D0
102
{ACAD_XDICTIONARY
360
83E4
102
}
330
2
100
AcDbSymbolTableRecord
100
AcDbLayerTableRecord
  2
2
 70
     0
 62
     3
  6
CENTER
370
    -3
390
8256
347
835F
348
0
  0
LAYER
  5
76D1
102
{ACAD_XDICTIONARY
360
83E6
102
}
330
2
100
AcDbSymbolTableRecord
100
AcDbLayerTableRecord
  2
1
 70
     0
 62
     4
  6
CONTINUOUS
370
    -3
390
8256
347
835F
348
0
  0
LAYER
  5
76D2
102
{ACAD_XDICTIONARY
360
83E8
102
}
330
2
100
AcDbSymbolTableRecord
100
AcDbLayerTableRecord
  2
4
 70
     0
 62
     7
  6
CONTINUOUS
370
    -3
390
8256
347
835F
348
0
  0
LAYER
  5
7B1C
330
2
100
AcDbSymbolTableRecord
100
AcDbLayerTableRecord
  2
DEFPOINTS
 70
     0
 62
     7
  6
CONTINUOUS
290
     0
370
    -3
390
8256
347
835F
348
0
  0
ENDTAB
  0
TABLE
  2
STYLE
  5
3
330
0
100
AcDbSymbolTable
 70
     1
  0
STYLE
  5
10
330
3
100
AcDbSymbolTableRecord
100
AcDbTextStyleTableRecord
  2
STANDARD
 70
     0
 40
0.0
 41
1.0
 50
0.0
 71
     0
 42
180.0
  3
simplex.shx
  4
extfont.shx
  0
ENDTAB
  0
TABLE
  2
VIEW
  5
6
330
0
100
AcDbSymbolTable
 70
     0
  0
ENDTAB
  0
TABLE
  2
UCS
  5
7
330
0
100
AcDbSymbolTable
 70
     0
  0
ENDTAB
  0
TABLE
  2
APPID
  5
9
330
0
100
AcDbSymbolTable
 70
     4
  0
APPID
  5
11
330
9
100
AcDbSymbolTableRecord
100
AcDbRegAppTableRecord
  2
ACAD
 70
     0
  0
APPID
  5
839E
330
9
100
AcDbSymbolTableRecord
100
AcDbRegAppTableRecord
  2
AcadAnnoMonitorAlertIconDisabled
 70
     0
  0
APPID
  5
839F
330
9
100
AcDbSymbolTableRecord
100
AcDbRegAppTableRecord
  2
ACAD_EXEMPT_FROM_CAD_STANDARDS
 70
     0
  0
APPID
  5
83F3
330
9
100
AcDbSymbolTableRecord
100
AcDbRegAppTableRecord
  2
ACAD_NAV_VCDISPLAY
 70
     0
  0
ENDTAB
  0
TABLE
  2
DIMSTYLE
  5
A
330
0
100
AcDbSymbolTable
 70
     1
100
AcDbDimStyleTable
 71
     1
340
1D
  0
DIMSTYLE
105
1D
102
{ACAD_REACTORS
330
7C7E
330
7C7F
330
7C80
330
7C82
330
7C83
330
7C98
330
7CAA
330
7CAB
330
7CAE
330
7CAF
330
7CB8
330
7CD5
330
7CD6
330
7D1D
330
7D1E
330
7D1F
330
7D20
330
7D21
330
7D22
330
7F5C
330
8222
330
822F
102
}
330
A
100
AcDbSymbolTableRecord
100
AcDbDimStyleTableRecord
  2
IGA
 70
     0
 40
2.0
 41
2.0
 42
0.5
 43
10.0
 44
1.0
 47
1.0
 48
1.0
 73
     0
 74
     0
 77
     1
 78
     8
140
3.0
141
0.0
143
0.03937
146
10.0
147
1.0
173
     1
271
     1
272
     0
279
     2
284
     8
340
10
341
7F37
343
7F37
344
7F37
  0
ENDTAB
  0
TABLE
  2
BLOCK_RECORD
  5
1
330
0
100
AcDbSymbolTable
 70
    26
  0
BLOCK_RECORD
  5
19
102
{ACAD_XDICTIONARY
360
8284
102
}
330
1
100
AcDbSymbolTableRecord
100
AcDbBlockTableRecord
  2
*MODEL_SPACE
340
8259
 70
     0
280
     1
281
     0
  0
BLOCK_RECORD
  5
16
102
{ACAD_XDICTIONARY
360
8282
102
}
330
1
100
AcDbSymbolTableRecord
100
AcDbBlockTableRecord
  2
*PAPER_SPACE
340
825A
 70
     0
280
     1
281
     0
  0
BLOCK_RECORD
  5
79FC
330
1
100
AcDbSymbolTableRecord
100
AcDbBlockTableRecord
  2
YA_N
340
0
102
{BLKREFS
331
7C26
331
7C53
331
7C7A
331
7CD1
102
}
 70
     0
280
     1
281
     0
  0
BLOCK_RECORD
  5
7D28
330
1
100
AcDbSymbolTableRecord
100
AcDbBlockTableRecord
  2
*D1
340
0
 70
     0
280
     1
281
     0
  0
BLOCK_RECORD
  5
7D34
330
1
100
AcDbSymbolTableRecord
100
AcDbBlockTableRecord
  2
*D2
340
0
 70
     0
280
     1
281
     0
  0
BLOCK_RECORD
  5
7D40
330
1
100
AcDbSymbolTableRecord
100
AcDbBlockTableRecord
  2
*D3
340
0
 70
     0
280
     1
281
     0
  0
BLOCK_RECORD
  5
7D4C
330
1
100
AcDbSymbolTableRecord
100
AcDbBlockTableRecord
  2
*D4
340
0
 70
     0
280
     1
281
     0
  0
BLOCK_RECORD
  5
7D58
330
1
100
AcDbSymbolTableRecord
100
AcDbBlockTableRecord
  2
*D5
340
0
 70
     0
280
     1
281
     0
  0
BLOCK_RECORD
  5
7D64
330
1
100
AcDbSymbolTableRecord
100
AcDbBlockTableRecord
  2
*D6
340
0
 70
     0
280
     1
281
     0
  0
BLOCK_RECORD
  5
7D70
330
1
100
AcDbSymbolTableRecord
100
AcDbBlockTableRecord
  2
*D7
340
0
 70
     0
280
     1
281
     0
  0
BLOCK_RECORD
  5
7D7C
330
1
100
AcDbSymbolTableRecord
100
AcDbBlockTableRecord
  2
*D8
340
0
 70
     0
280
     1
281
     0
  0
BLOCK_RECORD
  5
7D88
330
1
100
AcDbSymbolTableRecord
100
AcDbBlockTableRecord
  2
*D9
340
0
 70
     0
280
     1
281
     0
  0
BLOCK_RECORD
  5
7D94
330
1
100
AcDbSymbolTableRecord
100
AcDbBlockTableRecord
  2
*D10
340
0
 70
     0
280
     1
281
     0
  0
BLOCK_RECORD
  5
7DAC
330
1
100
AcDbSymbolTableRecord
100
AcDbBlockTableRecord
  2
*D11
340
0
 70
     0
280
     1
281
     0
  0
BLOCK_RECORD
  5
7DB8
330
1
100
AcDbSymbolTableRecord
100
AcDbBlockTableRecord
  2
*D12
340
0
 70
     0
280
     1
281
     0
  0
BLOCK_RECORD
  5
7DC4
330
1
100
AcDbSymbolTableRecord
100
AcDbBlockTableRecord
  2
*D13
340
0
 70
     0
280
     1
281
     0
  0
BLOCK_RECORD
  5
7DE8
330
1
100
AcDbSymbolTableRecord
100
AcDbBlockTableRecord
  2
*D14
340
0
 70
     0
280
     1
281
     0
  0
BLOCK_RECORD
  5
7DF4
330
1
100
AcDbSymbolTableRecord
100
AcDbBlockTableRecord
  2
*D15
340
0
 70
     0
280
     1
281
     0
  0
BLOCK_RECORD
  5
7E00
330
1
100
AcDbSymbolTableRecord
100
AcDbBlockTableRecord
  2
*D16
340
0
 70
     0
280
     1
281
     0
  0
BLOCK_RECORD
  5
7E0B
330
1
100
AcDbSymbolTableRecord
100
AcDbBlockTableRecord
  2
*D17
340
0
 70
     0
280
     1
281
     0
  0
BLOCK_RECORD
  5
7E17
330
1
100
AcDbSymbolTableRecord
100
AcDbBlockTableRecord
  2
*D18
340
0
 70
     0
280
     1
281
     0
  0
BLOCK_RECORD
  5
7E23
330
1
100
AcDbSymbolTableRecord
100
AcDbBlockTableRecord
  2
*D19
340
0
 70
     0
280
     1
281
     0
  0
BLOCK_RECORD
  5
7F37
330
1
100
AcDbSymbolTableRecord
100
AcDbBlockTableRecord
  2
_OPEN
340
0
102
{BLKREFS
331
828D
331
828E
331
8296
331
8297
331
829F
331
82A0
331
82A8
331
82A9
331
82B1
331
82B2
331
82BA
331
82BB
331
82D5
331
82D6
331
82DE
331
82DF
331
82E7
331
82E8
331
82F0
331
82F1
331
8228
331
8229
331
82F9
331
82FA
331
8302
331
8303
331
830B
331
830C
331
8314
331
8315
331
831D
331
831E
331
8326
331
8327
331
832F
331
8330
331
833B
331
83D1
331
83D2
331
83DA
331
83DB
102
}
 70
     0
280
     1
281
     0
  0
BLOCK_RECORD
  5
7F4D
330
1
100
AcDbSymbolTableRecord
100
AcDbBlockTableRecord
  2
*D21
340
0
 70
     0
280
     1
281
     0
  0
BLOCK_RECORD
  5
80C8
330
1
100
AcDbSymbolTableRecord
100
AcDbBlockTableRecord
  2
_DOT
340
0
102
{BLKREFS
331
833A
102
}
 70
     0
280
     1
281
     0
  0
BLOCK_RECORD
  5
8214
330
1
100
AcDbSymbolTableRecord
100
AcDbBlockTableRecord
  2
_NONE
340
0
 70
     0
280
     1
281
     0
  0
BLOCK_RECORD
  5
8218
330
1
100
AcDbSymbolTableRecord
100
AcDbBlockTableRecord
  2
*D24
340
0
 70
     0
280
     1
281
     0
  0
BLOCK_RECORD
  5
8223
330
1
100
AcDbSymbolTableRecord
100
AcDbBlockTableRecord
  2
*D25
340
0
 70
     0
280
     1
281
     0
  0
ENDTAB
  0
ENDSEC
  0
SECTION
  2
BLOCKS
  0
BLOCK
  5
1A
330
19
100
AcDbEntity
  8
0
100
AcDbBlockBegin
  2
*MODEL_SPACE
 70
     0
 10
0.0
 20
0.0
 30
0.0
  3
*MODEL_SPACE
  1

  0
ENDBLK
  5
1B
330
19
100
AcDbEntity
  8
0
100
AcDbBlockEnd
  0
BLOCK
  5
17
330
16
100
AcDbEntity
 67
     1
  8
0
100
AcDbBlockBegin
  2
*PAPER_SPACE
 70
     0
 10
0.0
 20
0.0
 30
0.0
  3
*PAPER_SPACE
  1

  0
ENDBLK
  5
18
330
16
100
AcDbEntity
 67
     1
  8
0
100
AcDbBlockEnd
  0
BLOCK
  5
79FD
330
79FC
100
AcDbEntity
  8
0
100
AcDbBlockBegin
  2
YA_N
 70
     0
 10
0.0
 20
0.0
 30
0.0
  3
YA_N
  1

  0
ENDBLK
  5
79FE
330
79FC
100
AcDbEntity
  8
0
100
AcDbBlockEnd
  0
BLOCK
  5
8119
330
7D28
100
AcDbEntity
  8
0
100
AcDbBlockBegin
  2
*D1
 70
     1
 10
0.0
 20
0.0
 30
0.0
  3
*D1
  1

  0
LINE
  5
828A
330
7D28
100
AcDbEntity
  8
3
 62
     0
440
 16777216
100
AcDbLine
 10
1979.690038106198
 20
2735.395935314897
 30
0.0
 11
1979.690038106198
 21
2375.460308588212
 31
0.0
  0
LINE
  5
828B
330
7D28
100
AcDbEntity
  8
3
 62
     0
440
 16777216
100
AcDbLine
 10
2729.690038106199
 20
2735.395935314897
 30
0.0
 11
2729.690038106199
 21
2375.460308588212
 31
0.0
  0
LINE
  5
828C
330
7D28
100
AcDbEntity
  8
3
 62
     0
440
 16777216
100
AcDbLine
 10
2059.690038106199
 20
2415.460308588212
 30
0.0
 11
2649.690038106199
 21
2415.460308588212
 31
0.0
  0
INSERT
  5
828D
330
7D28
100
AcDbEntity
  8
3
 62
     0
440
 16777216
100
AcDbBlockReference
  2
_OPEN
 10
1979.690038106198
 20
2415.460308588212
 30
0.0
 41
80.0
 42
80.0
 43
80.0
 50
180.0
  0
INSERT
  5
828E
330
7D28
100
AcDbEntity
  8
3
 62
     0
440
 16777216
100
AcDbBlockReference
  2
_OPEN
 10
2729.690038106199
 20
2415.460308588212
 30
0.0
 41
80.0
 42
80.0
 43
80.0
  0
MTEXT
  5
828F
330
7D28
100
AcDbEntity
  8
3
 62
     0
440
 16777216
100
AcDbMText
 10
2354.690038106199
 20
2515.460308588212
 30
0.0
 40
120.0
 41
0.0
 46
0.0
 71
     5
 72
     5
  1
\A1;750
 73
     1
 44
1.0
  0
POINT
  5
8290
330
7D28
100
AcDbEntity
  8
DEFPOINTS
 62
     0
440
 16777216
100
AcDbPoint
 10
1979.690038106198
 20
2755.395935314897
 30
0.0
  0
POINT
  5
8291
330
7D28
100
AcDbEntity
  8
DEFPOINTS
 62
     0
440
 16777216
100
AcDbPoint
 10
2729.690038106199
 20
2755.395935314897
 30
0.0
  0
POINT
  5
8292
330
7D28
100
AcDbEntity
  8
DEFPOINTS
 62
     0
440
 16777216
100
AcDbPoint
 10
2729.690038106199
 20
2415.460308588212
 30
0.0
  0
ENDBLK
  5
8123
330
7D28
100
AcDbEntity
  8
0
100
AcDbBlockEnd
  0
BLOCK
  5
8060
330
7D34
100
AcDbEntity
  8
0
100
AcDbBlockBegin
  2
*D2
 70
     1
 10
0.0
 20
0.0
 30
0.0
  3
*D2
  1

  0
LINE
  5
8293
330
7D34
100
AcDbEntity
  8
3
 62
     0
440
 16777216
100
AcDbLine
 10
1884.690038106199
 20
5134.395935314897
 30
0.0
 11
1611.679005416241
 21
5134.395935314897
 31
0.0
  0
LINE
  5
8294
330
7D34
100
AcDbEntity
  8
3
 62
     0
440
 16777216
100
AcDbLine
 10
1884.690038106199
 20
3854.395935314897
 30
0.0
 11
1611.679005416241
 21
3854.395935314897
 31
0.0
  0
LINE
  5
8295
330
7D34
100
AcDbEntity
  8
3
 62
     0
440
 16777216
100
AcDbLine
 10
1651.679005416241
 20
5054.395935314897
 30
0.0
 11
1651.679005416241
 21
3934.395935314897
 31
0.0
  0
INSERT
  5
8296
330
7D34
100
AcDbEntity
  8
3
 62
     0
440
 16777216
100
AcDbBlockReference
  2
_OPEN
 10
1651.679005416241
 20
5134.395935314897
 30
0.0
 41
80.0
 42
80.0
 43
80.0
 50
90.0
  0
INSERT
  5
8297
330
7D34
100
AcDbEntity
  8
3
 62
     0
440
 16777216
100
AcDbBlockReference
  2
_OPEN
 10
1651.679005416241
 20
3854.395935314897
 30
0.0
 41
80.0
 42
80.0
 43
80.0
 50
270.0
  0
MTEXT
  5
8298
330
7D34
100
AcDbEntity
  8
3
 62
     0
440
 16777216
100
AcDbMText
 10
1551.67900541624
 20
4494.395935314897
 30
0.0
 40
120.0
 41
0.0
 46
0.0
 71
     5
 72
     5
  1
\A1;1280
 11
0.0000000000000001
 21
1.0
 31
0.0
 73
     1
 44
1.0
  0
POINT
  5
8299
330
7D34
100
AcDbEntity
  8
DEFPOINTS
 62
     0
440
 16777216
100
AcDbPoint
 10
1904.690038106199
 20
5134.395935314897
 30
0.0
  0
POINT
  5
829A
330
7D34
100
AcDbEntity
  8
DEFPOINTS
 62
     0
440
 16777216
100
AcDbPoint
 10
1904.690038106199
 20
3854.395935314897
 30
0.0
  0
POINT
  5
829B
330
7D34
100
AcDbEntity
  8
DEFPOINTS
 62
     0
440
 16777216
100
AcDbPoint
 10
1651.679005416241
 20
3854.395935314897
 30
0.0
  0
ENDBLK
  5
806A
330
7D34
100
AcDbEntity
  8
0
100
AcDbBlockEnd
  0
BLOCK
  5
8055
330
7D40
100
AcDbEntity
  8
0
100
AcDbBlockBegin
  2
*D3
 70
     1
 10
0.0
 20
0.0
 30
0.0
  3
*D3
  1

  0
LINE
  5
829C
330
7D40
100
AcDbEntity
  8
3
 62
     0
440
 16777216
100
AcDbLine
 10
1884.690038106199
 20
5134.395935314897
 30
0.0
 11
1364.616162959712
 21
5134.395935314897
 31
0.0
  0
LINE
  5
829D
330
7D40
100
AcDbEntity
  8
3
 62
     0
440
 16777216
100
AcDbLine
 10
1806.253499857346
 20
3800.395935314897
 30
0.0
 11
1364.616162959712
 21
3800.395935314897
 31
0.0
  0
LINE
  5
829E
330
7D40
100
AcDbEntity
  8
3
 62
     0
440
 16777216
100
AcDbLine
 10
1404.616162959712
 20
5054.395935314897
 30
0.0
 11
1404.616162959712
 21
3880.395935314897
 31
0.0
  0
INSERT
  5
829F
330
7D40
100
AcDbEntity
  8
3
 62
     0
440
 16777216
100
AcDbBlockReference
  2
_OPEN
 10
1404.616162959712
 20
5134.395935314897
 30
0.0
 41
80.0
 42
80.0
 43
80.0
 50
90.0
  0
INSERT
  5
82A0
330
7D40
100
AcDbEntity
  8
3
 62
     0
440
 16777216
100
AcDbBlockReference
  2
_OPEN
 10
1404.616162959712
 20
3800.395935314897
 30
0.0
 41
80.0
 42
80.0
 43
80.0
 50
270.0
  0
MTEXT
  5
82A1
330
7D40
100
AcDbEntity
  8
3
 62
     0
440
 16777216
100
AcDbMText
 10
1304.616162959711
 20
4467.395935314896
 30
0.0
 40
120.0
 41
0.0
 46
0.0
 71
     5
 72
     5
  1
\A1;1334
 11
0.0000000000000001
 21
1.0
 31
0.0
 73
     1
 44
1.0
  0
POINT
  5
82A2
330
7D40
100
AcDbEntity
  8
DEFPOINTS
 62
     0
440
 16777216
100
AcDbPoint
 10
1904.690038106199
 20
5134.395935314897
 30
0.0
  0
POINT
  5
82A3
330
7D40
100
AcDbEntity
  8
DEFPOINTS
 62
     0
440
 16777216
100
AcDbPoint
 10
1826.253499857346
 20
3800.395935314897
 30
0.0
  0
POINT
  5
82A4
330
7D40
100
AcDbEntity
  8
DEFPOINTS
 62
     0
440
 16777216
100
AcDbPoint
 10
1404.616162959712
 20
3800.395935314897
 30
0.0
  0
ENDBLK
  5
805F
330
7D40
100
AcDbEntity
  8
0
100
AcDbBlockEnd
  0
BLOCK
  5
804A
330
7D4C
100
AcDbEntity
  8
0
100
AcDbBlockBegin
  2
*D4
 70
     1
 10
0.0
 20
0.0
 30
0.0
  3
*D4
  1

  0
LINE
  5
82A5
330
7D4C
100
AcDbEntity
  8
3
 62
     0
440
 16777216
100
AcDbLine
 10
1904.690038106199
 20
5207.395935314896
 30
0.0
 11
1904.690038106199
 21
5476.91888063242
 31
0.0
  0
LINE
  5
82A6
330
7D4C
100
AcDbEntity
  8
3
 62
     0
440
 16777216
100
AcDbLine
 10
2729.690038106199
 20
5175.68165442021
 30
0.0
 11
2729.690038106199
 21
5476.91888063242
 31
0.0
  0
LINE
  5
82A7
330
7D4C
100
AcDbEntity
  8
3
 62
     0
440
 16777216
100
AcDbLine
 10
1984.690038106199
 20
5436.91888063242
 30
0.0
 11
2649.690038106199
 21
5436.91888063242
 31
0.0
  0
INSERT
  5
82A8
330
7D4C
100
AcDbEntity
  8
3
 62
     0
440
 16777216
100
AcDbBlockReference
  2
_OPEN
 10
1904.690038106199
 20
5436.91888063242
 30
0.0
 41
80.0
 42
80.0
 43
80.0
 50
180.0
  0
INSERT
  5
82A9
330
7D4C
100
AcDbEntity
  8
3
 62
     0
440
 16777216
100
AcDbBlockReference
  2
_OPEN
 10
2729.690038106199
 20
5436.91888063242
 30
0.0
 41
80.0
 42
80.0
 43
80.0
  0
MTEXT
  5
82AA
330
7D4C
100
AcDbEntity
  8
3
 62
     0
440
 16777216
100
AcDbMText
 10
2317.190038106199
 20
5536.91888063242
 30
0.0
 40
120.0
 41
0.0
 46
0.0
 71
     5
 72
     5
  1
\A1;825
 73
     1
 44
1.0
  0
POINT
  5
82AB
330
7D4C
100
AcDbEntity
  8
DEFPOINTS
 62
     0
440
 16777216
100
AcDbPoint
 10
1904.690038106199
 20
5187.395935314897
 30
0.0
  0
POINT
  5
82AC
330
7D4C
100
AcDbEntity
  8
DEFPOINTS
 62
     0
440
 16777216
100
AcDbPoint
 10
2729.690038106199
 20
5155.681654420209
 30
0.0
  0
POINT
  5
82AD
330
7D4C
100
AcDbEntity
  8
DEFPOINTS
 62
     0
440
 16777216
100
AcDbPoint
 10
2729.690038106199
 20
5436.91888063242
 30
0.0
  0
ENDBLK
  5
8054
330
7D4C
100
AcDbEntity
  8
0
100
AcDbBlockEnd
  0
BLOCK
  5
803F
330
7D58
100
AcDbEntity
  8
0
100
AcDbBlockBegin
  2
*D5
 70
     1
 10
0.0
 20
0.0
 30
0.0
  3
*D5
  1

  0
LINE
  5
82AE
330
7D58
100
AcDbEntity
  8
3
 62
     0
440
 16777216
100
AcDbLine
 10
2729.690038106199
 20
5175.68165442021
 30
0.0
 11
2729.690038106199
 21
5476.91888063242
 31
0.0
  0
LINE
  5
82AF
330
7D58
100
AcDbEntity
  8
3
 62
     0
440
 16777216
100
AcDbLine
 10
3804.49032271685
 20
3820.395935314897
 30
0.0
 11
3804.49032271685
 21
5476.91888063242
 31
0.0
  0
LINE
  5
82B0
330
7D58
100
AcDbEntity
  8
3
 62
     0
440
 16777216
100
AcDbLine
 10
2809.690038106199
 20
5436.91888063242
 30
0.0
 11
3724.490322716851
 21
5436.91888063242
 31
0.0
  0
INSERT
  5
82B1
330
7D58
100
AcDbEntity
  8
3
 62
     0
440
 16777216
100
AcDbBlockReference
  2
_OPEN
 10
2729.690038106199
 20
5436.91888063242
 30
0.0
 41
80.0
 42
80.0
 43
80.0
 50
180.0
  0
INSERT
  5
82B2
330
7D58
100
AcDbEntity
  8
3
 62
     0
440
 16777216
100
AcDbBlockReference
  2
_OPEN
 10
3804.49032271685
 20
5436.91888063242
 30
0.0
 41
80.0
 42
80.0
 43
80.0
  0
MTEXT
  5
82B3
330
7D58
100
AcDbEntity
  8
3
 62
     0
440
 16777216
100
AcDbMText
 10
3267.090180411525
 20
5536.91888063242
 30
0.0
 40
120.0
 41
0.0
 46
0.0
 71
     5
 72
     5
  1
\A1;1079
 73
     1
 44
1.0
  0
POINT
  5
82B4
330
7D58
100
AcDbEntity
  8
DEFPOINTS
 62
     0
440
 16777216
100
AcDbPoint
 10
2729.690038106199
 20
5155.681654420209
 30
0.0
  0
POINT
  5
82B5
330
7D58
100
AcDbEntity
  8
DEFPOINTS
 62
     0
440
 16777216
100
AcDbPoint
 10
3804.49032271685
 20
3800.395935314897
 30
0.0
  0
POINT
  5
82B6
330
7D58
100
AcDbEntity
  8
DEFPOINTS
 62
     0
440
 16777216
100
AcDbPoint
 10
3804.49032271685
 20
5436.91888063242
 30
0.0
  0
ENDBLK
  5
8049
330
7D58
100
AcDbEntity
  8
0
100
AcDbBlockEnd
  0
BLOCK
  5
8034
330
7D64
100
AcDbEntity
  8
0
100
AcDbBlockBegin
  2
*D6
 70
     1
 10
0.0
 20
0.0
 30
0.0
  3
*D6
  1

  0
LINE
  5
82B7
330
7D64
100
AcDbEntity
  8
3
 62
     0
440
 16777216
100
AcDbLine
 10
5460.972951952932
 20
5207.395935314896
 30
0.0
 11
5460.972951952932
 21
5475.795721781462
 31
0.0
  0
LINE
  5
82B8
330
7D64
100
AcDbEntity
  8
3
 62
     0
440
 16777216
100
AcDbLine
 10
7160.972951952932
 20
5207.395935314896
 30
0.0
 11
7160.972951952932
 21
5475.795721781462
 31
0.0
  0
LINE
  5
82B9
330
7D64
100
AcDbEntity
  8
3
 62
     0
440
 16777216
100
AcDbLine
 10
5540.972951952932
 20
5435.795721781462
 30
0.0
 11
7080.972951952933
 21
5435.795721781462
 31
0.0
  0
INSERT
  5
82BA
330
7D64
100
AcDbEntity
  8
3
 62
     0
440
 16777216
100
AcDbBlockReference
  2
_OPEN
 10
5460.972951952932
 20
5435.795721781462
 30
0.0
 41
80.0
 42
80.0
 43
80.0
 50
180.0
  0
INSERT
  5
82BB
330
7D64
100
AcDbEntity
  8
3
 62
     0
440
 16777216
100
AcDbBlockReference
  2
_OPEN
 10
7160.972951952932
 20
5435.795721781462
 30
0.0
 41
80.0
 42
80.0
 43
80.0
  0
MTEXT
  5
82BC
330
7D64
100
AcDbEntity
  8
3
 62
     0
440
 16777216
100
AcDbMText
 10
6310.972951952932
 20
5535.795721781462
 30
0.0
 40
120.0
 41
0.0
 46
0.0
 71
     5
 72
     5
  1
\A1;1700
 73
     1
 44
1.0
  0
POINT
  5
82BD
330
7D64
100
AcDbEntity
  8
DEFPOINTS
 62
     0
440
 16777216
100
AcDbPoint
 10
5460.972951952932
 20
5187.395935314897
 30
0.0
  0
POINT
  5
82BE
330
7D64
100
AcDbEntity
  8
DEFPOINTS
 62
     0
440
 16777216
100
AcDbPoint
 10
7160.972951952932
 20
5187.395935314897
 30
0.0
  0
POINT
  5
82BF
330
7D64
100
AcDbEntity
  8
DEFPOINTS
 62
     0
440
 16777216
100
AcDbPoint
 10
7160.972951952932
 20
5435.795721781462
 30
0.0
  0
ENDBLK
  5
803E
330
7D64
100
AcDbEntity
  8
0
100
AcDbBlockEnd
  0
BLOCK
  5
8145
330
7D70
100
AcDbEntity
  8
0
100
AcDbBlockBegin
  2
*D7
 70
     1
 10
0.0
 20
0.0
 30
0.0
  3
*D7
  1

  0
LINE
  5
83D7
330
7D70
100
AcDbEntity
  8
3
 62
     0
440
 16777216
370
    -2
100
AcDbLine
 10
4990.972951952933
 20
4100.395935314896
 30
0.0
 11
4990.972951952933
 21
5729.14661374555
 31
0.0
  0
LINE
  5
83D8
330
7D70
100
AcDbEntity
  8
3
 62
     0
440
 16777216
370
    -2
100
AcDbLine
 10
6310.972951952932
 20
5644.422705656015
 30
0.0
 11
6310.972951952932
 21
5729.14661374555
 31
0.0
  0
LINE
  5
83D9
330
7D70
100
AcDbEntity
  8
3
 62
     0
440
 16777216
370
    -2
100
AcDbLine
 10
5070.972951952933
 20
5689.14661374555
 30
0.0
 11
6230.972951952931
 21
5689.14661374555
 31
0.0
  0
INSERT
  5
83DA
330
7D70
100
AcDbEntity
  8
3
 62
     0
440
 16777216
370
    -2
100
AcDbBlockReference
  2
_OPEN
 10
4990.972951952933
 20
5689.14661374555
 30
0.0
 41
80.0
 42
80.0
 43
80.0
 50
180.0
  0
INSERT
  5
83DB
330
7D70
100
AcDbEntity
  8
3
 62
     0
440
 16777216
370
    -2
100
AcDbBlockReference
  2
_OPEN
 10
6310.972951952932
 20
5689.14661374555
 30
0.0
 41
80.0
 42
80.0
 43
80.0
  0
MTEXT
  5
83DC
330
7D70
100
AcDbEntity
  8
3
 62
     0
440
 16777216
100
AcDbMText
 10
5650.972951952932
 20
5820.575185174122
 30
0.0
 40
120.0
 41
0.0
 46
0.0
 71
     5
 72
     1
  1
\A1;(1320)
 73
     1
 44
1.0
  0
POINT
  5
83DD
330
7D70
100
AcDbEntity
  8
DEFPOINTS
 62
     0
440
 16777216
100
AcDbPoint
 10
4990.972951952933
 20
4080.395935314896
 30
0.0
  0
POINT
  5
83DE
330
7D70
100
AcDbEntity
  8
DEFPOINTS
 62
     0
440
 16777216
100
AcDbPoint
 10
6310.972951952932
 20
5624.422705656016
 30
0.0
  0
POINT
  5
83DF
330
7D70
100
AcDbEntity
  8
DEFPOINTS
 62
     0
440
 16777216
100
AcDbPoint
 10
6310.972951952932
 20
5689.14661374555
 30
0.0
  0
ENDBLK
  5
814F
330
7D70
100
AcDbEntity
  8
0
100
AcDbBlockEnd
  0
BLOCK
  5
813A
330
7D7C
100
AcDbEntity
  8
0
100
AcDbBlockBegin
  2
*D8
 70
     1
 10
0.0
 20
0.0
 30
0.0
  3
*D8
  1

  0
LINE
  5
83CE
330
7D7C
100
AcDbEntity
  8
3
 62
     0
440
 16777216
370
    -2
100
AcDbLine
 10
6310.972951952932
 20
5644.422705656015
 30
0.0
 11
6310.972951952932
 21
5728.759026640364
 31
0.0
  0
LINE
  5
83CF
330
7D7C
100
AcDbEntity
  8
3
 62
     0
440
 16777216
370
    -2
100
AcDbLine
 10
7330.472951952931
 20
3744.395935314897
 30
0.0
 11
7330.472951952931
 21
5728.759026640364
 31
0.0
  0
LINE
  5
83D0
330
7D7C
100
AcDbEntity
  8
3
 62
     0
440
 16777216
370
    -2
100
AcDbLine
 10
6390.972951952932
 20
5688.759026640364
 30
0.0
 11
7250.472951952932
 21
5688.759026640364
 31
0.0
  0
INSERT
  5
83D1
330
7D7C
100
AcDbEntity
  8
3
 62
     0
440
 16777216
370
    -2
100
AcDbBlockReference
  2
_OPEN
 10
6310.972951952932
 20
5688.759026640364
 30
0.0
 41
80.0
 42
80.0
 43
80.0
 50
180.0
  0
INSERT
  5
83D2
330
7D7C
100
AcDbEntity
  8
3
 62
     0
440
 16777216
370
    -2
100
AcDbBlockReference
  2
_OPEN
 10
7330.472951952931
 20
5688.759026640364
 30
0.0
 41
80.0
 42
80.0
 43
80.0
  0
MTEXT
  5
83D3
330
7D7C
100
AcDbEntity
  8
3
 62
     0
440
 16777216
100
AcDbMText
 10
6820.722951952932
 20
5820.187598068936
 30
0.0
 40
120.0
 41
0.0
 46
0.0
 71
     5
 72
     1
  1
\A1;(1020)
 73
     1
 44
1.0
  0
POINT
  5
83D4
330
7D7C
100
AcDbEntity
  8
DEFPOINTS
 62
     0
440
 16777216
100
AcDbPoint
 10
6310.972951952932
 20
5624.422705656016
 30
0.0
  0
POINT
  5
83D5
330
7D7C
100
AcDbEntity
  8
DEFPOINTS
 62
     0
440
 16777216
100
AcDbPoint
 10
7330.472951952931
 20
3724.395935314897
 30
0.0
  0
POINT
  5
83D6
330
7D7C
100
AcDbEntity
  8
DEFPOINTS
 62
     0
440
 16777216
100
AcDbPoint
 10
7330.472951952931
 20
5688.759026640364
 30
0.0
  0
ENDBLK
  5
8144
330
7D7C
100
AcDbEntity
  8
0
100
AcDbBlockEnd
  0
BLOCK
  5
8013
330
7D88
100
AcDbEntity
  8
0
100
AcDbBlockBegin
  2
*D9
 70
     1
 10
0.0
 20
0.0
 30
0.0
  3
*D9
  1

  0
LINE
  5
82D2
330
7D88
100
AcDbEntity
  8
3
 62
     0
440
 16777216
100
AcDbLine
 10
7183.272951952933
 20
4425.395935314896
 30
0.0
 11
7612.242576865435
 21
4425.395935314896
 31
0.0
  0
LINE
  5
82D3
330
7D88
100
AcDbEntity
  8
3
 62
     0
440
 16777216
100
AcDbLine
 10
7183.272951952933
 20
3175.395935314896
 30
0.0
 11
7612.242576865435
 21
3175.395935314896
 31
0.0
  0
LINE
  5
82D4
330
7D88
100
AcDbEntity
  8
3
 62
     0
440
 16777216
100
AcDbLine
 10
7572.242576865436
 20
4345.395935314896
 30
0.0
 11
7572.242576865436
 21
3255.395935314896
 31
0.0
  0
INSERT
  5
82D5
330
7D88
100
AcDbEntity
  8
3
 62
     0
440
 16777216
100
AcDbBlockReference
  2
_OPEN
 10
7572.242576865436
 20
4425.395935314896
 30
0.0
 41
80.0
 42
80.0
 43
80.0
 50
90.0
  0
INSERT
  5
82D6
330
7D88
100
AcDbEntity
  8
3
 62
     0
440
 16777216
100
AcDbBlockReference
  2
_OPEN
 10
7572.242576865436
 20
3175.395935314896
 30
0.0
 41
80.0
 42
80.0
 43
80.0
 50
270.0
  0
MTEXT
  5
82D7
330
7D88
100
AcDbEntity
  8
3
 62
     0
440
 16777216
100
AcDbMText
 10
7472.242576865435
 20
3800.395935314897
 30
0.0
 40
120.0
 41
0.0
 46
0.0
 71
     5
 72
     5
  1
\A1;φ1250
 11
0.0000000000000001
 21
1.0
 31
0.0
 73
     1
 44
1.0
  0
POINT
  5
82D8
330
7D88
100
AcDbEntity
  8
DEFPOINTS
 62
     0
440
 16777216
100
AcDbPoint
 10
7163.272951952933
 20
4425.395935314896
 30
0.0
  0
POINT
  5
82D9
330
7D88
100
AcDbEntity
  8
DEFPOINTS
 62
     0
440
 16777216
100
AcDbPoint
 10
7163.272951952933
 20
3175.395935314896
 30
0.0
  0
POINT
  5
82DA
330
7D88
100
AcDbEntity
  8
DEFPOINTS
 62
     0
440
 16777216
100
AcDbPoint
 10
7572.242576865436
 20
3175.395935314896
 30
0.0
  0
ENDBLK
  5
801D
330
7D88
100
AcDbEntity
  8
0
100
AcDbBlockEnd
  0
BLOCK
  5
816C
330
7D94
100
AcDbEntity
  8
0
100
AcDbBlockBegin
  2
*D10
 70
     1
 10
0.0
 20
0.0
 30
0.0
  3
*D10
  1

  0
LINE
  5
82DB
330
7D94
100
AcDbEntity
  8
3
 62
     0
440
 16777216
100
AcDbLine
 10
4629.690038106199
 20
2735.395935314897
 30
0.0
 11
4629.690038106199
 21
2375.233806848952
 31
0.0
  0
LINE
  5
82DC
330
7D94
100
AcDbEntity
  8
3
 62
     0
440
 16777216
100
AcDbLine
 10
2729.690038106199
 20
2735.395935314897
 30
0.0
 11
2729.690038106199
 21
2375.233806848952
 31
0.0
  0
LINE
  5
82DD
330
7D94
100
AcDbEntity
  8
3
 62
     0
440
 16777216
100
AcDbLine
 10
4549.690038106199
 20
2415.233806848952
 30
0.0
 11
2809.690038106199
 21
2415.233806848952
 31
0.0
  0
INSERT
  5
82DE
330
7D94
100
AcDbEntity
  8
3
 62
     0
440
 16777216
100
AcDbBlockReference
  2
_OPEN
 10
4629.690038106199
 20
2415.233806848952
 30
0.0
 41
80.0
 42
80.0
 43
80.0
  0
INSERT
  5
82DF
330
7D94
100
AcDbEntity
  8
3
 62
     0
440
 16777216
100
AcDbBlockReference
  2
_OPEN
 10
2729.690038106199
 20
2415.233806848952
 30
0.0
 41
80.0
 42
80.0
 43
80.0
 50
180.0
  0
MTEXT
  5
82E0
330
7D94
100
AcDbEntity
  8
3
 62
     0
440
 16777216
100
AcDbMText
 10
3679.690038106199
 20
2515.233806848952
 30
0.0
 40
120.0
 41
0.0
 46
0.0
 71
     5
 72
     5
  1
\A1;1900
 73
     1
 44
1.0
  0
POINT
  5
82E1
330
7D94
100
AcDbEntity
  8
DEFPOINTS
 62
     0
440
 16777216
100
AcDbPoint
 10
4629.690038106199
 20
2755.395935314897
 30
0.0
  0
POINT
  5
82E2
330
7D94
100
AcDbEntity
  8
DEFPOINTS
 62
     0
440
 16777216
100
AcDbPoint
 10
2729.690038106199
 20
2755.395935314897
 30
0.0
  0
POINT
  5
82E3
330
7D94
100
AcDbEntity
  8
DEFPOINTS
 62
     0
440
 16777216
100
AcDbPoint
 10
2729.690038106199
 20
2415.233806848952
 30
0.0
  0
ENDBLK
  5
8176
330
7D94
100
AcDbEntity
  8
0
100
AcDbBlockEnd
  0
BLOCK
  5
7FF2
330
7DAC
100
AcDbEntity
  8
0
100
AcDbBlockBegin
  2
*D11
 70
     1
 10
0.0
 20
0.0
 30
0.0
  3
*D11
  1

  0
LINE
  5
82E4
330
7DAC
100
AcDbEntity
  8
3
 62
     0
440
 16777216
100
AcDbLine
 10
1806.253499857346
 20
3800.395935314897
 30
0.0
 11
1365.268771363863
 21
3800.395935314897
 31
0.0
  0
LINE
  5
82E5
330
7DAC
100
AcDbEntity
  8
3
 62
     0
440
 16777216
100
AcDbLine
 10
1959.690038106199
 20
2875.395935314897
 30
0.0
 11
1365.268771363862
 21
2875.395935314897
 31
0.0
  0
LINE
  5
82E6
330
7DAC
100
AcDbEntity
  8
3
 62
     0
440
 16777216
100
AcDbLine
 10
1405.268771363863
 20
3720.395935314897
 30
0.0
 11
1405.268771363862
 21
2955.395935314897
 31
0.0
  0
INSERT
  5
82E7
330
7DAC
100
AcDbEntity
  8
3
 62
     0
440
 16777216
100
AcDbBlockReference
  2
_OPEN
 10
1405.268771363863
 20
3800.395935314897
 30
0.0
 41
80.0
 42
80.0
 43
80.0
 50
90.0
  0
INSERT
  5
82E8
330
7DAC
100
AcDbEntity
  8
3
 62
     0
440
 16777216
100
AcDbBlockReference
  2
_OPEN
 10
1405.268771363862
 20
2875.395935314897
 30
0.0
 41
80.0
 42
80.0
 43
80.0
 50
270.0
  0
MTEXT
  5
82E9
330
7DAC
100
AcDbEntity
  8
3
 62
     0
440
 16777216
100
AcDbMText
 10
1305.268771363862
 20
3337.895935314897
 30
0.0
 40
120.0
 41
0.0
 46
0.0
 71
     5
 72
     5
  1
\A1;925
 11
0.0000000000000001
 21
1.0
 31
0.0
 73
     1
 44
1.0
  0
POINT
  5
82EA
330
7DAC
100
AcDbEntity
  8
DEFPOINTS
 62
     0
440
 16777216
100
AcDbPoint
 10
1826.253499857346
 20
3800.395935314897
 30
0.0
  0
POINT
  5
82EB
330
7DAC
100
AcDbEntity
  8
DEFPOINTS
 62
     0
440
 16777216
100
AcDbPoint
 10
1979.690038106198
 20
2875.395935314897
 30
0.0
  0
POINT
  5
82EC
330
7DAC
100
AcDbEntity
  8
DEFPOINTS
 62
     0
440
 16777216
100
AcDbPoint
 10
1405.268771363862
 20
2875.395935314897
 30
0.0
  0
ENDBLK
  5
7FFC
330
7DAC
100
AcDbEntity
  8
0
100
AcDbBlockEnd
  0
BLOCK
  5
8182
330
7DB8
100
AcDbEntity
  8
0
100
AcDbBlockBegin
  2
*D12
 70
     1
 10
0.0
 20
0.0
 30
0.0
  3
*D12
  1

  0
LINE
  5
82ED
330
7DB8
100
AcDbEntity
  8
3
 62
     0
440
 16777216
100
AcDbLine
 10
5119.972951952931
 20
2735.395935314897
 30
0.0
 11
5119.972951952931
 21
2371.806143632384
 31
0.0
  0
LINE
  5
82EE
330
7DB8
100
AcDbEntity
  8
3
 62
     0
440
 16777216
100
AcDbLine
 10
6310.972951952931
 20
2735.395935314897
 30
0.0
 11
6310.972951952931
 21
2371.806143632384
 31
0.0
  0
LINE
  5
82EF
330
7DB8
100
AcDbEntity
  8
3
 62
     0
440
 16777216
100
AcDbLine
 10
5199.972951952931
 20
2411.806143632384
 30
0.0
 11
6230.972951952931
 21
2411.806143632384
 31
0.0
  0
INSERT
  5
82F0
330
7DB8
100
AcDbEntity
  8
3
 62
     0
440
 16777216
100
AcDbBlockReference
  2
_OPEN
 10
5119.972951952931
 20
2411.806143632384
 30
0.0
 41
80.0
 42
80.0
 43
80.0
 50
180.0
  0
INSERT
  5
82F1
330
7DB8
100
AcDbEntity
  8
3
 62
     0
440
 16777216
100
AcDbBlockReference
  2
_OPEN
 10
6310.972951952931
 20
2411.806143632384
 30
0.0
 41
80.0
 42
80.0
 43
80.0
  0
MTEXT
  5
82F2
330
7DB8
100
AcDbEntity
  8
3
 62
     0
440
 16777216
100
AcDbMText
 10
5715.472951952931
 20
2511.806143632384
 30
0.0
 40
120.0
 41
0.0
 46
0.0
 71
     5
 72
     5
  1
\A1;1191
 73
     1
 44
1.0
  0
POINT
  5
82F3
330
7DB8
100
AcDbEntity
  8
DEFPOINTS
 62
     0
440
 16777216
100
AcDbPoint
 10
5119.972951952931
 20
2755.395935314897
 30
0.0
  0
POINT
  5
82F4
330
7DB8
100
AcDbEntity
  8
DEFPOINTS
 62
     0
440
 16777216
100
AcDbPoint
 10
6310.972951952931
 20
2755.395935314897
 30
0.0
  0
POINT
  5
82F5
330
7DB8
100
AcDbEntity
  8
DEFPOINTS
 62
     0
440
 16777216
100
AcDbPoint
 10
6310.972951952931
 20
2411.806143632384
 30
0.0
  0
ENDBLK
  5
818C
330
7DB8
100
AcDbEntity
  8
0
100
AcDbBlockEnd
  0
BLOCK
  5
8177
330
7DC4
100
AcDbEntity
  8
0
100
AcDbBlockBegin
  2
*D13
 70
     1
 10
0.0
 20
0.0
 30
0.0
  3
*D13
  1

  0
LINE
  5
82F6
330
7DC4
100
AcDbEntity
  8
3
 62
     0
440
 16777216
100
AcDbLine
 10
6310.972951952931
 20
2735.395935314897
 30
0.0
 11
6310.972951952931
 21
2371.806143632384
 31
0.0
  0
LINE
  5
82F7
330
7DC4
100
AcDbEntity
  8
3
 62
     0
440
 16777216
100
AcDbLine
 10
7239.972951952932
 20
2735.395935314897
 30
0.0
 11
7239.972951952932
 21
2371.806143632384
 31
0.0
  0
LINE
  5
82F8
330
7DC4
100
AcDbEntity
  8
3
 62
     0
440
 16777216
100
AcDbLine
 10
6390.972951952932
 20
2411.806143632384
 30
0.0
 11
7159.972951952932
 21
2411.806143632384
 31
0.0
  0
INSERT
  5
82F9
330
7DC4
100
AcDbEntity
  8
3
 62
     0
440
 16777216
100
AcDbBlockReference
  2
_OPEN
 10
6310.972951952931
 20
2411.806143632384
 30
0.0
 41
80.0
 42
80.0
 43
80.0
 50
180.0
  0
INSERT
  5
82FA
330
7DC4
100
AcDbEntity
  8
3
 62
     0
440
 16777216
100
AcDbBlockReference
  2
_OPEN
 10
7239.972951952932
 20
2411.806143632384
 30
0.0
 41
80.0
 42
80.0
 43
80.0
  0
MTEXT
  5
82FB
330
7DC4
100
AcDbEntity
  8
3
 62
     0
440
 16777216
100
AcDbMText
 10
6775.472951952932
 20
2511.806143632384
 30
0.0
 40
120.0
 41
0.0
 46
0.0
 71
     5
 72
     5
  1
\A1;929
 73
     1
 44
1.0
  0
POINT
  5
82FC
330
7DC4
100
AcDbEntity
  8
DEFPOINTS
 62
     0
440
 16777216
100
AcDbPoint
 10
6310.972951952931
 20
2755.395935314897
 30
0.0
  0
POINT
  5
82FD
330
7DC4
100
AcDbEntity
  8
DEFPOINTS
 62
     0
440
 16777216
100
AcDbPoint
 10
7239.972951952932
 20
2755.395935314897
 30
0.0
  0
POINT
  5
82FE
330
7DC4
100
AcDbEntity
  8
DEFPOINTS
 62
     0
440
 16777216
100
AcDbPoint
 10
7239.972951952932
 20
2411.806143632384
 30
0.0
  0
ENDBLK
  5
8181
330
7DC4
100
AcDbEntity
  8
0
100
AcDbBlockEnd
  0
BLOCK
  5
81C6
330
7DE8
100
AcDbEntity
  8
0
100
AcDbBlockBegin
  2
*D14
 70
     1
 10
0.0
 20
0.0
 30
0.0
  3
*D14
  1

  0
LINE
  5
82FF
330
7DE8
100
AcDbEntity
  8
3
 62
     0
440
 16777216
100
AcDbLine
 10
1959.690038106199
 20
8655.82226802134
 30
0.0
 11
1490.673896870365
 21
8655.82226802134
 31
0.0
  0
LINE
  5
8300
330
7DE8
100
AcDbEntity
  8
3
 62
     0
440
 16777216
100
AcDbLine
 10
1959.690038106199
 20
6535.822268021341
 30
0.0
 11
1490.673896870365
 21
6535.822268021341
 31
0.0
  0
LINE
  5
8301
330
7DE8
100
AcDbEntity
  8
3
 62
     0
440
 16777216
100
AcDbLine
 10
1530.673896870365
 20
8575.82226802134
 30
0.0
 11
1530.673896870364
 21
6615.822268021341
 31
0.0
  0
INSERT
  5
8302
330
7DE8
100
AcDbEntity
  8
3
 62
     0
440
 16777216
100
AcDbBlockReference
  2
_OPEN
 10
1530.673896870365
 20
8655.82226802134
 30
0.0
 41
80.0
 42
80.0
 43
80.0
 50
90.0
  0
INSERT
  5
8303
330
7DE8
100
AcDbEntity
  8
3
 62
     0
440
 16777216
100
AcDbBlockReference
  2
_OPEN
 10
1530.673896870364
 20
6535.822268021341
 30
0.0
 41
80.0
 42
80.0
 43
80.0
 50
270.0
  0
MTEXT
  5
8304
330
7DE8
100
AcDbEntity
  8
3
 62
     0
440
 16777216
100
AcDbMText
 10
1430.673896870364
 20
7595.822268021341
 30
0.0
 40
120.0
 41
0.0
 46
0.0
 71
     5
 72
     5
  1
\A1;2120
 11
0.0000000000000001
 21
1.0
 31
0.0
 73
     1
 44
1.0
  0
POINT
  5
8305
330
7DE8
100
AcDbEntity
  8
DEFPOINTS
 62
     0
440
 16777216
100
AcDbPoint
 10
1979.690038106198
 20
8655.82226802134
 30
0.0
  0
POINT
  5
8306
330
7DE8
100
AcDbEntity
  8
DEFPOINTS
 62
     0
440
 16777216
100
AcDbPoint
 10
1979.690038106198
 20
6535.822268021341
 30
0.0
  0
POINT
  5
8307
330
7DE8
100
AcDbEntity
  8
DEFPOINTS
 62
     0
440
 16777216
100
AcDbPoint
 10
1530.673896870364
 20
6535.822268021341
 30
0.0
  0
ENDBLK
  5
81D0
330
7DE8
100
AcDbEntity
  8
0
100
AcDbBlockEnd
  0
BLOCK
  5
7FBB
330
7DF4
100
AcDbEntity
  8
0
100
AcDbBlockBegin
  2
*D15
 70
     1
 10
0.0
 20
0.0
 30
0.0
  3
*D15
  1

  0
LINE
  5
8308
330
7DF4
100
AcDbEntity
  8
3
 62
     0
440
 16777216
100
AcDbLine
 10
1979.690038106198
 20
8675.82226802134
 30
0.0
 11
1979.690038106198
 21
8900.458406526526
 31
0.0
  0
LINE
  5
8309
330
7DF4
100
AcDbEntity
  8
3
 62
     0
440
 16777216
100
AcDbLine
 10
3479.690038106199
 20
8675.822268021342
 30
0.0
 11
3479.690038106199
 21
8900.458406526526
 31
0.0
  0
LINE
  5
830A
330
7DF4
100
AcDbEntity
  8
3
 62
     0
440
 16777216
100
AcDbLine
 10
2059.690038106199
 20
8860.458406526525
 30
0.0
 11
3399.690038106199
 21
8860.458406526525
 31
0.0
  0
INSERT
  5
830B
330
7DF4
100
AcDbEntity
  8
3
 62
     0
440
 16777216
100
AcDbBlockReference
  2
_OPEN
 10
1979.690038106198
 20
8860.458406526525
 30
0.0
 41
80.0
 42
80.0
 43
80.0
 50
180.0
  0
INSERT
  5
830C
330
7DF4
100
AcDbEntity
  8
3
 62
     0
440
 16777216
100
AcDbBlockReference
  2
_OPEN
 10
3479.690038106199
 20
8860.458406526525
 30
0.0
 41
80.0
 42
80.0
 43
80.0
  0
MTEXT
  5
830D
330
7DF4
100
AcDbEntity
  8
3
 62
     0
440
 16777216
100
AcDbMText
 10
2729.690038106199
 20
8960.458406526525
 30
0.0
 40
120.0
 41
0.0
 46
0.0
 71
     5
 72
     5
  1
\A1;1500
 73
     1
 44
1.0
  0
POINT
  5
830E
330
7DF4
100
AcDbEntity
  8
DEFPOINTS
 62
     0
440
 16777216
100
AcDbPoint
 10
1979.690038106198
 20
8655.82226802134
 30
0.0
  0
POINT
  5
830F
330
7DF4
100
AcDbEntity
  8
DEFPOINTS
 62
     0
440
 16777216
100
AcDbPoint
 10
3479.690038106199
 20
8655.822268021342
 30
0.0
  0
POINT
  5
8310
330
7DF4
100
AcDbEntity
  8
DEFPOINTS
 62
     0
440
 16777216
100
AcDbPoint
 10
3479.690038106199
 20
8860.458406526525
 30
0.0
  0
ENDBLK
  5
7FC5
330
7DF4
100
AcDbEntity
  8
0
100
AcDbBlockEnd
  0
BLOCK
  5
81E7
330
7E00
100
AcDbEntity
  8
0
100
AcDbBlockBegin
  2
*D16
 70
     1
 10
0.0
 20
0.0
 30
0.0
  3
*D16
  1

  0
LINE
  5
8311
330
7E00
100
AcDbEntity
  8
3
 62
     0
440
 16777216
100
AcDbLine
 10
3479.690038106199
 20
8675.822268021342
 30
0.0
 11
3479.690038106199
 21
8900.458406526526
 31
0.0
  0
LINE
  5
8312
330
7E00
100
AcDbEntity
  8
3
 62
     0
440
 16777216
100
AcDbLine
 10
4629.690038106199
 20
7655.822268021342
 30
0.0
 11
4629.690038106199
 21
8900.458406526526
 31
0.0
  0
LINE
  5
8313
330
7E00
100
AcDbEntity
  8
3
 62
     0
440
 16777216
100
AcDbLine
 10
3559.690038106199
 20
8860.458406526525
 30
0.0
 11
4549.690038106199
 21
8860.458406526525
 31
0.0
  0
INSERT
  5
8314
330
7E00
100
AcDbEntity
  8
3
 62
     0
440
 16777216
100
AcDbBlockReference
  2
_OPEN
 10
3479.690038106199
 20
8860.458406526525
 30
0.0
 41
80.0
 42
80.0
 43
80.0
 50
180.0
  0
INSERT
  5
8315
330
7E00
100
AcDbEntity
  8
3
 62
     0
440
 16777216
100
AcDbBlockReference
  2
_OPEN
 10
4629.690038106199
 20
8860.458406526525
 30
0.0
 41
80.0
 42
80.0
 43
80.0
  0
MTEXT
  5
8316
330
7E00
100
AcDbEntity
  8
3
 62
     0
440
 16777216
100
AcDbMText
 10
4054.690038106198
 20
8960.458406526525
 30
0.0
 40
120.0
 41
0.0
 46
0.0
 71
     5
 72
     5
  1
\A1;1150
 73
     1
 44
1.0
  0
POINT
  5
8317
330
7E00
100
AcDbEntity
  8
DEFPOINTS
 62
     0
440
 16777216
100
AcDbPoint
 10
3479.690038106199
 20
8655.822268021342
 30
0.0
  0
POINT
  5
8318
330
7E00
100
AcDbEntity
  8
DEFPOINTS
 62
     0
440
 16777216
100
AcDbPoint
 10
4629.690038106199
 20
7635.822268021342
 30
0.0
  0
POINT
  5
8319
330
7E00
100
AcDbEntity
  8
DEFPOINTS
 62
     0
440
 16777216
100
AcDbPoint
 10
4629.690038106199
 20
8860.458406526525
 30
0.0
  0
ENDBLK
  5
81F1
330
7E00
100
AcDbEntity
  8
0
100
AcDbBlockEnd
  0
BLOCK
  5
81DC
330
7E0B
100
AcDbEntity
  8
0
100
AcDbBlockBegin
  2
*D17
 70
     1
 10
0.0
 20
0.0
 30
0.0
  3
*D17
  1

  0
LINE
  5
831A
330
7E0B
100
AcDbEntity
  8
3
 62
     0
440
 16777216
100
AcDbLine
 10
4649.690038106199
 20
7635.822268021342
 30
0.0
 11
4936.016439213777
 21
7635.822268021342
 31
0.0
  0
LINE
  5
831B
330
7E0B
100
AcDbEntity
  8
3
 62
     0
440
 16777216
100
AcDbLine
 10
4649.690038106199
 20
6535.822268021341
 30
0.0
 11
4936.016439213777
 21
6535.822268021341
 31
0.0
  0
LINE
  5
831C
330
7E0B
100
AcDbEntity
  8
3
 62
     0
440
 16777216
100
AcDbLine
 10
4896.016439213777
 20
7555.822268021342
 30
0.0
 11
4896.016439213777
 21
6615.822268021343
 31
0.0
  0
INSERT
  5
831D
330
7E0B
100
AcDbEntity
  8
3
 62
     0
440
 16777216
100
AcDbBlockReference
  2
_OPEN
 10
4896.016439213777
 20
7635.822268021342
 30
0.0
 41
80.0
 42
80.0
 43
80.0
 50
90.0
  0
INSERT
  5
831E
330
7E0B
100
AcDbEntity
  8
3
 62
     0
440
 16777216
100
AcDbBlockReference
  2
_OPEN
 10
4896.016439213777
 20
6535.822268021341
 30
0.0
 41
80.0
 42
80.0
 43
80.0
 50
270.0
  0
MTEXT
  5
831F
330
7E0B
100
AcDbEntity
  8
3
 62
     0
440
 16777216
100
AcDbMText
 10
4796.016439213775
 20
7085.822268021343
 30
0.0
 40
120.0
 41
0.0
 46
0.0
 71
     5
 72
     5
  1
\A1;1100
 11
0.0000000000000001
 21
1.0
 31
0.0
 73
     1
 44
1.0
  0
POINT
  5
8320
330
7E0B
100
AcDbEntity
  8
DEFPOINTS
 62
     0
440
 16777216
100
AcDbPoint
 10
4629.690038106199
 20
7635.822268021342
 30
0.0
  0
POINT
  5
8321
330
7E0B
100
AcDbEntity
  8
DEFPOINTS
 62
     0
440
 16777216
100
AcDbPoint
 10
4629.690038106199
 20
6535.822268021341
 30
0.0
  0
POINT
  5
8322
330
7E0B
100
AcDbEntity
  8
DEFPOINTS
 62
     0
440
 16777216
100
AcDbPoint
 10
4896.016439213777
 20
6535.822268021341
 30
0.0
  0
ENDBLK
  5
81E6
330
7E0B
100
AcDbEntity
  8
0
100
AcDbBlockEnd
  0
BLOCK
  5
81F2
330
7E17
100
AcDbEntity
  8
0
100
AcDbBlockBegin
  2
*D18
 70
     1
 10
0.0
 20
0.0
 30
0.0
  3
*D18
  1

  0
LINE
  5
8323
330
7E17
100
AcDbEntity
  8
3
 62
     0
440
 16777216
100
AcDbLine
 10
4629.690038106199
 20
6515.822268021342
 30
0.0
 11
4629.690038106199
 21
6131.068389831689
 31
0.0
  0
LINE
  5
8324
330
7E17
100
AcDbEntity
  8
3
 62
     0
440
 16777216
100
AcDbLine
 10
1979.690038106198
 20
6515.822268021342
 30
0.0
 11
1979.690038106198
 21
6131.068389831689
 31
0.0
  0
LINE
  5
8325
330
7E17
100
AcDbEntity
  8
3
 62
     0
440
 16777216
100
AcDbLine
 10
4549.690038106199
 20
6171.068389831689
 30
0.0
 11
2059.690038106199
 21
6171.068389831689
 31
0.0
  0
INSERT
  5
8326
330
7E17
100
AcDbEntity
  8
3
 62
     0
440
 16777216
100
AcDbBlockReference
  2
_OPEN
 10
4629.690038106199
 20
6171.068389831689
 30
0.0
 41
80.0
 42
80.0
 43
80.0
  0
INSERT
  5
8327
330
7E17
100
AcDbEntity
  8
3
 62
     0
440
 16777216
100
AcDbBlockReference
  2
_OPEN
 10
1979.690038106198
 20
6171.068389831689
 30
0.0
 41
80.0
 42
80.0
 43
80.0
 50
180.0
  0
MTEXT
  5
8328
330
7E17
100
AcDbEntity
  8
3
 62
     0
440
 16777216
100
AcDbMText
 10
3304.690038106199
 20
6271.06838983169
 30
0.0
 40
120.0
 41
0.0
 46
0.0
 71
     5
 72
     5
  1
\A1;2650
 73
     1
 44
1.0
  0
POINT
  5
8329
330
7E17
100
AcDbEntity
  8
DEFPOINTS
 62
     0
440
 16777216
100
AcDbPoint
 10
4629.690038106199
 20
6535.822268021341
 30
0.0
  0
POINT
  5
832A
330
7E17
100
AcDbEntity
  8
DEFPOINTS
 62
     0
440
 16777216
100
AcDbPoint
 10
1979.690038106198
 20
6535.822268021341
 30
0.0
  0
POINT
  5
832B
330
7E17
100
AcDbEntity
  8
DEFPOINTS
 62
     0
440
 16777216
100
AcDbPoint
 10
1979.690038106198
 20
6171.068389831689
 30
0.0
  0
ENDBLK
  5
81FC
330
7E17
100
AcDbEntity
  8
0
100
AcDbBlockEnd
  0
BLOCK
  5
8161
330
7E23
100
AcDbEntity
  8
0
100
AcDbBlockBegin
  2
*D19
 70
     1
 10
0.0
 20
0.0
 30
0.0
  3
*D19
  1

  0
LINE
  5
832C
330
7E23
100
AcDbEntity
  8
3
 62
     0
440
 16777216
100
AcDbLine
 10
1904.690038106199
 20
5207.395935314896
 30
0.0
 11
1904.690038106199
 21
5701.37209794053
 31
0.0
  0
LINE
  5
832D
330
7E23
100
AcDbEntity
  8
3
 62
     0
440
 16777216
100
AcDbLine
 10
4629.690038106199
 20
3020.395935314897
 30
0.0
 11
4629.690038106199
 21
5701.37209794053
 31
0.0
  0
LINE
  5
832E
330
7E23
100
AcDbEntity
  8
3
 62
     0
440
 16777216
100
AcDbLine
 10
1984.690038106199
 20
5661.37209794053
 30
0.0
 11
4549.690038106199
 21
5661.37209794053
 31
0.0
  0
INSERT
  5
832F
330
7E23
100
AcDbEntity
  8
3
 62
     0
440
 16777216
100
AcDbBlockReference
  2
_OPEN
 10
1904.690038106199
 20
5661.37209794053
 30
0.0
 41
80.0
 42
80.0
 43
80.0
 50
180.0
  0
INSERT
  5
8330
330
7E23
100
AcDbEntity
  8
3
 62
     0
440
 16777216
100
AcDbBlockReference
  2
_OPEN
 10
4629.690038106199
 20
5661.37209794053
 30
0.0
 41
80.0
 42
80.0
 43
80.0
  0
MTEXT
  5
8331
330
7E23
100
AcDbEntity
  8
3
 62
     0
440
 16777216
100
AcDbMText
 10
3267.190038106199
 20
5761.37209794053
 30
0.0
 40
120.0
 41
0.0
 46
0.0
 71
     5
 72
     5
  1
\A1;2725
 73
     1
 44
1.0
  0
POINT
  5
8332
330
7E23
100
AcDbEntity
  8
DEFPOINTS
 62
     0
440
 16777216
100
AcDbPoint
 10
1904.690038106199
 20
5187.395935314897
 30
0.0
  0
POINT
  5
8333
330
7E23
100
AcDbEntity
  8
DEFPOINTS
 62
     0
440
 16777216
100
AcDbPoint
 10
4629.690038106199
 20
3000.395935314897
 30
0.0
  0
POINT
  5
8334
330
7E23
100
AcDbEntity
  8
DEFPOINTS
 62
     0
440
 16777216
100
AcDbPoint
 10
4629.690038106199
 20
5661.37209794053
 30
0.0
  0
ENDBLK
  5
816B
330
7E23
100
AcDbEntity
  8
0
100
AcDbBlockEnd
  0
BLOCK
  5
7F38
330
7F37
100
AcDbEntity
  8
0
100
AcDbBlockBegin
  2
_OPEN
 70
     0
 10
0.0
 20
0.0
 30
0.0
  3
_OPEN
  1

  0
LINE
  5
7F39
330
7F37
100
AcDbEntity
  8
0
  6
ByBlock
 62
     0
100
AcDbLine
 10
-1.0
 20
0.1666666666666666
 30
0.0
 11
0.0
 21
0.0
 31
0.0
  0
LINE
  5
7F3A
330
7F37
100
AcDbEntity
  8
0
  6
ByBlock
 62
     0
100
AcDbLine
 10
0.0
 20
0.0
 30
0.0
 11
-1.0
 21
-0.1666666666666666
 31
0.0
  0
LINE
  5
7F3B
330
7F37
100
AcDbEntity
  8
0
  6
ByBlock
 62
     0
100
AcDbLine
 10
0.0
 20
0.0
 30
0.0
 11
-1.0
 21
0.0
 31
0.0
  0
ENDBLK
  5
7F3C
330
7F37
100
AcDbEntity
  8
0
100
AcDbBlockEnd
  0
BLOCK
  5
818D
330
7F4D
100
AcDbEntity
  8
0
100
AcDbBlockBegin
  2
*D21
 70
     1
 10
0.0
 20
0.0
 30
0.0
  3
*D21
  1

  0
LINE
  5
8335
330
7F4D
100
AcDbEntity
  8
3
 62
     0
440
 16777216
100
AcDbLine
 10
1959.690038106199
 20
2830.395935314897
 30
0.0
 11
1365.268771363862
 21
2830.395935314897
 31
0.0
  0
LINE
  5
8336
330
7F4D
100
AcDbEntity
  8
3
 62
     0
440
 16777216
100
AcDbLine
 10
1959.690038106198
 20
2755.395935314897
 30
0.0
 11
1365.268771363862
 21
2755.395935314897
 31
0.0
  0
LINE
  5
8337
330
7F4D
100
AcDbEntity
  8
3
 62
     0
440
 16777216
100
AcDbLine
 10
1405.268771363862
 20
2910.395935314897
 30
0.0
 11
1405.268771363862
 21
2990.395935314897
 31
0.0
  0
LINE
  5
8338
330
7F4D
100
AcDbEntity
  8
3
 62
     0
440
 16777216
100
AcDbLine
 10
1405.268771363862
 20
2675.395935314897
 30
0.0
 11
1405.268771363862
 21
2321.110221029182
 31
0.0
  0
LINE
  5
8339
330
7F4D
100
AcDbEntity
  8
3
 62
     0
440
 16777216
100
AcDbLine
 10
1405.268771363862
 20
2830.395935314897
 30
0.0
 11
1405.268771363862
 21
2755.395935314897
 31
0.0
  0
INSERT
  5
833A
330
7F4D
100
AcDbEntity
  8
3
 62
     0
440
 16777216
100
AcDbBlockReference
  2
_DOT
 10
1405.268771363862
 20
2830.395935314897
 30
0.0
 41
80.0
 42
80.0
 43
80.0
 50
270.0
  0
INSERT
  5
833B
330
7F4D
100
AcDbEntity
  8
3
 62
     0
440
 16777216
100
AcDbBlockReference
  2
_OPEN
 10
1405.268771363862
 20
2755.395935314897
 30
0.0
 41
80.0
 42
80.0
 43
80.0
 50
90.0
  0
MTEXT
  5
833C
330
7F4D
100
AcDbEntity
  8
3
 62
     0
440
 16777216
100
AcDbMText
 10
1305.268771363862
 20
2458.25307817204
 30
0.0
 40
120.0
 41
0.0
 46
0.0
 71
     5
 72
     5
  1
\A1;75
 11
0.0000000000000001
 21
1.0
 31
0.0
 73
     1
 44
1.0
  0
POINT
  5
833D
330
7F4D
100
AcDbEntity
  8
DEFPOINTS
 62
     0
440
 16777216
100
AcDbPoint
 10
1979.690038106198
 20
2830.395935314897
 30
0.0
  0
POINT
  5
833E
330
7F4D
100
AcDbEntity
  8
DEFPOINTS
 62
     0
440
 16777216
100
AcDbPoint
 10
1979.690038106198
 20
2755.395935314897
 30
0.0
  0
POINT
  5
833F
330
7F4D
100
AcDbEntity
  8
DEFPOINTS
 62
     0
440
 16777216
100
AcDbPoint
 10
1405.268771363862
 20
2755.395935314897
 30
0.0
  0
ENDBLK
  5
8199
330
7F4D
100
AcDbEntity
  8
0
100
AcDbBlockEnd
  0
BLOCK
  5
80C9
330
80C8
100
AcDbEntity
  8
0
100
AcDbBlockBegin
  2
_DOT
 70
     0
 10
0.0
 20
0.0
 30
0.0
  3
_DOT
  1

  0
LINE
  5
80EA
330
80C8
100
AcDbEntity
  8
0
  6
ByBlock
 62
     0
100
AcDbLine
 10
0.0
 20
0.0
 30
0.0
 11
-1.0
 21
-0.0000000000000284
 31
0.0
  0
LWPOLYLINE
  5
80EB
330
80C8
100
AcDbEntity
  8
0
  6
ByBlock
 62
     0
100
AcDbPolyline
 90
        2
 70
     1
 43
0.1666666666666666
 10
-0.0833333333333286
 20
-0.0000000000000284
 42
1.0
 10
0.0833333333333286
 20
-0.0000000000000284
 42
1.0
  0
ENDBLK
  5
80CF
330
80C8
100
AcDbEntity
  8
0
100
AcDbBlockEnd
  0
BLOCK
  5
8215
330
8214
100
AcDbEntity
  8
0
100
AcDbBlockBegin
  2
_NONE
 70
     0
 10
0.0
 20
0.0
 30
0.0
  3
_NONE
  1

  0
CIRCLE
  5
8216
330
8214
100
AcDbEntity
  8
0
  6
ByBlock
 62
     0
100
AcDbCircle
 10
0.0
 20
0.0
 30
0.0
 40
0.25
  0
ENDBLK
  5
8217
330
8214
100
AcDbEntity
  8
0
100
AcDbBlockEnd
  0
BLOCK
  5
8246
330
8218
100
AcDbEntity
  8
0
100
AcDbBlockBegin
  2
*D24
 70
     1
 10
0.0
 20
0.0
 30
0.0
  3
*D24
  1

  0
LINE
  5
8247
330
8218
100
AcDbEntity
  8
0
  6
ByBlock
 62
     0
440
 16777216
100
AcDbLine
 10
1407.266187582892
 20
2830.395935314897
 30
0.0
 11
1407.266187582892
 21
2830.395935314897
 31
0.0
  0
LINE
  5
8248
330
8218
100
AcDbEntity
  8
0
  6
ByBlock
 62
     0
440
 16777216
100
AcDbLine
 10
1407.266187582892
 20
2875.395935314897
 30
0.0
 11
1407.266187582892
 21
3035.395935314897
 31
0.0
  0
MTEXT
  5
8249
330
8218
100
AcDbEntity
  8
0
  6
ByBlock
 62
     0
440
 16777216
100
AcDbMText
 10
1215.837616154321
 20
2852.895935314897
 30
0.0
 40
120.0
 41
0.0
 46
0.0
 71
     5
 72
     5
  1
\A1;   (45)
 11
0.0
 21
1.0
 31
0.0
 73
     1
 44
1.0
  0
LINE
  5
824A
330
8218
100
AcDbEntity
  8
0
  6
ByBlock
 62
     0
440
 16777216
100
AcDbLine
 10
1407.266187582892
 20
2830.395935314897
 30
0.0
 11
1407.266187582892
 21
2875.395935314897
 31
0.0
  0
POINT
  5
824B
330
8218
100
AcDbEntity
  8
DEFPOINTS
  6
ByBlock
 62
     0
440
 16777216
100
AcDbPoint
 10
1979.690038106198
 20
2830.395935314897
 30
0.0
  0
POINT
  5
824C
330
8218
100
AcDbEntity
  8
DEFPOINTS
  6
ByBlock
 62
     0
440
 16777216
100
AcDbPoint
 10
1979.690038106198
 20
2875.395935314897
 30
0.0
  0
POINT
  5
824D
330
8218
100
AcDbEntity
  8
DEFPOINTS
  6
ByBlock
 62
     0
440
 16777216
100
AcDbPoint
 10
1407.266187582892
 20
2875.395935314897
 30
0.0
  0
ENDBLK
  5
824E
330
8218
100
AcDbEntity
  8
0
100
AcDbBlockEnd
  0
BLOCK
  5
8224
330
8223
100
AcDbEntity
  8
0
100
AcDbBlockBegin
  2
*D25
 70
     1
 10
0.0
 20
0.0
 30
0.0
  3
*D25
  1

  0
LINE
  5
8225
330
8223
100
AcDbEntity
  8
0
  6
ByBlock
 62
     0
440
 16777216
100
AcDbLine
 10
1884.690038106199
 20
5134.395935314897
 30
0.0
 11
1015.559224740653
 21
5134.395935314897
 31
0.0
  0
LINE
  5
8226
330
8223
100
AcDbEntity
  8
0
  6
ByBlock
 62
     0
440
 16777216
100
AcDbLine
 10
1959.690038106199
 20
2755.395935314897
 30
0.0
 11
1015.559224740653
 21
2755.395935314897
 31
0.0
  0
LINE
  5
8227
330
8223
100
AcDbEntity
  8
0
  6
ByBlock
 62
     0
440
 16777216
100
AcDbLine
 10
1055.559224740653
 20
5054.395935314897
 30
0.0
 11
1055.559224740653
 21
2835.395935314897
 31
0.0
  0
INSERT
  5
8228
330
8223
100
AcDbEntity
  8
0
  6
ByBlock
 62
     0
440
 16777216
100
AcDbBlockReference
  2
_OPEN
 10
1055.559224740653
 20
5134.395935314897
 30
0.0
 41
80.0
 42
80.0
 43
80.0
 50
90.0
  0
INSERT
  5
8229
330
8223
100
AcDbEntity
  8
0
  6
ByBlock
 62
     0
440
 16777216
100
AcDbBlockReference
  2
_OPEN
 10
1055.559224740653
 20
2755.395935314897
 30
0.0
 41
80.0
 42
80.0
 43
80.0
 50
270.0
  0
MTEXT
  5
822A
330
8223
100
AcDbEntity
  8
0
  6
ByBlock
 62
     0
440
 16777216
100
AcDbMText
 10
924.1306533120816
 20
3944.895935314896
 30
0.0
 40
120.0
 41
0.0
 46
0.0
 71
     5
 72
     5
  1
\A1;(2379)
 11
0.0
 21
1.0
 31
0.0
 73
     1
 44
1.0
  0
POINT
  5
822B
330
8223
100
AcDbEntity
  8
DEFPOINTS
  6
ByBlock
 62
     0
440
 16777216
100
AcDbPoint
 10
1904.690038106199
 20
5134.395935314897
 30
0.0
  0
POINT
  5
822C
330
8223
100
AcDbEntity
  8
DEFPOINTS
  6
ByBlock
 62
     0
440
 16777216
100
AcDbPoint
 10
1979.690038106198
 20
2755.395935314897
 30
0.0
  0
POINT
  5
822D
330
8223
100
AcDbEntity
  8
DEFPOINTS
  6
ByBlock
 62
     0
440
 16777216
100
AcDbPoint
 10
1055.559224740653
 20
2755.395935314897
 30
0.0
  0
ENDBLK
  5
822E
330
8223
100
AcDbEntity
  8
0
100
AcDbBlockEnd
  0
ENDSEC
  0
SECTION
  2
ENTITIES
  0
INSERT
  5
7C26
330
19
100
AcDbEntity
  8
1
100
AcDbBlockReference
  2
YA_N
 10
6.0
 20
5.0
 30
0.0
  0
LINE
  5
7C27
330
19
100
AcDbEntity
  8
2
100
AcDbLine
 10
2729.690038106199
 20
5155.681654420209
 30
0.0
 11
2729.690038106199
 21
2755.395935314897
 31
0.0
  0
ARC
  5
7C28
330
19
100
AcDbEntity
  8
1
100
AcDbCircle
 10
2638.690038106199
 20
3891.395935314897
 30
0.0
 40
1170.0
100
AcDbArc
 50
355.539156302126
 51
85.53915630212602
  0
ARC
  5
7C29
330
19
100
AcDbEntity
  8
1
100
AcDbCircle
 10
2820.690038106199
 20
3891.395935314897
 30
0.0
 40
988.0
100
AcDbArc
 50
295.6014140473746
 51
354.7152670454654
  0
ARC
  5
7C2A
330
19
100
AcDbEntity
  8
1
100
AcDbCircle
 10
2806.690038106199
 20
3723.395935314897
 30
0.0
 40
820.0
100
AcDbArc
 50
177.2424852442079
 51
241.8490068704819
  0
LINE
  5
7C2B
330
19
100
AcDbEntity
  8
1
100
AcDbLine
 10
2729.690038106199
 20
5057.851678153003
 30
0.0
 11
1904.690038106199
 21
5134.395935314897
 31
0.0
  0
LINE
  5
7C2C
330
19
100
AcDbEntity
  8
1
100
AcDbLine
 10
1979.690038106198
 20
2875.395935314897
 30
0.0
 11
4629.690038106199
 21
2875.395935314897
 31
0.0
1001
ACAD
1000
ASC_BOUNDS
1002
{
1070
    19
1002
}
  0
LINE
  5
7C2D
330
19
100
AcDbEntity
  8
1
100
AcDbLine
 10
1979.690038106198
 20
3000.395935314897
 30
0.0
 11
4629.690038106199
 21
3000.395935314897
 31
0.0
  0
LINE
  5
7C2E
330
19
100
AcDbEntity
  8
1
100
AcDbLine
 10
1979.690038106198
 20
3000.395935314897
 30
0.0
 11
1979.690038106198
 21
2875.395935314897
 31
0.0
  0
LINE
  5
7C2F
330
19
100
AcDbEntity
  8
1
100
AcDbLine
 10
4629.690038106199
 20
3000.395935314897
 30
0.0
 11
4629.690038106199
 21
2875.395935314897
 31
0.0
  0
LINE
  5
7C30
330
19
100
AcDbEntity
  8
2
100
AcDbLine
 10
4349.690038106198
 20
3551.250451920607
 30
0.0
 11
4349.690038106199
 21
2755.395935314897
 31
0.0
  0
LINE
  5
7C31
330
19
100
AcDbEntity
  8
2
100
AcDbLine
 10
4069.375821348047
 20
3260.395935314897
 30
0.0
 11
4756.854516400913
 21
3260.395935314897
 31
0.0
  0
LINE
  5
7C32
330
19
100
AcDbEntity
  8
1
100
AcDbLine
 10
1904.690038106199
 20
3854.395935314897
 30
0.0
 11
1988.654951217595
 21
3854.395935314897
 31
0.0
  0
LINE
  5
7C33
330
19
100
AcDbEntity
  8
1
100
AcDbLine
 10
1954.690038106199
 20
5129.756889426296
 30
0.0
 11
1954.690038106199
 21
3854.395935314897
 31
0.0
  0
LINE
  5
7C34
330
19
100
AcDbEntity
  8
1
100
AcDbLine
 10
1904.690038106199
 20
5187.395935314897
 30
0.0
 11
1904.690038106199
 21
3801.395935314897
 31
0.0
  0
LINE
  5
7C35
330
19
100
AcDbEntity
  8
1
100
AcDbLine
 10
5119.972951952932
 20
2875.395935314897
 30
0.0
 11
7239.972951952932
 21
2875.395935314897
 31
0.0
1001
ACAD
1000
ASC_BOUNDS
1002
{
1070
    19
1005
0
1005
0
1002
}
  0
LINE
  5
7C36
330
19
100
AcDbEntity
  8
1
100
AcDbLine
 10
5119.972951952932
 20
3000.395935314897
 30
0.0
 11
7239.972951952933
 21
3000.395935314897
 31
0.0
  0
LINE
  5
7C37
330
19
100
AcDbEntity
  8
1
100
AcDbLine
 10
7160.972951952931
 20
5134.395935314897
 30
0.0
 11
7160.972951952934
 21
3854.395935314897
 31
0.0
  0
LINE
  5
7C38
330
19
100
AcDbEntity
  8
1
100
AcDbLine
 10
5460.972951952932
 20
5134.395935314897
 30
0.0
 11
5460.972951952932
 21
3854.395935314897
 31
0.0
  0
LINE
  5
7C3C
330
19
100
AcDbEntity
  8
2
100
AcDbLine
 10
1826.253499857346
 20
3800.395935314897
 30
0.0
 11
3889.845276024247
 21
3800.395935314897
 31
0.0
  0
LINE
  5
7C3D
330
19
100
AcDbEntity
  8
2
100
AcDbLine
 10
5010.672951952932
 20
3800.395935314897
 30
0.0
 11
7344.483438192168
 21
3800.395935314897
 31
0.0
  0
LINE
  5
7C3E
330
19
100
AcDbEntity
  8
2
100
AcDbLine
 10
4999.470225356556
 20
3260.395935314897
 30
0.0
 11
5954.422951952932
 21
3260.395935314897
 31
0.0
  0
LINE
  5
7C3F
330
19
100
AcDbEntity
  8
1
100
AcDbLine
 10
5115.972951952933
 20
3366.395935314897
 30
0.0
 11
5193.872951952932
 21
3366.395935314897
 31
0.0
  0
LINE
  5
7C40
330
19
100
AcDbEntity
  8
1
100
AcDbLine
 10
5115.972951952933
 20
3154.395935314897
 30
0.0
 11
5193.872951952933
 21
3154.395935314897
 31
0.0
  0
LINE
  5
7C41
330
19
100
AcDbEntity
  8
1
100
AcDbLine
 10
5213.972951952933
 20
3870.395935314897
 30
0.0
 11
5213.972951952933
 21
3730.395935314897
 31
0.0
  0
LINE
  5
7C42
330
19
100
AcDbEntity
  8
1
100
AcDbLine
 10
5193.872951952933
 20
4054.395935314897
 30
0.0
 11
5193.872951952933
 21
3870.395935314897
 31
0.0
  0
LINE
  5
7C43
330
19
100
AcDbEntity
  8
1
100
AcDbLine
 10
5193.872951952933
 20
3870.395935314897
 30
0.0
 11
5213.972951952933
 21
3870.395935314897
 31
0.0
  0
LINE
  5
7C44
330
19
100
AcDbEntity
  8
1
100
AcDbLine
 10
5193.872951952932
 20
3730.395935314897
 30
0.0
 11
5213.972951952933
 21
3730.395935314897
 31
0.0
  0
LINE
  5
7C45
330
19
100
AcDbEntity
  8
1
100
AcDbLine
 10
5193.872951952933
 20
3730.395935314897
 30
0.0
 11
5193.872951952933
 21
3320.395935314897
 31
0.0
  0
LINE
  5
7C46
330
19
100
AcDbEntity
  8
1
100
AcDbLine
 10
5115.972951952933
 20
4054.395935314897
 30
0.0
 11
5115.972951952933
 21
3154.395935314897
 31
0.0
  0
LINE
  5
7C47
330
19
100
AcDbEntity
  8
1
100
AcDbLine
 10
5208.972951952933
 20
3320.395935314897
 30
0.0
 11
5208.972951952933
 21
3200.395935314896
 31
0.0
  0
LINE
  5
7C48
330
19
100
AcDbEntity
  8
1
100
AcDbLine
 10
5193.872951952933
 20
3320.395935314897
 30
0.0
 11
5208.972951952933
 21
3320.395935314897
 31
0.0
  0
LINE
  5
7C49
330
19
100
AcDbEntity
  8
1
100
AcDbLine
 10
5193.872951952933
 20
3200.395935314896
 30
0.0
 11
5208.972951952933
 21
3200.395935314896
 31
0.0
  0
LINE
  5
7C4A
330
19
100
AcDbEntity
  8
1
100
AcDbLine
 10
5193.872951952933
 20
3200.395935314896
 30
0.0
 11
5193.872951952933
 21
3154.395935314897
 31
0.0
  0
LINE
  5
7C4B
330
19
100
AcDbEntity
  8
1
100
AcDbLine
 10
4990.972951952933
 20
3040.395935314897
 30
0.0
 11
5275.972951952933
 21
3040.395935314897
 31
0.0
  0
LINE
  5
7C4C
330
19
100
AcDbEntity
  8
1
100
AcDbLine
 10
4990.972951952933
 20
4180.395935314897
 30
0.0
 11
4990.972951952933
 21
3040.395935314897
 31
0.0
  0
LINE
  5
7C4D
330
19
100
AcDbEntity
  8
1
100
AcDbLine
 10
5275.972951952932
 20
4180.395935314897
 30
0.0
 11
5275.972951952933
 21
4160.395935314896
 31
0.0
  0
LINE
  5
7C4E
330
19
100
AcDbEntity
  8
2
100
AcDbLine
 10
2729.690038106199
 20
8755.506610747106
 30
0.0
 11
2729.690038106199
 21
6406.822268021345
 31
0.0
  0
LINE
  5
7C4F
330
19
100
AcDbEntity
  8
2
100
AcDbLine
 10
4349.690038106198
 20
7381.272268021344
 30
0.0
 11
4349.690038106198
 21
6406.822268021345
 31
0.0
  0
LINE
  5
7C50
330
19
100
AcDbEntity
  8
2
100
AcDbLine
 10
6310.972951952932
 20
5370.752349861481
 30
0.0
 11
6310.972951952931
 21
2755.395935314896
 31
0.0
  0
POINT
  5
7C51
330
19
100
AcDbEntity
  8
1
100
AcDbPoint
 10
2729.690038106199
 20
5155.681654420209
 30
0.0
  0
POINT
  5
7C52
330
19
100
AcDbEntity
  8
1
100
AcDbPoint
 10
3804.49032271685
 20
3800.395935314897
 30
0.0
  0
INSERT
  5
7C53
330
19
100
AcDbEntity
  8
1
100
AcDbBlockReference
  2
YA_N
 10
-1757.227407310314
 20
-1218.786417457781
 30
0.0
 41
30.0
 42
30.0
 43
30.0
  0
LINE
  5
7C54
330
19
100
AcDbEntity
  8
1
100
AcDbLine
 10
1979.690038106198
 20
2830.395935314897
 30
0.0
 11
4629.690038106199
 21
2830.395935314897
 31
0.0
1001
ACAD
1000
ASC_BOUNDS
1002
{
1070
    19
1002
}
  0
LINE
  5
7C55
330
19
100
AcDbEntity
  8
1
100
AcDbLine
 10
1979.690038106198
 20
2755.395935314897
 30
0.0
 11
4629.690038106199
 21
2755.395935314897
 31
0.0
  0
LINE
  5
7C56
330
19
100
AcDbEntity
  8
1
100
AcDbLine
 10
1979.690038106198
 20
2830.395935314897
 30
0.0
 11
1979.690038106198
 21
2755.395935314897
 31
0.0
  0
LINE
  5
7C57
330
19
100
AcDbEntity
  8
1
100
AcDbLine
 10
4629.690038106199
 20
2830.395935314897
 30
0.0
 11
4629.690038106199
 21
2755.395935314897
 31
0.0
  0
ARC
  5
7C58
330
19
100
AcDbEntity
  8
1
100
AcDbCircle
 10
4349.690038106198
 20
3260.395935314897
 30
0.0
 40
203.5
100
AcDbArc
 50
285.60376
 51
254.396301
  0
LINE
  5
7C59
330
19
100
AcDbEntity
  8
1
100
AcDbLine
 10
4404.428075106198
 20
3064.395935314897
 30
0.0
 11
4294.952001106199
 21
3064.395935314897
 31
0.0
  0
ARC
  5
7C5A
330
19
100
AcDbEntity
  8
1
100
AcDbCircle
 10
4163.690038106198
 20
3077.395935314897
 30
0.0
 40
3.0
100
AcDbArc
 50
90.0
 51
180.0
  0
ARC
  5
7C5B
330
19
100
AcDbEntity
  8
1
100
AcDbCircle
 10
4165.690038106198
 20
3134.722596314897
 30
0.0
 40
5.000066999999999
100
AcDbArc
 50
124.943665
 51
180.0
  0
LINE
  5
7C5C
330
19
100
AcDbEntity
  8
1
100
AcDbLine
 10
4160.690038106198
 20
3134.722596314897
 30
0.0
 11
4160.690038106198
 21
3060.395935314897
 31
0.0
  0
LINE
  5
7C60
330
19
100
AcDbEntity
  8
1
100
AcDbLine
 10
4245.587468106198
 20
3085.539124314897
 30
0.0
 11
4240.190038106198
 21
3065.395935314897
 31
0.0
  0
LINE
  5
7C61
330
19
100
AcDbEntity
  8
1
100
AcDbLine
 10
4240.190038106198
 20
3077.395935314897
 30
0.0
 11
4240.190038106198
 21
3060.395935314897
 31
0.0
  0
LINE
  5
7C62
330
19
100
AcDbEntity
  8
1
100
AcDbLine
 10
4237.190038106199
 20
3080.395935314897
 30
0.0
 11
4163.690038106198
 21
3080.395935314897
 31
0.0
  0
ARC
  5
7C63
330
19
100
AcDbEntity
  8
1
100
AcDbCircle
 10
4237.190038106199
 20
3077.395935314897
 30
0.0
 40
3.0
100
AcDbArc
 50
0.0
 51
90.0
  0
LINE
  5
7C64
330
19
100
AcDbEntity
  8
1
100
AcDbLine
 10
4162.826268106199
 20
3138.821228314897
 30
0.0
 11
4178.764134106199
 21
3149.957703314897
 31
0.0
  0
LINE
  5
7C65
330
19
100
AcDbEntity
  8
1
100
AcDbLine
 10
4538.690038106198
 20
3134.722596314897
 30
0.0
 11
4538.690038106198
 21
3060.395935314897
 31
0.0
  0
LINE
  5
7C69
330
19
100
AcDbEntity
  8
1
100
AcDbLine
 10
4453.792821106199
 20
3085.539246314897
 30
0.0
 11
4459.190038106199
 21
3065.395935314897
 31
0.0
  0
LINE
  5
7C6A
330
19
100
AcDbEntity
  8
1
100
AcDbLine
 10
4459.190038106199
 20
3077.395935314897
 30
0.0
 11
4459.190038106199
 21
3060.395935314897
 31
0.0
  0
LINE
  5
7C6B
330
19
100
AcDbEntity
  8
1
100
AcDbLine
 10
4462.190038106199
 20
3080.395935314897
 30
0.0
 11
4535.690038106198
 21
3080.395935314897
 31
0.0
  0
ARC
  5
7C6C
330
19
100
AcDbEntity
  8
1
100
AcDbCircle
 10
4462.190038106199
 20
3077.395935314897
 30
0.0
 40
3.0
100
AcDbArc
 50
90.0
 51
180.0
  0
ARC
  5
7C6D
330
19
100
AcDbEntity
  8
1
100
AcDbCircle
 10
4535.690038106198
 20
3077.395935314897
 30
0.0
 40
3.0
100
AcDbArc
 50
0.0
 51
90.0
  0
LINE
  5
7C6E
330
19
100
AcDbEntity
  8
1
100
AcDbLine
 10
4536.553929106198
 20
3138.821228314897
 30
0.0
 11
4520.616063106198
 21
3149.957703314897
 31
0.0
  0
ARC
  5
7C6F
330
19
100
AcDbEntity
  8
1
100
AcDbCircle
 10
4533.690038106199
 20
3134.722596314897
 30
0.0
 40
5.0
100
AcDbArc
 50
0.0
 51
55.05633899999998
  0
LINE
  5
7C70
330
19
100
AcDbEntity
  8
1
100
AcDbLine
 10
4106.267013063589
 20
3060.395935314897
 30
0.0
 11
4279.690038106198
 21
3060.395935314897
 31
0.0
  0
LINE
  5
7C71
330
19
100
AcDbEntity
  8
1
100
AcDbLine
 10
4089.690038106199
 20
3000.395935314897
 30
0.0
 11
4106.267013063589
 21
3060.395935314897
 31
0.0
  0
LINE
  5
7C72
330
19
100
AcDbEntity
  8
1
100
AcDbLine
 10
4609.690038106198
 20
3000.395935314897
 30
0.0
 11
4593.509081561079
 21
3060.395935314897
 31
0.0
  0
LINE
  5
7C73
330
19
100
AcDbEntity
  8
1
100
AcDbLine
 10
4279.690038106198
 20
3050.395935314897
 30
0.0
 11
4419.690038106199
 21
3050.395935314897
 31
0.0
  0
LINE
  5
7C75
330
19
100
AcDbEntity
  8
1
100
AcDbLine
 10
4419.690038106199
 20
3060.395935314897
 30
0.0
 11
4419.690038106199
 21
3050.395935314897
 31
0.0
  0
LINE
  5
7C76
330
19
100
AcDbEntity
  8
1
100
AcDbLine
 10
4279.690038106198
 20
3060.395935314897
 30
0.0
 11
4279.690038106198
 21
3050.395935314897
 31
0.0
  0
LINE
  5
7C79
330
19
100
AcDbEntity
  8
1
100
AcDbLine
 10
4419.690038106199
 20
3060.395935314897
 30
0.0
 11
4593.509081561079
 21
3060.395935314897
 31
0.0
  0
INSERT
  5
7C7A
330
19
100
AcDbEntity
  8
1
100
AcDbBlockReference
  2
YA_N
 10
-755.2436758818475
 20
-538.554984833856
 30
0.0
 41
30.0
 42
30.0
 43
30.0
  0
LINE
  5
7C7B
330
19
100
AcDbEntity
  8
1
100
AcDbLine
 10
5119.97295195293
 20
2830.395935314897
 30
0.0
 11
7239.972951952933
 21
2830.395935314897
 31
0.0
1001
ACAD
1000
ASC_BOUNDS
1002
{
1070
    19
1005
0
1005
0
1002
}
  0
LINE
  5
7C7C
330
19
100
AcDbEntity
  8
1
100
AcDbLine
 10
5119.972951952931
 20
2755.395935314897
 30
0.0
 11
7239.972951952932
 21
2755.395935314897
 31
0.0
  0
LINE
  5
7C7D
330
19
100
AcDbEntity
  8
1
100
AcDbLine
 10
7239.972951952932
 20
2830.395935314897
 30
0.0
 11
7239.972951952932
 21
2755.395935314897
 31
0.0
  0
DIMENSION
  5
7C7E
330
19
100
AcDbEntity
  8
3
100
AcDbDimension
280
     0
  2
*D1
 10
2729.690038106199
 20
2415.460308588212
 30
0.0
 11
2354.690038106199
 21
2515.460308588212
 31
0.0
 70
    32
 71
     5
 42
-1.0
 73
     0
 74
     0
 75
     0
  3
IGA
100
AcDbAlignedDimension
 13
1979.690038106198
 23
2755.395935314897
 33
0.0
 14
2729.690038106199
 24
2755.395935314897
 34
0.0
100
AcDbRotatedDimension
1001
ACAD
1000
DSTYLE
1002
{
1070
   287
1070
     3
1070
    40
1040
40.0
1070
   143
1040
0.039
1070
   172
1070
     1
1070
   271
1070
     0
1070
   279
1070
     0
1070
   288
1070
     1
1002
}
  0
DIMENSION
  5
7C7F
330
19
100
AcDbEntity
  8
3
100
AcDbDimension
280
     0
  2
*D2
 10
1651.679005416241
 20
3854.395935314897
 30
0.0
 11
1551.67900541624
 21
4494.395935314897
 31
0.0
 70
    32
 71
     5
 42
-1.0
 73
     0
 74
     0
 75
     0
  3
IGA
100
AcDbAlignedDimension
 13
1904.690038106199
 23
5134.395935314897
 33
0.0
 14
1904.690038106199
 24
3854.395935314897
 34
0.0
 50
90.0
100
AcDbRotatedDimension
1001
ACAD
1000
DSTYLE
1002
{
1070
   287
1070
     3
1070
    40
1040
40.0
1070
   143
1040
0.039
1070
   172
1070
     1
1070
   271
1070
     0
1070
   279
1070
     0
1070
   288
1070
     1
1002
}
  0
DIMENSION
  5
7C80
330
19
100
AcDbEntity
  8
3
100
AcDbDimension
280
     0
  2
*D3
 10
1404.616162959712
 20
3800.395935314897
 30
0.0
 11
1304.616162959711
 21
4467.395935314896
 31
0.0
 70
    32
 71
     5
 42
-1.0
 73
     0
 74
     0
 75
     0
  3
IGA
100
AcDbAlignedDimension
 13
1904.690038106199
 23
5134.395935314897
 33
0.0
 14
1826.253499857346
 24
3800.395935314897
 34
0.0
 50
90.0
100
AcDbRotatedDimension
1001
ACAD
1000
DSTYLE
1002
{
1070
   287
1070
     3
1070
    40
1040
40.0
1070
   143
1040
0.039
1070
   172
1070
     1
1070
   271
1070
     0
1070
   279
1070
     0
1070
   288
1070
     1
1002
}
  0
DIMENSION
  5
7C82
330
19
100
AcDbEntity
  8
3
100
AcDbDimension
280
     0
  2
*D4
 10
2729.690038106199
 20
5436.91888063242
 30
0.0
 11
2317.190038106199
 21
5536.91888063242
 31
0.0
 70
    32
 71
     5
 42
-1.0
 73
     0
 74
     0
 75
     0
  3
IGA
100
AcDbAlignedDimension
 13
1904.690038106199
 23
5187.395935314897
 33
0.0
 14
2729.690038106199
 24
5155.681654420209
 34
0.0
100
AcDbRotatedDimension
1001
ACAD
1000
DSTYLE
1002
{
1070
   287
1070
     3
1070
    40
1040
40.0
1070
   143
1040
0.039
1070
   172
1070
     1
1070
   271
1070
     0
1070
   279
1070
     0
1070
   288
1070
     1
1002
}
  0
DIMENSION
  5
7C83
330
19
100
AcDbEntity
  8
3
100
AcDbDimension
280
     0
  2
*D5
 10
3804.49032271685
 20
5436.91888063242
 30
0.0
 11
3267.090180411525
 21
5536.91888063242
 31
0.0
 70
    32
  1
1079
 71
     5
 42
-1.0
 73
     0
 74
     0
 75
     0
  3
IGA
100
AcDbAlignedDimension
 13
2729.690038106199
 23
5155.681654420209
 33
0.0
 14
3804.49032271685
 24
3800.395935314897
 34
0.0
100
AcDbRotatedDimension
1001
ACAD
1000
DSTYLE
1002
{
1070
   287
1070
     3
1070
    40
1040
40.0
1070
   143
1040
0.039
1070
   172
1070
     1
1070
   271
1070
     0
1070
   279
1070
     0
1070
   288
1070
     1
1002
}
  0
CIRCLE
  5
7C84
330
19
100
AcDbEntity
  8
1
100
AcDbCircle
 10
4349.690038106198
 20
3260.395935314897
 30
0.0
 40
107.0
  0
POINT
  5
7C85
330
19
100
AcDbEntity
  8
1
100
AcDbPoint
 10
1979.690038106198
 20
2830.395935314897
 30
0.0
  0
POINT
  5
7C86
330
19
100
AcDbEntity
  8
1
100
AcDbPoint
 10
1979.690038106198
 20
2875.395935314897
 30
0.0
  0
POINT
  5
7C87
330
19
100
AcDbEntity
  8
1
100
AcDbPoint
 10
1979.690038106198
 20
2830.395935314897
 30
0.0
  0
LINE
  5
7C8A
330
19
100
AcDbEntity
  8
1
100
AcDbLine
 10
5460.972951952932
 20
5134.395935314897
 30
0.0
 11
7160.972951952932
 21
5134.395935314897
 31
0.0
  0
LINE
  5
7C8B
330
19
100
AcDbEntity
  8
1
100
AcDbLine
 10
7160.972951952931
 20
3854.395935314897
 30
0.0
 11
7160.972951952932
 21
3000.395935314897
 31
0.0
  0
LINE
  5
7C8C
330
19
100
AcDbEntity
  8
1
100
AcDbLine
 10
5460.972951952932
 20
3854.395935314897
 30
0.0
 11
5460.972951952932
 21
3470.395935314899
 31
0.0
  0
ARC
  5
7C8D
330
19
100
AcDbEntity
  8
1
100
AcDbCircle
 10
2729.690038106199
 20
3800.395935314897
 30
0.0
 40
625.0
100
AcDbArc
 50
0.0
 51
180.0
  0
ARC
  5
7C8E
330
19
100
AcDbEntity
  8
1
100
AcDbCircle
 10
2729.690038106199
 20
3800.395935314897
 30
0.0
 40
675.0
100
AcDbArc
 50
0.0
 51
180.0
  0
LINE
  5
7C8F
330
19
100
AcDbEntity
  8
1
100
AcDbLine
 10
3064.690038106199
 20
3002.395935314897
 30
0.0
 11
3064.690038106199
 21
3000.395935314897
 31
0.0
  0
ARC
  5
7C90
330
19
100
AcDbEntity
  8
1
100
AcDbCircle
 10
2729.690038106199
 20
3800.395935314897
 30
0.0
 40
625.0
100
AcDbArc
 50
270.0
 51
0.0
  0
ARC
  5
7C91
330
19
100
AcDbEntity
  8
1
100
AcDbCircle
 10
2729.690038106199
 20
3800.395935314897
 30
0.0
 40
675.0
100
AcDbArc
 50
270.0
 51
0.0
  0
LINE
  5
7C92
330
19
100
AcDbEntity
  8
1
100
AcDbLine
 10
1979.690038106198
 20
8655.82226802134
 30
0.0
 11
3479.690038106199
 21
8655.822268021342
 31
0.0
  0
LINE
  5
7C93
330
19
100
AcDbEntity
  8
1
100
AcDbLine
 10
1979.690038106198
 20
6535.822268021341
 30
0.0
 11
4629.690038106199
 21
6535.822268021341
 31
0.0
  0
LINE
  5
7C94
330
19
100
AcDbEntity
  8
1
100
AcDbLine
 10
1979.690038106198
 20
8655.82226802134
 30
0.0
 11
1979.690038106198
 21
8576.822268021343
 31
0.0
  0
LINE
  5
7C95
330
19
100
AcDbEntity
  8
1
100
AcDbLine
 10
4629.690038106199
 20
7635.822268021342
 30
0.0
 11
4629.690038106199
 21
6535.822268021341
 31
0.0
  0
LINE
  5
7C96
330
19
100
AcDbEntity
  8
1
100
AcDbLine
 10
3479.690038106199
 20
8655.82226802134
 30
0.0
 11
3479.690038106199
 21
8576.822268021343
 31
0.0
  0
LINE
  5
7C97
330
19
100
AcDbEntity
  8
1
100
AcDbLine
 10
3808.690038106199
 20
7635.822268021342
 30
0.0
 11
4629.690038106199
 21
7635.822268021342
 31
0.0
  0
DIMENSION
  5
7C98
330
19
100
AcDbEntity
  8
3
100
AcDbDimension
280
     0
  2
*D6
 10
7160.972951952932
 20
5435.795721781462
 30
0.0
 11
6310.972951952932
 21
5535.795721781462
 31
0.0
 70
    32
 71
     5
 42
-1.0
 73
     0
 74
     0
 75
     0
  3
IGA
100
AcDbAlignedDimension
 13
5460.972951952932
 23
5187.395935314897
 33
0.0
 14
7160.972951952932
 24
5187.395935314897
 34
0.0
100
AcDbRotatedDimension
1001
ACAD
1000
DSTYLE
1002
{
1070
   287
1070
     3
1070
    40
1040
40.0
1070
   143
1040
0.039
1070
   172
1070
     1
1070
   271
1070
     0
1070
   279
1070
     0
1070
   288
1070
     1
1002
}
  0
LINE
  5
7C99
330
19
100
AcDbEntity
  8
1
100
AcDbLine
 10
5303.472951952932
 20
3724.395935314897
 30
0.0
 11
5303.472951952932
 21
3594.395935314897
 31
0.0
  0
LINE
  5
7C9A
330
19
100
AcDbEntity
  8
1
100
AcDbLine
 10
5443.472951952932
 20
3734.395935314897
 30
0.0
 11
5443.472951952932
 21
3584.395935314897
 31
0.0
  0
LINE
  5
7C9B
330
19
100
AcDbEntity
  8
1
100
AcDbLine
 10
5313.472951952933
 20
3734.395935314897
 30
0.0
 11
5383.672951952934
 21
3734.395935314897
 31
0.0
  0
LINE
  5
7C9C
330
19
100
AcDbEntity
  8
1
100
AcDbLine
 10
5313.472951952933
 20
3584.395935314897
 30
0.0
 11
5383.672951952934
 21
3584.395935314897
 31
0.0
  0
ARC
  5
7C9D
330
19
100
AcDbEntity
  8
1
100
AcDbCircle
 10
5313.472951952933
 20
3724.395935314897
 30
0.0
 40
10.0
100
AcDbArc
 50
90.0
 51
180.0
  0
ARC
  5
7C9E
330
19
100
AcDbEntity
  8
1
100
AcDbCircle
 10
5313.472951952933
 20
3594.395935314897
 30
0.0
 40
10.0
100
AcDbArc
 50
180.0
 51
270.0
  0
LINE
  5
7C9F
330
19
100
AcDbEntity
  8
1
100
AcDbLine
 10
5383.672951952933
 20
3584.395935314897
 30
0.0
 11
5443.472951952932
 21
3584.395935314897
 31
0.0
  0
LINE
  5
7CA0
330
19
100
AcDbEntity
  8
1
100
AcDbLine
 10
5383.672951952933
 20
3734.395935314897
 30
0.0
 11
5443.472951952932
 21
3734.395935314897
 31
0.0
  0
LINE
  5
7CA1
330
19
100
AcDbEntity
  8
1
100
AcDbLine
 10
7330.472951952931
 20
3724.395935314897
 30
0.0
 11
7330.472951952931
 21
3594.395935314897
 31
0.0
  0
LINE
  5
7CA2
330
19
100
AcDbEntity
  8
1
100
AcDbLine
 10
7190.472951952933
 20
3734.395935314897
 30
0.0
 11
7190.472951952933
 21
3584.395935314897
 31
0.0
  0
LINE
  5
7CA3
330
19
100
AcDbEntity
  8
1
100
AcDbLine
 10
7320.472951952933
 20
3584.395935314897
 30
0.0
 11
7250.272951952931
 21
3584.395935314897
 31
0.0
  0
ARC
  5
7CA4
330
19
100
AcDbEntity
  8
1
100
AcDbCircle
 10
7320.472951952933
 20
3594.395935314897
 30
0.0
 40
10.0
100
AcDbArc
 50
270.0
 51
0.0
  0
LINE
  5
7CA5
330
19
100
AcDbEntity
  8
1
100
AcDbLine
 10
7250.272951952931
 20
3584.395935314897
 30
0.0
 11
7190.472951952933
 21
3584.395935314897
 31
0.0
  0
LINE
  5
7CA6
330
19
100
AcDbEntity
  8
1
100
AcDbLine
 10
7320.472951952933
 20
3734.395935314897
 30
0.0
 11
7250.272951952931
 21
3734.395935314897
 31
0.0
  0
ARC
  5
7CA7
330
19
100
AcDbEntity
  8
1
100
AcDbCircle
 10
7320.472951952933
 20
3724.395935314897
 30
0.0
 40
10.0
100
AcDbArc
 50
0.0
 51
90.0
  0
LINE
  5
7CA8
330
19
100
AcDbEntity
  8
1
100
AcDbLine
 10
7250.272951952931
 20
3734.395935314897
 30
0.0
 11
7190.472951952933
 21
3734.395935314897
 31
0.0
  0
DIMENSION
  5
7CAA
330
19
100
AcDbEntity
  8
3
100
AcDbDimension
280
     0
  2
*D7
 10
6310.972951952932
 20
5689.14661374555
 30
0.0
 11
5650.972951952932
 21
5820.575185174122
 31
0.0
 70
    32
  1
(<>)
 71
     5
 42
1319.999999999999
 73
     0
 74
     0
 75
     0
  3
IGA
100
AcDbAlignedDimension
 13
4990.972951952933
 23
4080.395935314896
 33
0.0
 14
6310.972951952932
 24
5624.422705656016
 34
0.0
100
AcDbRotatedDimension
1001
ACAD
1000
DSTYLE
1002
{
1070
   287
1070
     3
1070
    40
1040
40.0
1070
   143
1040
0.039
1070
   172
1070
     1
1070
   271
1070
     0
1070
   279
1070
     0
1070
   288
1070
     1
1002
}
  0
DIMENSION
  5
7CAB
330
19
100
AcDbEntity
  8
3
100
AcDbDimension
280
     0
  2
*D8
 10
7330.472951952931
 20
5688.759026640364
 30
0.0
 11
6820.722951952932
 21
5820.187598068936
 31
0.0
 70
    32
  1
(<>)
 71
     5
 42
1019.5
 73
     0
 74
     0
 75
     0
  3
IGA
100
AcDbAlignedDimension
 13
6310.972951952932
 23
5624.422705656016
 33
0.0
 14
7330.472951952931
 24
3724.395935314897
 34
0.0
100
AcDbRotatedDimension
1001
ACAD
1000
DSTYLE
1002
{
1070
   287
1070
     3
1070
    40
1040
40.0
1070
   143
1040
0.039
1070
   172
1070
     1
1070
   271
1070
     0
1070
   279
1070
     0
1070
   288
1070
     1
1002
}
  0
ARC
  5
7CAC
330
19
100
AcDbEntity
  8
1
100
AcDbCircle
 10
2729.690038106199
 20
3800.395935314897
 30
0.0
 40
675.0
100
AcDbArc
 50
180.0
 51
270.0
  0
ARC
  5
7CAD
330
19
100
AcDbEntity
  8
1
100
AcDbCircle
 10
2729.690038106199
 20
3800.395935314897
 30
0.0
 40
625.0
100
AcDbArc
 50
180.0
 51
270.0
  0
DIMENSION
  5
7CAE
330
19
100
AcDbEntity
  8
3
100
AcDbDimension
280
     0
  2
*D9
 10
7572.242576865436
 20
3175.395935314896
 30
0.0
 11
7472.242576865435
 21
3800.395935314897
 31
0.0
 70
    32
  1
φ<>
 71
     5
 42
-1.0
 73
     0
 74
     0
 75
     0
  3
IGA
100
AcDbAlignedDimension
 13
7163.272951952933
 23
4425.395935314896
 33
0.0
 14
7163.272951952933
 24
3175.395935314896
 34
0.0
 50
90.0
100
AcDbRotatedDimension
1001
ACAD
1000
DSTYLE
1002
{
1070
   287
1070
     3
1070
    40
1040
40.0
1070
   143
1040
0.039
1070
   172
1070
     1
1070
   271
1070
     0
1070
   279
1070
     0
1070
   288
1070
     1
1002
}
  0
DIMENSION
  5
7CAF
330
19
100
AcDbEntity
  8
3
100
AcDbDimension
280
     0
  2
*D10
 10
2729.690038106199
 20
2415.233806848952
 30
0.0
 11
3679.690038106199
 21
2515.233806848952
 31
0.0
 70
    32
 71
     5
 42
-1.0
 73
     0
 74
     0
 75
     0
  3
IGA
100
AcDbAlignedDimension
 13
4629.690038106199
 23
2755.395935314897
 33
0.0
 14
2729.690038106199
 24
2755.395935314897
 34
0.0
100
AcDbRotatedDimension
1001
ACAD
1000
DSTYLE
1002
{
1070
   287
1070
     3
1070
    40
1040
40.0
1070
   143
1040
0.039
1070
   172
1070
     1
1070
   271
1070
     0
1070
   279
1070
     0
1070
   288
1070
     1
1002
}
  0
CIRCLE
  5
7CB1
330
19
100
AcDbEntity
  8
1
100
AcDbCircle
 10
2729.690038106199
 20
3800.395935314897
 30
0.0
 40
254.0
  0
ARC
  5
7CB2
330
19
100
AcDbEntity
  8
1
100
AcDbCircle
 10
2729.690038106199
 20
3800.395935314897
 30
0.0
 40
380.0
100
AcDbArc
 50
63.13362624742479
 51
255.2245880459536
  0
ARC
  5
7CB3
330
19
100
AcDbEntity
  8
1
100
AcDbCircle
 10
4349.690038106198
 20
3260.395935314897
 30
0.0
 40
220.0
100
AcDbArc
 50
255.2245880459536
 51
63.13362624742479
  0
LINE
  5
7CB4
330
19
100
AcDbEntity
  8
1
100
AcDbLine
 10
2901.416311396942
 20
4139.379839153519
 30
0.0
 11
4449.110512116629
 21
3456.649774379363
 31
0.0
  0
LINE
  5
7CB5
330
19
100
AcDbEntity
  8
1
100
AcDbLine
 10
2842.52239638683
 20
4027.958803386186
 30
0.0
 11
4397.221779586621
 21
3356.259033281936
 31
0.0
  0
LINE
  5
7CB6
330
19
100
AcDbEntity
  8
1
100
AcDbLine
 10
2662.802185891425
 20
3555.361212824196
 30
0.0
 11
4321.512872015723
 21
3157.172646706609
 31
0.0
  0
LINE
  5
7CB7
330
19
100
AcDbEntity
  8
1
100
AcDbLine
 10
2632.778322874381
 20
3432.961424890486
 30
0.0
 11
4293.583255603567
 21
3047.670692437606
 31
0.0
  0
DIMENSION
  5
7CB8
330
19
100
AcDbEntity
  8
3
100
AcDbDimension
280
     0
  2
*D11
 10
1405.268771363862
 20
2875.395935314897
 30
0.0
 11
1305.268771363862
 21
3337.895935314897
 31
0.0
 70
    32
 71
     5
 42
-1.0
 73
     0
 74
     0
 75
     0
  3
IGA
100
AcDbAlignedDimension
 13
1826.253499857346
 23
3800.395935314897
 33
0.0
 14
1979.690038106198
 24
2875.395935314897
 34
0.0
 50
270.0
100
AcDbRotatedDimension
1001
ACAD
1000
DSTYLE
1002
{
1070
   287
1070
     3
1070
    40
1040
40.0
1070
   143
1040
0.039
1070
   172
1070
     1
1070
   271
1070
     0
1070
   279
1070
     0
1070
   288
1070
     1
1002
}
  0
POINT
  5
7CBF
330
19
100
AcDbEntity
  8
1
100
AcDbPoint
 10
1979.690038106198
 20
2830.395935314897
 30
0.0
  0
POINT
  5
7CC7
330
19
100
AcDbEntity
  8
1
100
AcDbPoint
 10
1979.690038106198
 20
2830.395935314897
 30
0.0
  0
POINT
  5
7CC8
330
19
100
AcDbEntity
  8
1
100
AcDbPoint
 10
1979.690038106198
 20
2875.395935314897
 30
0.0
  0
ARC
  5
7CCC
330
19
100
AcDbEntity
  8
1
100
AcDbCircle
 10
2729.690038106199
 20
3800.395935314897
 30
0.0
 40
743.0
100
AcDbArc
 50
175.8321636778381
 51
182.8969080410259
  0
LINE
  5
7CCD
330
19
100
AcDbEntity
  8
1
100
AcDbLine
 10
5115.972951952933
 20
4054.395935314897
 30
0.0
 11
5193.872951952932
 21
4054.395935314897
 31
0.0
  0
LINE
  5
7CCE
330
19
100
AcDbEntity
  8
1
100
AcDbLine
 10
5115.972951952933
 20
3546.395935314897
 30
0.0
 11
5193.872951952932
 21
3546.395935314897
 31
0.0
  0
LINE
  5
7CCF
330
19
100
AcDbEntity
  8
1
100
AcDbLine
 10
4990.972951952932
 20
4180.395935314897
 30
0.0
 11
5275.972951952931
 21
4180.395935314897
 31
0.0
  0
LINE
  5
7CD0
330
19
100
AcDbEntity
  8
1
100
AcDbLine
 10
5275.972951952933
 20
3060.395935314897
 30
0.0
 11
5275.972951952933
 21
3040.395935314897
 31
0.0
  0
INSERT
  5
7CD1
330
19
100
AcDbEntity
  8
1
100
AcDbBlockReference
  2
YA_N
 10
4767.943419715615
 20
-1494.695868425497
 30
0.0
  0
LINE
  5
7CD2
330
19
100
AcDbEntity
  8
1
100
AcDbLine
 10
7239.972951952932
 20
3000.395935314897
 30
0.0
 11
7239.972951952932
 21
2875.395935314897
 31
0.0
  0
LINE
  5
7CD3
330
19
100
AcDbEntity
  8
1
100
AcDbLine
 10
5119.972951952931
 20
2830.395935314897
 30
0.0
 11
5119.972951952933
 21
2755.395935314897
 31
0.0
  0
LINE
  5
7CD4
330
19
100
AcDbEntity
  8
1
100
AcDbLine
 10
5119.972951952932
 20
3000.395935314897
 30
0.0
 11
5119.972951952932
 21
2875.395935314897
 31
0.0
  0
DIMENSION
  5
7CD5
330
19
100
AcDbEntity
  8
3
100
AcDbDimension
280
     0
  2
*D12
 10
6310.972951952931
 20
2411.806143632384
 30
0.0
 11
5715.472951952931
 21
2511.806143632384
 31
0.0
 70
    32
 71
     5
 42
-1.0
 73
     0
 74
     0
 75
     0
  3
IGA
100
AcDbAlignedDimension
 13
5119.972951952931
 23
2755.395935314897
 33
0.0
 14
6310.972951952931
 24
2755.395935314897
 34
0.0
100
AcDbRotatedDimension
1001
ACAD
1000
DSTYLE
1002
{
1070
   287
1070
     3
1070
    40
1040
40.0
1070
   143
1040
0.039
1070
   172
1070
     1
1070
   271
1070
     0
1070
   279
1070
     0
1070
   288
1070
     1
1002
}
  0
DIMENSION
  5
7CD6
330
19
100
AcDbEntity
  8
3
100
AcDbDimension
280
     0
  2
*D13
 10
7239.972951952932
 20
2411.806143632384
 30
0.0
 11
6775.472951952932
 21
2511.806143632384
 31
0.0
 70
    32
 71
     5
 42
-1.0
 73
     0
 74
     0
 75
     0
  3
IGA
100
AcDbAlignedDimension
 13
6310.972951952931
 23
2755.395935314897
 33
0.0
 14
7239.972951952932
 24
2755.395935314897
 34
0.0
100
AcDbRotatedDimension
1001
ACAD
1000
DSTYLE
1002
{
1070
   287
1070
     3
1070
    40
1040
40.0
1070
   143
1040
0.039
1070
   172
1070
     1
1070
   271
1070
     0
1070
   279
1070
     0
1070
   288
1070
     1
1002
}
  0
LINE
  5
7CD8
330
19
100
AcDbEntity
  8
1
100
AcDbLine
 10
5213.972951952933
 20
3837.895935314897
 30
0.0
 11
5460.972951952932
 21
3837.895935314897
 31
0.0
  0
LINE
  5
7CD9
330
19
100
AcDbEntity
  8
1
100
AcDbLine
 10
5213.972951952933
 20
3762.895935314896
 30
0.0
 11
5460.972951952931
 21
3762.895935314896
 31
0.0
  0
LINE
  5
7CDC
330
19
100
AcDbEntity
  8
1
100
AcDbLine
 10
5304.922951952933
 20
3060.395935314897
 30
0.0
 11
5304.922951952932
 21
3260.395935314897
 31
0.0
  0
LINE
  5
7CDD
330
19
100
AcDbEntity
  8
1
100
AcDbLine
 10
5304.922951952935
 20
3060.395935314898
 30
0.0
 11
5954.422951952932
 21
3060.395935314901
 31
0.0
  0
LINE
  5
7CDE
330
19
100
AcDbEntity
  8
1
100
AcDbLine
 10
5954.422951952934
 20
3470.395935314902
 30
0.0
 11
5304.922951952931
 21
3470.395935314897
 31
0.0
  0
LINE
  5
7CDF
330
19
100
AcDbEntity
  8
1
100
AcDbLine
 10
5294.922951952933
 20
3230.395935314898
 30
0.0
 11
5208.972951952933
 21
3230.395935314897
 31
0.0
  0
LINE
  5
7CE0
330
19
100
AcDbEntity
  8
1
100
AcDbLine
 10
5294.922951952933
 20
3290.395935314898
 30
0.0
 11
5208.972951952933
 21
3290.395935314897
 31
0.0
  0
LINE
  5
7CE1
330
19
100
AcDbEntity
  8
1
100
AcDbLine
 10
5304.922951952932
 20
3470.395935314897
 30
0.0
 11
5304.922951952932
 21
3260.395935314897
 31
0.0
  0
LINE
  5
7CE2
330
19
100
AcDbEntity
  8
1
100
AcDbLine
 10
5294.922951952933
 20
3227.895935314898
 30
0.0
 11
5294.922951952933
 21
3292.895935314898
 31
0.0
  0
LINE
  5
7CE3
330
19
100
AcDbEntity
  8
1
100
AcDbLine
 10
5294.922951952933
 20
3227.895935314898
 30
0.0
 11
5304.922951952932
 21
3227.895935314898
 31
0.0
  0
LINE
  5
7CE4
330
19
100
AcDbEntity
  8
1
100
AcDbLine
 10
5294.922951952933
 20
3292.895935314898
 30
0.0
 11
5304.922951952932
 21
3292.895935314898
 31
0.0
  0
LINE
  5
7CF3
330
19
100
AcDbEntity
  8
2
100
AcDbLine
 10
1753.862917384478
 20
7726.822268021344
 30
0.0
 11
3808.690038106199
 21
7726.822268021343
 31
0.0
  0
LINE
  5
7CF4
330
19
100
AcDbEntity
  8
1
100
AcDbLine
 10
2349.690038106199
 20
6406.822268021343
 30
0.0
 11
4569.690038106198
 21
6406.822268021343
 31
0.0
  0
LINE
  5
7CF5
330
19
100
AcDbEntity
  8
1
100
AcDbLine
 10
2475.690038106199
 20
6542.822268021343
 30
0.0
 11
2983.690038106199
 21
6542.822268021343
 31
0.0
  0
LINE
  5
7CF6
330
19
100
AcDbEntity
  8
1
100
AcDbLine
 10
2799.690038106199
 20
6620.722268021343
 30
0.0
 11
2983.690038106199
 21
6620.722268021343
 31
0.0
  0
LINE
  5
7CF7
330
19
100
AcDbEntity
  8
1
100
AcDbLine
 10
4379.690038106199
 20
6721.772268021344
 30
0.0
 11
4379.690038106199
 21
6635.822268021344
 31
0.0
  0
LINE
  5
7CF8
330
19
100
AcDbEntity
  8
1
100
AcDbLine
 10
4319.690038106198
 20
6721.772268021344
 30
0.0
 11
4319.690038106198
 21
6635.822268021344
 31
0.0
  0
LINE
  5
7CF9
330
19
100
AcDbEntity
  8
1
100
AcDbLine
 10
4569.690038106198
 20
6406.822268021343
 30
0.0
 11
4569.690038106198
 21
6702.822268021344
 31
0.0
  0
LINE
  5
7CFA
330
19
100
AcDbEntity
  8
1
100
AcDbLine
 10
3529.690038106199
 20
6535.822268021343
 30
0.0
 11
3654.690038106199
 21
6535.822268021343
 31
0.0
  0
LINE
  5
7CFB
330
19
100
AcDbEntity
  8
1
100
AcDbLine
 10
3673.690038106199
 20
6535.822268021341
 30
0.0
 11
3738.690038106199
 21
6535.822268021345
 31
0.0
  0
LINE
  5
7CFC
330
19
100
AcDbEntity
  8
1
100
AcDbLine
 10
4289.690038106199
 20
6635.822268021344
 30
0.0
 11
4409.690038106198
 21
6635.822268021344
 31
0.0
  0
LINE
  5
7CFD
330
19
100
AcDbEntity
  8
1
100
AcDbLine
 10
4409.690038106198
 20
6620.722268021343
 30
0.0
 11
4455.690038106198
 21
6620.722268021343
 31
0.0
  0
LINE
  5
7CFE
330
19
100
AcDbEntity
  8
1
100
AcDbLine
 10
4455.690038106198
 20
6542.822268021343
 30
0.0
 11
4455.690038106198
 21
6620.722268021343
 31
0.0
  0
LINE
  5
7CFF
330
19
100
AcDbEntity
  8
1
100
AcDbLine
 10
4409.690038106198
 20
6620.722268021343
 30
0.0
 11
4409.690038106198
 21
6635.822268021344
 31
0.0
  0
LINE
  5
7D00
330
19
100
AcDbEntity
  8
1
100
AcDbLine
 10
4243.690038106199
 20
6542.822268021343
 30
0.0
 11
4243.690038106199
 21
6620.722268021343
 31
0.0
  0
LINE
  5
7D01
330
19
100
AcDbEntity
  8
1
100
AcDbLine
 10
4289.690038106199
 20
6620.722268021343
 30
0.0
 11
4289.690038106199
 21
6635.822268021344
 31
0.0
  0
LINE
  5
7D02
330
19
100
AcDbEntity
  8
1
100
AcDbLine
 10
2983.690038106199
 20
6542.822268021343
 30
0.0
 11
2983.690038106199
 21
6620.722268021343
 31
0.0
  0
LINE
  5
7D03
330
19
100
AcDbEntity
  8
1
100
AcDbLine
 10
4139.690038106198
 20
6731.772268021344
 30
0.0
 11
4349.690038106198
 21
6731.772268021344
 31
0.0
  0
LINE
  5
7D04
330
19
100
AcDbEntity
  8
1
100
AcDbLine
 10
4382.190038106198
 20
6721.772268021344
 30
0.0
 11
4317.190038106199
 21
6721.772268021344
 31
0.0
  0
LINE
  5
7D05
330
19
100
AcDbEntity
  8
1
100
AcDbLine
 10
4549.690038106199
 20
6731.772268021344
 30
0.0
 11
4549.690038106191
 21
7381.272268021345
 31
0.0
  0
LINE
  5
7D06
330
19
100
AcDbEntity
  8
1
100
AcDbLine
 10
4549.690038106199
 20
6731.772268021344
 30
0.0
 11
4349.690038106198
 21
6731.772268021344
 31
0.0
  0
LINE
  5
7D07
330
19
100
AcDbEntity
  8
1
100
AcDbLine
 10
4382.190038106198
 20
6721.772268021344
 30
0.0
 11
4382.190038106198
 21
6731.772268021344
 31
0.0
  0
LINE
  5
7D08
330
19
100
AcDbEntity
  8
1
100
AcDbLine
 10
4549.690038106197
 20
6907.272268021344
 30
0.0
 11
4548.690038106196
 21
6907.272268021344
 31
0.0
  0
LINE
  5
7D09
330
19
100
AcDbEntity
  8
1
100
AcDbLine
 10
4139.690038106191
 20
7381.272268021342
 30
0.0
 11
4139.690038106198
 21
6731.772268021344
 31
0.0
  0
LINE
  5
7D0A
330
19
100
AcDbEntity
  8
1
100
AcDbLine
 10
4317.190038106199
 20
6721.772268021344
 30
0.0
 11
4317.190038106199
 21
6731.772268021344
 31
0.0
  0
LINE
  5
7D0B
330
19
100
AcDbEntity
  8
1
100
AcDbLine
 10
2767.190038106199
 20
6640.822268021344
 30
0.0
 11
2767.190038106199
 21
6887.822268021342
 31
0.0
  0
LINE
  5
7D0C
330
19
100
AcDbEntity
  8
1
100
AcDbLine
 10
2692.190038106199
 20
6640.822268021344
 30
0.0
 11
2692.190038106199
 21
6887.822268021342
 31
0.0
  0
LINE
  5
7D0D
330
19
100
AcDbEntity
  8
1
100
AcDbLine
 10
2349.690038106199
 20
6406.822268021343
 30
0.0
 11
2349.690038106199
 21
6702.822268021342
 31
0.0
  0
LINE
  5
7D0E
330
19
100
AcDbEntity
  8
1
100
AcDbLine
 10
2659.690038106199
 20
6640.822268021344
 30
0.0
 11
2799.690038106199
 21
6640.822268021344
 31
0.0
  0
LINE
  5
7D0F
330
19
100
AcDbEntity
  8
1
100
AcDbLine
 10
2799.690038106199
 20
6620.722268021343
 30
0.0
 11
2799.690038106199
 21
6640.822268021344
 31
0.0
  0
LINE
  5
7D10
330
19
100
AcDbEntity
  8
1
100
AcDbLine
 10
2475.690038106199
 20
6620.722268021343
 30
0.0
 11
2659.690038106199
 21
6620.722268021343
 31
0.0
  0
LINE
  5
7D11
330
19
100
AcDbEntity
  8
1
100
AcDbLine
 10
2659.690038106199
 20
6620.722268021343
 30
0.0
 11
2659.690038106199
 21
6640.822268021344
 31
0.0
  0
LINE
  5
7D12
330
19
100
AcDbEntity
  8
1
100
AcDbLine
 10
2475.690038106199
 20
6542.822268021343
 30
0.0
 11
2475.690038106199
 21
6620.722268021343
 31
0.0
  0
LINE
  5
7D13
330
19
100
AcDbEntity
  8
1
100
AcDbLine
 10
2349.690038106199
 20
6702.822268021343
 30
0.0
 11
4569.690038106198
 21
6702.822268021435
 31
0.0
  0
LINE
  5
7D15
330
19
100
AcDbEntity
  8
1
100
AcDbLine
 10
4549.690038106196
 20
7381.272268021345
 30
0.0
 11
4139.690038106191
 21
7381.272268021342
 31
0.0
  0
LINE
  5
7D16
330
19
100
AcDbEntity
  8
1
100
AcDbLine
 10
1904.690038106199
 20
8576.822268021343
 30
0.0
 11
3808.690038106198
 21
8576.822268021343
 31
0.0
  0
LINE
  5
7D17
330
19
100
AcDbEntity
  8
1
100
AcDbLine
 10
1904.690038106199
 20
6887.822268021341
 30
0.0
 11
3808.690038106199
 21
6887.822268021342
 31
0.0
  0
LINE
  5
7D18
330
19
100
AcDbEntity
  8
1
100
AcDbLine
 10
1904.690038106199
 20
8626.822268021344
 30
0.0
 11
1904.690038106199
 21
6837.822268021342
 31
0.0
  0
LINE
  5
7D19
330
19
100
AcDbEntity
  8
1
100
AcDbLine
 10
3808.690038106199
 20
8576.822268021343
 30
0.0
 11
3808.690038106199
 21
6887.822268021342
 31
0.0
  0
LINE
  5
7D1A
330
19
100
AcDbEntity
  8
1
100
AcDbLine
 10
1979.690038106198
 20
6887.822268021342
 30
0.0
 11
1979.690038106198
 21
6535.82226802134
 31
0.0
  0
LINE
  5
7D1B
330
19
100
AcDbEntity
  8
1
100
AcDbLine
 10
4243.690038106199
 20
6620.722268021343
 30
0.0
 11
4289.690038106199
 21
6620.722268021343
 31
0.0
  0
LINE
  5
7D1C
330
19
100
AcDbEntity
  8
1
100
AcDbLine
 10
4243.690038106199
 20
6542.822268021343
 30
0.0
 11
4455.690038106198
 21
6542.822268021343
 31
0.0
  0
DIMENSION
  5
7D1D
330
19
100
AcDbEntity
  8
3
100
AcDbDimension
280
     0
  2
*D14
 10
1530.673896870364
 20
6535.822268021341
 30
0.0
 11
1430.673896870364
 21
7595.822268021341
 31
0.0
 70
    32
 71
     5
 42
-1.0
 73
     0
 74
     0
 75
     0
  3
IGA
100
AcDbAlignedDimension
 13
1979.690038106198
 23
8655.82226802134
 33
0.0
 14
1979.690038106198
 24
6535.822268021341
 34
0.0
 50
270.0
100
AcDbRotatedDimension
1001
ACAD
1000
DSTYLE
1002
{
1070
   287
1070
     3
1070
    40
1040
40.0
1070
   143
1040
0.039
1070
   172
1070
     1
1070
   271
1070
     0
1070
   279
1070
     0
1070
   288
1070
     1
1002
}
  0
DIMENSION
  5
7D1E
330
19
100
AcDbEntity
  8
3
100
AcDbDimension
280
     0
  2
*D15
 10
3479.690038106199
 20
8860.458406526525
 30
0.0
 11
2729.690038106199
 21
8960.458406526525
 31
0.0
 70
    32
 71
     5
 42
-1.0
 73
     0
 74
     0
 75
     0
  3
IGA
100
AcDbAlignedDimension
 13
1979.690038106198
 23
8655.82226802134
 33
0.0
 14
3479.690038106199
 24
8655.822268021342
 34
0.0
100
AcDbRotatedDimension
1001
ACAD
1000
DSTYLE
1002
{
1070
   287
1070
     3
1070
    40
1040
40.0
1070
   143
1040
0.039
1070
   172
1070
     1
1070
   271
1070
     0
1070
   279
1070
     0
1070
   288
1070
     1
1002
}
  0
DIMENSION
  5
7D1F
330
19
100
AcDbEntity
  8
3
100
AcDbDimension
280
     0
  2
*D16
 10
4629.690038106199
 20
8860.458406526525
 30
0.0
 11
4054.690038106198
 21
8960.458406526525
 31
0.0
 70
    32
 71
     5
 42
-1.0
 73
     0
 74
     0
 75
     0
  3
IGA
100
AcDbAlignedDimension
 13
3479.690038106199
 23
8655.822268021342
 33
0.0
 14
4629.690038106199
 24
7635.822268021342
 34
0.0
100
AcDbRotatedDimension
1001
ACAD
1000
DSTYLE
1002
{
1070
   287
1070
     3
1070
    40
1040
40.0
1070
   143
1040
0.039
1070
   172
1070
     1
1070
   271
1070
     0
1070
   279
1070
     0
1070
   288
1070
     1
1002
}
  0
DIMENSION
  5
7D20
330
19
100
AcDbEntity
  8
3
100
AcDbDimension
280
     0
  2
*D17
 10
4896.016439213777
 20
6535.822268021341
 30
0.0
 11
4796.016439213775
 21
7085.822268021343
 31
0.0
 70
    32
 71
     5
 42
-1.0
 73
     0
 74
     0
 75
     0
  3
IGA
100
AcDbAlignedDimension
 13
4629.690038106199
 23
7635.822268021342
 33
0.0
 14
4629.690038106199
 24
6535.822268021341
 34
0.0
 50
270.0
100
AcDbRotatedDimension
1001
ACAD
1000
DSTYLE
1002
{
1070
   287
1070
     3
1070
    40
1040
40.0
1070
   143
1040
0.039
1070
   172
1070
     1
1070
   271
1070
     0
1070
   279
1070
     0
1070
   288
1070
     1
1002
}
  0
DIMENSION
  5
7D21
330
19
100
AcDbEntity
  8
3
100
AcDbDimension
280
     0
  2
*D18
 10
1979.690038106198
 20
6171.068389831689
 30
0.0
 11
3304.690038106199
 21
6271.06838983169
 31
0.0
 70
    32
 71
     5
 42
-1.0
 73
     0
 74
     0
 75
     0
  3
IGA
100
AcDbAlignedDimension
 13
4629.690038106199
 23
6535.822268021341
 33
0.0
 14
1979.690038106198
 24
6535.822268021341
 34
0.0
100
AcDbRotatedDimension
1001
ACAD
1000
DSTYLE
1002
{
1070
   287
1070
     3
1070
    40
1040
40.0
1070
   143
1040
0.039
1070
   172
1070
     1
1070
   271
1070
     0
1070
   279
1070
     0
1070
   288
1070
     1
1002
}
  0
DIMENSION
  5
7D22
330
19
100
AcDbEntity
  8
3
100
AcDbDimension
280
     0
  2
*D19
 10
4629.690038106199
 20
5661.37209794053
 30
0.0
 11
3267.190038106199
 21
5761.37209794053
 31
0.0
 70
    32
 71
     5
 42
-1.0
 73
     0
 74
     0
 75
     0
  3
IGA
100
AcDbAlignedDimension
 13
1904.690038106199
 23
5187.395935314897
 33
0.0
 14
4629.690038106199
 24
3000.395935314897
 34
0.0
100
AcDbRotatedDimension
1001
ACAD
1000
DSTYLE
1002
{
1070
   287
1070
     3
1070
    40
1040
40.0
1070
   143
1040
0.039
1070
   172
1070
     1
1070
   271
1070
     0
1070
   279
1070
     0
1070
   288
1070
     1
1002
}
  0
LINE
  5
7D24
330
19
100
AcDbEntity
  8
1
100
AcDbLine
 10
7160.972951952932
 20
3801.395935314897
 30
0.0
 11
7213.972951952932
 21
3801.395935314897
 31
0.0
  0
LINE
  5
7D25
330
19
100
AcDbEntity
  8
1
100
AcDbLine
 10
5954.422951952932
 20
3470.395935314897
 30
0.0
 11
5954.422951952934
 21
3060.395935314901
 31
0.0
  0
LINE
  5
7D26
330
19
100
AcDbEntity
  8
1
100
AcDbLine
 10
5460.972951952932
 20
3060.395935314899
 30
0.0
 11
5460.972951952932
 21
3000.395935314897
 31
0.0
  0
LINE
  5
7D27
330
19
100
AcDbEntity
  8
1
100
AcDbLine
 10
5858.981987928986
 20
3060.3959353149
 30
0.0
 11
5858.981987928986
 21
3000.395935314897
 31
0.0
  0
DIMENSION
  5
7F5C
330
19
100
AcDbEntity
  8
3
100
AcDbDimension
280
     0
  2
*D21
 10
1405.268771363862
 20
2755.395935314897
 30
0.0
 11
1305.268771363862
 21
2458.25307817204
 31
0.0
 70
    32
 71
     5
 42
-1.0
 73
     0
 74
     0
 75
     0
  3
IGA
100
AcDbAlignedDimension
 13
1979.690038106198
 23
2830.395935314897
 33
0.0
 14
1979.690038106198
 24
2755.395935314897
 34
0.0
 50
90.0
100
AcDbRotatedDimension
1001
ACAD
1000
DSTYLE
1002
{
1070
   287
1070
     3
1070
    40
1040
40.0
1070
   143
1040
0.039
1070
   172
1070
     1
1070
   271
1070
     0
1070
   279
1070
     0
1070
   288
1070
     1
1070
     6
1000
DOT
1002
}
  0
LINE
  5
80A8
330
19
100
AcDbEntity
  8
4
100
AcDbLine
 10
7400.0
 20
1613.487465878472
 30
0.0
 11
7400.0
 21
813.487465878472
 31
0.0
  0
LINE
  5
80A9
330
19
100
AcDbEntity
  8
4
100
AcDbLine
 10
4600.0
 20
1613.487465878472
 30
0.0
 11
4600.0
 21
813.487465878472
 31
0.0
  0
LINE
  5
80AA
330
19
100
AcDbEntity
  8
4
100
AcDbLine
 10
2600.0
 20
1613.487465878472
 30
0.0
 11
2600.0
 21
813.487465878472
 31
0.0
  0
LINE
  5
80AD
330
19
100
AcDbEntity
  8
4
100
AcDbLine
 10
2600.0
 20
813.487465878472
 30
0.0
 11
7400.0
 21
813.487465878472
 31
0.0
  0
LINE
  5
80AE
330
19
100
AcDbEntity
  8
4
100
AcDbLine
 10
2600.0
 20
1213.487465878472
 30
0.0
 11
7400.0
 21
1213.487465878472
 31
0.0
  0
TEXT
  5
80AF
330
19
100
AcDbEntity
  8
4
100
AcDbText
 10
2754.008323387607
 20
1339.659569344923
 30
0.0
 40
200.0
  1
機器名称
100
AcDbText
  0
TEXT
  5
80B0
330
19
100
AcDbEntity
  8
4
100
AcDbText
 10
2745.032424099191
 20
900.0680928065158
 30
0.0
 40
200.0
  1
機器型番
100
AcDbText
  0
TEXT
  5
80B1
330
19
100
AcDbEntity
  8
4
100
AcDbText
 10
4718.63228935788
 20
1306.829110873271
 30
0.0
 40
170.0
  1
ミツヤリミットロードファン
100
AcDbText
  0
TEXT
  5
80B2
330
19
100
AcDbEntity
  8
4
100
AcDbText
 10
4746.617982341923
 20
882.1258029982455
 30
0.0
 40
200.0
  1
LL#8-5
100
AcDbText
  0
TEXT
  5
80B4
330
19
100
AcDbEntity
  8
4
100
AcDbText
 10
3239.654031888807
 20
9533.715365330063
 30
0.0
 40
216.0
  1
床置防振ベット
100
AcDbText
  0
TEXT
  5
80B5
330
19
100
AcDbEntity
  8
4
100
AcDbText
 10
1264.670373317785
 20
10135.52390479719
 30
0.0
 40
288.0
  1
遠心式両吸込両持リミトロードファン
100
AcDbText
  0
LINE
  5
80B6
330
19
100
AcDbEntity
  8
4
100
AcDbLine
 10
1000.0
 20
9877.635017059219
 30
0.0
 11
7400.0
 21
9877.635017059219
 31
0.0
  0
LINE
  5
80B7
330
19
100
AcDbEntity
  8
4
100
AcDbLine
 10
1000.0
 20
10677.63501705922
 30
0.0
 11
7400.0
 21
10677.63501705922
 31
0.0
  0
LINE
  5
80B8
330
19
100
AcDbEntity
  8
4
100
AcDbLine
 10
2600.0
 20
1613.487465878472
 30
0.0
 11
7400.0
 21
1613.487465878472
 31
0.0
  0
LINE
  5
80B9
330
19
100
AcDbEntity
  8
4
100
AcDbLine
 10
1000.0
 20
10677.63501705922
 30
0.0
 11
1000.0
 21
9877.635017059219
 31
0.0
  0
TEXT
  5
80BA
330
19
100
AcDbEntity
  8
4
100
AcDbText
 10
1496.218702917999
 20
9529.277910185374
 30
0.0
 40
216.0
  1
左回転左横向
100
AcDbText
  0
TEXT
  5
80BB
330
19
100
AcDbEntity
  8
4
100
AcDbText
 10
5875.878236997159
 20
10824.24432598123
 30
0.0
 40
224.0
  1
No.
100
AcDbText
  0
TEXT
  5
80BC
330
19
100
AcDbEntity
  8
4
100
AcDbText
 10
5245.184250400052
 20
9533.715365330063
 30
0.0
 40
216.0
  1
縮尺：1/40
100
AcDbText
  0
LINE
  5
80BD
330
19
100
AcDbEntity
  8
4
100
AcDbLine
 10
7400.0
 20
10677.63501705922
 30
0.0
 11
7400.0
 21
9877.635017059219
 31
0.0
  0
LINE
  5
80BE
330
19
100
AcDbEntity
  8
4
100
AcDbLine
 10
8400.0
 20
11800.0
 30
0.0
 11
8400.0
 21
11800.0
 31
0.0
  0
LINE
  5
80BF
330
19
100
AcDbEntity
  8
4
100
AcDbLine
 10
5762.469689439458
 20
10725.0543325016
 30
0.0
 11
5762.469689439458
 21
11146.60904619901
 31
0.0
  0
LINE
  5
80C0
330
19
100
AcDbEntity
  8
4
100
AcDbLine
 10
5762.469689439458
 20
11146.60904619901
 30
0.0
 11
7400.0
 21
11146.60904619901
 31
0.0
  0
LINE
  5
80C1
330
19
100
AcDbEntity
  8
4
100
AcDbLine
 10
7400.0
 20
11146.60904619901
 30
0.0
 11
7400.0
 21
10725.0543325016
 31
0.0
  0
LINE
  5
80C2
330
19
100
AcDbEntity
  8
4
100
AcDbLine
 10
7400.0
 20
10725.0543325016
 30
0.0
 11
5762.469689439458
 21
10725.0543325016
 31
0.0
  0
LINE
  5
80C3
330
19
100
AcDbEntity
  8
4
100
AcDbLine
 10
0.0
 20
0.0
 30
0.0
 11
0.0
 21
11800.0
 31
0.0
  0
LINE
  5
80C4
330
19
100
AcDbEntity
  8
4
100
AcDbLine
 10
0.0
 20
11800.0
 30
0.0
 11
8400.0
 21
11800.0
 31
0.0
  0
LINE
  5
80C5
330
19
100
AcDbEntity
  8
4
100
AcDbLine
 10
8400.0
 20
11800.0
 30
0.0
 11
8400.0
 21
0.0
 31
0.0
  0
LINE
  5
80C6
330
19
100
AcDbEntity
  8
4
100
AcDbLine
 10
8400.0
 20
0.0
 30
0.0
 11
0.0
 21
0.0
 31
0.0
  0
DIMENSION
  5
8222
330
19
100
AcDbEntity
  8
3
100
AcDbDimension
280
     0
  2
*D24
 10
1407.266187582892
 20
2875.395935314897
 30
0.0
 11
1215.837616154321
 21
2852.895935314897
 31
0.0
 70
    32
  1
   <>
 71
     5
 42
-1.0
 73
     0
 74
     0
 75
     0
  3
IGA
100
AcDbAlignedDimension
 13
1979.690038106198
 23
2830.395935314897
 33
0.0
 14
1979.690038106198
 24
2875.395935314897
 34
0.0
 50
90.0
100
AcDbRotatedDimension
1001
ACAD
1000
DSTYLE
1002
{
1070
   172
1070
     1
1070
    76
1070
     1
1070
    75
1070
     1
1070
    40
1040
40.0
1070
     3
1000
(<>)
1070
   271
1070
     0
1070
     7
1000
_NONE
1070
     6
1000
_NONE
1070
   143
1040
0.039
1002
}
  0
DIMENSION
  5
822F
330
19
100
AcDbEntity
  8
3
100
AcDbDimension
280
     0
  2
*D25
 10
1055.559224740653
 20
2755.395935314897
 30
0.0
 11
924.1306533120816
 21
3944.895935314896
 31
0.0
 70
    32
 71
     5
 42
-1.0
 73
     0
 74
     0
 75
     0
  3
IGA
100
AcDbAlignedDimension
 13
1904.690038106199
 23
5134.395935314897
 33
0.0
 14
1979.690038106198
 24
2755.395935314897
 34
0.0
 50
90.0
100
AcDbRotatedDimension
1001
ACAD
1000
DSTYLE
1002
{
1070
   172
1070
     1
1070
    40
1040
40.0
1070
     3
1000
(<>)
1070
   271
1070
     0
1070
   143
1040
0.039
1002
}
  0
ENDSEC
  0
SECTION
  2
OBJECTS
  0
DICTIONARY
  5
C
330
0
100
AcDbDictionary
281
     1
  3
ACAD_CIP_PREVIOUS_PRODUCT_INFO
350
839D
  3
ACAD_COLOR
350
8380
  3
ACAD_DETAILVIEWSTYLE
350
8399
  3
ACAD_GROUP
350
D
  3
ACAD_LAYOUT
350
8257
  3
ACAD_MATERIAL
350
834E
  3
ACAD_MLEADERSTYLE
350
8395
  3
ACAD_MLINESTYLE
350
E
  3
ACAD_PLOTSETTINGS
350
8258
  3
ACAD_PLOTSTYLENAME
350
8255
  3
ACAD_SCALELIST
350
8383
  3
ACAD_SECTIONVIEWSTYLE
350
8397
  3
ACAD_TABLESTYLE
350
8381
  3
ACAD_VISUALSTYLE
350
8367
  3
ACDB_RECOMPOSE_DATA
350
8409
  3
AcDbVariableDictionary
350
8345
  3
AcDsDecomposeData
350
840F
  0
DICTIONARY
  5
83ED
330
2
100
AcDbDictionary
280
     1
281
     1
  3
ACAD_LAYERSTATES
360
83EE
  0
DICTIONARY
  5
83E0
330
F
100
AcDbDictionary
280
     1
281
     1
  3
ADSK_XREC_LAYER_RECONCILED
360
83E1
  0
DICTIONARY
  5
83E2
330
31
100
AcDbDictionary
280
     1
281
     1
  3
ADSK_XREC_LAYER_RECONCILED
360
83E3
  0
DICTIONARY
  5
83E4
330
76D0
100
AcDbDictionary
280
     1
281
     1
  3
ADSK_XREC_LAYER_RECONCILED
360
83E5
  0
DICTIONARY
  5
83E6
330
76D1
100
AcDbDictionary
280
     1
281
     1
  3
ADSK_XREC_LAYER_RECONCILED
360
83E7
  0
DICTIONARY
  5
83E8
330
76D2
100
AcDbDictionary
280
     1
281
     1
  3
ADSK_XREC_LAYER_RECONCILED
360
83E9
  0
DICTIONARY
  5
8284
330
19
100
AcDbDictionary
280
     1
281
     1
  3
ACAD_LAYOUTSELFREF
360
8285
  0
DICTIONARY
  5
8282
330
16
100
AcDbDictionary
280
     1
281
     1
  3
ACAD_LAYOUTSELFREF
360
8283
  0
XRECORD
  5
839D
102
{ACAD_REACTORS
330
C
102
}
330
C
100
AcDbXrecord
280
     1
300
ACDLT
300
2023
300

  0
DICTIONARY
  5
8380
102
{ACAD_REACTORS
330
C
102
}
330
C
100
AcDbDictionary
281
     1
  0
DICTIONARY
  5
8399
102
{ACAD_REACTORS
330
C
102
}
330
C
100
AcDbDictionary
281
     1
  3
Metric50
350
839A
  0
DICTIONARY
  5
D
102
{ACAD_REACTORS
330
C
102
}
330
C
100
AcDbDictionary
281
     1
  0
DICTIONARY
  5
8257
102
{ACAD_REACTORS
330
C
102
}
330
C
100
AcDbDictionary
281
     1
  3
Model
350
8259
  3
ﾚｲｱｳﾄ1
350
825A
  0
DICTIONARY
  5
834E
102
{ACAD_REACTORS
330
C
102
}
330
C
100
AcDbDictionary
281
     1
  3
ByBlock
350
8357
  3
ByLayer
350
834F
  3
Global
350
835F
  0
DICTIONARY
  5
8395
102
{ACAD_REACTORS
330
C
102
}
330
C
100
AcDbDictionary
281
     1
  3
Standard
350
8396
  0
DICTIONARY
  5
E
102
{ACAD_REACTORS
330
C
102
}
330
C
100
AcDbDictionary
281
     1
  3
STANDARD
350
1C
  0
DICTIONARY
  5
8258
102
{ACAD_REACTORS
330
C
102
}
330
C
100
AcDbDictionary
281
     1
  0
ACDBDICTIONARYWDFLT
  5
8255
102
{ACAD_REACTORS
330
C
102
}
330
C
100
AcDbDictionary
281
     1
  3
Normal
350
8256
100
AcDbDictionaryWithDefault
340
8256
  0
DICTIONARY
  5
8383
102
{ACAD_REACTORS
330
C
102
}
330
C
100
AcDbDictionary
281
     1
  3
A0
350
8384
  3
A1
350
8385
  3
A2
350
8386
  3
A3
350
8387
  3
A4
350
8388
  3
A5
350
8389
  3
A6
350
838A
  3
A7
350
838B
  3
A8
350
838C
  3
A9
350
838D
  3
B0
350
838E
  3
B1
350
838F
  3
B2
350
8390
  3
B3
350
8391
  3
B4
350
8392
  3
B5
350
8393
  3
B6
350
8394
  0
DICTIONARY
  5
8397
102
{ACAD_REACTORS
330
C
102
}
330
C
100
AcDbDictionary
281
     1
  3
Metric50
350
8398
  0
DICTIONARY
  5
8381
102
{ACAD_REACTORS
330
C
102
}
330
C
100
AcDbDictionary
281
     1
  3
Standard
350
8382
  0
DICTIONARY
  5
8367
102
{ACAD_REACTORS
330
C
102
}
330
C
100
AcDbDictionary
281
     1
  3
2dWireframe
350
836D
  3
Basic
350
836C
  3
Brighten
350
8373
  3
ColorChange
350
8377
  3
Conceptual
350
8370
  3
Dim
350
8372
  3
EdgeColorOff
350
837F
  3
Facepattern
350
8376
  3
Flat
350
8368
  3
FlatWithEdges
350
8369
  3
Gouraud
350
836A
  3
GouraudWithEdges
350
836B
  3
Hidden
350
836F
  3
JitterOff
350
837D
  3
Linepattern
350
8375
  3
OverhangOff
350
837E
  3
Realistic
350
8371
  3
Shaded
350
837C
  3
Shaded with edges
350
837B
  3
Shades of Gray
350
8378
  3
Sketchy
350
8379
  3
Thicken
350
8374
  3
Wireframe
350
836E
  3
X-Ray
350
837A
  0
XRECORD
  5
8409
102
{ACAD_REACTORS
330
C
102
}
330
C
100
AcDbXrecord
280
     1
 90
        1
330
8382
  0
DICTIONARY
  5
8345
102
{ACAD_REACTORS
330
C
102
}
330
C
100
AcDbDictionary
281
     1
  3
CANNOSCALE
350
83FE
  3
CMLEADERSTYLE
350
83FA
  3
CTABLESTYLE
350
83F9
  3
CVIEWDETAILSTYLE
350
83FB
  3
CVIEWSECTIONSTYLE
350
83FC
  3
DIMASSOC
350
8346
  3
LAYEREVAL
350
8400
  3
LAYERNOTIFY
350
8401
  3
LIGHTINGUNITS
350
83FF
  3
MARKUPASSISTMODE
350
8406
  3
MSLTSCALE
350
83FD
  0
DICTIONARY
  5
840F
102
{ACAD_REACTORS
330
C
102
}
330
C
100
AcDbDictionary
281
     1
  3
AcDsRecords
350
8411
  3
AcDsSchemas
350
8410
1001
ACAD
1070
     2
  0
DICTIONARY
  5
83EE
102
{ACAD_REACTORS
330
83ED
102
}
330
83ED
100
AcDbDictionary
281
     1
  0
XRECORD
  5
83E1
102
{ACAD_REACTORS
330
83E0
102
}
330
83E0
100
AcDbXrecord
280
     1
290
     1
  0
XRECORD
  5
83E3
102
{ACAD_REACTORS
330
83E2
102
}
330
83E2
100
AcDbXrecord
280
     1
290
     1
  0
XRECORD
  5
83E5
102
{ACAD_REACTORS
330
83E4
102
}
330
83E4
100
AcDbXrecord
280
     1
290
     1
  0
XRECORD
  5
83E7
102
{ACAD_REACTORS
330
83E6
102
}
330
83E6
100
AcDbXrecord
280
     1
290
     1
  0
XRECORD
  5
83E9
102
{ACAD_REACTORS
330
83E8
102
}
330
83E8
100
AcDbXrecord
280
     1
290
     1
  0
XRECORD
  5
8285
102
{ACAD_REACTORS
330
8284
102
}
330
8284
100
AcDbXrecord
280
     1
340
19
  0
XRECORD
  5
8283
102
{ACAD_REACTORS
330
8282
102
}
330
8282
100
AcDbXrecord
280
     1
340
16
  0
ACDBDETAILVIEWSTYLE
  5
839A
102
{ACAD_XDICTIONARY
360
8414
102
}
102
{ACAD_REACTORS
330
8399
102
}
330
8399
100
AcDbModelDocViewStyle
 70
     0
  3
Metric50
290
     0
100
AcDbDetailViewStyle
 70
     0
 71
     0
 90
        3
 71
     1
340
10
 62
   256
 40
5.0
340
0
 62
   256
 40
5.0
300

 40
0.0
280
     1
 71
     2
340
15
 90
       25
 62
   256
 71
     3
340
10
 62
   256
 40
5.0
 90
        0
 40
15.0
 90
        1
300
%<\AcVar ViewDetailId>% (%<\AcVar ViewScale \f "%sn">%)
 71
     4
340
15
 90
       25
 62
   256
340
15
 90
       25
 62
   256
280
     0
  0
LAYOUT
  5
8259
102
{ACAD_REACTORS
330
8257
102
}
330
8257
100
AcDbPlotSettings
  1

  2
\\Txbo34x8944cqyd\EPSON LP-6100
  4

  6

 40
0.0
 41
0.0
 42
0.0
 43
0.0
 44
0.0
 45
0.0
 46
0.0
 47
0.0
 48
0.0
 49
0.0
140
0.0
141
0.0
142
1.0
143
1.0
 70
  1712
 72
     0
 73
     0
 74
     0
  7
GOD2000TABLE.ctb
 75
     0
147
1.0
 76
     0
 77
     2
 78
   300
148
0.0
149
0.0
100
AcDbLayout
  1
Model
 70
     1
 71
     0
 10
0.0
 20
0.0
 11
12.0
 21
9.0
 12
0.0
 22
0.0
 32
0.0
 14
0.0
 24
0.0
 34
0.0
 15
0.0
 25
0.0
 35
0.0
146
0.0
 13
0.0
 23
0.0
 33
0.0
 16
1.0
 26
0.0
 36
0.0
 17
0.0
 27
1.0
 37
0.0
 76
     0
330
19
331
834C
  0
LAYOUT
  5
825A
102
{ACAD_REACTORS
330
8257
102
}
330
8257
100
AcDbPlotSettings
  1

  2
\\Txbo34x8944cqyd\EPSON LP-6100
  4

  6

 40
0.0
 41
0.0
 42
0.0
 43
0.0
 44
0.0
 45
0.0
 46
0.0
 47
0.0
 48
0.0
 49
0.0
140
0.0
141
0.0
142
1.0
143
1.0
 70
   688
 72
     0
 73
     0
 74
     5
  7
GOD2000TABLE.ctb
 75
    16
147
1.0
 76
     0
 77
     2
 78
   300
148
0.0
149
0.0
100
AcDbLayout
  1
ﾚｲｱｳﾄ1
 70
     1
 71
     1
 10
0.0
 20
0.0
 11
12.0
 21
9.0
 12
0.0
 22
0.0
 32
0.0
 14
1.000000000000000E+20
 24
1.000000000000000E+20
 34
1.000000000000000E+20
 15
-1.000000000000000E+20
 25
-1.000000000000000E+20
 35
-1.000000000000000E+20
146
0.0
 13
0.0
 23
0.0
 33
0.0
 16
1.0
 26
0.0
 36
0.0
 17
0.0
 27
1.0
 37
0.0
 76
     0
330
16
  0
MATERIAL
  5
8357
102
{ACAD_XDICTIONARY
360
8358
102
}
102
{ACAD_REACTORS
330
834E
102
}
330
834E
100
AcDbMaterial
  1
ByBlock
 72
     0
 43
0.0208333333333333
 43
0.0
 43
0.0
 43
0.0
 43
0.0
 43
0.0208333333333333
 43
0.0
 43
0.0
 43
0.0
 43
0.0
 43
1.0
 43
0.0
 43
0.0
 43
0.0
 43
0.0
 43
1.0
 77
     0
 47
0.0208333333333333
 47
0.0
 47
0.0
 47
0.0
 47
0.0
 47
0.0208333333333333
 47
0.0
 47
0.0
 47
0.0
 47
0.0
 47
1.0
 47
0.0
 47
0.0
 47
0.0
 47
0.0
 47
1.0
171
     0
 49
0.0208333333333333
 49
0.0
 49
0.0
 49
0.0
 49
0.0
 49
0.0208333333333333
 49
0.0
 49
0.0
 49
0.0
 49
0.0
 49
1.0
 49
0.0
 49
0.0
 49
0.0
 49
0.0
 49
1.0
175
     0
142
0.0208333333333333
142
0.0
142
0.0
142
0.0
142
0.0
142
0.0208333333333333
142
0.0
142
0.0
142
0.0
142
0.0
142
1.0
142
0.0
142
0.0
142
0.0
142
0.0
142
1.0
179
     0
144
0.0208333333333333
144
0.0
144
0.0
144
0.0
144
0.0
144
0.0208333333333333
144
0.0
144
0.0
144
0.0
144
0.0
144
1.0
144
0.0
144
0.0
144
0.0
144
0.0
144
1.0
147
0.0208333333333333
147
0.0
147
0.0
147
0.0
147
0.0
147
0.0208333333333333
147
0.0
147
0.0
147
0.0
147
0.0
147
1.0
147
0.0
147
0.0
147
0.0
147
0.0
147
1.0
  0
MATERIAL
  5
834F
102
{ACAD_XDICTIONARY
360
8350
102
}
102
{ACAD_REACTORS
330
834E
102
}
330
834E
100
AcDbMaterial
  1
ByLayer
 72
     0
 43
0.0208333333333333
 43
0.0
 43
0.0
 43
0.0
 43
0.0
 43
0.0208333333333333
 43
0.0
 43
0.0
 43
0.0
 43
0.0
 43
1.0
 43
0.0
 43
0.0
 43
0.0
 43
0.0
 43
1.0
 77
     0
 47
0.0208333333333333
 47
0.0
 47
0.0
 47
0.0
 47
0.0
 47
0.0208333333333333
 47
0.0
 47
0.0
 47
0.0
 47
0.0
 47
1.0
 47
0.0
 47
0.0
 47
0.0
 47
0.0
 47
1.0
171
     0
 49
0.0208333333333333
 49
0.0
 49
0.0
 49
0.0
 49
0.0
 49
0.0208333333333333
 49
0.0
 49
0.0
 49
0.0
 49
0.0
 49
1.0
 49
0.0
 49
0.0
 49
0.0
 49
0.0
 49
1.0
175
     0
142
0.0208333333333333
142
0.0
142
0.0
142
0.0
142
0.0
142
0.0208333333333333
142
0.0
142
0.0
142
0.0
142
0.0
142
1.0
142
0.0
142
0.0
142
0.0
142
0.0
142
1.0
179
     0
144
0.0208333333333333
144
0.0
144
0.0
144
0.0
144
0.0
144
0.0208333333333333
144
0.0
144
0.0
144
0.0
144
0.0
144
1.0
144
0.0
144
0.0
144
0.0
144
0.0
144
1.0
147
0.0208333333333333
147
0.0
147
0.0
147
0.0
147
0.0
147
0.0208333333333333
147
0.0
147
0.0
147
0.0
147
0.0
147
1.0
147
0.0
147
0.0
147
0.0
147
0.0
147
1.0
  0
MATERIAL
  5
835F
102
{ACAD_XDICTIONARY
360
8360
102
}
102
{ACAD_REACTORS
330
834E
102
}
330
834E
100
AcDbMaterial
  1
Global
 72
     0
 43
0.0208333333333333
 43
0.0
 43
0.0
 43
0.0
 43
0.0
 43
0.0208333333333333
 43
0.0
 43
0.0
 43
0.0
 43
0.0
 43
1.0
 43
0.0
 43
0.0
 43
0.0
 43
0.0
 43
1.0
 77
     0
 47
0.0208333333333333
 47
0.0
 47
0.0
 47
0.0
 47
0.0
 47
0.0208333333333333
 47
0.0
 47
0.0
 47
0.0
 47
0.0
 47
1.0
 47
0.0
 47
0.0
 47
0.0
 47
0.0
 47
1.0
171
     0
 49
0.0208333333333333
 49
0.0
 49
0.0
 49
0.0
 49
0.0
 49
0.0208333333333333
 49
0.0
 49
0.0
 49
0.0
 49
0.0
 49
1.0
 49
0.0
 49
0.0
 49
0.0
 49
0.0
 49
1.0
175
     0
142
0.0208333333333333
142
0.0
142
0.0
142
0.0
142
0.0
142
0.0208333333333333
142
0.0
142
0.0
142
0.0
142
0.0
142
1.0
142
0.0
142
0.0
142
0.0
142
0.0
142
1.0
179
     0
144
0.0208333333333333
144
0.0
144
0.0
144
0.0
144
0.0
144
0.0208333333333333
144
0.0
144
0.0
144
0.0
144
0.0
144
1.0
144
0.0
144
0.0
144
0.0
144
0.0
144
1.0
147
0.0208333333333333
147
0.0
147
0.0
147
0.0
147
0.0
147
0.0208333333333333
147
0.0
147
0.0
147
0.0
147
0.0
147
1.0
147
0.0
147
0.0
147
0.0
147
0.0
147
1.0
  0
MLEADERSTYLE
  5
8396
102
{ACAD_REACTORS
330
8395
102
}
330
8395
100
AcDbMLeaderStyle
179
     2
170
     2
171
     1
172
     0
 90
        2
 40
0.0
 41
0.0
173
     1
 91
-1056964608
340
13
 92
       -2
290
     1
 42
2.0
291
     1
 43
0.36
  3
Standard
 44
4.0
300

342
10
174
     1
178
     6
175
     1
176
     0
 93
-1056964608
 45
4.0
292
     0
297
     0
 46
4.0
 94
-1056964608
 47
1.0
 49
1.0
140
1.0
293
     1
141
0.0
294
     1
177
     0
142
1.0
295
     0
296
     0
143
0.125
271
     0
272
     9
273
     9
298
     1
  0
MLINESTYLE
  5
1C
102
{ACAD_REACTORS
330
E
102
}
330
E
100
AcDbMlineStyle
  2
STANDARD
 70
     0
  3

 62
     0
 51
90.0
 52
90.0
 71
     2
 49
0.5
 62
   256
  6
BYLAYER
 49
-0.5
 62
   256
  6
BYLAYER
  0
ACDBPLACEHOLDER
  5
8256
102
{ACAD_REACTORS
330
8255
102
}
330
8255
  0
SCALE
  5
8384
102
{ACAD_REACTORS
330
8383
102
}
330
8383
100
AcDbScale
 70
     0
300
1:1
140
1.0
141
1.0
290
     1
  0
SCALE
  5
8385
102
{ACAD_REACTORS
330
8383
102
}
330
8383
100
AcDbScale
 70
     0
300
1:2
140
1.0
141
2.0
290
     0
  0
SCALE
  5
8386
102
{ACAD_REACTORS
330
8383
102
}
330
8383
100
AcDbScale
 70
     0
300
1:4
140
1.0
141
4.0
290
     0
  0
SCALE
  5
8387
102
{ACAD_REACTORS
330
8383
102
}
330
8383
100
AcDbScale
 70
     0
300
1:5
140
1.0
141
5.0
290
     0
  0
SCALE
  5
8388
102
{ACAD_REACTORS
330
8383
102
}
330
8383
100
AcDbScale
 70
     0
300
1:8
140
1.0
141
8.0
290
     0
  0
SCALE
  5
8389
102
{ACAD_REACTORS
330
8383
102
}
330
8383
100
AcDbScale
 70
     0
300
1:10
140
1.0
141
10.0
290
     0
  0
SCALE
  5
838A
102
{ACAD_REACTORS
330
8383
102
}
330
8383
100
AcDbScale
 70
     0
300
1:16
140
1.0
141
16.0
290
     0
  0
SCALE
  5
838B
102
{ACAD_REACTORS
330
8383
102
}
330
8383
100
AcDbScale
 70
     0
300
1:20
140
1.0
141
20.0
290
     0
  0
SCALE
  5
838C
102
{ACAD_REACTORS
330
8383
102
}
330
8383
100
AcDbScale
 70
     0
300
1:30
140
1.0
141
30.0
290
     0
  0
SCALE
  5
838D
102
{ACAD_REACTORS
330
8383
102
}
330
8383
100
AcDbScale
 70
     0
300
1:40
140
1.0
141
40.0
290
     0
  0
SCALE
  5
838E
102
{ACAD_REACTORS
330
8383
102
}
330
8383
100
AcDbScale
 70
     0
300
1:50
140
1.0
141
50.0
290
     0
  0
SCALE
  5
838F
102
{ACAD_REACTORS
330
8383
102
}
330
8383
100
AcDbScale
 70
     0
300
1:100
140
1.0
141
100.0
290
     0
  0
SCALE
  5
8390
102
{ACAD_REACTORS
330
8383
102
}
330
8383
100
AcDbScale
 70
     0
300
2:1
140
2.0
141
1.0
290
     0
  0
SCALE
  5
8391
102
{ACAD_REACTORS
330
8383
102
}
330
8383
100
AcDbScale
 70
     0
300
4:1
140
4.0
141
1.0
290
     0
  0
SCALE
  5
8392
102
{ACAD_REACTORS
330
8383
102
}
330
8383
100
AcDbScale
 70
     0
300
8:1
140
8.0
141
1.0
290
     0
  0
SCALE
  5
8393
102
{ACAD_REACTORS
330
8383
102
}
330
8383
100
AcDbScale
 70
     0
300
10:1
140
10.0
141
1.0
290
     0
  0
SCALE
  5
8394
102
{ACAD_REACTORS
330
8383
102
}
330
8383
100
AcDbScale
 70
     0
300
100:1
140
100.0
141
1.0
290
     0
  0
ACDBSECTIONVIEWSTYLE
  5
8398
102
{ACAD_XDICTIONARY
360
8412
102
}
102
{ACAD_REACTORS
330
8397
102
}
330
8397
100
AcDbModelDocViewStyle
 70
     0
  3
Metric50
290
     0
100
AcDbSectionViewStyle
 70
     0
 71
     0
 90
      102
 71
     1
340
10
 62
   256
 40
5.0
340
0
340
0
 62
   256
 40
5.0
300
I, O, Q, S, X, Z
 40
10.0
 90
        0
 40
2.5
 90
        0
 71
     2
340
15
 90
       25
 62
   256
340
15
 90
       50
 62
   256
 40
5.0
 40
2.5
 40
5.0
 71
     3
340
10
 62
   256
 40
5.0
 90
        0
 40
15.0
 90
        1
300
%<\AcVar ViewSectionStartId>%-%<\AcVar ViewSectionEndId>% (%<\AcVar ViewScale \f "%sn">%)
 71
     4
 62
   256
 62
   257
300
ANSI31
 40
1.0
 90
        0
290
     0
290
     0
 90
        6
 40
0.0
 40
1.570796326794896
 40
0.2617993877991494
 40
1.308996938995747
 40
-0.2617993877991494
 40
1.832595714594046
  0
TABLESTYLE
  5
8382
102
{ACAD_XDICTIONARY
360
8407
102
}
102
{ACAD_REACTORS
330
8381
102
}
330
8381
100
AcDbTableStyle
280
     0
  3
Standard
 70
     0
 71
     0
 40
1.5
 41
1.5
280
     0
281
     0
  7
STANDARD
140
4.5
170
     2
 62
     0
 63
     7
283
     0
 90
      512
 91
        0
  1

274
    -2
284
     1
 64
     0
275
    -2
285
     1
 65
     0
276
    -2
286
     1
 66
     0
277
    -2
287
     1
 67
     0
278
    -2
288
     1
 68
     0
279
    -2
289
     1
 69
     0
  7
STANDARD
140
6.0
170
     5
 62
     0
 63
     7
283
     0
 90
      512
 91
        0
  1

274
    -2
284
     1
 64
     0
275
    -2
285
     1
 65
     0
276
    -2
286
     1
 66
     0
277
    -2
287
     1
 67
     0
278
    -2
288
     1
 68
     0
279
    -2
289
     1
 69
     0
  7
STANDARD
140
4.5
170
     5
 62
     0
 63
     7
283
     0
 90
      512
 91
        0
  1

274
    -2
284
     1
 64
     0
275
    -2
285
     1
 65
     0
276
    -2
286
     1
 66
     0
277
    -2
287
     1
 67
     0
278
    -2
288
     1
 68
     0
279
    -2
289
     1
 69
     0
  0
VISUALSTYLE
  5
836D
102
{ACAD_REACTORS
330
8367
102
}
330
8367
100
AcDbVisualStyle
  2
2dWireframe
 70
     4
177
     3
291
     0
 70
    58
 90
        0
176
     1
 90
        2
176
     1
 90
        0
176
     1
 90
        0
176
     1
 40
0.6
176
     1
 40
30.0
176
     1
 62
     7
420
 16777215
176
     1
 90
        1
176
     1
 90
        4
176
     1
 62
     7
176
     1
 62
   257
176
     1
 90
        1
176
     1
 90
        1
176
     1
 40
1.0
176
     1
 90
        0
176
     1
 62
   257
176
     1
 40
1.0
176
     1
 90
        1
176
     1
 90
        6
176
     1
 90
        2
176
     1
 62
     7
176
     1
 90
        5
176
     1
 90
        0
176
     1
 90
        0
176
     1
290
     0
176
     1
 90
        1
176
     1
 40
0.0
176
     1
 90
        0
176
     1
290
     1
176
     1
290
     1
176
     1
290
     0
176
     1
290
     0
176
     1
290
     0
176
     1
290
     0
176
     1
290
     0
176
     1
290
     0
176
     1
290
     0
176
     1
 90
       50
176
     1
 40
0.0
176
     1
 40
1.0
176
     1
 90
        0
176
     1
 62
    18
420
        0
176
     1
 90
       50
176
     1
 90
        3
176
     1
 62
     5
420
      255
176
     1
290
     0
176
     1
 90
       50
176
     1
 90
       50
176
     1
 90
       50
176
     1
290
     0
176
     1
 90
       50
176
     1
 62
   256
176
     0
 40
1.0
176
     0
 90
        2
176
     1
  1
strokes_ogs.tif
176
     1
290
     0
176
     1
 40
1.0
176
     1
 40
1.0
176
     1
1001
ACAD
1000
AcDbSavedByObjectVersion
1070
     0
  0
VISUALSTYLE
  5
836C
102
{ACAD_REACTORS
330
8367
102
}
330
8367
100
AcDbVisualStyle
  2
Basic
 70
     7
177
     3
291
     1
 70
    58
 90
        1
176
     1
 90
        0
176
     1
 90
        1
176
     1
 90
        0
176
     1
 40
0.6
176
     1
 40
30.0
176
     1
 62
     7
420
 16777215
176
     1
 90
        0
176
     1
 90
        4
176
     1
 62
     7
176
     1
 62
   257
176
     1
 90
        1
176
     1
 90
        1
176
     1
 40
1.0
176
     1
 90
        8
176
     1
 62
     7
176
     1
 40
1.0
176
     1
 90
        1
176
     1
 90
        6
176
     1
 90
        2
176
     1
 62
     7
176
     1
 90
        5
176
     1
 90
        0
176
     1
 90
        0
176
     1
290
     0
176
     1
 90
        1
176
     1
 40
0.0
176
     1
 90
        0
176
     1
290
     0
176
     1
290
     1
176
     1
290
     1
176
     1
290
     0
176
     1
290
     0
176
     1
290
     0
176
     1
290
     0
176
     1
290
     0
176
     1
290
     0
176
     1
 90
       50
176
     1
 40
0.0
176
     1
 40
1.0
176
     1
 90
        0
176
     1
 62
    18
420
        0
176
     1
 90
       50
176
     1
 90
        3
176
     1
 62
     5
420
      255
176
     1
290
     0
176
     1
 90
       50
176
     1
 90
       50
176
     1
 90
       50
176
     1
290
     0
176
     1
 90
       50
176
     1
 62
   256
176
     0
 40
1.0
176
     0
 90
        2
176
     1
  1
strokes_ogs.tif
176
     1
290
     0
176
     1
 40
1.0
176
     1
 40
1.0
176
     1
1001
ACAD
1000
AcDbSavedByObjectVersion
1070
     0
  0
VISUALSTYLE
  5
8373
102
{ACAD_REACTORS
330
8367
102
}
330
8367
100
AcDbVisualStyle
  2
Brighten
 70
    12
177
     3
291
     1
 70
    58
 90
        2
176
     1
 90
        2
176
     1
 90
        0
176
     1
 90
        0
176
     1
 40
0.6
176
     1
 40
30.0
176
     1
 62
     7
420
 16777215
176
     1
 90
        1
176
     1
 90
        4
176
     1
 62
     7
176
     1
 62
   257
176
     1
 90
        1
176
     1
 90
        1
176
     1
 40
1.0
176
     1
 90
        8
176
     1
 62
     7
176
     1
 40
1.0
176
     1
 90
        1
176
     1
 90
        6
176
     1
 90
        2
176
     1
 62
     7
176
     1
 90
        5
176
     1
 90
        0
176
     1
 90
        0
176
     1
290
     0
176
     1
 90
        1
176
     1
 40
50.0
176
     1
 90
        0
176
     1
290
     0
176
     1
290
     1
176
     1
290
     1
176
     1
290
     0
176
     1
290
     0
176
     1
290
     0
176
     1
290
     0
176
     1
290
     0
176
     1
290
     0
176
     1
 90
       50
176
     1
 40
0.0
176
     1
 40
1.0
176
     1
 90
        0
176
     1
 62
    18
420
        0
176
     1
 90
       50
176
     1
 90
        3
176
     1
 62
     5
420
      255
176
     1
290
     0
176
     1
 90
       50
176
     1
 90
       50
176
     1
 90
       50
176
     1
290
     0
176
     1
 90
       50
176
     1
 62
   256
176
     0
 40
1.0
176
     0
 90
        2
176
     1
  1
strokes_ogs.tif
176
     1
290
     0
176
     1
 40
1.0
176
     1
 40
1.0
176
     1
1001
ACAD
1000
AcDbSavedByObjectVersion
1070
     0
  0
VISUALSTYLE
  5
8377
102
{ACAD_REACTORS
330
8367
102
}
330
8367
100
AcDbVisualStyle
  2
ColorChange
 70
    16
177
     3
291
     1
 70
    58
 90
        2
176
     1
 90
        2
176
     1
 90
        3
176
     1
 90
        0
176
     1
 40
0.6
176
     1
 40
30.0
176
     1
 62
     8
420
  8421504
176
     1
 90
        1
176
     1
 90
        4
176
     1
 62
     7
176
     1
 62
   257
176
     1
 90
        1
176
     1
 90
        1
176
     1
 40
1.0
176
     1
 90
        8
176
     1
 62
     8
420
  8421504
176
     1
 40
1.0
176
     1
 90
        1
176
     1
 90
        6
176
     1
 90
        2
176
     1
 62
     7
176
     1
 90
        5
176
     1
 90
        0
176
     1
 90
        0
176
     1
290
     0
176
     1
 90
        1
176
     1
 40
0.0
176
     1
 90
        0
176
     1
290
     0
176
     1
290
     1
176
     1
290
     1
176
     1
290
     0
176
     1
290
     0
176
     1
290
     0
176
     1
290
     0
176
     1
290
     0
176
     1
290
     0
176
     1
 90
       50
176
     1
 40
0.0
176
     1
 40
1.0
176
     1
 90
        0
176
     1
 62
    18
420
        0
176
     1
 90
       50
176
     1
 90
        3
176
     1
 62
     5
420
      255
176
     1
290
     0
176
     1
 90
       50
176
     1
 90
       50
176
     1
 90
       50
176
     1
290
     0
176
     1
 90
       50
176
     1
 62
   256
176
     0
 40
1.0
176
     0
 90
        2
176
     1
  1
strokes_ogs.tif
176
     1
290
     0
176
     1
 40
1.0
176
     1
 40
1.0
176
     1
1001
ACAD
1000
AcDbSavedByObjectVersion
1070
     0
  0
VISUALSTYLE
  5
8370
102
{ACAD_REACTORS
330
8367
102
}
330
8367
100
AcDbVisualStyle
  2
Conceptual
 70
     9
177
     3
291
     0
 70
    58
 90
        3
176
     1
 90
        2
176
     1
 90
        0
176
     1
 90
        0
176
     1
 40
0.6
176
     1
 40
30.0
176
     1
 62
     7
420
 16777215
176
     1
 90
        2
176
     1
 90
        2
176
     1
 62
     7
176
     1
 62
   257
176
     1
 90
        1
176
     1
 90
        1
176
     1
 40
179.0
176
     1
 90
        8
176
     1
 62
     7
176
     1
 40
1.0
176
     1
 90
        1
176
     1
 90
        6
176
     1
 90
        2
176
     1
 62
     7
176
     1
 90
        3
176
     1
 90
        0
176
     1
 90
        0
176
     1
290
     0
176
     1
 90
        1
176
     1
 40
0.0
176
     1
 90
        0
176
     1
290
     0
176
     1
290
     1
176
     1
290
     1
176
     1
290
     0
176
     1
290
     0
176
     1
290
     0
176
     1
290
     0
176
     1
290
     0
176
     1
290
     0
176
     1
 90
       50
176
     1
 40
0.0
176
     1
 40
1.0
176
     1
 90
        0
176
     1
 62
    18
420
        0
176
     1
 90
       50
176
     1
 90
        3
176
     1
 62
     5
420
      255
176
     1
290
     0
176
     1
 90
       50
176
     1
 90
       50
176
     1
 90
       50
176
     1
290
     0
176
     1
 90
       50
176
     1
 62
   256
176
     0
 40
1.0
176
     0
 90
        2
176
     1
  1
strokes_ogs.tif
176
     1
290
     0
176
     1
 40
1.0
176
     1
 40
1.0
176
     1
1001
ACAD
1000
AcDbSavedByObjectVersion
1070
     0
  0
VISUALSTYLE
  5
8372
102
{ACAD_REACTORS
330
8367
102
}
330
8367
100
AcDbVisualStyle
  2
Dim
 70
    11
177
     3
291
     1
 70
    58
 90
        2
176
     1
 90
        2
176
     1
 90
        0
176
     1
 90
        0
176
     1
 40
0.6
176
     1
 40
30.0
176
     1
 62
     7
420
 16777215
176
     1
 90
        1
176
     1
 90
        4
176
     1
 62
     7
176
     1
 62
   257
176
     1
 90
        1
176
     1
 90
        1
176
     1
 40
1.0
176
     1
 90
        8
176
     1
 62
     7
176
     1
 40
1.0
176
     1
 90
        1
176
     1
 90
        6
176
     1
 90
        2
176
     1
 62
     7
176
     1
 90
        5
176
     1
 90
        0
176
     1
 90
        0
176
     1
290
     0
176
     1
 90
        1
176
     1
 40
-50.0
176
     1
 90
        0
176
     1
290
     0
176
     1
290
     1
176
     1
290
     1
176
     1
290
     0
176
     1
290
     0
176
     1
290
     0
176
     1
290
     0
176
     1
290
     0
176
     1
290
     0
176
     1
 90
       50
176
     1
 40
0.0
176
     1
 40
1.0
176
     1
 90
        0
176
     1
 62
    18
420
        0
176
     1
 90
       50
176
     1
 90
        3
176
     1
 62
     5
420
      255
176
     1
290
     0
176
     1
 90
       50
176
     1
 90
       50
176
     1
 90
       50
176
     1
290
     0
176
     1
 90
       50
176
     1
 62
   256
176
     0
 40
1.0
176
     0
 90
        2
176
     1
  1
strokes_ogs.tif
176
     1
290
     0
176
     1
 40
1.0
176
     1
 40
1.0
176
     1
1001
ACAD
1000
AcDbSavedByObjectVersion
1070
     0
  0
VISUALSTYLE
  5
837F
102
{ACAD_REACTORS
330
8367
102
}
330
8367
100
AcDbVisualStyle
  2
EdgeColorOff
 70
    22
177
     3
291
     1
 70
    58
 90
        2
176
     0
 90
        2
176
     0
 90
        0
176
     0
 90
        0
176
     0
 40
0.6
176
     0
 40
30.0
176
     0
 62
     7
420
 16777215
176
     0
 90
        1
176
     0
 90
        4
176
     0
 62
     7
176
     0
 62
   257
176
     0
 90
        1
176
     0
 90
        1
176
     0
 40
1.0
176
     0
 90
        8
176
     2
 62
     7
176
     0
 40
1.0
176
     0
 90
        1
176
     0
 90
        6
176
     0
 90
        2
176
     0
 62
     7
176
     0
 90
        5
176
     0
 90
        0
176
     0
 90
        0
176
     0
290
     0
176
     0
 90
        1
176
     0
 40
0.0
176
     0
 90
        0
176
     0
290
     0
176
     0
290
     1
176
     0
290
     1
176
     0
290
     0
176
     0
290
     0
176
     0
290
     0
176
     0
290
     0
176
     0
290
     0
176
     0
290
     0
176
     0
 90
       50
176
     0
 40
0.0
176
     0
 40
1.0
176
     0
 90
        0
176
     0
 62
    18
420
        0
176
     0
 90
       50
176
     0
 90
        3
176
     0
 62
     5
420
      255
176
     0
290
     0
176
     0
 90
       50
176
     0
 90
       50
176
     0
 90
       50
176
     0
290
     0
176
     0
 90
       50
176
     0
 62
   256
176
     0
 40
1.0
176
     0
 90
        2
176
     0
  1
strokes_ogs.tif
176
     0
290
     0
176
     0
 40
1.0
176
     0
 40
1.0
176
     0
1001
ACAD
1000
AcDbSavedByObjectVersion
1070
     0
  0
VISUALSTYLE
  5
8376
102
{ACAD_REACTORS
330
8367
102
}
330
8367
100
AcDbVisualStyle
  2
Facepattern
 70
    15
177
     3
291
     1
 70
    58
 90
        2
176
     1
 90
        2
176
     1
 90
        0
176
     1
 90
        0
176
     1
 40
0.6
176
     1
 40
30.0
176
     1
 62
     7
420
 16777215
176
     1
 90
        1
176
     1
 90
        4
176
     1
 62
     7
176
     1
 62
   257
176
     1
 90
        1
176
     1
 90
        1
176
     1
 40
1.0
176
     1
 90
        8
176
     1
 62
     7
176
     1
 40
1.0
176
     1
 90
        1
176
     1
 90
        6
176
     1
 90
        2
176
     1
 62
     7
176
     1
 90
        5
176
     1
 90
        0
176
     1
 90
        0
176
     1
290
     0
176
     1
 90
        1
176
     1
 40
0.0
176
     1
 90
        0
176
     1
290
     0
176
     1
290
     1
176
     1
290
     1
176
     1
290
     0
176
     1
290
     0
176
     1
290
     0
176
     1
290
     0
176
     1
290
     0
176
     1
290
     0
176
     1
 90
       50
176
     1
 40
0.0
176
     1
 40
1.0
176
     1
 90
        0
176
     1
 62
    18
420
        0
176
     1
 90
       50
176
     1
 90
        3
176
     1
 62
     5
420
      255
176
     1
290
     0
176
     1
 90
       50
176
     1
 90
       50
176
     1
 90
       50
176
     1
290
     0
176
     1
 90
       50
176
     1
 62
   256
176
     0
 40
1.0
176
     0
 90
        2
176
     1
  1
strokes_ogs.tif
176
     1
290
     0
176
     1
 40
1.0
176
     1
 40
1.0
176
     1
1001
ACAD
1000
AcDbSavedByObjectVersion
1070
     0
  0
VISUALSTYLE
  5
8368
102
{ACAD_REACTORS
330
8367
102
}
330
8367
100
AcDbVisualStyle
  2
Flat
 70
     0
177
     3
291
     1
 70
    58
 90
        2
176
     1
 90
        1
176
     1
 90
        1
176
     1
 90
        2
176
     1
 40
0.6
176
     1
 40
30.0
176
     1
 62
     7
420
 16777215
176
     1
 90
        0
176
     1
 90
        0
176
     1
 62
     7
176
     1
 62
   257
176
     1
 90
        1
176
     1
 90
        1
176
     1
 40
1.0
176
     1
 90
        8
176
     1
 62
     7
176
     1
 40
1.0
176
     1
 90
        1
176
     1
 90
        6
176
     1
 90
        2
176
     1
 62
     7
176
     1
 90
        5
176
     1
 90
        0
176
     1
 90
        0
176
     1
290
     0
176
     1
 90
       13
176
     1
 40
0.0
176
     1
 90
        0
176
     1
290
     0
176
     1
290
     1
176
     1
290
     1
176
     1
290
     0
176
     1
290
     0
176
     1
290
     0
176
     1
290
     0
176
     1
290
     0
176
     1
290
     0
176
     1
 90
       50
176
     1
 40
0.0
176
     1
 40
1.0
176
     1
 90
        0
176
     1
 62
    18
420
        0
176
     1
 90
       50
176
     1
 90
        3
176
     1
 62
     5
420
      255
176
     1
290
     0
176
     1
 90
       50
176
     1
 90
       50
176
     1
 90
       50
176
     1
290
     0
176
     1
 90
       50
176
     1
 62
   256
176
     0
 40
1.0
176
     0
 90
        2
176
     1
  1
strokes_ogs.tif
176
     1
290
     0
176
     1
 40
1.0
176
     1
 40
1.0
176
     1
1001
ACAD
1000
AcDbSavedByObjectVersion
1070
     0
  0
VISUALSTYLE
  5
8369
102
{ACAD_REACTORS
330
8367
102
}
330
8367
100
AcDbVisualStyle
  2
FlatWithEdges
 70
     1
177
     3
291
     1
 70
    58
 90
        2
176
     1
 90
        1
176
     1
 90
        1
176
     1
 90
        2
176
     1
 40
0.6
176
     1
 40
30.0
176
     1
 62
     7
420
 16777215
176
     1
 90
        1
176
     1
 90
        0
176
     1
 62
     7
176
     1
 62
   257
176
     1
 90
        1
176
     1
 90
        1
176
     1
 40
1.0
176
     1
 90
        0
176
     1
 62
   257
176
     1
 40
1.0
176
     1
 90
        1
176
     1
 90
        6
176
     1
 90
        2
176
     1
 62
     7
176
     1
 90
        5
176
     1
 90
        0
176
     1
 90
        0
176
     1
290
     0
176
     1
 90
       13
176
     1
 40
0.0
176
     1
 90
        0
176
     1
290
     0
176
     1
290
     1
176
     1
290
     1
176
     1
290
     0
176
     1
290
     0
176
     1
290
     0
176
     1
290
     0
176
     1
290
     0
176
     1
290
     0
176
     1
 90
       50
176
     1
 40
0.0
176
     1
 40
1.0
176
     1
 90
        0
176
     1
 62
    18
420
        0
176
     1
 90
       50
176
     1
 90
        3
176
     1
 62
     5
420
      255
176
     1
290
     0
176
     1
 90
       50
176
     1
 90
       50
176
     1
 90
       50
176
     1
290
     0
176
     1
 90
       50
176
     1
 62
   256
176
     0
 40
1.0
176
     0
 90
        2
176
     1
  1
strokes_ogs.tif
176
     1
290
     0
176
     1
 40
1.0
176
     1
 40
1.0
176
     1
1001
ACAD
1000
AcDbSavedByObjectVersion
1070
     0
  0
VISUALSTYLE
  5
836A
102
{ACAD_REACTORS
330
8367
102
}
330
8367
100
AcDbVisualStyle
  2
Gouraud
 70
     2
177
     3
291
     1
 70
    58
 90
        2
176
     1
 90
        2
176
     1
 90
        1
176
     1
 90
        2
176
     1
 40
0.6
176
     1
 40
30.0
176
     1
 62
     7
420
 16777215
176
     1
 90
        0
176
     1
 90
        0
176
     1
 62
     7
176
     1
 62
   257
176
     1
 90
        1
176
     1
 90
        1
176
     1
 40
1.0
176
     1
 90
        0
176
     1
 62
     7
176
     1
 40
1.0
176
     1
 90
        1
176
     1
 90
        6
176
     1
 90
        2
176
     1
 62
     7
176
     1
 90
        5
176
     1
 90
        0
176
     1
 90
        0
176
     1
290
     0
176
     1
 90
       13
176
     1
 40
0.0
176
     1
 90
        0
176
     1
290
     0
176
     1
290
     1
176
     1
290
     1
176
     1
290
     0
176
     1
290
     0
176
     1
290
     0
176
     1
290
     0
176
     1
290
     0
176
     1
290
     0
176
     1
 90
       50
176
     1
 40
0.0
176
     1
 40
1.0
176
     1
 90
        0
176
     1
 62
    18
420
        0
176
     1
 90
       50
176
     1
 90
        3
176
     1
 62
     5
420
      255
176
     1
290
     0
176
     1
 90
       50
176
     1
 90
       50
176
     1
 90
       50
176
     1
290
     0
176
     1
 90
       50
176
     1
 62
   256
176
     0
 40
1.0
176
     0
 90
        2
176
     1
  1
strokes_ogs.tif
176
     1
290
     0
176
     1
 40
1.0
176
     1
 40
1.0
176
     1
1001
ACAD
1000
AcDbSavedByObjectVersion
1070
     0
  0
VISUALSTYLE
  5
836B
102
{ACAD_REACTORS
330
8367
102
}
330
8367
100
AcDbVisualStyle
  2
GouraudWithEdges
 70
     3
177
     3
291
     1
 70
    58
 90
        2
176
     1
 90
        2
176
     1
 90
        1
176
     1
 90
        2
176
     1
 40
0.6
176
     1
 40
30.0
176
     1
 62
     7
420
 16777215
176
     1
 90
        1
176
     1
 90
        0
176
     1
 62
     7
176
     1
 62
   257
176
     1
 90
        1
176
     1
 90
        1
176
     1
 40
1.0
176
     1
 90
        0
176
     1
 62
   257
176
     1
 40
1.0
176
     1
 90
        1
176
     1
 90
        6
176
     1
 90
        2
176
     1
 62
     7
176
     1
 90
        5
176
     1
 90
        0
176
     1
 90
        0
176
     1
290
     0
176
     1
 90
       13
176
     1
 40
0.0
176
     1
 90
        0
176
     1
290
     0
176
     1
290
     1
176
     1
290
     1
176
     1
290
     0
176
     1
290
     0
176
     1
290
     0
176
     1
290
     0
176
     1
290
     0
176
     1
290
     0
176
     1
 90
       50
176
     1
 40
0.0
176
     1
 40
1.0
176
     1
 90
        0
176
     1
 62
    18
420
        0
176
     1
 90
       50
176
     1
 90
        3
176
     1
 62
     5
420
      255
176
     1
290
     0
176
     1
 90
       50
176
     1
 90
       50
176
     1
 90
       50
176
     1
290
     0
176
     1
 90
       50
176
     1
 62
   256
176
     0
 40
1.0
176
     0
 90
        2
176
     1
  1
strokes_ogs.tif
176
     1
290
     0
176
     1
 40
1.0
176
     1
 40
1.0
176
     1
1001
ACAD
1000
AcDbSavedByObjectVersion
1070
     0
  0
VISUALSTYLE
  5
836F
102
{ACAD_REACTORS
330
8367
102
}
330
8367
100
AcDbVisualStyle
  2
Hidden
 70
     6
177
     3
291
     0
 70
    58
 90
        1
176
     1
 90
        2
176
     1
 90
        2
176
     1
 90
        0
176
     1
 40
0.6
176
     1
 40
30.0
176
     1
 62
     7
420
 16777215
176
     1
 90
        2
176
     1
 90
        2
176
     1
 62
     7
176
     1
 62
   257
176
     1
 90
        2
176
     1
 90
        1
176
     1
 40
40.0
176
     1
 90
        0
176
     1
 62
   257
176
     1
 40
1.0
176
     1
 90
        1
176
     1
 90
        6
176
     1
 90
        2
176
     1
 62
     7
176
     1
 90
        3
176
     1
 90
        0
176
     1
 90
        0
176
     1
290
     0
176
     1
 90
        1
176
     1
 40
0.0
176
     1
 90
        0
176
     1
290
     0
176
     1
290
     1
176
     1
290
     1
176
     1
290
     0
176
     1
290
     0
176
     1
290
     0
176
     1
290
     0
176
     1
290
     0
176
     1
290
     0
176
     1
 90
       50
176
     1
 40
0.0
176
     1
 40
1.0
176
     1
 90
        0
176
     1
 62
    18
420
        0
176
     1
 90
       50
176
     1
 90
        3
176
     1
 62
     5
420
      255
176
     1
290
     0
176
     1
 90
       50
176
     1
 90
       50
176
     1
 90
       50
176
     1
290
     0
176
     1
 90
       50
176
     1
 62
   256
176
     0
 40
1.0
176
     0
 90
        2
176
     1
  1
strokes_ogs.tif
176
     1
290
     0
176
     1
 40
1.0
176
     1
 40
1.0
176
     1
1001
ACAD
1000
AcDbSavedByObjectVersion
1070
     0
  0
VISUALSTYLE
  5
837D
102
{ACAD_REACTORS
330
8367
102
}
330
8367
100
AcDbVisualStyle
  2
JitterOff
 70
    20
177
     3
291
     1
 70
    58
 90
        2
176
     0
 90
        2
176
     0
 90
        0
176
     0
 90
        0
176
     0
 40
0.6
176
     0
 40
30.0
176
     0
 62
     7
420
 16777215
176
     0
 90
        1
176
     0
 90
        4
176
     0
 62
     7
176
     0
 62
   257
176
     0
 90
        1
176
     0
 90
        1
176
     0
 40
1.0
176
     0
 90
       10
176
     2
 62
     7
176
     0
 40
1.0
176
     0
 90
        1
176
     0
 90
        6
176
     0
 90
        2
176
     0
 62
     7
176
     0
 90
        5
176
     0
 90
        0
176
     0
 90
        0
176
     0
290
     0
176
     0
 90
        1
176
     0
 40
0.0
176
     0
 90
        0
176
     0
290
     0
176
     0
290
     1
176
     0
290
     1
176
     0
290
     0
176
     0
290
     0
176
     0
290
     0
176
     0
290
     0
176
     0
290
     0
176
     0
290
     0
176
     0
 90
       50
176
     0
 40
0.0
176
     0
 40
1.0
176
     0
 90
        0
176
     0
 62
    18
420
        0
176
     0
 90
       50
176
     0
 90
        3
176
     0
 62
     5
420
      255
176
     0
290
     0
176
     0
 90
       50
176
     0
 90
       50
176
     0
 90
       50
176
     0
290
     0
176
     0
 90
       50
176
     0
 62
   256
176
     0
 40
1.0
176
     0
 90
        2
176
     0
  1
strokes_ogs.tif
176
     0
290
     0
176
     0
 40
1.0
176
     0
 40
1.0
176
     0
1001
ACAD
1000
AcDbSavedByObjectVersion
1070
     0
  0
VISUALSTYLE
  5
8375
102
{ACAD_REACTORS
330
8367
102
}
330
8367
100
AcDbVisualStyle
  2
Linepattern
 70
    14
177
     3
291
     1
 70
    58
 90
        2
176
     1
 90
        2
176
     1
 90
        0
176
     1
 90
        0
176
     1
 40
0.6
176
     1
 40
30.0
176
     1
 62
     7
420
 16777215
176
     1
 90
        1
176
     1
 90
        4
176
     1
 62
     7
176
     1
 62
   257
176
     1
 90
        7
176
     1
 90
        7
176
     1
 40
1.0
176
     1
 90
        8
176
     1
 62
     7
176
     1
 40
1.0
176
     1
 90
        1
176
     1
 90
        6
176
     1
 90
        2
176
     1
 62
     7
176
     1
 90
        5
176
     1
 90
        0
176
     1
 90
        0
176
     1
290
     0
176
     1
 90
        1
176
     1
 40
0.0
176
     1
 90
        0
176
     1
290
     0
176
     1
290
     1
176
     1
290
     1
176
     1
290
     0
176
     1
290
     0
176
     1
290
     0
176
     1
290
     0
176
     1
290
     0
176
     1
290
     0
176
     1
 90
       50
176
     1
 40
0.0
176
     1
 40
1.0
176
     1
 90
        0
176
     1
 62
    18
420
        0
176
     1
 90
       50
176
     1
 90
        3
176
     1
 62
     5
420
      255
176
     1
290
     0
176
     1
 90
       50
176
     1
 90
       50
176
     1
 90
       50
176
     1
290
     0
176
     1
 90
       50
176
     1
 62
   256
176
     0
 40
1.0
176
     0
 90
        2
176
     1
  1
strokes_ogs.tif
176
     1
290
     0
176
     1
 40
1.0
176
     1
 40
1.0
176
     1
1001
ACAD
1000
AcDbSavedByObjectVersion
1070
     0
  0
VISUALSTYLE
  5
837E
102
{ACAD_REACTORS
330
8367
102
}
330
8367
100
AcDbVisualStyle
  2
OverhangOff
 70
    21
177
     3
291
     1
 70
    58
 90
        2
176
     0
 90
        2
176
     0
 90
        0
176
     0
 90
        0
176
     0
 40
0.6
176
     0
 40
30.0
176
     0
 62
     7
420
 16777215
176
     0
 90
        1
176
     0
 90
        4
176
     0
 62
     7
176
     0
 62
   257
176
     0
 90
        1
176
     0
 90
        1
176
     0
 40
1.0
176
     0
 90
        9
176
     2
 62
     7
176
     0
 40
1.0
176
     0
 90
        1
176
     0
 90
        6
176
     0
 90
        2
176
     0
 62
     7
176
     0
 90
        5
176
     0
 90
        0
176
     0
 90
        0
176
     0
290
     0
176
     0
 90
        1
176
     0
 40
0.0
176
     0
 90
        0
176
     0
290
     0
176
     0
290
     1
176
     0
290
     1
176
     0
290
     0
176
     0
290
     0
176
     0
290
     0
176
     0
290
     0
176
     0
290
     0
176
     0
290
     0
176
     0
 90
       50
176
     0
 40
0.0
176
     0
 40
1.0
176
     0
 90
        0
176
     0
 62
    18
420
        0
176
     0
 90
       50
176
     0
 90
        3
176
     0
 62
     5
420
      255
176
     0
290
     0
176
     0
 90
       50
176
     0
 90
       50
176
     0
 90
       50
176
     0
290
     0
176
     0
 90
       50
176
     0
 62
   256
176
     0
 40
1.0
176
     0
 90
        2
176
     0
  1
strokes_ogs.tif
176
     0
290
     0
176
     0
 40
1.0
176
     0
 40
1.0
176
     0
1001
ACAD
1000
AcDbSavedByObjectVersion
1070
     0
  0
VISUALSTYLE
  5
8371
102
{ACAD_REACTORS
330
8367
102
}
330
8367
100
AcDbVisualStyle
  2
Realistic
 70
     8
177
     3
291
     0
 70
    58
 90
        2
176
     1
 90
        3
176
     1
 90
        0
176
     1
 90
        2
176
     1
 40
0.6
176
     1
 40
30.0
176
     1
 62
     7
420
 16777215
176
     1
 90
        0
176
     1
 90
        0
176
     1
 62
     7
176
     1
 62
   257
176
     1
 90
        1
176
     1
 90
        1
176
     1
 40
1.0
176
     1
 90
        8
176
     1
 62
   257
176
     1
 40
1.0
176
     1
 90
        1
176
     1
 90
        6
176
     1
 90
        2
176
     1
 62
     7
176
     1
 90
        3
176
     1
 90
        0
176
     1
 90
        0
176
     1
290
     0
176
     1
 90
       13
176
     1
 40
0.0
176
     1
 90
        0
176
     1
290
     0
176
     1
290
     1
176
     1
290
     1
176
     1
290
     0
176
     1
290
     0
176
     1
290
     0
176
     1
290
     0
176
     1
290
     0
176
     1
290
     0
176
     1
 90
       50
176
     1
 40
0.0
176
     1
 40
1.0
176
     1
 90
        0
176
     1
 62
    18
420
        0
176
     1
 90
       50
176
     1
 90
        3
176
     1
 62
     5
420
      255
176
     1
290
     0
176
     1
 90
       50
176
     1
 90
       50
176
     1
 90
       50
176
     1
290
     0
176
     1
 90
       50
176
     1
 62
   256
176
     0
 40
1.0
176
     0
 90
        2
176
     1
  1
strokes_ogs.tif
176
     1
290
     0
176
     1
 40
1.0
176
     1
 40
1.0
176
     1
1001
ACAD
1000
AcDbSavedByObjectVersion
1070
     0
  0
VISUALSTYLE
  5
837C
102
{ACAD_REACTORS
330
8367
102
}
330
8367
100
AcDbVisualStyle
  2
Shaded
 70
    27
177
     3
291
     0
 70
    58
 90
        2
176
     1
 90
        2
176
     1
 90
        1
176
     1
 90
        2
176
     1
 40
0.6
176
     1
 40
30.0
176
     1
 62
     7
420
 16777215
176
     1
 90
        0
176
     1
 90
        4
176
     1
 62
     7
176
     1
 62
   257
176
     1
 90
        1
176
     1
 90
        1
176
     1
 40
1.0
176
     1
 90
        8
176
     1
 62
   257
176
     1
 40
1.0
176
     1
 90
        1
176
     1
 90
        6
176
     1
 90
        2
176
     1
 62
     8
420
  7895160
176
     1
 90
        3
176
     1
 90
        0
176
     1
 90
        0
176
     1
290
     0
176
     1
 90
        5
176
     1
 40
0.0
176
     1
 90
        0
176
     1
290
     0
176
     1
290
     1
176
     1
290
     1
176
     1
290
     0
176
     1
290
     0
176
     1
290
     0
176
     1
290
     0
176
     1
290
     0
176
     1
290
     0
176
     1
 90
       50
176
     1
 40
0.0
176
     1
 40
1.0
176
     1
 90
        0
176
     1
 62
    18
420
        0
176
     1
 90
       50
176
     1
 90
        3
176
     1
 62
     5
420
      255
176
     1
290
     0
176
     1
 90
       50
176
     1
 90
       50
176
     1
 90
       50
176
     1
290
     0
176
     1
 90
       50
176
     1
 62
   256
176
     0
 40
1.0
176
     0
 90
        2
176
     1
  1
strokes_ogs.tif
176
     1
290
     0
176
     1
 40
1.0
176
     1
 40
1.0
176
     1
1001
ACAD
1000
AcDbSavedByObjectVersion
1070
     0
  0
VISUALSTYLE
  5
837B
102
{ACAD_REACTORS
330
8367
102
}
330
8367
100
AcDbVisualStyle
  2
Shaded with edges
 70
    26
177
     3
291
     0
 70
    58
 90
        2
176
     1
 90
        2
176
     1
 90
        1
176
     1
 90
        2
176
     1
 40
0.6
176
     1
 40
30.0
176
     1
 62
     7
420
 16777215
176
     1
 90
        1
176
     1
 90
        2
176
     1
 62
     7
176
     1
 62
   257
176
     1
 90
        2
176
     1
 90
        1
176
     1
 40
1.0
176
     1
 90
        8
176
     1
 62
   257
176
     1
 40
1.0
176
     1
 90
        1
176
     1
 90
        6
176
     1
 90
        2
176
     1
 62
     7
176
     1
 90
        3
176
     1
 90
        0
176
     1
 90
        0
176
     1
290
     0
176
     1
 90
        5
176
     1
 40
0.0
176
     1
 90
        0
176
     1
290
     0
176
     1
290
     1
176
     1
290
     1
176
     1
290
     0
176
     1
290
     0
176
     1
290
     0
176
     1
290
     0
176
     1
290
     0
176
     1
290
     0
176
     1
 90
       50
176
     1
 40
0.0
176
     1
 40
1.0
176
     1
 90
        0
176
     1
 62
    18
420
        0
176
     1
 90
       50
176
     1
 90
        3
176
     1
 62
     5
420
      255
176
     1
290
     0
176
     1
 90
       50
176
     1
 90
       50
176
     1
 90
       50
176
     1
290
     0
176
     1
 90
       50
176
     1
 62
   256
176
     0
 40
1.0
176
     0
 90
        2
176
     1
  1
strokes_ogs.tif
176
     1
290
     0
176
     1
 40
1.0
176
     1
 40
1.0
176
     1
1001
ACAD
1000
AcDbSavedByObjectVersion
1070
     0
  0
VISUALSTYLE
  5
8378
102
{ACAD_REACTORS
330
8367
102
}
330
8367
100
AcDbVisualStyle
  2
Shades of Gray
 70
    23
177
     3
291
     0
 70
    58
 90
        2
176
     1
 90
        2
176
     1
 90
        3
176
     1
 90
        0
176
     1
 40
0.6
176
     1
 40
30.0
176
     1
 62
     7
420
 16777215
176
     1
 90
        2
176
     1
 90
        2
176
     1
 62
     7
176
     1
 62
     7
176
     1
 90
        1
176
     1
 90
        1
176
     1
 40
40.0
176
     1
 90
        8
176
     1
 62
     7
176
     1
 40
1.0
176
     1
 90
        1
176
     1
 90
        6
176
     1
 90
        2
176
     1
 62
     7
176
     1
 90
        3
176
     1
 90
        0
176
     1
 90
        0
176
     1
290
     0
176
     1
 90
        1
176
     1
 40
0.0
176
     1
 90
        0
176
     1
290
     0
176
     1
290
     1
176
     1
290
     1
176
     1
290
     0
176
     1
290
     0
176
     1
290
     0
176
     1
290
     0
176
     1
290
     0
176
     1
290
     0
176
     1
 90
       50
176
     1
 40
0.0
176
     1
 40
1.0
176
     1
 90
        0
176
     1
 62
    18
420
        0
176
     1
 90
       50
176
     1
 90
        3
176
     1
 62
     5
420
      255
176
     1
290
     0
176
     1
 90
       50
176
     1
 90
       50
176
     1
 90
       50
176
     1
290
     0
176
     1
 90
       50
176
     1
 62
   256
176
     0
 40
1.0
176
     0
 90
        2
176
     1
  1
strokes_ogs.tif
176
     1
290
     0
176
     1
 40
1.0
176
     1
 40
1.0
176
     1
1001
ACAD
1000
AcDbSavedByObjectVersion
1070
     0
  0
VISUALSTYLE
  5
8379
102
{ACAD_REACTORS
330
8367
102
}
330
8367
100
AcDbVisualStyle
  2
Sketchy
 70
    24
177
     3
291
     0
 70
    58
 90
        1
176
     1
 90
        2
176
     1
 90
        2
176
     1
 90
        0
176
     1
 40
0.6
176
     1
 40
30.0
176
     1
 62
     7
420
 16777215
176
     1
 90
        2
176
     1
 90
        2
176
     1
 62
     7
176
     1
 62
     7
176
     1
 90
        1
176
     1
 90
        1
176
     1
 40
40.0
176
     1
 90
       11
176
     1
 62
     7
176
     1
 40
1.0
176
     1
 90
        1
176
     1
 90
        6
176
     1
 90
        2
176
     1
 62
     7
176
     1
 90
        6
176
     1
 90
        0
176
     1
 90
        0
176
     1
290
     0
176
     1
 90
        1
176
     1
 40
0.0
176
     1
 90
        0
176
     1
290
     0
176
     1
290
     1
176
     1
290
     1
176
     1
290
     0
176
     1
290
     0
176
     1
290
     0
176
     1
290
     0
176
     1
290
     0
176
     1
290
     0
176
     1
 90
       50
176
     1
 40
0.0
176
     1
 40
1.0
176
     1
 90
        0
176
     1
 62
    18
420
        0
176
     1
 90
       50
176
     1
 90
        3
176
     1
 62
     5
420
      255
176
     1
290
     0
176
     1
 90
       50
176
     1
 90
       50
176
     1
 90
       50
176
     1
290
     0
176
     1
 90
       50
176
     1
 62
   256
176
     0
 40
1.0
176
     0
 90
        2
176
     1
  1
strokes_ogs.tif
176
     1
290
     0
176
     1
 40
1.0
176
     1
 40
1.0
176
     1
1001
ACAD
1000
AcDbSavedByObjectVersion
1070
     0
  0
VISUALSTYLE
  5
8374
102
{ACAD_REACTORS
330
8367
102
}
330
8367
100
AcDbVisualStyle
  2
Thicken
 70
    13
177
     3
291
     1
 70
    58
 90
        2
176
     1
 90
        2
176
     1
 90
        0
176
     1
 90
        0
176
     1
 40
0.6
176
     1
 40
30.0
176
     1
 62
     7
420
 16777215
176
     1
 90
        1
176
     1
 90
        4
176
     1
 62
     7
176
     1
 62
   257
176
     1
 90
        1
176
     1
 90
        1
176
     1
 40
1.0
176
     1
 90
       12
176
     1
 62
     7
176
     1
 40
1.0
176
     1
 90
        1
176
     1
 90
        6
176
     1
 90
        2
176
     1
 62
     7
176
     1
 90
        5
176
     1
 90
        0
176
     1
 90
        0
176
     1
290
     0
176
     1
 90
        1
176
     1
 40
0.0
176
     1
 90
        0
176
     1
290
     0
176
     1
290
     1
176
     1
290
     1
176
     1
290
     0
176
     1
290
     0
176
     1
290
     0
176
     1
290
     0
176
     1
290
     0
176
     1
290
     0
176
     1
 90
       50
176
     1
 40
0.0
176
     1
 40
1.0
176
     1
 90
        0
176
     1
 62
    18
420
        0
176
     1
 90
       50
176
     1
 90
        3
176
     1
 62
     5
420
      255
176
     1
290
     0
176
     1
 90
       50
176
     1
 90
       50
176
     1
 90
       50
176
     1
290
     0
176
     1
 90
       50
176
     1
 62
   256
176
     0
 40
1.0
176
     0
 90
        2
176
     1
  1
strokes_ogs.tif
176
     1
290
     0
176
     1
 40
1.0
176
     1
 40
1.0
176
     1
1001
ACAD
1000
AcDbSavedByObjectVersion
1070
     0
  0
VISUALSTYLE
  5
836E
102
{ACAD_REACTORS
330
8367
102
}
330
8367
100
AcDbVisualStyle
  2
Wireframe
 70
     5
177
     3
291
     0
 70
    58
 90
        0
176
     1
 90
        2
176
     1
 90
        0
176
     1
 90
        0
176
     1
 40
0.6
176
     1
 40
30.0
176
     1
 62
     7
420
 16777215
176
     1
 90
        1
176
     1
 90
        4
176
     1
 62
     7
176
     1
 62
   257
176
     1
 90
        1
176
     1
 90
        1
176
     1
 40
1.0
176
     1
 90
        0
176
     1
 62
   257
176
     1
 40
1.0
176
     1
 90
        1
176
     1
 90
        6
176
     1
 90
        2
176
     1
 62
     7
176
     1
 90
        3
176
     1
 90
        0
176
     1
 90
        0
176
     1
290
     0
176
     1
 90
        1
176
     1
 40
0.0
176
     1
 90
        0
176
     1
290
     0
176
     1
290
     1
176
     1
290
     1
176
     1
290
     0
176
     1
290
     0
176
     1
290
     0
176
     1
290
     0
176
     1
290
     0
176
     1
290
     0
176
     1
 90
       50
176
     1
 40
0.0
176
     1
 40
1.0
176
     1
 90
        0
176
     1
 62
    18
420
        0
176
     1
 90
       50
176
     1
 90
        3
176
     1
 62
     5
420
      255
176
     1
290
     0
176
     1
 90
       50
176
     1
 90
       50
176
     1
 90
       50
176
     1
290
     0
176
     1
 90
       50
176
     1
 62
   256
176
     0
 40
1.0
176
     0
 90
        2
176
     1
  1
strokes_ogs.tif
176
     1
290
     0
176
     1
 40
1.0
176
     1
 40
1.0
176
     1
1001
ACAD
1000
AcDbSavedByObjectVersion
1070
     0
  0
VISUALSTYLE
  5
837A
102
{ACAD_REACTORS
330
8367
102
}
330
8367
100
AcDbVisualStyle
  2
X-Ray
 70
    25
177
     3
291
     0
 70
    58
 90
        2
176
     1
 90
        2
176
     1
 90
        1
176
     1
 90
        1
176
     1
 40
0.5
176
     1
 40
30.0
176
     1
 62
     7
420
 16777215
176
     1
 90
        1
176
     1
 90
        0
176
     1
 62
     7
176
     1
 62
   257
176
     1
 90
        1
176
     1
 90
        1
176
     1
 40
1.0
176
     1
 90
        8
176
     1
 62
     7
176
     1
 40
1.0
176
     1
 90
        1
176
     1
 90
        6
176
     1
 90
        2
176
     1
 62
     7
176
     1
 90
        3
176
     1
 90
        0
176
     1
 90
        0
176
     1
290
     0
176
     1
 90
       13
176
     1
 40
0.0
176
     1
 90
        0
176
     1
290
     0
176
     1
290
     1
176
     1
290
     1
176
     1
290
     0
176
     1
290
     0
176
     1
290
     0
176
     1
290
     0
176
     1
290
     0
176
     1
290
     0
176
     1
 90
       50
176
     1
 40
0.0
176
     1
 40
1.0
176
     1
 90
        0
176
     1
 62
    18
420
        0
176
     1
 90
       50
176
     1
 90
        3
176
     1
 62
     5
420
      255
176
     1
290
     0
176
     1
 90
       50
176
     1
 90
       50
176
     1
 90
       50
176
     1
290
     0
176
     1
 90
       50
176
     1
 62
   256
176
     0
 40
1.0
176
     0
 90
        2
176
     1
  1
strokes_ogs.tif
176
     1
290
     0
176
     1
 40
1.0
176
     1
 40
1.0
176
     1
1001
ACAD
1000
AcDbSavedByObjectVersion
1070
     0
  0
DICTIONARYVAR
  5
83FE
102
{ACAD_REACTORS
330
8345
102
}
330
8345
100
DictionaryVariables
280
     0
  1
1:1
  0
DICTIONARYVAR
  5
83FA
102
{ACAD_REACTORS
330
8345
102
}
330
8345
100
DictionaryVariables
280
     0
  1
STANDARD
  0
DICTIONARYVAR
  5
83F9
102
{ACAD_REACTORS
330
8345
102
}
330
8345
100
DictionaryVariables
280
     0
  1
STANDARD
  0
DICTIONARYVAR
  5
83FB
102
{ACAD_REACTORS
330
8345
102
}
330
8345
100
DictionaryVariables
280
     0
  1
Metric50
  0
DICTIONARYVAR
  5
83FC
102
{ACAD_REACTORS
330
8345
102
}
330
8345
100
DictionaryVariables
280
     0
  1
Metric50
  0
DICTIONARYVAR
  5
8346
102
{ACAD_REACTORS
330
8345
102
}
330
8345
100
DictionaryVariables
280
     0
  1
1
  0
DICTIONARYVAR
  5
8400
102
{ACAD_REACTORS
330
8345
102
}
330
8345
100
DictionaryVariables
280
     0
  1
1
  0
DICTIONARYVAR
  5
8401
102
{ACAD_REACTORS
330
8345
102
}
330
8345
100
DictionaryVariables
280
     0
  1
15
  0
DICTIONARYVAR
  5
83FF
102
{ACAD_REACTORS
330
8345
102
}
330
8345
100
DictionaryVariables
280
     0
  1
0
  0
DICTIONARYVAR
  5
8406
102
{ACAD_REACTORS
330
8345
102
}
330
8345
100
DictionaryVariables
280
     0
  1
0
  0
DICTIONARYVAR
  5
83FD
102
{ACAD_REACTORS
330
8345
102
}
330
8345
100
DictionaryVariables
280
     0
  1
0
  0
DICTIONARY
  5
8411
102
{ACAD_REACTORS
330
840F
102
}
330
840F
100
AcDbDictionary
281
     1
  0
DICTIONARY
  5
8410
102
{ACAD_REACTORS
330
840F
102
}
330
840F
100
AcDbDictionary
281
     1
  3
2048443805472
350
840A
  3
2048443805488
350
840B
  3
2048443805504
350
840C
  3
2048443805520
350
840D
  3
2048443805536
350
840E
  0
DICTIONARY
  5
8414
330
839A
100
AcDbDictionary
280
     1
281
     1
  3
ACAD_XREC_ROUNDTRIP
360
8415
  0
DICTIONARY
  5
8358
330
8357
100
AcDbDictionary
280
     1
281
     1
  3
BUMPTILE
360
835A
  3
DIFFUSETILE
360
8359
  3
OPACITYTILE
360
835D
  3
REFLECTIONTILE
360
835C
  3
REFRACTIONTILE
360
835E
  3
SPECULARTILE
360
835B
  0
DICTIONARY
  5
8350
330
834F
100
AcDbDictionary
280
     1
281
     1
  3
BUMPTILE
360
8352
  3
DIFFUSETILE
360
8351
  3
OPACITYTILE
360
8355
  3
REFLECTIONTILE
360
8354
  3
REFRACTIONTILE
360
8356
  3
SPECULARTILE
360
8353
  0
DICTIONARY
  5
8360
330
835F
100
AcDbDictionary
280
     1
281
     1
  3
BUMPTILE
360
8362
  3
DIFFUSETILE
360
8361
  3
OPACITYTILE
360
8365
  3
REFLECTIONTILE
360
8364
  3
REFRACTIONTILE
360
8366
  3
SPECULARTILE
360
8363
  0
DICTIONARY
  5
8412
330
8398
100
AcDbDictionary
280
     1
281
     1
  3
ACAD_XREC_ROUNDTRIP
360
8413
  0
DICTIONARY
  5
8407
330
8382
100
AcDbDictionary
280
     1
281
     1
  3
ACAD_ROUNDTRIP_2008_TABLESTYLE_CELLSTYLEMAP
360
8408
  0
XRECORD
  5
840A
102
{ACAD_REACTORS
330
8410
102
}
330
8410
100
AcDbXrecord
280
     1
  1
AcDb_Thumbnail_Schema
102
{ATTRRECORD
341
840B
  2
AcDbDs::TreatedAsObjectData
280
     1
291
     1
102
ATTRRECORD}
102
{ATTRRECORD
341
840C
  2
AcDbDs::Legacy
280
     1
291
     1
102
ATTRRECORD}
  2
AcDbDs::ID
280
    10
 91
        8
102
{ATTRRECORD
341
840D
  2
AcDs:Indexable
280
     1
291
     1
102
ATTRRECORD}
102
{ATTRRECORD
341
840E
  2
AcDbDs::HandleAttribute
280
     7
282
     1
102
ATTRRECORD}
  2
Thumbnail_Data
280
    15
 91
        0
  0
XRECORD
  5
840B
102
{ACAD_REACTORS
330
8410
102
}
330
8410
100
AcDbXrecord
280
     1
  1
AcDbDs::TreatedAsObjectDataSchema
  2
AcDbDs::TreatedAsObjectData
280
     1
 91
        0
  0
XRECORD
  5
840C
102
{ACAD_REACTORS
330
8410
102
}
330
8410
100
AcDbXrecord
280
     1
  1
AcDbDs::LegacySchema
  2
AcDbDs::Legacy
280
     1
 91
        0
  0
XRECORD
  5
840D
102
{ACAD_REACTORS
330
8410
102
}
330
8410
100
AcDbXrecord
280
     1
  1
AcDbDs::IndexedPropertySchema
  2
AcDs:Indexable
280
     1
 91
        0
  0
XRECORD
  5
840E
102
{ACAD_REACTORS
330
8410
102
}
330
8410
100
AcDbXrecord
280
     1
  1
AcDbDs::HandleAttributeSchema
  2
AcDbDs::HandleAttribute
280
     7
 91
        1
284
     1
  0
XRECORD
  5
8415
102
{ACAD_REACTORS
330
8414
102
}
330
8414
100
AcDbXrecord
280
     1
102
DISPLAYNAME
  1
Metric50
102
FLAGS
 90
        0
  0
XRECORD
  5
835A
102
{ACAD_REACTORS
330
8358
102
}
330
8358
100
AcDbXrecord
280
     1
270
     1
271
     1
  0
XRECORD
  5
8359
102
{ACAD_REACTORS
330
8358
102
}
330
8358
100
AcDbXrecord
280
     1
270
     1
271
     1
  0
XRECORD
  5
835D
102
{ACAD_REACTORS
330
8358
102
}
330
8358
100
AcDbXrecord
280
     1
270
     1
271
     1
  0
XRECORD
  5
835C
102
{ACAD_REACTORS
330
8358
102
}
330
8358
100
AcDbXrecord
280
     1
270
     1
271
     1
  0
XRECORD
  5
835E
102
{ACAD_REACTORS
330
8358
102
}
330
8358
100
AcDbXrecord
280
     1
270
     1
271
     1
  0
XRECORD
  5
835B
102
{ACAD_REACTORS
330
8358
102
}
330
8358
100
AcDbXrecord
280
     1
270
     1
271
     1
  0
XRECORD
  5
8352
102
{ACAD_REACTORS
330
8350
102
}
330
8350
100
AcDbXrecord
280
     1
270
     1
271
     1
  0
XRECORD
  5
8351
102
{ACAD_REACTORS
330
8350
102
}
330
8350
100
AcDbXrecord
280
     1
270
     1
271
     1
  0
XRECORD
  5
8355
102
{ACAD_REACTORS
330
8350
102
}
330
8350
100
AcDbXrecord
280
     1
270
     1
271
     1
  0
XRECORD
  5
8354
102
{ACAD_REACTORS
330
8350
102
}
330
8350
100
AcDbXrecord
280
     1
270
     1
271
     1
  0
XRECORD
  5
8356
102
{ACAD_REACTORS
330
8350
102
}
330
8350
100
AcDbXrecord
280
     1
270
     1
271
     1
  0
XRECORD
  5
8353
102
{ACAD_REACTORS
330
8350
102
}
330
8350
100
AcDbXrecord
280
     1
270
     1
271
     1
  0
XRECORD
  5
8362
102
{ACAD_REACTORS
330
8360
102
}
330
8360
100
AcDbXrecord
280
     1
270
     1
271
     1
  0
XRECORD
  5
8361
102
{ACAD_REACTORS
330
8360
102
}
330
8360
100
AcDbXrecord
280
     1
270
     1
271
     1
  0
XRECORD
  5
8365
102
{ACAD_REACTORS
330
8360
102
}
330
8360
100
AcDbXrecord
280
     1
270
     1
271
     1
  0
XRECORD
  5
8364
102
{ACAD_REACTORS
330
8360
102
}
330
8360
100
AcDbXrecord
280
     1
270
     1
271
     1
  0
XRECORD
  5
8366
102
{ACAD_REACTORS
330
8360
102
}
330
8360
100
AcDbXrecord
280
     1
270
     1
271
     1
  0
XRECORD
  5
8363
102
{ACAD_REACTORS
330
8360
102
}
330
8360
100
AcDbXrecord
280
     1
270
     1
271
     1
  0
XRECORD
  5
8413
102
{ACAD_REACTORS
330
8412
102
}
330
8412
100
AcDbXrecord
280
     1
102
DISPLAYNAME
  1
Metric50
102
FLAGS
 90
        0
  0
CELLSTYLEMAP
  5
8408
102
{ACAD_REACTORS
330
8407
102
}
330
8407
100
AcDbCellStyleMap
 90
        3
300
CELLSTYLE
  1
TABLEFORMAT_BEGIN
 90
        5
170
     1
 91
        0
 92
    32768
 62
   257
 93
        1
300
CONTENTFORMAT
  1
CONTENTFORMAT_BEGIN
 90
        0
 91
        0
 92
      512
 93
        0
300

 40
0.0
140
1.0
 94
        5
 62
     0
340
10
144
6.0
309
CONTENTFORMAT_END
171
     1
301
MARGIN
  1
CELLMARGIN_BEGIN
 40
1.5
 40
1.5
 40
1.5
 40
1.5
 40
4.5
 40
4.5
309
CELLMARGIN_END
 94
        6
 95
        1
302
GRIDFORMAT
  1
GRIDFORMAT_BEGIN
 90
        0
 91
        1
 62
     0
 92
       -2
340
0
 93
        0
 40
1.125
309
GRIDFORMAT_END
 95
        2
302
GRIDFORMAT
  1
GRIDFORMAT_BEGIN
 90
        0
 91
        1
 62
     0
 92
       -2
340
0
 93
        0
 40
1.125
309
GRIDFORMAT_END
 95
        4
302
GRIDFORMAT
  1
GRIDFORMAT_BEGIN
 90
        0
 91
        1
 62
     0
 92
       -2
340
0
 93
        0
 40
1.125
309
GRIDFORMAT_END
 95
        8
302
GRIDFORMAT
  1
GRIDFORMAT_BEGIN
 90
        0
 91
        1
 62
     0
 92
       -2
340
0
 93
        0
 40
1.125
309
GRIDFORMAT_END
 95
       16
302
GRIDFORMAT
  1
GRIDFORMAT_BEGIN
 90
        0
 91
        1
 62
     0
 92
       -2
340
0
 93
        0
 40
1.125
309
GRIDFORMAT_END
 95
       32
302
GRIDFORMAT
  1
GRIDFORMAT_BEGIN
 90
        0
 91
        1
 62
     0
 92
       -2
340
0
 93
        0
 40
1.125
309
GRIDFORMAT_END
309
TABLEFORMAT_END
  1
CELLSTYLE_BEGIN
 90
        1
 91
        1
300
_TITLE
309
CELLSTYLE_END
300
CELLSTYLE
  1
TABLEFORMAT_BEGIN
 90
        5
170
     1
 91
        0
 92
        0
 62
   257
 93
        1
300
CONTENTFORMAT
  1
CONTENTFORMAT_BEGIN
 90
        0
 91
        0
 92
      512
 93
        0
300

 40
0.0
140
1.0
 94
        5
 62
     0
340
10
144
4.5
309
CONTENTFORMAT_END
171
     1
301
MARGIN
  1
CELLMARGIN_BEGIN
 40
1.5
 40
1.5
 40
1.5
 40
1.5
 40
4.5
 40
4.5
309
CELLMARGIN_END
 94
        6
 95
        1
302
GRIDFORMAT
  1
GRIDFORMAT_BEGIN
 90
        0
 91
        1
 62
     0
 92
       -2
340
0
 93
        0
 40
1.125
309
GRIDFORMAT_END
 95
        2
302
GRIDFORMAT
  1
GRIDFORMAT_BEGIN
 90
        0
 91
        1
 62
     0
 92
       -2
340
0
 93
        0
 40
1.125
309
GRIDFORMAT_END
 95
        4
302
GRIDFORMAT
  1
GRIDFORMAT_BEGIN
 90
        0
 91
        1
 62
     0
 92
       -2
340
0
 93
        0
 40
1.125
309
GRIDFORMAT_END
 95
        8
302
GRIDFORMAT
  1
GRIDFORMAT_BEGIN
 90
        0
 91
        1
 62
     0
 92
       -2
340
0
 93
        0
 40
1.125
309
GRIDFORMAT_END
 95
       16
302
GRIDFORMAT
  1
GRIDFORMAT_BEGIN
 90
        0
 91
        1
 62
     0
 92
       -2
340
0
 93
        0
 40
1.125
309
GRIDFORMAT_END
 95
       32
302
GRIDFORMAT
  1
GRIDFORMAT_BEGIN
 90
        0
 91
        1
 62
     0
 92
       -2
340
0
 93
        0
 40
1.125
309
GRIDFORMAT_END
309
TABLEFORMAT_END
  1
CELLSTYLE_BEGIN
 90
        2
 91
        1
300
_HEADER
309
CELLSTYLE_END
300
CELLSTYLE
  1
TABLEFORMAT_BEGIN
 90
        5
170
     1
 91
        0
 92
        0
 62
   257
 93
        1
300
CONTENTFORMAT
  1
CONTENTFORMAT_BEGIN
 90
        0
 91
        0
 92
      512
 93
        0
300

 40
0.0
140
1.0
 94
        2
 62
     0
340
10
144
4.5
309
CONTENTFORMAT_END
171
     1
301
MARGIN
  1
CELLMARGIN_BEGIN
 40
1.5
 40
1.5
 40
1.5
 40
1.5
 40
4.5
 40
4.5
309
CELLMARGIN_END
 94
        6
 95
        1
302
GRIDFORMAT
  1
GRIDFORMAT_BEGIN
 90
        0
 91
        1
 62
     0
 92
       -2
340
0
 93
        0
 40
1.125
309
GRIDFORMAT_END
 95
        2
302
GRIDFORMAT
  1
GRIDFORMAT_BEGIN
 90
        0
 91
        1
 62
     0
 92
       -2
340
0
 93
        0
 40
1.125
309
GRIDFORMAT_END
 95
        4
302
GRIDFORMAT
  1
GRIDFORMAT_BEGIN
 90
        0
 91
        1
 62
     0
 92
       -2
340
0
 93
        0
 40
1.125
309
GRIDFORMAT_END
 95
        8
302
GRIDFORMAT
  1
GRIDFORMAT_BEGIN
 90
        0
 91
        1
 62
     0
 92
       -2
340
0
 93
        0
 40
1.125
309
GRIDFORMAT_END
 95
       16
302
GRIDFORMAT
  1
GRIDFORMAT_BEGIN
 90
        0
 91
        1
 62
     0
 92
       -2
340
0
 93
        0
 40
1.125
309
GRIDFORMAT_END
 95
       32
302
GRIDFORMAT
  1
GRIDFORMAT_BEGIN
 90
        0
 91
        1
 62
     0
 92
       -2
340
0
 93
        0
 40
1.125
309
GRIDFORMAT_END
309
TABLEFORMAT_END
  1
CELLSTYLE_BEGIN
 90
        3
 91
        2
300
_DATA
309
CELLSTYLE_END
  0
ENDSEC
  0
SECTION
  2
ACDSDATA
 70
     2
 71
     8
  0
ACDSSCHEMA
 90
        0
  1
AcDb_Thumbnail_Schema
  2
AcDbDs::ID
280
    10
 91
        8
  2
Thumbnail_Data
280
    15
 91
        0
101
ACDSRECORD
 95
        0
 90
        1
  2
AcDbDs::TreatedAsObjectData
280
     1
291
     1
101
ACDSRECORD
 95
        0
 90
        2
  2
AcDbDs::Legacy
280
     1
291
     1
101
ACDSRECORD
  1
AcDbDs::ID
 90
        3
  2
AcDs:Indexable
280
     1
291
     1
101
ACDSRECORD
  1
AcDbDs::ID
 90
        4
  2
AcDbDs::HandleAttribute
280
     7
282
     1
  0
ACDSSCHEMA
 90
        1
  1
AcDbDs::TreatedAsObjectDataSchema
  2
AcDbDs::TreatedAsObjectData
280
     1
 91
        0
  0
ACDSSCHEMA
 90
        2
  1
AcDbDs::LegacySchema
  2
AcDbDs::Legacy
280
     1
 91
        0
  0
ACDSSCHEMA
 90
        3
  1
AcDbDs::IndexedPropertySchema
  2
AcDs:Indexable
280
     1
 91
        0
  0
ACDSSCHEMA
 90
        4
  1
AcDbDs::HandleAttributeSchema
  2
AcDbDs::HandleAttribute
280
     7
 91
        1
284
     1
  0
ACDSRECORD
 90
        0
  2
AcDbDs::ID
280
    10
320
8259
  2
Thumbnail_Data
280
    15
 94
     1882
310
89504E470D0A1A0A0000000D49484452000001000000009108030000001BE1960600000300504C5445000000000000C8C8C80000000000000000000000000000000000000000000000000000330000660000990000CC0000FF0033000033330033660033990033CC0033FF0066000066330066660066990066CC0066FF0099
310
000099330099660099990099CC0099FF00CC0000CC3300CC6600CC9900CCCC00CCFF00FF0000FF3300FF6600FF9900FFCC00FFFF3300003300333300663300993300CC3300FF3333003333333333663333993333CC3333FF3366003366333366663366993366CC3366FF3399003399333399663399993399CC3399FF33CC00
310
33CC3333CC6633CC9933CCCC33CCFF33FF0033FF3333FF6633FF9933FFCC33FFFF6600006600336600666600996600CC6600FF6633006633336633666633996633CC6633FF6666006666336666666666996666CC6666FF6699006699336699666699996699CC6699FF66CC0066CC3366CC6666CC9966CCCC66CCFF66FF0066
310
FF3366FF6666FF9966FFCC66FFFF9900009900339900669900999900CC9900FF9933009933339933669933999933CC9933FF9966009966339966669966999966CC9966FF9999009999339999669999999999CC9999FF99CC0099CC3399CC6699CC9999CCCC99CCFF99FF0099FF3399FF6699FF9999FFCC99FFFFCC0000CC00
310
33CC0066CC0099CC00CCCC00FFCC3300CC3333CC3366CC3399CC33CCCC33FFCC6600CC6633CC6666CC6699CC66CCCC66FFCC9900CC9933CC9966CC9999CC99CCCC99FFCCCC00CCCC33CCCC66CCCC99CCCCCCCCCCFFCCFF00CCFF33CCFF66CCFF99CCFFCCCCFFFFFF0000FF0033FF0066FF0099FF00CCFF00FFFF3300FF3333
310
FF3366FF3399FF33CCFF33FFFF6600FF6633FF6666FF6699FF66CCFF66FFFF9900FF9933FF9966FF9999FF99CCFF99FFFFCC00FFCC33FFCC66FFCC99FFCCCCFFCCFFFFFF00FFFF33FFFF66FFFF99FFFFCCFFFFFF0000000D0D0D1A1A1A2828283535354343435050505D5D5D6B6B6B787878868686939393A1A1A1AEAEAEBB
310
BBBBC9C9C9D6D6D6E4E4E4F1F1F1FFFFFF00000000000000000000000000000000000000000000000000000000000008F1915C000004154944415478DAED9D5996AC200C40B31C7FB2FFCDB00DFE5F8B24048C439DD3C3CBC0E9AE52B02DB96444AA05F8C6527FA9C0FF5AAAAB8F49000920012480049000FEE2CA9E7CBF7F
310
000F750124004EE15E0DA802D12560261051028C1BC11FCC008D003073EA04F0735759F7D72A0D7BF770B47DD1A9EA06C0E8F3E8F84E8515FB4054F970693FE83CD53400D157FA0549840154A0966387B78D03A867009369AFAA0480AC74A0025D92591D78B8DF9F2FBD4002C848D0662E504550D04C00F9B66119C5815C23
310
DC80F11921752CB5D1AD325C62008F9323F601C0E40F8787000A149C018009C024F02272EC21B40715F88973E5B47802480009C02480D2CAF57E3800100640792CDE01F0D676AE3AEF25004700BA84E3A9849180BD6B7855C20080B30AC0549F00124002480009200124007F008E34273A800D37BDA4048CCCE0A38CD8A10A
310
E0474290003C01E0BCD027806737887B5533020920012480C8007C1BC19B39C118128023F65BDB3B00DF6EF0D001BC2BA1002C22E01BC0E58D91E536895F1BB088C1766EDC6D40887B83B7121001C0A216370724007F00A22F90B0F93109E02FAE6C56890B05B10EE04EEB7D02288F004AABE6438FDD7254016FD805F0CA0B
310
BC771326254074E24A02EEC4C4BA0410007E39DE1500B3FAF3DF3B550115807A60F162048B5E3FDB3FCE1247730230084048F098087A06A067CB2601B00B473925F60000350940BB00DA0FCA5E09063101C0D80F0B80BA1918C0D14FF70028DA5100B48E860630AF8A090340B8808000965B63F81EC092391805C07786F063
310
0008D39C88090085125E0280220EE8DDFA4C056C01A0591E0620A261EAE502E068F302003400D865A177F3240183CD194029B601F4FEC346081409700980B241EA764F860E5F1002402B5FE3BEB5DFB6487EDB957DDF2DD317698F7A7569FDD7A176250028FF6B62B0F10AE12940240940D42500CD01185E8001900A7467D7
310
4C3EAE00AE54004D06422B00E01126A7B8376C6F2400AD46826308FBB8C3F0F68716B039449897504E1200C6018C6941CE0A402608430546B23C03301708AD0028146631A7A5B28D857F0014056E5352D8FDDE97046CDD0D8AEF932D008A79002315E0C0FFAD0A184D87E77BC022060698270808C0BC9C765501300C001F97
310
CA2A076DEA3FDBB006E026C99755A80CB43CD43080778BA5F14950DC0028776B85E7C672B996D8D41727014E79AF528AD2582EB66D01E0B76E108AEE2304006E2862C72880B1C887F3C3A2BB76F700DE2D967EBB98DA0E00A102416D80E98F4900092001248004900012C0775E59C4678C2CED7A97EA67A77609603C7E8B9E
310
CBC48F9C80F55923F601C009409500AA781CD9F4C03107002EEBEBFA4264E68A34828E6CC05C2F1E2A536B402348006A6400AA703806A0D73B9780E8463093A10490001240024800092001F805F04BE53BAFF91FFB63175483B27B430000000049454E44AE426082
  0
ENDSEC
  0
EOF
