  0
SECTION
  2
HEADER
  9
$ACADVER
  1
AC1009
  9
$INSBASE
 10
0.0
 20
0.0
 30
0.0
  9
$EXTMIN
 10
1250.0
 20
1500.0
 30
0.0
  9
$EXTMAX
 10
9250.0
 20
13933.261307999999
 30
0.0
  9
$LIMMIN
 10
0.0
 20
0.0
  9
$LIMMAX
 10
297.0
 20
210.0
  9
$ORTHOMODE
 70
     0
  9
$REGENMODE
 70
     1
  9
$FILLMODE
 70
     0
  9
$QTEXTMODE
 70
     0
  9
$MIRRTEXT
 70
     1
  9
$DRAGMODE
 70
     2
  9
$LTSCALE
 40
100.0
  9
$OSMODE
 70
    37
  9
$ATTMODE
 70
     1
  9
$TEXTSIZE
 40
180.0
  9
$TRACEWID
 40
0.05
  9
$TEXTSTYLE
  7
STANDARD
  9
$CLAYER
  8
3
  9
$CELTYPE
  6
BYLAYER
  9
$CECOLOR
 62
   256
  9
$DIMSCALE
 40
45.0
  9
$DIMASZ
 40
2.0
  9
$DIMEXO
 40
0.5
  9
$DIMDLI
 40
10.0
  9
$DIMRND
 40
0.0
  9
$DIMDLE
 40
0.0
  9
$DIMEXE
 40
1.0
  9
$DIMTP
 40
1.0
  9
$DIMTM
 40
1.0
  9
$DIMTXT
 40
3.0
  9
$DIMCEN
 40
0.0
  9
$DIMTSZ
 40
0.0
  9
$DIMTOL
 70
     0
  9
$DIMLIM
 70
     0
  9
$DIMTIH
 70
     0
  9
$DIMTOH
 70
     0
  9
$DIMSE1
 70
     0
  9
$DIMSE2
 70
     0
  9
$DIMTAD
 70
     1
  9
$DIMZIN
 70
     8
  9
$DIMBLK
  1

  9
$DIMASO
 70
     1
  9
$DIMSHO
 70
     1
  9
$DIMPOST
  1

  9
$DIMAPOST
  1

  9
$DIMALT
 70
     0
  9
$DIMALTD
 70
     2
  9
$DIMALTF
 40
0.039
  9
$DIMLFAC
 40
1.0
  9
$DIMTOFL
 70
     1
  9
$DIMTVP
 40
0.0
  9
$DIMTIX
 70
     0
  9
$DIMSOXD
 70
     0
  9
$DIMSAH
 70
     1
  9
$DIMBLK1
  1
OPEN
  9
$DIMBLK2
  1
OPEN
  9
$DIMSTYLE
  2
IGA
  9
$DIMCLRD
 70
     0
  9
$DIMCLRE
 70
     0
  9
$DIMCLRT
 70
     0
  9
$DIMTFAC
 40
10.0
  9
$DIMGAP
 40
1.0
  9
$LUNITS
 70
     2
  9
$LUPREC
 70
     3
  9
$SKETCHINC
 40
0.1
  9
$FILLETRAD
 40
50.0
  9
$AUNITS
 70
     0
  9
$AUPREC
 70
     0
  9
$MENU
  1
acad
  9
$ELEVATION
 40
0.0
  9
$PELEVATION
 40
0.0
  9
$THICKNESS
 40
0.0
  9
$LIMCHECK
 70
     0
  9
$BLIPMODE
 70
     0
  9
$CHAMFERA
 40
0.5
  9
$CHAMFERB
 40
0.5
  9
$SKPOLY
 70
     0
  9
$TDCREATE
 40
2450750.395916088
  9
$TDUPDATE
 40
2454953.6613680902
  9
$TDINDWG
 40
0.0141166435
  9
$TDUSRTIMER
 40
0.0141166435
  9
$USRTIMER
 70
     1
  9
$ANGBASE
 50
0.0
  9
$ANGDIR
 70
     0
  9
$PDMODE
 70
     0
  9
$PDSIZE
 40
0.0
  9
$PLINEWID
 40
0.0
  9
$COORDS
 70
     1
  9
$SPLFRAME
 70
     0
  9
$SPLINETYPE
 70
     6
  9
$SPLINESEGS
 70
     8
  9
$ATTDIA
 70
     0
  9
$ATTREQ
 70
     1
  9
$HANDLING
 70
 10241
  9
$HANDSEED
  5
7D7E
  9
$SURFTAB1
 70
     6
  9
$SURFTAB2
 70
     6
  9
$SURFTYPE
 70
     6
  9
$SURFU
 70
     6
  9
$SURFV
 70
     6
  9
$UCSNAME
  2

  9
$UCSORG
 10
0.0
 20
0.0
 30
0.0
  9
$UCSXDIR
 10
1.0
 20
0.0
 30
0.0
  9
$UCSYDIR
 10
0.0
 20
1.0
 30
0.0
  9
$PUCSNAME
  2

  9
$PUCSORG
 10
0.0
 20
0.0
 30
0.0
  9
$PUCSXDIR
 10
1.0
 20
0.0
 30
0.0
  9
$PUCSYDIR
 10
0.0
 20
1.0
 30
0.0
  9
$USERI1
 70
     0
  9
$USERI2
 70
     0
  9
$USERI3
 70
     0
  9
$USERI4
 70
     0
  9
$USERI5
 70
     0
  9
$USERR1
 40
0.0
  9
$USERR2
 40
0.0
  9
$USERR3
 40
0.0
  9
$USERR4
 40
0.0
  9
$USERR5
 40
0.0
  9
$WORLDVIEW
 70
     1
  9
$SHADEDGE
 70
     3
  9
$SHADEDIF
 70
    70
  9
$TILEMODE
 70
     1
  9
$MAXACTVP
 70
    16
  9
$PLIMCHECK
 70
     0
  9
$PEXTMIN
 10
1.0000000000000000E+020
 20
1.0000000000000000E+020
 30
1.0000000000000000E+020
  9
$PEXTMAX
 10
-1.0000000000000000E+020
 20
-1.0000000000000000E+020
 30
-1.0000000000000000E+020
  9
$PLIMMIN
 10
0.0
 20
0.0
  9
$PLIMMAX
 10
12.0
 20
9.0
  9
$UNITMODE
 70
     0
  9
$VISRETAIN
 70
     0
  9
$PLINEGEN
 70
     0
  9
$PSLTSCALE
 70
     1
  0
ENDSEC
  0
SECTION
  2
TABLES
  0
TABLE
  2
VPORT
 70
     2
  0
VPORT
  2
*ACTIVE
 70
     0
 10
0.0
 20
0.0
 11
1.0
 21
1.0
 12
9890.1276959343941
 22
1963.9671185689469
 13
0.0
 23
0.0
 14
10.0
 24
10.0
 15
10.0
 25
10.0
 16
0.0
 26
0.0
 36
1.0
 17
0.0
 27
0.0
 37
0.0
 40
4493.5480266574659
 41
3.1666666666666661
 42
50.0
 43
0.0
 44
0.0
 50
0.0
 51
0.0
 71
     0
 72
   100
 73
     1
 74
     0
 75
     0
 76
     0
 77
     0
 78
     1
  0
ENDTAB
  0
TABLE
  2
LTYPE
 70
     2
  0
LTYPE
  2
CONTINUOUS
 70
     0
  3
Solid line
 72
    65
 73
     0
 40
0.0
  0
LTYPE
  2
CENTER
 70
     0
  3
____ _ ____ _ ____ _ ____ _ ____ _ ____ _ ____ 
 72
    65
 73
     4
 40
2.0
 49
1.25
 49
-0.25
 49
0.25
 49
-0.25
  0
ENDTAB
  0
TABLE
  2
LAYER
 70
     6
  0
LAYER
  2
0
 70
     0
 62
     7
  6
CONTINUOUS
  0
LAYER
  2
3
 70
     0
 62
     2
  6
CONTINUOUS
  0
LAYER
  2
2
 70
     0
 62
     3
  6
CENTER
  0
LAYER
  2
1
 70
     0
 62
     4
  6
CONTINUOUS
  0
LAYER
  2
4
 70
     0
 62
     7
  6
CONTINUOUS
  0
LAYER
  2
DEFPOINTS
 70
     0
 62
     7
  6
CONTINUOUS
  0
ENDTAB
  0
TABLE
  2
STYLE
 70
     1
  0
STYLE
  2
STANDARD
 70
     0
 40
0.0
 41
1.0
 50
0.0
 71
     0
 42
180.0
  3
simplex.shx
  4
extfont.shx
  0
ENDTAB
  0
TABLE
  2
VIEW
 70
     0
  0
ENDTAB
  0
TABLE
  2
UCS
 70
     0
  0
ENDTAB
  0
TABLE
  2
APPID
 70
     1
  0
APPID
  2
ACAD
 70
     0
  0
ENDTAB
  0
TABLE
  2
DIMSTYLE
 70
     1
  0
DIMSTYLE
  2
IGA
 70
     0
  3

  4

  5

  6
OPEN
  7
OPEN
 40
2.0
 41
2.0
 42
0.5
 43
10.0
 44
1.0
 45
0.0
 46
0.0
 47
1.0
 48
1.0
140
3.0
141
0.0
142
0.0
143
0.03937
144
1.0
145
0.0
146
10.0
147
1.0
 71
     0
 72
     0
 73
     0
 74
     0
 75
     0
 76
     0
 77
     1
 78
     8
170
     0
171
     2
172
     0
173
     1
174
     0
175
     0
176
     0
177
     0
178
     0
  0
ENDTAB
  0
ENDSEC
  0
SECTION
  2
BLOCKS
  0
BLOCK
  8
0
  2
$MODEL_SPACE
 70
     0
 10
0.0
 20
0.0
 30
0.0
  3
$MODEL_SPACE
  1

  0
ENDBLK
  5
1B
  8
0
  0
BLOCK
 67
     1
  8
0
  2
$PAPER_SPACE
 70
     0
 10
0.0
 20
0.0
 30
0.0
  3
$PAPER_SPACE
  1

  0
ENDBLK
  5
18
 67
     1
  8
0
  0
BLOCK
  8
0
  2
_OPEN
 70
     0
 10
0.0
 20
0.0
 30
0.0
  3
_OPEN
  1

  0
LINE
  5
7AD4
  8
0
  6
BYBLOCK
 62
     0
 10
-1.0
 20
0.166667
 30
0.0
 11
0.0
 21
0.0
 31
0.0
  0
LINE
  5
7AD5
  8
0
  6
BYBLOCK
 62
     0
 10
0.0
 20
0.0
 30
0.0
 11
-1.0
 21
-0.166667
 31
0.0
  0
LINE
  5
7AD6
  8
0
  6
BYBLOCK
 62
     0
 10
0.0
 20
0.0
 30
0.0
 11
-1.0
 21
0.0
 31
0.0
  0
ENDBLK
  5
7AD7
  8
0
  0
BLOCK
  8
0
  2
*D1
 70
     1
 10
0.0
 20
0.0
 30
0.0
  3
*D1
  1

  0
LINE
  5
7CD8
  8
3
  6
CONTINUOUS
 62
     0
 10
1978.214363
 20
4769.7252179999996
 30
0.0
 11
1978.214363
 21
4328.907365
 31
0.0
  0
LINE
  5
7CD9
  8
3
  6
CONTINUOUS
 62
     0
 10
3778.214363
 20
4662.5937409999997
 30
0.0
 11
3778.214363
 21
4328.907365
 31
0.0
  0
LINE
  5
7CDA
  8
3
  6
CONTINUOUS
 62
     0
 10
2068.214363
 20
4373.9073649999991
 30
0.0
 11
3688.214363
 21
4373.9073649999991
 31
0.0
  0
INSERT
  5
7CDB
  8
3
  6
CONTINUOUS
 62
     0
  2
_OPEN
 10
1978.214363
 20
4373.9073649999991
 30
0.0
 41
90.0
 42
90.0
 43
90.0
 50
180.0
  0
INSERT
  5
7CDC
  8
3
  6
CONTINUOUS
 62
     0
  2
_OPEN
 10
3778.214363
 20
4373.9073649999991
 30
0.0
 41
90.0
 42
90.0
 43
90.0
  0
TEXT
  8
3
  40
135
  5
7D6C
  62
0
  72
0
  71
0
 10
2698.27
 20
4247.46
 30
0.000000
  1
1800
  0
POINT
  5
7CDE
  8
DEFPOINTS
  6
CONTINUOUS
 62
     0
 10
1978.214363
 20
4792.2252179999987
 30
0.0
  0
POINT
  5
7CDF
  8
DEFPOINTS
  6
CONTINUOUS
 62
     0
 10
3778.214363
 20
4685.0937409999997
 30
0.0
  0
POINT
  5
7CE0
  8
DEFPOINTS
  6
CONTINUOUS
 62
     0
 10
3778.214363
 20
4373.9073649999991
 30
0.0
  0
ENDBLK
  5
7C60
  8
0
  0
BLOCK
  8
0
  2
*D2
 70
     1
 10
0.0
 20
0.0
 30
0.0
  3
*D2
  1

  0
LINE
  5
7CE1
  8
3
  6
CONTINUOUS
 62
     0
 10
4528.214363
 20
4769.7252179999996
 30
0.0
 11
4528.214363
 21
4328.907365
 31
0.0
  0
LINE
  5
7CE2
  8
3
  6
CONTINUOUS
 62
     0
 10
3868.2143629999991
 20
4373.9073649999991
 30
0.0
 11
4438.214363
 21
4373.9073649999991
 31
0.0
  0
INSERT
  5
7CE3
  8
3
  6
CONTINUOUS
 62
     0
  2
_OPEN
 10
3778.214363
 20
4373.9073649999991
 30
0.0
 41
90.0
 42
90.0
 43
90.0
 50
180.0
  0
INSERT
  5
7CE4
  8
3
  6
CONTINUOUS
 62
     0
  2
_OPEN
 10
4528.214363
 20
4373.9073649999991
 30
0.0
 41
90.0
 42
90.0
 43
90.0
  0
TEXT
  8
3
  40
135
  5
7D6D
  62
0
  72
0
  71
0
 10
3883.21
 20
4247.46
 30
0.000000
  1
750
  0
POINT
  5
7CE6
  8
DEFPOINTS
  6
CONTINUOUS
 62
     0
 10
3778.214363
 20
4685.0937409999997
 30
0.0
  0
POINT
  5
7CE7
  8
DEFPOINTS
  6
CONTINUOUS
 62
     0
 10
4528.214363
 20
4792.2252179999987
 30
0.0
  0
POINT
  5
7CE8
  8
DEFPOINTS
  6
CONTINUOUS
 62
     0
 10
4528.214363
 20
4373.9073649999991
 30
0.0
  0
ENDBLK
  5
7AF0
  8
0
  0
BLOCK
  8
0
  2
*D3
 70
     1
 10
0.0
 20
0.0
 30
0.0
  3
*D3
  1

  0
LINE
  5
7CE9
  8
3
  6
CONTINUOUS
 62
     0
 10
4625.714363
 20
7051.2252179999996
 30
0.0
 11
5059.3906620000007
 21
7051.2252179999996
 31
0.0
  0
LINE
  5
7CEA
  8
3
  6
CONTINUOUS
 62
     0
 10
4625.714363
 20
5771.2252179999996
 30
0.0
 11
5059.3906620000007
 21
5771.2252179999996
 31
0.0
  0
LINE
  5
7CEB
  8
3
  6
CONTINUOUS
 62
     0
 10
5014.3906620000016
 20
6961.2252180000014
 30
0.0
 11
5014.3906620000007
 21
5861.2252179999996
 31
0.0
  0
INSERT
  5
7CEC
  8
3
  6
CONTINUOUS
 62
     0
  2
_OPEN
 10
5014.3906620000016
 20
7051.2252179999996
 30
0.0
 41
90.0
 42
90.0
 43
90.0
 50
90.0
  0
INSERT
  5
7CED
  8
3
  6
CONTINUOUS
 62
     0
  2
_OPEN
 10
5014.3906620000007
 20
5771.2252179999996
 30
0.0
 41
90.0
 42
90.0
 43
90.0
 50
270.0
  0
TEXT
  8
3
  40
135
  5
7D6E
  62
0
  72
0
  71
0
 10
4631.89
 20
6204.22
 30
0.000000
  1
1280
  0
POINT
  5
7CEF
  8
DEFPOINTS
  6
CONTINUOUS
 62
     0
 10
4603.214363
 20
7051.2252179999996
 30
0.0
  0
POINT
  5
7CF0
  8
DEFPOINTS
  6
CONTINUOUS
 62
     0
 10
4603.214363
 20
5771.2252179999996
 30
0.0
  0
POINT
  5
7CF1
  8
DEFPOINTS
  6
CONTINUOUS
 62
     0
 10
5014.3906620000007
 20
5771.2252179999996
 30
0.0
  0
ENDBLK
  5
7AFD
  8
0
  0
BLOCK
  8
0
  2
*D4
 70
     1
 10
0.0
 20
0.0
 30
0.0
  3
*D4
  1

  0
LINE
  5
7CF2
  8
3
  6
CONTINUOUS
 62
     0
 10
4625.714363
 20
7051.2252179999996
 30
0.0
 11
5440.3918150000009
 21
7051.2252179999996
 31
0.0
  0
LINE
  5
7CF3
  8
3
  6
CONTINUOUS
 62
     0
 10
4542.2192779999996
 20
5717.2252179999987
 30
0.0
 11
5440.3918150000009
 21
5717.2252179999987
 31
0.0
  0
LINE
  5
7CF4
  8
3
  6
CONTINUOUS
 62
     0
 10
5395.3918150000018
 20
6961.2252180000014
 30
0.0
 11
5395.391815
 21
5807.2252179999996
 31
0.0
  0
INSERT
  5
7CF5
  8
3
  6
CONTINUOUS
 62
     0
  2
_OPEN
 10
5395.3918150000018
 20
7051.2252179999996
 30
0.0
 41
90.0
 42
90.0
 43
90.0
 50
90.0
  0
INSERT
  5
7CF6
  8
3
  6
CONTINUOUS
 62
     0
  2
_OPEN
 10
5395.391815
 20
5717.2252179999987
 30
0.0
 41
90.0
 42
90.0
 43
90.0
 50
270.0
  0
TEXT
  8
3
  40
135
  5
7D6F
  62
0
  72
0
  71
0
 10
5012.89
 20
6218.31
 30
0.000000
  1
1334
  0
POINT
  5
7CF8
  8
DEFPOINTS
  6
CONTINUOUS
 62
     0
 10
4603.214363
 20
7051.2252179999996
 30
0.0
  0
POINT
  5
7CF9
  8
DEFPOINTS
  6
CONTINUOUS
 62
     0
 10
4519.7192780000014
 20
5717.2252179999987
 30
0.0
  0
POINT
  5
7CFA
  8
DEFPOINTS
  6
CONTINUOUS
 62
     0
 10
5395.391815
 20
5717.2252179999987
 30
0.0
  0
ENDBLK
  5
7B0A
  8
0
  0
BLOCK
  8
0
  2
*D5
 70
     1
 10
0.0
 20
0.0
 30
0.0
  3
*D5
  1

  0
LINE
  5
7CFB
  8
3
  6
CONTINUOUS
 62
     0
 10
4550.7143629999991
 20
4792.2252179999987
 30
0.0
 11
5440.391815
 21
4792.2252179999987
 31
0.0
  0
LINE
  5
7CFC
  8
3
  6
CONTINUOUS
 62
     0
 10
5395.391814999999
 20
5627.2252179999987
 30
0.0
 11
5395.391814999999
 21
4882.2252179999996
 31
0.0
  0
INSERT
  5
7CFD
  8
3
  6
CONTINUOUS
 62
     0
  2
_OPEN
 10
5395.391814999999
 20
5717.2252179999987
 30
0.0
 41
90.0
 42
90.0
 43
90.0
 50
90.0
  0
INSERT
  5
7CFE
  8
3
  6
CONTINUOUS
 62
     0
  2
_OPEN
 10
5395.391814999999
 20
4792.2252179999987
 30
0.0
 41
90.0
 42
90.0
 43
90.0
 50
270.0
  0
TEXT
  8
3
  40
135
  5
7D70
  62
0
  72
0
  71
0
 10
5012.89
 20
5015.78
 30
0.000000
  1
925
  0
POINT
  5
7D00
  8
DEFPOINTS
  6
CONTINUOUS
 62
     0
 10
4519.7192780000014
 20
5717.2252179999987
 30
0.0
  0
POINT
  5
7D01
  8
DEFPOINTS
  6
CONTINUOUS
 62
     0
 10
4528.214363
 20
4792.2252179999987
 30
0.0
  0
POINT
  5
7D02
  8
DEFPOINTS
  6
CONTINUOUS
 62
     0
 10
5395.391814999999
 20
4792.2252179999987
 30
0.0
  0
ENDBLK
  5
7B16
  8
0
  0
BLOCK
  8
0
  2
*D6
 70
     1
 10
0.0
 20
0.0
 30
0.0
  3
*D6
  1

  0
LINE
  5
7D03
  8
3
  6
CONTINUOUS
 62
     0
 10
4603.214363
 20
7129.7252179999996
 30
0.0
 11
4603.214363
 21
7249.3456310000001
 31
0.0
  0
LINE
  5
7D04
  8
3
  6
CONTINUOUS
 62
     0
 10
3778.214363
 20
7000.7252180000014
 30
0.0
 11
3778.214363
 21
7249.3456310000001
 31
0.0
  0
LINE
  5
7D05
  8
3
  6
CONTINUOUS
 62
     0
 10
4513.214363
 20
7204.3456309999992
 30
0.0
 11
3868.2143629999991
 21
7204.3456309999992
 31
0.0
  0
INSERT
  5
7D06
  8
3
  6
CONTINUOUS
 62
     0
  2
_OPEN
 10
4603.214363
 20
7204.3456309999992
 30
0.0
 41
90.0
 42
90.0
 43
90.0
  0
INSERT
  5
7D07
  8
3
  6
CONTINUOUS
 62
     0
  2
_OPEN
 10
3778.214363
 20
7204.3456309999992
 30
0.0
 41
90.0
 42
90.0
 43
90.0
 50
180.0
  0
TEXT
  8
3
  40
135
  5
7D71
  62
0
  72
0
  71
0
 10
3925.94
 20
7077.90
 30
0.000000
  1
825
  0
POINT
  5
7D09
  8
DEFPOINTS
  6
CONTINUOUS
 62
     0
 10
4603.214363
 20
7107.2252179999996
 30
0.0
  0
POINT
  5
7D0A
  8
DEFPOINTS
  6
CONTINUOUS
 62
     0
 10
3778.214363
 20
6978.2252179999996
 30
0.0
  0
POINT
  5
7D0B
  8
DEFPOINTS
  6
CONTINUOUS
 62
     0
 10
3778.214363
 20
7204.3456309999992
 30
0.0
  0
ENDBLK
  5
7B30
  8
0
  0
BLOCK
  8
0
  2
*D7
 70
     1
 10
0.0
 20
0.0
 30
0.0
  3
*D7
  1

  0
LINE
  5
7D0C
  8
3
  6
CONTINUOUS
 62
     0
 10
2699.214363
 20
5739.7252179999996
 30
0.0
 11
2699.214363
 21
7249.3456310000001
 31
0.0
  0
LINE
  5
7D0D
  8
3
  6
CONTINUOUS
 62
     0
 10
3688.214363
 20
7204.3456309999992
 30
0.0
 11
2789.214363
 21
7204.3456309999992
 31
0.0
  0
INSERT
  5
7D0E
  8
3
  6
CONTINUOUS
 62
     0
  2
_OPEN
 10
3778.214363
 20
7204.3456309999992
 30
0.0
 41
90.0
 42
90.0
 43
90.0
  0
INSERT
  5
7D0F
  8
3
  6
CONTINUOUS
 62
     0
  2
_OPEN
 10
2699.214363
 20
7204.3456309999992
 30
0.0
 41
90.0
 42
90.0
 43
90.0
 50
180.0
  0
TEXT
  8
3
  40
135
  5
7D72
  62
0
  72
0
  71
0
 10
2968.71
 20
7077.90
 30
0.000000
  1
1079
  0
POINT
  5
7D11
  8
DEFPOINTS
  6
CONTINUOUS
 62
     0
 10
3778.214363
 20
6978.2252179999996
 30
0.0
  0
POINT
  5
7D12
  8
DEFPOINTS
  6
CONTINUOUS
 62
     0
 10
2699.214363
 20
5717.2252179999987
 30
0.0
  0
POINT
  5
7D13
  8
DEFPOINTS
  6
CONTINUOUS
 62
     0
 10
2699.214363
 20
7204.3456309999992
 30
0.0
  0
ENDBLK
  5
7C98
  8
0
  0
BLOCK
  8
0
  2
*D8
 70
     1
 10
0.0
 20
0.0
 30
0.0
  3
*D8
  1

  0
LINE
  5
7D14
  8
3
  6
CONTINUOUS
 62
     0
 10
1978.214363
 20
9114.7252180000014
 30
0.0
 11
1978.214363
 21
8569.9296470000008
 31
0.0
  0
LINE
  5
7D15
  8
3
  6
CONTINUOUS
 62
     0
 10
4528.214363
 20
9114.7252180000014
 30
0.0
 11
4528.214363
 21
8569.9296470000008
 31
0.0
  0
LINE
  5
7D16
  8
3
  6
CONTINUOUS
 62
     0
 10
2068.214363
 20
8614.9296470000027
 30
0.0
 11
4438.214363
 21
8614.9296470000027
 31
0.0
  0
INSERT
  5
7D17
  8
3
  6
CONTINUOUS
 62
     0
  2
_OPEN
 10
1978.214363
 20
8614.9296470000027
 30
0.0
 41
90.0
 42
90.0
 43
90.0
 50
180.0
  0
INSERT
  5
7D18
  8
3
  6
CONTINUOUS
 62
     0
  2
_OPEN
 10
4528.214363
 20
8614.9296470000027
 30
0.0
 41
90.0
 42
90.0
 43
90.0
  0
TEXT
  8
3
  40
135
  5
7D73
  62
0
  72
0
  71
0
 10
2986.71
 20
8488.48
 30
0.000000
  1
2550
  0
POINT
  5
7D1A
  8
DEFPOINTS
  6
CONTINUOUS
 62
     0
 10
1978.214363
 20
9137.2252180000014
 30
0.0
  0
POINT
  5
7D1B
  8
DEFPOINTS
  6
CONTINUOUS
 62
     0
 10
4528.214363
 20
9137.2252180000014
 30
0.0
  0
POINT
  5
7D1C
  8
DEFPOINTS
  6
CONTINUOUS
 62
     0
 10
4528.214363
 20
8614.9296470000027
 30
0.0
  0
ENDBLK
  5
7C55
  8
0
  0
BLOCK
  8
0
  2
*D9
 70
     1
 10
0.0
 20
0.0
 30
0.0
  3
*D9
  1

  0
LINE
  5
7D1D
  8
3
  6
CONTINUOUS
 62
     0
 10
4550.7143629999991
 20
10417.225218
 30
0.0
 11
5082.8105990000022
 21
10417.225218
 31
0.0
  0
LINE
  5
7D1E
  8
3
  6
CONTINUOUS
 62
     0
 10
4550.7143629999991
 20
9137.2252180000014
 30
0.0
 11
5082.8105990000013
 21
9137.2252180000014
 31
0.0
  0
LINE
  5
7D1F
  8
3
  6
CONTINUOUS
 62
     0
 10
5037.8105990000022
 20
10327.225218
 30
0.0
 11
5037.8105990000013
 21
9227.2252179999996
 31
0.0
  0
INSERT
  5
7D20
  8
3
  6
CONTINUOUS
 62
     0
  2
_OPEN
 10
5037.8105990000022
 20
10417.225218
 30
0.0
 41
90.0
 42
90.0
 43
90.0
 50
90.0
  0
INSERT
  5
7D21
  8
3
  6
CONTINUOUS
 62
     0
  2
_OPEN
 10
5037.8105990000013
 20
9137.2252180000014
 30
0.0
 41
90.0
 42
90.0
 43
90.0
 50
270.0
  0
TEXT
  8
3
  40
135
  5
7D74
  62
0
  72
0
  71
0
 10
4655.31
 20
9613.67
 30
0.000000
  1
1280
  0
POINT
  5
7D23
  8
DEFPOINTS
  6
CONTINUOUS
 62
     0
 10
4528.214363
 20
10417.225218
 30
0.0
  0
POINT
  5
7D24
  8
DEFPOINTS
  6
CONTINUOUS
 62
     0
 10
4528.214363
 20
9137.2252180000014
 30
0.0
  0
POINT
  5
7D25
  8
DEFPOINTS
  6
CONTINUOUS
 62
     0
 10
5037.8105990000013
 20
9137.2252180000014
 30
0.0
  0
ENDBLK
  5
7B6F
  8
0
  0
BLOCK
  8
0
  2
*D10
 70
     1
 10
0.0
 20
0.0
 30
0.0
  3
*D10
  1

  0
LINE
  5
7D26
  8
3
  6
CONTINUOUS
 62
     0
 10
6890.0026430000007
 20
7073.7252180000014
 30
0.0
 11
6890.0026430000007
 21
7302.8213079999996
 31
0.0
  0
LINE
  5
7D27
  8
3
  6
CONTINUOUS
 62
     0
 10
7840.0026430000007
 20
7073.7252180000014
 30
0.0
 11
7840.0026430000007
 21
7302.8213079999996
 31
0.0
  0
LINE
  5
7D28
  8
3
  6
CONTINUOUS
 62
     0
 10
6980.0026429999998
 20
7257.8213079999996
 30
0.0
 11
7750.0026430000007
 21
7257.8213079999996
 31
0.0
  0
INSERT
  5
7D29
  8
3
  6
CONTINUOUS
 62
     0
  2
_OPEN
 10
6890.0026430000007
 20
7257.8213079999996
 30
0.0
 41
90.0
 42
90.0
 43
90.0
 50
180.0
  0
INSERT
  5
7D2A
  8
3
  6
CONTINUOUS
 62
     0
  2
_OPEN
 10
7840.0026430000007
 20
7257.8213079999996
 30
0.0
 41
90.0
 42
90.0
 43
90.0
  0
TEXT
  8
3
  40
135
  5
7D75
  62
0
  72
0
  71
0
 10
7050.71
 20
7131.37
 30
0.000000
  1
950
  0
POINT
  5
7D2C
  8
DEFPOINTS
  6
CONTINUOUS
 62
     0
 10
6890.0026430000007
 20
7051.2252179999996
 30
0.0
  0
POINT
  5
7D2D
  8
DEFPOINTS
  6
CONTINUOUS
 62
     0
 10
7840.0026430000007
 20
7051.2252179999996
 30
0.0
  0
POINT
  5
7D2E
  8
DEFPOINTS
  6
CONTINUOUS
 62
     0
 10
7840.0026430000007
 20
7257.8213079999996
 30
0.0
  0
ENDBLK
  5
7B7F
  8
0
  0
BLOCK
  8
0
  2
*D11
 70
     1
 10
0.0
 20
0.0
 30
0.0
  3
*D11
  1

  0
LINE
  5
7D2F
  8
3
  6
CONTINUOUS
 62
     0
 10
6525.0026429999998
 20
6117.7252179999996
 30
0.0
 11
6525.0026429999998
 21
7612.2438549999997
 31
0.0
  0
LINE
  5
7D30
  8
3
  6
CONTINUOUS
 62
     0
 10
7365.0026430000007
 20
7481.643161
 30
0.0
 11
7365.0026430000007
 21
7612.2438549999997
 31
0.0
  0
LINE
  5
7D31
  8
3
  6
CONTINUOUS
 62
     0
 10
6615.0026429999998
 20
7567.2438549999997
 30
0.0
 11
7275.0026429999998
 21
7567.2438549999997
 31
0.0
  0
INSERT
  5
7D32
  8
3
  6
CONTINUOUS
 62
     0
  2
_OPEN
 10
6525.0026429999998
 20
7567.2438549999997
 30
0.0
 41
90.0
 42
90.0
 43
90.0
 50
180.0
  0
INSERT
  5
7D33
  8
3
  6
CONTINUOUS
 62
     0
  2
_OPEN
 10
7365.0026430000007
 20
7567.2438549999997
 30
0.0
 41
90.0
 42
90.0
 43
90.0
  0
TEXT
  8
3
  40
135
  5
7D76
  62
0
  72
0
  71
0
 10
6709.98
 20
7553.29
 30
0.000000
  1
MAX
  0
TEXT
  8
3
  40
135
  5
7D77
  62
0
  72
0
  71
0
 10
6709.98
 20
7377.79
 30
0.000000
  1
890
  0
POINT
  5
7D35
  8
DEFPOINTS
  6
CONTINUOUS
 62
     0
 10
6525.0026429999998
 20
6095.2252179999987
 30
0.0
  0
POINT
  5
7D36
  8
DEFPOINTS
  6
CONTINUOUS
 62
     0
 10
7365.0026430000007
 20
7459.143161
 30
0.0
  0
POINT
  5
7D37
  8
DEFPOINTS
  6
CONTINUOUS
 62
     0
 10
7365.0026430000007
 20
7567.2438549999997
 30
0.0
  0
ENDBLK
  5
7C75
  8
0
  0
BLOCK
  8
0
  2
*D12
 70
     1
 10
0.0
 20
0.0
 30
0.0
  3
*D12
  1

  0
LINE
  5
7D38
  8
3
  6
CONTINUOUS
 62
     0
 10
7943.0026430000007
 20
6414.7252179999996
 30
0.0
 11
7943.0026430000007
 21
7612.2438549999997
 31
0.0
  0
LINE
  5
7D39
  8
3
  6
CONTINUOUS
 62
     0
 10
7455.0026429999998
 20
7567.2438549999997
 30
0.0
 11
7853.0026429999998
 21
7567.2438549999997
 31
0.0
  0
TEXT
  8
3
  40
135
  5
7D78
  62
0
  72
0
  71
0
 10
7370.00
 20
7443.55
 30
0.000000
  1
578
  0
INSERT
  5
7D3B
  8
3
  6
CONTINUOUS
 62
     0
  2
_OPEN
 10
7365.0026430000007
 20
7567.2438549999997
 30
0.0
 41
90.0
 42
90.0
 43
90.0
 50
180.0
  0
INSERT
  5
7D3C
  8
3
  6
CONTINUOUS
 62
     0
  2
_OPEN
 10
7943.0026430000007
 20
7567.2438549999997
 30
0.0
 41
90.0
 42
90.0
 43
90.0
  0
POINT
  5
7D3D
  8
DEFPOINTS
  6
CONTINUOUS
 62
     0
 10
7365.0026430000007
 20
7459.143161
 30
0.0
  0
POINT
  5
7D3E
  8
DEFPOINTS
  6
CONTINUOUS
 62
     0
 10
7943.0026430000007
 20
6392.2252179999996
 30
0.0
  0
POINT
  5
7D3F
  8
DEFPOINTS
  6
CONTINUOUS
 62
     0
 10
7943.0026430000007
 20
7567.2438549999997
 30
0.0
  0
ENDBLK
  5
7C30
  8
0
  0
BLOCK
  8
0
  2
*D13
 70
     1
 10
0.0
 20
0.0
 30
0.0
  3
*D13
  1

  0
LINE
  5
7D40
  8
3
  6
CONTINUOUS
 62
     0
 10
7965.5026429999998
 20
6342.2252179999987
 30
0.0
 11
8355.0000000000018
 21
6342.2252179999987
 31
0.0
  0
LINE
  5
7D41
  8
3
  6
CONTINUOUS
 62
     0
 10
7965.5026429999998
 20
5092.2252179999987
 30
0.0
 11
8355.0000000000018
 21
5092.2252179999987
 31
0.0
  0
LINE
  5
7D42
  8
3
  6
CONTINUOUS
 62
     0
 10
8310.0000000000018
 20
6252.2252179999987
 30
0.0
 11
8310.0000000000018
 21
5182.2252179999996
 31
0.0
  0
INSERT
  5
7D43
  8
3
  6
CONTINUOUS
 62
     0
  2
_OPEN
 10
8310.0000000000018
 20
6342.2252179999987
 30
0.0
 41
90.0
 42
90.0
 43
90.0
 50
90.0
  0
INSERT
  5
7D44
  8
3
  6
CONTINUOUS
 62
     0
  2
_OPEN
 10
8310.0000000000018
 20
5092.2252179999987
 30
0.0
 41
90.0
 42
90.0
 43
90.0
 50
270.0
  0
TEXT
  8
3
  40
135
  5
7D79
  62
0
  72
0
  71
0
 10
7927.50
 20
5411.05
 30
0.000000
  1
φ1250
  0
POINT
  5
7D46
  8
DEFPOINTS
  6
CONTINUOUS
 62
     0
 10
7943.0026430000007
 20
6342.2252179999987
 30
0.0
  0
POINT
  5
7D47
  8
DEFPOINTS
  6
CONTINUOUS
 62
     0
 10
7943.0026430000007
 20
5092.2252179999987
 30
0.0
  0
POINT
  5
7D48
  8
DEFPOINTS
  6
CONTINUOUS
 62
     0
 10
8310.0000000000018
 20
5092.2252179999987
 30
0.0
  0
ENDBLK
  5
7C80
  8
0
  0
BLOCK
  8
0
  2
*D14
 70
     1
 10
0.0
 20
0.0
 30
0.0
  3
*D14
  1

  0
LINE
  5
7D49
  8
3
  6
CONTINUOUS
 62
     0
 10
6638.0026429999998
 20
4769.7252179999996
 30
0.0
 11
6638.0026429999998
 21
4385.2366758371636
 31
0.0
  0
LINE
  5
7D4A
  8
3
  6
CONTINUOUS
 62
     0
 10
7365.0026430000007
 20
4769.7252179999996
 30
0.0
 11
7365.0026430000007
 21
4385.2366758371636
 31
0.0
  0
LINE
  5
7D4B
  8
3
  6
CONTINUOUS
 62
     0
 10
6728.0026429999989
 20
4430.2366758371636
 30
0.0
 11
7275.0026429999998
 21
4430.2366758371636
 31
0.0
  0
INSERT
  5
7D4C
  8
3
  6
CONTINUOUS
 62
     0
  2
_OPEN
 10
6638.0026429999998
 20
4430.2366758371636
 30
0.0
 41
90.0
 42
90.0
 43
90.0
 50
180.0
  0
INSERT
  5
7D4D
  8
3
  6
CONTINUOUS
 62
     0
  2
_OPEN
 10
7365.0026430000007
 20
4430.2366758371636
 30
0.0
 41
90.0
 42
90.0
 43
90.0
  0
TEXT
  8
3
  40
135
  5
7D7A
  62
0
  72
0
  71
0
 10
6730.00
 20
4303.79
 30
0.000000
  1
727
  0
POINT
  5
7D4F
  8
DEFPOINTS
  6
CONTINUOUS
 62
     0
 10
6638.0026429999998
 20
4792.2252179999987
 30
0.0
  0
POINT
  5
7D50
  8
DEFPOINTS
  6
CONTINUOUS
 62
     0
 10
7365.0026430000007
 20
4792.2252179999987
 30
0.0
  0
POINT
  5
7D51
  8
DEFPOINTS
  6
CONTINUOUS
 62
     0
 10
7365.0026430000007
 20
4430.2366758371636
 30
0.0
  0
ENDBLK
  5
7CAD
  8
0
  0
BLOCK
  8
0
  2
*D15
 70
     1
 10
0.0
 20
0.0
 30
0.0
  3
*D15
  1

  0
LINE
  5
7D52
  8
3
  6
CONTINUOUS
 62
     0
 10
7918.0026430000007
 20
4769.7252179999996
 30
0.0
 11
7918.0026430000007
 21
4385.2366758371636
 31
0.0
  0
LINE
  5
7D53
  8
3
  6
CONTINUOUS
 62
     0
 10
7455.0026429999998
 20
4430.2366758371636
 30
0.0
 11
7828.0026430000007
 21
4430.2366758371636
 31
0.0
  0
TEXT
  8
3
  40
135
  5
7D7B
  62
0
  72
0
  71
0
 10
7370.00
 20
4303.79
 30
0.000000
  1
553
  0
INSERT
  5
7D55
  8
3
  6
CONTINUOUS
 62
     0
  2
_OPEN
 10
7365.0026430000007
 20
4430.2366758371636
 30
0.0
 41
90.0
 42
90.0
 43
90.0
 50
180.0
  0
INSERT
  5
7D56
  8
3
  6
CONTINUOUS
 62
     0
  2
_OPEN
 10
7918.0026430000007
 20
4430.2366758371636
 30
0.0
 41
90.0
 42
90.0
 43
90.0
  0
POINT
  5
7D57
  8
DEFPOINTS
  6
CONTINUOUS
 62
     0
 10
7365.0026430000007
 20
4792.2252179999987
 30
0.0
  0
POINT
  5
7D58
  8
DEFPOINTS
  6
CONTINUOUS
 62
     0
 10
7918.0026430000007
 20
4792.2252179999987
 30
0.0
  0
POINT
  5
7D59
  8
DEFPOINTS
  6
CONTINUOUS
 62
     0
 10
7918.0026430000007
 20
4430.2366758371636
 30
0.0
  0
ENDBLK
  5
7CA2
  8
0
  0
BLOCK
  8
0
  2
*D16
 70
     1
 10
0.0
 20
0.0
 30
0.0
  3
*D16
  1

  0
LINE
  5
7D5A
  8
3
  6
CONTINUOUS
 62
     0
 10
4625.714363
 20
7129.7252179999996
 30
0.0
 11
5795.0000000000009
 21
7129.7252179999996
 31
0.0
  0
LINE
  5
7D5B
  8
3
  6
CONTINUOUS
 62
     0
 10
4550.7143629999991
 20
4792.2252179999987
 30
0.0
 11
5795.0000000000009
 21
4792.2252179999987
 31
0.0
  0
LINE
  5
7D5C
  8
3
  6
CONTINUOUS
 62
     0
 10
5750.0000000000018
 20
7039.7252179999996
 30
0.0
 11
5750.0
 21
4882.2252179999996
 31
0.0
  0
INSERT
  5
7D5D
  8
3
  6
CONTINUOUS
 62
     0
  2
_OPEN
 10
5750.0000000000018
 20
7129.7252179999996
 30
0.0
 41
90.0
 42
90.0
 43
90.0
 50
90.0
  0
INSERT
  5
7D5E
  8
3
  6
CONTINUOUS
 62
     0
  2
_OPEN
 10
5750.0
 20
4792.2252179999987
 30
0.0
 41
90.0
 42
90.0
 43
90.0
 50
270.0
  0
TEXT
  8
3
  40
135
  5
7D7C
  62
0
  72
0
  71
0
 10
5367.50
 20
5661.05
 30
0.000000
  1
2338
  0
POINT
  5
7D60
  8
DEFPOINTS
  6
CONTINUOUS
 62
     0
 10
4603.214363
 20
7129.7252179999996
 30
0.0
  0
POINT
  5
7D61
  8
DEFPOINTS
  6
CONTINUOUS
 62
     0
 10
4528.214363
 20
4792.2252179999987
 30
0.0
  0
POINT
  5
7D62
  8
DEFPOINTS
  6
CONTINUOUS
 62
     0
 10
5750.0
 20
4792.2252179999987
 30
0.0
  0
ENDBLK
  5
7C25
  8
0
  0
BLOCK
  8
0
  2
*D17
 70
     1
 10
0.0
 20
0.0
 30
0.0
  3
*D17
  1

  0
LINE
  5
7D63
  8
3
 62
     0
 10
4603.214363
 20
7129.7252179999996
 30
0.0
 11
4603.214363
 21
7545.0
 31
0.0
  0
LINE
  5
7D64
  8
3
 62
     0
 10
1978.214363
 20
4964.7252179999987
 30
0.0
 11
1978.214363
 21
7545.0
 31
0.0
  0
LINE
  5
7D65
  8
3
 62
     0
 10
4513.214363
 20
7500.0
 30
0.0
 11
2068.214363
 21
7500.0
 31
0.0
  0
INSERT
  5
7D66
  8
3
 62
     0
  2
_OPEN
 10
4603.214363
 20
7500.0
 30
0.0
 41
90.0
 42
90.0
 43
90.0
  0
INSERT
  5
7D67
  8
3
 62
     0
  2
_OPEN
 10
1978.214363
 20
7500.0
 30
0.0
 41
90.0
 42
90.0
 43
90.0
 50
180.0
  0
TEXT
  8
3
  40
135
  5
7D7D
  62
0
  72
0
  71
0
 10
3020.00
 20
7373.55
 30
0.000000
  1
2625
  0
POINT
  5
7D69
  8
DEFPOINTS
 62
     0
 10
4603.214363
 20
7107.2252179999996
 30
0.0
  0
POINT
  5
7D6A
  8
DEFPOINTS
 62
     0
 10
1978.214363
 20
4942.2252179999987
 30
0.0
  0
POINT
  5
7D6B
  8
DEFPOINTS
 62
     0
 10
1978.214363
 20
7500.0
 30
0.0
  0
ENDBLK
  5
7C8C
  8
0
  0
ENDSEC
  0
SECTION
  2
ENTITIES
  0
LINE
  5
7A6B
  8
1
  6
CONTINUOUS
 10
3877.967204
 20
5352.6249289999996
 30
0.0
 11
2461.2715720000001
 21
4965.0239920000004
 31
0.0
  0
LINE
  5
7A6C
  8
1
  6
CONTINUOUS
 10
3851.5775629999998
 20
5449.0800319999998
 30
0.0
 11
2434.8819319999998
 21
5061.4790950000006
 31
0.0
  0
LINE
  5
7A6D
  8
1
  6
CONTINUOUS
 10
3603.1984309999998
 20
6052.2676380000003
 30
0.0
 11
2301.3532379999988
 21
5372.2234520000002
 31
0.0
  0
LINE
  5
7A6E
  8
1
  6
CONTINUOUS
 10
3649.4989420000002
 20
5963.6320770000002
 30
0.0
 11
2347.6537499999999
 21
5283.5878909999992
 31
0.0
  0
LINE
  5
7A6F
  8
1
  6
CONTINUOUS
 10
4528.214363
 20
4942.2252179999987
 30
0.0
 11
1978.214363
 21
4942.2252179999987
 31
0.0
  0
LINE
  5
7A70
  8
1
  6
CONTINUOUS
 10
4528.214363
 20
4792.2252179999987
 30
0.0
 11
1978.214363
 21
4792.2252179999987
 31
0.0
  0
POLYLINE
  5
7A71
  8
1
  6
CONTINUOUS
 66
     1
 10
0.0
 20
0.0
 30
0.0
  0
VERTEX
  5
7CD1
  8
1
  6
CONTINUOUS
 10
4603.214363
 20
7051.2252179999996
 30
0.0
  0
VERTEX
  5
7CD2
  8
1
  6
CONTINUOUS
 10
3778.214363
 20
6978.2252179999996
 30
0.0
 42
0.391657
  0
VERTEX
  5
7CD3
  8
1
  6
CONTINUOUS
 10
2695.6808099999998
 20
5808.2252179999996
 30
0.0
 42
0.4387800000000001
  0
VERTEX
  5
7CD4
  8
1
  6
CONTINUOUS
 10
3769.5567430000001
 20
4820.1166620000004
 30
0.0
 42
0.390066
  0
VERTEX
  5
7CD5
  8
1
  6
CONTINUOUS
 10
4524.1655920000012
 20
5640.2252179999996
 30
0.0
 42
0.049316
  0
VERTEX
  5
7CD6
  8
1
  6
CONTINUOUS
 10
4511.2134079999987
 20
5771.2252179999996
 30
0.0
 42
0.393627
  0
SEQEND
  5
7CD7
  8
1
  6
CONTINUOUS
  0
LINE
  5
7A79
  8
1
  6
CONTINUOUS
 10
1978.214363
 20
4942.2252179999987
 30
0.0
 11
1978.214363
 21
4792.2252179999987
 31
0.0
  0
ARC
  5
7A7A
  8
1
  6
CONTINUOUS
 10
2403.214363
 20
5177.2252179999996
 30
0.0
 40
220.0
 50
117.581193
 51
285.30138699999998
  0
ARC
  5
7A7B
  8
1
  6
CONTINUOUS
 10
2403.214363
 20
5177.2252179999996
 30
0.0
 40
199.0
 50
320.126825
 51
219.87317499999989
  0
LINE
  5
7A7C
  8
2
  6
CENTER
 10
2283.214363
 20
5177.2252179999996
 30
0.0
 11
2523.214363
 21
5177.2252179999996
 31
0.0
  0
CIRCLE
  5
7A7D
  8
1
  6
CONTINUOUS
 10
2403.214363
 20
5177.2252179999996
 30
0.0
 40
120.0
  0
LINE
  5
7A7E
  8
1
  6
CONTINUOUS
 10
2628.214363
 20
4997.2252179999996
 30
0.0
 11
2178.2143629999991
 21
4997.2252179999996
 31
0.0
  0
LINE
  5
7A7F
  8
2
  6
CENTER
 10
2403.214363
 20
5057.2252179999996
 30
0.0
 11
2403.214363
 21
5297.2252179999996
 31
0.0
  0
LINE
  5
7A80
  8
1
  6
CONTINUOUS
 10
2178.2143629999991
 20
4942.2252179999987
 30
0.0
 11
2178.2143629999991
 21
4997.2252179999996
 31
0.0
  0
LINE
  5
7A81
  8
1
  6
CONTINUOUS
 10
2241.214363
 20
4997.2252179999996
 30
0.0
 11
2241.214363
 21
5039.7244009999986
 31
0.0
  0
LINE
  5
7A82
  8
1
  6
CONTINUOUS
 10
2241.214363
 20
4997.2252179999996
 30
0.0
 11
2301.214363
 21
4997.2252179999996
 31
0.0
  0
LINE
  5
7A83
  8
1
  6
CONTINUOUS
 10
2241.214363
 20
5039.7244009999986
 30
0.0
 11
2250.4887519999988
 21
5049.6482299999989
 31
0.0
  0
LINE
  5
7A84
  8
1
  6
CONTINUOUS
 10
2628.214363
 20
4942.2252179999987
 30
0.0
 11
2628.214363
 21
4997.2252179999996
 31
0.0
  0
LINE
  5
7A85
  8
1
  6
CONTINUOUS
 10
2565.214363
 20
4997.2252179999996
 30
0.0
 11
2565.214363
 21
5039.7244009999986
 31
0.0
  0
LINE
  5
7A86
  8
1
  6
CONTINUOUS
 10
2565.214363
 20
5039.7244009999986
 30
0.0
 11
2555.9399739999999
 21
5049.6482299999989
 31
0.0
  0
ARC
  5
7A87
  8
1
  6
CONTINUOUS
 10
3778.214363
 20
5717.2252179999987
 30
0.0
 40
378.0
 50
285.30138699999998
 51
117.581193
  0
LINE
  5
7A88
  8
2
  6
CENTER
 10
2526.5448000000001
 20
5717.2252179999987
 30
0.0
 11
4668.6674219999986
 21
5717.2252179999987
 31
0.0
  0
CIRCLE
  5
7A89
  8
1
  6
CONTINUOUS
 10
3778.214363
 20
5717.2252179999987
 30
0.0
 40
278.0
  0
CIRCLE
  5
7A8A
  8
1
  6
CONTINUOUS
 10
3778.214363
 20
5717.2252179999987
 30
0.0
 40
675.0
  0
CIRCLE
  5
7A8B
  8
1
  6
CONTINUOUS
 10
3778.214363
 20
5717.2252179999987
 30
0.0
 40
625.0
  0
LINE
  5
7A8C
  8
2
  6
CENTER
 10
3778.214363
 20
4685.0937409999997
 30
0.0
 11
3778.214363
 21
7042.7845439999992
 31
0.0
  0
LINE
  5
7A8D
  8
1
  6
CONTINUOUS
 10
4553.214363
 20
5771.2252179999996
 30
0.0
 11
4553.214363
 21
7051.2252179999996
 31
0.0
  0
LINE
  5
7A8E
  8
1
  6
CONTINUOUS
 10
4603.214363
 20
5721.2252179999996
 30
0.0
 11
4603.214363
 21
7107.2252179999996
 31
0.0
  0
LINE
  5
7A8F
  8
1
  6
CONTINUOUS
 10
4511.2134079999987
 20
5771.2252179999996
 30
0.0
 11
4603.214363
 21
5771.2252179999996
 31
0.0
  0
LINE
  5
7A90
  8
1
  6
CONTINUOUS
 10
4528.214363
 20
4942.2252179999987
 30
0.0
 11
4528.214363
 21
4792.2252179999987
 31
0.0
  0
LINE
  5
7A91
  8
1
  6
CONTINUOUS
 10
6890.0026430000007
 20
7051.2252179999996
 30
0.0
 11
7840.0026430000007
 21
5771.2252179999996
 31
0.0
  0
LINE
  5
7A92
  8
1
  6
CONTINUOUS
 10
6890.0026430000007
 20
5771.2252179999996
 30
0.0
 11
7840.0026430000007
 21
7051.2252179999996
 31
0.0
  0
LINE
  5
7A93
  8
1
  6
CONTINUOUS
 10
6890.0026430000007
 20
5771.2252179999996
 30
0.0
 11
7840.0026430000007
 21
5771.2252179999996
 31
0.0
  0
LINE
  5
7A94
  8
1
  6
CONTINUOUS
 10
6890.0026430000007
 20
7051.2252179999996
 30
0.0
 11
7840.0026430000007
 21
7051.2252179999996
 31
0.0
  0
LINE
  5
7A95
  8
1
  6
CONTINUOUS
 10
7918.0026430000007
 20
4942.2252179999987
 30
0.0
 11
6638.0026429999998
 21
4942.2252179999987
 31
0.0
  0
LINE
  5
7A96
  8
1
  6
CONTINUOUS
 10
7918.0026430000007
 20
4792.2252179999987
 30
0.0
 11
6638.0026429999998
 21
4792.2252179999987
 31
0.0
  0
LINE
  5
7A97
  8
1
  6
CONTINUOUS
 10
6890.0026430000007
 20
4942.2252179999987
 30
0.0
 11
6890.0026430000007
 21
7051.2252179999996
 31
0.0
  0
LINE
  5
7A98
  8
1
  6
CONTINUOUS
 10
6695.0026429999989
 20
5204.7252179999996
 30
0.0
 11
6890.0026430000007
 21
5204.7252179999996
 31
0.0
  0
LINE
  5
7A99
  8
1
  6
CONTINUOUS
 10
6695.0026429999989
 20
5149.7252179999996
 30
0.0
 11
6890.0026430000007
 21
5149.7252179999996
 31
0.0
  0
LINE
  5
7A9A
  8
1
  6
CONTINUOUS
 10
6695.0026429999989
 20
5689.7252179999987
 30
0.0
 11
6890.0026430000007
 21
5689.7252179999987
 31
0.0
  0
LINE
  5
7A9B
  8
1
  6
CONTINUOUS
 10
6695.0026429999989
 20
5744.7252179999996
 30
0.0
 11
6890.0026430000007
 21
5744.7252179999996
 31
0.0
  0
LINE
  5
7A9C
  8
1
  6
CONTINUOUS
 10
6765.0026430000007
 20
4957.2252179999996
 30
0.0
 11
6765.0026430000007
 21
6095.2252179999987
 31
0.0
  0
LINE
  5
7A9D
  8
1
  6
CONTINUOUS
 10
6525.0026429999998
 20
4957.2252179999996
 30
0.0
 11
6525.0026429999998
 21
6095.2252179999987
 31
0.0
  0
LINE
  5
7A9E
  8
1
  6
CONTINUOUS
 10
6595.0026429999989
 20
5057.2252179999996
 30
0.0
 11
6595.0026429999989
 21
5297.2252179999996
 31
0.0
  0
LINE
  5
7A9F
  8
1
  6
CONTINUOUS
 10
6695.0026429999989
 20
5057.2252179999996
 30
0.0
 11
6695.0026429999989
 21
5297.2252179999996
 31
0.0
  0
LINE
  5
7AA0
  8
1
  6
CONTINUOUS
 10
6525.0026429999998
 20
4957.2252179999996
 30
0.0
 11
6765.0026430000007
 21
4957.2252179999996
 31
0.0
  0
LINE
  5
7AA1
  8
1
  6
CONTINUOUS
 10
6595.0026429999989
 20
5297.2252179999996
 30
0.0
 11
6695.0026429999989
 21
5297.2252179999996
 31
0.0
  0
LINE
  5
7AA2
  8
1
  6
CONTINUOUS
 10
6595.0026429999989
 20
5057.2252179999996
 30
0.0
 11
6695.0026429999989
 21
5057.2252179999996
 31
0.0
  0
LINE
  5
7AA3
  8
1
  6
CONTINUOUS
 10
6638.0026429999998
 20
4792.2252179999987
 30
0.0
 11
6638.0026429999998
 21
4942.2252179999987
 31
0.0
  0
LINE
  5
7AA4
  8
1
  6
CONTINUOUS
 10
6695.0026429999989
 20
5439.2252179999996
 30
0.0
 11
6695.0026429999989
 21
5995.2252179999987
 31
0.0
  0
LINE
  5
7AA5
  8
1
  6
CONTINUOUS
 10
6595.0026429999989
 20
5439.2252179999996
 30
0.0
 11
6595.0026429999989
 21
5995.2252179999987
 31
0.0
  0
LINE
  5
7AA6
  8
1
  6
CONTINUOUS
 10
6525.0026429999998
 20
6095.2252179999987
 30
0.0
 11
6765.0026430000007
 21
6095.2252179999987
 31
0.0
  0
LINE
  5
7AA7
  8
1
  6
CONTINUOUS
 10
6595.0026429999989
 20
5439.2252179999996
 30
0.0
 11
6695.0026429999989
 21
5439.2252179999996
 31
0.0
  0
LINE
  5
7AA8
  8
1
  6
CONTINUOUS
 10
6595.0026429999989
 20
5995.2252179999987
 30
0.0
 11
6695.0026429999989
 21
5995.2252179999987
 31
0.0
  0
LINE
  5
7AA9
  8
1
  6
CONTINUOUS
 10
7943.0026430000007
 20
5042.2252179999987
 30
0.0
 11
7943.0026430000007
 21
6392.2252179999996
 31
0.0
  0
LINE
  5
7AAA
  8
1
  6
CONTINUOUS
 10
7840.0026430000007
 20
4942.2252179999987
 30
0.0
 11
7840.0026430000007
 21
7051.2252179999996
 31
0.0
  0
LINE
  5
7AAB
  8
1
  6
CONTINUOUS
 10
7840.0026430000007
 20
5092.2252179999987
 30
0.0
 11
7943.0026430000007
 21
5092.2252179999987
 31
0.0
  0
LINE
  5
7AAC
  8
1
  6
CONTINUOUS
 10
7918.0026430000007
 20
4792.2252179999987
 30
0.0
 11
7918.0026430000007
 21
4942.2252179999987
 31
0.0
  0
LINE
  5
7AAD
  8
1
  6
CONTINUOUS
 10
7840.0026430000007
 20
6342.2252179999987
 30
0.0
 11
7943.0026430000007
 21
6342.2252179999987
 31
0.0
  0
LINE
  5
7AAE
  8
1
  6
CONTINUOUS
 10
3153.214363
 20
10417.225218
 30
0.0
 11
1978.214363
 21
10417.225218
 31
0.0
  0
LINE
  5
7AAF
  8
1
  6
CONTINUOUS
 10
2523.214363
 20
9137.2252180000014
 30
0.0
 11
3500.2143629999991
 21
9137.2252180000014
 31
0.0
  0
LINE
  5
7AB0
  8
1
  6
CONTINUOUS
 10
4156.214363
 20
9264.2252180000014
 30
0.0
 11
2083.214363
 21
9264.2252180000014
 31
0.0
  0
LINE
  5
7AB1
  8
1
  6
CONTINUOUS
 10
4156.214363
 20
9024.2252180000032
 30
0.0
 11
2083.214363
 21
9024.2252180000032
 31
0.0
  0
LINE
  5
7AB2
  8
1
  6
CONTINUOUS
 10
4603.214363
 20
9389.2252180000014
 30
0.0
 11
2695.6808099999998
 21
9389.2252180000014
 31
0.0
  0
LINE
  5
7AB3
  8
1
  6
CONTINUOUS
 10
4603.214363
 20
10339.225218
 30
0.0
 11
2695.6808099999998
 21
10339.225218
 31
0.0
  0
LINE
  5
7AB4
  8
1
  6
CONTINUOUS
 10
1978.214363
 20
10417.225218
 30
0.0
 11
1978.214363
 21
9137.2252180000014
 31
0.0
  0
LINE
  5
7AB5
  8
1
  6
CONTINUOUS
 10
1978.214363
 20
9137.2252180000014
 30
0.0
 11
2283.214363
 21
9137.2252180000014
 31
0.0
  0
LINE
  5
7AB6
  8
1
  6
CONTINUOUS
 10
2083.214363
 20
9024.2252180000032
 30
0.0
 11
2083.214363
 21
9264.2252180000014
 31
0.0
  0
LINE
  5
7AB7
  8
1
  6
CONTINUOUS
 10
2695.6808099999998
 20
9389.2252180000014
 30
0.0
 11
2695.6808099999998
 21
10339.225218
 31
0.0
  0
LINE
  5
7AB8
  8
1
  6
CONTINUOUS
 10
2204.116348999999
 20
9308.7584110000007
 30
0.0
 11
2204.116348999999
 21
9908.2584110000025
 31
0.0
  0
LINE
  5
7AB9
  8
1
  6
CONTINUOUS
 10
2602.3123770000002
 20
9308.7584110000007
 30
0.0
 11
2602.3123770000002
 21
9908.2584110000025
 31
0.0
  0
LINE
  5
7ABA
  8
1
  6
CONTINUOUS
 10
2283.214363
 20
9094.2252180000014
 30
0.0
 11
2523.214363
 21
9094.2252180000014
 31
0.0
  0
LINE
  5
7ABB
  8
1
  6
CONTINUOUS
 10
2283.214363
 20
9194.2252180000014
 30
0.0
 11
2523.214363
 21
9194.2252180000014
 31
0.0
  0
LINE
  5
7ABC
  8
1
  6
CONTINUOUS
 10
2204.116348999999
 20
9308.7584110000007
 30
0.0
 11
2602.3123770000002
 21
9308.7584110000007
 31
0.0
  0
LINE
  5
7ABD
  8
1
  6
CONTINUOUS
 10
2283.214363
 20
9094.2252180000014
 30
0.0
 11
2283.214363
 21
9194.2252180000014
 31
0.0
  0
LINE
  5
7ABE
  8
1
  6
CONTINUOUS
 10
2375.714363
 20
9194.2252180000014
 30
0.0
 11
2375.714363
 21
9308.7584110000007
 31
0.0
  0
LINE
  5
7ABF
  8
1
  6
CONTINUOUS
 10
2523.214363
 20
9094.2252180000014
 30
0.0
 11
2523.214363
 21
9194.2252180000014
 31
0.0
  0
LINE
  5
7AC0
  8
1
  6
CONTINUOUS
 10
2430.714363
 20
9194.2252180000014
 30
0.0
 11
2430.714363
 21
9308.7584110000007
 31
0.0
  0
LINE
  5
7AC1
  8
1
  6
CONTINUOUS
 10
2204.116348999999
 20
9908.2584110000025
 30
0.0
 11
2602.3123770000002
 21
9908.2584110000025
 31
0.0
  0
LINE
  5
7AC2
  8
1
  6
CONTINUOUS
 10
3500.2143629999991
 20
9094.2252180000014
 30
0.0
 11
4056.214363
 21
9094.2252180000014
 31
0.0
  0
LINE
  5
7AC3
  8
1
  6
CONTINUOUS
 10
3500.2143629999991
 20
9194.2252180000014
 30
0.0
 11
4056.214363
 21
9194.2252180000014
 31
0.0
  0
LINE
  5
7AC4
  8
1
  6
CONTINUOUS
 10
4453.2143629999991
 20
10442.225218
 30
0.0
 11
3103.214363
 21
10442.225218
 31
0.0
  0
LINE
  5
7AC5
  8
1
  6
CONTINUOUS
 10
3153.214363
 20
10339.225218
 30
0.0
 11
3153.214363
 21
10442.225218
 31
0.0
  0
LINE
  5
7AC6
  8
1
  6
CONTINUOUS
 10
3500.2143629999991
 20
9094.2252180000014
 30
0.0
 11
3500.2143629999991
 21
9194.2252180000014
 31
0.0
  0
LINE
  5
7AC7
  8
1
  6
CONTINUOUS
 10
3805.7143629999991
 20
9194.2252180000014
 30
0.0
 11
3805.7143629999991
 21
9389.2252180000014
 31
0.0
  0
LINE
  5
7AC8
  8
1
  6
CONTINUOUS
 10
3750.714363
 20
9194.2252180000014
 30
0.0
 11
3750.714363
 21
9389.2252180000014
 31
0.0
  0
LINE
  5
7AC9
  8
1
  6
CONTINUOUS
 10
4528.214363
 20
10339.225218
 30
0.0
 11
4528.214363
 21
10417.225218
 31
0.0
  0
LINE
  5
7ACA
  8
1
  6
CONTINUOUS
 10
4403.214363
 20
10339.225218
 30
0.0
 11
4403.214363
 21
10442.225218
 31
0.0
  0
LINE
  5
7ACB
  8
1
  6
CONTINUOUS
 10
4603.214363
 20
9339.2252180000014
 30
0.0
 11
4603.214363
 21
10389.225218
 31
0.0
  0
LINE
  5
7ACC
  8
1
  6
CONTINUOUS
 10
4056.214363
 20
9137.2252180000014
 30
0.0
 11
4528.214363
 21
9137.2252180000014
 31
0.0
  0
LINE
  5
7ACD
  8
1
  6
CONTINUOUS
 10
4156.214363
 20
9024.2252180000032
 30
0.0
 11
4156.214363
 21
9264.2252180000014
 31
0.0
  0
LINE
  5
7ACE
  8
1
  6
CONTINUOUS
 10
4056.214363
 20
9094.2252180000014
 30
0.0
 11
4056.214363
 21
9194.2252180000014
 31
0.0
  0
LINE
  5
7ACF
  8
1
  6
CONTINUOUS
 10
4528.214363
 20
9137.2252180000014
 30
0.0
 11
4528.214363
 21
9389.2252180000014
 31
0.0
  0
LINE
  5
7AD0
  8
1
  6
CONTINUOUS
 10
4553.214363
 20
9389.2252180000014
 30
0.0
 11
4553.214363
 21
10339.225218
 31
0.0
  0
LINE
  5
7AD1
  8
1
  6
CONTINUOUS
 10
4528.214363
 20
10417.225218
 30
0.0
 11
4403.214363
 21
10417.225218
 31
0.0
  0
DIMENSION
  5
7AE5
  8
3
  6
CONTINUOUS
  2
*D1
 10
3778.214363
 20
4373.9073649999991
 30
0.0
 11
2968.273467
 21
4373.9073649999991
 31
0.0
 70
   128
 13
1978.214363
 23
4792.2252179999987
 33
0.0
 14
3778.214363
 24
4685.0937409999997
 34
0.0
1001
ACAD
1000
DSTYLE
1002
{
1070
   287
1070
     3
1070
    40
1040
45.0
1070
   143
1040
0.039
1070
   172
1070
     1
1070
   271
1070
     0
1070
   279
1070
     0
1070
   288
1070
     1
1002
}
  0
DIMENSION
  5
7AF1
  8
3
  6
CONTINUOUS
  2
*D2
 10
4528.214363
 20
4373.9073649999991
 30
0.0
 11
4153.214363
 21
4486.407365
 31
0.0
 70
     0
 13
3778.214363
 23
4685.0937409999997
 33
0.0
 14
4528.214363
 24
4792.2252179999987
 34
0.0
1001
ACAD
1000
DSTYLE
1002
{
1070
   287
1070
     4
1070
    40
1040
45.0
1070
    75
1070
     1
1070
   143
1040
0.039
1070
   172
1070
     1
1070
   271
1070
     0
1070
   279
1070
     1
1070
   288
1070
     1
1002
}
  0
DIMENSION
  5
7AFE
  8
3
  6
CONTINUOUS
  2
*D3
 10
5014.3906620000007
 20
5771.2252179999996
 30
0.0
 11
5014.3906619999998
 21
6443.1661849999991
 31
0.0
 70
   128
 13
4603.214363
 23
7051.2252179999996
 33
0.0
 14
4603.214363
 24
5771.2252179999996
 34
0.0
 50
90.0
1001
ACAD
1000
DSTYLE
1002
{
1070
   287
1070
     3
1070
    40
1040
45.0
1070
   143
1040
0.039
1070
   172
1070
     1
1070
   271
1070
     0
1070
   279
1070
     0
1070
   288
1070
     1
1002
}
  0
DIMENSION
  5
7B0B
  8
3
  6
CONTINUOUS
  2
*D4
 10
5395.391815
 20
5717.2252179999987
 30
0.0
 11
5395.391814999999
 21
6457.2620909999996
 31
0.0
 70
   128
 13
4603.214363
 23
7051.2252179999996
 33
0.0
 14
4519.7192780000014
 24
5717.2252179999987
 34
0.0
 50
90.0
1001
ACAD
1000
DSTYLE
1002
{
1070
   287
1070
     3
1070
    40
1040
45.0
1070
   143
1040
0.039
1070
   172
1070
     1
1070
   271
1070
     0
1070
   279
1070
     0
1070
   288
1070
     1
1002
}
  0
DIMENSION
  5
7B17
  8
3
  6
CONTINUOUS
  2
*D5
 10
5395.391814999999
 20
4792.2252179999987
 30
0.0
 11
5282.891814999999
 21
5254.7252179999996
 31
0.0
 70
     0
 13
4519.7192780000014
 23
5717.2252179999987
 33
0.0
 14
4528.214363
 24
4792.2252179999987
 34
0.0
 50
90.0
1001
ACAD
1000
DSTYLE
1002
{
1070
   287
1070
     4
1070
    40
1040
45.0
1070
    75
1070
     1
1070
   143
1040
0.039
1070
   172
1070
     1
1070
   271
1070
     0
1070
   279
1070
     1
1070
   288
1070
     1
1002
}
  0
DIMENSION
  5
7B31
  8
3
  6
CONTINUOUS
  2
*D6
 10
3778.214363
 20
7204.3456309999992
 30
0.0
 11
4195.9438170000003
 21
7204.3456309999992
 31
0.0
 70
   128
 13
4603.214363
 23
7107.2252179999996
 33
0.0
 14
3778.214363
 24
6978.2252179999996
 34
0.0
1001
ACAD
1000
DSTYLE
1002
{
1070
   287
1070
     3
1070
    40
1040
45.0
1070
   143
1040
0.039
1070
   172
1070
     1
1070
   271
1070
     0
1070
   279
1070
     0
1070
   288
1070
     1
1002
}
  0
DIMENSION
  5
7B3D
  8
3
  6
CONTINUOUS
  2
*D7
 10
2699.214363
 20
7204.3456309999992
 30
0.0
 11
3238.714363
 21
7316.8456309999992
 31
0.0
 70
     0
 13
3778.214363
 23
6978.2252179999996
 33
0.0
 14
2699.214363
 24
5717.2252179999987
 34
0.0
1001
ACAD
1000
DSTYLE
1002
{
1070
   287
1070
     4
1070
    40
1040
45.0
1070
    75
1070
     1
1070
   143
1040
0.039
1070
   172
1070
     1
1070
   271
1070
     0
1070
   279
1070
     1
1070
   288
1070
     1
1002
}
  0
LINE
  5
7B3E
  8
2
  6
CENTER
 10
6439.6171489999997
 20
5717.2252179999987
 30
0.0
 11
8036.9685529999988
 21
5717.2252179999987
 31
0.0
  0
DIMENSION
  5
7B63
  8
3
  6
CONTINUOUS
  2
*D8
 10
4528.214363
 20
8614.9296470000027
 30
0.0
 11
3256.7077359999998
 21
8614.9296470000027
 31
0.0
 70
   128
 13
1978.214363
 23
9137.2252180000014
 33
0.0
 14
4528.214363
 24
9137.2252180000014
 34
0.0
1001
ACAD
1000
DSTYLE
1002
{
1070
   287
1070
     3
1070
    40
1040
45.0
1070
   143
1040
0.039
1070
   172
1070
     1
1070
   271
1070
     0
1070
   279
1070
     0
1070
   288
1070
     1
1002
}
  0
DIMENSION
  5
7B70
  8
3
  6
CONTINUOUS
  2
*D9
 10
5037.8105990000013
 20
9137.2252180000014
 30
0.0
 11
5037.8105990000004
 21
9852.6197430000011
 31
0.0
 70
   128
 13
4528.214363
 23
10417.225218
 33
0.0
 14
4528.214363
 24
9137.2252180000014
 34
0.0
 50
90.0
1001
ACAD
1000
DSTYLE
1002
{
1070
   287
1070
     3
1070
    40
1040
45.0
1070
   143
1040
0.039
1070
   172
1070
     1
1070
   271
1070
     0
1070
   279
1070
     0
1070
   288
1070
     1
1002
}
  0
LINE
  5
7B71
  8
2
  6
CENTER
 10
2595.0098239999988
 20
9864.2252180000014
 30
0.0
 11
4751.2853839999998
 21
9864.2252180000014
 31
0.0
  0
LINE
  5
7B72
  8
2
  6
CENTER
 10
3778.214363
 20
8958.3926129999982
 30
0.0
 11
3778.214363
 21
10590.753901
 31
0.0
  0
LINE
  5
7B73
  8
2
  6
CENTER
 10
7365.0026430000007
 20
7270.0
 30
0.0
 11
7365.0026430000007
 21
4496.0376328371649
 31
0.0
  0
DIMENSION
  5
7B80
  8
3
  6
CONTINUOUS
  2
*D10
 10
7840.0026430000007
 20
7257.8213079999996
 30
0.0
 11
7320.7106969999986
 21
7257.8213079999996
 31
0.0
 70
   128
 13
6890.0026430000007
 23
7051.2252179999996
 33
0.0
 14
7840.0026430000007
 24
7051.2252179999996
 34
0.0
1001
ACAD
1000
DSTYLE
1002
{
1070
   287
1070
     3
1070
    40
1040
45.0
1070
   143
1040
0.039
1070
   172
1070
     1
1070
   271
1070
     0
1070
   279
1070
     0
1070
   288
1070
     1
1002
}
  0
DIMENSION
  5
7B8D
  8
3
  6
CONTINUOUS
  2
*D11
 10
7365.0026430000007
 20
7567.2438549999997
 30
0.0
 11
6979.9779449999996
 21
7567.2438549999997
 31
0.0
 70
   128
  1
MAX\P890
 13
6525.0026429999998
 23
6095.2252179999987
 33
0.0
 14
7365.0026430000007
 24
7459.143161
 34
0.0
1001
ACAD
1000
DSTYLE
1002
{
1070
   287
1070
     3
1070
    40
1040
45.0
1070
   143
1040
0.039
1070
   172
1070
     1
1070
   271
1070
     0
1070
   279
1070
     0
1070
   288
1070
     1
1002
}
  0
DIMENSION
  5
7B9B
  8
3
  6
CONTINUOUS
  2
*D12
 10
7943.0026430000007
 20
7567.2438549999997
 30
0.0
 11
7640.0
 21
7570.0
 31
0.0
 70
   128
 13
7365.0026430000007
 23
7459.143161
 33
0.0
 14
7943.0026430000007
 24
6392.2252179999996
 34
0.0
1001
ACAD
1000
DSTYLE
1002
{
1070
   287
1070
     4
1070
    40
1040
45.0
1070
    75
1070
     1
1070
   143
1040
0.039
1070
   172
1070
     1
1070
   271
1070
     0
1070
   279
1070
     1
1070
   288
1070
     1
1002
}
  0
DIMENSION
  5
7BBE
  8
3
  6
CONTINUOUS
  2
*D13
 10
8310.0000000000018
 20
5092.2252179999987
 30
0.0
 11
8310.0
 21
5650.0
 31
0.0
 70
   128
 13
7943.0026430000007
 23
6342.2252179999987
 33
0.0
 14
7943.0026430000007
 24
5092.2252179999987
 34
0.0
 50
90.0
1001
ACAD
1000
DSTYLE
1002
{
1070
   287
1070
     3
1070
     3
1000
φ<>
1070
    40
1040
45.0
1070
   143
1040
0.039
1070
   172
1070
     1
1070
   271
1070
     0
1070
   279
1070
     0
1070
   288
1070
     1
1002
}
  0
DIMENSION
  5
7BCB
  8
3
  6
CONTINUOUS
  2
*D14
 10
7365.0026430000007
 20
4430.2366758371636
 30
0.0
 11
7000.0
 21
4430.2366758371636
 31
0.0
 70
   128
 13
6638.0026429999998
 23
4792.2252179999987
 33
0.0
 14
7365.0026430000007
 24
4792.2252179999987
 34
0.0
1001
ACAD
1000
DSTYLE
1002
{
1070
   287
1070
     3
1070
    40
1040
45.0
1070
   143
1040
0.039
1070
   172
1070
     1
1070
   271
1070
     0
1070
   279
1070
     0
1070
   288
1070
     1
1002
}
  0
DIMENSION
  5
7BD9
  8
3
  6
CONTINUOUS
  2
*D15
 10
7918.0026430000007
 20
4430.2366758371636
 30
0.0
 11
7640.0
 21
4430.2366758371636
 31
0.0
 70
   128
 13
7365.0026430000007
 23
4792.2252179999987
 33
0.0
 14
7918.0026430000007
 24
4792.2252179999987
 34
0.0
1001
ACAD
1000
DSTYLE
1002
{
1070
   287
1070
     4
1070
    40
1040
45.0
1070
    75
1070
     1
1070
   143
1040
0.039
1070
   172
1070
     1
1070
   271
1070
     0
1070
   279
1070
     1
1070
   288
1070
     1
1002
}
  0
LINE
  5
7BF0
  8
4
  6
CONTINUOUS
 10
9250.0
 20
2500.0
 30
0.0
 11
9250.0
 21
1500.0
 31
0.0
  0
LINE
  5
7BF1
  8
4
  6
CONTINUOUS
 10
5750.0
 20
2500.0
 30
0.0
 11
5750.0
 21
1500.0
 31
0.0
  0
LINE
  5
7BF2
  8
4
  6
CONTINUOUS
 10
3250.0
 20
2500.0
 30
0.0
 11
3250.0
 21
1500.0
 31
0.0
  0
LINE
  5
7BF5
  8
4
  6
CONTINUOUS
 10
3250.0
 20
1500.0
 30
0.0
 11
9250.0
 21
1500.0
 31
0.0
  0
LINE
  5
7BF6
  8
4
  6
CONTINUOUS
 10
3250.0
 20
2000.0
 30
0.0
 11
9250.0
 21
2000.0
 31
0.0
  0
TEXT
  5
7BF7
  8
4
  6
CONTINUOUS
 10
3442.5104040000001
 20
2157.7151289999988
 30
0.0
 40
250.0
  1
機器名称
  0
TEXT
  5
7BF8
  8
4
  6
CONTINUOUS
 10
3431.2905300000002
 20
1608.225782999999
 30
0.0
 40
250.0
  1
機器型番
  0
TEXT
  5
7BF9
  8
4
  6
CONTINUOUS
 10
5888.393728
 20
2112.8588439999999
 30
0.0
 40
211.11111099999991
  1
ミツヤリミットロードファン
  0
TEXT
  5
7BFA
  8
4
  6
CONTINUOUS
 10
5933.2724779999999
 20
1585.7979210000001
 30
0.0
 40
250.0
  1
LL#8-4
  0
TEXT
  5
7BFC
  8
4
  6
CONTINUOUS
 10
4523.9288280000001
 20
11917.14420699999
 30
0.0
 40
270.0
  1
床置ベット
  0
TEXT
  5
7BFD
  8
4
  6
CONTINUOUS
 10
1580.837966999999
 20
12669.404881
 30
0.0
 40
300.0
  1
ベルト駆動式片吸込両持リミットロードファン
  0
LINE
  5
7BFE
  8
4
  6
CONTINUOUS
 10
1250.0
 20
12347.04377099999
 30
0.0
 11
9250.0
 21
12347.04377099999
 31
0.0
  0
LINE
  5
7BFF
  8
4
  6
CONTINUOUS
 10
1250.0
 20
13347.043771000001
 30
0.0
 11
9250.0
 21
13347.043771000001
 31
0.0
  0
LINE
  5
7C00
  8
4
  6
CONTINUOUS
 10
3250.0
 20
2500.0
 30
0.0
 11
9250.0
 21
2500.0
 31
0.0
  0
LINE
  5
7C01
  8
4
  6
CONTINUOUS
 10
1250.0
 20
13347.043771000001
 30
0.0
 11
1250.0
 21
12347.04377099999
 31
0.0
  0
TEXT
  5
7C02
  8
4
  6
CONTINUOUS
 10
2344.6346669999998
 20
11911.597388
 30
0.0
 40
270.0
  1
右回転右横向
  0
TEXT
  5
7C03
  8
4
  6
CONTINUOUS
 10
7344.8477969999994
 20
13530.305408
 30
0.0
 40
280.0
  1
No.
  0
TEXT
  5
7C04
  8
4
  6
CONTINUOUS
 10
6556.480313
 20
11917.14420699999
 30
0.0
 40
270.0
  1
縮尺：1/50
  0
LINE
  5
7C05
  8
4
  6
CONTINUOUS
 10
9250.0
 20
13347.043771000001
 30
0.0
 11
9250.0
 21
12347.04377099999
 31
0.0
  0
LINE
  5
7C07
  8
4
  6
CONTINUOUS
 10
7203.0871120000002
 20
13406.317916
 30
0.0
 11
7203.0871120000002
 21
13933.261307999999
 31
0.0
  0
LINE
  5
7C08
  8
4
  6
CONTINUOUS
 10
7203.0871120000002
 20
13933.261307999999
 30
0.0
 11
9250.0
 21
13933.261307999999
 31
0.0
  0
LINE
  5
7C09
  8
4
  6
CONTINUOUS
 10
9250.0
 20
13933.261307999999
 30
0.0
 11
9250.0
 21
13406.317916
 31
0.0
  0
LINE
  5
7C0A
  8
4
  6
CONTINUOUS
 10
9250.0
 20
13406.317916
 30
0.0
 11
7203.0871120000002
 21
13406.317916
 31
0.0
  0
DIMENSION
  5
7C26
  8
3
  6
CONTINUOUS
  2
*D16
 10
5750.0
 20
4792.2252179999987
 30
0.0
 11
5750.0
 21
5900.0
 31
0.0
 70
   128
 13
4603.214363
 23
7129.7252179999996
 33
0.0
 14
4528.214363
 24
4792.2252179999987
 34
0.0
 50
90.0
1001
ACAD
1000
DSTYLE
1002
{
1070
   287
1070
     3
1070
    40
1040
45.0
1070
   143
1040
0.039
1070
   172
1070
     1
1070
   271
1070
     0
1070
   279
1070
     0
1070
   288
1070
     1
1002
}
  0
DIMENSION
  5
7C8D
  8
3
  2
*D17
 10
1978.214363
 20
7500.0
 30
0.0
 11
3290.0
 21
7500.0
 31
0.0
 70
   128
 13
4603.214363
 23
7107.2252179999996
 33
0.0
 14
1978.214363
 24
4942.2252179999987
 34
0.0
1001
ACAD
1000
DSTYLE
1002
{
1070
   287
1070
     3
1070
    40
1040
45.0
1070
   143
1040
0.039
1070
   172
1070
     1
1070
   271
1070
     0
1070
   279
1070
     0
1070
   288
1070
     1
1002
}
  0
ENDSEC
  0
EOF
