  0
SECTION
  2
HEADER
  9
$ACADVER
  1
AC1009
  9
$INSBASE
 10
0.0
 20
0.0
 30
0.0
  9
$EXTMIN
 10
-9015.1543230000007
 20
-9871.9136910000016
 30
0.0
  9
$EXTMAX
 10
-1015.154322999999
 20
2561.3476169999999
 30
0.0
  9
$LIMMIN
 10
0.0
 20
0.0
  9
$LIMMAX
 10
297.0
 20
210.0
  9
$ORTHOMODE
 70
     0
  9
$REGENMODE
 70
     1
  9
$FILLMODE
 70
     0
  9
$QTEXTMODE
 70
     0
  9
$MIRRTEXT
 70
     1
  9
$DRAGMODE
 70
     2
  9
$LTSCALE
 40
100.0
  9
$OSMODE
 70
    37
  9
$ATTMODE
 70
     1
  9
$TEXTSIZE
 40
180.0
  9
$TRACEWID
 40
0.05
  9
$TEXTSTYLE
  7
STANDARD
  9
$CLAYER
  8
3
  9
$CELTYPE
  6
BYLAYER
  9
$CECOLOR
 62
   256
  9
$DIMSCALE
 40
45.0
  9
$DIMASZ
 40
2.0
  9
$DIMEXO
 40
0.5
  9
$DIMDLI
 40
10.0
  9
$DIMRND
 40
0.0
  9
$DIMDLE
 40
0.0
  9
$DIMEXE
 40
1.0
  9
$DIMTP
 40
1.0
  9
$DIMTM
 40
1.0
  9
$DIMTXT
 40
3.0
  9
$DIMCEN
 40
0.0
  9
$DIMTSZ
 40
0.0
  9
$DIMTOL
 70
     0
  9
$DIMLIM
 70
     0
  9
$DIMTIH
 70
     0
  9
$DIMTOH
 70
     0
  9
$DIMSE1
 70
     0
  9
$DIMSE2
 70
     0
  9
$DIMTAD
 70
     1
  9
$DIMZIN
 70
     8
  9
$DIMBLK
  1

  9
$DIMASO
 70
     1
  9
$DIMSHO
 70
     1
  9
$DIMPOST
  1

  9
$DIMAPOST
  1

  9
$DIMALT
 70
     0
  9
$DIMALTD
 70
     2
  9
$DIMALTF
 40
0.039
  9
$DIMLFAC
 40
1.0
  9
$DIMTOFL
 70
     1
  9
$DIMTVP
 40
0.0
  9
$DIMTIX
 70
     0
  9
$DIMSOXD
 70
     0
  9
$DIMSAH
 70
     1
  9
$DIMBLK1
  1
OPEN
  9
$DIMBLK2
  1
OPEN
  9
$DIMSTYLE
  2
IGA
  9
$DIMCLRD
 70
     0
  9
$DIMCLRE
 70
     0
  9
$DIMCLRT
 70
     0
  9
$DIMTFAC
 40
10.0
  9
$DIMGAP
 40
1.0
  9
$LUNITS
 70
     2
  9
$LUPREC
 70
     3
  9
$SKETCHINC
 40
0.1
  9
$FILLETRAD
 40
50.0
  9
$AUNITS
 70
     0
  9
$AUPREC
 70
     0
  9
$MENU
  1
acad
  9
$ELEVATION
 40
0.0
  9
$PELEVATION
 40
0.0
  9
$THICKNESS
 40
0.0
  9
$LIMCHECK
 70
     0
  9
$BLIPMODE
 70
     0
  9
$CHAMFERA
 40
0.5
  9
$CHAMFERB
 40
0.5
  9
$SKPOLY
 70
     0
  9
$TDCREATE
 40
2450750.4082928239
  9
$TDUPDATE
 40
2454953.6612630198
  9
$TDINDWG
 40
0.0091066667
  9
$TDUSRTIMER
 40
0.0091066667
  9
$USRTIMER
 70
     1
  9
$ANGBASE
 50
0.0
  9
$ANGDIR
 70
     0
  9
$PDMODE
 70
     0
  9
$PDSIZE
 40
0.0
  9
$PLINEWID
 40
0.0
  9
$COORDS
 70
     1
  9
$SPLFRAME
 70
     0
  9
$SPLINETYPE
 70
     6
  9
$SPLINESEGS
 70
     8
  9
$ATTDIA
 70
     0
  9
$ATTREQ
 70
     1
  9
$HANDLING
 70
 10241
  9
$HANDSEED
  5
7DD0
  9
$SURFTAB1
 70
     6
  9
$SURFTAB2
 70
     6
  9
$SURFTYPE
 70
     6
  9
$SURFU
 70
     6
  9
$SURFV
 70
     6
  9
$UCSNAME
  2

  9
$UCSORG
 10
0.0
 20
0.0
 30
0.0
  9
$UCSXDIR
 10
1.0
 20
0.0
 30
0.0
  9
$UCSYDIR
 10
0.0
 20
1.0
 30
0.0
  9
$PUCSNAME
  2

  9
$PUCSORG
 10
0.0
 20
0.0
 30
0.0
  9
$PUCSXDIR
 10
1.0
 20
0.0
 30
0.0
  9
$PUCSYDIR
 10
0.0
 20
1.0
 30
0.0
  9
$USERI1
 70
     0
  9
$USERI2
 70
     0
  9
$USERI3
 70
     0
  9
$USERI4
 70
     0
  9
$USERI5
 70
     0
  9
$USERR1
 40
0.0
  9
$USERR2
 40
0.0
  9
$USERR3
 40
0.0
  9
$USERR4
 40
0.0
  9
$USERR5
 40
0.0
  9
$WORLDVIEW
 70
     1
  9
$SHADEDGE
 70
     3
  9
$SHADEDIF
 70
    70
  9
$TILEMODE
 70
     1
  9
$MAXACTVP
 70
    16
  9
$PLIMCHECK
 70
     0
  9
$PEXTMIN
 10
1.0000000000000000E+020
 20
1.0000000000000000E+020
 30
1.0000000000000000E+020
  9
$PEXTMAX
 10
-1.0000000000000000E+020
 20
-1.0000000000000000E+020
 30
-1.0000000000000000E+020
  9
$PLIMMIN
 10
0.0
 20
0.0
  9
$PLIMMAX
 10
12.0
 20
9.0
  9
$UNITMODE
 70
     0
  9
$VISRETAIN
 70
     0
  9
$PLINEGEN
 70
     0
  9
$PSLTSCALE
 70
     1
  0
ENDSEC
  0
SECTION
  2
TABLES
  0
TABLE
  2
VPORT
 70
     2
  0
VPORT
  2
*ACTIVE
 70
     0
 10
0.0
 20
0.0
 11
1.0
 21
1.0
 12
13889.334156343621
 22
-4871.525901665007
 13
0.0
 23
0.0
 14
10.0
 24
10.0
 15
10.0
 25
10.0
 16
0.0
 26
0.0
 36
1.0
 17
0.0
 27
0.0
 37
0.0
 40
19736.644076611879
 41
3.1666666666666661
 42
50.0
 43
0.0
 44
0.0
 50
0.0
 51
0.0
 71
     0
 72
   100
 73
     1
 74
     0
 75
     0
 76
     0
 77
     0
 78
     0
  0
ENDTAB
  0
TABLE
  2
LTYPE
 70
     2
  0
LTYPE
  2
CONTINUOUS
 70
     0
  3
Solid line
 72
    65
 73
     0
 40
0.0
  0
LTYPE
  2
CENTER
 70
     0
  3
____ _ ____ _ ____ _ ____ _ ____ _ ____ _ ____ 
 72
    65
 73
     4
 40
2.0
 49
1.25
 49
-0.25
 49
0.25
 49
-0.25
  0
ENDTAB
  0
TABLE
  2
LAYER
 70
     6
  0
LAYER
  2
0
 70
     0
 62
     7
  6
CONTINUOUS
  0
LAYER
  2
3
 70
     0
 62
     2
  6
CONTINUOUS
  0
LAYER
  2
2
 70
     0
 62
     3
  6
CENTER
  0
LAYER
  2
1
 70
     0
 62
     4
  6
CONTINUOUS
  0
LAYER
  2
4
 70
     0
 62
     7
  6
CONTINUOUS
  0
LAYER
  2
DEFPOINTS
 70
     0
 62
     7
  6
CONTINUOUS
  0
ENDTAB
  0
TABLE
  2
STYLE
 70
     1
  0
STYLE
  2
STANDARD
 70
     0
 40
0.0
 41
1.0
 50
0.0
 71
     0
 42
180.0
  3
simplex.shx
  4
extfont.shx
  0
ENDTAB
  0
TABLE
  2
VIEW
 70
     0
  0
ENDTAB
  0
TABLE
  2
UCS
 70
     0
  0
ENDTAB
  0
TABLE
  2
APPID
 70
     1
  0
APPID
  2
ACAD
 70
     0
  0
ENDTAB
  0
TABLE
  2
DIMSTYLE
 70
     1
  0
DIMSTYLE
  2
IGA
 70
     0
  3

  4

  5

  6
OPEN
  7
OPEN
 40
2.0
 41
2.0
 42
0.5
 43
10.0
 44
1.0
 45
0.0
 46
0.0
 47
1.0
 48
1.0
140
3.0
141
0.0
142
0.0
143
0.03937
144
1.0
145
0.0
146
10.0
147
1.0
 71
     0
 72
     0
 73
     0
 74
     0
 75
     0
 76
     0
 77
     1
 78
     8
170
     0
171
     2
172
     0
173
     1
174
     0
175
     0
176
     0
177
     0
178
     0
  0
ENDTAB
  0
ENDSEC
  0
SECTION
  2
BLOCKS
  0
BLOCK
  8
0
  2
$MODEL_SPACE
 70
     0
 10
0.0
 20
0.0
 30
0.0
  3
$MODEL_SPACE
  1

  0
ENDBLK
  5
1B
  8
0
  0
BLOCK
 67
     1
  8
0
  2
$PAPER_SPACE
 70
     0
 10
0.0
 20
0.0
 30
0.0
  3
$PAPER_SPACE
  1

  0
ENDBLK
  5
18
 67
     1
  8
0
  0
BLOCK
  8
0
  2
_OPEN
 70
     0
 10
0.0
 20
0.0
 30
0.0
  3
_OPEN
  1

  0
LINE
  5
7AD4
  8
0
  6
BYBLOCK
 62
     0
 10
-1.0
 20
0.166667
 30
0.0
 11
0.0
 21
0.0
 31
0.0
  0
LINE
  5
7AD5
  8
0
  6
BYBLOCK
 62
     0
 10
0.0
 20
0.0
 30
0.0
 11
-1.0
 21
-0.166667
 31
0.0
  0
LINE
  5
7AD6
  8
0
  6
BYBLOCK
 62
     0
 10
0.0
 20
0.0
 30
0.0
 11
-1.0
 21
0.0
 31
0.0
  0
ENDBLK
  5
7AD7
  8
0
  0
BLOCK
  8
0
  2
*D1
 70
     1
 10
0.0
 20
0.0
 30
0.0
  3
*D1
  1

  0
LINE
  5
7D2A
  8
3
  6
CONTINUOUS
 62
     0
 10
-7625.2623652591392
 20
-6758.8254035350028
 30
0.0
 11
-7625.2623652591392
 21
-7160.6046941393079
 31
0.0
  0
LINE
  5
7D2B
  8
3
  6
CONTINUOUS
 62
     0
 10
-6875.2623652591392
 20
-6881.9835305350043
 30
0.0
 11
-6875.2623652591392
 21
-7160.6046941393079
 31
0.0
  0
LINE
  5
7D2C
  8
3
  6
CONTINUOUS
 62
     0
 10
-7535.2623652591401
 20
-7115.6046941393079
 30
0.0
 11
-6965.2623652591401
 21
-7115.6046941393079
 31
0.0
  0
INSERT
  5
7D2D
  8
3
  6
CONTINUOUS
 62
     0
  2
_OPEN
 10
-7625.2623652591392
 20
-7115.6046941393079
 30
0.0
 41
90.0
 42
90.0
 43
90.0
 50
180.0
  0
INSERT
  5
7D2E
  8
3
  6
CONTINUOUS
 62
     0
  2
_OPEN
 10
-6875.2623652591392
 20
-7115.6046941393079
 30
0.0
 41
90.0
 42
90.0
 43
90.0
  0
TEXT
  8
3
  40
135
  5
7DBE
  62
0
  72
0
  71
0
 10
-7523.77
 20
-7242.05
 30
0.000000
  1
750
  0
POINT
  5
7D30
  8
DEFPOINTS
  6
CONTINUOUS
 62
     0
 10
-7625.2623652591392
 20
-6736.3254035350037
 30
0.0
  0
POINT
  5
7D31
  8
DEFPOINTS
  6
CONTINUOUS
 62
     0
 10
-6875.2623652591392
 20
-6859.4835305350034
 30
0.0
  0
POINT
  5
7D32
  8
DEFPOINTS
  6
CONTINUOUS
 62
     0
 10
-6875.2623652591392
 20
-7115.6046941393079
 30
0.0
  0
ENDBLK
  5
7CD4
  8
0
  0
BLOCK
  8
0
  2
*D2
 70
     1
 10
0.0
 20
0.0
 30
0.0
  3
*D2
  1

  0
LINE
  5
7D33
  8
3
  6
CONTINUOUS
 62
     0
 10
-5075.2623652591401
 20
-6758.8254035350028
 30
0.0
 11
-5075.2623652591401
 21
-7160.6046941393079
 31
0.0
  0
LINE
  5
7D34
  8
3
  6
CONTINUOUS
 62
     0
 10
-6785.2623652591401
 20
-7115.6046941393079
 30
0.0
 11
-5165.2623652591401
 21
-7115.6046941393079
 31
0.0
  0
INSERT
  5
7D35
  8
3
  6
CONTINUOUS
 62
     0
  2
_OPEN
 10
-6875.2623652591392
 20
-7115.6046941393079
 30
0.0
 41
90.0
 42
90.0
 43
90.0
 50
180.0
  0
INSERT
  5
7D36
  8
3
  6
CONTINUOUS
 62
     0
  2
_OPEN
 10
-5075.2623652591401
 20
-7115.6046941393079
 30
0.0
 41
90.0
 42
90.0
 43
90.0
  0
TEXT
  8
3
  40
135
  5
7DBF
  62
0
  72
0
  71
0
 10
-6245.26
 20
-7242.05
 30
0.000000
  1
1800
  0
POINT
  5
7D38
  8
DEFPOINTS
  6
CONTINUOUS
 62
     0
 10
-6875.2623652591392
 20
-6859.4835305350034
 30
0.0
  0
POINT
  5
7D39
  8
DEFPOINTS
  6
CONTINUOUS
 62
     0
 10
-5075.2623652591401
 20
-6736.3254035350037
 30
0.0
  0
POINT
  5
7D3A
  8
DEFPOINTS
  6
CONTINUOUS
 62
     0
 10
-5075.2623652591401
 20
-7115.6046941393079
 30
0.0
  0
ENDBLK
  5
7CDE
  8
0
  0
BLOCK
  8
0
  2
*D3
 70
     1
 10
0.0
 20
0.0
 30
0.0
  3
*D3
  1

  0
LINE
  5
7D3B
  8
3
  6
CONTINUOUS
 62
     0
 10
-6821.262365259141
 20
-4778.8254035350028
 30
0.0
 11
-6821.262365259141
 21
-4520.6799875350043
 31
0.0
  0
LINE
  5
7D3C
  8
3
  6
CONTINUOUS
 62
     0
 10
-5541.2623652591392
 20
-4778.8254035350028
 30
0.0
 11
-5541.2623652591392
 21
-4520.6799875350043
 31
0.0
  0
LINE
  5
7D3D
  8
3
  6
CONTINUOUS
 62
     0
 10
-6731.2623652591401
 20
-4565.6799875350052
 30
0.0
 11
-5631.2623652591401
 21
-4565.6799875350052
 31
0.0
  0
INSERT
  5
7D3E
  8
3
  6
CONTINUOUS
 62
     0
  2
_OPEN
 10
-6821.262365259141
 20
-4565.6799875350052
 30
0.0
 41
90.0
 42
90.0
 43
90.0
 50
180.0
  0
INSERT
  5
7D3F
  8
3
  6
CONTINUOUS
 62
     0
  2
_OPEN
 10
-5541.2623652591392
 20
-4565.6799875350052
 30
0.0
 41
90.0
 42
90.0
 43
90.0
  0
TEXT
  8
3
  40
135
  5
7DC0
  62
0
  72
0
  71
0
 10
-6483.70
 20
-4692.13
 30
0.000000
  1
1280
  0
POINT
  5
7D41
  8
DEFPOINTS
  6
CONTINUOUS
 62
     0
 10
-6821.262365259141
 20
-4801.3254035350028
 30
0.0
  0
POINT
  5
7D42
  8
DEFPOINTS
  6
CONTINUOUS
 62
     0
 10
-5541.2623652591392
 20
-4801.3254035350028
 30
0.0
  0
POINT
  5
7D43
  8
DEFPOINTS
  6
CONTINUOUS
 62
     0
 10
-5541.2623652591392
 20
-4565.6799875350052
 30
0.0
  0
ENDBLK
  5
7AFD
  8
0
  0
BLOCK
  8
0
  2
*D4
 70
     1
 10
0.0
 20
0.0
 30
0.0
  3
*D4
  1

  0
LINE
  5
7D44
  8
3
  6
CONTINUOUS
 62
     0
 10
-5541.2623652591392
 20
-4778.8254035350028
 30
0.0
 11
-5541.2623652591392
 21
-4202.2938975350016
 31
0.0
  0
LINE
  5
7D45
  8
3
  6
CONTINUOUS
 62
     0
 10
-6875.2623652591392
 20
-4862.3204885350033
 30
0.0
 11
-6875.2623652591392
 21
-4202.2938975350016
 31
0.0
  0
LINE
  5
7D46
  8
3
  6
CONTINUOUS
 62
     0
 10
-5631.2623652591401
 20
-4247.2938975350016
 30
0.0
 11
-6785.2623652591401
 21
-4247.2938975350016
 31
0.0
  0
INSERT
  5
7D47
  8
3
  6
CONTINUOUS
 62
     0
  2
_OPEN
 10
-5541.2623652591392
 20
-4247.2938975350016
 30
0.0
 41
90.0
 42
90.0
 43
90.0
  0
INSERT
  5
7D48
  8
3
  6
CONTINUOUS
 62
     0
  2
_OPEN
 10
-6875.2623652591392
 20
-4247.2938975350016
 30
0.0
 41
90.0
 42
90.0
 43
90.0
 50
180.0
  0
TEXT
  8
3
  40
135
  5
7DC1
  62
0
  72
0
  71
0
 10
-6542.41
 20
-4373.74
 30
0.000000
  1
1334
  0
POINT
  5
7D4A
  8
DEFPOINTS
  6
CONTINUOUS
 62
     0
 10
-5541.2623652591392
 20
-4801.3254035350028
 30
0.0
  0
POINT
  5
7D4B
  8
DEFPOINTS
  6
CONTINUOUS
 62
     0
 10
-6875.2623652591392
 20
-4884.8204885350033
 30
0.0
  0
POINT
  5
7D4C
  8
DEFPOINTS
  6
CONTINUOUS
 62
     0
 10
-6875.2623652591392
 20
-4247.2938975350016
 30
0.0
  0
ENDBLK
  5
7B0A
  8
0
  0
BLOCK
  8
0
  2
*D5
 70
     1
 10
0.0
 20
0.0
 30
0.0
  3
*D5
  1

  0
LINE
  5
7D4D
  8
3
  6
CONTINUOUS
 62
     0
 10
-7772.3709212591402
 20
-5612.4830235350037
 30
0.0
 11
-7772.3709212591402
 21
-4202.2938975350016
 31
0.0
  0
LINE
  5
7D4E
  8
3
  6
CONTINUOUS
 62
     0
 10
-6965.2623652591401
 20
-4247.2938975350016
 30
0.0
 11
-7682.3709212591411
 21
-4247.2938975350016
 31
0.0
  0
INSERT
  5
7D4F
  8
3
  6
CONTINUOUS
 62
     0
  2
_OPEN
 10
-6875.2623652591392
 20
-4247.2938975350016
 30
0.0
 41
90.0
 42
90.0
 43
90.0
  0
INSERT
  5
7D50
  8
3
  6
CONTINUOUS
 62
     0
  2
_OPEN
 10
-7772.3709212591402
 20
-4247.2938975350016
 30
0.0
 41
90.0
 42
90.0
 43
90.0
 50
180.0
  0
TEXT
  8
3
  40
135
  5
7DC2
  62
0
  72
0
  71
0
 10
-7593.82
 20
-4373.74
 30
0.000000
  1
897
  0
POINT
  5
7D52
  8
DEFPOINTS
  6
CONTINUOUS
 62
     0
 10
-6875.2623652591392
 20
-4884.8204885350033
 30
0.0
  0
POINT
  5
7D53
  8
DEFPOINTS
  6
CONTINUOUS
 62
     0
 10
-7772.3709212591402
 20
-5634.9830235350037
 30
0.0
  0
POINT
  5
7D54
  8
DEFPOINTS
  6
CONTINUOUS
 62
     0
 10
-7772.3709212591402
 20
-4247.2938975350016
 30
0.0
  0
ENDBLK
  5
7B22
  8
0
  0
BLOCK
  8
0
  2
*D6
 70
     1
 10
0.0
 20
0.0
 30
0.0
  3
*D6
  1

  0
LINE
  5
7D55
  8
3
  6
CONTINUOUS
 62
     0
 10
-7625.2623652591392
 20
-2393.3722499999999
 30
0.0
 11
-7625.2623652591392
 21
-2866.9754640000001
 31
0.0
  0
LINE
  5
7D56
  8
3
  6
CONTINUOUS
 62
     0
 10
-5075.2623652591401
 20
-2393.3722499999999
 30
0.0
 11
-5075.2623652591401
 21
-2866.9754640000001
 31
0.0
  0
LINE
  5
7D57
  8
3
  6
CONTINUOUS
 62
     0
 10
-7535.2623652591401
 20
-2821.9754640000001
 30
0.0
 11
-5165.2623652591401
 21
-2821.9754640000001
 31
0.0
  0
INSERT
  5
7D58
  8
3
  6
CONTINUOUS
 62
     0
  2
_OPEN
 10
-7625.2623652591392
 20
-2821.9754640000001
 30
0.0
 41
90.0
 42
90.0
 43
90.0
 50
180.0
  0
INSERT
  5
7D59
  8
3
  6
CONTINUOUS
 62
     0
  2
_OPEN
 10
-5075.2623652591401
 20
-2821.9754640000001
 30
0.0
 41
90.0
 42
90.0
 43
90.0
  0
TEXT
  8
3
  40
135
  5
7DC3
  62
0
  72
0
  71
0
 10
-6693.39
 20
-2948.43
 30
0.000000
  1
2550
  0
POINT
  5
7D5B
  8
DEFPOINTS
  6
CONTINUOUS
 62
     0
 10
-7625.2623652591392
 20
-2370.8722499999999
 30
0.0
  0
POINT
  5
7D5C
  8
DEFPOINTS
  6
CONTINUOUS
 62
     0
 10
-5075.2623652591401
 20
-2370.8722499999999
 30
0.0
  0
POINT
  5
7D5D
  8
DEFPOINTS
  6
CONTINUOUS
 62
     0
 10
-5075.2623652591401
 20
-2821.9754640000001
 30
0.0
  0
ENDBLK
  5
7C3B
  8
0
  0
BLOCK
  8
0
  2
*D7
 70
     1
 10
0.0
 20
0.0
 30
0.0
  3
*D7
  1

  0
LINE
  5
7D5E
  8
3
  6
CONTINUOUS
 62
     0
 10
-5052.7623652591401
 20
-1090.8722499999999
 30
0.0
 11
-4709.2495502591391
 21
-1090.8722499999999
 31
0.0
  0
LINE
  5
7D5F
  8
3
  6
CONTINUOUS
 62
     0
 10
-5057.7623652591401
 20
-2370.8722499999999
 30
0.0
 11
-4709.2495502591401
 21
-2370.8722499999999
 31
0.0
  0
LINE
  5
7D60
  8
3
  6
CONTINUOUS
 62
     0
 10
-4754.2495502591391
 20
-1180.872249999999
 30
0.0
 11
-4754.2495502591401
 21
-2280.872249999999
 31
0.0
  0
INSERT
  5
7D61
  8
3
  6
CONTINUOUS
 62
     0
  2
_OPEN
 10
-4754.2495502591391
 20
-1090.8722499999999
 30
0.0
 41
90.0
 42
90.0
 43
90.0
 50
90.0
  0
INSERT
  5
7D62
  8
3
  6
CONTINUOUS
 62
     0
  2
_OPEN
 10
-4754.2495502591401
 20
-2370.8722499999999
 30
0.0
 41
90.0
 42
90.0
 43
90.0
 50
270.0
  0
TEXT
  8
3
  40
135
  5
7DC4
  62
0
  72
0
  71
0
 10
-5136.75
 20
-2021.98
 30
0.000000
  1
1280
  0
POINT
  5
7D64
  8
DEFPOINTS
  6
CONTINUOUS
 62
     0
 10
-5075.2623652591401
 20
-1090.8722499999999
 30
0.0
  0
POINT
  5
7D65
  8
DEFPOINTS
  6
CONTINUOUS
 62
     0
 10
-5080.2623652591401
 20
-2370.8722499999999
 30
0.0
  0
POINT
  5
7D66
  8
DEFPOINTS
  6
CONTINUOUS
 62
     0
 10
-4754.2495502591401
 20
-2370.8722499999999
 30
0.0
  0
ENDBLK
  5
7C46
  8
0
  0
BLOCK
  8
0
  2
*D8
 70
     1
 10
0.0
 20
0.0
 30
0.0
  3
*D8
  1

  0
LINE
  5
7D67
  8
3
  6
CONTINUOUS
 62
     0
 10
-2925.393162259139
 20
-4778.8254035350028
 30
0.0
 11
-2925.393162259139
 21
-4578.4748575350022
 31
0.0
  0
LINE
  5
7D68
  8
3
  6
CONTINUOUS
 62
     0
 10
-1975.393162259139
 20
-4778.8254035350028
 30
0.0
 11
-1975.393162259139
 21
-4578.4748575350022
 31
0.0
  0
LINE
  5
7D69
  8
3
  6
CONTINUOUS
 62
     0
 10
-2835.393162259139
 20
-4623.4748575350031
 30
0.0
 11
-2065.3931622591399
 21
-4623.4748575350031
 31
0.0
  0
INSERT
  5
7D6A
  8
3
  6
CONTINUOUS
 62
     0
  2
_OPEN
 10
-2925.393162259139
 20
-4623.4748575350031
 30
0.0
 41
90.0
 42
90.0
 43
90.0
 50
180.0
  0
INSERT
  5
7D6B
  8
3
  6
CONTINUOUS
 62
     0
  2
_OPEN
 10
-1975.393162259139
 20
-4623.4748575350031
 30
0.0
 41
90.0
 42
90.0
 43
90.0
  0
TEXT
  8
3
  40
135
  5
7DC5
  62
0
  72
0
  71
0
 10
-2773.85
 20
-4749.92
 30
0.000000
  1
950
  0
POINT
  5
7D6D
  8
DEFPOINTS
  6
CONTINUOUS
 62
     0
 10
-2925.393162259139
 20
-4801.3254035350028
 30
0.0
  0
POINT
  5
7D6E
  8
DEFPOINTS
  6
CONTINUOUS
 62
     0
 10
-1975.393162259139
 20
-4801.3254035350028
 30
0.0
  0
POINT
  5
7D6F
  8
DEFPOINTS
  6
CONTINUOUS
 62
     0
 10
-1975.393162259139
 20
-4623.4748575350031
 30
0.0
  0
ENDBLK
  5
7B73
  8
0
  0
BLOCK
  8
0
  2
*D9
 70
     1
 10
0.0
 20
0.0
 30
0.0
  3
*D9
  1

  0
LINE
  5
7D70
  8
3
  6
CONTINUOUS
 62
     0
 10
-3290.393162259139
 20
-5225.8254035350037
 30
0.0
 11
-3290.393162259139
 21
-4256.6030717800304
 31
0.0
  0
LINE
  5
7D71
  8
3
  6
CONTINUOUS
 62
     0
 10
-2450.393162259139
 20
-4394.7188805350033
 30
0.0
 11
-2450.393162259139
 21
-4256.6030717800304
 31
0.0
  0
LINE
  5
7D72
  8
3
  6
CONTINUOUS
 62
     0
 10
-3200.393162259139
 20
-4301.6030717800286
 30
0.0
 11
-2540.393162259139
 21
-4301.6030717800286
 31
0.0
  0
INSERT
  5
7D73
  8
3
  6
CONTINUOUS
 62
     0
  2
_OPEN
 10
-3290.393162259139
 20
-4301.6030717800286
 30
0.0
 41
90.0
 42
90.0
 43
90.0
 50
180.0
  0
INSERT
  5
7D74
  8
3
  6
CONTINUOUS
 62
     0
  2
_OPEN
 10
-2450.393162259139
 20
-4301.6030717800286
 30
0.0
 41
90.0
 42
90.0
 43
90.0
  0
TEXT
  8
3
  40
135
  5
7DC6
  62
0
  72
0
  71
0
 10
-3184.84
 20
-4315.55
 30
0.000000
  1
MAX
  0
TEXT
  8
3
  40
135
  5
7DC7
  62
0
  72
0
  71
0
 10
-3184.84
 20
-4491.05
 30
0.000000
  1
890
  0
POINT
  5
7D76
  8
DEFPOINTS
  6
CONTINUOUS
 62
     0
 10
-3290.393162259139
 20
-5248.3254035350028
 30
0.0
  0
POINT
  5
7D77
  8
DEFPOINTS
  6
CONTINUOUS
 62
     0
 10
-2450.393162259139
 20
-4417.2188805350033
 30
0.0
  0
POINT
  5
7D78
  8
DEFPOINTS
  6
CONTINUOUS
 62
     0
 10
-2450.393162259139
 20
-4301.6030717800286
 30
0.0
  0
ENDBLK
  5
7CE9
  8
0
  0
BLOCK
  8
0
  2
*D10
 70
     1
 10
0.0
 20
0.0
 30
0.0
  3
*D10
  1

  0
LINE
  5
7D79
  8
3
  6
CONTINUOUS
 62
     0
 10
-1872.3931622591399
 20
-4928.8254035350037
 30
0.0
 11
-1872.3931622591399
 21
-4256.6030717800304
 31
0.0
  0
LINE
  5
7D7A
  8
3
  6
CONTINUOUS
 62
     0
 10
-2360.393162259139
 20
-4301.6030717800286
 30
0.0
 11
-1962.393162259139
 21
-4301.6030717800286
 31
0.0
  0
TEXT
  8
3
  40
135
  5
7DC8
  62
0
  72
0
  71
0
 10
-2455.12
 20
-4428.05
 30
0.000000
  1
578
  0
INSERT
  5
7D7C
  8
3
  6
CONTINUOUS
 62
     0
  2
_OPEN
 10
-2450.393162259139
 20
-4301.6030717800286
 30
0.0
 41
90.0
 42
90.0
 43
90.0
 50
180.0
  0
INSERT
  5
7D7D
  8
3
  6
CONTINUOUS
 62
     0
  2
_OPEN
 10
-1872.3931622591399
 20
-4301.6030717800286
 30
0.0
 41
90.0
 42
90.0
 43
90.0
  0
POINT
  5
7D7E
  8
DEFPOINTS
  6
CONTINUOUS
 62
     0
 10
-2450.393162259139
 20
-4417.2188805350033
 30
0.0
  0
POINT
  5
7D7F
  8
DEFPOINTS
  6
CONTINUOUS
 62
     0
 10
-1872.3931622591399
 20
-4951.3254035350037
 30
0.0
  0
POINT
  5
7D80
  8
DEFPOINTS
  6
CONTINUOUS
 62
     0
 10
-1872.3931622591399
 20
-4301.6030717800286
 30
0.0
  0
ENDBLK
  5
7CF3
  8
0
  0
BLOCK
  8
0
  2
*D11
 70
     1
 10
0.0
 20
0.0
 30
0.0
  3
*D11
  1

  0
LINE
  5
7D81
  8
3
  6
CONTINUOUS
 62
     0
 10
-1849.8931622591399
 20
-5001.3254035350037
 30
0.0
 11
-1460.7211402591399
 21
-5001.3254035350037
 31
0.0
  0
LINE
  5
7D82
  8
3
  6
CONTINUOUS
 62
     0
 10
-1849.8931622591399
 20
-6251.3254035350037
 30
0.0
 11
-1460.7211402591399
 21
-6251.3254035350037
 31
0.0
  0
LINE
  5
7D83
  8
3
  6
CONTINUOUS
 62
     0
 10
-1505.7211402591399
 20
-5091.3254035350028
 30
0.0
 11
-1505.7211402591399
 21
-6161.3254035350037
 31
0.0
  0
INSERT
  5
7D84
  8
3
  6
CONTINUOUS
 62
     0
  2
_OPEN
 10
-1505.7211402591399
 20
-5001.3254035350037
 30
0.0
 41
90.0
 42
90.0
 43
90.0
 50
90.0
  0
INSERT
  5
7D85
  8
3
  6
CONTINUOUS
 62
     0
  2
_OPEN
 10
-1505.7211402591399
 20
-6251.3254035350037
 30
0.0
 41
90.0
 42
90.0
 43
90.0
 50
270.0
  0
TEXT
  8
3
  40
135
  5
7DC9
  62
0
  72
0
  71
0
 10
-1888.22
 20
-5890.04
 30
0.000000
  1
φ1250
  0
POINT
  5
7D87
  8
DEFPOINTS
  6
CONTINUOUS
 62
     0
 10
-1872.3931622591399
 20
-5001.3254035350037
 30
0.0
  0
POINT
  5
7D88
  8
DEFPOINTS
  6
CONTINUOUS
 62
     0
 10
-1872.3931622591399
 20
-6251.3254035350037
 30
0.0
  0
POINT
  5
7D89
  8
DEFPOINTS
  6
CONTINUOUS
 62
     0
 10
-1505.7211402591399
 20
-6251.3254035350037
 30
0.0
  0
ENDBLK
  5
7CFE
  8
0
  0
BLOCK
  8
0
  2
*D12
 70
     1
 10
0.0
 20
0.0
 30
0.0
  3
*D12
  1

  0
LINE
  5
7D8A
  8
3
  6
CONTINUOUS
 62
     0
 10
-3177.393162259139
 20
-6758.8254035350028
 30
0.0
 11
-3177.393162259139
 21
-7117.8565842519029
 31
0.0
  0
LINE
  5
7D8B
  8
3
  6
CONTINUOUS
 62
     0
 10
-2450.393162259139
 20
-6891.4344065350042
 30
0.0
 11
-2450.393162259139
 21
-7117.8565842519029
 31
0.0
  0
LINE
  5
7D8C
  8
3
  6
CONTINUOUS
 62
     0
 10
-3087.393162259139
 20
-7072.8565842519047
 30
0.0
 11
-2540.393162259139
 21
-7072.8565842519047
 31
0.0
  0
INSERT
  5
7D8D
  8
3
  6
CONTINUOUS
 62
     0
  2
_OPEN
 10
-3177.393162259139
 20
-7072.8565842519047
 30
0.0
 41
90.0
 42
90.0
 43
90.0
 50
180.0
  0
INSERT
  5
7D8E
  8
3
  6
CONTINUOUS
 62
     0
  2
_OPEN
 10
-2450.393162259139
 20
-7072.8565842519047
 30
0.0
 41
90.0
 42
90.0
 43
90.0
  0
TEXT
  8
3
  40
135
  5
7DCA
  62
0
  72
0
  71
0
 10
-3075.80
 20
-7199.31
 30
0.000000
  1
727
  0
POINT
  5
7D90
  8
DEFPOINTS
  6
CONTINUOUS
 62
     0
 10
-3177.393162259139
 20
-6736.3254035350037
 30
0.0
  0
POINT
  5
7D91
  8
DEFPOINTS
  6
CONTINUOUS
 62
     0
 10
-2450.393162259139
 20
-6868.9344065350033
 30
0.0
  0
POINT
  5
7D92
  8
DEFPOINTS
  6
CONTINUOUS
 62
     0
 10
-2450.393162259139
 20
-7072.8565842519047
 30
0.0
  0
ENDBLK
  5
7CBF
  8
0
  0
BLOCK
  8
0
  2
*D13
 70
     1
 10
0.0
 20
0.0
 30
0.0
  3
*D13
  1

  0
LINE
  5
7D93
  8
3
  6
CONTINUOUS
 62
     0
 10
-1897.3931622591399
 20
-6758.8254035350028
 30
0.0
 11
-1897.3931622591399
 21
-7117.8565842519029
 31
0.0
  0
LINE
  5
7D94
  8
3
  6
CONTINUOUS
 62
     0
 10
-2360.393162259139
 20
-7072.8565842519047
 30
0.0
 11
-1987.3931622591399
 21
-7072.8565842519047
 31
0.0
  0
TEXT
  8
3
  40
135
  5
7DCB
  62
0
  72
0
  71
0
 10
-2438.34
 20
-7199.31
 30
0.000000
  1
553
  0
INSERT
  5
7D96
  8
3
  6
CONTINUOUS
 62
     0
  2
_OPEN
 10
-2450.393162259139
 20
-7072.8565842519047
 30
0.0
 41
90.0
 42
90.0
 43
90.0
 50
180.0
  0
INSERT
  5
7D97
  8
3
  6
CONTINUOUS
 62
     0
  2
_OPEN
 10
-1897.3931622591399
 20
-7072.8565842519047
 30
0.0
 41
90.0
 42
90.0
 43
90.0
  0
POINT
  5
7D98
  8
DEFPOINTS
  6
CONTINUOUS
 62
     0
 10
-2450.393162259139
 20
-6868.9344065350033
 30
0.0
  0
POINT
  5
7D99
  8
DEFPOINTS
  6
CONTINUOUS
 62
     0
 10
-1897.3931622591399
 20
-6736.3254035350037
 30
0.0
  0
POINT
  5
7D9A
  8
DEFPOINTS
  6
CONTINUOUS
 62
     0
 10
-1897.3931622591399
 20
-7072.8565842519047
 30
0.0
  0
ENDBLK
  5
7CC9
  8
0
  0
BLOCK
  8
0
  2
*D14
 70
     1
 10
0.0
 20
0.0
 30
0.0
  3
*D14
  1

  0
LINE
  5
7D9B
  8
3
 62
     0
 10
-6893.7623652591392
 20
-4801.3254035350028
 30
0.0
 11
-8431.3648018590338
 21
-4801.3254035350028
 31
0.0
  0
LINE
  5
7D9C
  8
3
 62
     0
 10
-8022.9137452591403
 20
-5626.3254035350037
 30
0.0
 11
-8431.3648018590338
 21
-5626.3254035350037
 31
0.0
  0
LINE
  5
7D9D
  8
3
 62
     0
 10
-8386.3648018590338
 20
-4891.3254035350028
 30
0.0
 11
-8386.3648018590338
 21
-5536.3254035350037
 31
0.0
  0
INSERT
  5
7D9E
  8
3
 62
     0
  2
_OPEN
 10
-8386.3648018590338
 20
-4801.3254035350028
 30
0.0
 41
90.0
 42
90.0
 43
90.0
 50
90.0
  0
INSERT
  5
7D9F
  8
3
 62
     0
  2
_OPEN
 10
-8386.3648018590338
 20
-5626.3254035350037
 30
0.0
 41
90.0
 42
90.0
 43
90.0
 50
270.0
  0
TEXT
  8
3
  40
135
  5
7DCC
  62
0
  72
0
  71
0
 10
-8768.86
 20
-5556.70
 30
0.000000
  1
825
  0
POINT
  5
7DA1
  8
DEFPOINTS
 62
     0
 10
-6871.2623652591401
 20
-4801.3254035350028
 30
0.0
  0
POINT
  5
7DA2
  8
DEFPOINTS
 62
     0
 10
-8000.4137452591394
 20
-5626.3254035350037
 30
0.0
  0
POINT
  5
7DA3
  8
DEFPOINTS
 62
     0
 10
-8386.3648018590338
 20
-5626.3254035350037
 30
0.0
  0
ENDBLK
  5
7C77
  8
0
  0
BLOCK
  8
0
  2
*D15
 70
     1
 10
0.0
 20
0.0
 30
0.0
  3
*D15
  1

  0
LINE
  5
7DA4
  8
3
 62
     0
 10
-7647.7623652591401
 20
-6736.3254035350037
 30
0.0
 11
-8431.364801859032
 21
-6736.3254035350037
 31
0.0
  0
LINE
  5
7DA5
  8
3
 62
     0
 10
-8386.364801859032
 20
-5716.3254035350028
 30
0.0
 11
-8386.364801859032
 21
-6646.3254035350028
 31
0.0
  0
INSERT
  5
7DA6
  8
3
 62
     0
  2
_OPEN
 10
-8386.364801859032
 20
-5626.3254035350037
 30
0.0
 41
90.0
 42
90.0
 43
90.0
 50
90.0
  0
INSERT
  5
7DA7
  8
3
 62
     0
  2
_OPEN
 10
-8386.364801859032
 20
-6736.3254035350037
 30
0.0
 41
90.0
 42
90.0
 43
90.0
 50
270.0
  0
TEXT
  8
3
  40
135
  5
7DCD
  62
0
  72
0
  71
0
 10
-8768.86
 20
-6420.28
 30
0.000000
  1
1110
  0
POINT
  5
7DA9
  8
DEFPOINTS
 62
     0
 10
-8000.4137452591394
 20
-5626.3254035350037
 30
0.0
  0
POINT
  5
7DAA
  8
DEFPOINTS
 62
     0
 10
-7625.2623652591392
 20
-6736.3254035350037
 30
0.0
  0
POINT
  5
7DAB
  8
DEFPOINTS
 62
     0
 10
-8386.364801859032
 20
-6736.3254035350037
 30
0.0
  0
ENDBLK
  5
7C83
  8
0
  0
BLOCK
  8
0
  2
*D16
 70
     1
 10
0.0
 20
0.0
 30
0.0
  3
*D16
  1

  0
LINE
  5
7DAC
  8
3
 62
     0
 10
-6893.7623652591392
 20
-4801.3254035350028
 30
0.0
 11
-8697.8484129699664
 21
-4801.3254035350028
 31
0.0
  0
LINE
  5
7DAD
  8
3
 62
     0
 10
-7647.7623652591401
 20
-6736.3254035350037
 30
0.0
 11
-8697.8484129699664
 21
-6736.3254035350037
 31
0.0
  0
LINE
  5
7DAE
  8
3
 62
     0
 10
-8652.8484129699664
 20
-4891.3254035350028
 30
0.0
 11
-8652.8484129699664
 21
-6646.3254035350028
 31
0.0
  0
INSERT
  5
7DAF
  8
3
 62
     0
  2
_OPEN
 10
-8652.8484129699664
 20
-4801.3254035350028
 30
0.0
 41
90.0
 42
90.0
 43
90.0
 50
90.0
  0
INSERT
  5
7DB0
  8
3
 62
     0
  2
_OPEN
 10
-8652.8484129699664
 20
-6736.3254035350037
 30
0.0
 41
90.0
 42
90.0
 43
90.0
 50
270.0
  0
TEXT
  8
3
  40
135
  5
7DCE
  62
0
  72
0
  71
0
 10
-9035.35
 20
-6057.69
 30
0.000000
  1
1935
  0
POINT
  5
7DB2
  8
DEFPOINTS
 62
     0
 10
-6871.2623652591401
 20
-4801.3254035350028
 30
0.0
  0
POINT
  5
7DB3
  8
DEFPOINTS
 62
     0
 10
-7625.2623652591392
 20
-6736.3254035350037
 30
0.0
  0
POINT
  5
7DB4
  8
DEFPOINTS
 62
     0
 10
-8652.8484129699664
 20
-6736.3254035350037
 30
0.0
  0
ENDBLK
  5
7C90
  8
0
  0
BLOCK
  8
0
  2
*D17
 70
     1
 10
0.0
 20
0.0
 30
0.0
  3
*D17
  1

  0
LINE
  5
7DB5
  8
3
 62
     0
 10
-7772.3709212591402
 20
-4179.7938975350016
 30
0.0
 11
-7772.3709212591402
 21
-3909.8930112425178
 31
0.0
  0
LINE
  5
7DB6
  8
3
 62
     0
 10
-5075.2623652591401
 20
-6563.8254035350037
 30
0.0
 11
-5075.2623652591401
 21
-3909.8930112425178
 31
0.0
  0
LINE
  5
7DB7
  8
3
 62
     0
 10
-7682.3709212591411
 20
-3954.8930112425192
 30
0.0
 11
-5165.2623652591401
 21
-3954.8930112425192
 31
0.0
  0
INSERT
  5
7DB8
  8
3
 62
     0
  2
_OPEN
 10
-7772.3709212591402
 20
-3954.8930112425192
 30
0.0
 41
90.0
 42
90.0
 43
90.0
 50
180.0
  0
INSERT
  5
7DB9
  8
3
 62
     0
  2
_OPEN
 10
-5075.2623652591401
 20
-3954.8930112425192
 30
0.0
 41
90.0
 42
90.0
 43
90.0
  0
TEXT
  8
3
  40
135
  5
7DCF
  62
0
  72
0
  71
0
 10
-6623.19
 20
-4081.34
 30
0.000000
  1
2697
  0
POINT
  5
7DBB
  8
DEFPOINTS
 62
     0
 10
-7772.3709212591402
 20
-4202.2938975350016
 30
0.0
  0
POINT
  5
7DBC
  8
DEFPOINTS
 62
     0
 10
-5075.2623652591401
 20
-6586.3254035350037
 30
0.0
  0
POINT
  5
7DBD
  8
DEFPOINTS
 62
     0
 10
-5075.2623652591401
 20
-3954.8930112425192
 30
0.0
  0
ENDBLK
  5
7C9D
  8
0
  0
ENDSEC
  0
SECTION
  2
ENTITIES
  0
LINE
  5
7A6B
  8
1
  6
CONTINUOUS
 10
-7253.2623652591392
 20
-2243.8722499999999
 30
0.0
 11
-5180.2623652591401
 21
-2243.8722499999999
 31
0.0
  0
LINE
  5
7A6C
  8
1
  6
CONTINUOUS
 10
-7253.2623652591392
 20
-2483.8722499999999
 30
0.0
 11
-5180.2623652591401
 21
-2483.8722499999999
 31
0.0
  0
LINE
  5
7A6D
  8
1
  6
CONTINUOUS
 10
-7775.7959182591412
 20
-2118.8722499999999
 30
0.0
 11
-5541.2623652591392
 21
-2118.8722499999999
 31
0.0
  0
LINE
  5
7A6E
  8
1
  6
CONTINUOUS
 10
-7775.7959182591412
 20
-1168.872249999999
 30
0.0
 11
-5541.2623652591392
 21
-1168.872249999999
 31
0.0
  0
LINE
  5
7A6F
  8
1
  6
CONTINUOUS
 10
-5301.164351259139
 20
-2199.3390570000001
 30
0.0
 11
-5699.3603792591402
 21
-2199.3390570000001
 31
0.0
  0
LINE
  5
7A70
  8
1
  6
CONTINUOUS
 10
-5725.262365259141
 20
-6531.3254035350037
 30
0.0
 11
-5275.2623652591401
 21
-6531.3254035350037
 31
0.0
  0
ARC
  5
7A71
  8
1
  6
CONTINUOUS
 10
-5500.2623652591401
 20
-6351.3254035350028
 30
0.0
 40
199.0
 50
320.126825
 51
219.87317499999989
  0
LINE
  5
7A72
  8
1
  6
CONTINUOUS
 10
-7625.2623652591392
 20
-6586.3254035350037
 30
0.0
 11
-5075.2623652591401
 21
-6586.3254035350037
 31
0.0
  0
LINE
  5
7A73
  8
1
  6
CONTINUOUS
 10
-6821.262365259141
 20
-4851.3254035350028
 30
0.0
 11
-5541.2623652591392
 21
-4851.3254035350028
 31
0.0
  0
LINE
  5
7A74
  8
1
  6
CONTINUOUS
 10
-7625.2623652591392
 20
-6736.3254035350037
 30
0.0
 11
-5075.2623652591401
 21
-6736.3254035350037
 31
0.0
  0
POLYLINE
  5
7A75
  8
1
  6
CONTINUOUS
 66
     1
 10
0.0
 20
0.0
 30
0.0
  0
VERTEX
  5
7D23
  8
1
  6
CONTINUOUS
 10
-5541.2623652591392
 20
-4801.3254035350028
 30
0.0
  0
VERTEX
  5
7D24
  8
1
  6
CONTINUOUS
 10
-5614.2623652591401
 20
-5626.3254035350037
 30
0.0
 42
-0.391657
  0
VERTEX
  5
7D25
  8
1
  6
CONTINUOUS
 10
-6784.2623652591401
 20
-6708.858956535003
 30
0.0
 42
-0.4387800000000001
  0
VERTEX
  5
7D26
  8
1
  6
CONTINUOUS
 10
-7772.3709212591402
 20
-5634.9830235350037
 30
0.0
 42
-0.390066
  0
VERTEX
  5
7D27
  8
1
  6
CONTINUOUS
 10
-6952.262365259141
 20
-4880.3741745350026
 30
0.0
 42
-0.049316
  0
VERTEX
  5
7D28
  8
1
  6
CONTINUOUS
 10
-6821.262365259141
 20
-4893.3263585350032
 30
0.0
 42
-0.393627
  0
SEQEND
  5
7D29
  8
1
  6
CONTINUOUS
  0
LINE
  5
7A7D
  8
1
  6
CONTINUOUS
 10
-6871.2623652591401
 20
-4801.3254035350028
 30
0.0
 11
-5485.2623652591401
 21
-4801.3254035350028
 31
0.0
  0
LINE
  5
7A7E
  8
1
  6
CONTINUOUS
 10
-5541.2623652591392
 20
-1168.872249999999
 30
0.0
 11
-6821.262365259141
 21
-2118.8722499999999
 31
0.0
  0
LINE
  5
7A7F
  8
1
  6
CONTINUOUS
 10
-6821.262365259141
 20
-1168.872249999999
 30
0.0
 11
-5541.2623652591392
 21
-2118.8722499999999
 31
0.0
  0
LINE
  5
7A80
  8
1
  6
CONTINUOUS
 10
-5620.2623652591401
 20
-2370.8722499999999
 30
0.0
 11
-6597.2623652591401
 21
-2370.8722499999999
 31
0.0
  0
LINE
  5
7A81
  8
1
  6
CONTINUOUS
 10
-6250.2623652591401
 20
-1090.8722499999999
 30
0.0
 11
-5075.2623652591401
 21
-1090.8722499999999
 31
0.0
  0
LINE
  5
7A82
  8
1
  6
CONTINUOUS
 10
-5433.79369825914
 20
-6251.4158625350037
 30
0.0
 11
-6721.2766202591392
 21
-5394.8683005350031
 31
0.0
  0
LINE
  5
7A83
  8
1
  6
CONTINUOUS
 10
-5378.4031422591397
 20
-6168.1579125350027
 30
0.0
 11
-6665.8860642591399
 21
-5311.6103505350029
 31
0.0
  0
LINE
  5
7A84
  8
1
  6
CONTINUOUS
 10
-5545.1521392591403
 20
-6462.6129055350029
 30
0.0
 11
-6979.2570082591392
 21
-5884.1414505350031
 31
0.0
  0
LINE
  5
7A85
  8
1
  6
CONTINUOUS
 10
-5582.5602842591397
 20
-6555.3524915350026
 30
0.0
 11
-7016.6651532591404
 21
-5976.8810365350027
 31
0.0
  0
LINE
  5
7A86
  8
2
  6
CENTER
 10
-8000.4137452591394
 20
-5626.3254035350037
 30
0.0
 11
-5509.1369492591402
 21
-5626.3254035350037
 31
0.0
  0
CIRCLE
  5
7A87
  8
1
  6
CONTINUOUS
 10
-6875.2623652591392
 20
-5626.3254035350037
 30
0.0
 40
278.0
  0
CIRCLE
  5
7A88
  8
1
  6
CONTINUOUS
 10
-6875.2623652591392
 20
-5626.3254035350037
 30
0.0
 40
675.0
  0
CIRCLE
  5
7A89
  8
1
  6
CONTINUOUS
 10
-6875.2623652591392
 20
-5626.3254035350037
 30
0.0
 40
625.0
  0
ARC
  5
7A8A
  8
1
  6
CONTINUOUS
 10
-6875.2623652591392
 20
-5626.3254035350037
 30
0.0
 40
378.0
 50
56.364635
 51
248.0324479999999
  0
LINE
  5
7A8B
  8
1
  6
CONTINUOUS
 10
-7625.2623652591392
 20
-6586.3254035350037
 30
0.0
 11
-7625.2623652591392
 21
-6736.3254035350037
 31
0.0
  0
LINE
  5
7A8C
  8
2
  6
CENTER
 10
-6875.2623652591392
 20
-6859.4835305350034
 30
0.0
 11
-6875.2623652591392
 21
-4727.3950555350038
 31
0.0
  0
LINE
  5
7A8D
  8
1
  6
CONTINUOUS
 10
-5725.262365259141
 20
-6586.3254035350037
 30
0.0
 11
-5725.262365259141
 21
-6531.3254035350037
 31
0.0
  0
LINE
  5
7A8E
  8
1
  6
CONTINUOUS
 10
-6821.262365259141
 20
-4893.3263585350032
 30
0.0
 11
-6821.262365259141
 21
-4801.3254035350028
 31
0.0
  0
LINE
  5
7A8F
  8
1
  6
CONTINUOUS
 10
-6597.2623652591401
 20
-2413.8722499999999
 30
0.0
 11
-7153.2623652591401
 21
-2413.8722499999999
 31
0.0
  0
LINE
  5
7A90
  8
1
  6
CONTINUOUS
 10
-6597.2623652591401
 20
-2313.8722499999999
 30
0.0
 11
-7153.2623652591401
 21
-2313.8722499999999
 31
0.0
  0
LINE
  5
7A91
  8
1
  6
CONTINUOUS
 10
-7550.2623652591401
 20
-1065.872249999999
 30
0.0
 11
-6200.2623652591401
 21
-1065.872249999999
 31
0.0
  0
LINE
  5
7A92
  8
1
  6
CONTINUOUS
 10
-7500.2623652591392
 20
-1168.872249999999
 30
0.0
 11
-7500.2623652591392
 21
-1065.872249999999
 31
0.0
  0
LINE
  5
7A93
  8
1
  6
CONTINUOUS
 10
-7625.2623652591392
 20
-1168.872249999999
 30
0.0
 11
-7625.2623652591392
 21
-1090.8722499999999
 31
0.0
  0
LINE
  5
7A94
  8
1
  6
CONTINUOUS
 10
-7153.2623652591401
 20
-2370.8722499999999
 30
0.0
 11
-7625.2623652591392
 21
-2370.8722499999999
 31
0.0
  0
LINE
  5
7A95
  8
1
  6
CONTINUOUS
 10
-7775.7959182591412
 20
-2118.8722499999999
 30
0.0
 11
-7775.7959182591412
 21
-1168.872249999999
 31
0.0
  0
LINE
  5
7A96
  8
1
  6
CONTINUOUS
 10
-7625.2623652591392
 20
-2370.8722499999999
 30
0.0
 11
-7625.2623652591392
 21
-2118.8722499999999
 31
0.0
  0
LINE
  5
7A97
  8
1
  6
CONTINUOUS
 10
-7253.2623652591392
 20
-2483.8722499999999
 30
0.0
 11
-7253.2623652591392
 21
-2243.8722499999999
 31
0.0
  0
LINE
  5
7A98
  8
1
  6
CONTINUOUS
 10
-7153.2623652591401
 20
-2413.8722499999999
 30
0.0
 11
-7153.2623652591401
 21
-2313.8722499999999
 31
0.0
  0
LINE
  5
7A99
  8
1
  6
CONTINUOUS
 10
-6902.7623652591401
 20
-2313.8722499999999
 30
0.0
 11
-6902.7623652591401
 21
-2118.8722499999999
 31
0.0
  0
LINE
  5
7A9A
  8
1
  6
CONTINUOUS
 10
-7625.2623652591392
 20
-1090.8722499999999
 30
0.0
 11
-7500.2623652591392
 21
-1090.8722499999999
 31
0.0
  0
LINE
  5
7A9B
  8
1
  6
CONTINUOUS
 10
-6250.2623652591401
 20
-1168.872249999999
 30
0.0
 11
-6250.2623652591401
 21
-1065.872249999999
 31
0.0
  0
LINE
  5
7A9C
  8
1
  6
CONTINUOUS
 10
-6821.262365259141
 20
-2118.8722499999999
 30
0.0
 11
-6821.262365259141
 21
-1168.872249999999
 31
0.0
  0
LINE
  5
7A9D
  8
1
  6
CONTINUOUS
 10
-6597.2623652591401
 20
-2413.8722499999999
 30
0.0
 11
-6597.2623652591401
 21
-2313.8722499999999
 31
0.0
  0
LINE
  5
7A9E
  8
1
  6
CONTINUOUS
 10
-6847.7623652591401
 20
-2313.8722499999999
 30
0.0
 11
-6847.7623652591401
 21
-2118.8722499999999
 31
0.0
  0
LINE
  5
7A9F
  8
1
  6
CONTINUOUS
 10
-5699.3603792591402
 20
-2199.3390570000001
 30
0.0
 11
-5699.3603792591402
 21
-2118.8722499999999
 31
0.0
  0
ARC
  5
7AA0
  8
1
  6
CONTINUOUS
 10
-5500.2623652591401
 20
-6351.3254035350028
 30
0.0
 40
220.0
 50
248.0324479999999
 51
56.364635
  0
LINE
  5
7AA1
  8
1
  6
CONTINUOUS
 10
-5338.2623652591401
 20
-6531.3254035350037
 30
0.0
 11
-5398.2623652591401
 21
-6531.3254035350037
 31
0.0
  0
LINE
  5
7AA2
  8
2
  6
CENTER
 10
-5380.2623652591401
 20
-6351.3254035350028
 30
0.0
 11
-5620.2623652591401
 21
-6351.3254035350028
 31
0.0
  0
LINE
  5
7AA3
  8
2
  6
CENTER
 10
-5500.2623652591401
 20
-6471.3254035350028
 30
0.0
 11
-5500.2623652591401
 21
-6231.3254035350037
 31
0.0
  0
CIRCLE
  5
7AA4
  8
1
  6
CONTINUOUS
 10
-5500.2623652591401
 20
-6351.3254035350028
 30
0.0
 40
120.0
  0
LINE
  5
7AA5
  8
1
  6
CONTINUOUS
 10
-5662.2623652591401
 20
-6531.3254035350037
 30
0.0
 11
-5662.2623652591401
 21
-6488.8262205350038
 31
0.0
  0
LINE
  5
7AA6
  8
1
  6
CONTINUOUS
 10
-5662.2623652591401
 20
-6488.8262205350038
 30
0.0
 11
-5652.9879762591399
 21
-6478.9023915350053
 31
0.0
  0
LINE
  5
7AA7
  8
1
  6
CONTINUOUS
 10
-5275.2623652591401
 20
-6586.3254035350037
 30
0.0
 11
-5275.2623652591401
 21
-6531.3254035350037
 31
0.0
  0
LINE
  5
7AA8
  8
1
  6
CONTINUOUS
 10
-5338.2623652591401
 20
-6531.3254035350037
 30
0.0
 11
-5338.2623652591401
 21
-6488.8262205350038
 31
0.0
  0
LINE
  5
7AA9
  8
1
  6
CONTINUOUS
 10
-5338.2623652591401
 20
-6488.8262205350038
 30
0.0
 11
-5347.5367542591393
 21
-6478.9023915350053
 31
0.0
  0
LINE
  5
7AAA
  8
1
  6
CONTINUOUS
 10
-5075.2623652591401
 20
-6586.3254035350037
 30
0.0
 11
-5075.2623652591401
 21
-6736.3254035350037
 31
0.0
  0
LINE
  5
7AAB
  8
1
  6
CONTINUOUS
 10
-5075.2623652591401
 20
-1090.8722499999999
 30
0.0
 11
-5075.2623652591401
 21
-2370.8722499999999
 31
0.0
  0
LINE
  5
7AAC
  8
1
  6
CONTINUOUS
 10
-5301.164351259139
 20
-2199.3390570000001
 30
0.0
 11
-5301.164351259139
 21
-1599.8390569999999
 31
0.0
  0
LINE
  5
7AAD
  8
1
  6
CONTINUOUS
 10
-5541.2623652591392
 20
-2118.8722499999999
 30
0.0
 11
-5541.2623652591392
 21
-1168.872249999999
 31
0.0
  0
LINE
  5
7AAE
  8
1
  6
CONTINUOUS
 10
-5075.2623652591401
 20
-2370.8722499999999
 30
0.0
 11
-5380.2623652591401
 21
-2370.8722499999999
 31
0.0
  0
LINE
  5
7AAF
  8
1
  6
CONTINUOUS
 10
-5380.2623652591401
 20
-2413.8722499999999
 30
0.0
 11
-5620.2623652591401
 21
-2413.8722499999999
 31
0.0
  0
LINE
  5
7AB0
  8
1
  6
CONTINUOUS
 10
-5380.2623652591401
 20
-2313.8722499999999
 30
0.0
 11
-5620.2623652591401
 21
-2313.8722499999999
 31
0.0
  0
LINE
  5
7AB1
  8
1
  6
CONTINUOUS
 10
-5620.2623652591401
 20
-2413.8722499999999
 30
0.0
 11
-5620.2623652591401
 21
-2313.8722499999999
 31
0.0
  0
LINE
  5
7AB2
  8
1
  6
CONTINUOUS
 10
-5380.2623652591401
 20
-2413.8722499999999
 30
0.0
 11
-5380.2623652591401
 21
-2313.8722499999999
 31
0.0
  0
LINE
  5
7AB3
  8
1
  6
CONTINUOUS
 10
-5472.7623652591401
 20
-2313.8722499999999
 30
0.0
 11
-5472.7623652591401
 21
-2199.3390570000001
 31
0.0
  0
LINE
  5
7AB4
  8
1
  6
CONTINUOUS
 10
-5527.7623652591401
 20
-2313.8722499999999
 30
0.0
 11
-5527.7623652591401
 21
-2199.3390570000001
 31
0.0
  0
LINE
  5
7AB5
  8
1
  6
CONTINUOUS
 10
-5180.2623652591401
 20
-2483.8722499999999
 30
0.0
 11
-5180.2623652591401
 21
-2243.8722499999999
 31
0.0
  0
LINE
  5
7AB6
  8
1
  6
CONTINUOUS
 10
-5301.164351259139
 20
-1599.8390569999999
 30
0.0
 11
-5541.2623652591392
 21
-1599.8390569999999
 31
0.0
  0
LINE
  5
7AB7
  8
1
  6
CONTINUOUS
 10
-2925.393162259139
 20
-4851.3254035350028
 30
0.0
 11
-1975.393162259139
 21
-4851.3254035350028
 31
0.0
  0
LINE
  5
7AB8
  8
1
  6
CONTINUOUS
 10
-1897.3931622591399
 20
-6736.3254035350037
 30
0.0
 11
-3177.393162259139
 21
-6736.3254035350037
 31
0.0
  0
LINE
  5
7AB9
  8
1
  6
CONTINUOUS
 10
-1897.3931622591399
 20
-6586.3254035350037
 30
0.0
 11
-3177.393162259139
 21
-6586.3254035350037
 31
0.0
  0
LINE
  5
7ABA
  8
1
  6
CONTINUOUS
 10
-2975.393162259139
 20
-4801.3254035350028
 30
0.0
 11
-1925.3931622591399
 21
-4801.3254035350028
 31
0.0
  0
LINE
  5
7ABB
  8
1
  6
CONTINUOUS
 10
-2925.393162259139
 20
-6586.3254035350037
 30
0.0
 11
-2925.393162259139
 21
-4801.3254035350028
 31
0.0
  0
LINE
  5
7ABC
  8
1
  6
CONTINUOUS
 10
-3290.393162259139
 20
-6571.3254035350028
 30
0.0
 11
-3290.393162259139
 21
-5248.3254035350028
 31
0.0
  0
LINE
  5
7ABD
  8
1
  6
CONTINUOUS
 10
-3050.393162259139
 20
-6571.3254035350028
 30
0.0
 11
-3050.393162259139
 21
-5248.3254035350028
 31
0.0
  0
LINE
  5
7ABE
  8
1
  6
CONTINUOUS
 10
-3220.393162259139
 20
-6471.3254035350028
 30
0.0
 11
-3120.393162259139
 21
-6471.3254035350028
 31
0.0
  0
LINE
  5
7ABF
  8
1
  6
CONTINUOUS
 10
-3220.393162259139
 20
-6231.3254035350037
 30
0.0
 11
-3120.393162259139
 21
-6231.3254035350037
 31
0.0
  0
LINE
  5
7AC0
  8
1
  6
CONTINUOUS
 10
-3290.393162259139
 20
-6571.3254035350028
 30
0.0
 11
-3050.393162259139
 21
-6571.3254035350028
 31
0.0
  0
LINE
  5
7AC1
  8
1
  6
CONTINUOUS
 10
-3220.393162259139
 20
-6471.3254035350028
 30
0.0
 11
-3220.393162259139
 21
-6231.3254035350037
 31
0.0
  0
LINE
  5
7AC2
  8
1
  6
CONTINUOUS
 10
-3177.393162259139
 20
-6736.3254035350037
 30
0.0
 11
-3177.393162259139
 21
-6586.3254035350037
 31
0.0
  0
LINE
  5
7AC3
  8
1
  6
CONTINUOUS
 10
-3120.393162259139
 20
-6378.8254035350028
 30
0.0
 11
-2925.393162259139
 21
-6378.8254035350028
 31
0.0
  0
LINE
  5
7AC4
  8
1
  6
CONTINUOUS
 10
-3120.393162259139
 20
-6323.8254035350028
 30
0.0
 11
-2925.393162259139
 21
-6323.8254035350028
 31
0.0
  0
LINE
  5
7AC5
  8
1
  6
CONTINUOUS
 10
-3120.393162259139
 20
-6471.3254035350028
 30
0.0
 11
-3120.393162259139
 21
-6231.3254035350037
 31
0.0
  0
LINE
  5
7AC6
  8
1
  6
CONTINUOUS
 10
-3220.393162259139
 20
-5348.3254035350028
 30
0.0
 11
-3120.393162259139
 21
-5348.3254035350028
 31
0.0
  0
LINE
  5
7AC7
  8
1
  6
CONTINUOUS
 10
-3220.393162259139
 20
-5904.3254035350037
 30
0.0
 11
-3120.393162259139
 21
-5904.3254035350037
 31
0.0
  0
LINE
  5
7AC8
  8
1
  6
CONTINUOUS
 10
-3220.393162259139
 20
-5904.3254035350037
 30
0.0
 11
-3220.393162259139
 21
-5348.3254035350028
 31
0.0
  0
LINE
  5
7AC9
  8
1
  6
CONTINUOUS
 10
-3120.393162259139
 20
-5598.8254035350037
 30
0.0
 11
-2925.393162259139
 21
-5598.8254035350037
 31
0.0
  0
LINE
  5
7ACA
  8
1
  6
CONTINUOUS
 10
-3120.393162259139
 20
-5653.8254035350028
 30
0.0
 11
-2925.393162259139
 21
-5653.8254035350028
 31
0.0
  0
LINE
  5
7ACB
  8
1
  6
CONTINUOUS
 10
-3120.393162259139
 20
-5904.3254035350037
 30
0.0
 11
-3120.393162259139
 21
-5348.3254035350028
 31
0.0
  0
LINE
  5
7ACC
  8
1
  6
CONTINUOUS
 10
-3290.393162259139
 20
-5248.3254035350028
 30
0.0
 11
-3050.393162259139
 21
-5248.3254035350028
 31
0.0
  0
LINE
  5
7ACD
  8
1
  6
CONTINUOUS
 10
-1975.393162259139
 20
-6586.3254035350037
 30
0.0
 11
-1975.393162259139
 21
-4801.3254035350028
 31
0.0
  0
LINE
  5
7ACE
  8
1
  6
CONTINUOUS
 10
-1872.3931622591399
 20
-6301.3254035350028
 30
0.0
 11
-1872.3931622591399
 21
-4951.3254035350037
 31
0.0
  0
LINE
  5
7ACF
  8
1
  6
CONTINUOUS
 10
-1897.3931622591399
 20
-6736.3254035350037
 30
0.0
 11
-1897.3931622591399
 21
-6586.3254035350037
 31
0.0
  0
LINE
  5
7AD0
  8
1
  6
CONTINUOUS
 10
-1975.393162259139
 20
-6251.3254035350037
 30
0.0
 11
-1872.3931622591399
 21
-6251.3254035350037
 31
0.0
  0
LINE
  5
7AD1
  8
1
  6
CONTINUOUS
 10
-1975.393162259139
 20
-5001.3254035350037
 30
0.0
 11
-1872.3931622591399
 21
-5001.3254035350037
 31
0.0
  0
DIMENSION
  5
7AE5
  8
3
  6
CONTINUOUS
  2
*D1
 10
-6875.2623652591392
 20
-7115.6046941393079
 30
0.0
 11
-7253.76560225914
 21
-7115.6046941393079
 31
0.0
 70
   128
 13
-7625.2623652591392
 23
-6736.3254035350037
 33
0.0
 14
-6875.2623652591392
 24
-6859.4835305350034
 34
0.0
1001
ACAD
1000
DSTYLE
1002
{
1070
   287
1070
     3
1070
    40
1040
45.0
1070
   143
1040
0.039
1070
   172
1070
     1
1070
   271
1070
     0
1070
   279
1070
     0
1070
   288
1070
     1
1002
}
  0
DIMENSION
  5
7AF1
  8
3
  6
CONTINUOUS
  2
*D2
 10
-5075.2623652591401
 20
-7115.6046941393079
 30
0.0
 11
-5975.262365259141
 21
-7003.1046941393088
 31
0.0
 70
     0
 13
-6875.2623652591392
 23
-6859.4835305350034
 33
0.0
 14
-5075.2623652591401
 24
-6736.3254035350037
 34
0.0
1001
ACAD
1000
DSTYLE
1002
{
1070
   287
1070
     4
1070
    40
1040
45.0
1070
    75
1070
     1
1070
   143
1040
0.039
1070
   172
1070
     1
1070
   271
1070
     0
1070
   279
1070
     1
1070
   288
1070
     1
1002
}
  0
DIMENSION
  5
7AFE
  8
3
  6
CONTINUOUS
  2
*D3
 10
-5541.2623652591392
 20
-4565.6799875350052
 30
0.0
 11
-6213.6985172591394
 21
-4565.6799875350052
 31
0.0
 70
   128
 13
-6821.262365259141
 23
-4801.3254035350028
 33
0.0
 14
-5541.2623652591392
 24
-4801.3254035350028
 34
0.0
1001
ACAD
1000
DSTYLE
1002
{
1070
   287
1070
     3
1070
    40
1040
45.0
1070
   143
1040
0.039
1070
   172
1070
     1
1070
   271
1070
     0
1070
   279
1070
     0
1070
   288
1070
     1
1002
}
  0
DIMENSION
  5
7B0B
  8
3
  6
CONTINUOUS
  2
*D4
 10
-6875.2623652591392
 20
-4247.2938975350016
 30
0.0
 11
-6272.412027259139
 21
-4247.2938975350016
 31
0.0
 70
   128
 13
-5541.2623652591392
 23
-4801.3254035350028
 33
0.0
 14
-6875.2623652591392
 24
-4884.8204885350033
 34
0.0
1001
ACAD
1000
DSTYLE
1002
{
1070
   287
1070
     3
1070
    40
1040
45.0
1070
   143
1040
0.039
1070
   172
1070
     1
1070
   271
1070
     0
1070
   279
1070
     0
1070
   288
1070
     1
1002
}
  0
DIMENSION
  5
7B23
  8
3
  6
CONTINUOUS
  2
*D5
 10
-7772.3709212591402
 20
-4247.2938975350016
 30
0.0
 11
-7323.8166432591406
 21
-4134.7938975350016
 31
0.0
 70
     0
 13
-6875.2623652591392
 23
-4884.8204885350033
 33
0.0
 14
-7772.3709212591402
 24
-5634.9830235350037
 34
0.0
1001
ACAD
1000
DSTYLE
1002
{
1070
   287
1070
     4
1070
    40
1040
45.0
1070
    75
1070
     1
1070
   143
1040
0.039
1070
   172
1070
     1
1070
   271
1070
     0
1070
   279
1070
     1
1070
   288
1070
     1
1002
}
  0
LINE
  5
7B4A
  8
2
  6
CENTER
 10
-3395.4522452591391
 20
-5626.3254035350037
 30
0.0
 11
-1838.9593452591389
 21
-5626.3254035350037
 31
0.0
  0
DIMENSION
  5
7B57
  8
3
  6
CONTINUOUS
  2
*D6
 10
-5075.2623652591401
 20
-2821.9754640000001
 30
0.0
 11
-6423.3894572591398
 21
-2821.9754640000001
 31
0.0
 70
   128
 13
-7625.2623652591392
 23
-2370.8722499999999
 33
0.0
 14
-5075.2623652591401
 24
-2370.8722499999999
 34
0.0
1001
ACAD
1000
DSTYLE
1002
{
1070
   287
1070
     3
1070
    40
1040
45.0
1070
   143
1040
0.039
1070
   172
1070
     1
1070
   271
1070
     0
1070
   279
1070
     0
1070
   288
1070
     1
1002
}
  0
DIMENSION
  5
7B64
  8
3
  6
CONTINUOUS
  2
*D7
 10
-4754.2495502591401
 20
-2370.8722499999999
 30
0.0
 11
-4754.2495502591391
 21
-1783.0314949999999
 31
0.0
 70
   128
 13
-5075.2623652591401
 23
-1090.8722499999999
 33
0.0
 14
-5080.2623652591401
 24
-2370.8722499999999
 34
0.0
 50
90.0
1001
ACAD
1000
DSTYLE
1002
{
1070
   287
1070
     3
1070
    40
1040
45.0
1070
   143
1040
0.039
1070
   172
1070
     1
1070
   271
1070
     0
1070
   279
1070
     0
1070
   288
1070
     1
1002
}
  0
LINE
  5
7B65
  8
2
  6
CENTER
 10
-7876.4475802591387
 20
-1643.8722499999999
 30
0.0
 11
-5425.2605852591387
 21
-1643.8722499999999
 31
0.0
  0
LINE
  5
7B66
  8
2
  6
CENTER
 10
-6875.2623652591392
 20
-2556.3615410000002
 30
0.0
 11
-6875.2623652591392
 21
-874.05856099999983
 31
0.0
  0
LINE
  5
7B67
  8
2
  6
CENTER
 10
-2450.393162259139
 20
-4597.4711225350029
 30
0.0
 11
-2450.393162259139
 21
-6868.9344065350033
 31
0.0
  0
DIMENSION
  5
7B74
  8
3
  6
CONTINUOUS
  2
*D8
 10
-1975.393162259139
 20
-4623.4748575350031
 30
0.0
 11
-2503.850012259139
 21
-4623.4748575350031
 31
0.0
 70
   128
 13
-2925.393162259139
 23
-4801.3254035350028
 33
0.0
 14
-1975.393162259139
 24
-4801.3254035350028
 34
0.0
1001
ACAD
1000
DSTYLE
1002
{
1070
   287
1070
     3
1070
    40
1040
45.0
1070
   143
1040
0.039
1070
   172
1070
     1
1070
   271
1070
     0
1070
   279
1070
     0
1070
   288
1070
     1
1002
}
  0
DIMENSION
  5
7B81
  8
3
  6
CONTINUOUS
  2
*D9
 10
-2450.393162259139
 20
-4301.6030717800286
 30
0.0
 11
-2914.844276259139
 21
-4301.6030717800286
 31
0.0
 70
   128
  1
MAX\P890
 13
-3290.393162259139
 23
-5248.3254035350028
 33
0.0
 14
-2450.393162259139
 24
-4417.2188805350033
 34
0.0
1001
ACAD
1000
DSTYLE
1002
{
1070
   287
1070
     3
1070
    40
1040
45.0
1070
   143
1040
0.039
1070
   172
1070
     1
1070
   271
1070
     0
1070
   279
1070
     0
1070
   288
1070
     1
1002
}
  0
DIMENSION
  5
7B90
  8
3
  6
CONTINUOUS
  2
*D10
 10
-1872.3931622591399
 20
-4301.6030717800286
 30
0.0
 11
-2185.119793259139
 21
-4301.6030717800286
 31
0.0
 70
   128
 13
-2450.393162259139
 23
-4417.2188805350033
 33
0.0
 14
-1872.3931622591399
 24
-4951.3254035350037
 34
0.0
1001
ACAD
1000
DSTYLE
1002
{
1070
   287
1070
     4
1070
    40
1040
45.0
1070
    75
1070
     1
1070
   143
1040
0.039
1070
   172
1070
     1
1070
   271
1070
     0
1070
   279
1070
     1
1070
   288
1070
     1
1002
}
  0
DIMENSION
  5
7BB3
  8
3
  6
CONTINUOUS
  2
*D11
 10
-1505.7211402591399
 20
-6251.3254035350037
 30
0.0
 11
-1505.721140259139
 21
-5651.0914352492546
 31
0.0
 70
   128
 13
-1872.3931622591399
 23
-5001.3254035350037
 33
0.0
 14
-1872.3931622591399
 24
-6251.3254035350037
 34
0.0
 50
90.0
1001
ACAD
1000
DSTYLE
1002
{
1070
   287
1070
     3
1070
     3
1000
φ<>
1070
    40
1040
45.0
1070
   143
1040
0.039
1070
   172
1070
     1
1070
   271
1070
     0
1070
   279
1070
     0
1070
   288
1070
     1
1002
}
  0
DIMENSION
  5
7BC0
  8
3
  6
CONTINUOUS
  2
*D12
 10
-2450.393162259139
 20
-7072.8565842519047
 30
0.0
 11
-2805.8049342591389
 21
-7072.8565842519047
 31
0.0
 70
   128
 13
-3177.393162259139
 23
-6736.3254035350037
 33
0.0
 14
-2450.393162259139
 24
-6868.9344065350033
 34
0.0
1001
ACAD
1000
DSTYLE
1002
{
1070
   287
1070
     3
1070
    40
1040
45.0
1070
   143
1040
0.039
1070
   172
1070
     1
1070
   271
1070
     0
1070
   279
1070
     0
1070
   288
1070
     1
1002
}
  0
DIMENSION
  5
7BCE
  8
3
  6
CONTINUOUS
  2
*D13
 10
-1897.3931622591399
 20
-7072.8565842519047
 30
0.0
 11
-2168.344495259139
 21
-7072.8565842519047
 31
0.0
 70
   128
 13
-2450.393162259139
 23
-6868.9344065350033
 33
0.0
 14
-1897.3931622591399
 24
-6736.3254035350037
 34
0.0
1001
ACAD
1000
DSTYLE
1002
{
1070
   287
1070
     4
1070
    40
1040
45.0
1070
    75
1070
     1
1070
   143
1040
0.039
1070
   172
1070
     1
1070
   271
1070
     0
1070
   279
1070
     1
1070
   288
1070
     1
1002
}
  0
LINE
  5
7BE5
  8
4
  6
CONTINUOUS
 10
-1015.154323
 20
-8871.9136910000016
 30
0.0
 11
-1015.154322999999
 21
-9871.9136910000016
 31
0.0
  0
LINE
  5
7BE6
  8
4
  6
CONTINUOUS
 10
-4515.1543229999988
 20
-8871.9136910000016
 30
0.0
 11
-4515.1543229999988
 21
-9871.9136910000016
 31
0.0
  0
LINE
  5
7BE7
  8
4
  6
CONTINUOUS
 10
-7015.1543229999997
 20
-8871.9136910000016
 30
0.0
 11
-7015.1543229999997
 21
-9871.9136910000016
 31
0.0
  0
LINE
  5
7BEA
  8
4
  6
CONTINUOUS
 10
-7015.1543229999997
 20
-9871.9136910000016
 30
0.0
 11
-1015.154323
 21
-9871.9136910000016
 31
0.0
  0
LINE
  5
7BEB
  8
4
  6
CONTINUOUS
 10
-7015.1543229999997
 20
-9371.9136910000016
 30
0.0
 11
-1015.154323
 21
-9371.9136910000016
 31
0.0
  0
TEXT
  5
7BEC
  8
4
  6
CONTINUOUS
 10
-6822.6439190000001
 20
-9214.1985619999996
 30
0.0
 40
250.0
  1
機器名称
  0
TEXT
  5
7BED
  8
4
  6
CONTINUOUS
 10
-6833.8637930000004
 20
-9763.6879080000017
 30
0.0
 40
250.0
  1
機器型番
  0
TEXT
  5
7BEE
  8
4
  6
CONTINUOUS
 10
-4376.7605960000001
 20
-9259.0548469999994
 30
0.0
 40
211.11111099999991
  1
ミツヤリミットロードファン
  0
TEXT
  5
7BEF
  8
4
  6
CONTINUOUS
 10
-4331.8818460000002
 20
-9786.1157700000022
 30
0.0
 40
250.0
  1
LL#8-4
  0
TEXT
  5
7BF1
  8
4
  6
CONTINUOUS
 10
-5741.225496
 20
545.23051599999985
 30
0.0
 40
270.0
  1
床置ベット
  0
TEXT
  5
7BF2
  8
4
  6
CONTINUOUS
 10
-8684.3163569999997
 20
1297.4911890000001
 30
0.0
 40
300.0
  1
ベルト駆動式片吸込両持リミットロードファン
  0
LINE
  5
7BF3
  8
4
  6
CONTINUOUS
 10
-9015.1543230000007
 20
975.13008000000002
 30
0.0
 11
-1015.154323
 21
975.13008000000002
 31
0.0
  0
LINE
  5
7BF4
  8
4
  6
CONTINUOUS
 10
-9015.1543230000007
 20
1975.1300799999999
 30
0.0
 11
-1015.154323
 21
1975.1300799999999
 31
0.0
  0
LINE
  5
7BF5
  8
4
  6
CONTINUOUS
 10
-7015.1543229999997
 20
-8871.9136910000016
 30
0.0
 11
-1015.154323
 21
-8871.9136910000016
 31
0.0
  0
LINE
  5
7BF6
  8
4
  6
CONTINUOUS
 10
-9015.1543230000007
 20
1975.1300799999999
 30
0.0
 11
-9015.1543230000007
 21
975.13008000000002
 31
0.0
  0
TEXT
  5
7BF7
  8
4
  6
CONTINUOUS
 10
-7920.519656999998
 20
539.68369699999994
 30
0.0
 40
270.0
  1
左回転上向
  0
TEXT
  5
7BF8
  8
4
  6
CONTINUOUS
 10
-2920.3065269999988
 20
2158.3917160000001
 30
0.0
 40
280.0
  1
No.
  0
TEXT
  5
7BF9
  8
4
  6
CONTINUOUS
 10
-3708.6740100000002
 20
545.23051599999985
 30
0.0
 40
270.0
  1
縮尺：1/50
  0
LINE
  5
7BFA
  8
4
  6
CONTINUOUS
 10
-1015.154323
 20
1975.1300799999999
 30
0.0
 11
-1015.154323
 21
975.13008000000002
 31
0.0
  0
LINE
  5
7BFC
  8
4
  6
CONTINUOUS
 10
-3062.067211
 20
2034.4042240000001
 30
0.0
 11
-3062.067211
 21
2561.3476169999999
 31
0.0
  0
LINE
  5
7BFD
  8
4
  6
CONTINUOUS
 10
-3062.067211
 20
2561.3476169999999
 30
0.0
 11
-1015.154323
 21
2561.3476169999999
 31
0.0
  0
LINE
  5
7BFE
  8
4
  6
CONTINUOUS
 10
-1015.154323
 20
2561.3476169999999
 30
0.0
 11
-1015.154323
 21
2034.4042240000001
 31
0.0
  0
LINE
  5
7BFF
  8
4
  6
CONTINUOUS
 10
-1015.154323
 20
2034.4042240000001
 30
0.0
 11
-3062.067211
 21
2034.4042240000001
 31
0.0
  0
DIMENSION
  5
7C78
  8
3
  2
*D14
 10
-8386.3648018590338
 20
-5626.3254035350037
 30
0.0
 11
-8386.364801859032
 21
-5317.7539749635762
 31
0.0
 70
   128
 13
-6871.2623652591401
 23
-4801.3254035350028
 33
0.0
 14
-8000.4137452591394
 24
-5626.3254035350037
 34
0.0
 50
90.0
1001
ACAD
1000
DSTYLE
1002
{
1070
   287
1070
     3
1070
    40
1040
45.0
1070
   143
1040
0.039
1070
   172
1070
     1
1070
   271
1070
     0
1070
   279
1070
     0
1070
   288
1070
     1
1002
}
  0
DIMENSION
  5
7C84
  8
3
  2
*D15
 10
-8386.364801859032
 20
-6736.3254035350037
 30
0.0
 11
-8498.8648018590302
 21
-6181.3254035350046
 31
0.0
 70
     0
 13
-8000.4137452591394
 23
-5626.3254035350037
 33
0.0
 14
-7625.2623652591392
 24
-6736.3254035350037
 34
0.0
 50
90.0
1001
ACAD
1000
DSTYLE
1002
{
1070
   287
1070
     4
1070
    40
1040
45.0
1070
    75
1070
     1
1070
   143
1040
0.039
1070
   172
1070
     1
1070
   271
1070
     0
1070
   279
1070
     1
1070
   288
1070
     1
1002
}
  0
DIMENSION
  5
7C91
  8
3
  2
*D16
 10
-8652.8484129699664
 20
-6736.3254035350037
 30
0.0
 11
-8652.8484129699646
 21
-5818.7389447972737
 31
0.0
 70
   128
 13
-6871.2623652591401
 23
-4801.3254035350028
 33
0.0
 14
-7625.2623652591392
 24
-6736.3254035350037
 34
0.0
 50
90.0
1001
ACAD
1000
DSTYLE
1002
{
1070
   287
1070
     3
1070
    40
1040
45.0
1070
   143
1040
0.039
1070
   172
1070
     1
1070
   271
1070
     0
1070
   279
1070
     0
1070
   288
1070
     1
1002
}
  0
DIMENSION
  5
7C9E
  8
3
  2
*D17
 10
-5075.2623652591401
 20
-3954.8930112425192
 30
0.0
 11
-6353.1935102824282
 21
-3954.8930112425192
 31
0.0
 70
   128
 13
-7772.3709212591402
 23
-4202.2938975350016
 33
0.0
 14
-5075.2623652591401
 24
-6586.3254035350037
 34
0.0
1001
ACAD
1000
DSTYLE
1002
{
1070
   287
1070
     3
1070
    40
1040
45.0
1070
   143
1040
0.039
1070
   172
1070
     1
1070
   271
1070
     0
1070
   279
1070
     0
1070
   288
1070
     1
1002
}
  0
ENDSEC
  0
EOF
