  0
SECTION
  2
HEADER
  9
$ACADVER
  1
AC1009
  9
$INSBASE
 10
0.0
 20
0.0
 30
0.0
  9
$EXTMIN
 10
0.0
 20
0.0
 30
0.0
  9
$EXTMAX
 10
10500.0
 20
14750.0
 30
0.0
  9
$LIMMIN
 10
0.0
 20
0.0
  9
$LIMMAX
 10
297.0
 20
210.0
  9
$ORTHOMODE
 70
     0
  9
$REGENMODE
 70
     1
  9
$FILLMODE
 70
     0
  9
$QTEXTMODE
 70
     0
  9
$MIRRTEXT
 70
     1
  9
$DRAGMODE
 70
     2
  9
$LTSCALE
 40
100.0
  9
$OSMODE
 70
    37
  9
$ATTMODE
 70
     1
  9
$TEXTSIZE
 40
180.0
  9
$TRACEWID
 40
0.05
  9
$TEXTSTYLE
  7
STANDARD
  9
$CLAYER
  8
3
  9
$CELTYPE
  6
BYLAYER
  9
$CECOLOR
 62
   256
  9
$DIMSCALE
 40
50.0
  9
$DIMASZ
 40
2.0
  9
$DIMEXO
 40
0.5
  9
$DIMDLI
 40
10.0
  9
$DIMRND
 40
0.0
  9
$DIMDLE
 40
0.0
  9
$DIMEXE
 40
1.0
  9
$DIMTP
 40
1.0
  9
$DIMTM
 40
1.0
  9
$DIMTXT
 40
3.0
  9
$DIMCEN
 40
0.0
  9
$DIMTSZ
 40
0.0
  9
$DIMTOL
 70
     0
  9
$DIMLIM
 70
     0
  9
$DIMTIH
 70
     0
  9
$DIMTOH
 70
     0
  9
$DIMSE1
 70
     0
  9
$DIMSE2
 70
     0
  9
$DIMTAD
 70
     1
  9
$DIMZIN
 70
     8
  9
$DIMBLK
  1

  9
$DIMASO
 70
     1
  9
$DIMSHO
 70
     1
  9
$DIMPOST
  1

  9
$DIMAPOST
  1

  9
$DIMALT
 70
     0
  9
$DIMALTD
 70
     2
  9
$DIMALTF
 40
0.039
  9
$DIMLFAC
 40
1.0
  9
$DIMTOFL
 70
     1
  9
$DIMTVP
 40
0.0
  9
$DIMTIX
 70
     0
  9
$DIMSOXD
 70
     0
  9
$DIMSAH
 70
     1
  9
$DIMBLK1
  1
OPEN
  9
$DIMBLK2
  1
OPEN
  9
$DIMSTYLE
  2
IGA
  9
$DIMCLRD
 70
     0
  9
$DIMCLRE
 70
     0
  9
$DIMCLRT
 70
     0
  9
$DIMTFAC
 40
10.0
  9
$DIMGAP
 40
1.0
  9
$LUNITS
 70
     2
  9
$LUPREC
 70
     3
  9
$SKETCHINC
 40
0.1
  9
$FILLETRAD
 40
50.0
  9
$AUNITS
 70
     0
  9
$AUPREC
 70
     0
  9
$MENU
  1
acad
  9
$ELEVATION
 40
0.0
  9
$PELEVATION
 40
0.0
  9
$THICKNESS
 40
0.0
  9
$LIMCHECK
 70
     0
  9
$BLIPMODE
 70
     0
  9
$CHAMFERA
 40
0.5
  9
$CHAMFERB
 40
0.5
  9
$SKPOLY
 70
     0
  9
$TDCREATE
 40
2452321.3884343752
  9
$TDUPDATE
 40
2454953.6475253119
  9
$TDINDWG
 40
0.0516614468
  9
$TDUSRTIMER
 40
0.0516614468
  9
$USRTIMER
 70
     1
  9
$ANGBASE
 50
0.0
  9
$ANGDIR
 70
     0
  9
$PDMODE
 70
     0
  9
$PDSIZE
 40
0.0
  9
$PLINEWID
 40
0.0
  9
$COORDS
 70
     1
  9
$SPLFRAME
 70
     0
  9
$SPLINETYPE
 70
     6
  9
$SPLINESEGS
 70
     8
  9
$ATTDIA
 70
     0
  9
$ATTREQ
 70
     1
  9
$HANDLING
 70
 10241
  9
$HANDSEED
  5
8D50
  9
$SURFTAB1
 70
     6
  9
$SURFTAB2
 70
     6
  9
$SURFTYPE
 70
     6
  9
$SURFU
 70
     6
  9
$SURFV
 70
     6
  9
$UCSNAME
  2

  9
$UCSORG
 10
0.0
 20
0.0
 30
0.0
  9
$UCSXDIR
 10
1.0
 20
0.0
 30
0.0
  9
$UCSYDIR
 10
0.0
 20
1.0
 30
0.0
  9
$PUCSNAME
  2

  9
$PUCSORG
 10
0.0
 20
0.0
 30
0.0
  9
$PUCSXDIR
 10
1.0
 20
0.0
 30
0.0
  9
$PUCSYDIR
 10
0.0
 20
1.0
 30
0.0
  9
$USERI1
 70
     0
  9
$USERI2
 70
     0
  9
$USERI3
 70
     0
  9
$USERI4
 70
     0
  9
$USERI5
 70
     0
  9
$USERR1
 40
0.0
  9
$USERR2
 40
0.0
  9
$USERR3
 40
0.0
  9
$USERR4
 40
0.0
  9
$USERR5
 40
0.0
  9
$WORLDVIEW
 70
     1
  9
$SHADEDGE
 70
     3
  9
$SHADEDIF
 70
    70
  9
$TILEMODE
 70
     1
  9
$MAXACTVP
 70
    16
  9
$PLIMCHECK
 70
     0
  9
$PEXTMIN
 10
1.0000000000000000E+020
 20
1.0000000000000000E+020
 30
1.0000000000000000E+020
  9
$PEXTMAX
 10
-1.0000000000000000E+020
 20
-1.0000000000000000E+020
 30
-1.0000000000000000E+020
  9
$PLIMMIN
 10
0.0
 20
0.0
  9
$PLIMMAX
 10
12.0
 20
9.0
  9
$UNITMODE
 70
     0
  9
$VISRETAIN
 70
     0
  9
$PLINEGEN
 70
     0
  9
$PSLTSCALE
 70
     1
  0
ENDSEC
  0
SECTION
  2
TABLES
  0
TABLE
  2
VPORT
 70
     2
  0
VPORT
  2
*ACTIVE
 70
     0
 10
0.0
 20
0.0
 11
1.0
 21
1.0
 12
9882.8498356746186
 22
1762.55797309073
 13
0.0
 23
0.0
 14
10.0
 24
10.0
 15
10.0
 25
10.0
 16
0.0
 26
0.0
 36
1.0
 17
0.0
 27
0.0
 37
0.0
 40
4458.3642137126189
 41
3.1666666666666661
 42
50.0
 43
0.0
 44
0.0
 50
0.0
 51
0.0
 71
     0
 72
   100
 73
     1
 74
     0
 75
     0
 76
     0
 77
     0
 78
     0
  0
ENDTAB
  0
TABLE
  2
LTYPE
 70
     2
  0
LTYPE
  2
CONTINUOUS
 70
     0
  3
Solid line
 72
    65
 73
     0
 40
0.0
  0
LTYPE
  2
CENTER
 70
     0
  3
____ _ ____ _ ____ _ ____ _ ____ _ ____ _ ____ 
 72
    65
 73
     4
 40
2.0
 49
1.25
 49
-0.25
 49
0.25
 49
-0.25
  0
ENDTAB
  0
TABLE
  2
LAYER
 70
     6
  0
LAYER
  2
0
 70
     0
 62
     7
  6
CONTINUOUS
  0
LAYER
  2
3
 70
     0
 62
     2
  6
CONTINUOUS
  0
LAYER
  2
2
 70
     0
 62
     3
  6
CENTER
  0
LAYER
  2
1
 70
     0
 62
     4
  6
CONTINUOUS
  0
LAYER
  2
4
 70
     0
 62
     7
  6
CONTINUOUS
  0
LAYER
  2
DEFPOINTS
 70
     0
 62
     7
  6
CONTINUOUS
  0
ENDTAB
  0
TABLE
  2
STYLE
 70
     1
  0
STYLE
  2
STANDARD
 70
     0
 40
0.0
 41
1.0
 50
0.0
 71
     0
 42
180.0
  3
simplex.shx
  4
extfont.shx
  0
ENDTAB
  0
TABLE
  2
VIEW
 70
     0
  0
ENDTAB
  0
TABLE
  2
UCS
 70
     0
  0
ENDTAB
  0
TABLE
  2
APPID
 70
     1
  0
APPID
  2
ACAD
 70
     0
  0
ENDTAB
  0
TABLE
  2
DIMSTYLE
 70
     1
  0
DIMSTYLE
  2
IGA
 70
     0
  3

  4

  5

  6
OPEN
  7
OPEN
 40
2.0
 41
2.0
 42
0.5
 43
10.0
 44
1.0
 45
0.0
 46
0.0
 47
1.0
 48
1.0
140
3.0
141
0.0
142
0.0
143
0.03937
144
1.0
145
0.0
146
10.0
147
1.0
 71
     0
 72
     0
 73
     0
 74
     0
 75
     0
 76
     0
 77
     1
 78
     8
170
     0
171
     2
172
     0
173
     1
174
     0
175
     0
176
     0
177
     0
178
     0
  0
ENDTAB
  0
ENDSEC
  0
SECTION
  2
BLOCKS
  0
BLOCK
  8
0
  2
$MODEL_SPACE
 70
     0
 10
0.0
 20
0.0
 30
0.0
  3
$MODEL_SPACE
  1

  0
ENDBLK
  5
1B
  8
0
  0
BLOCK
 67
     1
  8
0
  2
$PAPER_SPACE
 70
     0
 10
0.0
 20
0.0
 30
0.0
  3
$PAPER_SPACE
  1

  0
ENDBLK
  5
18
 67
     1
  8
0
  0
BLOCK
  8
0
  2
_OPEN
 70
     0
 10
0.0
 20
0.0
 30
0.0
  3
_OPEN
  1

  0
LINE
  5
79FD
  8
0
  6
BYBLOCK
 62
     0
 10
-1.0
 20
0.1666666666666666
 30
0.0
 11
0.0
 21
0.0
 31
0.0
  0
LINE
  5
79FE
  8
0
  6
BYBLOCK
 62
     0
 10
0.0
 20
0.0
 30
0.0
 11
-1.0
 21
-0.1666666666666666
 31
0.0
  0
LINE
  5
79FF
  8
0
  6
BYBLOCK
 62
     0
 10
0.0
 20
0.0
 30
0.0
 11
-1.0
 21
0.0
 31
0.0
  0
ENDBLK
  5
7A01
  8
0
  0
BLOCK
  8
0
  2
YA_N
 70
     0
 10
0.0
 20
0.0
 30
0.0
  3
YA_N
  1

  0
ENDBLK
  5
7EF0
  8
0
  0
BLOCK
  8
0
  2
*D2
 70
     1
 10
0.0
 20
0.0
 30
0.0
  3
*D2
  1

  0
LINE
  5
8C85
  8
3
 62
     0
 10
3805.081816123567
 20
10701.006088529921
 30
0.0
 11
3805.081816123567
 21
10962.3455461579
 31
0.0
  0
LINE
  5
8C86
  8
3
 62
     0
 10
2305.081816123567
 20
10701.006088529921
 30
0.0
 11
2305.081816123567
 21
10962.3455461579
 31
0.0
  0
LINE
  5
8C87
  8
3
 62
     0
 10
3705.081816123567
 20
10912.345546157891
 30
0.0
 11
2405.081816123567
 21
10912.345546157891
 31
0.0
  0
INSERT
  5
8C88
  8
3
 62
     0
  2
_OPEN
 10
3805.081816123567
 20
10912.345546157891
 30
0.0
 41
100.0
 42
100.0
 43
100.0
  0
INSERT
  5
8C89
  8
3
 62
     0
  2
_OPEN
 10
2305.081816123567
 20
10912.345546157891
 30
0.0
 41
100.0
 42
100.0
 43
100.0
 50
180.0
  0
TEXT
  8
3
  40
150
  5
8D3B
  62
0
  72
0
  71
0
 10
2830.70
 20
10771.8
 30
0.000000
  1
1500
  0
POINT
  5
8C8B
  8
DEFPOINTS
 62
     0
 10
3805.081816123567
 20
10676.006088529921
 30
0.0
  0
POINT
  5
8C8C
  8
DEFPOINTS
 62
     0
 10
2305.081816123567
 20
10676.006088529921
 30
0.0
  0
POINT
  5
8C8D
  8
DEFPOINTS
 62
     0
 10
2305.081816123567
 20
10912.345546157891
 30
0.0
  0
ENDBLK
  5
8C19
  8
0
  0
BLOCK
  8
0
  2
*D3
 70
     1
 10
0.0
 20
0.0
 30
0.0
  3
*D3
  1

  0
LINE
  5
8C8E
  8
3
 62
     0
 10
2280.081816123567
 20
10676.006088529921
 30
0.0
 11
1799.9094258002131
 21
10676.006088529921
 31
0.0
  0
LINE
  5
8C8F
  8
3
 62
     0
 10
2280.081816123567
 20
9566.0060885299245
 30
0.0
 11
1799.9094258002119
 21
9566.0060885299245
 31
0.0
  0
LINE
  5
8C90
  8
3
 62
     0
 10
1849.9094258002131
 20
10576.006088529921
 30
0.0
 11
1849.9094258002119
 21
9666.0060885299245
 31
0.0
  0
INSERT
  5
8C91
  8
3
 62
     0
  2
_OPEN
 10
1849.9094258002131
 20
10676.006088529921
 30
0.0
 41
100.0
 42
100.0
 43
100.0
 50
90.0
  0
INSERT
  5
8C92
  8
3
 62
     0
  2
_OPEN
 10
1849.9094258002119
 20
9566.0060885299245
 30
0.0
 41
100.0
 42
100.0
 43
100.0
 50
270.0
  0
TEXT
  8
3
  40
150
  5
8D3C
  62
0
  72
0
  71
0
 10
1424.91
 20
9833.45
 30
0.000000
  1
1110
  0
POINT
  5
8C94
  8
DEFPOINTS
 62
     0
 10
2305.081816123567
 20
10676.006088529921
 30
0.0
  0
POINT
  5
8C95
  8
DEFPOINTS
 62
     0
 10
2305.081816123567
 20
9566.0060885299245
 30
0.0
  0
POINT
  5
8C96
  8
DEFPOINTS
 62
     0
 10
1849.9094258002119
 20
9566.0060885299245
 30
0.0
  0
ENDBLK
  5
8C24
  8
0
  0
BLOCK
  8
0
  2
*D4
 70
     1
 10
0.0
 20
0.0
 30
0.0
  3
*D4
  1

  0
LINE
  5
8C97
  8
3
 62
     0
 10
2580.081816123567
 20
8621.0060885299245
 30
0.0
 11
1799.909425800211
 21
8621.0060885299245
 31
0.0
  0
LINE
  5
8C98
  8
3
 62
     0
 10
1849.909425800211
 20
9466.0060885299245
 30
0.0
 11
1849.909425800211
 21
8721.0060885299226
 31
0.0
  0
INSERT
  5
8C99
  8
3
 62
     0
  2
_OPEN
 10
1849.909425800211
 20
9566.0060885299245
 30
0.0
 41
100.0
 42
100.0
 43
100.0
 50
90.0
  0
INSERT
  5
8C9A
  8
3
 62
     0
  2
_OPEN
 10
1849.909425800211
 20
8621.0060885299245
 30
0.0
 41
100.0
 42
100.0
 43
100.0
 50
270.0
  0
TEXT
  8
3
  40
150
  5
8D3D
  62
0
  72
0
  71
0
 10
1424.91
 20
8828.01
 30
0.000000
  1
945
  0
POINT
  5
8C9C
  8
DEFPOINTS
 62
     0
 10
2305.081816123567
 20
9566.0060885299245
 30
0.0
  0
POINT
  5
8C9D
  8
DEFPOINTS
 62
     0
 10
2605.081816123567
 20
8621.0060885299245
 30
0.0
  0
POINT
  5
8C9E
  8
DEFPOINTS
 62
     0
 10
1849.909425800211
 20
8621.0060885299245
 30
0.0
  0
ENDBLK
  5
8C0E
  8
0
  0
BLOCK
  8
0
  2
*D5
 70
     1
 10
0.0
 20
0.0
 30
0.0
  3
*D5
  1

  0
LINE
  5
8C9F
  8
3
 62
     0
 10
2605.081816123567
 20
8596.0060885299226
 30
0.0
 11
2605.081816123567
 21
8031.7460686846171
 31
0.0
  0
LINE
  5
8CA0
  8
3
 62
     0
 10
4205.0818161235666
 20
8596.0060885299226
 30
0.0
 11
4205.0818161235666
 21
8031.7460686846171
 31
0.0
  0
LINE
  5
8CA1
  8
3
 62
     0
 10
2705.081816123567
 20
8081.7460686846171
 30
0.0
 11
4105.0818161235684
 21
8081.7460686846171
 31
0.0
  0
INSERT
  5
8CA2
  8
3
 62
     0
  2
_OPEN
 10
2605.081816123567
 20
8081.7460686846171
 30
0.0
 41
100.0
 42
100.0
 43
100.0
 50
180.0
  0
INSERT
  5
8CA3
  8
3
 62
     0
  2
_OPEN
 10
4205.0818161235666
 20
8081.7460686846171
 30
0.0
 41
100.0
 42
100.0
 43
100.0
  0
TEXT
  8
3
  40
150
  5
8D3E
  62
0
  72
0
  71
0
 10
3123.76
 20
7941.25
 30
0.000000
  1
1600
  0
POINT
  5
8CA5
  8
DEFPOINTS
 62
     0
 10
2605.081816123567
 20
8621.0060885299245
 30
0.0
  0
POINT
  5
8CA6
  8
DEFPOINTS
 62
     0
 10
4205.0818161235666
 20
8621.0060885299245
 30
0.0
  0
POINT
  5
8CA7
  8
DEFPOINTS
 62
     0
 10
4205.0818161235666
 20
8081.7460686846171
 30
0.0
  0
ENDBLK
  5
8BF9
  8
0
  0
BLOCK
  8
0
  2
*D6
 70
     1
 10
0.0
 20
0.0
 30
0.0
  3
*D6
  1

  0
LINE
  5
8CA8
  8
3
 62
     0
 10
4230.0818161235684
 20
8621.0060885299245
 30
0.0
 11
4656.8675151495017
 21
8621.0060885299245
 31
0.0
  0
LINE
  5
8CA9
  8
3
 62
     0
 10
4230.0818161235684
 20
9641.0060885299245
 30
0.0
 11
4656.8675151495017
 21
9641.0060885299245
 31
0.0
  0
LINE
  5
8CAA
  8
3
 62
     0
 10
4606.8675151495008
 20
8721.0060885299226
 30
0.0
 11
4606.8675151495008
 21
9541.0060885299245
 31
0.0
  0
INSERT
  5
8CAB
  8
3
 62
     0
  2
_OPEN
 10
4606.8675151495008
 20
8621.0060885299245
 30
0.0
 41
100.0
 42
100.0
 43
100.0
 50
270.0
  0
INSERT
  5
8CAC
  8
3
 62
     0
  2
_OPEN
 10
4606.8675151495008
 20
9641.0060885299245
 30
0.0
 41
100.0
 42
100.0
 43
100.0
 50
90.0
  0
TEXT
  8
3
  40
150
  5
8D3F
  62
0
  72
0
  71
0
 10
4181.87
 20
8857.39
 30
0.000000
  1
1020
  0
POINT
  5
8CAE
  8
DEFPOINTS
 62
     0
 10
4205.0818161235666
 20
8621.0060885299245
 30
0.0
  0
POINT
  5
8CAF
  8
DEFPOINTS
 62
     0
 10
4205.0818161235666
 20
9641.0060885299245
 30
0.0
  0
POINT
  5
8CB0
  8
DEFPOINTS
 62
     0
 10
4606.8675151495008
 20
9641.0060885299245
 30
0.0
  0
ENDBLK
  5
8C04
  8
0
  0
BLOCK
  8
0
  2
*D7
 70
     1
 10
0.0
 20
0.0
 30
0.0
  3
*D7
  1

  0
LINE
  5
8CB1
  8
3
 62
     0
 10
4205.0818161235666
 20
3724.627991408147
 30
0.0
 11
4205.0818161235666
 21
3360.638338032295
 31
0.0
  0
LINE
  5
8CB2
  8
3
 62
     0
 10
3055.081816123567
 20
3724.627991408147
 30
0.0
 11
3055.081816123567
 21
3360.638338032295
 31
0.0
  0
LINE
  5
8CB3
  8
3
 62
     0
 10
4105.0818161235684
 20
3410.638338032295
 30
0.0
 11
3155.081816123567
 21
3410.638338032295
 31
0.0
  0
INSERT
  5
8CB4
  8
3
 62
     0
  2
_OPEN
 10
4205.0818161235666
 20
3410.638338032295
 30
0.0
 41
100.0
 42
100.0
 43
100.0
  0
INSERT
  5
8CB5
  8
3
 62
     0
  2
_OPEN
 10
3055.081816123567
 20
3410.638338032295
 30
0.0
 41
100.0
 42
100.0
 43
100.0
 50
180.0
  0
TEXT
  8
3
  40
150
  5
8D40
  62
0
  72
0
  71
0
 10
3332.00
 20
3270.14
 30
0.000000
  1
1150
  0
POINT
  5
8CB7
  8
DEFPOINTS
 62
     0
 10
4205.0818161235666
 20
3749.627991408147
 30
0.0
  0
POINT
  5
8CB8
  8
DEFPOINTS
 62
     0
 10
3055.081816123567
 20
3749.627991408147
 30
0.0
  0
POINT
  5
8CB9
  8
DEFPOINTS
 62
     0
 10
3055.081816123567
 20
3410.638338032295
 30
0.0
  0
ENDBLK
  5
8B80
  8
0
  0
BLOCK
  8
0
  2
*D8
 70
     1
 10
0.0
 20
0.0
 30
0.0
  3
*D8
  1

  0
LINE
  5
8CBA
  8
3
 62
     0
 10
2305.081816123567
 20
3724.627991408147
 30
0.0
 11
2305.081816123567
 21
3360.638338032295
 31
0.0
  0
LINE
  5
8CBB
  8
3
 62
     0
 10
2955.081816123567
 20
3410.638338032295
 30
0.0
 11
2405.081816123567
 21
3410.638338032295
 31
0.0
  0
INSERT
  5
8CBC
  8
3
 62
     0
  2
_OPEN
 10
3055.081816123567
 20
3410.638338032295
 30
0.0
 41
100.0
 42
100.0
 43
100.0
  0
INSERT
  5
8CBD
  8
3
 62
     0
  2
_OPEN
 10
2305.081816123567
 20
3410.638338032295
 30
0.0
 41
100.0
 42
100.0
 43
100.0
 50
180.0
  0
TEXT
  8
3
  40
150
  5
8D41
  62
0
  72
0
  71
0
 10
2380.08
 20
3270.14
 30
0.000000
  1
750
  0
POINT
  5
8CBF
  8
DEFPOINTS
 62
     0
 10
3055.081816123567
 20
3749.627991408147
 30
0.0
  0
POINT
  5
8CC0
  8
DEFPOINTS
 62
     0
 10
2305.081816123567
 20
3749.627991408147
 30
0.0
  0
POINT
  5
8CC1
  8
DEFPOINTS
 62
     0
 10
2305.081816123567
 20
3410.638338032295
 30
0.0
  0
ENDBLK
  5
8B95
  8
0
  0
BLOCK
  8
0
  2
*D9
 70
     1
 10
0.0
 20
0.0
 30
0.0
  3
*D9
  1

  0
LINE
  5
8CC2
  8
3
 62
     0
 10
6249.0697441729999
 20
3724.627991408147
 30
0.0
 11
6249.0697441729999
 21
3360.638338032295
 31
0.0
  0
LINE
  5
8CC3
  8
3
 62
     0
 10
7749.0697441730017
 20
3724.627991408147
 30
0.0
 11
7749.0697441730017
 21
3360.638338032295
 31
0.0
  0
LINE
  5
8CC4
  8
3
 62
     0
 10
6349.0697441729999
 20
3410.638338032295
 30
0.0
 11
7649.0697441730017
 21
3410.638338032295
 31
0.0
  0
INSERT
  5
8CC5
  8
3
 62
     0
  2
_OPEN
 10
6249.0697441729999
 20
3410.638338032295
 30
0.0
 41
100.0
 42
100.0
 43
100.0
 50
180.0
  0
INSERT
  5
8CC6
  8
3
 62
     0
  2
_OPEN
 10
7749.0697441730017
 20
3410.638338032295
 30
0.0
 41
100.0
 42
100.0
 43
100.0
  0
TEXT
  8
3
  40
150
  5
8D42
  62
0
  72
0
  71
0
 10
6772.90
 20
3270.14
 30
0.000000
  1
1500
  0
POINT
  5
8CC8
  8
DEFPOINTS
 62
     0
 10
6249.0697441729999
 20
3749.627991408147
 30
0.0
  0
POINT
  5
8CC9
  8
DEFPOINTS
 62
     0
 10
7749.0697441730017
 20
3749.627991408147
 30
0.0
  0
POINT
  5
8CCA
  8
DEFPOINTS
 62
     0
 10
7749.0697441730017
 20
3410.638338032295
 30
0.0
  0
ENDBLK
  5
87E3
  8
0
  0
BLOCK
  8
0
  2
*D10
 70
     1
 10
0.0
 20
0.0
 30
0.0
  3
*D10
  1

  0
LINE
  5
87FE
  8
0
  6
BYBLOCK
 62
     0
 10
8304.0697441730008
 20
4154.6279914081479
 30
0.0
 11
8304.0697441730008
 21
3790.6383380322941
 31
0.0
  0
LINE
  5
87FF
  8
0
  6
BYBLOCK
 62
     0
 10
7849.0697441730017
 20
3840.638338032295
 30
0.0
 11
8204.0697441730008
 21
3840.638338032295
 31
0.0
  0
TEXT
  5
8800
  8
3
 62
     0
 10
7850.0796396438191
 20
3887.747357576372
 30
0.0
 40
150.0
  1
555
  0
INSERT
  5
8801
  8
0
  6
BYBLOCK
 62
     0
  2
_OPEN
 10
7749.0697441730017
 20
3840.638338032295
 30
0.0
 41
100.0
 42
100.0
 43
100.0
 50
180.0
  0
INSERT
  5
8802
  8
0
  6
BYBLOCK
 62
     0
  2
_OPEN
 10
8304.0697441730008
 20
3840.638338032295
 30
0.0
 41
100.0
 42
100.0
 43
100.0
  0
POINT
  5
8803
  8
DEFPOINTS
  6
BYBLOCK
 62
     0
 10
7749.0697441730017
 20
4179.6279914081479
 30
0.0
  0
POINT
  5
8804
  8
DEFPOINTS
  6
BYBLOCK
 62
     0
 10
8304.0697441730008
 20
4179.6279914081479
 30
0.0
  0
POINT
  5
8805
  8
DEFPOINTS
  6
BYBLOCK
 62
     0
 10
8304.0697441730008
 20
3840.638338032295
 30
0.0
  0
ENDBLK
  5
8806
  8
0
  0
BLOCK
  8
0
  2
*D11
 70
     1
 10
0.0
 20
0.0
 30
0.0
  3
*D11
  1

  0
LINE
  5
8CCB
  8
3
 62
     0
 10
8259.0697441730026
 20
5924.627991408147
 30
0.0
 11
8716.1480083497318
 21
5924.627991408147
 31
0.0
  0
LINE
  5
8CCC
  8
3
 62
     0
 10
8259.0697441730026
 20
4674.627991408147
 30
0.0
 11
8716.1480083497318
 21
4674.627991408147
 31
0.0
  0
LINE
  5
8CCD
  8
3
 62
     0
 10
8666.1480083497336
 20
5824.6279914081479
 30
0.0
 11
8666.1480083497336
 21
4774.6279914081479
 31
0.0
  0
INSERT
  5
8CCE
  8
3
 62
     0
  2
_OPEN
 10
8666.1480083497336
 20
5924.627991408147
 30
0.0
 41
100.0
 42
100.0
 43
100.0
 50
90.0
  0
INSERT
  5
8CCF
  8
3
 62
     0
  2
_OPEN
 10
8666.1480083497336
 20
4674.627991408147
 30
0.0
 41
100.0
 42
100.0
 43
100.0
 50
270.0
  0
TEXT
  8
3
  40
150
  5
8D43
  62
0
  72
0
  71
0
 10
8241.15
 20
5054.13
 30
0.000000
  1
φ1250
  0
POINT
  5
8CD1
  8
DEFPOINTS
 62
     0
 10
8234.0697441730026
 20
5924.627991408147
 30
0.0
  0
POINT
  5
8CD2
  8
DEFPOINTS
 62
     0
 10
8234.0697441730026
 20
4674.627991408147
 30
0.0
  0
POINT
  5
8CD3
  8
DEFPOINTS
 62
     0
 10
8666.1480083497336
 20
4674.627991408147
 30
0.0
  0
ENDBLK
  5
882D
  8
0
  0
BLOCK
  8
0
  2
_DOT
 70
     0
 10
0.0
 20
0.0
 30
0.0
  3
_DOT
  1

  0
LINE
  5
8927
  8
0
  6
BYBLOCK
 62
     0
 10
0.0
 20
0.0
 30
0.0
 11
-1.0
 21
-0.0000000000000284
 31
0.0
  0
POLYLINE
  5
8928
  8
0
  6
BYBLOCK
 62
     0
 66
     1
 10
0.0
 20
0.0
 30
0.0
 70
     1
 40
0.1666666666666666
 41
0.1666666666666666
  0
VERTEX
  5
8CD4
  8
0
  6
BYBLOCK
 62
     0
 10
-0.0833333333333286
 20
-0.0000000000000284
 30
0.0
 42
1.0
  0
VERTEX
  5
8CD5
  8
0
  6
BYBLOCK
 62
     0
 10
0.0833333333333286
 20
-0.0000000000000284
 30
0.0
 42
1.0
  0
SEQEND
  5
8CD6
  8
0
  6
BYBLOCK
 62
     0
  0
ENDBLK
  5
890C
  8
0
  0
BLOCK
  8
0
  2
*D13
 70
     1
 10
0.0
 20
0.0
 30
0.0
  3
*D13
  1

  0
LINE
  5
8BE6
  8
0
  6
BYBLOCK
 62
     0
 10
4205.0818161235666
 20
9666.0060885299245
 30
0.0
 11
4205.0818161235666
 21
10962.3455461579
 31
0.0
  0
LINE
  5
8BE7
  8
0
  6
BYBLOCK
 62
     0
 10
3905.081816123567
 20
10912.345546157891
 30
0.0
 11
4105.0818161235684
 21
10912.345546157891
 31
0.0
  0
TEXT
  5
8BE8
  8
3
 62
     0
 10
3812.2246732664248
 20
10965.910032208471
 30
0.0
 40
150.0
  1
400
  0
INSERT
  5
8BE9
  8
0
  6
BYBLOCK
 62
     0
  2
_OPEN
 10
3805.081816123567
 20
10912.345546157891
 30
0.0
 41
100.0
 42
100.0
 43
100.0
 50
180.0
  0
INSERT
  5
8BEA
  8
0
  6
BYBLOCK
 62
     0
  2
_OPEN
 10
4205.0818161235666
 20
10912.345546157891
 30
0.0
 41
100.0
 42
100.0
 43
100.0
  0
POINT
  5
8BEB
  8
DEFPOINTS
  6
BYBLOCK
 62
     0
 10
3805.081816123567
 20
10676.006088529921
 30
0.0
  0
POINT
  5
8BEC
  8
DEFPOINTS
  6
BYBLOCK
 62
     0
 10
4205.0818161235666
 20
9641.0060885299245
 30
0.0
  0
POINT
  5
8BED
  8
DEFPOINTS
  6
BYBLOCK
 62
     0
 10
4205.0818161235666
 20
10912.345546157891
 30
0.0
  0
ENDBLK
  5
8BEE
  8
0
  0
BLOCK
  8
0
  2
*D14
 70
     1
 10
0.0
 20
0.0
 30
0.0
  3
*D14
  1

  0
LINE
  5
8CD7
  8
3
 62
     0
 10
2205.081816123567
 20
5245.6279914081479
 30
0.0
 11
1865.0265346392009
 21
5245.6279914081488
 31
0.0
  0
LINE
  5
8CD8
  8
3
 62
     0
 10
2205.081816123567
 20
3965.6279914081479
 30
0.0
 11
1865.0265346392
 21
3965.6279914081479
 31
0.0
  0
LINE
  5
8CD9
  8
3
 62
     0
 10
1915.0265346392009
 20
5145.6279914081488
 30
0.0
 11
1915.0265346392
 21
4065.6279914081479
 31
0.0
  0
INSERT
  5
8CDA
  8
3
 62
     0
  2
_OPEN
 10
1915.0265346392009
 20
5245.6279914081488
 30
0.0
 41
100.0
 42
100.0
 43
100.0
 50
90.0
  0
INSERT
  5
8CDB
  8
3
 62
     0
  2
_OPEN
 10
1915.0265346392
 20
3965.6279914081479
 30
0.0
 41
100.0
 42
100.0
 43
100.0
 50
270.0
  0
TEXT
  8
3
  40
150
  5
8D44
  62
0
  72
0
  71
0
 10
1490.03
 20
4340.13
 30
0.000000
  1
1280
  0
POINT
  5
8CDD
  8
DEFPOINTS
 62
     0
 10
2230.081816123567
 20
5245.6279914081479
 30
0.0
  0
POINT
  5
8CDE
  8
DEFPOINTS
 62
     0
 10
2230.081816123567
 20
3965.6279914081479
 30
0.0
  0
POINT
  5
8CDF
  8
DEFPOINTS
 62
     0
 10
1915.0265346392
 20
3965.6279914081479
 30
0.0
  0
ENDBLK
  5
8BC1
  8
0
  0
BLOCK
  8
0
  2
*D15
 70
     1
 10
0.0
 20
0.0
 30
0.0
  3
*D15
  1

  0
LINE
  5
8CE0
  8
3
 62
     0
 10
2126.6452778747148
 20
5299.627991408147
 30
0.0
 11
1546.624512446306
 21
5299.6279914081488
 31
0.0
  0
LINE
  5
8CE1
  8
3
 62
     0
 10
2180.081816123567
 20
3965.6279914081479
 30
0.0
 11
1546.6245124463051
 21
3965.6279914081479
 31
0.0
  0
LINE
  5
8CE2
  8
3
 62
     0
 10
1596.624512446306
 20
5199.6279914081488
 30
0.0
 11
1596.6245124463051
 21
4065.6279914081479
 31
0.0
  0
INSERT
  5
8CE3
  8
3
 62
     0
  2
_OPEN
 10
1596.624512446306
 20
5299.6279914081488
 30
0.0
 41
100.0
 42
100.0
 43
100.0
 50
90.0
  0
INSERT
  5
8CE4
  8
3
 62
     0
  2
_OPEN
 10
1596.6245124463051
 20
3965.6279914081479
 30
0.0
 41
100.0
 42
100.0
 43
100.0
 50
270.0
  0
TEXT
  8
3
  40
150
  5
8D45
  62
0
  72
0
  71
0
 10
1171.62
 20
4367.13
 30
0.000000
  1
1334
  0
POINT
  5
8CE6
  8
DEFPOINTS
 62
     0
 10
2151.6452778747148
 20
5299.627991408147
 30
0.0
  0
POINT
  5
8CE7
  8
DEFPOINTS
 62
     0
 10
2205.081816123567
 20
3965.6279914081479
 30
0.0
  0
POINT
  5
8CE8
  8
DEFPOINTS
 62
     0
 10
1596.6245124463051
 20
3965.6279914081479
 30
0.0
  0
ENDBLK
  5
8BCC
  8
0
  0
BLOCK
  8
0
  2
*D16
 70
     1
 10
0.0
 20
0.0
 30
0.0
  3
*D16
  1

  0
LINE
  5
8CE9
  8
3
 62
     0
 10
2126.6452778747148
 20
5299.627991408147
 30
0.0
 11
1232.837001000484
 21
5299.6279914081488
 31
0.0
  0
LINE
  5
8CEA
  8
3
 62
     0
 10
2280.081816123567
 20
3749.627991408147
 30
0.0
 11
1232.837001000483
 21
3749.627991408147
 31
0.0
  0
LINE
  5
8CEB
  8
3
 62
     0
 10
1282.837001000483
 20
5199.6279914081488
 30
0.0
 11
1282.837001000483
 21
3849.6279914081479
 31
0.0
  0
INSERT
  5
8CEC
  8
3
 62
     0
  2
_OPEN
 10
1282.837001000483
 20
5299.6279914081488
 30
0.0
 41
100.0
 42
100.0
 43
100.0
 50
90.0
  0
INSERT
  5
8CED
  8
3
 62
     0
  2
_OPEN
 10
1282.837001000483
 20
3749.627991408147
 30
0.0
 41
100.0
 42
100.0
 43
100.0
 50
270.0
  0
TEXT
  8
3
  40
150
  5
8D46
  62
0
  72
0
  71
0
 10
857.837
 20
4259.13
 30
0.000000
  1
1550
  0
POINT
  5
8CEF
  8
DEFPOINTS
 62
     0
 10
2151.6452778747148
 20
5299.627991408147
 30
0.0
  0
POINT
  5
8CF0
  8
DEFPOINTS
 62
     0
 10
2305.081816123567
 20
3749.627991408147
 30
0.0
  0
POINT
  5
8CF1
  8
DEFPOINTS
 62
     0
 10
1282.837001000483
 20
3749.627991408147
 30
0.0
  0
ENDBLK
  5
8BD7
  8
0
  0
BLOCK
  8
0
  2
*D17
 70
     1
 10
0.0
 20
0.0
 30
0.0
  3
*D17
  1

  0
LINE
  5
8CF2
  8
3
 62
     0
 10
3121.081816123567
 20
6196.6279914081479
 30
0.0
 11
1230.695092173137
 21
6196.6279914081488
 31
0.0
  0
LINE
  5
8CF3
  8
3
 62
     0
 10
2126.6452778747148
 20
5299.627991408147
 30
0.0
 11
1230.6950921731359
 21
5299.6279914081488
 31
0.0
  0
LINE
  5
8CF4
  8
3
 62
     0
 10
1280.695092173137
 20
6096.6279914081488
 30
0.0
 11
1280.695092173137
 21
5399.6279914081488
 31
0.0
  0
INSERT
  5
8CF5
  8
3
 62
     0
  2
_OPEN
 10
1280.695092173137
 20
6196.6279914081488
 30
0.0
 41
100.0
 42
100.0
 43
100.0
 50
90.0
  0
INSERT
  5
8CF6
  8
3
 62
     0
  2
_OPEN
 10
1280.695092173137
 20
5299.6279914081488
 30
0.0
 41
100.0
 42
100.0
 43
100.0
 50
270.0
  0
TEXT
  8
3
  40
150
  5
8D47
  62
0
  72
0
  71
0
 10
855.695
 20
5482.63
 30
0.000000
  1
897
  0
POINT
  5
8CF8
  8
DEFPOINTS
 62
     0
 10
3146.081816123567
 20
6196.6279914081479
 30
0.0
  0
POINT
  5
8CF9
  8
DEFPOINTS
 62
     0
 10
2151.6452778747148
 20
5299.627991408147
 30
0.0
  0
POINT
  5
8CFA
  8
DEFPOINTS
 62
     0
 10
1280.695092173137
 20
5299.6279914081488
 30
0.0
  0
ENDBLK
  5
8BAB
  8
0
  0
BLOCK
  8
0
  2
*D18
 70
     1
 10
0.0
 20
0.0
 30
0.0
  3
*D18
  1

  0
LINE
  5
8CFB
  8
3
 62
     0
 10
3055.081816123567
 20
6337.9971153107408
 30
0.0
 11
3055.081816123567
 21
6511.3680659317106
 31
0.0
  0
LINE
  5
8CFC
  8
3
 62
     0
 10
2230.081816123567
 20
5323.6279914081479
 30
0.0
 11
2230.081816123567
 21
6511.3680659317106
 31
0.0
  0
LINE
  5
8CFD
  8
3
 62
     0
 10
2955.081816123567
 20
6461.3680659317106
 30
0.0
 11
2330.081816123567
 21
6461.3680659317106
 31
0.0
  0
INSERT
  5
8CFE
  8
3
 62
     0
  2
_OPEN
 10
3055.081816123567
 20
6461.3680659317106
 30
0.0
 41
100.0
 42
100.0
 43
100.0
  0
INSERT
  5
8CFF
  8
3
 62
     0
  2
_OPEN
 10
2230.081816123567
 20
6461.3680659317106
 30
0.0
 41
100.0
 42
100.0
 43
100.0
 50
180.0
  0
TEXT
  8
3
  40
150
  5
8D48
  62
0
  72
0
  71
0
 10
2342.58
 20
6320.87
 30
0.000000
  1
825
  0
POINT
  5
8D01
  8
DEFPOINTS
 62
     0
 10
3055.081816123567
 20
6312.9971153107408
 30
0.0
  0
POINT
  5
8D02
  8
DEFPOINTS
 62
     0
 10
2230.081816123567
 20
5298.6279914081479
 30
0.0
  0
POINT
  5
8D03
  8
DEFPOINTS
 62
     0
 10
2230.081816123567
 20
6461.3680659317106
 30
0.0
  0
ENDBLK
  5
8BA0
  8
0
  0
BLOCK
  8
0
  2
*D19
 70
     1
 10
0.0
 20
0.0
 30
0.0
  3
*D19
  1

  0
LINE
  5
8D04
  8
3
 62
     0
 10
3055.081816123567
 20
6337.9971153107408
 30
0.0
 11
3055.081816123567
 21
6511.3680659317106
 31
0.0
  0
LINE
  5
8D05
  8
3
 62
     0
 10
4134.0818161235666
 20
5233.6279914081479
 30
0.0
 11
4134.0818161235666
 21
6511.3680659317106
 31
0.0
  0
LINE
  5
8D06
  8
3
 62
     0
 10
3155.081816123567
 20
6461.3680659317106
 30
0.0
 11
4034.081816123567
 21
6461.3680659317106
 31
0.0
  0
INSERT
  5
8D07
  8
3
 62
     0
  2
_OPEN
 10
3055.081816123567
 20
6461.3680659317106
 30
0.0
 41
100.0
 42
100.0
 43
100.0
 50
180.0
  0
INSERT
  5
8D08
  8
3
 62
     0
  2
_OPEN
 10
4134.0818161235666
 20
6461.3680659317106
 30
0.0
 41
100.0
 42
100.0
 43
100.0
  0
TEXT
  8
3
  40
150
  5
8D49
  62
0
  72
0
  71
0
 10
3294.58
 20
6320.87
 30
0.000000
  1
1079
  0
POINT
  5
8D0A
  8
DEFPOINTS
 62
     0
 10
3055.081816123567
 20
6312.9971153107408
 30
0.0
  0
POINT
  5
8D0B
  8
DEFPOINTS
 62
     0
 10
4134.0818161235666
 20
5208.6279914081479
 30
0.0
  0
POINT
  5
8D0C
  8
DEFPOINTS
 62
     0
 10
4134.0818161235666
 20
6461.3680659317106
 30
0.0
  0
ENDBLK
  5
8BB6
  8
0
  0
BLOCK
  8
0
  2
*D20
 70
     1
 10
0.0
 20
0.0
 30
0.0
  3
*D20
  1

  0
LINE
  5
8D0D
  8
3
 62
     0
 10
2230.081816123567
 20
5323.6279914081479
 30
0.0
 11
2230.081816123567
 21
6795.9831769191496
 31
0.0
  0
LINE
  5
8D0E
  8
3
 62
     0
 10
4205.0818161235666
 20
3924.627991408147
 30
0.0
 11
4205.0818161235666
 21
6795.9831769191496
 31
0.0
  0
LINE
  5
8D0F
  8
3
 62
     0
 10
2330.081816123567
 20
6745.9831769191514
 30
0.0
 11
4105.0818161235684
 21
6745.9831769191514
 31
0.0
  0
INSERT
  5
8D10
  8
3
 62
     0
  2
_OPEN
 10
2230.081816123567
 20
6745.9831769191514
 30
0.0
 41
100.0
 42
100.0
 43
100.0
 50
180.0
  0
INSERT
  5
8D11
  8
3
 62
     0
  2
_OPEN
 10
4205.0818161235666
 20
6745.9831769191514
 30
0.0
 41
100.0
 42
100.0
 43
100.0
  0
TEXT
  8
3
  40
150
  5
8D4A
  62
0
  72
0
  71
0
 10
2917.58
 20
6605.48
 30
0.000000
  1
1975
  0
POINT
  5
8D13
  8
DEFPOINTS
 62
     0
 10
2230.081816123567
 20
5298.6279914081479
 30
0.0
  0
POINT
  5
8D14
  8
DEFPOINTS
 62
     0
 10
4205.0818161235666
 20
3899.627991408147
 30
0.0
  0
POINT
  5
8D15
  8
DEFPOINTS
 62
     0
 10
4205.0818161235666
 20
6745.9831769191514
 30
0.0
  0
ENDBLK
  5
8B8B
  8
0
  0
BLOCK
  8
0
  2
*D21
 70
     1
 10
0.0
 20
0.0
 30
0.0
  3
*D21
  1

  0
LINE
  5
8D16
  8
3
 62
     0
 10
7274.0697441730008
 20
6218.0047426694746
 30
0.0
 11
7274.0697441730008
 21
6508.2311171300016
 31
0.0
  0
LINE
  5
8D17
  8
3
 62
     0
 10
8224.0697441730008
 20
6218.0047426694764
 30
0.0
 11
8224.0697441730008
 21
6508.2311171300016
 31
0.0
  0
LINE
  5
8D18
  8
3
 62
     0
 10
7374.0697441729999
 20
6458.2311171300016
 30
0.0
 11
8124.0697441729999
 21
6458.2311171300016
 31
0.0
  0
INSERT
  5
8D19
  8
3
 62
     0
  2
_OPEN
 10
7274.0697441730008
 20
6458.2311171300016
 30
0.0
 41
100.0
 42
100.0
 43
100.0
 50
180.0
  0
INSERT
  5
8D1A
  8
3
 62
     0
  2
_OPEN
 10
8224.0697441730008
 20
6458.2311171300016
 30
0.0
 41
100.0
 42
100.0
 43
100.0
  0
TEXT
  8
3
  40
150
  5
8D4B
  62
0
  72
0
  71
0
 10
7449.07
 20
6317.73
 30
0.000000
  1
950
  0
POINT
  5
8D1C
  8
DEFPOINTS
 62
     0
 10
7274.0697441730008
 20
6193.0047426694764
 30
0.0
  0
POINT
  5
8D1D
  8
DEFPOINTS
 62
     0
 10
8224.0697441730008
 20
6193.0047426694764
 30
0.0
  0
POINT
  5
8D1E
  8
DEFPOINTS
 62
     0
 10
8224.0697441730008
 20
6458.2311171300016
 30
0.0
  0
ENDBLK
  5
8AB2
  8
0
  0
BLOCK
  8
0
  2
*D22
 70
     1
 10
0.0
 20
0.0
 30
0.0
  3
*D22
  1

  0
LINE
  5
8D1F
  8
3
 62
     0
 10
7749.0697441729999
 20
6726.4070424650135
 30
0.0
 11
7749.0697441729999
 21
6795.9831769191496
 31
0.0
  0
LINE
  5
8D20
  8
3
 62
     0
 10
6102.0697441729999
 20
5604.6279914081479
 30
0.0
 11
6102.0697441729999
 21
6795.9831769191496
 31
0.0
  0
LINE
  5
8D21
  8
3
 62
     0
 10
7649.0697441730008
 20
6745.9831769191514
 30
0.0
 11
6202.0697441730008
 21
6745.9831769191514
 31
0.0
  0
INSERT
  5
8D22
  8
3
 62
     0
  2
_OPEN
 10
7749.0697441729999
 20
6745.9831769191514
 30
0.0
 41
100.0
 42
100.0
 43
100.0
  0
INSERT
  5
8D23
  8
3
 62
     0
  2
_OPEN
 10
6102.0697441729999
 20
6745.9831769191514
 30
0.0
 41
100.0
 42
100.0
 43
100.0
 50
180.0
  0
TEXT
  8
3
  40
150
  5
8D4C
  62
0
  72
0
  71
0
 10
6625.57
 20
6730.48
 30
0.000000
  1
MAX
  0
TEXT
  8
3
  40
150
  5
8D4D
  62
0
  72
0
  71
0
 10
6625.57
 20
6535.48
 30
0.000000
  1
1680
  0
POINT
  5
8D25
  8
DEFPOINTS
 62
     0
 10
7749.0697441729999
 20
6701.4070424650135
 30
0.0
  0
POINT
  5
8D26
  8
DEFPOINTS
 62
     0
 10
6102.0697441729999
 20
5579.6279914081479
 30
0.0
  0
POINT
  5
8D27
  8
DEFPOINTS
 62
     0
 10
6102.0697441729999
 20
6745.9831769191514
 30
0.0
  0
ENDBLK
  5
8AE3
  8
0
  0
BLOCK
  8
0
  2
*D23
 70
     1
 10
0.0
 20
0.0
 30
0.0
  3
*D23
  1

  0
LINE
  5
8D28
  8
3
 62
     0
 10
7749.0697441729999
 20
6726.4070424650135
 30
0.0
 11
7749.0697441729999
 21
6796.3236486621399
 31
0.0
  0
LINE
  5
8D29
  8
3
 62
     0
 10
8234.0697441730026
 20
5999.6279914081488
 30
0.0
 11
8234.0697441730026
 21
6796.3236486621399
 31
0.0
  0
LINE
  5
8D2A
  8
3
 62
     0
 10
7849.0697441729999
 20
6746.3236486621399
 30
0.0
 11
8134.0697441730017
 21
6746.3236486621399
 31
0.0
  0
LINE
  5
8D2B
  8
3
 62
     0
 10
8234.0697441730026
 20
6746.3236486621399
 30
0.0
 11
8819.784029887287
 21
6746.3236486621399
 31
0.0
  0
INSERT
  5
8D2C
  8
3
 62
     0
  2
_OPEN
 10
7749.0697441729999
 20
6746.3236486621399
 30
0.0
 41
100.0
 42
100.0
 43
100.0
 50
180.0
  0
INSERT
  5
8D2D
  8
3
 62
     0
  2
_OPEN
 10
8234.0697441730026
 20
6746.3236486621399
 30
0.0
 41
100.0
 42
100.0
 43
100.0
  0
TEXT
  8
3
  40
150
  5
8D4E
  62
0
  72
0
  71
0
 10
8276.93
 20
6605.82
 30
0.000000
  1
485
  0
POINT
  5
8D2F
  8
DEFPOINTS
 62
     0
 10
7749.0697441729999
 20
6701.4070424650135
 30
0.0
  0
POINT
  5
8D30
  8
DEFPOINTS
 62
     0
 10
8234.0697441730026
 20
5974.6279914081488
 30
0.0
  0
POINT
  5
8D31
  8
DEFPOINTS
 62
     0
 10
8234.0697441730026
 20
6746.3236486621399
 30
0.0
  0
ENDBLK
  5
8AF0
  8
0
  0
BLOCK
  8
0
  2
*D24
 70
     1
 10
0.0
 20
0.0
 30
0.0
  3
*D24
  1

  0
LINE
  5
8D32
  8
3
 62
     0
 10
3096.081816123567
 20
6196.6279914081479
 30
0.0
 11
908.16429553803789
 21
6196.6279914081488
 31
0.0
  0
LINE
  5
8D33
  8
3
 62
     0
 10
2280.081816123567
 20
3749.627991408147
 30
0.0
 11
908.16429553803744
 21
3749.6279914081479
 31
0.0
  0
LINE
  5
8D34
  8
3
 62
     0
 10
958.16429553803812
 20
6096.6279914081488
 30
0.0
 11
958.16429553803755
 21
3849.6279914081479
 31
0.0
  0
INSERT
  5
8D35
  8
3
 62
     0
  2
_OPEN
 10
958.16429553803812
 20
6196.6279914081488
 30
0.0
 41
100.0
 42
100.0
 43
100.0
 50
90.0
  0
INSERT
  5
8D36
  8
3
 62
     0
  2
_OPEN
 10
958.16429553803755
 20
3749.6279914081479
 30
0.0
 41
100.0
 42
100.0
 43
100.0
 50
270.0
  0
TEXT
  8
3
  40
150
  5
8D4F
  62
0
  72
0
  71
0
 10
533.164
 20
4707.63
 30
0.000000
  1
2447
  0
POINT
  5
8D38
  8
DEFPOINTS
 62
     0
 10
3121.081816123567
 20
6196.6279914081479
 30
0.0
  0
POINT
  5
8D39
  8
DEFPOINTS
 62
     0
 10
2305.081816123567
 20
3749.627991408147
 30
0.0
  0
POINT
  5
8D3A
  8
DEFPOINTS
 62
     0
 10
958.16429553803755
 20
3749.6279914081479
 30
0.0
  0
ENDBLK
  5
8C66
  8
0
  0
ENDSEC
  0
SECTION
  2
ENTITIES
  0
INSERT
  5
85D5
  8
0
  2
YA_N
 10
6.0
 20
5.0
 30
0.0
  0
LINE
  5
85D7
  8
2
 10
3055.081816123567
 20
6312.9971153107408
 30
0.0
 11
3055.0818161235688
 21
3749.6279914081479
 31
0.0
  0
ARC
  5
85D8
  8
1
 10
2964.081816123567
 20
5208.6279914081479
 30
0.0
 40
1170.0
 50
295.44792293931778
 51
4.4608436978739761
  0
ARC
  5
85D9
  8
1
 10
3146.081816123567
 20
5208.6279914081479
 30
0.0
 40
988.0
 50
5.2847329545345447
 51
95.284732954534547
  0
ARC
  5
85DA
  8
1
 10
3132.081816123567
 20
5376.6279914081479
 30
0.0
 40
820.0
 50
95.388151804327435
 51
185.38815180432741
  0
ARC
  5
85DB
  8
1
 10
2978.081816123567
 20
5376.6279914081479
 30
0.0
 40
666.0
 50
186.63913407790491
 51
191.34385696331589
  0
LINE
  5
85DC
  8
1
 10
2620.5719374243631
 20
4001.8580232433319
 30
0.0
 11
2230.081816123567
 21
3965.6279914081479
 31
0.0
  0
LINE
  5
85DD
  8
1
 10
2305.081816123567
 20
3749.627991408147
 30
0.0
 11
4205.0818161235666
 21
3749.627991408147
 31
0.0
1001
ACAD
1000
ASC_BOUNDS
1002
{
1070
    19
1005
0
1002
}
  0
LINE
  5
85DE
  8
1
 10
2305.081816123567
 20
3899.627991408147
 30
0.0
 11
4215.0818161235666
 21
3899.627991408147
 31
0.0
  0
LINE
  5
85DF
  8
1
 10
2305.081816123567
 20
3899.627991408147
 30
0.0
 11
2305.081816123567
 21
3749.627991408147
 31
0.0
  0
LINE
  5
85E1
  8
2
 10
3955.081816123567
 20
4425.482508013858
 30
0.0
 11
3955.081816123567
 21
3749.627991408147
 31
0.0
  0
LINE
  5
85E2
  8
2
 10
3674.7675993654152
 20
4159.627991408147
 30
0.0
 11
4251.6951245969431
 21
4159.627991408147
 31
0.0
  0
LINE
  5
85E3
  8
1
 10
2230.081816123567
 20
3912.6279914081479
 30
0.0
 11
2280.081816123567
 21
3912.6279914081479
 31
0.0
  0
LINE
  5
85E4
  8
1
 10
2230.081816123567
 20
5298.6279914081479
 30
0.0
 11
2280.081816123567
 21
5298.6279914081479
 31
0.0
  0
LINE
  5
85E5
  8
1
 10
2230.081816123567
 20
5245.6279914081479
 30
0.0
 11
2325.0925359665339
 21
5245.6279914081479
 31
0.0
  0
LINE
  5
85E6
  8
1
 10
2280.081816123567
 20
3912.6279914081479
 30
0.0
 11
2280.081816123567
 21
5298.6279914081479
 31
0.0
  0
LINE
  5
85E7
  8
1
 10
2230.081816123567
 20
3912.6279914081479
 30
0.0
 11
2230.081816123567
 21
5298.6279914081479
 31
0.0
  0
LINE
  5
85E8
  8
1
 10
2233.081816123567
 20
3912.6279914081479
 30
0.0
 11
2233.081816123567
 21
5298.6279914081479
 31
0.0
  0
LINE
  5
85E9
  8
1
 10
6249.0697441729999
 20
3899.627991408147
 30
0.0
 11
6249.0697441729999
 21
3749.627991408147
 31
0.0
  0
LINE
  5
85EA
  8
1
 10
6249.0697441729999
 20
3749.627991408147
 30
0.0
 11
8304.0697441730008
 21
3749.627991408147
 31
0.0
1001
ACAD
1000
ASC_BOUNDS
1002
{
1070
    19
1005
0
1005
0
1002
}
  0
LINE
  5
85EC
  8
1
 10
8304.0697441730008
 20
3899.627991408147
 30
0.0
 11
8304.0697441730008
 21
3749.627991408147
 31
0.0
  0
LINE
  5
85ED
  8
1
 10
8224.0697441730008
 20
3912.6279914081479
 30
0.0
 11
8224.0697441730044
 21
6193.0047426694764
 31
0.0
  0
LINE
  5
85EE
  8
1
 10
7274.0697441730008
 20
3912.6279914081479
 30
0.0
 11
7274.0697441730017
 21
6193.0047426694764
 31
0.0
  0
LINE
  5
85EF
  8
1
 10
7221.0697441729999
 20
3912.6279914081479
 30
0.0
 11
8277.0697441730008
 21
3912.6279914081479
 31
0.0
  0
LINE
  5
85F0
  8
1
 10
8277.0697441730008
 20
3912.6279914081479
 30
0.0
 11
8277.0697441730008
 21
5298.6279914081479
 31
0.0
  0
LINE
  5
85F1
  8
1
 10
7221.0697441729999
 20
3912.6279914081479
 30
0.0
 11
7221.0697441729999
 21
5262.1279914081479
 31
0.0
  0
LINE
  5
85F2
  8
2
 10
2151.6452778747148
 20
5299.627991408147
 30
0.0
 11
4215.237054041615
 21
5299.627991408147
 31
0.0
  0
LINE
  5
85F3
  8
2
 10
6122.8755837907383
 20
5299.627991408147
 30
0.0
 11
8373.1395046730522
 21
5299.627991408147
 31
0.0
  0
LINE
  5
85F4
  8
1
 10
8226.3697441730019
 20
4624.627991408147
 30
0.0
 11
8234.0697441730026
 21
4624.627991408147
 31
0.0
  0
LINE
  5
85F5
  8
1
 10
8203.0537140084707
 20
4642.127991408147
 30
0.0
 11
8252.5287034668218
 21
4642.127991408147
 31
0.0
  0
LINE
  5
85F6
  8
1
 10
8203.0537140084707
 20
5957.1279914081479
 30
0.0
 11
8252.5287034668218
 21
5957.1279914081479
 31
0.0
  0
LINE
  5
85F7
  8
1
 10
8226.3697441730019
 20
5974.6279914081488
 30
0.0
 11
8234.0697441730026
 21
5974.6279914081488
 31
0.0
  0
LINE
  5
85F8
  8
2
 10
6122.8755837907383
 20
4159.627991408147
 30
0.0
 11
7053.7682163500067
 21
4159.627991408147
 31
0.0
  0
LINE
  5
85F9
  8
2
 10
3055.081816123567
 20
10550.62853774078
 30
0.0
 11
3055.081816123567
 21
8489.9572871205801
 31
0.0
  0
LINE
  5
85FA
  8
2
 10
2450.9926222065469
 20
10121.006088529921
 30
0.0
 11
3666.5586413576998
 21
10121.006088529921
 31
0.0
  0
LINE
  5
85FB
  8
2
 10
7749.0697441729999
 20
6312.9971153107408
 30
0.0
 11
7749.0697441730017
 21
3749.627991408147
 31
0.0
  0
POINT
  5
85FD
  8
1
 10
4129.8821007342203
 20
5299.627991408147
 30
0.0
  0
INSERT
  5
85FE
  8
0
  2
YA_N
 10
-1757.227407310314
 20
-1218.7864174577801
 30
0.0
 41
30.0
 42
30.0
 43
30.0
  0
ARC
  5
8600
  8
1
 10
3955.081816123567
 20
4159.627991408147
 30
0.0
 40
203.5
 50
285.60376000000002
 51
254.39630099999991
  0
LINE
  5
8601
  8
1
 10
4009.8198531235671
 20
3963.627991408147
 30
0.0
 11
3900.3437791235669
 21
3963.627991408147
 31
0.0
  0
ARC
  5
8602
  8
1
 10
3771.081816123567
 20
4033.954652408147
 30
0.0
 40
5.0000669999999987
 50
124.943665
 51
180.0
  0
LINE
  5
8603
  8
1
 10
3766.081816123567
 20
4033.954652408147
 30
0.0
 11
3766.081816123567
 21
3959.627991408147
 31
0.0
  0
LINE
  5
8604
  8
1
 10
3768.2180461235671
 20
4038.0532844081481
 30
0.0
 11
3784.1559121235668
 21
4049.189759408147
 31
0.0
  0
LINE
  5
8605
  8
1
 10
4144.0818161235666
 20
4033.954652408147
 30
0.0
 11
4144.0818161235666
 21
3959.627991408147
 31
0.0
  0
LINE
  5
8606
  8
1
 10
4141.9457071235674
 20
4038.0532844081481
 30
0.0
 11
4126.0078411235672
 21
4049.189759408147
 31
0.0
  0
ARC
  5
8607
  8
1
 10
4139.0818161235666
 20
4033.954652408147
 30
0.0
 40
5.0
 50
0.0
 51
55.05633899999998
  0
LINE
  5
8608
  8
1
 10
3711.6587910809571
 20
3959.627991408147
 30
0.0
 11
3885.081816123567
 21
3959.627991408147
 31
0.0
  0
LINE
  5
8609
  8
1
 10
3695.081816123567
 20
3899.627991408147
 30
0.0
 11
3711.6587910809571
 21
3959.627991408147
 31
0.0
  0
LINE
  5
860A
  8
1
 10
4215.0818161235666
 20
3899.627991408147
 30
0.0
 11
4198.9008595784489
 21
3959.627991408147
 31
0.0
  0
LINE
  5
860B
  8
1
 10
3885.081816123567
 20
3949.6279914081479
 30
0.0
 11
4025.081816123567
 21
3949.6279914081479
 31
0.0
  0
LINE
  5
860C
  8
1
 10
3885.081816123567
 20
3909.627991408147
 30
0.0
 11
4025.081816123567
 21
3909.627991408147
 31
0.0
  0
LINE
  5
860D
  8
1
 10
4025.081816123567
 20
3959.627991408147
 30
0.0
 11
4025.081816123567
 21
3949.6279914081479
 31
0.0
  0
LINE
  5
860E
  8
1
 10
3885.081816123567
 20
3959.627991408147
 30
0.0
 11
3885.081816123567
 21
3949.6279914081479
 31
0.0
  0
LINE
  5
860F
  8
1
 10
3885.081816123567
 20
3909.627991408147
 30
0.0
 11
3885.081816123567
 21
3899.627991408147
 31
0.0
  0
LINE
  5
8610
  8
1
 10
4025.081816123567
 20
3909.627991408147
 30
0.0
 11
4025.081816123567
 21
3899.627991408147
 31
0.0
  0
LINE
  5
8611
  8
1
 10
4025.081816123567
 20
3959.627991408147
 30
0.0
 11
4198.9008595784489
 21
3959.627991408147
 31
0.0
  0
INSERT
  5
8612
  8
0
  2
YA_N
 10
-755.24367588184748
 20
-538.554984833856
 30
0.0
 41
30.0
 42
30.0
 43
30.0
  0
CIRCLE
  5
8614
  8
1
 10
3055.081816123567
 20
5299.627991408147
 30
0.0
 40
190.5
  0
LINE
  5
8615
  8
1
 10
8234.0697441730026
 20
5298.6279914081479
 30
0.0
 11
8277.0697441730008
 21
5298.6279914081479
 31
0.0
  0
LINE
  5
8617
  8
1
 10
7274.0697441730008
 20
3965.6279914081479
 30
0.0
 11
8224.0697441730008
 21
3965.6279914081479
 31
0.0
  0
LINE
  5
861A
  8
1
 10
4205.0818161235666
 20
3899.627991408147
 30
0.0
 11
4205.0818161235666
 21
3749.627991408147
 31
0.0
  0
LINE
  5
861F
  8
1
 10
2605.081816123567
 20
3899.627991408147
 30
0.0
 11
2605.081816123567
 21
3749.627991408147
 31
0.0
  0
LINE
  5
862D
  8
1
 10
2305.081816123567
 20
10676.006088529921
 30
0.0
 11
3805.081816123567
 21
10676.006088529921
 31
0.0
  0
LINE
  5
862E
  8
1
 10
2305.081816123567
 20
9566.0060885299245
 30
0.0
 11
2605.081816123567
 21
9566.0060885299245
 31
0.0
  0
LINE
  5
862F
  8
1
 10
2605.081816123567
 20
8621.0060885299245
 30
0.0
 11
4205.0818161235666
 21
8621.0060885299245
 31
0.0
  0
LINE
  5
8630
  8
1
 10
2305.081816123567
 20
10676.006088529921
 30
0.0
 11
2305.081816123567
 21
9566.0060885299245
 31
0.0
  0
LINE
  5
8631
  8
1
 10
3805.081816123567
 20
10676.006088529921
 30
0.0
 11
3805.081816123567
 21
9641.0060885299245
 31
0.0
  0
LINE
  5
8632
  8
1
 10
4205.0818161235666
 20
9641.0060885299245
 30
0.0
 11
4205.0818161235666
 21
8621.0060885299226
 31
0.0
  0
LINE
  5
8633
  8
1
 10
3805.081816123567
 20
9641.0060885299245
 30
0.0
 11
4205.0818161235666
 21
9641.0060885299245
 31
0.0
  0
LINE
  5
8634
  8
1
 10
2605.081816123567
 20
9566.0060885299245
 30
0.0
 11
2605.081816123567
 21
8621.0060885299245
 31
0.0
  0
POINT
  5
8635
  8
1
 10
3805.081816123567
 20
10676.006088529921
 30
0.0
  0
POINT
  5
8636
  8
1
 10
4205.0818161235666
 20
9641.0060885299245
 30
0.0
  0
POINT
  5
8637
  8
1
 10
2605.081816123567
 20
8621.0060885299245
 30
0.0
  0
POINT
  5
8638
  8
1
 10
2305.081816123567
 20
9566.0060885299245
 30
0.0
  0
LINE
  5
8640
  8
1
 10
7194.0697441730026
 20
3899.627991408147
 30
0.0
 11
7194.0697441730026
 21
3749.627991408147
 31
0.0
  0
LINE
  5
8642
  8
1
 10
6249.0697441729999
 20
3899.627991408152
 30
0.0
 11
8304.0697441730008
 21
3899.627991408147
 31
0.0
  0
LINE
  5
8643
  8
1
 10
6322.0697441729999
 20
5184.6279914081479
 30
0.0
 11
6322.0697441730017
 21
4189.6279914081479
 31
0.0
  0
LINE
  5
8644
  8
1
 10
6322.0697441730008
 20
5184.6279914081479
 30
0.0
 11
7166.069744172999
 21
5184.6279914081479
 31
0.0
  0
LINE
  5
8645
  8
1
 10
7166.069744172999
 20
5184.6279914081479
 30
0.0
 11
7166.0697441730017
 21
3899.6279914081488
 31
0.0
  0
LINE
  5
8646
  8
1
 10
6284.0697441730008
 20
5337.1279914081479
 30
0.0
 11
6284.0697441729999
 21
5262.1279914081479
 31
0.0
  0
LINE
  5
8647
  8
1
 10
6264.0697441730008
 20
5332.1279914081479
 30
0.0
 11
6284.0697441730008
 21
5332.1279914081479
 31
0.0
  0
LINE
  5
8648
  8
1
 10
6264.0697441730008
 20
5267.1279914081479
 30
0.0
 11
6284.0697441729999
 21
5267.1279914081479
 31
0.0
  0
CIRCLE
  5
8649
  8
1
 10
3955.081816123567
 20
4159.627991408147
 30
0.0
 40
127.0
  0
LINE
  5
864A
  8
1
 10
6154.0697441730008
 20
5490.127991408147
 30
0.0
 11
6154.0697441730008
 21
4032.627991408147
 31
0.0
  0
LINE
  5
864B
  8
1
 10
6154.0697441730008
 20
5490.127991408147
 30
0.0
 11
6264.0697441730008
 21
5490.127991408147
 31
0.0
  0
LINE
  5
864C
  8
1
 10
6154.0697441730008
 20
5109.1279914081479
 30
0.0
 11
6264.0697441730008
 21
5109.1279914081479
 31
0.0
  0
LINE
  5
864D
  8
1
 10
6154.0697441730008
 20
4286.6279914081479
 30
0.0
 11
6264.0697441730017
 21
4286.6279914081479
 31
0.0
  0
LINE
  5
864E
  8
1
 10
6154.0697441730008
 20
4032.6279914081479
 30
0.0
 11
6264.0697441730017
 21
4032.6279914081479
 31
0.0
  0
LINE
  5
864F
  8
1
 10
6264.0697441730008
 20
5490.127991408147
 30
0.0
 11
6264.0697441730017
 21
4032.627991408147
 31
0.0
  0
LINE
  5
8650
  8
1
 10
6302.0697441729999
 20
5579.6279914081479
 30
0.0
 11
6302.0697441730026
 21
3939.6279914081479
 31
0.0
  0
LINE
  5
8651
  8
1
 10
6102.0697441729999
 20
5579.6279914081479
 30
0.0
 11
6102.0697441729999
 21
3939.6279914081479
 31
0.0
  0
LINE
  5
8652
  8
1
 10
6102.0697441729999
 20
5579.6279914081479
 30
0.0
 11
6302.0697441729999
 21
5579.6279914081479
 31
0.0
  0
LINE
  5
8653
  8
1
 10
6102.0697441729999
 20
3939.6279914081479
 30
0.0
 11
6302.0697441729999
 21
3939.6279914081479
 31
0.0
  0
LINE
  5
8654
  8
1
 10
8234.0697441730026
 20
4624.627991408147
 30
0.0
 11
8234.0697441730026
 21
5974.6279914081488
 31
0.0
  0
POINT
  5
8655
  8
1
 10
6102.0697441729999
 20
5579.6279914081479
 30
0.0
  0
POINT
  5
8656
  8
1
 10
8234.0697441730026
 20
4624.627991408147
 30
0.0
  0
LINE
  5
8662
  8
1
 10
6284.0697441730008
 20
5337.1279914081479
 30
0.0
 11
7274.0697441730008
 21
5337.1279914081524
 31
0.0
  0
LINE
  5
8663
  8
1
 10
6284.069744172999
 20
5262.1279914081479
 30
0.0
 11
7274.0697441730017
 21
5262.1279914081479
 31
0.0
  0
LINE
  5
8664
  8
1
 10
3092.581816123567
 20
8656.0060885299226
 30
0.0
 11
3092.581816123567
 21
9646.0060885299245
 31
0.0
  0
LINE
  5
8665
  8
1
 10
3017.581816123567
 20
8656.0060885299263
 30
0.0
 11
3017.581816123562
 21
9646.0060885299245
 31
0.0
  0
LINE
  5
8666
  8
1
 10
2775.081816123567
 20
8474.0060885299226
 30
0.0
 11
4175.0818161235684
 21
8474.0060885299226
 31
0.0
  0
LINE
  5
8667
  8
1
 10
2775.081816123567
 20
8674.0060885299245
 30
0.0
 11
4175.0818161235684
 21
8674.0060885299245
 31
0.0
  0
LINE
  5
8668
  8
1
 10
2864.581816123567
 20
8636.0060885299245
 30
0.0
 11
4082.0818161235679
 21
8636.0060885299245
 31
0.0
  0
LINE
  5
8669
  8
1
 10
2864.581816123567
 20
8526.0060885299226
 30
0.0
 11
4082.0818161235679
 21
8526.0060885299226
 31
0.0
  0
LINE
  5
866A
  8
1
 10
2800.081816123567
 20
8694.0060885299226
 30
0.0
 11
3017.581816123567
 21
8694.0060885299245
 31
0.0
  0
LINE
  5
866B
  8
1
 10
4175.0818161235684
 20
8474.0060885299226
 30
0.0
 11
4175.0818161235684
 21
8674.0060885299245
 31
0.0
  0
LINE
  5
866C
  8
1
 10
4082.0818161235679
 20
8526.0060885299226
 30
0.0
 11
4082.0818161235679
 21
8636.0060885299245
 31
0.0
  0
LINE
  5
866D
  8
1
 10
3828.081816123567
 20
8526.0060885299226
 30
0.0
 11
3828.081816123567
 21
8636.0060885299245
 31
0.0
  0
LINE
  5
866E
  8
1
 10
3245.581816123567
 20
8526.0060885299226
 30
0.0
 11
3245.581816123567
 21
8636.0060885299245
 31
0.0
  0
LINE
  5
866F
  8
1
 10
2775.081816123567
 20
8474.0060885299226
 30
0.0
 11
2775.081816123567
 21
8674.0060885299245
 31
0.0
  0
POINT
  5
8670
  8
1
 10
2775.081816123567
 20
8474.0060885299226
 30
0.0
  0
LINE
  5
8671
  8
1
 10
3087.581816123567
 20
8636.0060885299245
 30
0.0
 11
3087.581816123567
 21
8656.0060885299263
 31
0.0
  0
LINE
  5
8672
  8
1
 10
3022.581816123567
 20
8636.0060885299245
 30
0.0
 11
3022.581816123567
 21
8656.0060885299263
 31
0.0
  0
LINE
  5
8673
  8
1
 10
3017.581816123567
 20
8656.0060885299263
 30
0.0
 11
3092.581816123567
 21
8656.0060885299263
 31
0.0
  0
LINE
  5
8674
  8
1
 10
2864.581816123567
 20
8526.0060885299226
 30
0.0
 11
2864.581816123567
 21
8636.0060885299245
 31
0.0
  0
LINE
  5
8675
  8
1
 10
2800.081816123567
 20
9538.0060885299226
 30
0.0
 11
3017.581816123562
 21
9538.0060885299245
 31
0.0
  0
LINE
  5
8676
  8
1
 10
2230.081816123567
 20
9593.0060885299226
 30
0.0
 11
2280.081816123567
 21
9593.0060885299226
 31
0.0
  0
LINE
  5
8677
  8
1
 10
2280.081816123567
 20
9646.0060885299245
 30
0.0
 11
4134.0818161235666
 21
9646.0060885299245
 31
0.0
  0
LINE
  5
8678
  8
1
 10
2230.081816123567
 20
10649.006088529921
 30
0.0
 11
2280.081816123567
 21
10649.006088529921
 31
0.0
  0
LINE
  5
8679
  8
1
 10
2280.081816123567
 20
10596.006088529921
 30
0.0
 11
4134.0818161235666
 21
10596.006088529921
 31
0.0
  0
LINE
  5
867A
  8
1
 10
2230.081816123567
 20
10649.006088529921
 30
0.0
 11
2230.081816123567
 21
9593.0060885299226
 31
0.0
  0
LINE
  5
867B
  8
1
 10
4134.0818161235666
 20
10596.006088529921
 30
0.0
 11
4134.0818161235666
 21
9646.0060885299245
 31
0.0
  0
LINE
  5
867C
  8
1
 10
2280.081816123567
 20
10649.006088529921
 30
0.0
 11
2280.081816123567
 21
9593.0060885299226
 31
0.0
  0
LINE
  5
867F
  8
2
 10
3955.081816123567
 20
8488.3483566485902
 30
0.0
 11
3955.081816123567
 21
9473.7156867083668
 31
0.0
  0
LINE
  5
8680
  8
1
 10
3751.5818161235679
 20
9380.5060885299245
 30
0.0
 11
4158.5818161235666
 21
9380.5060885299245
 31
0.0
  0
LINE
  5
8681
  8
1
 10
4158.5818161235666
 20
8731.0060885299245
 30
0.0
 11
3955.081816123567
 21
8731.0060885299245
 31
0.0
  0
LINE
  5
8683
  8
1
 10
3985.081816123567
 20
8721.0060885299226
 30
0.0
 11
3985.081816123567
 21
8581.0060885299245
 31
0.0
  0
LINE
  5
8684
  8
1
 10
3925.081816123567
 20
8721.0060885299226
 30
0.0
 11
3925.081816123567
 21
8581.0060885299245
 31
0.0
  0
LINE
  5
8685
  8
1
 10
3751.5818161235679
 20
8731.0060885299245
 30
0.0
 11
3955.081816123567
 21
8731.0060885299245
 31
0.0
  0
LINE
  5
8686
  8
1
 10
3987.581816123567
 20
8721.0060885299226
 30
0.0
 11
3922.581816123567
 21
8721.0060885299226
 31
0.0
  0
LINE
  5
8687
  8
1
 10
3987.581816123567
 20
8721.0060885299226
 30
0.0
 11
3987.581816123567
 21
8731.0060885299245
 31
0.0
  0
LINE
  5
8688
  8
1
 10
3922.581816123567
 20
8721.0060885299226
 30
0.0
 11
3922.581816123567
 21
8731.0060885299245
 31
0.0
  0
LINE
  5
868A
  8
1
 10
3925.081816123567
 20
8581.0060885299245
 30
0.0
 11
3985.081816123567
 21
8581.0060885299245
 31
0.0
  0
LINE
  5
868B
  8
1
 10
3751.5818161235679
 20
8731.0060885299245
 30
0.0
 11
3751.5818161235679
 21
9380.5060885299245
 31
0.0
  0
LINE
  5
868C
  8
1
 10
4158.5818161235666
 20
8731.0060885299245
 30
0.0
 11
4158.5818161235666
 21
9380.5060885299245
 31
0.0
  0
DIMENSION
  5
8699
  8
3
  2
*D2
 10
2305.081816123567
 20
10912.345546157891
 30
0.0
 11
3130.7010163151822
 21
10912.345546157891
 31
0.0
 70
   128
 13
3805.081816123567
 23
10676.006088529921
 33
0.0
 14
2305.081816123567
 24
10676.006088529921
 34
0.0
1001
ACAD
1000
DSTYLE
1002
{
1070
   287
1070
     3
1070
    40
1040
50.0
1070
   143
1040
0.039
1070
   172
1070
     1
1070
   271
1070
     0
1070
   279
1070
     0
1070
   288
1070
     1
1002
}
  0
DIMENSION
  5
86B1
  8
3
  2
*D3
 10
1849.9094258002119
 20
9566.0060885299245
 30
0.0
 11
1849.909425800211
 21
10098.95487750085
 31
0.0
 70
   128
 13
2305.081816123567
 23
10676.006088529921
 33
0.0
 14
2305.081816123567
 24
9566.0060885299245
 34
0.0
 50
270.0
1001
ACAD
1000
DSTYLE
1002
{
1070
   287
1070
     3
1070
    40
1040
50.0
1070
   143
1040
0.039
1070
   172
1070
     1
1070
   271
1070
     0
1070
   279
1070
     0
1070
   288
1070
     1
1002
}
  0
DIMENSION
  5
86BD
  8
3
  2
*D4
 10
1849.909425800211
 20
8621.0060885299245
 30
0.0
 11
1724.9094258002101
 21
9093.5060885299263
 31
0.0
 70
     0
 13
2305.081816123567
 23
9566.0060885299245
 33
0.0
 14
2605.081816123567
 24
8621.0060885299245
 34
0.0
 50
270.0
1001
ACAD
1000
DSTYLE
1002
{
1070
   287
1070
     4
1070
    40
1040
50.0
1070
    75
1070
     1
1070
   143
1040
0.039
1070
   172
1070
     1
1070
   271
1070
     0
1070
   279
1070
     1
1070
   288
1070
     1
1002
}
  0
DIMENSION
  5
86CA
  8
3
  2
*D5
 10
4205.0818161235666
 20
8081.7460686846171
 30
0.0
 11
3423.7634968890379
 21
8081.7460686846171
 31
0.0
 70
   128
 13
2605.081816123567
 23
8621.0060885299245
 33
0.0
 14
4205.0818161235666
 24
8621.0060885299245
 34
0.0
1001
ACAD
1000
DSTYLE
1002
{
1070
   287
1070
     3
1070
    40
1040
50.0
1070
   143
1040
0.039
1070
   172
1070
     1
1070
   271
1070
     0
1070
   279
1070
     0
1070
   288
1070
     1
1002
}
  0
DIMENSION
  5
86D7
  8
3
  2
*D6
 10
4606.8675151495008
 20
9641.0060885299245
 30
0.0
 11
4606.8675151495008
 21
9122.8860957179131
 31
0.0
 70
   128
 13
4205.0818161235666
 23
8621.0060885299245
 33
0.0
 14
4205.0818161235666
 24
9641.0060885299245
 34
0.0
 50
270.0
1001
ACAD
1000
DSTYLE
1002
{
1070
   287
1070
     3
1070
    40
1040
50.0
1070
   143
1040
0.039
1070
   172
1070
     1
1070
   271
1070
     0
1070
   279
1070
     0
1070
   288
1070
     1
1002
}
  0
DIMENSION
  5
87CB
  8
3
  2
*D7
 10
3055.081816123567
 20
3410.638338032295
 30
0.0
 11
3632.0026523481679
 21
3410.638338032295
 31
0.0
 70
   128
 13
4205.0818161235666
 23
3749.627991408147
 33
0.0
 14
3055.081816123567
 24
3749.627991408147
 34
0.0
1001
ACAD
1000
DSTYLE
1002
{
1070
   287
1070
     3
1070
    40
1040
50.0
1070
   143
1040
0.039
1070
   172
1070
     1
1070
   271
1070
     0
1070
   279
1070
     0
1070
   288
1070
     1
1002
}
  0
DIMENSION
  5
87D7
  8
3
  2
*D8
 10
2305.081816123567
 20
3410.638338032295
 30
0.0
 11
2680.081816123567
 21
3535.638338032295
 31
0.0
 70
     0
 13
3055.081816123567
 23
3749.627991408147
 33
0.0
 14
2305.081816123567
 24
3749.627991408147
 34
0.0
1001
ACAD
1000
DSTYLE
1002
{
1070
   287
1070
     4
1070
    40
1040
50.0
1070
    75
1070
     1
1070
   143
1040
0.039
1070
   172
1070
     1
1070
   271
1070
     0
1070
   279
1070
     1
1070
   288
1070
     1
1002
}
  0
DIMENSION
  5
87E4
  8
3
  2
*D9
 10
7749.0697441730017
 20
3410.638338032295
 30
0.0
 11
7072.8959754724119
 21
3410.638338032295
 31
0.0
 70
   128
 13
6249.0697441729999
 23
3749.627991408147
 33
0.0
 14
7749.0697441730017
 24
3749.627991408147
 34
0.0
1001
ACAD
1000
DSTYLE
1002
{
1070
   287
1070
     3
1070
    40
1040
50.0
1070
   143
1040
0.039
1070
   172
1070
     1
1070
   271
1070
     0
1070
   279
1070
     0
1070
   288
1070
     1
1002
}
  0
DIMENSION
  5
87F2
  8
3
  2
*D10
 10
8304.0697441730008
 20
3410.638338032295
 30
0.0
 11
8042.9367825009622
 21
3532.747357576372
 31
0.0
 12
0.0
 22
-430.0
 32
0.0
 70
   128
 13
7749.0697441730017
 23
3749.627991408147
 33
0.0
 14
8304.0697441730008
 24
3749.627991408147
 34
0.0
1001
ACAD
1000
DSTYLE
1002
{
1070
   288
1070
     1
1070
   172
1070
     1
1070
    75
1070
     1
1070
    40
1040
50.0
1070
   271
1070
     0
1070
   143
1040
0.039
1002
}
  0
DIMENSION
  5
8822
  8
3
  2
*D11
 10
8666.1480083497336
 20
4674.627991408147
 30
0.0
 11
8666.1480083497281
 21
5319.6254043207673
 31
0.0
 70
   128
 13
8234.0697441730026
 23
5924.627991408147
 33
0.0
 14
8234.0697441730026
 24
4674.627991408147
 34
0.0
 50
90.0
1001
ACAD
1000
DSTYLE
1002
{
1070
   287
1070
     3
1070
     3
1000
φ<>
1070
    40
1040
50.0
1070
   143
1040
0.039
1070
   172
1070
     1
1070
   271
1070
     0
1070
   279
1070
     0
1070
   288
1070
     1
1002
}
  0
LINE
  5
892C
  8
4
 10
9250.0
 20
2500.0
 30
0.0
 11
9250.0
 21
1500.0
 31
0.0
  0
LINE
  5
892D
  8
4
 10
5750.0
 20
2500.0
 30
0.0
 11
5750.0
 21
1500.0
 31
0.0
  0
LINE
  5
892E
  8
4
 10
3250.0
 20
2500.0
 30
0.0
 11
3250.0
 21
1500.0
 31
0.0
  0
LINE
  5
8931
  8
4
 10
3250.0
 20
1500.0
 30
0.0
 11
9250.0
 21
1500.0
 31
0.0
  0
LINE
  5
8932
  8
4
 10
3250.0
 20
2000.0
 30
0.0
 11
9250.0
 21
2000.0
 31
0.0
  0
TEXT
  5
8933
  8
4
 10
3442.5104042345079
 20
2157.7151293330639
 30
0.0
 40
250.0
  1
機器名称
  0
TEXT
  5
8934
  8
4
 10
3431.2905301239871
 20
1608.225783660054
 30
0.0
 40
250.0
  1
機器型番
  0
TEXT
  5
8935
  8
4
 10
5891.5410279524913
 20
2109.1617211884191
 30
0.0
 40
212.5
  1
ミツヤリミットロードファン
  0
TEXT
  5
8936
  8
4
 10
5933.2724779274031
 20
1585.797921399716
 30
0.0
 40
250.0
  1
LL#8-1
  0
TEXT
  5
8938
  8
4
 10
4087.177885253594
 20
11917.14420666257
 30
0.0
 40
270.0
  1
床置ベット
  0
TEXT
  5
8939
  8
4
 10
1464.3710723791439
 20
12669.40488099649
 30
0.0
 40
360.0
  1
遠心式片吸込片持リミットロードファン
  0
LINE
  5
893A
  8
4
 10
1250.0
 20
12347.043771324021
 30
0.0
 11
9250.0
 21
12347.043771324021
 31
0.0
  0
LINE
  5
893B
  8
4
 10
1250.0
 20
13347.043771324021
 30
0.0
 11
9250.0
 21
13347.043771324021
 31
0.0
  0
LINE
  5
893C
  8
4
 10
3250.0
 20
2500.0
 30
0.0
 11
9250.0
 21
2500.0
 31
0.0
  0
LINE
  5
893D
  8
4
 10
1250.0
 20
13347.043771324021
 30
0.0
 11
1250.0
 21
12347.043771324021
 31
0.0
  0
TEXT
  5
893E
  8
4
 10
1907.8837240400819
 20
11911.59738773171
 30
0.0
 40
270.0
  1
右回転左横向
  0
TEXT
  5
893F
  8
4
 10
7344.8477962464494
 20
13530.30540747654
 30
0.0
 40
280.0
  1
No.
  0
TEXT
  5
8940
  8
4
 10
6556.4803130000646
 20
11917.14420666257
 30
0.0
 40
270.0
  1
縮尺：1/50
  0
LINE
  5
8941
  8
4
 10
9250.0
 20
13347.043771324021
 30
0.0
 11
9250.0
 21
12347.043771324021
 31
0.0
  0
LINE
  5
8942
  8
4
 10
10500.0
 20
14750.0
 30
0.0
 11
10500.0
 21
14750.0
 31
0.0
  0
LINE
  5
8943
  8
4
 10
7203.0871117993229
 20
13406.317915627
 30
0.0
 11
7203.0871117993229
 21
13933.26130774876
 31
0.0
  0
LINE
  5
8944
  8
4
 10
7203.0871117993229
 20
13933.26130774876
 30
0.0
 11
9250.0
 21
13933.26130774876
 31
0.0
  0
LINE
  5
8945
  8
4
 10
9250.0
 20
13933.26130774876
 30
0.0
 11
9250.0
 21
13406.317915627
 31
0.0
  0
LINE
  5
8946
  8
4
 10
9250.0
 20
13406.317915627
 30
0.0
 11
7203.0871117993229
 21
13406.317915627
 31
0.0
  0
LINE
  5
8947
  8
4
 10
0.0
 20
0.0
 30
0.0
 11
0.0
 21
14750.0
 31
0.0
  0
LINE
  5
8948
  8
4
 10
0.0
 20
14750.0
 30
0.0
 11
10500.0
 21
14750.0
 31
0.0
  0
LINE
  5
8949
  8
4
 10
10500.0
 20
14750.0
 30
0.0
 11
10500.0
 21
0.0
 31
0.0
  0
LINE
  5
894A
  8
4
 10
10500.0
 20
0.0
 30
0.0
 11
0.0
 21
0.0
 31
0.0
  0
DIMENSION
  5
89BC
  8
3
  2
*D13
 10
4205.0818161235666
 20
10912.345546157891
 30
0.0
 11
4005.081816123567
 21
11040.910032208471
 31
0.0
 70
   128
 13
3805.081816123567
 23
10676.006088529921
 33
0.0
 14
4205.0818161235666
 24
9641.0060885299245
 34
0.0
1001
ACAD
1000
DSTYLE
1002
{
1070
   288
1070
     1
1070
   172
1070
     1
1070
    75
1070
     1
1070
    40
1040
50.0
1070
   271
1070
     0
1070
   143
1040
0.039
1002
}
  0
LINE
  5
89E5
  8
1
 10
3310.3757643479621
 20
5184.6279914081488
 30
0.0
 11
2799.7878678991719
 21
5184.6279914081479
 31
0.0
  0
LINE
  5
8A08
  8
1
 10
2800.081816123567
 20
9538.0060885299226
 30
0.0
 11
2800.081816123567
 21
8694.0060885299226
 31
0.0
  0
LINE
  5
8A09
  8
1
 10
3310.081816123567
 20
9538.0060885299245
 30
0.0
 11
3310.081816123567
 21
8694.0060885299226
 31
0.0
  0
LINE
  5
8A0A
  8
1
 10
3092.581816123567
 20
9538.0060885299226
 30
0.0
 11
3310.081816123567
 21
9538.0060885299245
 31
0.0
  0
LINE
  5
8A0B
  8
1
 10
3092.581816123567
 20
8694.0060885299245
 30
0.0
 11
3310.081816123567
 21
8694.0060885299245
 31
0.0
  0
LINE
  5
8A30
  8
1
 10
2799.7878678991719
 20
5184.6279914081479
 30
0.0
 11
2605.081816123567
 21
3899.627991408147
 31
0.0
  0
LINE
  5
8A31
  8
1
 10
3310.3757643479621
 20
5184.6279914081479
 30
0.0
 11
3505.081816123567
 21
3899.627991408147
 31
0.0
  0
ARC
  5
8A32
  8
1
 10
3055.081816123567
 20
5299.627991408147
 30
0.0
 40
280.0
 50
35.922622668796102
 51
220.65770371568999
  0
ARC
  5
8A33
  8
1
 10
3955.081816123567
 20
4159.627991408147
 30
0.0
 40
220.0
 50
220.65770371568999
 51
35.922622668796102
  0
LINE
  5
8A34
  8
1
 10
4133.2400280069523
 20
4288.7002639476632
 30
0.0
 11
3281.8286312478758
 21
5463.9017928220755
 31
0.0
  0
LINE
  5
8A35
  8
1
 10
4058.1071047792211
 20
4233.8896228029607
 30
0.0
 11
3209.619749107047
 21
5411.020438500369
 31
0.0
  0
LINE
  5
8A36
  8
1
 10
3858.9375001641588
 20
4076.6504612647559
 30
0.0
 11
2910.865342184456
 21
5175.1616961930586
 31
0.0
  0
LINE
  5
8A37
  8
1
 10
3788.1864028749942
 20
4016.289507264537
 30
0.0
 11
2842.6694719890188
 21
5117.1971934071889
 31
0.0
  0
LINE
  5
8A39
  8
1
 10
7274.0697441730017
 20
6193.0047426694764
 30
0.0
 11
8224.0697441730008
 21
6193.0047426694764
 31
0.0
  0
DIMENSION
  5
8A47
  8
3
  2
*D14
 10
1915.0265346392
 20
3965.6279914081479
 30
0.0
 11
1790.0265346392
 21
4605.6279914081479
 31
0.0
 70
     0
 13
2230.081816123567
 23
5245.6279914081479
 33
0.0
 14
2230.081816123567
 24
3965.6279914081479
 34
0.0
 50
270.0
1001
ACAD
1000
DSTYLE
1002
{
1070
   287
1070
     3
1070
    40
1040
50.0
1070
   143
1040
0.039
1070
   172
1070
     1
1070
   271
1070
     0
1070
   279
1070
     0
1002
}
  0
DIMENSION
  5
8A54
  8
3
  2
*D15
 10
1596.6245124463051
 20
3965.6279914081479
 30
0.0
 11
1471.6245124463051
 21
4632.6279914081479
 31
0.0
 70
     0
 13
2151.6452778747148
 23
5299.627991408147
 33
0.0
 14
2205.081816123567
 24
3965.6279914081479
 34
0.0
 50
270.0
1001
ACAD
1000
DSTYLE
1002
{
1070
   287
1070
     3
1070
    40
1040
50.0
1070
   143
1040
0.039
1070
   172
1070
     1
1070
   271
1070
     0
1070
   279
1070
     0
1002
}
  0
DIMENSION
  5
8A61
  8
3
  2
*D16
 10
1282.837001000483
 20
3749.627991408147
 30
0.0
 11
1157.837001000483
 21
4524.6279914081488
 31
0.0
 70
     0
 13
2151.6452778747148
 23
5299.627991408147
 33
0.0
 14
2305.081816123567
 24
3749.627991408147
 34
0.0
 50
270.0
1001
ACAD
1000
DSTYLE
1002
{
1070
   287
1070
     3
1070
    40
1040
50.0
1070
   143
1040
0.039
1070
   172
1070
     1
1070
   271
1070
     0
1070
   279
1070
     0
1002
}
  0
DIMENSION
  5
8A7D
  8
3
  2
*D17
 10
1280.695092173137
 20
5299.6279914081488
 30
0.0
 11
1155.6950921731359
 21
5748.1279914081488
 31
0.0
 70
     0
 13
3146.081816123567
 23
6196.6279914081479
 33
0.0
 14
2151.6452778747148
 24
5299.627991408147
 34
0.0
 50
270.0
1001
ACAD
1000
DSTYLE
1002
{
1070
   287
1070
     3
1070
    40
1040
50.0
1070
   143
1040
0.039
1070
   172
1070
     1
1070
   271
1070
     0
1070
   279
1070
     0
1002
}
  0
DIMENSION
  5
8A8A
  8
3
  2
*D18
 10
2230.081816123567
 20
6461.3680659317106
 30
0.0
 11
2642.581816123567
 21
6586.3680659317106
 31
0.0
 70
     0
 13
3055.081816123567
 23
6312.9971153107408
 33
0.0
 14
2230.081816123567
 24
5298.6279914081479
 34
0.0
1001
ACAD
1000
DSTYLE
1002
{
1070
   287
1070
     3
1070
    40
1040
50.0
1070
   143
1040
0.039
1070
   172
1070
     1
1070
   271
1070
     0
1070
   279
1070
     0
1002
}
  0
DIMENSION
  5
8A99
  8
3
  2
*D19
 10
4134.0818161235666
 20
6461.3680659317106
 30
0.0
 11
3594.5818161235679
 21
6586.3680659317106
 31
0.0
 70
     0
 13
3055.081816123567
 23
6312.9971153107408
 33
0.0
 14
4134.0818161235666
 24
5208.6279914081479
 34
0.0
1001
ACAD
1000
DSTYLE
1002
{
1070
   287
1070
     3
1070
    40
1040
50.0
1070
   143
1040
0.039
1070
   172
1070
     1
1070
   271
1070
     0
1070
   279
1070
     0
1002
}
  0
DIMENSION
  5
8AA6
  8
3
  2
*D20
 10
4205.0818161235666
 20
6745.9831769191514
 30
0.0
 11
3217.581816123567
 21
6870.9831769191514
 31
0.0
 70
     0
 13
2230.081816123567
 23
5298.6279914081479
 33
0.0
 14
4205.0818161235666
 24
3899.627991408147
 34
0.0
1001
ACAD
1000
DSTYLE
1002
{
1070
   287
1070
     3
1070
    40
1040
50.0
1070
   143
1040
0.039
1070
   172
1070
     1
1070
   271
1070
     0
1070
   279
1070
     0
1002
}
  0
DIMENSION
  5
8AB3
  8
3
  2
*D21
 10
8224.0697441730008
 20
6458.2311171300016
 30
0.0
 11
7749.0697441729999
 21
6583.2311171300016
 31
0.0
 70
     0
 13
7274.0697441730008
 23
6193.0047426694764
 33
0.0
 14
8224.0697441730008
 24
6193.0047426694764
 34
0.0
1001
ACAD
1000
DSTYLE
1002
{
1070
   287
1070
     3
1070
    40
1040
50.0
1070
   143
1040
0.039
1070
   172
1070
     1
1070
   271
1070
     0
1070
   279
1070
     0
1002
}
  0
LINE
  5
8AB4
  8
3
 10
7749.0697441729999
 20
6745.9831769191514
 30
0.0
 11
7749.0697441729999
 21
6701.4070424650135
 31
0.0
  0
DIMENSION
  5
8AC2
  8
3
  2
*D22
 10
6102.0697441729999
 20
6745.9831769191514
 30
0.0
 11
6925.5697441729999
 21
6995.9831769191514
 31
0.0
 70
     0
  1
MAX\P1680
 13
7749.0697441729999
 23
6701.4070424650135
 33
0.0
 14
6102.0697441729999
 24
5579.6279914081479
 34
0.0
1001
ACAD
1000
DSTYLE
1002
{
1070
   287
1070
     3
1070
    40
1040
50.0
1070
   143
1040
0.039
1070
   172
1070
     1
1070
   271
1070
     0
1070
   279
1070
     0
1002
}
  0
DIMENSION
  5
8AF1
  8
3
  2
*D23
 10
8234.0697441730026
 20
6746.3236486621399
 30
0.0
 11
8576.9268870301457
 21
6871.3236486621399
 31
0.0
 70
     0
 13
7749.0697441729999
 23
6701.4070424650135
 33
0.0
 14
8234.0697441730026
 24
5974.6279914081488
 34
0.0
1001
ACAD
1000
DSTYLE
1002
{
1070
   287
1070
     3
1070
    40
1040
50.0
1070
   143
1040
0.039
1070
   172
1070
     1
1070
   271
1070
     0
1070
   279
1070
     0
1002
}
  0
LINE
  5
8C25
  8
1
 10
6359.0697441729999
 20
4363.127991408147
 30
0.0
 11
7008.569744172999
 21
4363.127991408147
 31
0.0
  0
LINE
  5
8C26
  8
1
 10
7008.5697441730008
 20
3956.1279914081479
 30
0.0
 11
7008.5697441730008
 21
4363.127991408147
 31
0.0
  0
LINE
  5
8C28
  8
1
 10
6359.0697441730008
 20
3956.1279914081479
 30
0.0
 11
6359.0697441729999
 21
4363.1279914081451
 31
0.0
  0
LINE
  5
8C29
  8
1
 10
6359.0697441730008
 20
3956.1279914081479
 30
0.0
 11
7008.569744172999
 21
3956.1279914081479
 31
0.0
  0
LINE
  5
8C2E
  8
1
 10
6349.0697441729999
 20
4192.1279914081479
 30
0.0
 11
6359.0697441729999
 21
4192.1279914081479
 31
0.0
  0
LINE
  5
8C2F
  8
1
 10
6349.0697441729999
 20
4189.6279914081479
 30
0.0
 11
6209.0697441729999
 21
4189.6279914081479
 31
0.0
  0
LINE
  5
8C30
  8
1
 10
6349.0697441729999
 20
4127.1279914081479
 30
0.0
 11
6359.0697441729999
 21
4127.1279914081479
 31
0.0
  0
LINE
  5
8C31
  8
1
 10
6349.0697441729999
 20
4129.6279914081479
 30
0.0
 11
6209.0697441729999
 21
4129.6279914081479
 31
0.0
  0
LINE
  5
8C32
  8
1
 10
6209.0697441729999
 20
4189.6279914081479
 30
0.0
 11
6209.0697441729999
 21
4129.6279914081479
 31
0.0
  0
LINE
  5
8C33
  8
1
 10
6349.0697441729999
 20
4127.1279914081479
 30
0.0
 11
6349.0697441729999
 21
4192.1279914081479
 31
0.0
  0
LINE
  5
8C36
  8
1
 10
6322.0697441730017
 20
4129.6279914081479
 30
0.0
 11
6322.0697441730017
 21
3899.6279914081501
 31
0.0
  0
LINE
  5
8C38
  8
1
 10
6483.8197441729999
 20
3899.6279914081501
 30
0.0
 11
6483.8197441729999
 21
3956.1279914081479
 31
0.0
  0
LINE
  5
8C39
  8
1
 10
6883.8197441729999
 20
3899.6279914081501
 30
0.0
 11
6883.8197441729999
 21
3956.1279914081479
 31
0.0
  0
DIMENSION
  5
8C67
  8
3
  2
*D24
 10
958.16429553803755
 20
3749.6279914081479
 30
0.0
 11
833.16429553803698
 21
4973.1279914081488
 31
0.0
 70
     0
 13
3121.081816123567
 23
6196.6279914081479
 33
0.0
 14
2305.081816123567
 24
3749.627991408147
 34
0.0
 50
90.0
1001
ACAD
1000
DSTYLE
1002
{
1070
   287
1070
     4
1070
    40
1040
50.0
1070
   143
1040
0.039
1070
   172
1070
     1
1070
   271
1070
     0
1070
   279
1070
     1
1002
}
  0
ENDSEC
  0
EOF
