  0
SECTION
  2
HEADER
  9
$ACADVER
  1
AC1009
  9
$INSBASE
 10
0.0
 20
0.0
 30
0.0
  9
$EXTMIN
 10
0.0
 20
0.0
 30
0.0
  9
$EXTMAX
 10
10500.0
 20
14750.0
 30
0.0
  9
$LIMMIN
 10
0.0
 20
0.0
  9
$LIMMAX
 10
297.0
 20
210.0
  9
$ORTHOMODE
 70
     0
  9
$REGENMODE
 70
     1
  9
$FILLMODE
 70
     0
  9
$QTEXTMODE
 70
     0
  9
$MIRRTEXT
 70
     1
  9
$DRAGMODE
 70
     2
  9
$LTSCALE
 40
100.0
  9
$OSMODE
 70
    37
  9
$ATTMODE
 70
     1
  9
$TEXTSIZE
 40
180.0
  9
$TRACEWID
 40
0.05
  9
$TEXTSTYLE
  7
STANDARD
  9
$CLAYER
  8
3
  9
$CELTYPE
  6
BYLAYER
  9
$CECOLOR
 62
   256
  9
$DIMSCALE
 40
50.0
  9
$DIMASZ
 40
2.0
  9
$DIMEXO
 40
0.5
  9
$DIMDLI
 40
10.0
  9
$DIMRND
 40
0.0
  9
$DIMDLE
 40
0.0
  9
$DIMEXE
 40
1.0
  9
$DIMTP
 40
1.0
  9
$DIMTM
 40
1.0
  9
$DIMTXT
 40
3.0
  9
$DIMCEN
 40
0.0
  9
$DIMTSZ
 40
0.0
  9
$DIMTOL
 70
     0
  9
$DIMLIM
 70
     0
  9
$DIMTIH
 70
     0
  9
$DIMTOH
 70
     0
  9
$DIMSE1
 70
     0
  9
$DIMSE2
 70
     0
  9
$DIMTAD
 70
     1
  9
$DIMZIN
 70
     8
  9
$DIMBLK
  1

  9
$DIMASO
 70
     1
  9
$DIMSHO
 70
     1
  9
$DIMPOST
  1

  9
$DIMAPOST
  1

  9
$DIMALT
 70
     0
  9
$DIMALTD
 70
     2
  9
$DIMALTF
 40
0.039
  9
$DIMLFAC
 40
1.0
  9
$DIMTOFL
 70
     1
  9
$DIMTVP
 40
0.0
  9
$DIMTIX
 70
     0
  9
$DIMSOXD
 70
     0
  9
$DIMSAH
 70
     1
  9
$DIMBLK1
  1
OPEN
  9
$DIMBLK2
  1
OPEN
  9
$DIMSTYLE
  2
IGA
  9
$DIMCLRD
 70
     0
  9
$DIMCLRE
 70
     0
  9
$DIMCLRT
 70
     0
  9
$DIMTFAC
 40
10.0
  9
$DIMGAP
 40
1.0
  9
$LUNITS
 70
     2
  9
$LUPREC
 70
     3
  9
$SKETCHINC
 40
0.1
  9
$FILLETRAD
 40
50.0
  9
$AUNITS
 70
     0
  9
$AUPREC
 70
     0
  9
$MENU
  1
acad
  9
$ELEVATION
 40
0.0
  9
$PELEVATION
 40
0.0
  9
$THICKNESS
 40
0.0
  9
$LIMCHECK
 70
     0
  9
$BLIPMODE
 70
     0
  9
$CHAMFERA
 40
0.5
  9
$CHAMFERB
 40
0.5
  9
$SKPOLY
 70
     0
  9
$TDCREATE
 40
2452321.3884343752
  9
$TDUPDATE
 40
2454953.6474750349
  9
$TDINDWG
 40
0.0603360417
  9
$TDUSRTIMER
 40
0.0603360417
  9
$USRTIMER
 70
     1
  9
$ANGBASE
 50
0.0
  9
$ANGDIR
 70
     0
  9
$PDMODE
 70
     0
  9
$PDSIZE
 40
0.0
  9
$PLINEWID
 40
0.0
  9
$COORDS
 70
     1
  9
$SPLFRAME
 70
     0
  9
$SPLINETYPE
 70
     6
  9
$SPLINESEGS
 70
     8
  9
$ATTDIA
 70
     0
  9
$ATTREQ
 70
     1
  9
$HANDLING
 70
 10241
  9
$HANDSEED
  5
8D86
  9
$SURFTAB1
 70
     6
  9
$SURFTAB2
 70
     6
  9
$SURFTYPE
 70
     6
  9
$SURFU
 70
     6
  9
$SURFV
 70
     6
  9
$UCSNAME
  2

  9
$UCSORG
 10
0.0
 20
0.0
 30
0.0
  9
$UCSXDIR
 10
1.0
 20
0.0
 30
0.0
  9
$UCSYDIR
 10
0.0
 20
1.0
 30
0.0
  9
$PUCSNAME
  2

  9
$PUCSORG
 10
0.0
 20
0.0
 30
0.0
  9
$PUCSXDIR
 10
1.0
 20
0.0
 30
0.0
  9
$PUCSYDIR
 10
0.0
 20
1.0
 30
0.0
  9
$USERI1
 70
     0
  9
$USERI2
 70
     0
  9
$USERI3
 70
     0
  9
$USERI4
 70
     0
  9
$USERI5
 70
     0
  9
$USERR1
 40
0.0
  9
$USERR2
 40
0.0
  9
$USERR3
 40
0.0
  9
$USERR4
 40
0.0
  9
$USERR5
 40
0.0
  9
$WORLDVIEW
 70
     1
  9
$SHADEDGE
 70
     3
  9
$SHADEDIF
 70
    70
  9
$TILEMODE
 70
     1
  9
$MAXACTVP
 70
    16
  9
$PLIMCHECK
 70
     0
  9
$PEXTMIN
 10
1.0000000000000000E+020
 20
1.0000000000000000E+020
 30
1.0000000000000000E+020
  9
$PEXTMAX
 10
-1.0000000000000000E+020
 20
-1.0000000000000000E+020
 30
-1.0000000000000000E+020
  9
$PLIMMIN
 10
0.0
 20
0.0
  9
$PLIMMAX
 10
12.0
 20
9.0
  9
$UNITMODE
 70
     0
  9
$VISRETAIN
 70
     0
  9
$PLINEGEN
 70
     0
  9
$PSLTSCALE
 70
     1
  0
ENDSEC
  0
SECTION
  2
TABLES
  0
TABLE
  2
VPORT
 70
     2
  0
VPORT
  2
*ACTIVE
 70
     0
 10
0.0
 20
0.0
 11
1.0
 21
1.0
 12
9682.8347941992724
 22
1786.376334166114
 13
0.0
 23
0.0
 14
10.0
 24
10.0
 15
10.0
 25
10.0
 16
0.0
 26
0.0
 36
1.0
 17
0.0
 27
0.0
 37
0.0
 40
4286.8886285360777
 41
3.1666666666666661
 42
50.0
 43
0.0
 44
0.0
 50
0.0
 51
0.0
 71
     0
 72
   100
 73
     1
 74
     0
 75
     0
 76
     0
 77
     0
 78
     0
  0
ENDTAB
  0
TABLE
  2
LTYPE
 70
     2
  0
LTYPE
  2
CONTINUOUS
 70
     0
  3
Solid line
 72
    65
 73
     0
 40
0.0
  0
LTYPE
  2
CENTER
 70
     0
  3
____ _ ____ _ ____ _ ____ _ ____ _ ____ _ ____ 
 72
    65
 73
     4
 40
2.0
 49
1.25
 49
-0.25
 49
0.25
 49
-0.25
  0
ENDTAB
  0
TABLE
  2
LAYER
 70
     6
  0
LAYER
  2
0
 70
     0
 62
     7
  6
CONTINUOUS
  0
LAYER
  2
3
 70
     0
 62
     2
  6
CONTINUOUS
  0
LAYER
  2
2
 70
     0
 62
     3
  6
CENTER
  0
LAYER
  2
1
 70
     0
 62
     4
  6
CONTINUOUS
  0
LAYER
  2
4
 70
     0
 62
     7
  6
CONTINUOUS
  0
LAYER
  2
DEFPOINTS
 70
     0
 62
     7
  6
CONTINUOUS
  0
ENDTAB
  0
TABLE
  2
STYLE
 70
     1
  0
STYLE
  2
STANDARD
 70
     0
 40
0.0
 41
1.0
 50
0.0
 71
     0
 42
180.0
  3
simplex.shx
  4
extfont.shx
  0
ENDTAB
  0
TABLE
  2
VIEW
 70
     0
  0
ENDTAB
  0
TABLE
  2
UCS
 70
     0
  0
ENDTAB
  0
TABLE
  2
APPID
 70
     1
  0
APPID
  2
ACAD
 70
     0
  0
ENDTAB
  0
TABLE
  2
DIMSTYLE
 70
     1
  0
DIMSTYLE
  2
IGA
 70
     0
  3

  4

  5

  6
OPEN
  7
OPEN
 40
2.0
 41
2.0
 42
0.5
 43
10.0
 44
1.0
 45
0.0
 46
0.0
 47
1.0
 48
1.0
140
3.0
141
0.0
142
0.0
143
0.03937
144
1.0
145
0.0
146
10.0
147
1.0
 71
     0
 72
     0
 73
     0
 74
     0
 75
     0
 76
     0
 77
     1
 78
     8
170
     0
171
     2
172
     0
173
     1
174
     0
175
     0
176
     0
177
     0
178
     0
  0
ENDTAB
  0
ENDSEC
  0
SECTION
  2
BLOCKS
  0
BLOCK
  8
0
  2
$MODEL_SPACE
 70
     0
 10
0.0
 20
0.0
 30
0.0
  3
$MODEL_SPACE
  1

  0
ENDBLK
  5
1B
  8
0
  0
BLOCK
 67
     1
  8
0
  2
$PAPER_SPACE
 70
     0
 10
0.0
 20
0.0
 30
0.0
  3
$PAPER_SPACE
  1

  0
ENDBLK
  5
18
 67
     1
  8
0
  0
BLOCK
  8
0
  2
_OPEN
 70
     0
 10
0.0
 20
0.0
 30
0.0
  3
_OPEN
  1

  0
LINE
  5
79FD
  8
0
  6
BYBLOCK
 62
     0
 10
-1.0
 20
0.1666666666666666
 30
0.0
 11
0.0
 21
0.0
 31
0.0
  0
LINE
  5
79FE
  8
0
  6
BYBLOCK
 62
     0
 10
0.0
 20
0.0
 30
0.0
 11
-1.0
 21
-0.1666666666666666
 31
0.0
  0
LINE
  5
79FF
  8
0
  6
BYBLOCK
 62
     0
 10
0.0
 20
0.0
 30
0.0
 11
-1.0
 21
0.0
 31
0.0
  0
ENDBLK
  5
7A01
  8
0
  0
BLOCK
  8
0
  2
YA_N
 70
     0
 10
0.0
 20
0.0
 30
0.0
  3
YA_N
  1

  0
ENDBLK
  5
7EF0
  8
0
  0
BLOCK
  8
0
  2
*D2
 70
     1
 10
0.0
 20
0.0
 30
0.0
  3
*D2
  1

  0
LINE
  5
8CD9
  8
3
 62
     0
 10
2905.081816123567
 20
10701.006088529921
 30
0.0
 11
2905.081816123567
 21
10962.3455461579
 31
0.0
  0
LINE
  5
8CDA
  8
3
 62
     0
 10
4405.0818161235666
 20
10701.006088529921
 30
0.0
 11
4405.0818161235666
 21
10962.3455461579
 31
0.0
  0
LINE
  5
8CDB
  8
3
 62
     0
 10
3005.081816123567
 20
10912.345546157891
 30
0.0
 11
4305.0818161235666
 21
10912.345546157891
 31
0.0
  0
INSERT
  5
8CDC
  8
3
 62
     0
  2
_OPEN
 10
2905.081816123567
 20
10912.345546157891
 30
0.0
 41
100.0
 42
100.0
 43
100.0
 50
180.0
  0
INSERT
  5
8CDD
  8
3
 62
     0
  2
_OPEN
 10
4405.0818161235666
 20
10912.345546157891
 30
0.0
 41
100.0
 42
100.0
 43
100.0
  0
TEXT
  8
3
  40
150
  5
8D74
  62
0
  72
0
  71
0
 10
3279.46
 20
10771.8
 30
0.000000
  1
1500
  0
POINT
  5
8CDF
  8
DEFPOINTS
 62
     0
 10
2905.081816123567
 20
10676.006088529921
 30
0.0
  0
POINT
  5
8CE0
  8
DEFPOINTS
 62
     0
 10
4405.0818161235666
 20
10676.006088529921
 30
0.0
  0
POINT
  5
8CE1
  8
DEFPOINTS
 62
     0
 10
4405.0818161235666
 20
10912.345546157891
 30
0.0
  0
ENDBLK
  5
8C86
  8
0
  0
BLOCK
  8
0
  2
*D3
 70
     1
 10
0.0
 20
0.0
 30
0.0
  3
*D3
  1

  0
LINE
  5
8CE2
  8
3
 62
     0
 10
4430.0818161235666
 20
10676.006088529921
 30
0.0
 11
4910.2542064469253
 21
10676.006088529921
 31
0.0
  0
LINE
  5
8CE3
  8
3
 62
     0
 10
4430.0818161235666
 20
9566.0060885299245
 30
0.0
 11
4910.2542064469253
 21
9566.0060885299245
 31
0.0
  0
LINE
  5
8CE4
  8
3
 62
     0
 10
4860.2542064469253
 20
10576.006088529921
 30
0.0
 11
4860.2542064469244
 21
9666.0060885299245
 31
0.0
  0
INSERT
  5
8CE5
  8
3
 62
     0
  2
_OPEN
 10
4860.2542064469253
 20
10676.006088529921
 30
0.0
 41
100.0
 42
100.0
 43
100.0
 50
90.0
  0
INSERT
  5
8CE6
  8
3
 62
     0
  2
_OPEN
 10
4860.2542064469244
 20
9566.0060885299245
 30
0.0
 41
100.0
 42
100.0
 43
100.0
 50
270.0
  0
TEXT
  8
3
  40
150
  5
8D75
  62
0
  72
0
  71
0
 10
4435.25
 20
9833.45
 30
0.000000
  1
1110
  0
POINT
  5
8CE8
  8
DEFPOINTS
 62
     0
 10
4405.0818161235666
 20
10676.006088529921
 30
0.0
  0
POINT
  5
8CE9
  8
DEFPOINTS
 62
     0
 10
4405.0818161235666
 20
9566.0060885299245
 30
0.0
  0
POINT
  5
8CEA
  8
DEFPOINTS
 62
     0
 10
4860.2542064469244
 20
9566.0060885299245
 30
0.0
  0
ENDBLK
  5
8C91
  8
0
  0
BLOCK
  8
0
  2
*D4
 70
     1
 10
0.0
 20
0.0
 30
0.0
  3
*D4
  1

  0
LINE
  5
8CEB
  8
3
 62
     0
 10
4130.0818161235666
 20
8621.0060885299245
 30
0.0
 11
4910.2542064469226
 21
8621.0060885299245
 31
0.0
  0
LINE
  5
8CEC
  8
3
 62
     0
 10
4860.2542064469226
 20
9466.0060885299245
 30
0.0
 11
4860.2542064469226
 21
8721.0060885299226
 31
0.0
  0
INSERT
  5
8CED
  8
3
 62
     0
  2
_OPEN
 10
4860.2542064469226
 20
9566.0060885299245
 30
0.0
 41
100.0
 42
100.0
 43
100.0
 50
90.0
  0
INSERT
  5
8CEE
  8
3
 62
     0
  2
_OPEN
 10
4860.2542064469226
 20
8621.0060885299245
 30
0.0
 41
100.0
 42
100.0
 43
100.0
 50
270.0
  0
TEXT
  8
3
  40
150
  5
8D76
  62
0
  72
0
  71
0
 10
4435.25
 20
8828.01
 30
0.000000
  1
945
  0
POINT
  5
8CF0
  8
DEFPOINTS
 62
     0
 10
4405.0818161235666
 20
9566.0060885299245
 30
0.0
  0
POINT
  5
8CF1
  8
DEFPOINTS
 62
     0
 10
4105.0818161235684
 20
8621.0060885299245
 30
0.0
  0
POINT
  5
8CF2
  8
DEFPOINTS
 62
     0
 10
4860.2542064469226
 20
8621.0060885299245
 30
0.0
  0
ENDBLK
  5
8C9B
  8
0
  0
BLOCK
  8
0
  2
*D5
 70
     1
 10
0.0
 20
0.0
 30
0.0
  3
*D5
  1

  0
LINE
  5
8CF3
  8
3
 62
     0
 10
4105.0818161235684
 20
8596.0060885299226
 30
0.0
 11
4105.0818161235684
 21
8031.7460686846171
 31
0.0
  0
LINE
  5
8CF4
  8
3
 62
     0
 10
2505.081816123567
 20
8596.0060885299226
 30
0.0
 11
2505.081816123567
 21
8031.7460686846171
 31
0.0
  0
LINE
  5
8CF5
  8
3
 62
     0
 10
4005.081816123567
 20
8081.7460686846171
 30
0.0
 11
2605.081816123567
 21
8081.7460686846171
 31
0.0
  0
INSERT
  5
8CF6
  8
3
 62
     0
  2
_OPEN
 10
4105.0818161235684
 20
8081.7460686846171
 30
0.0
 41
100.0
 42
100.0
 43
100.0
  0
INSERT
  5
8CF7
  8
3
 62
     0
  2
_OPEN
 10
2505.081816123567
 20
8081.7460686846171
 30
0.0
 41
100.0
 42
100.0
 43
100.0
 50
180.0
  0
TEXT
  8
3
  40
150
  5
8D77
  62
0
  72
0
  71
0
 10
2986.40
 20
7941.25
 30
0.000000
  1
1600
  0
POINT
  5
8CF9
  8
DEFPOINTS
 62
     0
 10
4105.0818161235684
 20
8621.0060885299245
 30
0.0
  0
POINT
  5
8CFA
  8
DEFPOINTS
 62
     0
 10
2505.081816123567
 20
8621.0060885299245
 30
0.0
  0
POINT
  5
8CFB
  8
DEFPOINTS
 62
     0
 10
2505.081816123567
 20
8081.7460686846171
 30
0.0
  0
ENDBLK
  5
8C7B
  8
0
  0
BLOCK
  8
0
  2
*D6
 70
     1
 10
0.0
 20
0.0
 30
0.0
  3
*D6
  1

  0
LINE
  5
8CFC
  8
3
 62
     0
 10
2505.081816123567
 20
4164.6279914081479
 30
0.0
 11
2505.081816123567
 21
3800.638338032295
 31
0.0
  0
LINE
  5
8CFD
  8
3
 62
     0
 10
3655.081816123567
 20
4164.6279914081479
 30
0.0
 11
3655.081816123567
 21
3800.638338032295
 31
0.0
  0
LINE
  5
8CFE
  8
3
 62
     0
 10
2605.081816123567
 20
3850.638338032295
 30
0.0
 11
3555.081816123567
 21
3850.638338032295
 31
0.0
  0
INSERT
  5
8CFF
  8
3
 62
     0
  2
_OPEN
 10
2505.081816123567
 20
3850.638338032295
 30
0.0
 41
100.0
 42
100.0
 43
100.0
 50
180.0
  0
INSERT
  5
8D00
  8
3
 62
     0
  2
_OPEN
 10
3655.081816123567
 20
3850.638338032295
 30
0.0
 41
100.0
 42
100.0
 43
100.0
  0
TEXT
  8
3
  40
150
  5
8D78
  62
0
  72
0
  71
0
 10
2778.16
 20
3710.14
 30
0.000000
  1
1150
  0
POINT
  5
8D02
  8
DEFPOINTS
 62
     0
 10
2505.081816123567
 20
4189.6279914081479
 30
0.0
  0
POINT
  5
8D03
  8
DEFPOINTS
 62
     0
 10
3655.081816123567
 20
4189.6279914081479
 30
0.0
  0
POINT
  5
8D04
  8
DEFPOINTS
 62
     0
 10
3655.081816123567
 20
3850.638338032295
 30
0.0
  0
ENDBLK
  5
8C5A
  8
0
  0
BLOCK
  8
0
  2
*D7
 70
     1
 10
0.0
 20
0.0
 30
0.0
  3
*D7
  1

  0
LINE
  5
8D05
  8
3
 62
     0
 10
4405.0818161235666
 20
4164.6279914081479
 30
0.0
 11
4405.0818161235666
 21
3800.638338032295
 31
0.0
  0
LINE
  5
8D06
  8
3
 62
     0
 10
3755.081816123567
 20
3850.638338032295
 30
0.0
 11
4305.0818161235666
 21
3850.638338032295
 31
0.0
  0
INSERT
  5
8D07
  8
3
 62
     0
  2
_OPEN
 10
3655.081816123567
 20
3850.638338032295
 30
0.0
 41
100.0
 42
100.0
 43
100.0
 50
180.0
  0
INSERT
  5
8D08
  8
3
 62
     0
  2
_OPEN
 10
4405.0818161235666
 20
3850.638338032295
 30
0.0
 41
100.0
 42
100.0
 43
100.0
  0
TEXT
  8
3
  40
150
  5
8D79
  62
0
  72
0
  71
0
 10
3730.08
 20
3710.14
 30
0.000000
  1
750
  0
POINT
  5
8D0A
  8
DEFPOINTS
 62
     0
 10
3655.081816123567
 20
4189.6279914081479
 30
0.0
  0
POINT
  5
8D0B
  8
DEFPOINTS
 62
     0
 10
4405.0818161235666
 20
4189.6279914081479
 30
0.0
  0
POINT
  5
8D0C
  8
DEFPOINTS
 62
     0
 10
4405.0818161235666
 20
3850.638338032295
 30
0.0
  0
ENDBLK
  5
8C44
  8
0
  0
BLOCK
  8
0
  2
*D8
 70
     1
 10
0.0
 20
0.0
 30
0.0
  3
*D8
  1

  0
LINE
  5
8D0D
  8
3
 62
     0
 10
6249.0697441729999
 20
4164.6279914081479
 30
0.0
 11
6249.0697441729999
 21
3800.638338032295
 31
0.0
  0
LINE
  5
8D0E
  8
3
 62
     0
 10
7749.0697441730017
 20
4164.6279914081479
 30
0.0
 11
7749.0697441730017
 21
3800.638338032295
 31
0.0
  0
LINE
  5
8D0F
  8
3
 62
     0
 10
6349.0697441729999
 20
3850.638338032295
 30
0.0
 11
7649.0697441730017
 21
3850.638338032295
 31
0.0
  0
INSERT
  5
8D10
  8
3
 62
     0
  2
_OPEN
 10
6249.0697441729999
 20
3850.638338032295
 30
0.0
 41
100.0
 42
100.0
 43
100.0
 50
180.0
  0
INSERT
  5
8D11
  8
3
 62
     0
  2
_OPEN
 10
7749.0697441730017
 20
3850.638338032295
 30
0.0
 41
100.0
 42
100.0
 43
100.0
  0
TEXT
  8
3
  40
150
  5
8D7A
  62
0
  72
0
  71
0
 10
6772.90
 20
3710.14
 30
0.000000
  1
1500
  0
POINT
  5
8D13
  8
DEFPOINTS
 62
     0
 10
6249.0697441729999
 20
4189.6279914081479
 30
0.0
  0
POINT
  5
8D14
  8
DEFPOINTS
 62
     0
 10
7749.0697441730017
 20
4189.6279914081479
 30
0.0
  0
POINT
  5
8D15
  8
DEFPOINTS
 62
     0
 10
7749.0697441730017
 20
3850.638338032295
 30
0.0
  0
ENDBLK
  5
87E3
  8
0
  0
BLOCK
  8
0
  2
*D9
 70
     1
 10
0.0
 20
0.0
 30
0.0
  3
*D9
  1

  0
LINE
  5
87FE
  8
0
  6
BYBLOCK
 62
     0
 10
8304.0697441730008
 20
4154.6279914081479
 30
0.0
 11
8304.0697441730008
 21
3790.6383380322941
 31
0.0
  0
LINE
  5
87FF
  8
0
  6
BYBLOCK
 62
     0
 10
7849.0697441730017
 20
3840.638338032295
 30
0.0
 11
8204.0697441730008
 21
3840.638338032295
 31
0.0
  0
TEXT
  5
8800
  8
3
 62
     0
 10
7850.0796396438191
 20
3887.747357576372
 30
0.0
 40
150.0
  1
555
  0
INSERT
  5
8801
  8
0
  6
BYBLOCK
 62
     0
  2
_OPEN
 10
7749.0697441730017
 20
3840.638338032295
 30
0.0
 41
100.0
 42
100.0
 43
100.0
 50
180.0
  0
INSERT
  5
8802
  8
0
  6
BYBLOCK
 62
     0
  2
_OPEN
 10
8304.0697441730008
 20
3840.638338032295
 30
0.0
 41
100.0
 42
100.0
 43
100.0
  0
POINT
  5
8803
  8
DEFPOINTS
  6
BYBLOCK
 62
     0
 10
7749.0697441730017
 20
4179.6279914081479
 30
0.0
  0
POINT
  5
8804
  8
DEFPOINTS
  6
BYBLOCK
 62
     0
 10
8304.0697441730008
 20
4179.6279914081479
 30
0.0
  0
POINT
  5
8805
  8
DEFPOINTS
  6
BYBLOCK
 62
     0
 10
8304.0697441730008
 20
3840.638338032295
 30
0.0
  0
ENDBLK
  5
8806
  8
0
  0
BLOCK
  8
0
  2
*D10
 70
     1
 10
0.0
 20
0.0
 30
0.0
  3
*D10
  1

  0
LINE
  5
8D16
  8
3
 62
     0
 10
8259.0697441730026
 20
5924.627991408147
 30
0.0
 11
8716.1480083497318
 21
5924.627991408147
 31
0.0
  0
LINE
  5
8D17
  8
3
 62
     0
 10
8259.0697441730026
 20
4674.627991408147
 30
0.0
 11
8716.1480083497318
 21
4674.627991408147
 31
0.0
  0
LINE
  5
8D18
  8
3
 62
     0
 10
8666.1480083497336
 20
5824.6279914081479
 30
0.0
 11
8666.1480083497336
 21
4774.6279914081479
 31
0.0
  0
INSERT
  5
8D19
  8
3
 62
     0
  2
_OPEN
 10
8666.1480083497336
 20
5924.627991408147
 30
0.0
 41
100.0
 42
100.0
 43
100.0
 50
90.0
  0
INSERT
  5
8D1A
  8
3
 62
     0
  2
_OPEN
 10
8666.1480083497336
 20
4674.627991408147
 30
0.0
 41
100.0
 42
100.0
 43
100.0
 50
270.0
  0
TEXT
  8
3
  40
150
  5
8D7B
  62
0
  72
0
  71
0
 10
8241.15
 20
5054.13
 30
0.000000
  1
φ1250
  0
POINT
  5
8D1C
  8
DEFPOINTS
 62
     0
 10
8234.0697441730026
 20
5924.627991408147
 30
0.0
  0
POINT
  5
8D1D
  8
DEFPOINTS
 62
     0
 10
8234.0697441730026
 20
4674.627991408147
 30
0.0
  0
POINT
  5
8D1E
  8
DEFPOINTS
 62
     0
 10
8666.1480083497336
 20
4674.627991408147
 30
0.0
  0
ENDBLK
  5
882D
  8
0
  0
BLOCK
  8
0
  2
_DOT
 70
     0
 10
0.0
 20
0.0
 30
0.0
  3
_DOT
  1

  0
LINE
  5
8927
  8
0
  6
BYBLOCK
 62
     0
 10
0.0
 20
0.0
 30
0.0
 11
-1.0
 21
-0.0000000000000284
 31
0.0
  0
POLYLINE
  5
8928
  8
0
  6
BYBLOCK
 62
     0
 66
     1
 10
0.0
 20
0.0
 30
0.0
 70
     1
 40
0.1666666666666666
 41
0.1666666666666666
  0
VERTEX
  5
8D1F
  8
0
  6
BYBLOCK
 62
     0
 10
-0.0833333333333286
 20
-0.0000000000000284
 30
0.0
 42
1.0
  0
VERTEX
  5
8D20
  8
0
  6
BYBLOCK
 62
     0
 10
0.0833333333333286
 20
-0.0000000000000284
 30
0.0
 42
1.0
  0
SEQEND
  5
8D21
  8
0
  6
BYBLOCK
 62
     0
  0
ENDBLK
  5
890C
  8
0
  0
BLOCK
  8
0
  2
*D12
 70
     1
 10
0.0
 20
0.0
 30
0.0
  3
*D12
  1

  0
LINE
  5
8D22
  8
3
 62
     0
 10
7274.0697441730008
 20
6149.6279914081479
 30
0.0
 11
7274.0697441730008
 21
6444.0302143632653
 31
0.0
  0
LINE
  5
8D23
  8
3
 62
     0
 10
8224.0697441730044
 20
6149.627991408147
 30
0.0
 11
8224.0697441730044
 21
6444.0302143632653
 31
0.0
  0
LINE
  5
8D24
  8
3
 62
     0
 10
7374.0697441729999
 20
6394.0302143632653
 30
0.0
 11
8124.0697441730044
 21
6394.0302143632653
 31
0.0
  0
INSERT
  5
8D25
  8
3
 62
     0
  2
_OPEN
 10
7274.0697441730008
 20
6394.0302143632653
 30
0.0
 41
100.0
 42
100.0
 43
100.0
 50
180.0
  0
INSERT
  5
8D26
  8
3
 62
     0
  2
_OPEN
 10
8224.0697441730044
 20
6394.0302143632653
 30
0.0
 41
100.0
 42
100.0
 43
100.0
  0
TEXT
  8
3
  40
150
  5
8D7C
  62
0
  72
0
  71
0
 10
7449.07
 20
6253.53
 30
0.000000
  1
950
  0
POINT
  5
8D28
  8
DEFPOINTS
 62
     0
 10
7274.0697441730008
 20
6124.627991408147
 30
0.0
  0
POINT
  5
8D29
  8
DEFPOINTS
 62
     0
 10
8224.0697441730044
 20
6124.627991408146
 30
0.0
  0
POINT
  5
8D2A
  8
DEFPOINTS
 62
     0
 10
8224.0697441730044
 20
6394.0302143632653
 30
0.0
  0
ENDBLK
  5
8B4D
  8
0
  0
BLOCK
  8
0
  2
*D13
 70
     1
 10
0.0
 20
0.0
 30
0.0
  3
*D13
  1

  0
LINE
  5
8D2B
  8
3
 62
     0
 10
7749.0697441730017
 20
6660.9809297811244
 30
0.0
 11
7749.0697441730017
 21
6812.7003944480748
 31
0.0
  0
LINE
  5
8D2C
  8
3
 62
     0
 10
8234.0697441730026
 20
5999.627991408147
 30
0.0
 11
8234.0697441730026
 21
6812.7003944480748
 31
0.0
  0
LINE
  5
8D2D
  8
3
 62
     0
 10
7849.0697441730017
 20
6762.7003944480739
 30
0.0
 11
8134.0697441730017
 21
6762.7003944480739
 31
0.0
  0
LINE
  5
8D2E
  8
3
 62
     0
 10
8234.0697441730026
 20
6762.7003944480739
 30
0.0
 11
8819.784029887287
 21
6762.7003944480739
 31
0.0
  0
INSERT
  5
8D2F
  8
3
 62
     0
  2
_OPEN
 10
7749.0697441730017
 20
6762.7003944480739
 30
0.0
 41
100.0
 42
100.0
 43
100.0
 50
180.0
  0
INSERT
  5
8D30
  8
3
 62
     0
  2
_OPEN
 10
8234.0697441730026
 20
6762.7003944480739
 30
0.0
 41
100.0
 42
100.0
 43
100.0
  0
TEXT
  8
3
  40
150
  5
8D7D
  62
0
  72
0
  71
0
 10
8276.93
 20
6622.20
 30
0.000000
  1
485
  0
POINT
  5
8D32
  8
DEFPOINTS
 62
     0
 10
7749.0697441730017
 20
6635.9809297811244
 30
0.0
  0
POINT
  5
8D33
  8
DEFPOINTS
 62
     0
 10
8234.0697441730026
 20
5974.6279914081479
 30
0.0
  0
POINT
  5
8D34
  8
DEFPOINTS
 62
     0
 10
8234.0697441730026
 20
6762.7003944480739
 30
0.0
  0
ENDBLK
  5
8B5D
  8
0
  0
BLOCK
  8
0
  2
*D14
 70
     1
 10
0.0
 20
0.0
 30
0.0
  3
*D14
  1

  0
LINE
  5
8D35
  8
3
 62
     0
 10
7749.0697441730017
 20
6660.9809297811244
 30
0.0
 11
7749.0697441730017
 21
6812.7003944480748
 31
0.0
  0
LINE
  5
8D36
  8
3
 62
     0
 10
6102.0697441729999
 20
5604.6279914081479
 30
0.0
 11
6102.0697441729999
 21
6812.7003944480748
 31
0.0
  0
LINE
  5
8D37
  8
3
 62
     0
 10
7649.0697441730017
 20
6762.7003944480739
 30
0.0
 11
6202.0697441730008
 21
6762.7003944480739
 31
0.0
  0
INSERT
  5
8D38
  8
3
 62
     0
  2
_OPEN
 10
7749.0697441730017
 20
6762.7003944480739
 30
0.0
 41
100.0
 42
100.0
 43
100.0
  0
INSERT
  5
8D39
  8
3
 62
     0
  2
_OPEN
 10
6102.0697441729999
 20
6762.7003944480739
 30
0.0
 41
100.0
 42
100.0
 43
100.0
 50
180.0
  0
TEXT
  8
3
  40
150
  5
8D7E
  62
0
  72
0
  71
0
 10
6625.57
 20
6747.20
 30
0.000000
  1
MAX
  0
TEXT
  8
3
  40
150
  5
8D7F
  62
0
  72
0
  71
0
 10
6625.57
 20
6552.20
 30
0.000000
  1
1680
  0
POINT
  5
8D3B
  8
DEFPOINTS
 62
     0
 10
7749.0697441730017
 20
6635.9809297811244
 30
0.0
  0
POINT
  5
8D3C
  8
DEFPOINTS
 62
     0
 10
6102.0697441729999
 20
5579.6279914081479
 30
0.0
  0
POINT
  5
8D3D
  8
DEFPOINTS
 62
     0
 10
6102.0697441729999
 20
6762.7003944480739
 30
0.0
  0
ENDBLK
  5
8BAA
  8
0
  0
BLOCK
  8
0
  2
*D15
 70
     1
 10
0.0
 20
0.0
 30
0.0
  3
*D15
  1

  0
LINE
  5
8D3E
  8
3
 62
     0
 10
3601.0818161235679
 20
6149.6279914081479
 30
0.0
 11
3601.0818161235679
 21
6432.8404254236593
 31
0.0
  0
LINE
  5
8D3F
  8
3
 62
     0
 10
2321.081816123567
 20
6149.6279914081479
 30
0.0
 11
2321.081816123567
 21
6432.8404254236593
 31
0.0
  0
LINE
  5
8D40
  8
3
 62
     0
 10
3501.0818161235679
 20
6382.8404254236593
 30
0.0
 11
2421.081816123567
 21
6382.8404254236593
 31
0.0
  0
INSERT
  5
8D41
  8
3
 62
     0
  2
_OPEN
 10
3601.0818161235679
 20
6382.8404254236593
 30
0.0
 41
100.0
 42
100.0
 43
100.0
  0
INSERT
  5
8D42
  8
3
 62
     0
  2
_OPEN
 10
2321.081816123567
 20
6382.8404254236593
 30
0.0
 41
100.0
 42
100.0
 43
100.0
 50
180.0
  0
TEXT
  8
3
  40
150
  5
8D80
  62
0
  72
0
  71
0
 10
2661.08
 20
6242.34
 30
0.000000
  1
1280
  0
POINT
  5
8D44
  8
DEFPOINTS
 62
     0
 10
3601.0818161235679
 20
6124.627991408147
 30
0.0
  0
POINT
  5
8D45
  8
DEFPOINTS
 62
     0
 10
2321.081816123567
 20
6124.627991408147
 30
0.0
  0
POINT
  5
8D46
  8
DEFPOINTS
 62
     0
 10
2321.081816123567
 20
6382.8404254236593
 30
0.0
  0
ENDBLK
  5
8C70
  8
0
  0
BLOCK
  8
0
  2
*D16
 70
     1
 10
0.0
 20
0.0
 30
0.0
  3
*D16
  1

  0
LINE
  5
8D47
  8
3
 62
     0
 10
3655.0818161235661
 20
6246.9724721829116
 30
0.0
 11
3655.0818161235661
 21
6811.68625983334
 31
0.0
  0
LINE
  5
8D48
  8
3
 62
     0
 10
2321.081816123567
 20
6149.6279914081479
 30
0.0
 11
2321.081816123567
 21
6811.68625983334
 31
0.0
  0
LINE
  5
8D49
  8
3
 62
     0
 10
3555.0818161235661
 20
6761.6862598333391
 30
0.0
 11
2421.081816123567
 21
6761.6862598333391
 31
0.0
  0
INSERT
  5
8D4A
  8
3
 62
     0
  2
_OPEN
 10
3655.0818161235661
 20
6761.6862598333391
 30
0.0
 41
100.0
 42
100.0
 43
100.0
  0
INSERT
  5
8D4B
  8
3
 62
     0
  2
_OPEN
 10
2321.081816123567
 20
6761.6862598333391
 30
0.0
 41
100.0
 42
100.0
 43
100.0
 50
180.0
  0
TEXT
  8
3
  40
150
  5
8D81
  62
0
  72
0
  71
0
 10
2688.08
 20
6621.19
 30
0.000000
  1
1334
  0
POINT
  5
8D4D
  8
DEFPOINTS
 62
     0
 10
3655.0818161235661
 20
6221.9724721829116
 30
0.0
  0
POINT
  5
8D4E
  8
DEFPOINTS
 62
     0
 10
2321.081816123567
 20
6124.627991408147
 30
0.0
  0
POINT
  5
8D4F
  8
DEFPOINTS
 62
     0
 10
2321.081816123567
 20
6761.6862598333391
 30
0.0
  0
ENDBLK
  5
8C65
  8
0
  0
BLOCK
  8
0
  2
*D17
 70
     1
 10
0.0
 20
0.0
 30
0.0
  3
*D17
  1

  0
LINE
  5
8D50
  8
3
 62
     0
 10
2268.081816123567
 20
6149.6279914081479
 30
0.0
 11
2268.081816123567
 21
7121.5154429283139
 31
0.0
  0
LINE
  5
8D51
  8
3
 62
     0
 10
4552.0818161235666
 20
5247.6279914081479
 30
0.0
 11
4552.0818161235666
 21
7121.5154429283139
 31
0.0
  0
LINE
  5
8D52
  8
3
 62
     0
 10
2368.081816123567
 20
7071.5154429283148
 30
0.0
 11
4452.0818161235666
 21
7071.5154429283148
 31
0.0
  0
INSERT
  5
8D53
  8
3
 62
     0
  2
_OPEN
 10
2268.081816123567
 20
7071.5154429283148
 30
0.0
 41
100.0
 42
100.0
 43
100.0
 50
180.0
  0
INSERT
  5
8D54
  8
3
 62
     0
  2
_OPEN
 10
4552.0818161235666
 20
7071.5154429283148
 30
0.0
 41
100.0
 42
100.0
 43
100.0
  0
TEXT
  8
3
  40
150
  5
8D82
  62
0
  72
0
  71
0
 10
3110.08
 20
6931.02
 30
0.000000
  1
2284
  0
POINT
  5
8D56
  8
DEFPOINTS
 62
     0
 10
2268.081816123567
 20
6124.627991408147
 30
0.0
  0
POINT
  5
8D57
  8
DEFPOINTS
 62
     0
 10
4552.0818161235666
 20
5222.627991408147
 30
0.0
  0
POINT
  5
8D58
  8
DEFPOINTS
 62
     0
 10
4552.0818161235666
 20
7071.5154429283148
 30
0.0
  0
ENDBLK
  5
8C3A
  8
0
  0
BLOCK
  8
0
  2
*D18
 70
     1
 10
0.0
 20
0.0
 30
0.0
  3
*D18
  1

  0
LINE
  5
8D59
  8
3
 62
     0
 10
3679.081816123567
 20
6124.627991408147
 30
0.0
 11
4917.0325440677798
 21
6124.627991408147
 31
0.0
  0
LINE
  5
8D5A
  8
3
 62
     0
 10
4651.5043384371229
 20
5299.627991408147
 30
0.0
 11
4917.0325440677798
 21
5299.627991408147
 31
0.0
  0
LINE
  5
8D5B
  8
3
 62
     0
 10
4867.0325440677807
 20
6024.6279914081479
 30
0.0
 11
4867.0325440677807
 21
5399.6279914081479
 31
0.0
  0
INSERT
  5
8D5C
  8
3
 62
     0
  2
_OPEN
 10
4867.0325440677807
 20
6124.627991408147
 30
0.0
 41
100.0
 42
100.0
 43
100.0
 50
90.0
  0
INSERT
  5
8D5D
  8
3
 62
     0
  2
_OPEN
 10
4867.0325440677807
 20
5299.627991408147
 30
0.0
 41
100.0
 42
100.0
 43
100.0
 50
270.0
  0
TEXT
  8
3
  40
150
  5
8D83
  62
0
  72
0
  71
0
 10
4442.03
 20
5446.63
 30
0.000000
  1
825
  0
POINT
  5
8D5F
  8
DEFPOINTS
 62
     0
 10
3654.081816123567
 20
6124.627991408147
 30
0.0
  0
POINT
  5
8D60
  8
DEFPOINTS
 62
     0
 10
4626.5043384371238
 20
5299.627991408147
 30
0.0
  0
POINT
  5
8D61
  8
DEFPOINTS
 62
     0
 10
4867.0325440677807
 20
5299.627991408147
 30
0.0
  0
ENDBLK
  5
8C2F
  8
0
  0
BLOCK
  8
0
  2
*D19
 70
     1
 10
0.0
 20
0.0
 30
0.0
  3
*D19
  1

  0
LINE
  5
8D62
  8
3
 62
     0
 10
4651.5043384371229
 20
5299.627991408147
 30
0.0
 11
4917.0325440677798
 21
5299.627991408147
 31
0.0
  0
LINE
  5
8D63
  8
3
 62
     0
 10
4430.0818161235666
 20
4189.6279914081479
 30
0.0
 11
4917.0325440677798
 21
4189.6279914081479
 31
0.0
  0
LINE
  5
8D64
  8
3
 62
     0
 10
4867.0325440677807
 20
5199.6279914081479
 30
0.0
 11
4867.0325440677807
 21
4289.6279914081479
 31
0.0
  0
INSERT
  5
8D65
  8
3
 62
     0
  2
_OPEN
 10
4867.0325440677807
 20
5299.627991408147
 30
0.0
 41
100.0
 42
100.0
 43
100.0
 50
90.0
  0
INSERT
  5
8D66
  8
3
 62
     0
  2
_OPEN
 10
4867.0325440677807
 20
4189.6279914081479
 30
0.0
 41
100.0
 42
100.0
 43
100.0
 50
270.0
  0
TEXT
  8
3
  40
150
  5
8D84
  62
0
  72
0
  71
0
 10
4442.03
 20
4479.13
 30
0.000000
  1
1110
  0
POINT
  5
8D68
  8
DEFPOINTS
 62
     0
 10
4626.5043384371238
 20
5299.627991408147
 30
0.0
  0
POINT
  5
8D69
  8
DEFPOINTS
 62
     0
 10
4405.0818161235666
 20
4189.6279914081479
 30
0.0
  0
POINT
  5
8D6A
  8
DEFPOINTS
 62
     0
 10
4867.0325440677807
 20
4189.6279914081479
 30
0.0
  0
ENDBLK
  5
8C4F
  8
0
  0
BLOCK
  8
0
  2
*D20
 70
     1
 10
0.0
 20
0.0
 30
0.0
  3
*D20
  1

  0
LINE
  5
8D6B
  8
3
 62
     0
 10
3679.081816123567
 20
6124.627991408147
 30
0.0
 11
5277.8369028830602
 21
6124.627991408147
 31
0.0
  0
LINE
  5
8D6C
  8
3
 62
     0
 10
4430.0818161235666
 20
4189.6279914081479
 30
0.0
 11
5277.8369028830602
 21
4189.6279914081479
 31
0.0
  0
LINE
  5
8D6D
  8
3
 62
     0
 10
5227.8369028830602
 20
6024.6279914081479
 30
0.0
 11
5227.8369028830602
 21
4289.6279914081479
 31
0.0
  0
INSERT
  5
8D6E
  8
3
 62
     0
  2
_OPEN
 10
5227.8369028830602
 20
6124.627991408147
 30
0.0
 41
100.0
 42
100.0
 43
100.0
 50
90.0
  0
INSERT
  5
8D6F
  8
3
 62
     0
  2
_OPEN
 10
5227.8369028830602
 20
4189.6279914081479
 30
0.0
 41
100.0
 42
100.0
 43
100.0
 50
270.0
  0
TEXT
  8
3
  40
150
  5
8D85
  62
0
  72
0
  71
0
 10
4802.84
 20
4891.63
 30
0.000000
  1
1935
  0
POINT
  5
8D71
  8
DEFPOINTS
 62
     0
 10
3654.081816123567
 20
6124.627991408147
 30
0.0
  0
POINT
  5
8D72
  8
DEFPOINTS
 62
     0
 10
4405.0818161235666
 20
4189.6279914081479
 30
0.0
  0
POINT
  5
8D73
  8
DEFPOINTS
 62
     0
 10
5227.8369028830602
 20
4189.6279914081479
 30
0.0
  0
ENDBLK
  5
8C24
  8
0
  0
ENDSEC
  0
SECTION
  2
ENTITIES
  0
INSERT
  5
85D5
  8
0
  2
YA_N
 10
6.0
 20
5.0
 30
0.0
  0
LINE
  5
85D7
  8
2
 10
3655.0818161235661
 20
6221.9724721829116
 30
0.0
 11
3655.0818161235679
 21
4189.6279914081479
 31
0.0
  0
ARC
  5
85D8
  8
1
 10
3564.0818161235679
 20
5390.6279914081479
 30
0.0
 40
1170.0
 50
184.46084369787391
 51
214.39253793370889
  0
ARC
  5
85D9
  8
1
 10
3564.0818161235679
 20
5208.6279914081479
 30
0.0
 40
988.0
 50
302.61487370278502
 51
5.2847329545345447
  0
ARC
  5
85DA
  8
1
 10
3732.081816123567
 20
5222.6279914081479
 30
0.0
 40
820.0
 50
5.3881518043274319
 51
95.388151804327464
  0
ARC
  5
85DB
  8
1
 10
3732.081816123567
 20
5376.6279914081479
 30
0.0
 40
666.0
 50
96.639134077904956
 51
101.3438569633159
  0
LINE
  5
85DC
  8
1
 10
2397.6260732854612
 20
5299.627991408147
 30
0.0
 11
2321.081816123567
 21
6124.627991408147
 31
0.0
  0
LINE
  5
85DD
  8
1
 10
4405.0818161235666
 20
4189.6279914081479
 30
0.0
 11
2505.081816123567
 21
4189.6279914081479
 31
0.0
1001
ACAD
1000
ASC_BOUNDS
1002
{
1070
    19
1005
0
1002
}
  0
LINE
  5
85DE
  8
1
 10
4405.0818161235666
 20
4339.6279914081479
 30
0.0
 11
2495.081816123567
 21
4339.6279914081479
 31
0.0
  0
LINE
  5
85DF
  8
1
 10
4405.0818161235666
 20
4339.6279914081479
 30
0.0
 11
4405.0818161235666
 21
4189.6279914081479
 31
0.0
  0
LINE
  5
85E1
  8
2
 10
2755.081816123567
 20
4865.482508013858
 30
0.0
 11
2755.0818161235679
 21
4189.6279914081479
 31
0.0
  0
LINE
  5
85E2
  8
2
 10
3035.3960328817188
 20
4599.627991408147
 30
0.0
 11
2458.468507650191
 21
4599.627991408147
 31
0.0
  0
LINE
  5
85E3
  8
1
 10
2268.081816123567
 20
6124.627991408147
 30
0.0
 11
2268.081816123567
 21
6074.6279914081479
 31
0.0
  0
LINE
  5
85E4
  8
1
 10
3654.081816123567
 20
6124.627991408147
 30
0.0
 11
3654.081816123567
 21
6074.6279914081479
 31
0.0
  0
LINE
  5
85E5
  8
1
 10
3601.0818161235679
 20
6124.627991408147
 30
0.0
 11
3601.0818161235679
 21
6029.617271565181
 31
0.0
  0
LINE
  5
85E6
  8
1
 10
2268.081816123567
 20
6074.6279914081479
 30
0.0
 11
3654.081816123567
 21
6074.6279914081479
 31
0.0
  0
LINE
  5
85E7
  8
1
 10
2268.081816123567
 20
6124.627991408147
 30
0.0
 11
3654.081816123567
 21
6124.627991408147
 31
0.0
  0
LINE
  5
85E8
  8
1
 10
2268.081816123567
 20
6121.6279914081479
 30
0.0
 11
3654.081816123567
 21
6121.6279914081479
 31
0.0
  0
LINE
  5
85E9
  8
1
 10
6249.0697441729999
 20
4339.6279914081479
 30
0.0
 11
6249.0697441729999
 21
4189.6279914081479
 31
0.0
  0
LINE
  5
85EA
  8
1
 10
6249.0697441729999
 20
4189.6279914081479
 30
0.0
 11
8304.0697441730008
 21
4189.6279914081479
 31
0.0
1001
ACAD
1000
ASC_BOUNDS
1002
{
1070
    19
1005
0
1005
0
1002
}
  0
LINE
  5
85EC
  8
1
 10
8304.0697441730008
 20
4339.6279914081479
 30
0.0
 11
8304.0697441730008
 21
4189.6279914081479
 31
0.0
  0
LINE
  5
85ED
  8
1
 10
8224.0697441730044
 20
6124.627991408146
 30
0.0
 11
8224.0697441730044
 21
4339.6279914081479
 31
0.0
  0
LINE
  5
85EE
  8
1
 10
7274.0697441730008
 20
6124.627991408147
 30
0.0
 11
7274.0697441730008
 21
4339.6279914081488
 31
0.0
  0
LINE
  5
85F0
  8
1
 10
8277.0697441730008
 20
6124.627991408147
 30
0.0
 11
8277.0697441730008
 21
6074.6279914081479
 31
0.0
  0
LINE
  5
85F1
  8
1
 10
7221.0697441729999
 20
6124.627991408146
 30
0.0
 11
7221.0697441729999
 21
6074.627991408147
 31
0.0
  0
LINE
  5
85F2
  8
2
 10
4626.5043384371238
 20
5299.627991408147
 30
0.0
 11
2251.8661119659778
 21
5299.627991408147
 31
0.0
  0
LINE
  5
85F3
  8
2
 10
6122.8755837907383
 20
5299.627991408147
 30
0.0
 11
8373.1395046730522
 21
5299.627991408147
 31
0.0
  0
LINE
  5
85F4
  8
1
 10
8226.3697441730019
 20
5974.6279914081479
 30
0.0
 11
8234.0697441730026
 21
5974.6279914081479
 31
0.0
  0
LINE
  5
85F5
  8
1
 10
8203.0537140084707
 20
5957.1279914081479
 30
0.0
 11
8252.5287034668218
 21
5957.1279914081479
 31
0.0
  0
LINE
  5
85F6
  8
1
 10
8203.0537140084707
 20
4642.127991408147
 30
0.0
 11
8252.5287034668218
 21
4642.127991408147
 31
0.0
  0
LINE
  5
85F7
  8
1
 10
8226.3697441730019
 20
4624.627991408146
 30
0.0
 11
8234.0697441730026
 21
4624.627991408146
 31
0.0
  0
LINE
  5
85F8
  8
2
 10
6122.8755837907383
 20
4599.627991408147
 30
0.0
 11
6299.3035850370661
 21
4599.627991408147
 31
0.0
  0
LINE
  5
85F9
  8
2
 10
3655.081816123567
 20
10716.084603945341
 30
0.0
 11
3655.081816123567
 21
8489.9572871205801
 31
0.0
  0
LINE
  5
85FA
  8
2
 10
4599.8154805347986
 20
10121.006088529921
 30
0.0
 11
2214.722896564766
 21
10121.006088529921
 31
0.0
  0
LINE
  5
85FB
  8
2
 10
7749.0697441729999
 20
6221.9724721829116
 30
0.0
 11
7749.0697441730017
 21
4189.6279914081479
 31
0.0
  0
POINT
  5
85FD
  8
1
 10
2580.2815315129151
 20
5299.627991408147
 30
0.0
  0
INSERT
  5
85FE
  8
0
  2
YA_N
 10
-1757.227407310314
 20
-1218.7864174577801
 30
0.0
 41
30.0
 42
30.0
 43
30.0
  0
ARC
  5
8600
  8
1
 10
2755.081816123567
 20
4599.627991408147
 30
0.0
 40
203.5
 50
285.60369900000001
 51
254.39624000000001
  0
LINE
  5
8601
  8
1
 10
2700.3437791235669
 20
4403.6279914081479
 30
0.0
 11
2809.8198531235671
 21
4403.6279914081479
 31
0.0
  0
ARC
  5
8602
  8
1
 10
2939.081816123567
 20
4473.9546524081479
 30
0.0
 40
5.0000669999999987
 50
0.0
 51
55.056334999999997
  0
LINE
  5
8603
  8
1
 10
2944.081816123567
 20
4473.9546524081479
 30
0.0
 11
2944.081816123567
 21
4399.6279914081479
 31
0.0
  0
LINE
  5
8604
  8
1
 10
2941.945586123567
 20
4478.0532844081481
 30
0.0
 11
2926.0077201235672
 21
4489.1897594081474
 31
0.0
  0
LINE
  5
8605
  8
1
 10
2566.081816123567
 20
4473.9546524081479
 30
0.0
 11
2566.081816123567
 21
4399.6279914081479
 31
0.0
  0
LINE
  5
8606
  8
1
 10
2568.2179251235671
 20
4478.0532844081481
 30
0.0
 11
2584.1557911235668
 21
4489.1897594081474
 31
0.0
  0
ARC
  5
8607
  8
1
 10
2571.081816123567
 20
4473.9546524081479
 30
0.0
 40
5.0
 50
124.94366100000001
 51
180.0
  0
LINE
  5
8608
  8
1
 10
2998.5048411661769
 20
4399.6279914081479
 30
0.0
 11
2825.081816123567
 21
4399.6279914081479
 31
0.0
  0
LINE
  5
8609
  8
1
 10
3015.081816123567
 20
4339.6279914081479
 30
0.0
 11
2998.5048411661769
 21
4399.6279914081479
 31
0.0
  0
LINE
  5
860A
  8
1
 10
2495.081816123567
 20
4339.6279914081479
 30
0.0
 11
2511.262772668686
 21
4399.6279914081479
 31
0.0
  0
LINE
  5
860B
  8
1
 10
2825.081816123567
 20
4389.6279914081479
 30
0.0
 11
2685.081816123567
 21
4389.6279914081479
 31
0.0
  0
LINE
  5
860C
  8
1
 10
2825.081816123567
 20
4349.627991408147
 30
0.0
 11
2685.081816123567
 21
4349.627991408147
 31
0.0
  0
LINE
  5
860D
  8
1
 10
2685.081816123567
 20
4399.6279914081479
 30
0.0
 11
2685.081816123567
 21
4389.6279914081479
 31
0.0
  0
LINE
  5
860E
  8
1
 10
2825.081816123567
 20
4399.6279914081479
 30
0.0
 11
2825.081816123567
 21
4389.6279914081479
 31
0.0
  0
LINE
  5
860F
  8
1
 10
2825.081816123567
 20
4349.627991408147
 30
0.0
 11
2825.081816123567
 21
4339.6279914081479
 31
0.0
  0
LINE
  5
8610
  8
1
 10
2685.081816123567
 20
4349.627991408147
 30
0.0
 11
2685.081816123567
 21
4339.6279914081479
 31
0.0
  0
LINE
  5
8611
  8
1
 10
2685.081816123567
 20
4399.6279914081479
 30
0.0
 11
2511.262772668686
 21
4399.6279914081479
 31
0.0
  0
INSERT
  5
8612
  8
0
  2
YA_N
 10
-755.24367588184748
 20
-538.554984833856
 30
0.0
 41
30.0
 42
30.0
 43
30.0
  0
CIRCLE
  5
8614
  8
1
 10
3655.081816123567
 20
5299.627991408147
 30
0.0
 40
190.5
  0
LINE
  5
861A
  8
1
 10
2505.081816123567
 20
4339.6279914081479
 30
0.0
 11
2505.081816123567
 21
4189.6279914081479
 31
0.0
  0
LINE
  5
861F
  8
1
 10
4105.0818161235684
 20
4339.6279914081479
 30
0.0
 11
4105.0818161235684
 21
4189.6279914081479
 31
0.0
  0
ARC
  5
862C
  8
1
 10
3564.0818161235679
 20
5205.6279914081479
 30
0.0
 40
1008.0
 50
236.52693609577329
 51
239.21870158467399
  0
LINE
  5
862D
  8
1
 10
4405.0818161235666
 20
10676.006088529921
 30
0.0
 11
2905.081816123567
 21
10676.006088529921
 31
0.0
  0
LINE
  5
862E
  8
1
 10
4405.0818161235666
 20
9566.0060885299245
 30
0.0
 11
4105.0818161235684
 21
9566.0060885299245
 31
0.0
  0
LINE
  5
862F
  8
1
 10
4105.0818161235684
 20
8621.0060885299245
 30
0.0
 11
2505.081816123567
 21
8621.0060885299245
 31
0.0
  0
LINE
  5
8630
  8
1
 10
4405.0818161235666
 20
10676.006088529921
 30
0.0
 11
4405.0818161235684
 21
10596.00608852993
 31
0.0
  0
LINE
  5
8631
  8
1
 10
2905.081816123567
 20
10676.006088529921
 30
0.0
 11
2905.081816123567
 21
10649.006088529921
 31
0.0
  0
LINE
  5
8632
  8
1
 10
2505.081816123567
 20
9593.0060885299226
 30
0.0
 11
2505.081816123567
 21
8621.0060885299226
 31
0.0
  0
LINE
  5
8634
  8
1
 10
4105.0818161235684
 20
9566.0060885299245
 30
0.0
 11
4105.0818161235684
 21
8621.0060885299245
 31
0.0
  0
POINT
  5
8635
  8
1
 10
2905.081816123567
 20
10676.006088529921
 30
0.0
  0
POINT
  5
8637
  8
1
 10
4105.0818161235684
 20
8621.0060885299245
 30
0.0
  0
POINT
  5
8638
  8
1
 10
4405.0818161235666
 20
9566.0060885299245
 30
0.0
  0
LINE
  5
8640
  8
1
 10
7194.0697441730026
 20
4339.6279914081479
 30
0.0
 11
7194.0697441730026
 21
4189.6279914081479
 31
0.0
  0
LINE
  5
8642
  8
1
 10
6249.0697441729999
 20
4339.6279914081524
 30
0.0
 11
8304.0697441730008
 21
4339.6279914081479
 31
0.0
  0
LINE
  5
8643
  8
1
 10
6322.0697441729999
 20
5184.6279914081479
 30
0.0
 11
6322.0697441729999
 21
4629.6279914081479
 31
0.0
  0
LINE
  5
8644
  8
1
 10
6322.0697441730008
 20
5184.6279914081479
 30
0.0
 11
7166.069744172999
 21
5184.6279914081479
 31
0.0
  0
LINE
  5
8645
  8
1
 10
7166.069744172999
 20
5184.6279914081479
 30
0.0
 11
7166.0697441729999
 21
4339.6279914081488
 31
0.0
  0
LINE
  5
8646
  8
1
 10
6284.0697441730008
 20
5337.1279914081479
 30
0.0
 11
6284.0697441729999
 21
5262.1279914081479
 31
0.0
  0
LINE
  5
8647
  8
1
 10
6264.0697441730008
 20
5332.1279914081479
 30
0.0
 11
6284.0697441730008
 21
5332.1279914081479
 31
0.0
  0
LINE
  5
8648
  8
1
 10
6264.0697441730008
 20
5267.1279914081479
 30
0.0
 11
6284.0697441729999
 21
5267.1279914081479
 31
0.0
  0
CIRCLE
  5
8649
  8
1
 10
2755.081816123567
 20
4599.627991408147
 30
0.0
 40
127.0
  0
LINE
  5
864A
  8
1
 10
6154.0697441730008
 20
5490.127991408147
 30
0.0
 11
6154.0697441730008
 21
4472.6279914081479
 31
0.0
  0
LINE
  5
864B
  8
1
 10
6154.0697441730008
 20
5490.127991408147
 30
0.0
 11
6264.0697441730008
 21
5490.127991408147
 31
0.0
  0
LINE
  5
864C
  8
1
 10
6154.0697441730008
 20
5109.1279914081479
 30
0.0
 11
6264.0697441730008
 21
5109.1279914081479
 31
0.0
  0
LINE
  5
864D
  8
1
 10
6154.0697441730008
 20
4726.6279914081479
 30
0.0
 11
6264.0697441730017
 21
4726.6279914081479
 31
0.0
  0
LINE
  5
864E
  8
1
 10
6154.0697441730008
 20
4472.6279914081479
 30
0.0
 11
6264.0697441730017
 21
4472.6279914081479
 31
0.0
  0
LINE
  5
864F
  8
1
 10
6264.0697441730008
 20
5490.127991408147
 30
0.0
 11
6264.0697441730017
 21
4472.6279914081479
 31
0.0
  0
LINE
  5
8650
  8
1
 10
6302.0697441729999
 20
5579.6279914081479
 30
0.0
 11
6302.0697441730026
 21
4379.6279914081479
 31
0.0
  0
LINE
  5
8651
  8
1
 10
6102.0697441729999
 20
5579.6279914081479
 30
0.0
 11
6102.0697441729999
 21
4379.6279914081479
 31
0.0
  0
LINE
  5
8652
  8
1
 10
6102.0697441729999
 20
5579.6279914081479
 30
0.0
 11
6302.0697441729999
 21
5579.6279914081479
 31
0.0
  0
LINE
  5
8653
  8
1
 10
6102.0697441729999
 20
4379.6279914081479
 30
0.0
 11
6302.0697441729999
 21
4379.6279914081479
 31
0.0
  0
LINE
  5
8654
  8
1
 10
8234.0697441730026
 20
5974.6279914081479
 30
0.0
 11
8234.0697441730026
 21
4624.627991408146
 31
0.0
  0
POINT
  5
8655
  8
1
 10
6102.0697441729999
 20
5579.6279914081479
 30
0.0
  0
POINT
  5
8656
  8
1
 10
8234.0697441730026
 20
5974.6279914081479
 30
0.0
  0
LINE
  5
8662
  8
1
 10
6284.0697441730008
 20
5337.1279914081479
 30
0.0
 11
7274.0697441730008
 21
5337.1279914081524
 31
0.0
  0
LINE
  5
8663
  8
1
 10
6284.069744172999
 20
5262.1279914081479
 30
0.0
 11
7274.0697441730008
 21
5262.1279914081479
 31
0.0
  0
LINE
  5
8664
  8
1
 10
3617.581816123567
 20
8656.0060885299226
 30
0.0
 11
3617.5818161235661
 21
9593.0060885299226
 31
0.0
  0
LINE
  5
8665
  8
1
 10
3692.581816123567
 20
8656.0060885299263
 30
0.0
 11
3692.5818161235729
 21
9646.0060885299245
 31
0.0
  0
LINE
  5
8666
  8
1
 10
3935.081816123567
 20
8474.0060885299226
 30
0.0
 11
2535.081816123567
 21
8474.0060885299226
 31
0.0
  0
LINE
  5
8667
  8
1
 10
3935.081816123567
 20
8674.0060885299245
 30
0.0
 11
2535.081816123567
 21
8674.0060885299245
 31
0.0
  0
LINE
  5
8668
  8
1
 10
3845.581816123567
 20
8636.0060885299245
 30
0.0
 11
2628.081816123567
 21
8636.0060885299245
 31
0.0
  0
LINE
  5
8669
  8
1
 10
3845.581816123567
 20
8526.0060885299226
 30
0.0
 11
2628.081816123567
 21
8526.0060885299226
 31
0.0
  0
LINE
  5
866A
  8
1
 10
3910.081816123567
 20
8694.0060885299245
 30
0.0
 11
3692.581816123567
 21
8694.0060885299245
 31
0.0
  0
LINE
  5
866B
  8
1
 10
2535.081816123567
 20
8474.0060885299226
 30
0.0
 11
2535.081816123567
 21
8674.0060885299245
 31
0.0
  0
LINE
  5
866C
  8
1
 10
2628.081816123567
 20
8526.0060885299226
 30
0.0
 11
2628.081816123567
 21
8636.0060885299245
 31
0.0
  0
LINE
  5
866D
  8
1
 10
2882.081816123567
 20
8526.0060885299226
 30
0.0
 11
2882.081816123567
 21
8636.0060885299245
 31
0.0
  0
LINE
  5
866E
  8
1
 10
3464.581816123567
 20
8526.0060885299226
 30
0.0
 11
3464.581816123567
 21
8636.0060885299245
 31
0.0
  0
LINE
  5
866F
  8
1
 10
3935.081816123567
 20
8474.0060885299226
 30
0.0
 11
3935.081816123567
 21
8674.0060885299245
 31
0.0
  0
POINT
  5
8670
  8
1
 10
3935.081816123567
 20
8474.0060885299226
 30
0.0
  0
LINE
  5
8671
  8
1
 10
3622.581816123567
 20
8636.0060885299245
 30
0.0
 11
3622.581816123567
 21
8656.0060885299263
 31
0.0
  0
LINE
  5
8672
  8
1
 10
3687.5818161235679
 20
8636.0060885299245
 30
0.0
 11
3687.5818161235679
 21
8656.0060885299263
 31
0.0
  0
LINE
  5
8673
  8
1
 10
3692.581816123567
 20
8656.0060885299263
 30
0.0
 11
3617.581816123567
 21
8656.0060885299263
 31
0.0
  0
LINE
  5
8674
  8
1
 10
3845.581816123567
 20
8526.0060885299226
 30
0.0
 11
3845.581816123567
 21
8636.0060885299245
 31
0.0
  0
LINE
  5
8675
  8
1
 10
3910.081816123567
 20
9538.0060885299226
 30
0.0
 11
3692.5818161235711
 21
9538.0060885299245
 31
0.0
  0
LINE
  5
8676
  8
1
 10
3654.0818161235679
 20
9593.0060885299226
 30
0.0
 11
2268.0818161235679
 21
9593.0060885299226
 31
0.0
  0
LINE
  5
8677
  8
1
 10
4552.0818161235666
 20
9646.0060885299226
 30
0.0
 11
3654.0818161235679
 21
9646.0060885299245
 31
0.0
  0
LINE
  5
8678
  8
1
 10
3654.0818161235679
 20
10649.006088529921
 30
0.0
 11
2268.0818161235679
 21
10649.006088529921
 31
0.0
  0
LINE
  5
8679
  8
1
 10
4552.0818161235684
 20
10596.006088529921
 30
0.0
 11
3654.081816123567
 21
10596.006088529921
 31
0.0
  0
LINE
  5
867F
  8
2
 10
2755.081816123567
 20
8488.3483566485902
 30
0.0
 11
2755.081816123567
 21
9473.7156867083668
 31
0.0
  0
LINE
  5
8680
  8
1
 10
2958.581816123567
 20
9380.5060885299245
 30
0.0
 11
2551.581816123567
 21
9380.5060885299245
 31
0.0
  0
LINE
  5
8681
  8
1
 10
2551.581816123567
 20
8731.0060885299245
 30
0.0
 11
2755.081816123567
 21
8731.0060885299245
 31
0.0
  0
LINE
  5
8683
  8
1
 10
2725.081816123567
 20
8721.0060885299226
 30
0.0
 11
2725.081816123567
 21
8581.0060885299245
 31
0.0
  0
LINE
  5
8684
  8
1
 10
2785.081816123567
 20
8721.0060885299226
 30
0.0
 11
2785.081816123567
 21
8581.0060885299245
 31
0.0
  0
LINE
  5
8685
  8
1
 10
2958.581816123567
 20
8731.0060885299245
 30
0.0
 11
2755.081816123567
 21
8731.0060885299245
 31
0.0
  0
LINE
  5
8686
  8
1
 10
2722.581816123567
 20
8721.0060885299226
 30
0.0
 11
2787.581816123567
 21
8721.0060885299226
 31
0.0
  0
LINE
  5
8687
  8
1
 10
2722.581816123567
 20
8721.0060885299226
 30
0.0
 11
2722.581816123567
 21
8731.0060885299245
 31
0.0
  0
LINE
  5
8688
  8
1
 10
2787.581816123567
 20
8721.0060885299226
 30
0.0
 11
2787.581816123567
 21
8731.0060885299245
 31
0.0
  0
LINE
  5
868A
  8
1
 10
2785.081816123567
 20
8581.0060885299245
 30
0.0
 11
2725.081816123567
 21
8581.0060885299245
 31
0.0
  0
LINE
  5
868B
  8
1
 10
2958.581816123567
 20
8731.0060885299245
 30
0.0
 11
2958.581816123567
 21
9380.5060885299245
 31
0.0
  0
LINE
  5
868C
  8
1
 10
2551.581816123567
 20
8731.0060885299245
 30
0.0
 11
2551.581816123567
 21
9380.5060885299245
 31
0.0
  0
DIMENSION
  5
8699
  8
3
  2
*D2
 10
4405.0818161235666
 20
10912.345546157891
 30
0.0
 11
3579.4626159319519
 21
10912.345546157891
 31
0.0
 70
   128
 13
2905.081816123567
 23
10676.006088529921
 33
0.0
 14
4405.0818161235666
 24
10676.006088529921
 34
0.0
1001
ACAD
1000
DSTYLE
1002
{
1070
   287
1070
     3
1070
    40
1040
50.0
1070
   143
1040
0.039
1070
   172
1070
     1
1070
   271
1070
     0
1070
   279
1070
     0
1070
   288
1070
     1
1002
}
  0
DIMENSION
  5
86B1
  8
3
  2
*D3
 10
4860.2542064469244
 20
9566.0060885299245
 30
0.0
 11
4860.2542064469226
 21
10098.95487750085
 31
0.0
 70
   128
 13
4405.0818161235666
 23
10676.006088529921
 33
0.0
 14
4405.0818161235666
 24
9566.0060885299245
 34
0.0
 50
90.0
1001
ACAD
1000
DSTYLE
1002
{
1070
   287
1070
     3
1070
    40
1040
50.0
1070
   143
1040
0.039
1070
   172
1070
     1
1070
   271
1070
     0
1070
   279
1070
     0
1070
   288
1070
     1
1002
}
  0
DIMENSION
  5
86BD
  8
3
  2
*D4
 10
4860.2542064469226
 20
8621.0060885299245
 30
0.0
 11
4735.2542064469217
 21
9093.5060885299263
 31
0.0
 70
     0
 13
4405.0818161235666
 23
9566.0060885299245
 33
0.0
 14
4105.0818161235684
 24
8621.0060885299245
 34
0.0
 50
90.0
1001
ACAD
1000
DSTYLE
1002
{
1070
   287
1070
     4
1070
    40
1040
50.0
1070
    75
1070
     1
1070
   143
1040
0.039
1070
   172
1070
     1
1070
   271
1070
     0
1070
   279
1070
     1
1070
   288
1070
     1
1002
}
  0
DIMENSION
  5
86CA
  8
3
  2
*D5
 10
2505.081816123567
 20
8081.7460686846171
 30
0.0
 11
3286.400135358097
 21
8081.7460686846171
 31
0.0
 70
   128
 13
4105.0818161235684
 23
8621.0060885299245
 33
0.0
 14
2505.081816123567
 24
8621.0060885299245
 34
0.0
1001
ACAD
1000
DSTYLE
1002
{
1070
   287
1070
     3
1070
    40
1040
50.0
1070
   143
1040
0.039
1070
   172
1070
     1
1070
   271
1070
     0
1070
   279
1070
     0
1070
   288
1070
     1
1002
}
  0
DIMENSION
  5
87CB
  8
3
  2
*D6
 10
3655.081816123567
 20
3850.638338032295
 30
0.0
 11
3078.1609798989662
 21
3850.638338032295
 31
0.0
 70
   128
 13
2505.081816123567
 23
4189.6279914081479
 33
0.0
 14
3655.081816123567
 24
4189.6279914081479
 34
0.0
1001
ACAD
1000
DSTYLE
1002
{
1070
   287
1070
     3
1070
    40
1040
50.0
1070
   143
1040
0.039
1070
   172
1070
     1
1070
   271
1070
     0
1070
   279
1070
     0
1070
   288
1070
     1
1002
}
  0
DIMENSION
  5
87D7
  8
3
  2
*D7
 10
4405.0818161235666
 20
3850.638338032295
 30
0.0
 11
4030.081816123567
 21
3975.638338032295
 31
0.0
 70
     0
 13
3655.081816123567
 23
4189.6279914081479
 33
0.0
 14
4405.0818161235666
 24
4189.6279914081479
 34
0.0
1001
ACAD
1000
DSTYLE
1002
{
1070
   287
1070
     4
1070
    40
1040
50.0
1070
    75
1070
     1
1070
   143
1040
0.039
1070
   172
1070
     1
1070
   271
1070
     0
1070
   279
1070
     1
1070
   288
1070
     1
1002
}
  0
DIMENSION
  5
87E4
  8
3
  2
*D8
 10
7749.0697441730017
 20
3850.638338032295
 30
0.0
 11
7072.8959754724119
 21
3850.638338032295
 31
0.0
 70
   128
 13
6249.0697441729999
 23
4189.6279914081479
 33
0.0
 14
7749.0697441730017
 24
4189.6279914081479
 34
0.0
1001
ACAD
1000
DSTYLE
1002
{
1070
   287
1070
     3
1070
    40
1040
50.0
1070
   143
1040
0.039
1070
   172
1070
     1
1070
   271
1070
     0
1070
   279
1070
     0
1070
   288
1070
     1
1002
}
  0
DIMENSION
  5
87F2
  8
3
  2
*D9
 10
8304.0697441730008
 20
3850.638338032295
 30
0.0
 11
8042.9367825009622
 21
3972.747357576372
 31
0.0
 12
0.0
 22
10.0
 32
0.0
 70
   128
 13
7749.0697441730017
 23
4189.6279914081479
 33
0.0
 14
8304.0697441730008
 24
4189.6279914081479
 34
0.0
1001
ACAD
1000
DSTYLE
1002
{
1070
   288
1070
     1
1070
   172
1070
     1
1070
    75
1070
     1
1070
    40
1040
50.0
1070
   271
1070
     0
1070
   143
1040
0.039
1002
}
  0
DIMENSION
  5
8822
  8
3
  2
*D10
 10
8666.1480083497336
 20
4674.627991408147
 30
0.0
 11
8666.1480083497281
 21
5319.6254043207673
 31
0.0
 70
   128
 13
8234.0697441730026
 23
5924.627991408147
 33
0.0
 14
8234.0697441730026
 24
4674.627991408147
 34
0.0
 50
90.0
1001
ACAD
1000
DSTYLE
1002
{
1070
   287
1070
     3
1070
     3
1000
φ<>
1070
    40
1040
50.0
1070
   143
1040
0.039
1070
   172
1070
     1
1070
   271
1070
     0
1070
   279
1070
     0
1070
   288
1070
     1
1002
}
  0
LINE
  5
892C
  8
4
 10
9250.0
 20
2500.0
 30
0.0
 11
9250.0
 21
1500.0
 31
0.0
  0
LINE
  5
892D
  8
4
 10
5750.0
 20
2500.0
 30
0.0
 11
5750.0
 21
1500.0
 31
0.0
  0
LINE
  5
892E
  8
4
 10
3250.0
 20
2500.0
 30
0.0
 11
3250.0
 21
1500.0
 31
0.0
  0
LINE
  5
8931
  8
4
 10
3250.0
 20
1500.0
 30
0.0
 11
9250.0
 21
1500.0
 31
0.0
  0
LINE
  5
8932
  8
4
 10
3250.0
 20
2000.0
 30
0.0
 11
9250.0
 21
2000.0
 31
0.0
  0
TEXT
  5
8933
  8
4
 10
3442.5104042345079
 20
2157.7151293330639
 30
0.0
 40
250.0
  1
機器名称
  0
TEXT
  5
8934
  8
4
 10
3431.2905301239871
 20
1608.225783660054
 30
0.0
 40
250.0
  1
機器型番
  0
TEXT
  5
8935
  8
4
 10
5891.5410279524913
 20
2109.1617211884191
 30
0.0
 40
212.5
  1
ミツヤリミットロードファン
  0
TEXT
  5
8936
  8
4
 10
5933.2724779274031
 20
1585.797921399716
 30
0.0
 40
250.0
  1
LL#8-1
  0
TEXT
  5
8938
  8
4
 10
4087.177885253594
 20
11917.14420666257
 30
0.0
 40
270.0
  1
床置ベット
  0
TEXT
  5
8939
  8
4
 10
1464.3710723791439
 20
12669.40488099649
 30
0.0
 40
360.0
  1
遠心式片吸込片持リミットロードファン
  0
LINE
  5
893A
  8
4
 10
1250.0
 20
12347.043771324021
 30
0.0
 11
9250.0
 21
12347.043771324021
 31
0.0
  0
LINE
  5
893B
  8
4
 10
1250.0
 20
13347.043771324021
 30
0.0
 11
9250.0
 21
13347.043771324021
 31
0.0
  0
LINE
  5
893C
  8
4
 10
3250.0
 20
2500.0
 30
0.0
 11
9250.0
 21
2500.0
 31
0.0
  0
LINE
  5
893D
  8
4
 10
1250.0
 20
13347.043771324021
 30
0.0
 11
1250.0
 21
12347.043771324021
 31
0.0
  0
TEXT
  5
893E
  8
4
 10
1907.8837240400819
 20
11911.59738773171
 30
0.0
 40
270.0
  1
右回転上向
  0
TEXT
  5
893F
  8
4
 10
7344.8477962464494
 20
13530.30540747654
 30
0.0
 40
280.0
  1
No.
  0
TEXT
  5
8940
  8
4
 10
6556.4803130000646
 20
11917.14420666257
 30
0.0
 40
270.0
  1
縮尺：1/50
  0
LINE
  5
8941
  8
4
 10
9250.0
 20
13347.043771324021
 30
0.0
 11
9250.0
 21
12347.043771324021
 31
0.0
  0
LINE
  5
8942
  8
4
 10
10500.0
 20
14750.0
 30
0.0
 11
10500.0
 21
14750.0
 31
0.0
  0
LINE
  5
8943
  8
4
 10
7203.0871117993229
 20
13406.317915627
 30
0.0
 11
7203.0871117993229
 21
13933.26130774876
 31
0.0
  0
LINE
  5
8944
  8
4
 10
7203.0871117993229
 20
13933.26130774876
 30
0.0
 11
9250.0
 21
13933.26130774876
 31
0.0
  0
LINE
  5
8945
  8
4
 10
9250.0
 20
13933.26130774876
 30
0.0
 11
9250.0
 21
13406.317915627
 31
0.0
  0
LINE
  5
8946
  8
4
 10
9250.0
 20
13406.317915627
 30
0.0
 11
7203.0871117993229
 21
13406.317915627
 31
0.0
  0
LINE
  5
8947
  8
4
 10
0.0
 20
0.0
 30
0.0
 11
0.0
 21
14750.0
 31
0.0
  0
LINE
  5
8948
  8
4
 10
0.0
 20
14750.0
 30
0.0
 11
10500.0
 21
14750.0
 31
0.0
  0
LINE
  5
8949
  8
4
 10
10500.0
 20
14750.0
 30
0.0
 11
10500.0
 21
0.0
 31
0.0
  0
LINE
  5
894A
  8
4
 10
10500.0
 20
0.0
 30
0.0
 11
0.0
 21
0.0
 31
0.0
  0
LINE
  5
897A
  8
1
 10
6209.0697441729999
 20
4569.6279914081479
 30
0.0
 11
6209.0697441729999
 21
4629.6279914081479
 31
0.0
  0
LINE
  5
897C
  8
1
 10
6359.0697441730008
 20
4396.1279914081479
 30
0.0
 11
6359.0697441730008
 21
4599.627991408147
 31
0.0
  0
LINE
  5
897D
  8
1
 10
7008.5697441730008
 20
4396.1279914081479
 30
0.0
 11
7008.5697441730008
 21
4803.1279914081479
 31
0.0
  0
LINE
  5
897F
  8
2
 10
6116.4120122916656
 20
4599.627991408147
 30
0.0
 11
7101.7793423514431
 21
4599.627991408147
 31
0.0
  0
LINE
  5
8982
  8
1
 10
6359.0697441730008
 20
4803.1279914081479
 30
0.0
 11
7008.5697441730008
 21
4803.1279914081479
 31
0.0
  0
LINE
  5
8984
  8
1
 10
6359.0697441730008
 20
4803.1279914081479
 30
0.0
 11
6359.0697441730008
 21
4599.627991408147
 31
0.0
  0
LINE
  5
8985
  8
1
 10
6349.0697441729999
 20
4567.1279914081479
 30
0.0
 11
6359.0697441730008
 21
4567.1279914081479
 31
0.0
  0
LINE
  5
8986
  8
1
 10
6349.0697441729999
 20
4632.1279914081479
 30
0.0
 11
6359.0697441730008
 21
4632.1279914081479
 31
0.0
  0
LINE
  5
8987
  8
1
 10
6349.0697441729999
 20
4632.1279914081479
 30
0.0
 11
6349.0697441729999
 21
4567.1279914081479
 31
0.0
  0
LINE
  5
8988
  8
1
 10
6349.0697441729999
 20
4569.6279914081479
 30
0.0
 11
6209.0697441729999
 21
4569.6279914081479
 31
0.0
  0
LINE
  5
8989
  8
1
 10
6349.0697441729999
 20
4629.6279914081479
 30
0.0
 11
6209.0697441729999
 21
4629.6279914081479
 31
0.0
  0
LINE
  5
898C
  8
1
 10
6359.0697441730008
 20
4396.1279914081479
 30
0.0
 11
7008.5697441730008
 21
4396.1279914081479
 31
0.0
  0
LINE
  5
8A5B
  8
1
 10
6439.9788897054614
 20
4396.1279914081479
 30
0.0
 11
6439.9788897054586
 21
4339.6279914081479
 31
0.0
  0
LINE
  5
8A5C
  8
1
 10
6869.0411496808947
 20
4396.1279914081479
 30
0.0
 11
6869.0411496808947
 21
4339.6279914081479
 31
0.0
  0
LINE
  5
8ADC
  8
1
 10
8277.0697441730008
 20
5300.6279914081479
 30
0.0
 11
8234.0697441730026
 21
5300.6279914081479
 31
0.0
  0
LINE
  5
8ADD
  8
1
 10
3910.3757643479621
 20
5184.6279914081488
 30
0.0
 11
3399.787867899171
 21
5184.6279914081479
 31
0.0
  0
LINE
  5
8AE1
  8
1
 10
3910.081816123567
 20
9538.0060885299226
 30
0.0
 11
3910.081816123567
 21
8694.0060885299226
 31
0.0
  0
LINE
  5
8AE2
  8
1
 10
3400.081816123567
 20
9538.0060885299245
 30
0.0
 11
3400.081816123567
 21
8694.0060885299245
 31
0.0
  0
LINE
  5
8AE3
  8
1
 10
3617.5818161235679
 20
9538.0060885299245
 30
0.0
 11
3400.081816123567
 21
9538.0060885299245
 31
0.0
  0
LINE
  5
8AE4
  8
1
 10
3617.581816123567
 20
8694.0060885299245
 30
0.0
 11
3400.081816123567
 21
8694.0060885299245
 31
0.0
  0
LINE
  5
8B35
  8
1
 10
3910.3757643479621
 20
5184.6279914081488
 30
0.0
 11
4105.0818161235684
 21
4339.6279914081479
 31
0.0
  0
LINE
  5
8B36
  8
1
 10
3399.7878678991742
 20
5184.6279914081488
 30
0.0
 11
3205.0818161235679
 21
4339.6279914081479
 31
0.0
  0
ARC
  5
8B37
  8
1
 10
2755.081816123567
 20
4599.627991408147
 30
0.0
 40
220.0
 50
130.89148034792871
 51
304.85848695426762
  0
ARC
  5
8B38
  8
1
 10
3655.0818161235679
 20
5299.627991408147
 30
0.0
 40
280.0
 50
304.85848695426762
 51
130.89148034792871
  0
LINE
  5
8B39
  8
1
 10
3471.7858601735311
 20
5511.2942204867668
 30
0.0
 11
2611.063565019967
 21
4765.937171398491
 31
0.0
  0
LINE
  5
8B3A
  8
1
 10
2880.8231441502439
 20
4419.1034268024187
 30
0.0
 11
3815.116233612066
 21
5069.8694546372208
 31
0.0
  0
LINE
  5
8B3B
  8
1
 10
3529.9329795668532
 20
5443.2525669810648
 30
0.0
 11
2671.6492584190919
 21
4695.3777084567591
 31
0.0
  0
LINE
  5
8B3C
  8
1
 10
2827.3481430588131
 20
4495.19342820569
 30
0.0
 11
3763.4813065264352
 21
5142.9761466044611
 31
0.0
  0
LINE
  5
8B3E
  8
1
 10
6322.0697441729999
 20
4569.6279914081479
 30
0.0
 11
6322.0697441730008
 21
4339.6279914081524
 31
0.0
  0
LINE
  5
8B3F
  8
1
 10
8277.0697441730008
 20
6124.627991408147
 30
0.0
 11
7221.0697441729999
 21
6124.627991408146
 31
0.0
  0
LINE
  5
8B40
  8
1
 10
8277.0697441730008
 20
6074.627991408147
 30
0.0
 11
7221.0697441729999
 21
6074.627991408147
 31
0.0
  0
DIMENSION
  5
8B4E
  8
3
  2
*D12
 10
8224.0697441730044
 20
6394.0302143632653
 30
0.0
 11
7749.0697441729999
 21
6519.0302143632653
 31
0.0
 70
     0
 13
7274.0697441730008
 23
6124.627991408147
 33
0.0
 14
8224.0697441730044
 24
6124.627991408146
 34
0.0
1001
ACAD
1000
DSTYLE
1002
{
1070
   287
1070
     4
1070
    40
1040
50.0
1070
   143
1040
0.039
1070
   172
1070
     1
1070
   271
1070
     0
1070
   279
1070
     1
1002
}
  0
LINE
  5
8B4F
  8
3
 10
7749.0697441730017
 20
6673.7934828142534
 30
0.0
 11
7749.0697441730017
 21
6635.9809297811244
 31
0.0
  0
DIMENSION
  5
8B5E
  8
3
  2
*D13
 10
8234.0697441730026
 20
6762.7003944480739
 30
0.0
 11
8576.9268870301457
 21
6887.7003944480739
 31
0.0
 70
     0
 13
7749.0697441730017
 23
6635.9809297811244
 33
0.0
 14
8234.0697441730026
 24
5974.6279914081479
 34
0.0
1001
ACAD
1000
DSTYLE
1002
{
1070
   287
1070
     3
1070
    40
1040
50.0
1070
   143
1040
0.039
1070
   172
1070
     1
1070
   271
1070
     0
1070
   279
1070
     0
1002
}
  0
DIMENSION
  5
8B6B
  8
3
  2
*D14
 10
6102.0697441729999
 20
6762.7003944480739
 30
0.0
 11
6925.5697441729999
 21
7012.7003944480739
 31
0.0
 70
     0
  1
MAX\P1680
 13
7749.0697441730017
 23
6635.9809297811244
 33
0.0
 14
6102.0697441729999
 24
5579.6279914081479
 34
0.0
1001
ACAD
1000
DSTYLE
1002
{
1070
   287
1070
     0
1070
    40
1040
50.0
1070
   143
1040
0.039
1070
   172
1070
     1
1070
   271
1070
     0
1070
   279
1070
     0
1070
   289
1070
     0
1002
}
  0
DIMENSION
  5
8BB7
  8
3
  2
*D15
 10
2321.081816123567
 20
6382.8404254236593
 30
0.0
 11
2961.081816123567
 21
6507.8404254236584
 31
0.0
 70
     0
 13
3601.0818161235679
 23
6124.627991408147
 33
0.0
 14
2321.081816123567
 24
6124.627991408147
 34
0.0
1001
ACAD
1000
DSTYLE
1002
{
1070
   287
1070
     0
1070
    40
1040
50.0
1070
   143
1040
0.039
1070
   172
1070
     1
1070
   271
1070
     0
1070
   279
1070
     0
1070
   289
1070
     0
1002
}
  0
DIMENSION
  5
8BC4
  8
3
  2
*D16
 10
2321.081816123567
 20
6761.6862598333391
 30
0.0
 11
2988.0818161235679
 21
6886.6862598333391
 31
0.0
 70
     0
 13
3655.0818161235661
 23
6221.9724721829116
 33
0.0
 14
2321.081816123567
 24
6124.627991408147
 34
0.0
1001
ACAD
1000
DSTYLE
1002
{
1070
   287
1070
     0
1070
    40
1040
50.0
1070
   143
1040
0.039
1070
   172
1070
     1
1070
   271
1070
     0
1070
   279
1070
     0
1070
   289
1070
     0
1002
}
  0
DIMENSION
  5
8BE2
  8
3
  2
*D17
 10
4552.0818161235666
 20
7071.5154429283148
 30
0.0
 11
3410.081816123567
 21
7196.5154429283148
 31
0.0
 70
     0
 13
2268.081816123567
 23
6124.627991408147
 33
0.0
 14
4552.0818161235666
 24
5222.627991408147
 34
0.0
1001
ACAD
1000
DSTYLE
1002
{
1070
   287
1070
     0
1070
    40
1040
50.0
1070
   143
1040
0.039
1070
   172
1070
     1
1070
   271
1070
     0
1070
   279
1070
     0
1070
   289
1070
     0
1002
}
  0
DIMENSION
  5
8BF0
  8
3
  2
*D18
 10
4867.0325440677807
 20
5299.627991408147
 30
0.0
 11
4742.0325440677798
 21
5712.1279914081488
 31
0.0
 70
     0
 13
3654.081816123567
 23
6124.627991408147
 33
0.0
 14
4626.5043384371238
 24
5299.627991408147
 34
0.0
 50
270.0
1001
ACAD
1000
DSTYLE
1002
{
1070
   287
1070
     0
1070
    40
1040
50.0
1070
   143
1040
0.039
1070
   172
1070
     1
1070
   271
1070
     0
1070
   279
1070
     0
1070
   289
1070
     0
1002
}
  0
DIMENSION
  5
8BFD
  8
3
  2
*D19
 10
4867.0325440677807
 20
4189.6279914081479
 30
0.0
 11
4742.0325440677798
 21
4744.6279914081479
 31
0.0
 70
     0
 13
4626.5043384371238
 23
5299.627991408147
 33
0.0
 14
4405.0818161235666
 24
4189.6279914081479
 34
0.0
 50
270.0
1001
ACAD
1000
DSTYLE
1002
{
1070
   287
1070
     0
1070
    40
1040
50.0
1070
   143
1040
0.039
1070
   172
1070
     1
1070
   271
1070
     0
1070
   279
1070
     0
1070
   289
1070
     0
1002
}
  0
DIMENSION
  5
8C0A
  8
3
  2
*D20
 10
5227.8369028830602
 20
4189.6279914081479
 30
0.0
 11
5102.8369028830593
 21
5157.1279914081488
 31
0.0
 70
     0
 13
3654.081816123567
 23
6124.627991408147
 33
0.0
 14
4405.0818161235666
 24
4189.6279914081479
 34
0.0
 50
270.0
1001
ACAD
1000
DSTYLE
1002
{
1070
   287
1070
     0
1070
    40
1040
50.0
1070
   143
1040
0.039
1070
   172
1070
     1
1070
   271
1070
     0
1070
   279
1070
     0
1070
   289
1070
     0
1002
}
  0
LINE
  5
8CB8
  8
1
 10
2268.0818161235679
 20
9593.0060885299226
 30
0.0
 11
2268.081816123567
 21
10649.006088529921
 31
0.0
  0
LINE
  5
8CBA
  8
1
 10
2321.081816123567
 20
9646.0060885299281
 30
0.0
 11
2321.081816123567
 21
10596.006088529921
 31
0.0
  0
LINE
  5
8CBB
  8
1
 10
3601.0818161235679
 20
9646.0060885299245
 30
0.0
 11
3601.0818161235679
 21
10596.006088529921
 31
0.0
  0
LINE
  5
8CBC
  8
1
 10
3654.0818161235688
 20
9593.0060885299226
 30
0.0
 11
3654.0818161235679
 21
10649.006088529921
 31
0.0
  0
LINE
  5
8CBD
  8
1
 10
4552.0818161235666
 20
9646.0060885299226
 30
0.0
 11
4552.0818161235666
 21
10596.006088529921
 31
0.0
  0
LINE
  5
8CBE
  8
1
 10
3601.081816123567
 20
10596.006088529921
 30
0.0
 11
2321.081816123567
 21
10596.006088529921
 31
0.0
  0
LINE
  5
8CBF
  8
1
 10
3601.0818161235679
 20
9646.0060885299281
 30
0.0
 11
2321.081816123567
 21
9646.0060885299245
 31
0.0
  0
LINE
  5
8CC0
  8
1
 10
4405.0818161235684
 20
9646.0060885299226
 30
0.0
 11
4405.0818161235666
 21
9566.0060885299245
 31
0.0
  0
LINE
  5
8CC2
  8
1
 10
2321.081816123567
 20
9646.0060885299281
 30
0.0
 11
3601.081816123567
 21
10596.006088529921
 31
0.0
  0
LINE
  5
8CC3
  8
1
 10
2321.081816123567
 20
10596.006088529921
 30
0.0
 11
3601.0818161235679
 21
9646.0060885299281
 31
0.0
  0
ENDSEC
  0
EOF
