  0
SECTION
  2
HEADER
  9
$ACADVER
  1
AC1027
  9
$ACADMAINTVER
 70
   125
  9
$DWGCODEPAGE
  3
ANSI_932
  9
$LASTSAVEDBY
  1
yasukiyo.ogawa
  9
$REQUIREDVERSIONS
160
                 0
  9
$INSBASE
 10
0.0
 20
0.0
 30
0.0
  9
$EXTMIN
 10
0.0
 20
0.0
 30
0.0
  9
$EXTMAX
 10
7350.0
 20
10325.0
 30
0.0
  9
$LIMMIN
 10
0.0
 20
0.0
  9
$LIMMAX
 10
297.0
 20
210.0
  9
$ORTHOMODE
 70
     1
  9
$REGENMODE
 70
     1
  9
$FILLMODE
 70
     0
  9
$QTEXTMODE
 70
     0
  9
$MIRRTEXT
 70
     1
  9
$LTSCALE
 40
100.0
  9
$ATTMODE
 70
     1
  9
$TEXTSIZE
 40
180.0
  9
$TRACEWID
 40
0.05
  9
$TEXTSTYLE
  7
STANDARD
  9
$CLAYER
  8
3
  9
$CELTYPE
  6
BYLAYER
  9
$CECOLOR
 62
   256
  9
$CELTSCALE
 40
1.0
  9
$DISPSILH
 70
     0
  9
$DIMSCALE
 40
35.0
  9
$DIMASZ
 40
2.0
  9
$DIMEXO
 40
0.5
  9
$DIMDLI
 40
10.0
  9
$DIMRND
 40
0.0
  9
$DIMDLE
 40
0.0
  9
$DIMEXE
 40
1.0
  9
$DIMTP
 40
1.0
  9
$DIMTM
 40
1.0
  9
$DIMTXT
 40
3.0
  9
$DIMCEN
 40
0.0
  9
$DIMTSZ
 40
0.0
  9
$DIMTOL
 70
     0
  9
$DIMLIM
 70
     0
  9
$DIMTIH
 70
     0
  9
$DIMTOH
 70
     0
  9
$DIMSE1
 70
     0
  9
$DIMSE2
 70
     0
  9
$DIMTAD
 70
     1
  9
$DIMZIN
 70
     8
  9
$DIMBLK
  1

  9
$DIMASO
 70
     1
  9
$DIMSHO
 70
     1
  9
$DIMPOST
  1
(<>)
  9
$DIMAPOST
  1

  9
$DIMALT
 70
     0
  9
$DIMALTD
 70
     2
  9
$DIMALTF
 40
0.039
  9
$DIMLFAC
 40
1.0
  9
$DIMTOFL
 70
     1
  9
$DIMTVP
 40
0.0
  9
$DIMTIX
 70
     0
  9
$DIMSOXD
 70
     0
  9
$DIMSAH
 70
     1
  9
$DIMBLK1
  1
OPEN
  9
$DIMBLK2
  1
OPEN
  9
$DIMSTYLE
  2
IGA
  9
$DIMCLRD
 70
     0
  9
$DIMCLRE
 70
     0
  9
$DIMCLRT
 70
     0
  9
$DIMTFAC
 40
10.0
  9
$DIMGAP
 40
1.0
  9
$DIMJUST
 70
     0
  9
$DIMSD1
 70
     0
  9
$DIMSD2
 70
     0
  9
$DIMTOLJ
 70
     1
  9
$DIMTZIN
 70
     8
  9
$DIMALTZ
 70
     0
  9
$DIMALTTZ
 70
     0
  9
$DIMUPT
 70
     0
  9
$DIMDEC
 70
     0
  9
$DIMTDEC
 70
     0
  9
$DIMALTU
 70
     2
  9
$DIMALTTD
 70
     2
  9
$DIMTXSTY
  7
STANDARD
  9
$DIMAUNIT
 70
     0
  9
$DIMADEC
 70
     0
  9
$DIMALTRND
 40
0.0
  9
$DIMAZIN
 70
     0
  9
$DIMDSEP
 70
    46
  9
$DIMATFIT
 70
     3
  9
$DIMFRAC
 70
     0
  9
$DIMLDRBLK
  1
OPEN
  9
$DIMLUNIT
 70
     2
  9
$DIMLWD
 70
    -2
  9
$DIMLWE
 70
    -2
  9
$DIMTMOVE
 70
     2
  9
$DIMFXL
 40
1.0
  9
$DIMFXLON
 70
     0
  9
$DIMJOGANG
 40
0.7853981633974483
  9
$DIMTFILL
 70
     0
  9
$DIMTFILLCLR
 70
     0
  9
$DIMARCSYM
 70
     0
  9
$DIMLTYPE
  6

  9
$DIMLTEX1
  6

  9
$DIMLTEX2
  6

  9
$DIMTXTDIRECTION
 70
     0
  9
$LUNITS
 70
     2
  9
$LUPREC
 70
     3
  9
$SKETCHINC
 40
0.1
  9
$FILLETRAD
 40
50.0
  9
$AUNITS
 70
     0
  9
$AUPREC
 70
     0
  9
$MENU
  1
acad
  9
$ELEVATION
 40
0.0
  9
$PELEVATION
 40
0.0
  9
$THICKNESS
 40
0.0
  9
$LIMCHECK
 70
     0
  9
$CHAMFERA
 40
0.5
  9
$CHAMFERB
 40
0.5
  9
$CHAMFERC
 40
20.0
  9
$CHAMFERD
 40
0.0
  9
$SKPOLY
 70
     0
  9
$TDCREATE
 40
2451382.640902778
  9
$TDUCREATE
 40
2451382.265913079
  9
$TDUPDATE
 40
2460241.754849537
  9
$TDUUPDATE
 40
2460241.379858715
  9
$TDINDWG
 40
0.0140998032
  9
$TDUSRTIMER
 40
0.0140998032
  9
$USRTIMER
 70
     1
  9
$ANGBASE
 50
0.0
  9
$ANGDIR
 70
     0
  9
$PDMODE
 70
     0
  9
$PDSIZE
 40
0.0
  9
$PLINEWID
 40
0.0
  9
$SPLFRAME
 70
     0
  9
$SPLINETYPE
 70
     6
  9
$SPLINESEGS
 70
     8
  9
$HANDSEED
  5
81E7
  9
$SURFTAB1
 70
     6
  9
$SURFTAB2
 70
     6
  9
$SURFTYPE
 70
     6
  9
$SURFU
 70
     6
  9
$SURFV
 70
     6
  9
$UCSBASE
  2

  9
$UCSNAME
  2

  9
$UCSORG
 10
0.0
 20
0.0
 30
0.0
  9
$UCSXDIR
 10
1.0
 20
0.0
 30
0.0
  9
$UCSYDIR
 10
0.0
 20
1.0
 30
0.0
  9
$UCSORTHOREF
  2

  9
$UCSORTHOVIEW
 70
     0
  9
$UCSORGTOP
 10
0.0
 20
0.0
 30
0.0
  9
$UCSORGBOTTOM
 10
0.0
 20
0.0
 30
0.0
  9
$UCSORGLEFT
 10
0.0
 20
0.0
 30
0.0
  9
$UCSORGRIGHT
 10
0.0
 20
0.0
 30
0.0
  9
$UCSORGFRONT
 10
0.0
 20
0.0
 30
0.0
  9
$UCSORGBACK
 10
0.0
 20
0.0
 30
0.0
  9
$PUCSBASE
  2

  9
$PUCSNAME
  2

  9
$PUCSORG
 10
0.0
 20
0.0
 30
0.0
  9
$PUCSXDIR
 10
1.0
 20
0.0
 30
0.0
  9
$PUCSYDIR
 10
0.0
 20
1.0
 30
0.0
  9
$PUCSORTHOREF
  2

  9
$PUCSORTHOVIEW
 70
     0
  9
$PUCSORGTOP
 10
0.0
 20
0.0
 30
0.0
  9
$PUCSORGBOTTOM
 10
0.0
 20
0.0
 30
0.0
  9
$PUCSORGLEFT
 10
0.0
 20
0.0
 30
0.0
  9
$PUCSORGRIGHT
 10
0.0
 20
0.0
 30
0.0
  9
$PUCSORGFRONT
 10
0.0
 20
0.0
 30
0.0
  9
$PUCSORGBACK
 10
0.0
 20
0.0
 30
0.0
  9
$USERI1
 70
     0
  9
$USERI2
 70
     0
  9
$USERI3
 70
     0
  9
$USERI4
 70
     0
  9
$USERI5
 70
     0
  9
$USERR1
 40
0.0
  9
$USERR2
 40
0.0
  9
$USERR3
 40
0.0
  9
$USERR4
 40
0.0
  9
$USERR5
 40
0.0
  9
$WORLDVIEW
 70
     1
  9
$SHADEDGE
 70
     3
  9
$SHADEDIF
 70
    70
  9
$TILEMODE
 70
     1
  9
$MAXACTVP
 70
    16
  9
$PINSBASE
 10
0.0
 20
0.0
 30
0.0
  9
$PLIMCHECK
 70
     0
  9
$PEXTMIN
 10
1.000000000000000E+20
 20
1.000000000000000E+20
 30
1.000000000000000E+20
  9
$PEXTMAX
 10
-1.000000000000000E+20
 20
-1.000000000000000E+20
 30
-1.000000000000000E+20
  9
$PLIMMIN
 10
0.0
 20
0.0
  9
$PLIMMAX
 10
12.0
 20
9.0
  9
$UNITMODE
 70
     0
  9
$VISRETAIN
 70
     0
  9
$PLINEGEN
 70
     0
  9
$PSLTSCALE
 70
     1
  9
$TREEDEPTH
 70
  3020
  9
$CMLSTYLE
  2
STANDARD
  9
$CMLJUST
 70
     0
  9
$CMLSCALE
 40
20.0
  9
$PROXYGRAPHICS
 70
     1
  9
$MEASUREMENT
 70
     1
  9
$CELWEIGHT
370
    -1
  9
$ENDCAPS
280
     0
  9
$JOINSTYLE
280
     0
  9
$LWDISPLAY
290
     0
  9
$INSUNITS
 70
     0
  9
$HYPERLINKBASE
  1

  9
$STYLESHEET
  1

  9
$XEDIT
290
     1
  9
$CEPSNTYPE
380
     0
  9
$PSTYLEMODE
290
     1
  9
$FINGERPRINTGUID
  2
{A83034A4-7F2B-4AD4-851A-8756B5479989}
  9
$VERSIONGUID
  2
{B3944AFD-A03E-4450-8E41-C02454020C6D}
  9
$EXTNAMES
290
     1
  9
$PSVPSCALE
 40
0.0
  9
$OLESTARTUP
290
     0
  9
$SORTENTS
280
   127
  9
$INDEXCTL
280
     0
  9
$HIDETEXT
280
     0
  9
$XCLIPFRAME
280
     2
  9
$HALOGAP
280
     0
  9
$OBSCOLOR
 70
   257
  9
$OBSLTYPE
280
     0
  9
$INTERSECTIONDISPLAY
280
     0
  9
$INTERSECTIONCOLOR
 70
   257
  9
$DIMASSOC
280
     1
  9
$PROJECTNAME
  1

  9
$CAMERADISPLAY
290
     0
  9
$LENSLENGTH
 40
50.0
  9
$CAMERAHEIGHT
 40
0.0
  9
$STEPSPERSEC
 40
2.0
  9
$STEPSIZE
 40
6.0
  9
$3DDWFPREC
 40
2.0
  9
$PSOLWIDTH
 40
0.25
  9
$PSOLHEIGHT
 40
4.0
  9
$LOFTANG1
 40
1.570796326794896
  9
$LOFTANG2
 40
1.570796326794896
  9
$LOFTMAG1
 40
0.0
  9
$LOFTMAG2
 40
0.0
  9
$LOFTPARAM
 70
     7
  9
$LOFTNORMALS
280
     1
  9
$LATITUDE
 40
37.795
  9
$LONGITUDE
 40
-122.394
  9
$NORTHDIRECTION
 40
0.0
  9
$TIMEZONE
 70
 -8000
  9
$LIGHTGLYPHDISPLAY
280
     1
  9
$TILEMODELIGHTSYNCH
280
     1
  9
$CMATERIAL
347
80E7
  9
$SOLIDHIST
280
     0
  9
$SHOWHIST
280
     1
  9
$DWFFRAME
280
     2
  9
$DGNFRAME
280
     0
  9
$REALWORLDSCALE
290
     1
  9
$INTERFERECOLOR
 62
     1
  9
$INTERFEREOBJVS
345
8109
  9
$INTERFEREVPVS
346
8106
  9
$CSHADOW
280
     0
  9
$SHADOWPLANELOCATION
 40
0.0
  0
ENDSEC
  0
SECTION
  2
CLASSES
  0
CLASS
  1
ACDBDICTIONARYWDFLT
  2
AcDbDictionaryWithDefault
  3
ObjectDBX Classes
 90
        0
 91
        1
280
     0
281
     0
  0
CLASS
  1
DICTIONARYVAR
  2
AcDbDictionaryVar
  3
ObjectDBX Classes
 90
        0
 91
       11
280
     0
281
     0
  0
CLASS
  1
MATERIAL
  2
AcDbMaterial
  3
ObjectDBX Classes
 90
     1153
 91
        3
280
     0
281
     0
  0
CLASS
  1
VISUALSTYLE
  2
AcDbVisualStyle
  3
ObjectDBX Classes
 90
     4095
 91
       24
280
     0
281
     0
  0
CLASS
  1
TABLESTYLE
  2
AcDbTableStyle
  3
ObjectDBX Classes
 90
     4095
 91
        1
280
     0
281
     0
  0
CLASS
  1
SCALE
  2
AcDbScale
  3
ObjectDBX Classes
 90
     1153
 91
       17
280
     0
281
     0
  0
CLASS
  1
MLEADERSTYLE
  2
AcDbMLeaderStyle
  3
ACDB_MLEADERSTYLE_CLASS
 90
     4095
 91
        1
280
     0
281
     0
  0
CLASS
  1
ACDBSECTIONVIEWSTYLE
  2
AcDbSectionViewStyle
  3
ObjectDBX Classes
 90
     1025
 91
        1
280
     0
281
     0
  0
CLASS
  1
ACDBDETAILVIEWSTYLE
  2
AcDbDetailViewStyle
  3
ObjectDBX Classes
 90
     1025
 91
        1
280
     0
281
     0
  0
CLASS
  1
CELLSTYLEMAP
  2
AcDbCellStyleMap
  3
ObjectDBX Classes
 90
     1152
 91
        1
280
     0
281
     0
  0
ENDSEC
  0
SECTION
  2
TABLES
  0
TABLE
  2
VPORT
  5
8
330
0
100
AcDbSymbolTable
 70
     1
1001
ACAD
1000
DbSaveVer
1071
      278
  0
VPORT
  5
80E4
330
8
100
AcDbSymbolTableRecord
100
AcDbViewportTableRecord
  2
*Active
 70
     0
 10
0.0
 20
0.0
 11
1.0
 21
1.0
 12
6224.610977130685
 22
5162.500024039763
 13
0.0
 23
0.0
 14
10.0
 24
10.0
 15
10.0
 25
10.0
 16
0.0
 26
0.0
 36
1.0
 17
0.0
 27
0.0
 37
0.0
 40
10391.74948481712
 41
2.250314465408805
 42
50.0
 43
0.0
 44
0.0
 50
0.0
 51
0.0
 71
     0
 72
   100
 73
     1
 74
     0
 75
     0
 76
     0
 77
     0
 78
     0
281
     0
 65
     1
110
0.0
120
0.0
130
0.0
111
1.0
121
0.0
131
0.0
112
0.0
122
1.0
132
0.0
 79
     0
146
0.0
348
8105
 60
     3
 61
     5
292
     1
282
     1
141
0.0
142
0.0
 63
   250
421
  3355443
1001
ACAD_NAV_VCDISPLAY
1070
     3
  0
ENDTAB
  0
TABLE
  2
LTYPE
  5
5
330
0
100
AcDbSymbolTable
 70
     2
  0
LTYPE
  5
13
330
5
100
AcDbSymbolTableRecord
100
AcDbLinetypeTableRecord
  2
BYBLOCK
 70
     0
  3

 72
    65
 73
     0
 40
0.0
  0
LTYPE
  5
14
330
5
100
AcDbSymbolTableRecord
100
AcDbLinetypeTableRecord
  2
BYLAYER
 70
     0
  3

 72
    65
 73
     0
 40
0.0
  0
LTYPE
  5
15
330
5
100
AcDbSymbolTableRecord
100
AcDbLinetypeTableRecord
  2
CONTINUOUS
 70
     0
  3
Solid line
 72
    65
 73
     0
 40
0.0
  0
LTYPE
  5
1F
330
5
100
AcDbSymbolTableRecord
100
AcDbLinetypeTableRecord
  2
CENTER
 70
     0
  3
____ _ ____ _ ____ _ ____ _ ____ _ ____ _ ____ 
 72
    65
 73
     4
 40
2.0
 49
1.25
 74
     0
 49
-0.25
 74
     0
 49
0.25
 74
     0
 49
-0.25
 74
     0
  0
ENDTAB
  0
TABLE
  2
LAYER
  5
2
102
{ACAD_XDICTIONARY
360
81BE
102
}
330
0
100
AcDbSymbolTable
 70
     6
  0
LAYER
  5
F
102
{ACAD_XDICTIONARY
360
81B1
102
}
330
2
100
AcDbSymbolTableRecord
100
AcDbLayerTableRecord
  2
0
 70
     0
 62
     7
  6
CONTINUOUS
370
    -3
390
8087
347
80F7
348
0
  0
LAYER
  5
31
102
{ACAD_XDICTIONARY
360
81B3
102
}
330
2
100
AcDbSymbolTableRecord
100
AcDbLayerTableRecord
  2
3
 70
     0
 62
     2
  6
CONTINUOUS
370
    -3
390
8087
347
80F7
348
0
  0
LAYER
  5
76D0
102
{ACAD_XDICTIONARY
360
81B5
102
}
330
2
100
AcDbSymbolTableRecord
100
AcDbLayerTableRecord
  2
2
 70
     0
 62
     3
  6
CENTER
370
    -3
390
8087
347
80F7
348
0
  0
LAYER
  5
76D1
102
{ACAD_XDICTIONARY
360
81B7
102
}
330
2
100
AcDbSymbolTableRecord
100
AcDbLayerTableRecord
  2
1
 70
     0
 62
     4
  6
CONTINUOUS
370
    -3
390
8087
347
80F7
348
0
  0
LAYER
  5
76D2
102
{ACAD_XDICTIONARY
360
81B9
102
}
330
2
100
AcDbSymbolTableRecord
100
AcDbLayerTableRecord
  2
4
 70
     0
 62
     7
  6
CONTINUOUS
370
    -3
390
8087
347
80F7
348
0
  0
LAYER
  5
7B39
330
2
100
AcDbSymbolTableRecord
100
AcDbLayerTableRecord
  2
DEFPOINTS
 70
     0
 62
     7
  6
CONTINUOUS
290
     0
370
    -3
390
8087
347
80F7
348
0
  0
ENDTAB
  0
TABLE
  2
STYLE
  5
3
330
0
100
AcDbSymbolTable
 70
     1
  0
STYLE
  5
10
330
3
100
AcDbSymbolTableRecord
100
AcDbTextStyleTableRecord
  2
STANDARD
 70
     0
 40
0.0
 41
1.0
 50
0.0
 71
     0
 42
180.0
  3
simplex.shx
  4
extfont.shx
  0
ENDTAB
  0
TABLE
  2
VIEW
  5
6
330
0
100
AcDbSymbolTable
 70
     0
  0
ENDTAB
  0
TABLE
  2
UCS
  5
7
330
0
100
AcDbSymbolTable
 70
     0
  0
ENDTAB
  0
TABLE
  2
APPID
  5
9
330
0
100
AcDbSymbolTable
 70
     4
  0
APPID
  5
11
330
9
100
AcDbSymbolTableRecord
100
AcDbRegAppTableRecord
  2
ACAD
 70
     0
  0
APPID
  5
8136
330
9
100
AcDbSymbolTableRecord
100
AcDbRegAppTableRecord
  2
AcadAnnoMonitorAlertIconDisabled
 70
     0
  0
APPID
  5
8137
330
9
100
AcDbSymbolTableRecord
100
AcDbRegAppTableRecord
  2
ACAD_EXEMPT_FROM_CAD_STANDARDS
 70
     0
  0
APPID
  5
81C4
330
9
100
AcDbSymbolTableRecord
100
AcDbRegAppTableRecord
  2
ACAD_NAV_VCDISPLAY
 70
     0
  0
ENDTAB
  0
TABLE
  2
DIMSTYLE
  5
A
330
0
100
AcDbSymbolTable
 70
     2
100
AcDbDimStyleTable
 71
     1
340
1D
  0
DIMSTYLE
105
1D
102
{ACAD_REACTORS
330
7CDA
330
8059
330
8066
102
}
330
A
100
AcDbSymbolTableRecord
100
AcDbDimStyleTableRecord
  2
IGA
 70
     0
 40
2.0
 41
2.0
 42
0.5
 43
10.0
 44
1.0
 47
1.0
 48
1.0
 73
     0
 74
     0
 77
     1
 78
     8
140
3.0
141
0.0
143
0.03937
146
10.0
147
1.0
173
     1
271
     1
272
     0
279
     2
284
     8
340
10
341
79FC
343
79FC
344
79FC
  0
DIMSTYLE
105
7B3B
102
{ACAD_REACTORS
330
7C42
330
7C43
330
7C44
330
7C79
330
7C81
330
7C95
330
7C96
330
7C97
330
7CA2
330
7CA3
330
7CA4
330
7CA5
330
7CA6
330
7CB0
330
7CB1
330
7CB6
330
7CDC
330
7CDD
330
7CDE
102
}
330
A
100
AcDbSymbolTableRecord
100
AcDbDimStyleTableRecord
  2
MATSU
 70
     0
 41
2.0
 42
1.0
 43
10.0
 44
1.0
 73
     0
 74
     0
 77
     1
 78
     8
140
3.0
141
0.0
143
0.03937
147
0.5
172
     1
173
     1
176
   256
177
   256
178
   256
284
     8
289
     0
340
10
341
79FC
343
79FC
344
79FC
  0
ENDTAB
  0
TABLE
  2
BLOCK_RECORD
  5
1
330
0
100
AcDbSymbolTable
 70
    26
  0
BLOCK_RECORD
  5
19
102
{ACAD_XDICTIONARY
360
80B5
102
}
330
1
100
AcDbSymbolTableRecord
100
AcDbBlockTableRecord
  2
*MODEL_SPACE
340
808A
 70
     0
280
     1
281
     0
  0
BLOCK_RECORD
  5
16
102
{ACAD_XDICTIONARY
360
80B3
102
}
330
1
100
AcDbSymbolTableRecord
100
AcDbBlockTableRecord
  2
*PAPER_SPACE
340
808B
 70
     0
280
     1
281
     0
  0
BLOCK_RECORD
  5
79FC
330
1
100
AcDbSymbolTableRecord
100
AcDbBlockTableRecord
  2
_OPEN
340
0
102
{BLKREFS
331
7E2E
331
7E2F
331
7E65
331
7E66
331
7E70
331
7E71
331
7E7B
331
7E7C
331
7E91
331
7E92
331
7E9C
331
7E9D
331
8172
331
8173
331
817B
331
817C
331
8184
331
8185
331
818D
331
818E
331
8199
331
81A6
331
81A7
331
8160
331
8161
331
8169
331
816A
331
8010
331
8011
331
80CA
331
80CB
331
80D2
331
80D3
331
7E0D
331
7E0E
331
7E18
331
7E19
331
7EC8
331
7EC9
331
7F00
331
7F01
102
}
 70
     0
280
     1
281
     0
  0
BLOCK_RECORD
  5
7A0A
330
1
100
AcDbSymbolTableRecord
100
AcDbBlockTableRecord
  2
YA_N
340
0
102
{BLKREFS
331
7C40
331
7C77
331
7C14
331
7C36
102
}
 70
     0
280
     1
281
     0
  0
BLOCK_RECORD
  5
7CE8
330
1
100
AcDbSymbolTableRecord
100
AcDbBlockTableRecord
  2
*D2
340
0
 70
     0
280
     1
281
     0
  0
BLOCK_RECORD
  5
7CF4
330
1
100
AcDbSymbolTableRecord
100
AcDbBlockTableRecord
  2
*D3
340
0
 70
     0
280
     1
281
     0
  0
BLOCK_RECORD
  5
7D00
330
1
100
AcDbSymbolTableRecord
100
AcDbBlockTableRecord
  2
*D4
340
0
 70
     0
280
     1
281
     0
  0
BLOCK_RECORD
  5
7D0C
330
1
100
AcDbSymbolTableRecord
100
AcDbBlockTableRecord
  2
*D5
340
0
 70
     0
280
     1
281
     0
  0
BLOCK_RECORD
  5
7D18
330
1
100
AcDbSymbolTableRecord
100
AcDbBlockTableRecord
  2
*D6
340
0
 70
     0
280
     1
281
     0
  0
BLOCK_RECORD
  5
7D30
330
1
100
AcDbSymbolTableRecord
100
AcDbBlockTableRecord
  2
*D7
340
0
 70
     0
280
     1
281
     0
  0
BLOCK_RECORD
  5
7D3C
330
1
100
AcDbSymbolTableRecord
100
AcDbBlockTableRecord
  2
*D8
340
0
 70
     0
280
     1
281
     0
  0
BLOCK_RECORD
  5
7D48
330
1
100
AcDbSymbolTableRecord
100
AcDbBlockTableRecord
  2
*D9
340
0
 70
     0
280
     1
281
     0
  0
BLOCK_RECORD
  5
7D54
330
1
100
AcDbSymbolTableRecord
100
AcDbBlockTableRecord
  2
*D10
340
0
 70
     0
280
     1
281
     0
  0
BLOCK_RECORD
  5
7D60
330
1
100
AcDbSymbolTableRecord
100
AcDbBlockTableRecord
  2
*D11
340
0
 70
     0
280
     1
281
     0
  0
BLOCK_RECORD
  5
7D6C
330
1
100
AcDbSymbolTableRecord
100
AcDbBlockTableRecord
  2
*D12
340
0
 70
     0
280
     1
281
     0
  0
BLOCK_RECORD
  5
7D78
330
1
100
AcDbSymbolTableRecord
100
AcDbBlockTableRecord
  2
*D13
340
0
 70
     0
280
     1
281
     0
  0
BLOCK_RECORD
  5
7D84
330
1
100
AcDbSymbolTableRecord
100
AcDbBlockTableRecord
  2
*D14
340
0
 70
     0
280
     1
281
     0
  0
BLOCK_RECORD
  5
7D90
330
1
100
AcDbSymbolTableRecord
100
AcDbBlockTableRecord
  2
*D15
340
0
 70
     0
280
     1
281
     0
  0
BLOCK_RECORD
  5
7D9C
330
1
100
AcDbSymbolTableRecord
100
AcDbBlockTableRecord
  2
*D16
340
0
 70
     0
280
     1
281
     0
  0
BLOCK_RECORD
  5
7DB4
330
1
100
AcDbSymbolTableRecord
100
AcDbBlockTableRecord
  2
*D17
340
0
 70
     0
280
     1
281
     0
  0
BLOCK_RECORD
  5
7DCD
330
1
100
AcDbSymbolTableRecord
100
AcDbBlockTableRecord
  2
*D18
340
0
 70
     0
280
     1
281
     0
  0
BLOCK_RECORD
  5
7DDB
330
1
100
AcDbSymbolTableRecord
100
AcDbBlockTableRecord
  2
*D19
340
0
 70
     0
280
     1
281
     0
  0
BLOCK_RECORD
  5
7DE6
330
1
100
AcDbSymbolTableRecord
100
AcDbBlockTableRecord
  2
*D20
340
0
 70
     0
280
     1
281
     0
  0
BLOCK_RECORD
  5
7DF1
330
1
100
AcDbSymbolTableRecord
100
AcDbBlockTableRecord
  2
*D21
340
0
 70
     0
280
     1
281
     0
  0
BLOCK_RECORD
  5
7F79
330
1
100
AcDbSymbolTableRecord
100
AcDbBlockTableRecord
  2
_DOT
340
0
102
{BLKREFS
331
8198
102
}
 70
     0
280
     1
281
     0
  0
BLOCK_RECORD
  5
804D
330
1
100
AcDbSymbolTableRecord
100
AcDbBlockTableRecord
  2
_NONE
340
0
 70
     0
280
     1
281
     0
  0
BLOCK_RECORD
  5
8051
330
1
100
AcDbSymbolTableRecord
100
AcDbBlockTableRecord
  2
*D24
340
0
 70
     0
280
     1
281
     0
  0
BLOCK_RECORD
  5
805A
330
1
100
AcDbSymbolTableRecord
100
AcDbBlockTableRecord
  2
*D25
340
0
 70
     0
280
     1
281
     0
  0
ENDTAB
  0
ENDSEC
  0
SECTION
  2
BLOCKS
  0
BLOCK
  5
1A
330
19
100
AcDbEntity
  8
0
100
AcDbBlockBegin
  2
*MODEL_SPACE
 70
     0
 10
0.0
 20
0.0
 30
0.0
  3
*MODEL_SPACE
  1

  0
ENDBLK
  5
1B
330
19
100
AcDbEntity
  8
0
100
AcDbBlockEnd
  0
BLOCK
  5
17
330
16
100
AcDbEntity
 67
     1
  8
0
100
AcDbBlockBegin
  2
*PAPER_SPACE
 70
     0
 10
0.0
 20
0.0
 30
0.0
  3
*PAPER_SPACE
  1

  0
ENDBLK
  5
18
330
16
100
AcDbEntity
 67
     1
  8
0
100
AcDbBlockEnd
  0
BLOCK
  5
7A00
330
79FC
100
AcDbEntity
  8
0
100
AcDbBlockBegin
  2
_OPEN
 70
     0
 10
0.0
 20
0.0
 30
0.0
  3
_OPEN
  1

  0
LINE
  5
79FD
330
79FC
100
AcDbEntity
  8
0
  6
ByBlock
 62
     0
100
AcDbLine
 10
-1.0
 20
0.1666666666666666
 30
0.0
 11
0.0
 21
0.0
 31
0.0
  0
LINE
  5
79FE
330
79FC
100
AcDbEntity
  8
0
  6
ByBlock
 62
     0
100
AcDbLine
 10
0.0
 20
0.0
 30
0.0
 11
-1.0
 21
-0.1666666666666666
 31
0.0
  0
LINE
  5
79FF
330
79FC
100
AcDbEntity
  8
0
  6
ByBlock
 62
     0
100
AcDbLine
 10
0.0
 20
0.0
 30
0.0
 11
-1.0
 21
0.0
 31
0.0
  0
ENDBLK
  5
7A01
330
79FC
100
AcDbEntity
  8
0
100
AcDbBlockEnd
  0
BLOCK
  5
7A0B
330
7A0A
100
AcDbEntity
  8
0
100
AcDbBlockBegin
  2
YA_N
 70
     0
 10
0.0
 20
0.0
 30
0.0
  3
YA_N
  1

  0
ENDBLK
  5
7A0C
330
7A0A
100
AcDbEntity
  8
0
100
AcDbBlockEnd
  0
BLOCK
  5
7E09
330
7CE8
100
AcDbEntity
  8
0
100
AcDbBlockBegin
  2
*D2
 70
     1
 10
0.0
 20
0.0
 30
0.0
  3
*D2
  1

  0
LINE
  5
7E0A
330
7CE8
100
AcDbEntity
  8
0
  6
ByBlock
440
 16777216
100
AcDbLine
 10
1201.86378355942
 20
2016.448383303883
 30
0.0
 11
1201.86378355942
 21
2216.556699588149
 31
0.0
  0
LINE
  5
7E0B
330
7CE8
100
AcDbEntity
  8
0
  6
ByBlock
440
 16777216
100
AcDbLine
 10
2351.86378355942
 20
2016.448383303883
 30
0.0
 11
2351.86378355942
 21
2216.556699588149
 31
0.0
  0
LINE
  5
7E0C
330
7CE8
100
AcDbEntity
  8
0
  6
ByBlock
440
 16777216
100
AcDbLine
 10
1271.86378355942
 20
2181.556699588149
 30
0.0
 11
2281.86378355942
 21
2181.556699588149
 31
0.0
  0
INSERT
  5
7E0D
330
7CE8
100
AcDbEntity
  8
0
  6
ByBlock
440
 16777216
100
AcDbBlockReference
  2
_OPEN
 10
1201.86378355942
 20
2181.556699588149
 30
0.0
 41
70.0
 42
70.0
 43
70.0
 50
180.0
  0
INSERT
  5
7E0E
330
7CE8
100
AcDbEntity
  8
0
  6
ByBlock
440
 16777216
100
AcDbBlockReference
  2
_OPEN
 10
2351.86378355942
 20
2181.556699588149
 30
0.0
 41
70.0
 42
70.0
 43
70.0
  0
MTEXT
  5
7E0F
330
7CE8
100
AcDbEntity
  8
0
  6
ByBlock
440
 16777216
100
AcDbMText
 10
1776.86378355942
 20
2251.556699588149
 30
0.0
 40
105.0
 41
0.0
 46
0.0
 71
     5
 72
     5
  1
\A1;1150
 73
     1
 44
1.0
  0
POINT
  5
7E10
330
7CE8
100
AcDbEntity
  8
DEFPOINTS
  6
ByBlock
 62
     0
440
 16777216
100
AcDbPoint
 10
1201.86378355942
 20
1981.448383303883
 30
0.0
  0
POINT
  5
7E11
330
7CE8
100
AcDbEntity
  8
DEFPOINTS
  6
ByBlock
 62
     0
440
 16777216
100
AcDbPoint
 10
2351.86378355942
 20
1981.448383303883
 30
0.0
  0
POINT
  5
7E12
330
7CE8
100
AcDbEntity
  8
DEFPOINTS
  6
ByBlock
 62
     0
440
 16777216
100
AcDbPoint
 10
2351.86378355942
 20
2181.556699588149
 30
0.0
  0
ENDBLK
  5
7E13
330
7CE8
100
AcDbEntity
  8
0
100
AcDbBlockEnd
  0
BLOCK
  5
7E14
330
7CF4
100
AcDbEntity
  8
0
100
AcDbBlockBegin
  2
*D3
 70
     1
 10
0.0
 20
0.0
 30
0.0
  3
*D3
  1

  0
LINE
  5
7E15
330
7CF4
100
AcDbEntity
  8
0
  6
ByBlock
440
 16777216
100
AcDbLine
 10
1201.86378355942
 20
2016.448383303883
 30
0.0
 11
1201.86378355942
 21
2420.109637115584
 31
0.0
  0
LINE
  5
7E16
330
7CF4
100
AcDbEntity
  8
0
  6
ByBlock
440
 16777216
100
AcDbLine
 10
2399.86378355942
 20
2102.287384202616
 30
0.0
 11
2399.86378355942
 21
2420.109637115584
 31
0.0
  0
LINE
  5
7E17
330
7CF4
100
AcDbEntity
  8
0
  6
ByBlock
440
 16777216
100
AcDbLine
 10
1271.86378355942
 20
2385.109637115584
 30
0.0
 11
2329.86378355942
 21
2385.109637115584
 31
0.0
  0
INSERT
  5
7E18
330
7CF4
100
AcDbEntity
  8
0
  6
ByBlock
440
 16777216
100
AcDbBlockReference
  2
_OPEN
 10
1201.86378355942
 20
2385.109637115584
 30
0.0
 41
70.0
 42
70.0
 43
70.0
 50
180.0
  0
INSERT
  5
7E19
330
7CF4
100
AcDbEntity
  8
0
  6
ByBlock
440
 16777216
100
AcDbBlockReference
  2
_OPEN
 10
2399.86378355942
 20
2385.109637115584
 30
0.0
 41
70.0
 42
70.0
 43
70.0
  0
MTEXT
  5
7E1A
330
7CF4
100
AcDbEntity
  8
0
  6
ByBlock
440
 16777216
100
AcDbMText
 10
1800.86378355942
 20
2455.109637115584
 30
0.0
 40
105.0
 41
0.0
 46
0.0
 71
     5
 72
     5
  1
\A1;1198
 73
     1
 44
1.0
  0
POINT
  5
7E1B
330
7CF4
100
AcDbEntity
  8
DEFPOINTS
  6
ByBlock
 62
     0
440
 16777216
100
AcDbPoint
 10
1201.86378355942
 20
1981.448383303883
 30
0.0
  0
POINT
  5
7E1C
330
7CF4
100
AcDbEntity
  8
DEFPOINTS
  6
ByBlock
 62
     0
440
 16777216
100
AcDbPoint
 10
2399.86378355942
 20
2067.287384202617
 30
0.0
  0
POINT
  5
7E1D
330
7CF4
100
AcDbEntity
  8
DEFPOINTS
  6
ByBlock
 62
     0
440
 16777216
100
AcDbPoint
 10
2399.86378355942
 20
2385.109637115584
 30
0.0
  0
ENDBLK
  5
7E1E
330
7CF4
100
AcDbEntity
  8
0
100
AcDbBlockEnd
  0
BLOCK
  5
7E1F
330
7D00
100
AcDbEntity
  8
0
100
AcDbBlockBegin
  2
*D4
 70
     1
 10
0.0
 20
0.0
 30
0.0
  3
*D4
  1

  0
LINE
  5
816F
330
7D00
100
AcDbEntity
  8
3
440
 16777216
370
    -2
100
AcDbLine
 10
3318.605211603565
 20
2337.485624603523
 30
0.0
 11
3318.605211603565
 21
2138.705817046093
 31
0.0
  0
LINE
  5
8170
330
7D00
100
AcDbEntity
  8
3
440
 16777216
370
    -2
100
AcDbLine
 10
2658.605211603564
 20
2337.485624603523
 30
0.0
 11
2658.605211603564
 21
2138.705817046093
 31
0.0
  0
LINE
  5
8171
330
7D00
100
AcDbEntity
  8
3
440
 16777216
370
    -2
100
AcDbLine
 10
3248.605211603564
 20
2173.705817046093
 30
0.0
 11
2728.605211603565
 21
2173.705817046093
 31
0.0
  0
INSERT
  5
8172
330
7D00
100
AcDbEntity
  8
3
440
 16777216
370
    -2
100
AcDbBlockReference
  2
_OPEN
 10
3318.605211603565
 20
2173.705817046093
 30
0.0
 41
70.0
 42
70.0
 43
70.0
  0
INSERT
  5
8173
330
7D00
100
AcDbEntity
  8
3
440
 16777216
370
    -2
100
AcDbBlockReference
  2
_OPEN
 10
2658.605211603564
 20
2173.705817046093
 30
0.0
 41
70.0
 42
70.0
 43
70.0
 50
180.0
  0
MTEXT
  5
8174
330
7D00
100
AcDbEntity
  8
3
440
 16777216
100
AcDbMText
 10
2988.605211603564
 20
2243.705817046093
 30
0.0
 40
105.0
 41
0.0
 46
0.0
 71
     5
 72
     1
  1
\A1;660
 73
     1
 44
1.0
  0
POINT
  5
8175
330
7D00
100
AcDbEntity
  8
DEFPOINTS
 62
     0
440
 16777216
100
AcDbPoint
 10
3318.605211603565
 20
2372.485624603523
 30
0.0
  0
POINT
  5
8176
330
7D00
100
AcDbEntity
  8
DEFPOINTS
 62
     0
440
 16777216
100
AcDbPoint
 10
2658.605211603564
 20
2372.485624603523
 30
0.0
  0
POINT
  5
8177
330
7D00
100
AcDbEntity
  8
DEFPOINTS
 62
     0
440
 16777216
100
AcDbPoint
 10
2658.605211603564
 20
2173.705817046093
 30
0.0
  0
ENDBLK
  5
7E29
330
7D00
100
AcDbEntity
  8
0
100
AcDbBlockEnd
  0
BLOCK
  5
7E2A
330
7D0C
100
AcDbEntity
  8
0
100
AcDbBlockBegin
  2
*D5
 70
     1
 10
0.0
 20
0.0
 30
0.0
  3
*D5
  1

  0
LINE
  5
7E2B
330
7D0C
100
AcDbEntity
  8
0
  6
ByBlock
440
 16777216
100
AcDbLine
 10
3280.702784458153
 20
1221.448383303883
 30
0.0
 11
3702.536561063553
 21
1221.448383303883
 31
0.0
  0
LINE
  5
7E2C
330
7D0C
100
AcDbEntity
  8
0
  6
ByBlock
440
 16777216
100
AcDbLine
 10
3094.86378355942
 20
211.448383303883
 30
0.0
 11
3702.536561063553
 21
211.448383303883
 31
0.0
  0
LINE
  5
7E2D
330
7D0C
100
AcDbEntity
  8
0
  6
ByBlock
440
 16777216
100
AcDbLine
 10
3667.536561063553
 20
1151.448383303883
 30
0.0
 11
3667.536561063553
 21
281.448383303883
 31
0.0
  0
INSERT
  5
7E2E
330
7D0C
100
AcDbEntity
  8
0
  6
ByBlock
440
 16777216
100
AcDbBlockReference
  2
_OPEN
 10
3667.536561063553
 20
1221.448383303883
 30
0.0
 41
70.0
 42
70.0
 43
70.0
 50
90.0
  0
INSERT
  5
7E2F
330
7D0C
100
AcDbEntity
  8
0
  6
ByBlock
440
 16777216
100
AcDbBlockReference
  2
_OPEN
 10
3667.536561063553
 20
211.448383303883
 30
0.0
 41
70.0
 42
70.0
 43
70.0
 50
270.0
  0
MTEXT
  5
7E30
330
7D0C
100
AcDbEntity
  8
0
  6
ByBlock
440
 16777216
100
AcDbMText
 10
3597.536561063553
 20
716.448383303883
 30
0.0
 40
105.0
 41
0.0
 46
0.0
 71
     5
 72
     5
  1
\A1;1010
 11
0.0
 21
1.0
 31
0.0
 73
     1
 44
1.0
  0
POINT
  5
7E31
330
7D0C
100
AcDbEntity
  8
DEFPOINTS
  6
ByBlock
 62
     0
440
 16777216
100
AcDbPoint
 10
3245.702784458153
 20
1221.448383303883
 30
0.0
  0
POINT
  5
7E32
330
7D0C
100
AcDbEntity
  8
DEFPOINTS
  6
ByBlock
 62
     0
440
 16777216
100
AcDbPoint
 10
3059.86378355942
 20
211.448383303883
 30
0.0
  0
POINT
  5
7E33
330
7D0C
100
AcDbEntity
  8
DEFPOINTS
  6
ByBlock
 62
     0
440
 16777216
100
AcDbPoint
 10
3667.536561063553
 20
211.448383303883
 30
0.0
  0
ENDBLK
  5
7E34
330
7D0C
100
AcDbEntity
  8
0
100
AcDbBlockEnd
  0
BLOCK
  5
7E35
330
7D18
100
AcDbEntity
  8
0
100
AcDbBlockBegin
  2
*D6
 70
     1
 10
0.0
 20
0.0
 30
0.0
  3
*D6
  1

  0
LINE
  5
8178
330
7D18
100
AcDbEntity
  8
3
440
 16777216
370
    -2
100
AcDbLine
 10
868.6052116035643
 20
2337.485624603523
 30
0.0
 11
868.6052116035643
 21
2137.912024695539
 31
0.0
  0
LINE
  5
8179
330
7D18
100
AcDbEntity
  8
3
440
 16777216
370
    -2
100
AcDbLine
 10
2658.605211603564
 20
2337.485624603523
 30
0.0
 11
2658.605211603564
 21
2137.912024695539
 31
0.0
  0
LINE
  5
817A
330
7D18
100
AcDbEntity
  8
3
440
 16777216
370
    -2
100
AcDbLine
 10
938.6052116035644
 20
2172.912024695539
 30
0.0
 11
2588.605211603564
 21
2172.912024695539
 31
0.0
  0
INSERT
  5
817B
330
7D18
100
AcDbEntity
  8
3
440
 16777216
370
    -2
100
AcDbBlockReference
  2
_OPEN
 10
868.6052116035643
 20
2172.912024695539
 30
0.0
 41
70.0
 42
70.0
 43
70.0
 50
180.0
  0
INSERT
  5
817C
330
7D18
100
AcDbEntity
  8
3
440
 16777216
370
    -2
100
AcDbBlockReference
  2
_OPEN
 10
2658.605211603564
 20
2172.912024695539
 30
0.0
 41
70.0
 42
70.0
 43
70.0
  0
MTEXT
  5
817D
330
7D18
100
AcDbEntity
  8
3
440
 16777216
100
AcDbMText
 10
1763.605211603564
 20
2242.912024695539
 30
0.0
 40
105.0
 41
0.0
 46
0.0
 71
     5
 72
     1
  1
\A1;1790
 73
     1
 44
1.0
  0
POINT
  5
817E
330
7D18
100
AcDbEntity
  8
DEFPOINTS
 62
     0
440
 16777216
100
AcDbPoint
 10
868.6052116035643
 20
2372.485624603523
 30
0.0
  0
POINT
  5
817F
330
7D18
100
AcDbEntity
  8
DEFPOINTS
 62
     0
440
 16777216
100
AcDbPoint
 10
2658.605211603564
 20
2372.485624603523
 30
0.0
  0
POINT
  5
8180
330
7D18
100
AcDbEntity
  8
DEFPOINTS
 62
     0
440
 16777216
100
AcDbPoint
 10
2658.605211603564
 20
2172.912024695539
 30
0.0
  0
ENDBLK
  5
7E3F
330
7D18
100
AcDbEntity
  8
0
100
AcDbBlockEnd
  0
BLOCK
  5
801C
330
7D30
100
AcDbEntity
  8
0
100
AcDbBlockBegin
  2
*D7
 70
     1
 10
0.0
 20
0.0
 30
0.0
  3
*D7
  1

  0
LINE
  5
815D
330
7D30
100
AcDbEntity
  8
3
440
 16777216
370
    -2
100
AcDbLine
 10
4443.752841307504
 20
3817.485624603524
 30
0.0
 11
4443.752841307504
 21
4884.642057611086
 31
0.0
  0
LINE
  5
815E
330
7D30
100
AcDbEntity
  8
3
440
 16777216
370
    -2
100
AcDbLine
 10
5643.752841307505
 20
4852.763331747915
 30
0.0
 11
5643.752841307505
 21
4884.642057611086
 31
0.0
  0
LINE
  5
815F
330
7D30
100
AcDbEntity
  8
3
440
 16777216
370
    -2
100
AcDbLine
 10
4513.752841307504
 20
4849.642057611087
 30
0.0
 11
5573.752841307506
 21
4849.642057611087
 31
0.0
  0
INSERT
  5
8160
330
7D30
100
AcDbEntity
  8
3
440
 16777216
370
    -2
100
AcDbBlockReference
  2
_OPEN
 10
4443.752841307504
 20
4849.642057611087
 30
0.0
 41
70.0
 42
70.0
 43
70.0
 50
180.0
  0
INSERT
  5
8161
330
7D30
100
AcDbEntity
  8
3
440
 16777216
370
    -2
100
AcDbBlockReference
  2
_OPEN
 10
5643.752841307505
 20
4849.642057611087
 30
0.0
 41
70.0
 42
70.0
 43
70.0
  0
MTEXT
  5
8162
330
7D30
100
AcDbEntity
  8
3
440
 16777216
100
AcDbMText
 10
5043.752841307505
 20
4947.142057611086
 30
0.0
 40
105.0
 41
0.0
 46
0.0
 71
     5
 72
     1
  1
\A1;(1200)
 73
     1
 44
1.0
  0
POINT
  5
8163
330
7D30
100
AcDbEntity
  8
DEFPOINTS
 62
     0
440
 16777216
100
AcDbPoint
 10
4443.752841307504
 20
3782.485624603523
 30
0.0
  0
POINT
  5
8164
330
7D30
100
AcDbEntity
  8
DEFPOINTS
 62
     0
440
 16777216
100
AcDbPoint
 10
5643.752841307505
 20
4817.763331747915
 30
0.0
  0
POINT
  5
8165
330
7D30
100
AcDbEntity
  8
DEFPOINTS
 62
     0
440
 16777216
100
AcDbPoint
 10
5643.752841307505
 20
4849.642057611087
 30
0.0
  0
ENDBLK
  5
8026
330
7D30
100
AcDbEntity
  8
0
100
AcDbBlockEnd
  0
BLOCK
  5
802B
330
7D3C
100
AcDbEntity
  8
0
100
AcDbBlockBegin
  2
*D8
 70
     1
 10
0.0
 20
0.0
 30
0.0
  3
*D8
  1

  0
LINE
  5
8166
330
7D3C
100
AcDbEntity
  8
3
440
 16777216
370
    -2
100
AcDbLine
 10
5643.752841307505
 20
4852.763331747915
 30
0.0
 11
5643.752841307505
 21
4884.292926320111
 31
0.0
  0
LINE
  5
8167
330
7D3C
100
AcDbEntity
  8
3
440
 16777216
370
    -2
100
AcDbLine
 10
6573.752841307501
 20
3507.975135942227
 30
0.0
 11
6573.752841307501
 21
4884.292926320111
 31
0.0
  0
LINE
  5
8168
330
7D3C
100
AcDbEntity
  8
3
440
 16777216
370
    -2
100
AcDbLine
 10
5713.752841307505
 20
4849.292926320111
 30
0.0
 11
6503.752841307502
 21
4849.292926320111
 31
0.0
  0
INSERT
  5
8169
330
7D3C
100
AcDbEntity
  8
3
440
 16777216
370
    -2
100
AcDbBlockReference
  2
_OPEN
 10
5643.752841307505
 20
4849.292926320111
 30
0.0
 41
70.0
 42
70.0
 43
70.0
 50
180.0
  0
INSERT
  5
816A
330
7D3C
100
AcDbEntity
  8
3
440
 16777216
370
    -2
100
AcDbBlockReference
  2
_OPEN
 10
6573.752841307501
 20
4849.292926320111
 30
0.0
 41
70.0
 42
70.0
 43
70.0
  0
MTEXT
  5
816B
330
7D3C
100
AcDbEntity
  8
3
440
 16777216
100
AcDbMText
 10
6108.752841307503
 20
4946.792926320111
 30
0.0
 40
105.0
 41
0.0
 46
0.0
 71
     5
 72
     1
  1
\A1;(930)
 73
     1
 44
1.0
  0
POINT
  5
816C
330
7D3C
100
AcDbEntity
  8
DEFPOINTS
 62
     0
440
 16777216
100
AcDbPoint
 10
5643.752841307505
 20
4817.763331747915
 30
0.0
  0
POINT
  5
816D
330
7D3C
100
AcDbEntity
  8
DEFPOINTS
 62
     0
440
 16777216
100
AcDbPoint
 10
6573.752841307501
 20
3472.975135942227
 30
0.0
  0
POINT
  5
816E
330
7D3C
100
AcDbEntity
  8
DEFPOINTS
 62
     0
440
 16777216
100
AcDbPoint
 10
6573.752841307501
 20
4849.292926320111
 30
0.0
  0
ENDBLK
  5
8035
330
7D3C
100
AcDbEntity
  8
0
100
AcDbBlockEnd
  0
BLOCK
  5
7E61
330
7D48
100
AcDbEntity
  8
0
100
AcDbBlockBegin
  2
*D9
 70
     1
 10
0.0
 20
0.0
 30
0.0
  3
*D9
  1

  0
LINE
  5
7E62
330
7D48
100
AcDbEntity
  8
0
  6
ByBlock
440
 16777216
100
AcDbLine
 10
6434.252841307508
 20
661.448383303883
 30
0.0
 11
6796.53560766302
 21
661.448383303883
 31
0.0
  0
LINE
  5
7E63
330
7D48
100
AcDbEntity
  8
0
  6
ByBlock
440
 16777216
100
AcDbLine
 10
6434.252841307508
 20
1781.448383303883
 30
0.0
 11
6796.53560766302
 21
1781.448383303883
 31
0.0
  0
LINE
  5
7E64
330
7D48
100
AcDbEntity
  8
0
  6
ByBlock
440
 16777216
100
AcDbLine
 10
6761.535607663019
 20
731.4483833038829
 30
0.0
 11
6761.535607663019
 21
1711.448383303883
 31
0.0
  0
INSERT
  5
7E65
330
7D48
100
AcDbEntity
  8
0
  6
ByBlock
440
 16777216
100
AcDbBlockReference
  2
_OPEN
 10
6761.535607663019
 20
661.448383303883
 30
0.0
 41
70.0
 42
70.0
 43
70.0
 50
270.0
  0
INSERT
  5
7E66
330
7D48
100
AcDbEntity
  8
0
  6
ByBlock
440
 16777216
100
AcDbBlockReference
  2
_OPEN
 10
6761.535607663019
 20
1781.448383303883
 30
0.0
 41
70.0
 42
70.0
 43
70.0
 50
90.0
  0
MTEXT
  5
7E67
330
7D48
100
AcDbEntity
  8
0
  6
ByBlock
440
 16777216
100
AcDbMText
 10
6691.53560766302
 20
1221.448383303883
 30
0.0
 40
105.0
 41
0.0
 46
0.0
 71
     5
 72
     5
  1
\A1;φ1120
 11
0.0
 21
1.0
 31
0.0
 73
     1
 44
1.0
  0
POINT
  5
7E68
330
7D48
100
AcDbEntity
  8
DEFPOINTS
  6
ByBlock
 62
     0
440
 16777216
100
AcDbPoint
 10
6399.252841307507
 20
661.448383303883
 30
0.0
  0
POINT
  5
7E69
330
7D48
100
AcDbEntity
  8
DEFPOINTS
  6
ByBlock
 62
     0
440
 16777216
100
AcDbPoint
 10
6399.252841307507
 20
1781.448383303883
 30
0.0
  0
POINT
  5
7E6A
330
7D48
100
AcDbEntity
  8
DEFPOINTS
  6
ByBlock
 62
     0
440
 16777216
100
AcDbPoint
 10
6761.535607663019
 20
1781.448383303883
 30
0.0
  0
ENDBLK
  5
7E6B
330
7D48
100
AcDbEntity
  8
0
100
AcDbBlockEnd
  0
BLOCK
  5
7E6C
330
7D54
100
AcDbEntity
  8
0
100
AcDbBlockBegin
  2
*D10
 70
     1
 10
0.0
 20
0.0
 30
0.0
  3
*D10
  1

  0
LINE
  5
7E6D
330
7D54
100
AcDbEntity
  8
0
  6
ByBlock
440
 16777216
100
AcDbLine
 10
609.86378355942
 20
3963.253207167578
 30
0.0
 11
609.86378355942
 21
3631.528631137172
 31
0.0
  0
LINE
  5
7E6E
330
7D54
100
AcDbEntity
  8
0
  6
ByBlock
440
 16777216
100
AcDbLine
 10
3059.86378355942
 20
3963.253207167579
 30
0.0
 11
3059.86378355942
 21
3631.528631137172
 31
0.0
  0
LINE
  5
7E6F
330
7D54
100
AcDbEntity
  8
0
  6
ByBlock
440
 16777216
100
AcDbLine
 10
679.8637835594199
 20
3666.528631137171
 30
0.0
 11
2989.86378355942
 21
3666.528631137171
 31
0.0
  0
INSERT
  5
7E70
330
7D54
100
AcDbEntity
  8
0
  6
ByBlock
440
 16777216
100
AcDbBlockReference
  2
_OPEN
 10
609.86378355942
 20
3666.528631137171
 30
0.0
 41
70.0
 42
70.0
 43
70.0
 50
180.0
  0
INSERT
  5
7E71
330
7D54
100
AcDbEntity
  8
0
  6
ByBlock
440
 16777216
100
AcDbBlockReference
  2
_OPEN
 10
3059.86378355942
 20
3666.528631137171
 30
0.0
 41
70.0
 42
70.0
 43
70.0
  0
MTEXT
  5
7E72
330
7D54
100
AcDbEntity
  8
0
  6
ByBlock
440
 16777216
100
AcDbMText
 10
1834.86378355942
 20
3736.528631137171
 30
0.0
 40
105.0
 41
0.0
 46
0.0
 71
     5
 72
     5
  1
\A1;2450
 73
     1
 44
1.0
  0
POINT
  5
7E73
330
7D54
100
AcDbEntity
  8
DEFPOINTS
  6
ByBlock
 62
     0
440
 16777216
100
AcDbPoint
 10
609.86378355942
 20
3998.253207167578
 30
0.0
  0
POINT
  5
7E74
330
7D54
100
AcDbEntity
  8
DEFPOINTS
  6
ByBlock
 62
     0
440
 16777216
100
AcDbPoint
 10
3059.86378355942
 20
3998.253207167579
 30
0.0
  0
POINT
  5
7E75
330
7D54
100
AcDbEntity
  8
DEFPOINTS
  6
ByBlock
 62
     0
440
 16777216
100
AcDbPoint
 10
3059.86378355942
 20
3666.528631137171
 30
0.0
  0
ENDBLK
  5
7E76
330
7D54
100
AcDbEntity
  8
0
100
AcDbBlockEnd
  0
BLOCK
  5
7E77
330
7D60
100
AcDbEntity
  8
0
100
AcDbBlockBegin
  2
*D11
 70
     1
 10
0.0
 20
0.0
 30
0.0
  3
*D11
  1

  0
LINE
  5
7E78
330
7D60
100
AcDbEntity
  8
0
  6
ByBlock
440
 16777216
100
AcDbLine
 10
3094.86378355942
 20
5898.253207167577
 30
0.0
 11
3493.853034081316
 21
5898.253207167577
 31
0.0
  0
LINE
  5
7E79
330
7D60
100
AcDbEntity
  8
0
  6
ByBlock
440
 16777216
100
AcDbLine
 10
3094.86378355942
 20
3998.253207167579
 30
0.0
 11
3493.853034081316
 21
3998.253207167579
 31
0.0
  0
LINE
  5
7E7A
330
7D60
100
AcDbEntity
  8
0
  6
ByBlock
440
 16777216
100
AcDbLine
 10
3458.853034081316
 20
5828.253207167578
 30
0.0
 11
3458.853034081316
 21
4068.253207167578
 31
0.0
  0
INSERT
  5
7E7B
330
7D60
100
AcDbEntity
  8
0
  6
ByBlock
440
 16777216
100
AcDbBlockReference
  2
_OPEN
 10
3458.853034081316
 20
5898.253207167577
 30
0.0
 41
70.0
 42
70.0
 43
70.0
 50
90.0
  0
INSERT
  5
7E7C
330
7D60
100
AcDbEntity
  8
0
  6
ByBlock
440
 16777216
100
AcDbBlockReference
  2
_OPEN
 10
3458.853034081316
 20
3998.253207167579
 30
0.0
 41
70.0
 42
70.0
 43
70.0
 50
270.0
  0
MTEXT
  5
7E7D
330
7D60
100
AcDbEntity
  8
0
  6
ByBlock
440
 16777216
100
AcDbMText
 10
3388.853034081316
 20
4948.253207167578
 30
0.0
 40
105.0
 41
0.0
 46
0.0
 71
     5
 72
     5
  1
\A1;1900
 11
0.0
 21
1.0
 31
0.0
 73
     1
 44
1.0
  0
POINT
  5
7E7E
330
7D60
100
AcDbEntity
  8
DEFPOINTS
  6
ByBlock
 62
     0
440
 16777216
100
AcDbPoint
 10
3059.86378355942
 20
5898.253207167577
 30
0.0
  0
POINT
  5
7E7F
330
7D60
100
AcDbEntity
  8
DEFPOINTS
  6
ByBlock
 62
     0
440
 16777216
100
AcDbPoint
 10
3059.86378355942
 20
3998.253207167579
 30
0.0
  0
POINT
  5
7E80
330
7D60
100
AcDbEntity
  8
DEFPOINTS
  6
ByBlock
 62
     0
440
 16777216
100
AcDbPoint
 10
3458.853034081316
 20
3998.253207167579
 30
0.0
  0
ENDBLK
  5
7E81
330
7D60
100
AcDbEntity
  8
0
100
AcDbBlockEnd
  0
BLOCK
  5
800C
330
7D6C
100
AcDbEntity
  8
0
100
AcDbBlockBegin
  2
*D12
 70
     1
 10
0.0
 20
0.0
 30
0.0
  3
*D12
  1

  0
LINE
  5
800D
330
7D6C
100
AcDbEntity
  8
0
  6
ByBlock
440
 16777216
100
AcDbLine
 10
574.8637835594199
 20
6655.88256846505
 30
0.0
 11
359.0861446978779
 21
6655.88256846505
 31
0.0
  0
LINE
  5
800E
330
7D6C
100
AcDbEntity
  8
0
  6
ByBlock
440
 16777216
100
AcDbLine
 10
574.8637835594199
 20
5655.882568465051
 30
0.0
 11
359.0861446978779
 21
5655.882568465051
 31
0.0
  0
LINE
  5
800F
330
7D6C
100
AcDbEntity
  8
0
  6
ByBlock
440
 16777216
100
AcDbLine
 10
394.0861446978779
 20
6585.882568465049
 30
0.0
 11
394.0861446978779
 21
5725.882568465051
 31
0.0
  0
INSERT
  5
8010
330
7D6C
100
AcDbEntity
  8
0
  6
ByBlock
440
 16777216
100
AcDbBlockReference
  2
_OPEN
 10
394.0861446978779
 20
6655.88256846505
 30
0.0
 41
70.0
 42
70.0
 43
70.0
 50
90.0
  0
INSERT
  5
8011
330
7D6C
100
AcDbEntity
  8
0
  6
ByBlock
440
 16777216
100
AcDbBlockReference
  2
_OPEN
 10
394.0861446978779
 20
5655.882568465051
 30
0.0
 41
70.0
 42
70.0
 43
70.0
 50
270.0
  0
MTEXT
  5
8012
330
7D6C
100
AcDbEntity
  8
0
  6
ByBlock
440
 16777216
100
AcDbMText
 10
324.0861446978779
 20
6155.882568465051
 30
0.0
 40
105.0
 41
0.0
 46
0.0
 71
     5
 72
     5
  1
\A1;1000
 11
0.0
 21
1.0
 31
0.0
 73
     1
 44
1.0
  0
POINT
  5
8013
330
7D6C
100
AcDbEntity
  8
DEFPOINTS
  6
ByBlock
 62
     0
440
 16777216
100
AcDbPoint
 10
609.86378355942
 20
6655.88256846505
 30
0.0
  0
POINT
  5
8014
330
7D6C
100
AcDbEntity
  8
DEFPOINTS
  6
ByBlock
 62
     0
440
 16777216
100
AcDbPoint
 10
609.86378355942
 20
5655.882568465051
 30
0.0
  0
POINT
  5
8015
330
7D6C
100
AcDbEntity
  8
DEFPOINTS
  6
ByBlock
 62
     0
440
 16777216
100
AcDbPoint
 10
394.0861446978779
 20
5655.882568465051
 30
0.0
  0
ENDBLK
  5
8016
330
7D6C
100
AcDbEntity
  8
0
100
AcDbBlockEnd
  0
BLOCK
  5
7E8D
330
7D78
100
AcDbEntity
  8
0
100
AcDbBlockBegin
  2
*D13
 70
     1
 10
0.0
 20
0.0
 30
0.0
  3
*D13
  1

  0
LINE
  5
7E8E
330
7D78
100
AcDbEntity
  8
0
  6
ByBlock
440
 16777216
100
AcDbLine
 10
609.86378355942
 20
5033.253207167577
 30
0.0
 11
609.86378355942
 21
6330.110343216922
 31
0.0
  0
LINE
  5
7E8F
330
7D78
100
AcDbEntity
  8
0
  6
ByBlock
440
 16777216
100
AcDbLine
 10
1739.863783559419
 20
5933.253207167577
 30
0.0
 11
1739.863783559419
 21
6330.110343216922
 31
0.0
  0
LINE
  5
7E90
330
7D78
100
AcDbEntity
  8
0
  6
ByBlock
440
 16777216
100
AcDbLine
 10
679.8637835594199
 20
6295.110343216922
 30
0.0
 11
1669.863783559419
 21
6295.110343216922
 31
0.0
  0
INSERT
  5
7E91
330
7D78
100
AcDbEntity
  8
0
  6
ByBlock
440
 16777216
100
AcDbBlockReference
  2
_OPEN
 10
609.86378355942
 20
6295.110343216922
 30
0.0
 41
70.0
 42
70.0
 43
70.0
 50
180.0
  0
INSERT
  5
7E92
330
7D78
100
AcDbEntity
  8
0
  6
ByBlock
440
 16777216
100
AcDbBlockReference
  2
_OPEN
 10
1739.863783559419
 20
6295.110343216922
 30
0.0
 41
70.0
 42
70.0
 43
70.0
  0
MTEXT
  5
7E93
330
7D78
100
AcDbEntity
  8
0
  6
ByBlock
440
 16777216
100
AcDbMText
 10
1174.86378355942
 20
6365.110343216922
 30
0.0
 40
105.0
 41
0.0
 46
0.0
 71
     5
 72
     5
  1
\A1;1130
 73
     1
 44
1.0
  0
POINT
  5
7E94
330
7D78
100
AcDbEntity
  8
DEFPOINTS
  6
ByBlock
 62
     0
440
 16777216
100
AcDbPoint
 10
609.86378355942
 20
4998.253207167577
 30
0.0
  0
POINT
  5
7E95
330
7D78
100
AcDbEntity
  8
DEFPOINTS
  6
ByBlock
 62
     0
440
 16777216
100
AcDbPoint
 10
1739.863783559419
 20
5898.253207167577
 30
0.0
  0
POINT
  5
7E96
330
7D78
100
AcDbEntity
  8
DEFPOINTS
  6
ByBlock
 62
     0
440
 16777216
100
AcDbPoint
 10
1739.863783559419
 20
6295.110343216922
 30
0.0
  0
ENDBLK
  5
7E97
330
7D78
100
AcDbEntity
  8
0
100
AcDbBlockEnd
  0
BLOCK
  5
7E98
330
7D84
100
AcDbEntity
  8
0
100
AcDbBlockBegin
  2
*D14
 70
     1
 10
0.0
 20
0.0
 30
0.0
  3
*D14
  1

  0
LINE
  5
7E99
330
7D84
100
AcDbEntity
  8
0
  6
ByBlock
440
 16777216
100
AcDbLine
 10
1739.863783559419
 20
5933.253207167578
 30
0.0
 11
1739.863783559419
 21
6330.110343216922
 31
0.0
  0
LINE
  5
7E9A
330
7D84
100
AcDbEntity
  8
0
  6
ByBlock
440
 16777216
100
AcDbLine
 10
3059.86378355942
 20
5933.253207167577
 30
0.0
 11
3059.86378355942
 21
6330.110343216922
 31
0.0
  0
LINE
  5
7E9B
330
7D84
100
AcDbEntity
  8
0
  6
ByBlock
440
 16777216
100
AcDbLine
 10
1809.863783559419
 20
6295.110343216922
 30
0.0
 11
2989.86378355942
 21
6295.110343216922
 31
0.0
  0
INSERT
  5
7E9C
330
7D84
100
AcDbEntity
  8
0
  6
ByBlock
440
 16777216
100
AcDbBlockReference
  2
_OPEN
 10
1739.863783559419
 20
6295.110343216922
 30
0.0
 41
70.0
 42
70.0
 43
70.0
 50
180.0
  0
INSERT
  5
7E9D
330
7D84
100
AcDbEntity
  8
0
  6
ByBlock
440
 16777216
100
AcDbBlockReference
  2
_OPEN
 10
3059.86378355942
 20
6295.110343216922
 30
0.0
 41
70.0
 42
70.0
 43
70.0
  0
MTEXT
  5
7E9E
330
7D84
100
AcDbEntity
  8
0
  6
ByBlock
440
 16777216
100
AcDbMText
 10
2399.863783559419
 20
6365.110343216922
 30
0.0
 40
105.0
 41
0.0
 46
0.0
 71
     5
 72
     5
  1
\A1;1320
 73
     1
 44
1.0
  0
POINT
  5
7E9F
330
7D84
100
AcDbEntity
  8
DEFPOINTS
  6
ByBlock
 62
     0
440
 16777216
100
AcDbPoint
 10
1739.863783559419
 20
5898.253207167579
 30
0.0
  0
POINT
  5
7EA0
330
7D84
100
AcDbEntity
  8
DEFPOINTS
  6
ByBlock
 62
     0
440
 16777216
100
AcDbPoint
 10
3059.86378355942
 20
5898.253207167577
 30
0.0
  0
POINT
  5
7EA1
330
7D84
100
AcDbEntity
  8
DEFPOINTS
  6
ByBlock
 62
     0
440
 16777216
100
AcDbPoint
 10
3059.86378355942
 20
6295.110343216922
 30
0.0
  0
ENDBLK
  5
7EA2
330
7D84
100
AcDbEntity
  8
0
100
AcDbBlockEnd
  0
BLOCK
  5
7EA3
330
7D90
100
AcDbEntity
  8
0
100
AcDbBlockBegin
  2
*D15
 70
     1
 10
0.0
 20
0.0
 30
0.0
  3
*D15
  1

  0
LINE
  5
8181
330
7D90
100
AcDbEntity
  8
3
440
 16777216
370
    -2
100
AcDbLine
 10
5643.752841307505
 20
2337.485624603523
 30
0.0
 11
5643.752841307505
 21
2138.136493910508
 31
0.0
  0
LINE
  5
8182
330
7D90
100
AcDbEntity
  8
3
440
 16777216
370
    -2
100
AcDbLine
 10
6471.752841307486
 20
2337.485624603523
 30
0.0
 11
6471.752841307486
 21
2138.136493910508
 31
0.0
  0
LINE
  5
8183
330
7D90
100
AcDbEntity
  8
3
440
 16777216
370
    -2
100
AcDbLine
 10
5713.752841307505
 20
2173.136493910508
 30
0.0
 11
6401.752841307486
 21
2173.136493910508
 31
0.0
  0
INSERT
  5
8184
330
7D90
100
AcDbEntity
  8
3
440
 16777216
370
    -2
100
AcDbBlockReference
  2
_OPEN
 10
5643.752841307505
 20
2173.136493910508
 30
0.0
 41
70.0
 42
70.0
 43
70.0
 50
180.0
  0
INSERT
  5
8185
330
7D90
100
AcDbEntity
  8
3
440
 16777216
370
    -2
100
AcDbBlockReference
  2
_OPEN
 10
6471.752841307486
 20
2173.136493910508
 30
0.0
 41
70.0
 42
70.0
 43
70.0
  0
MTEXT
  5
8186
330
7D90
100
AcDbEntity
  8
3
440
 16777216
100
AcDbMText
 10
6057.752841307495
 20
2243.136493910508
 30
0.0
 40
105.0
 41
0.0
 46
0.0
 71
     5
 72
     1
  1
\A1;828
 73
     1
 44
1.0
  0
POINT
  5
8187
330
7D90
100
AcDbEntity
  8
DEFPOINTS
 62
     0
440
 16777216
100
AcDbPoint
 10
5643.752841307505
 20
2372.485624603523
 30
0.0
  0
POINT
  5
8188
330
7D90
100
AcDbEntity
  8
DEFPOINTS
 62
     0
440
 16777216
100
AcDbPoint
 10
6471.752841307486
 20
2372.485624603523
 30
0.0
  0
POINT
  5
8189
330
7D90
100
AcDbEntity
  8
DEFPOINTS
 62
     0
440
 16777216
100
AcDbPoint
 10
6471.752841307486
 20
2173.136493910508
 30
0.0
  0
ENDBLK
  5
7EAD
330
7D90
100
AcDbEntity
  8
0
100
AcDbBlockEnd
  0
BLOCK
  5
7EAE
330
7D9C
100
AcDbEntity
  8
0
100
AcDbBlockBegin
  2
*D16
 70
     1
 10
0.0
 20
0.0
 30
0.0
  3
*D16
  1

  0
LINE
  5
818A
330
7D9C
100
AcDbEntity
  8
3
440
 16777216
370
    -2
100
AcDbLine
 10
4571.752841307508
 20
2337.485624603523
 30
0.0
 11
4571.752841307508
 21
2138.136493910508
 31
0.0
  0
LINE
  5
818B
330
7D9C
100
AcDbEntity
  8
3
440
 16777216
370
    -2
100
AcDbLine
 10
5643.752841307505
 20
2337.485624603523
 30
0.0
 11
5643.752841307505
 21
2138.136493910508
 31
0.0
  0
LINE
  5
818C
330
7D9C
100
AcDbEntity
  8
3
440
 16777216
370
    -2
100
AcDbLine
 10
4641.752841307508
 20
2173.136493910508
 30
0.0
 11
5573.752841307506
 21
2173.136493910508
 31
0.0
  0
INSERT
  5
818D
330
7D9C
100
AcDbEntity
  8
3
440
 16777216
370
    -2
100
AcDbBlockReference
  2
_OPEN
 10
4571.752841307508
 20
2173.136493910508
 30
0.0
 41
70.0
 42
70.0
 43
70.0
 50
180.0
  0
INSERT
  5
818E
330
7D9C
100
AcDbEntity
  8
3
440
 16777216
370
    -2
100
AcDbBlockReference
  2
_OPEN
 10
5643.752841307505
 20
2173.136493910508
 30
0.0
 41
70.0
 42
70.0
 43
70.0
  0
MTEXT
  5
818F
330
7D9C
100
AcDbEntity
  8
3
440
 16777216
100
AcDbMText
 10
5107.752841307507
 20
2243.136493910508
 30
0.0
 40
105.0
 41
0.0
 46
0.0
 71
     5
 72
     1
  1
\A1;1072
 73
     1
 44
1.0
  0
POINT
  5
8190
330
7D9C
100
AcDbEntity
  8
DEFPOINTS
 62
     0
440
 16777216
100
AcDbPoint
 10
4571.752841307508
 20
2372.485624603523
 30
0.0
  0
POINT
  5
8191
330
7D9C
100
AcDbEntity
  8
DEFPOINTS
 62
     0
440
 16777216
100
AcDbPoint
 10
5643.752841307505
 20
2372.485624603523
 30
0.0
  0
POINT
  5
8192
330
7D9C
100
AcDbEntity
  8
DEFPOINTS
 62
     0
440
 16777216
100
AcDbPoint
 10
5643.752841307505
 20
2173.136493910508
 30
0.0
  0
ENDBLK
  5
7EB8
330
7D9C
100
AcDbEntity
  8
0
100
AcDbBlockEnd
  0
BLOCK
  5
7EC4
330
7DB4
100
AcDbEntity
  8
0
100
AcDbBlockBegin
  2
*D17
 70
     1
 10
0.0
 20
0.0
 30
0.0
  3
*D17
  1

  0
LINE
  5
7EC5
330
7DB4
100
AcDbEntity
  8
0
  6
ByBlock
440
 16777216
100
AcDbLine
 10
4893.752841307504
 20
2016.448383303883
 30
0.0
 11
4893.752841307504
 21
2279.460139948524
 31
0.0
  0
LINE
  5
7EC6
330
7DB4
100
AcDbEntity
  8
0
  6
ByBlock
440
 16777216
100
AcDbLine
 10
6393.752841307505
 20
2016.448383303884
 30
0.0
 11
6393.752841307505
 21
2279.460139948524
 31
0.0
  0
LINE
  5
7EC7
330
7DB4
100
AcDbEntity
  8
0
  6
ByBlock
440
 16777216
100
AcDbLine
 10
4963.752841307504
 20
2244.460139948524
 30
0.0
 11
6323.752841307506
 21
2244.460139948524
 31
0.0
  0
INSERT
  5
7EC8
330
7DB4
100
AcDbEntity
  8
0
  6
ByBlock
440
 16777216
100
AcDbBlockReference
  2
_OPEN
 10
4893.752841307504
 20
2244.460139948524
 30
0.0
 41
70.0
 42
70.0
 43
70.0
 50
180.0
  0
INSERT
  5
7EC9
330
7DB4
100
AcDbEntity
  8
0
  6
ByBlock
440
 16777216
100
AcDbBlockReference
  2
_OPEN
 10
6393.752841307505
 20
2244.460139948524
 30
0.0
 41
70.0
 42
70.0
 43
70.0
  0
MTEXT
  5
7ECA
330
7DB4
100
AcDbEntity
  8
0
  6
ByBlock
440
 16777216
100
AcDbMText
 10
5643.752841307505
 20
2314.460139948524
 30
0.0
 40
105.0
 41
0.0
 46
0.0
 71
     5
 72
     5
  1
\A1;1500
 73
     1
 44
1.0
  0
POINT
  5
7ECB
330
7DB4
100
AcDbEntity
  8
DEFPOINTS
  6
ByBlock
 62
     0
440
 16777216
100
AcDbPoint
 10
4893.752841307504
 20
1981.448383303883
 30
0.0
  0
POINT
  5
7ECC
330
7DB4
100
AcDbEntity
  8
DEFPOINTS
  6
ByBlock
 62
     0
440
 16777216
100
AcDbPoint
 10
6393.752841307505
 20
1981.448383303883
 30
0.0
  0
POINT
  5
7ECD
330
7DB4
100
AcDbEntity
  8
DEFPOINTS
  6
ByBlock
 62
     0
440
 16777216
100
AcDbPoint
 10
6393.752841307505
 20
2244.460139948524
 30
0.0
  0
ENDBLK
  5
7ECE
330
7DB4
100
AcDbEntity
  8
0
100
AcDbBlockEnd
  0
BLOCK
  5
7FA8
330
7DCD
100
AcDbEntity
  8
0
100
AcDbBlockBegin
  2
*D18
 70
     1
 10
0.0
 20
0.0
 30
0.0
  3
*D18
  1

  0
LINE
  5
8193
330
7DCD
100
AcDbEntity
  8
3
 62
     0
440
 16777216
370
    -2
100
AcDbLine
 10
3336.105211603565
 20
2447.485624603523
 30
0.0
 11
3961.277989107697
 21
2447.485624603523
 31
0.0
  0
LINE
  5
8194
330
7DCD
100
AcDbEntity
  8
3
 62
     0
440
 16777216
370
    -2
100
AcDbLine
 10
3336.105211603565
 20
2372.485624603523
 30
0.0
 11
3961.277989107697
 21
2372.485624603523
 31
0.0
  0
LINE
  5
8195
330
7DCD
100
AcDbEntity
  8
3
 62
     0
440
 16777216
370
    -2
100
AcDbLine
 10
3926.277989107698
 20
2517.485624603523
 30
0.0
 11
3926.277989107698
 21
2587.485624603524
 31
0.0
  0
LINE
  5
8196
330
7DCD
100
AcDbEntity
  8
3
 62
     0
440
 16777216
370
    -2
100
AcDbLine
 10
3926.277989107698
 20
2302.485624603523
 30
0.0
 11
3926.277989107698
 21
1992.485624603523
 31
0.0
  0
LINE
  5
8197
330
7DCD
100
AcDbEntity
  8
3
 62
     0
440
 16777216
370
    -2
100
AcDbLine
 10
3926.277989107698
 20
2447.485624603523
 30
0.0
 11
3926.277989107698
 21
2372.485624603523
 31
0.0
  0
INSERT
  5
8198
330
7DCD
100
AcDbEntity
  8
3
 62
     0
440
 16777216
370
    -2
100
AcDbBlockReference
  2
_DOT
 10
3926.277989107698
 20
2447.485624603523
 30
0.0
 41
70.0
 42
70.0
 43
70.0
 50
270.0
  0
INSERT
  5
8199
330
7DCD
100
AcDbEntity
  8
3
 62
     0
440
 16777216
370
    -2
100
AcDbBlockReference
  2
_OPEN
 10
3926.277989107698
 20
2372.485624603523
 30
0.0
 41
70.0
 42
70.0
 43
70.0
 50
90.0
  0
MTEXT
  5
819A
330
7DCD
100
AcDbEntity
  8
3
 62
     0
440
 16777216
100
AcDbMText
 10
3838.777989107697
 20
2112.485624603524
 30
0.0
 40
105.0
 41
0.0
 46
0.0
 71
     5
 72
     1
  1
\A1;75
 11
0.0000000000000001
 21
1.0
 31
0.0
 73
     1
 44
1.0
  0
POINT
  5
819B
330
7DCD
100
AcDbEntity
  8
DEFPOINTS
 62
     0
440
 16777216
100
AcDbPoint
 10
3318.605211603565
 20
2447.485624603523
 30
0.0
  0
POINT
  5
819C
330
7DCD
100
AcDbEntity
  8
DEFPOINTS
 62
     0
440
 16777216
100
AcDbPoint
 10
3318.605211603565
 20
2372.485624603523
 30
0.0
  0
POINT
  5
819D
330
7DCD
100
AcDbEntity
  8
DEFPOINTS
 62
     0
440
 16777216
100
AcDbPoint
 10
3926.277989107698
 20
2372.485624603523
 30
0.0
  0
ENDBLK
  5
7FB4
330
7DCD
100
AcDbEntity
  8
0
100
AcDbBlockEnd
  0
BLOCK
  5
7EE8
330
7DDB
100
AcDbEntity
  8
0
100
AcDbBlockBegin
  2
*D19
 70
     1
 10
0.0
 20
0.0
 30
0.0
  3
*D19
  1

  0
LINE
  5
80C8
330
7DDB
100
AcDbEntity
  8
3
440
 16777216
100
AcDbLine
 10
2698.605211603565
 20
4322.485624603523
 30
0.0
 11
3961.277989107697
 21
4322.485624603523
 31
0.0
  0
LINE
  5
80C9
330
7DDB
100
AcDbEntity
  8
3
440
 16777216
100
AcDbLine
 10
3926.277989107698
 20
3632.485624603523
 30
0.0
 11
3926.277989107698
 21
4252.485624603523
 31
0.0
  0
INSERT
  5
80CA
330
7DDB
100
AcDbEntity
  8
3
440
 16777216
100
AcDbBlockReference
  2
_OPEN
 10
3926.277989107698
 20
3562.485624603524
 30
0.0
 41
70.0
 42
70.0
 43
70.0
 50
270.0
  0
INSERT
  5
80CB
330
7DDB
100
AcDbEntity
  8
3
440
 16777216
100
AcDbBlockReference
  2
_OPEN
 10
3926.277989107698
 20
4322.485624603523
 30
0.0
 41
70.0
 42
70.0
 43
70.0
 50
90.0
  0
MTEXT
  5
80CC
330
7DDB
100
AcDbEntity
  8
3
440
 16777216
100
AcDbMText
 10
3856.277989107697
 20
3942.485624603524
 30
0.0
 40
105.0
 41
0.0
 46
0.0
 71
     5
 72
     5
  1
\A1;760
 11
0.0000000000000001
 21
1.0
 31
0.0
 73
     1
 44
1.0
  0
POINT
  5
80CD
330
7DDB
100
AcDbEntity
  8
DEFPOINTS
 62
     0
440
 16777216
100
AcDbPoint
 10
3504.444212502298
 20
3562.485624603524
 30
0.0
  0
POINT
  5
80CE
330
7DDB
100
AcDbEntity
  8
DEFPOINTS
 62
     0
440
 16777216
100
AcDbPoint
 10
2663.605211603564
 20
4322.485624603523
 30
0.0
  0
POINT
  5
80CF
330
7DDB
100
AcDbEntity
  8
DEFPOINTS
 62
     0
440
 16777216
100
AcDbPoint
 10
3926.277989107698
 20
4322.485624603523
 30
0.0
  0
ENDBLK
  5
7EF1
330
7DDB
100
AcDbEntity
  8
0
100
AcDbBlockEnd
  0
BLOCK
  5
7EF2
330
7DE6
100
AcDbEntity
  8
0
100
AcDbBlockBegin
  2
*D20
 70
     1
 10
0.0
 20
0.0
 30
0.0
  3
*D20
  1

  0
LINE
  5
80D0
330
7DE6
100
AcDbEntity
  8
3
440
 16777216
100
AcDbLine
 10
3463.605211603564
 20
3515.485624603524
 30
0.0
 11
3463.605211603564
 21
4761.146878415224
 31
0.0
  0
LINE
  5
80D1
330
7DE6
100
AcDbEntity
  8
3
440
 16777216
100
AcDbLine
 10
2728.605211603565
 20
4726.146878415224
 30
0.0
 11
3393.605211603565
 21
4726.146878415224
 31
0.0
  0
INSERT
  5
80D2
330
7DE6
100
AcDbEntity
  8
3
440
 16777216
100
AcDbBlockReference
  2
_OPEN
 10
2658.605211603564
 20
4726.146878415224
 30
0.0
 41
70.0
 42
70.0
 43
70.0
 50
180.0
  0
INSERT
  5
80D3
330
7DE6
100
AcDbEntity
  8
3
440
 16777216
100
AcDbBlockReference
  2
_OPEN
 10
3463.605211603564
 20
4726.146878415224
 30
0.0
 41
70.0
 42
70.0
 43
70.0
  0
MTEXT
  5
80D4
330
7DE6
100
AcDbEntity
  8
3
440
 16777216
100
AcDbMText
 10
3061.105211603564
 20
4796.146878415224
 30
0.0
 40
105.0
 41
0.0
 46
0.0
 71
     5
 72
     5
  1
\A1;805
 73
     1
 44
1.0
  0
POINT
  5
80D5
330
7DE6
100
AcDbEntity
  8
DEFPOINTS
 62
     0
440
 16777216
100
AcDbPoint
 10
2658.605211603564
 20
4408.324625502256
 30
0.0
  0
POINT
  5
80D6
330
7DE6
100
AcDbEntity
  8
DEFPOINTS
 62
     0
440
 16777216
100
AcDbPoint
 10
3463.605211603564
 20
3480.485624603524
 30
0.0
  0
POINT
  5
80D7
330
7DE6
100
AcDbEntity
  8
DEFPOINTS
 62
     0
440
 16777216
100
AcDbPoint
 10
3463.605211603564
 20
4726.146878415224
 30
0.0
  0
ENDBLK
  5
7EFB
330
7DE6
100
AcDbEntity
  8
0
100
AcDbBlockEnd
  0
BLOCK
  5
7EFC
330
7DF1
100
AcDbEntity
  8
0
100
AcDbBlockBegin
  2
*D21
 70
     1
 10
0.0
 20
0.0
 30
0.0
  3
*D21
  1

  0
LINE
  5
7EFD
330
7DF1
100
AcDbEntity
  8
0
  6
ByBlock
440
 16777216
100
AcDbLine
 10
3204.86378355942
 20
1174.448383303883
 30
0.0
 11
3204.86378355942
 21
2606.107031841784
 31
0.0
  0
LINE
  5
7EFE
330
7DF1
100
AcDbEntity
  8
0
  6
ByBlock
440
 16777216
100
AcDbLine
 10
609.8637835594209
 20
396.448383303883
 30
0.0
 11
609.8637835594209
 21
2606.107031841784
 31
0.0
  0
LINE
  5
7EFF
330
7DF1
100
AcDbEntity
  8
0
  6
ByBlock
440
 16777216
100
AcDbLine
 10
3134.86378355942
 20
2571.107031841784
 30
0.0
 11
679.8637835594209
 21
2571.107031841784
 31
0.0
  0
INSERT
  5
7F00
330
7DF1
100
AcDbEntity
  8
0
  6
ByBlock
440
 16777216
100
AcDbBlockReference
  2
_OPEN
 10
3204.86378355942
 20
2571.107031841784
 30
0.0
 41
70.0
 42
70.0
 43
70.0
  0
INSERT
  5
7F01
330
7DF1
100
AcDbEntity
  8
0
  6
ByBlock
440
 16777216
100
AcDbBlockReference
  2
_OPEN
 10
609.8637835594209
 20
2571.107031841784
 30
0.0
 41
70.0
 42
70.0
 43
70.0
 50
180.0
  0
MTEXT
  5
7F02
330
7DF1
100
AcDbEntity
  8
0
  6
ByBlock
440
 16777216
100
AcDbMText
 10
1907.36378355942
 20
2641.107031841784
 30
0.0
 40
105.0
 41
0.0
 46
0.0
 71
     5
 72
     5
  1
\A1;2595
 73
     1
 44
1.0
  0
POINT
  5
7F03
330
7DF1
100
AcDbEntity
  8
DEFPOINTS
  6
ByBlock
 62
     0
440
 16777216
100
AcDbPoint
 10
3204.86378355942
 20
1139.448383303883
 30
0.0
  0
POINT
  5
7F04
330
7DF1
100
AcDbEntity
  8
DEFPOINTS
  6
ByBlock
 62
     0
440
 16777216
100
AcDbPoint
 10
609.8637835594209
 20
361.448383303883
 30
0.0
  0
POINT
  5
7F05
330
7DF1
100
AcDbEntity
  8
DEFPOINTS
  6
ByBlock
 62
     0
440
 16777216
100
AcDbPoint
 10
609.8637835594209
 20
2571.107031841784
 30
0.0
  0
ENDBLK
  5
7F06
330
7DF1
100
AcDbEntity
  8
0
100
AcDbBlockEnd
  0
BLOCK
  5
7F7F
330
7F79
100
AcDbEntity
  8
0
100
AcDbBlockBegin
  2
_DOT
 70
     0
 10
0.0
 20
0.0
 30
0.0
  3
_DOT
  1

  0
LWPOLYLINE
  5
7F7A
330
7F79
100
AcDbEntity
  8
0
  6
ByBlock
 62
     0
100
AcDbPolyline
 90
        2
 70
     1
 43
0.25
 10
-0.125
 20
0.0
 42
1.0
 10
0.125
 20
0.0
 42
1.0
  0
LINE
  5
7F7E
330
7F79
100
AcDbEntity
  8
0
  6
ByBlock
 62
     0
100
AcDbLine
 10
-0.25
 20
0.0
 30
0.0
 11
-1.0
 21
0.0
 31
0.0
  0
ENDBLK
  5
7F80
330
7F79
100
AcDbEntity
  8
0
100
AcDbBlockEnd
  0
BLOCK
  5
804E
330
804D
100
AcDbEntity
  8
0
100
AcDbBlockBegin
  2
_NONE
 70
     0
 10
0.0
 20
0.0
 30
0.0
  3
_NONE
  1

  0
CIRCLE
  5
804F
330
804D
100
AcDbEntity
  8
0
  6
ByBlock
 62
     0
100
AcDbCircle
 10
0.0
 20
0.0
 30
0.0
 40
0.25
  0
ENDBLK
  5
8050
330
804D
100
AcDbEntity
  8
0
100
AcDbBlockEnd
  0
BLOCK
  5
8079
330
8051
100
AcDbEntity
  8
0
100
AcDbBlockBegin
  2
*D24
 70
     1
 10
0.0
 20
0.0
 30
0.0
  3
*D24
  1

  0
LINE
  5
81AC
330
8051
100
AcDbEntity
  8
3
 62
     0
440
 16777216
370
    -2
100
AcDbLine
 10
3925.802172985147
 20
2447.485624603523
 30
0.0
 11
3925.802172985147
 21
2552.485624603523
 31
0.0
  0
MTEXT
  5
81AD
330
8051
100
AcDbEntity
  8
3
 62
     0
440
 16777216
100
AcDbMText
 10
4042.496695309718
 20
2499.985624603524
 30
0.0
 40
105.0
 41
0.0
 46
0.0
 71
     5
 72
     1
  1
\A1;   (105)
 11
0.0000000000000001
 21
1.0
 31
0.0
 73
     1
 44
1.0
  0
POINT
  5
81AE
330
8051
100
AcDbEntity
  8
DEFPOINTS
 62
     0
440
 16777216
100
AcDbPoint
 10
3318.605211603565
 20
2447.485624603523
 30
0.0
  0
POINT
  5
81AF
330
8051
100
AcDbEntity
  8
DEFPOINTS
 62
     0
440
 16777216
100
AcDbPoint
 10
3318.605211603565
 20
2552.485624603523
 30
0.0
  0
POINT
  5
81B0
330
8051
100
AcDbEntity
  8
DEFPOINTS
 62
     0
440
 16777216
100
AcDbPoint
 10
3925.802172985147
 20
2552.485624603523
 30
0.0
  0
ENDBLK
  5
807F
330
8051
100
AcDbEntity
  8
0
100
AcDbBlockEnd
  0
BLOCK
  5
805B
330
805A
100
AcDbEntity
  8
0
100
AcDbBlockBegin
  2
*D25
 70
     1
 10
0.0
 20
0.0
 30
0.0
  3
*D25
  1

  0
LINE
  5
81A3
330
805A
100
AcDbEntity
  8
3
 62
     0
440
 16777216
370
    -2
100
AcDbLine
 10
2681.105211603564
 20
4322.485624603523
 30
0.0
 11
4234.24970963125
 21
4322.485624603523
 31
0.0
  0
LINE
  5
81A4
330
805A
100
AcDbEntity
  8
3
 62
     0
440
 16777216
370
    -2
100
AcDbLine
 10
3336.105211603565
 20
2372.485624603523
 30
0.0
 11
4234.24970963125
 21
2372.485624603523
 31
0.0
  0
LINE
  5
81A5
330
805A
100
AcDbEntity
  8
3
 62
     0
440
 16777216
370
    -2
100
AcDbLine
 10
4199.249709631251
 20
4252.485624603523
 30
0.0
 11
4199.249709631251
 21
2442.485624603524
 31
0.0
  0
INSERT
  5
81A6
330
805A
100
AcDbEntity
  8
3
 62
     0
440
 16777216
370
    -2
100
AcDbBlockReference
  2
_OPEN
 10
4199.249709631251
 20
4322.485624603523
 30
0.0
 41
70.0
 42
70.0
 43
70.0
 50
90.0
  0
INSERT
  5
81A7
330
805A
100
AcDbEntity
  8
3
 62
     0
440
 16777216
370
    -2
100
AcDbBlockReference
  2
_OPEN
 10
4199.249709631251
 20
2372.485624603523
 30
0.0
 41
70.0
 42
70.0
 43
70.0
 50
270.0
  0
MTEXT
  5
81A8
330
805A
100
AcDbEntity
  8
3
 62
     0
440
 16777216
100
AcDbMText
 10
4084.24970963125
 20
3347.485624603524
 30
0.0
 40
105.0
 41
0.0
 46
0.0
 71
     5
 72
     1
  1
\A1;(1950)
 11
0.0000000000000001
 21
1.0
 31
0.0
 73
     1
 44
1.0
  0
POINT
  5
81A9
330
805A
100
AcDbEntity
  8
DEFPOINTS
 62
     0
440
 16777216
100
AcDbPoint
 10
2663.605211603564
 20
4322.485624603523
 30
0.0
  0
POINT
  5
81AA
330
805A
100
AcDbEntity
  8
DEFPOINTS
 62
     0
440
 16777216
100
AcDbPoint
 10
3318.605211603565
 20
2372.485624603523
 30
0.0
  0
POINT
  5
81AB
330
805A
100
AcDbEntity
  8
DEFPOINTS
 62
     0
440
 16777216
100
AcDbPoint
 10
4199.249709631251
 20
2372.485624603523
 30
0.0
  0
ENDBLK
  5
8065
330
805A
100
AcDbEntity
  8
0
100
AcDbBlockEnd
  0
ENDSEC
  0
SECTION
  2
ENTITIES
  0
INSERT
  5
7C14
330
19
100
AcDbEntity
  8
0
100
AcDbBlockReference
  2
YA_N
 10
6.0
 20
5.0
 30
0.0
  0
LINE
  5
7C16
330
19
100
AcDbEntity
  8
2
100
AcDbLine
 10
3565.385863056541
 20
3562.485624603524
 30
0.0
 11
1405.780957652445
 21
3562.485624603524
 31
0.0
  0
LINE
  5
7C17
330
19
100
AcDbEntity
  8
2
100
AcDbLine
 10
2658.605211603564
 20
2372.485624603523
 30
0.0
 11
2658.605211603564
 21
4431.08705245024
 31
0.0
  0
LINE
  5
7C18
330
19
100
AcDbEntity
  8
1
100
AcDbLine
 10
2663.605211603564
 20
4322.485624603523
 30
0.0
 11
1407.605211603564
 21
4322.485624603523
 31
0.0
  0
LINE
  5
7C19
330
19
100
AcDbEntity
  8
1
100
AcDbLine
 10
1407.605211603564
 20
4322.485624603523
 30
0.0
 11
1407.605211603564
 21
4318.485624603523
 31
0.0
  0
LINE
  5
7C1A
330
19
100
AcDbEntity
  8
1
100
AcDbLine
 10
2663.605211603564
 20
4322.485624603523
 30
0.0
 11
2663.605211603564
 21
4318.485624603523
 31
0.0
  0
LINE
  5
7C1B
330
19
100
AcDbEntity
  8
1
100
AcDbLine
 10
2610.605211603564
 20
4272.485624603524
 30
0.0
 11
1465.092299839001
 21
4272.485624603524
 31
0.0
  0
LINE
  5
7C1C
330
19
100
AcDbEntity
  8
1
100
AcDbLine
 10
2663.605211603564
 20
4318.485624603523
 30
0.0
 11
1407.605211603564
 21
4318.485624603523
 31
0.0
  0
LINE
  5
7C1D
330
19
100
AcDbEntity
  8
1
100
AcDbLine
 10
3318.605211603565
 20
2552.485624603523
 30
0.0
 11
868.6052116035643
 21
2552.485624603523
 31
0.0
1001
ACAD
1000
ASC_BOUNDS
1002
{
1070
    19
1002
}
  0
LINE
  5
7C1E
330
19
100
AcDbEntity
  8
1
100
AcDbLine
 10
3318.605211603565
 20
2702.485624603524
 30
0.0
 11
3318.605211603565
 21
2552.485624603523
 31
0.0
  0
LINE
  5
7C1F
330
19
100
AcDbEntity
  8
1
100
AcDbLine
 10
868.6052116035643
 20
2702.485624603524
 30
0.0
 11
868.6052116035643
 21
2552.485624603523
 31
0.0
  0
LINE
  5
7C20
330
19
100
AcDbEntity
  8
1
100
AcDbLine
 10
3318.605211603565
 20
2702.485624603524
 30
0.0
 11
868.6052116035643
 21
2702.485624603524
 31
0.0
  0
ARC
  5
7C21
330
19
100
AcDbEntity
  8
1
100
AcDbCircle
 10
2576.605211603565
 20
3644.485624603524
 30
0.0
 40
1051.0
100
AcDbArc
 50
184.4748178985338
 51
243.6745128597882
  0
ARC
  5
7C22
330
19
100
AcDbEntity
  8
1
100
AcDbCircle
 10
2576.605211603565
 20
3480.485624603524
 30
0.0
 40
887.0
100
AcDbArc
 50
298.7038531083218
 51
5.3043652077959
  0
ARC
  5
7C23
330
19
100
AcDbEntity
  8
1
100
AcDbCircle
 10
2727.105211603565
 20
3493.985624603523
 30
0.0
 40
736.5
100
AcDbArc
 50
5.336648321383483
 51
95.33664832138349
  0
LINE
  5
7C24
330
19
100
AcDbEntity
  8
1
100
AcDbLine
 10
1460.605211603564
 20
4322.485624603523
 30
0.0
 11
1528.808952782222
 21
3562.485624603524
 31
0.0
  0
LINE
  5
7C25
330
19
100
AcDbEntity
  8
1
100
AcDbLine
 10
2610.605211603564
 20
4322.485624603523
 30
0.0
 11
2610.605211603564
 21
4219.057048837008
 31
0.0
  0
LINE
  5
7C26
330
19
100
AcDbEntity
  8
2
100
AcDbLine
 10
1158.605211603564
 20
3251.343900759468
 30
0.0
 11
1158.605211603566
 21
2372.485624603523
 31
0.0
  0
LINE
  5
7C27
330
19
100
AcDbEntity
  8
2
100
AcDbLine
 10
1393.931506462544
 20
2962.485624603523
 30
0.0
 11
885.4583862052095
 21
2962.485624603523
 31
0.0
  0
LINE
  5
7C28
330
19
100
AcDbEntity
  8
1
100
AcDbLine
 10
4571.752841307517
 20
2552.485624603523
 30
0.0
 11
4646.752841307518
 21
2552.485624603523
 31
0.0
1001
ACAD
1000
ASC_BOUNDS
1002
{
1070
    19
1002
}
  0
LINE
  5
7C29
330
19
100
AcDbEntity
  8
1
100
AcDbLine
 10
4571.752841307517
 20
2702.485624603524
 30
0.0
 11
6471.752841307505
 21
2702.485624603524
 31
0.0
  0
LINE
  5
7C2A
330
19
100
AcDbEntity
  8
1
100
AcDbLine
 10
4571.752841307517
 20
2702.485624603524
 30
0.0
 11
4571.752841307517
 21
2552.485624603523
 31
0.0
  0
LINE
  5
7C2B
330
19
100
AcDbEntity
  8
1
100
AcDbLine
 10
4646.752841307518
 20
2552.485624603523
 30
0.0
 11
6471.752841307505
 21
2552.485624603523
 31
0.0
1001
ACAD
1000
ASC_BOUNDS
1002
{
1070
    19
1002
}
  0
LINE
  5
7C2C
330
19
100
AcDbEntity
  8
2
100
AcDbLine
 10
4459.276091240407
 20
3562.485624603524
 30
0.0
 11
6568.740828384246
 21
3562.485624603524
 31
0.0
  0
LINE
  5
7C2D
330
19
100
AcDbEntity
  8
1
100
AcDbLine
 10
4558.752841307506
 20
3719.985624603523
 30
0.0
 11
4558.752841307506
 21
2844.485624603523
 31
0.0
  0
LINE
  5
7C2E
330
19
100
AcDbEntity
  8
1
100
AcDbLine
 10
4669.252841307506
 20
3719.985624603523
 30
0.0
 11
4669.252841307505
 21
2844.485624603523
 31
0.0
  0
LINE
  5
7C2F
330
19
100
AcDbEntity
  8
2
100
AcDbLine
 10
4460.533902088377
 20
2962.485624603523
 30
0.0
 11
4893.752841307505
 21
2962.485624603523
 31
0.0
  0
LINE
  5
7C30
330
19
100
AcDbEntity
  8
1
100
AcDbLine
 10
4443.752841307505
 20
3782.485624603523
 30
0.0
 11
4443.752841307505
 21
2742.485624603523
 31
0.0
  0
LINE
  5
7C31
330
19
100
AcDbEntity
  8
1
100
AcDbLine
 10
4721.052841307505
 20
3782.485624603523
 30
0.0
 11
4721.052841307505
 21
3728.68291345965
 31
0.0
  0
LINE
  5
7C32
330
19
100
AcDbEntity
  8
2
100
AcDbLine
 10
2658.605211603564
 20
7659.589228534553
 30
0.0
 11
2658.605211603564
 21
5527.882568465052
 31
0.0
  0
LINE
  5
7C33
330
19
100
AcDbEntity
  8
2
100
AcDbLine
 10
3532.711479993632
 20
6727.882568465052
 30
0.0
 11
1460.605211603565
 21
6727.882568465052
 31
0.0
  0
LINE
  5
7C34
330
19
100
AcDbEntity
  8
2
100
AcDbLine
 10
5643.752841307505
 20
4567.421150424758
 30
0.0
 11
5643.752841307505
 21
2372.485624603523
 31
0.0
  0
POINT
  5
7C35
330
19
100
AcDbEntity
  8
1
100
AcDbPoint
 10
2658.605211603564
 20
4363.687187102143
 30
0.0
  0
INSERT
  5
7C36
330
19
100
AcDbEntity
  8
0
100
AcDbBlockReference
  2
YA_N
 10
-1074.779326041183
 20
-1311.669320613289
 30
0.0
 41
25.0
 42
25.0
 43
25.0
  0
LINE
  5
7C38
330
19
100
AcDbEntity
  8
1
100
AcDbLine
 10
3318.605211603565
 20
2447.485624603523
 30
0.0
 11
868.6052116035643
 21
2447.485624603523
 31
0.0
1001
ACAD
1000
ASC_BOUNDS
1002
{
1070
    19
1002
}
  0
LINE
  5
7C39
330
19
100
AcDbEntity
  8
1
100
AcDbLine
 10
3318.605211603565
 20
2447.485624603523
 30
0.0
 11
3318.605211603565
 21
2372.485624603523
 31
0.0
  0
LINE
  5
7C3A
330
19
100
AcDbEntity
  8
1
100
AcDbLine
 10
868.6052116035643
 20
2447.485624603523
 30
0.0
 11
868.6052116035643
 21
2372.485624603523
 31
0.0
  0
LINE
  5
7C3B
330
19
100
AcDbEntity
  8
1
100
AcDbLine
 10
3318.605211603565
 20
2372.485624603523
 30
0.0
 11
868.6052116035643
 21
2372.485624603523
 31
0.0
1001
ACAD
1000
ASC_BOUNDS
1002
{
1070
    19
1002
}
  0
LINE
  5
7C3C
330
19
100
AcDbEntity
  8
1
100
AcDbLine
 10
4571.752841307517
 20
2447.485624603523
 30
0.0
 11
6471.752841307505
 21
2447.485624603523
 31
0.0
1001
ACAD
1000
ASC_BOUNDS
1002
{
1070
    19
1002
}
  0
LINE
  5
7C3D
330
19
100
AcDbEntity
  8
1
100
AcDbLine
 10
4571.752841307517
 20
2447.485624603523
 30
0.0
 11
4571.752841307505
 21
2372.485624603523
 31
0.0
  0
LINE
  5
7C3E
330
19
100
AcDbEntity
  8
1
100
AcDbLine
 10
6471.752841307505
 20
2447.485624603523
 30
0.0
 11
6471.752841307481
 21
2372.485624603523
 31
0.0
  0
LINE
  5
7C3F
330
19
100
AcDbEntity
  8
1
100
AcDbLine
 10
4571.752841307504
 20
2372.485624603523
 30
0.0
 11
6471.752841307486
 21
2372.485624603523
 31
0.0
  0
INSERT
  5
7C40
330
19
100
AcDbEntity
  8
0
100
AcDbBlockReference
  2
YA_N
 10
-346.941647642394
 20
-375.8074592043958
 30
0.0
 41
25.0
 42
25.0
 43
25.0
  0
DIMENSION
  5
7C42
330
19
100
AcDbEntity
  8
3
100
AcDbDimension
280
     0
  2
*D2
 10
2610.605211603564
 20
4522.593940887789
 30
0.0
 11
2035.605211603565
 21
4592.593940887789
 31
0.0
 12
258.7414280441444
 22
2341.03724129964
 32
0.0
 70
    32
 71
     5
 42
-1.0
 73
     0
 74
     0
 75
     0
  3
MATSU
100
AcDbAlignedDimension
 13
1460.605211603564
 23
4322.485624603523
 33
0.0
 14
2610.605211603564
 24
4322.485624603523
 34
0.0
100
AcDbRotatedDimension
1001
ACAD
1000
DSTYLE
1002
{
1070
    40
1040
35.0
1002
}
  0
DIMENSION
  5
7C43
330
19
100
AcDbEntity
  8
3
100
AcDbDimension
280
     0
  2
*D3
 10
2658.605211603564
 20
4726.146878415224
 30
0.0
 11
2059.605211603564
 21
4796.146878415224
 31
0.0
 12
258.7414280441444
 22
2341.03724129964
 32
0.0
 70
    32
 71
     5
 42
-1.0
 73
     0
 74
     0
 75
     0
  3
MATSU
100
AcDbAlignedDimension
 13
1460.605211603564
 23
4322.485624603523
 33
0.0
 14
2658.605211603564
 24
4408.324625502256
 34
0.0
100
AcDbRotatedDimension
1001
ACAD
1000
DSTYLE
1002
{
1070
    40
1040
35.0
1002
}
  0
DIMENSION
  5
7C44
330
19
100
AcDbEntity
  8
3
100
AcDbDimension
280
     0
  2
*D4
 10
2658.605211603564
 20
2173.705817046093
 30
0.0
 11
2988.605211603564
 21
2243.705817046093
 31
0.0
 70
    32
 71
     5
 42
660.0
 73
     0
 74
     0
 75
     0
  3
MATSU
100
AcDbAlignedDimension
 13
3318.605211603565
 23
2372.485624603523
 33
0.0
 14
2658.605211603564
 24
2372.485624603523
 34
0.0
100
AcDbRotatedDimension
1001
ACAD
1000
DSTYLE
1002
{
1070
    40
1040
35.0
1002
}
  0
ARC
  5
7C45
330
19
100
AcDbEntity
  8
1
100
AcDbCircle
 10
2727.105211603565
 20
3630.985624603523
 30
0.0
 40
599.5
100
AcDbArc
 50
96.56105354283349
 51
101.2055053685536
  0
ARC
  5
7C46
330
19
100
AcDbEntity
  8
1
100
AcDbCircle
 10
1158.605211603564
 20
2962.485624603523
 30
0.0
 40
203.5
100
AcDbArc
 50
285.6036990000001
 51
254.39624
  0
LINE
  5
7C47
330
19
100
AcDbEntity
  8
1
100
AcDbLine
 10
1103.867174603565
 20
2766.485624603524
 30
0.0
 11
1213.343248603565
 21
2766.485624603524
 31
0.0
  0
ARC
  5
7C48
330
19
100
AcDbEntity
  8
1
100
AcDbCircle
 10
1344.605211603564
 20
2779.485624603524
 30
0.0
 40
3.0
100
AcDbArc
 50
0.0
 51
90.0
  0
ARC
  5
7C49
330
19
100
AcDbEntity
  8
1
100
AcDbCircle
 10
1342.605211603564
 20
2836.812285603524
 30
0.0
 40
5.000066999999999
100
AcDbArc
 50
0.0
 51
55.056335
  0
LINE
  5
7C4A
330
19
100
AcDbEntity
  8
1
100
AcDbLine
 10
1347.605211603564
 20
2836.812285603524
 30
0.0
 11
1347.605211603564
 21
2762.485624603523
 31
0.0
  0
LINE
  5
7C4E
330
19
100
AcDbEntity
  8
1
100
AcDbLine
 10
1262.707781603565
 20
2787.628813603524
 30
0.0
 11
1268.105211603564
 21
2767.485624603523
 31
0.0
  0
LINE
  5
7C4F
330
19
100
AcDbEntity
  8
1
100
AcDbLine
 10
1268.105211603564
 20
2779.485624603524
 30
0.0
 11
1268.105211603564
 21
2762.485624603523
 31
0.0
  0
LINE
  5
7C50
330
19
100
AcDbEntity
  8
1
100
AcDbLine
 10
1271.105211603564
 20
2782.485624603524
 30
0.0
 11
1344.605211603564
 21
2782.485624603524
 31
0.0
  0
ARC
  5
7C51
330
19
100
AcDbEntity
  8
1
100
AcDbCircle
 10
1271.105211603564
 20
2779.485624603524
 30
0.0
 40
3.0
100
AcDbArc
 50
90.0
 51
180.0
  0
LINE
  5
7C52
330
19
100
AcDbEntity
  8
1
100
AcDbLine
 10
1345.468981603564
 20
2840.910917603524
 30
0.0
 11
1329.531115603564
 21
2852.047392603523
 31
0.0
  0
LINE
  5
7C53
330
19
100
AcDbEntity
  8
1
100
AcDbLine
 10
969.6052116035643
 20
2836.812285603524
 30
0.0
 11
969.6052116035643
 21
2762.485624603523
 31
0.0
  0
LINE
  5
7C57
330
19
100
AcDbEntity
  8
1
100
AcDbLine
 10
1054.502428603566
 20
2787.628935603523
 30
0.0
 11
1049.105211603564
 21
2767.485624603523
 31
0.0
  0
LINE
  5
7C58
330
19
100
AcDbEntity
  8
1
100
AcDbLine
 10
1049.105211603564
 20
2779.485624603524
 30
0.0
 11
1049.105211603564
 21
2762.485624603523
 31
0.0
  0
LINE
  5
7C59
330
19
100
AcDbEntity
  8
1
100
AcDbLine
 10
1046.105211603564
 20
2782.485624603524
 30
0.0
 11
972.6052116035644
 21
2782.485624603524
 31
0.0
  0
ARC
  5
7C5A
330
19
100
AcDbEntity
  8
1
100
AcDbCircle
 10
1046.105211603564
 20
2779.485624603524
 30
0.0
 40
3.0
100
AcDbArc
 50
0.0
 51
90.0
  0
ARC
  5
7C5B
330
19
100
AcDbEntity
  8
1
100
AcDbCircle
 10
972.6052116035644
 20
2779.485624603524
 30
0.0
 40
3.0
100
AcDbArc
 50
90.0
 51
180.0
  0
LINE
  5
7C5C
330
19
100
AcDbEntity
  8
1
100
AcDbLine
 10
971.7413206035653
 20
2840.910917603524
 30
0.0
 11
987.6791866035656
 21
2852.047392603523
 31
0.0
  0
ARC
  5
7C5D
330
19
100
AcDbEntity
  8
1
100
AcDbCircle
 10
974.6052116035643
 20
2836.812285603524
 30
0.0
 40
5.0
100
AcDbArc
 50
124.943661
 51
180.0
  0
LINE
  5
7C5E
330
19
100
AcDbEntity
  8
1
100
AcDbLine
 10
1402.667467651654
 20
2762.485624603523
 30
0.0
 11
1228.605211603564
 21
2762.485624603523
 31
0.0
  0
LINE
  5
7C5F
330
19
100
AcDbEntity
  8
1
100
AcDbLine
 10
1418.605211603566
 20
2702.485624603524
 30
0.0
 11
1402.667467651656
 21
2762.485624603523
 31
0.0
  0
LINE
  5
7C60
330
19
100
AcDbEntity
  8
1
100
AcDbLine
 10
898.6052116035661
 20
2702.485624603524
 30
0.0
 11
914.5902215099305
 21
2762.485624603523
 31
0.0
  0
LINE
  5
7C62
330
19
100
AcDbEntity
  8
1
100
AcDbLine
 10
1228.605211603564
 20
2752.485624603524
 30
0.0
 11
1088.605211603564
 21
2752.485624603524
 31
0.0
  0
LINE
  5
7C63
330
19
100
AcDbEntity
  8
1
100
AcDbLine
 10
1088.605211603564
 20
2762.485624603523
 30
0.0
 11
1088.605211603566
 21
2752.485624603524
 31
0.0
  0
LINE
  5
7C64
330
19
100
AcDbEntity
  8
1
100
AcDbLine
 10
1228.605211603564
 20
2762.485624603523
 30
0.0
 11
1228.605211603564
 21
2752.485624603524
 31
0.0
  0
LINE
  5
7C67
330
19
100
AcDbEntity
  8
1
100
AcDbLine
 10
1088.605211603564
 20
2762.485624603523
 30
0.0
 11
914.5902215099305
 21
2762.485624603523
 31
0.0
  0
CIRCLE
  5
7C6A
330
19
100
AcDbEntity
  8
1
100
AcDbCircle
 10
1158.605211603564
 20
2962.485624603523
 30
0.0
 40
118.0
  0
CIRCLE
  5
7C6B
330
19
100
AcDbEntity
  8
1
100
AcDbCircle
 10
2658.605211603564
 20
3562.485624603524
 30
0.0
 40
157.5
  0
LINE
  5
7C6C
330
19
100
AcDbEntity
  8
1
100
AcDbLine
 10
4558.752841307505
 20
3080.485624603523
 30
0.0
 11
4669.252841307505
 21
3080.485624603523
 31
0.0
  0
LINE
  5
7C6D
330
19
100
AcDbEntity
  8
1
100
AcDbLine
 10
4558.752841307506
 20
2844.485624603523
 30
0.0
 11
4669.252841307505
 21
2844.485624603523
 31
0.0
  0
LINE
  5
7C6E
330
19
100
AcDbEntity
  8
1
100
AcDbLine
 10
4558.752841307506
 20
3719.985624603523
 30
0.0
 11
4669.252841307506
 21
3719.985624603523
 31
0.0
  0
LINE
  5
7C6F
330
19
100
AcDbEntity
  8
1
100
AcDbLine
 10
4558.752841307505
 20
3404.985624603523
 30
0.0
 11
4669.252841307505
 21
3404.985624603523
 31
0.0
  0
LINE
  5
7C70
330
19
100
AcDbEntity
  8
1
100
AcDbLine
 10
4443.752841307504
 20
3782.485624603523
 30
0.0
 11
4721.052841307505
 21
3782.485624603523
 31
0.0
  0
LINE
  5
7C71
330
19
100
AcDbEntity
  8
1
100
AcDbLine
 10
4443.752841307505
 20
2742.485624603523
 30
0.0
 11
4721.052841307505
 21
2742.485624603523
 31
0.0
  0
POINT
  5
7C73
330
19
100
AcDbEntity
  8
1
100
AcDbPoint
 10
3318.605211603565
 20
2447.485624603523
 30
0.0
  0
POINT
  5
7C74
330
19
100
AcDbEntity
  8
1
100
AcDbPoint
 10
3318.605211603565
 20
2552.485624603523
 30
0.0
  0
POINT
  5
7C75
330
19
100
AcDbEntity
  8
1
100
AcDbPoint
 10
3318.605211603565
 20
2447.485624603523
 30
0.0
  0
POINT
  5
7C76
330
19
100
AcDbEntity
  8
1
100
AcDbPoint
 10
3318.605211603565
 20
2372.485624603523
 30
0.0
  0
INSERT
  5
7C77
330
19
100
AcDbEntity
  8
0
100
AcDbBlockReference
  2
YA_N
 10
-394.4722692372307
 20
-430.8984299984331
 30
0.0
 41
25.0
 42
25.0
 43
25.0
  0
DIMENSION
  5
7C79
330
19
100
AcDbEntity
  8
3
100
AcDbDimension
280
     0
  2
*D5
 10
3926.277989107698
 20
2552.485624603523
 30
0.0
 11
3856.277989107697
 21
3057.485624603524
 31
0.0
 12
258.7414280441444
 22
2341.03724129964
 32
0.0
 70
    32
 71
     5
 42
-1.0
 73
     0
 74
     0
 75
     0
  3
MATSU
100
AcDbAlignedDimension
 13
3504.444212502298
 23
3562.485624603524
 33
0.0
 14
3318.605211603565
 24
2552.485624603523
 34
0.0
 50
270.0
100
AcDbRotatedDimension
1001
ACAD
1000
DSTYLE
1002
{
1070
    40
1040
35.0
1002
}
  0
POINT
  5
7C7A
330
19
100
AcDbEntity
  8
1
100
AcDbPoint
 10
3318.605211603565
 20
2447.485624603523
 30
0.0
  0
POINT
  5
7C7B
330
19
100
AcDbEntity
  8
1
100
AcDbPoint
 10
3318.605211603565
 20
2372.485624603523
 30
0.0
  0
POINT
  5
7C7C
330
19
100
AcDbEntity
  8
1
100
AcDbPoint
 10
3318.605211603565
 20
2447.485624603523
 30
0.0
  0
POINT
  5
7C7D
330
19
100
AcDbEntity
  8
1
100
AcDbPoint
 10
3318.605211603565
 20
2552.485624603523
 30
0.0
  0
LINE
  5
7C7E
330
19
100
AcDbEntity
  8
1
100
AcDbLine
 10
4843.752841307504
 20
4322.485624603523
 30
0.0
 11
6443.752841307506
 21
4322.485624603523
 31
0.0
  0
LINE
  5
7C7F
330
19
100
AcDbEntity
  8
1
100
AcDbLine
 10
4893.752841307506
 20
2702.485624603524
 30
0.0
 11
4893.752841307504
 21
4322.485624603523
 31
0.0
  0
LINE
  5
7C80
330
19
100
AcDbEntity
  8
1
100
AcDbLine
 10
6393.752841307505
 20
2702.485624603524
 30
0.0
 11
6393.752841307505
 21
4322.485624603523
 31
0.0
  0
DIMENSION
  5
7C81
330
19
100
AcDbEntity
  8
3
100
AcDbDimension
280
     0
  2
*D6
 10
2658.605211603564
 20
2172.912024695539
 30
0.0
 11
1763.605211603564
 21
2242.912024695539
 31
0.0
 70
    32
 71
     5
 42
1790.0
 73
     0
 74
     0
 75
     0
  3
MATSU
100
AcDbAlignedDimension
 13
868.6052116035643
 23
2372.485624603523
 33
0.0
 14
2658.605211603564
 24
2372.485624603523
 34
0.0
100
AcDbRotatedDimension
1001
ACAD
1000
DSTYLE
1002
{
1070
    40
1040
35.0
1002
}
  0
LINE
  5
7C83
330
19
100
AcDbEntity
  8
1
100
AcDbLine
 10
4736.252841307504
 20
3499.485624603523
 30
0.0
 11
4826.452841307505
 21
3499.485624603523
 31
0.0
  0
LINE
  5
7C84
330
19
100
AcDbEntity
  8
1
100
AcDbLine
 10
4726.252841307505
 20
3489.485624603523
 30
0.0
 11
4726.252841307505
 21
3359.485624603524
 31
0.0
  0
LINE
  5
7C85
330
19
100
AcDbEntity
  8
1
100
AcDbLine
 10
4866.252841307504
 20
3499.485624603523
 30
0.0
 11
4866.252841307503
 21
3349.485624603523
 31
0.0
  0
LINE
  5
7C86
330
19
100
AcDbEntity
  8
1
100
AcDbLine
 10
4736.252841307504
 20
3349.485624603523
 30
0.0
 11
4826.452841307505
 21
3349.485624603523
 31
0.0
  0
ARC
  5
7C87
330
19
100
AcDbEntity
  8
1
100
AcDbCircle
 10
4736.252841307504
 20
3489.485624603523
 30
0.0
 40
10.0
100
AcDbArc
 50
90.0
 51
180.0
  0
ARC
  5
7C88
330
19
100
AcDbEntity
  8
1
100
AcDbCircle
 10
4736.252841307504
 20
3359.485624603524
 30
0.0
 40
10.0
100
AcDbArc
 50
180.0
 51
270.0
  0
LINE
  5
7C89
330
19
100
AcDbEntity
  8
1
100
AcDbLine
 10
6436.252841307505
 20
3499.485624603523
 30
0.0
 11
6436.252841307505
 21
3349.485624603523
 31
0.0
  0
LINE
  5
7C8A
330
19
100
AcDbEntity
  8
1
100
AcDbLine
 10
6576.252841307504
 20
3489.485624603523
 30
0.0
 11
6576.252841307504
 21
3359.485624603524
 31
0.0
  0
LINE
  5
7C8B
330
19
100
AcDbEntity
  8
1
100
AcDbLine
 10
6566.252841307505
 20
3349.485624603523
 30
0.0
 11
6476.052841307508
 21
3349.485624603523
 31
0.0
  0
ARC
  5
7C8C
330
19
100
AcDbEntity
  8
1
100
AcDbCircle
 10
6566.252841307505
 20
3359.485624603524
 30
0.0
 40
10.0
100
AcDbArc
 50
270.0
 51
0.0
  0
LINE
  5
7C8D
330
19
100
AcDbEntity
  8
1
100
AcDbLine
 10
6566.252841307505
 20
3499.485624603523
 30
0.0
 11
6476.052841307508
 21
3499.485624603523
 31
0.0
  0
ARC
  5
7C8E
330
19
100
AcDbEntity
  8
1
100
AcDbCircle
 10
6566.252841307505
 20
3489.485624603523
 30
0.0
 40
10.0
100
AcDbArc
 50
0.0
 51
90.0
  0
LINE
  5
7C8F
330
19
100
AcDbEntity
  8
1
100
AcDbLine
 10
4698.752841307504
 20
3602.485624603524
 30
0.0
 11
4893.752841307505
 21
3602.485624603524
 31
0.0
  0
LINE
  5
7C90
330
19
100
AcDbEntity
  8
1
100
AcDbLine
 10
4698.752841307505
 20
3522.485624603524
 30
0.0
 11
4893.752841307505
 21
3522.485624603524
 31
0.0
  0
LINE
  5
7C91
330
19
100
AcDbEntity
  8
1
100
AcDbLine
 10
4698.752841307505
 20
3602.485624603524
 30
0.0
 11
4698.752841307505
 21
3522.485624603524
 31
0.0
  0
LINE
  5
7C92
330
19
100
AcDbEntity
  8
1
100
AcDbLine
 10
4669.252841307506
 20
3594.985624603523
 30
0.0
 11
4698.752841307505
 21
3594.985624603523
 31
0.0
  0
LINE
  5
7C93
330
19
100
AcDbEntity
  8
1
100
AcDbLine
 10
4669.252841307505
 20
3529.985624603523
 30
0.0
 11
4698.752841307505
 21
3529.985624603523
 31
0.0
  0
LINE
  5
7C94
330
19
100
AcDbEntity
  8
1
100
AcDbLine
 10
5643.752841307505
 20
4817.763331747915
 30
0.0
 11
5643.752841307505
 21
4768.174208826927
 31
0.0
  0
DIMENSION
  5
7C95
330
19
100
AcDbEntity
  8
3
100
AcDbDimension
280
     0
  2
*D7
 10
5643.752841307505
 20
4849.642057611087
 30
0.0
 11
5043.752841307505
 21
4947.142057611086
 31
0.0
 70
    32
  1
(<>)
 71
     5
 42
1200.000000000001
 73
     0
 74
     0
 75
     0
  3
MATSU
100
AcDbAlignedDimension
 13
4443.752841307504
 23
3782.485624603523
 33
0.0
 14
5643.752841307505
 24
4817.763331747915
 34
0.0
100
AcDbRotatedDimension
1001
ACAD
1000
DSTYLE
1002
{
1070
    40
1040
35.0
1002
}
  0
DIMENSION
  5
7C96
330
19
100
AcDbEntity
  8
3
100
AcDbDimension
280
     0
  2
*D8
 10
6573.752841307501
 20
4849.292926320111
 30
0.0
 11
6108.752841307503
 21
4946.792926320111
 31
0.0
 70
    32
  1
(<>)
 71
     5
 42
929.9999999999963
 73
     0
 74
     0
 75
     0
  3
MATSU
100
AcDbAlignedDimension
 13
5643.752841307505
 23
4817.763331747915
 33
0.0
 14
6573.752841307501
 24
3472.975135942227
 34
0.0
100
AcDbRotatedDimension
1001
ACAD
1000
DSTYLE
1002
{
1070
    40
1040
35.0
1002
}
  0
DIMENSION
  5
7C97
330
19
100
AcDbEntity
  8
3
100
AcDbDimension
280
     0
  2
*D9
 10
6761.535607663019
 20
4122.485624603523
 30
0.0
 11
6691.53560766302
 21
3562.485624603524
 31
0.0
 12
0.0
 22
2341.03724129964
 32
0.0
 70
    32
  1
φ<>
 71
     5
 42
-1.0
 73
     0
 74
     0
 75
     0
  3
MATSU
100
AcDbAlignedDimension
 13
6399.252841307509
 23
3002.485624603524
 33
0.0
 14
6399.252841307509
 24
4122.485624603523
 34
0.0
 50
90.0
100
AcDbRotatedDimension
1001
ACAD
1000
DSTYLE
1002
{
1070
    40
1040
35.0
1002
}
  0
LINE
  5
7C98
330
19
100
AcDbEntity
  8
1
100
AcDbLine
 10
6476.052841307506
 20
3499.485624603523
 30
0.0
 11
6436.252841307505
 21
3499.485624603523
 31
0.0
  0
LINE
  5
7C99
330
19
100
AcDbEntity
  8
1
100
AcDbLine
 10
6476.052841307508
 20
3349.485624603523
 30
0.0
 11
6436.252841307505
 21
3349.485624603523
 31
0.0
  0
LINE
  5
7C9A
330
19
100
AcDbEntity
  8
1
100
AcDbLine
 10
4826.452841307505
 20
3499.485624603523
 30
0.0
 11
4866.252841307504
 21
3499.485624603523
 31
0.0
  0
LINE
  5
7C9B
330
19
100
AcDbEntity
  8
1
100
AcDbLine
 10
4826.452841307505
 20
3349.485624603523
 30
0.0
 11
4866.252841307504
 21
3349.485624603523
 31
0.0
  0
LINE
  5
7C9C
330
19
100
AcDbEntity
  8
1
100
AcDbLine
 10
3318.605211603565
 20
5655.882568465052
 30
0.0
 11
868.6052116035643
 21
5655.882568465051
 31
0.0
  0
LINE
  5
7C9D
330
19
100
AcDbEntity
  8
1
100
AcDbLine
 10
3318.605211603565
 20
7555.88256846505
 30
0.0
 11
1998.605211603564
 21
7555.882568465051
 31
0.0
  0
LINE
  5
7C9E
330
19
100
AcDbEntity
  8
1
100
AcDbLine
 10
3318.605211603565
 20
7555.882568465051
 30
0.0
 11
3318.605211603565
 21
7477.88256846505
 31
0.0
  0
LINE
  5
7C9F
330
19
100
AcDbEntity
  8
1
100
AcDbLine
 10
868.6052116035643
 20
6655.88256846505
 30
0.0
 11
868.6052116035643
 21
5655.882568465051
 31
0.0
  0
LINE
  5
7CA0
330
19
100
AcDbEntity
  8
1
100
AcDbLine
 10
1998.605211603563
 20
7555.882568465051
 30
0.0
 11
1998.605211603563
 21
7477.88256846505
 31
0.0
  0
LINE
  5
7CA1
330
19
100
AcDbEntity
  8
1
100
AcDbLine
 10
1460.605211603564
 20
6655.882568465051
 30
0.0
 11
868.6052116035643
 21
6655.88256846505
 31
0.0
  0
DIMENSION
  5
7CA2
330
19
100
AcDbEntity
  8
3
100
AcDbDimension
280
     0
  2
*D10
 10
3318.605211603565
 20
5324.157992434645
 30
0.0
 11
2093.605211603565
 21
5324.157992434645
 31
0.0
 12
258.7414280441444
 22
1657.629361297473
 32
0.0
 70
   160
 71
     5
 42
-1.0
 73
     0
 74
     0
 75
     0
  3
MATSU
100
AcDbAlignedDimension
 13
868.6052116035643
 23
5655.882568465051
 33
0.0
 14
3318.605211603565
 24
5655.882568465052
 34
0.0
100
AcDbRotatedDimension
1001
ACAD
1000
DSTYLE
1002
{
1070
    40
1040
35.0
1002
}
  0
DIMENSION
  5
7CA3
330
19
100
AcDbEntity
  8
3
100
AcDbDimension
280
     0
  2
*D11
 10
3717.59446212546
 20
5655.882568465052
 30
0.0
 11
3647.594462125461
 21
6605.882568465052
 31
0.0
 12
258.7414280441444
 22
1657.629361297473
 32
0.0
 70
    32
 71
     5
 42
-1.0
 73
     0
 74
     0
 75
     0
  3
MATSU
100
AcDbAlignedDimension
 13
3318.605211603565
 23
7555.882568465051
 33
0.0
 14
3318.605211603565
 24
5655.882568465052
 34
0.0
 50
90.0
100
AcDbRotatedDimension
1001
ACAD
1000
DSTYLE
1002
{
1070
    40
1040
35.0
1002
}
  0
DIMENSION
  5
7CA4
330
19
100
AcDbEntity
  8
3
100
AcDbDimension
280
     0
  2
*D12
 10
652.8275727420223
 20
5655.882568465051
 30
0.0
 11
582.8275727420223
 21
6155.882568465051
 31
0.0
 12
258.7414280441444
 22
0.0
 32
0.0
 70
    32
 71
     5
 42
-1.0
 73
     0
 74
     0
 75
     0
  3
MATSU
100
AcDbAlignedDimension
 13
868.6052116035643
 23
6655.88256846505
 33
0.0
 14
868.6052116035643
 24
5655.882568465051
 34
0.0
 50
90.0
100
AcDbRotatedDimension
1001
ACAD
1000
DSTYLE
1002
{
1070
    40
1040
35.0
1002
}
  0
DIMENSION
  5
7CA5
330
19
100
AcDbEntity
  8
3
100
AcDbDimension
280
     0
  2
*D13
 10
1998.605211603564
 20
7952.739704514396
 30
0.0
 11
1433.605211603564
 21
8022.739704514396
 31
0.0
 12
258.7414280441444
 22
1657.629361297473
 32
0.0
 70
    32
 71
     5
 42
-1.0
 73
     0
 74
     0
 75
     0
  3
MATSU
100
AcDbAlignedDimension
 13
868.6052116035643
 23
6655.88256846505
 33
0.0
 14
1998.605211603564
 24
7555.882568465051
 34
0.0
100
AcDbRotatedDimension
1001
ACAD
1000
DSTYLE
1002
{
1070
    40
1040
35.0
1002
}
  0
DIMENSION
  5
7CA6
330
19
100
AcDbEntity
  8
3
100
AcDbDimension
280
     0
  2
*D14
 10
3318.605211603565
 20
7952.739704514396
 30
0.0
 11
2658.605211603564
 21
8022.739704514396
 31
0.0
 12
258.7414280441444
 22
1657.629361297473
 32
0.0
 70
    32
 71
     5
 42
-1.0
 73
     0
 74
     0
 75
     0
  3
MATSU
100
AcDbAlignedDimension
 13
1998.605211603563
 23
7555.882568465051
 33
0.0
 14
3318.605211603565
 24
7555.882568465051
 34
0.0
100
AcDbRotatedDimension
1001
ACAD
1000
DSTYLE
1002
{
1070
    40
1040
35.0
1002
}
  0
ARC
  5
7CA7
330
19
100
AcDbEntity
  8
1
100
AcDbCircle
 10
2658.605211603564
 20
3562.485624603524
 30
0.0
 40
220.0
100
AcDbArc
 50
285.9958323135229
 51
105.995832313523
  0
ARC
  5
7CA8
330
19
100
AcDbEntity
  8
1
100
AcDbCircle
 10
1158.605211603564
 20
2962.485624603523
 30
0.0
 40
220.0
100
AcDbArc
 50
105.9958323135229
 51
285.9958323135229
  0
LINE
  5
7CA9
330
19
100
AcDbEntity
  8
1
100
AcDbLine
 10
2597.98037633144
 20
3773.967608110933
 30
0.0
 11
1097.980376331441
 21
3173.967608110932
 31
0.0
  0
LINE
  5
7CAA
330
19
100
AcDbEntity
  8
1
100
AcDbLine
 10
2611.384699191442
 20
3712.740319064418
 30
0.0
 11
1123.227303891624
 21
3075.057395691685
 31
0.0
  0
LINE
  5
7CAB
330
19
100
AcDbEntity
  8
1
100
AcDbLine
 10
2698.160624832969
 20
3410.033601710251
 30
0.0
 11
1188.240378340515
 21
2848.267601102532
 31
0.0
  0
LINE
  5
7CAC
330
19
100
AcDbEntity
  8
1
100
AcDbLine
 10
2719.230046875689
 20
3351.003641096115
 30
0.0
 11
1219.230046875688
 21
2751.003641096115
 31
0.0
  0
POINT
  5
7CAD
330
19
100
AcDbEntity
  8
1
100
AcDbPoint
 10
3318.605211603565
 20
2447.485624603523
 30
0.0
  0
POINT
  5
7CAE
330
19
100
AcDbEntity
  8
1
100
AcDbPoint
 10
3318.605211603565
 20
2372.485624603523
 30
0.0
  0
LINE
  5
7CAF
330
19
100
AcDbEntity
  8
1
100
AcDbLine
 10
6471.752841307505
 20
2702.485624603524
 30
0.0
 11
6471.752841307505
 21
2552.485624603523
 31
0.0
  0
DIMENSION
  5
7CB0
330
19
100
AcDbEntity
  8
3
100
AcDbDimension
280
     0
  2
*D15
 10
6471.752841307486
 20
2173.136493910508
 30
0.0
 11
6057.752841307495
 21
2243.136493910508
 31
0.0
 70
    32
 71
     5
 42
827.99999999998
 73
     0
 74
     0
 75
     0
  3
MATSU
100
AcDbAlignedDimension
 13
5643.752841307505
 23
2372.485624603523
 33
0.0
 14
6471.752841307486
 24
2372.485624603523
 34
0.0
100
AcDbRotatedDimension
1001
ACAD
1000
DSTYLE
1002
{
1070
    40
1040
35.0
1002
}
  0
DIMENSION
  5
7CB1
330
19
100
AcDbEntity
  8
3
100
AcDbDimension
280
     0
  2
*D16
 10
5643.752841307505
 20
2173.136493910508
 30
0.0
 11
5107.752841307507
 21
2243.136493910508
 31
0.0
 70
    32
 71
     5
 42
1071.999999999997
 73
     0
 74
     0
 75
     0
  3
MATSU
100
AcDbAlignedDimension
 13
4571.752841307508
 23
2372.485624603523
 33
0.0
 14
5643.752841307505
 24
2372.485624603523
 34
0.0
100
AcDbRotatedDimension
1001
ACAD
1000
DSTYLE
1002
{
1070
    40
1040
35.0
1002
}
  0
CIRCLE
  5
7CB3
330
19
100
AcDbEntity
  8
1
100
AcDbCircle
 10
2658.605211603564
 20
3562.485624603524
 30
0.0
 40
560.0
  0
CIRCLE
  5
7CB4
330
19
100
AcDbEntity
  8
1
100
AcDbCircle
 10
2658.605211603564
 20
3562.485624603524
 30
0.0
 40
610.0
  0
LINE
  5
7CB5
330
19
100
AcDbEntity
  8
2
100
AcDbLine
 10
1158.605211603564
 20
5527.882568465052
 30
0.0
 11
1158.605211603564
 21
6417.382568465052
 31
0.0
  0
DIMENSION
  5
7CB6
330
19
100
AcDbEntity
  8
3
100
AcDbDimension
280
     0
  2
*D17
 10
6393.752841307505
 20
4585.497381248163
 30
0.0
 11
5643.752841307505
 21
4655.497381248164
 31
0.0
 12
0.0
 22
2341.03724129964
 32
0.0
 70
    32
 71
     5
 42
-1.0
 73
     0
 74
     0
 75
     0
  3
MATSU
100
AcDbAlignedDimension
 13
4893.752841307504
 23
4322.485624603523
 33
0.0
 14
6393.752841307505
 24
4322.485624603523
 34
0.0
100
AcDbRotatedDimension
1001
ACAD
1000
DSTYLE
1002
{
1070
    40
1040
35.0
1002
}
  0
LINE
  5
7CB7
330
19
100
AcDbEntity
  8
1
100
AcDbLine
 10
2878.605211603565
 20
5527.882568465052
 30
0.0
 11
938.6052116035644
 21
5527.882568465051
 31
0.0
  0
LINE
  5
7CB8
330
19
100
AcDbEntity
  8
1
100
AcDbLine
 10
2878.605211603565
 20
5777.882568465052
 30
0.0
 11
938.6052116035644
 21
5777.882568465051
 31
0.0
  0
LINE
  5
7CB9
330
19
100
AcDbEntity
  8
1
100
AcDbLine
 10
2878.605211603565
 20
5527.882568465051
 30
0.0
 11
2878.605211603565
 21
5777.882568465051
 31
0.0
  0
LINE
  5
7CBA
330
19
100
AcDbEntity
  8
1
100
AcDbLine
 10
938.6052116035644
 20
5527.882568465051
 30
0.0
 11
938.6052116035644
 21
5777.882568465051
 31
0.0
  0
LINE
  5
7CBB
330
19
100
AcDbEntity
  8
1
100
AcDbLine
 10
3463.605211603564
 20
7477.882568465052
 30
0.0
 11
1460.605211603564
 21
7477.88256846505
 31
0.0
  0
LINE
  5
7CBC
330
19
100
AcDbEntity
  8
1
100
AcDbLine
 10
3463.605211603564
 20
5977.88256846505
 30
0.0
 11
1460.605211603564
 21
5977.882568465052
 31
0.0
  0
LINE
  5
7CBD
330
19
100
AcDbEntity
  8
1
100
AcDbLine
 10
2816.105211603565
 20
5724.882568465052
 30
0.0
 11
2816.105211603565
 21
5614.882568465052
 31
0.0
  0
LINE
  5
7CBE
330
19
100
AcDbEntity
  8
1
100
AcDbLine
 10
2501.105211603564
 20
5724.882568465052
 30
0.0
 11
2501.105211603564
 21
5614.882568465052
 31
0.0
  0
LINE
  5
7CBF
330
19
100
AcDbEntity
  8
1
100
AcDbLine
 10
1276.605211603564
 20
5614.882568465051
 30
0.0
 11
1276.605211603564
 21
5724.882568465051
 31
0.0
  0
LINE
  5
7CC0
330
19
100
AcDbEntity
  8
1
100
AcDbLine
 10
1040.605211603564
 20
5614.882568465051
 30
0.0
 11
1040.605211603564
 21
5724.882568465051
 31
0.0
  0
LINE
  5
7CC1
330
19
100
AcDbEntity
  8
1
100
AcDbLine
 10
2816.105211603565
 20
5614.882568465051
 30
0.0
 11
2501.105211603564
 21
5614.882568465053
 31
0.0
  0
LINE
  5
7CC2
330
19
100
AcDbEntity
  8
1
100
AcDbLine
 10
2816.105211603565
 20
5724.882568465051
 30
0.0
 11
2501.105211603564
 21
5724.882568465052
 31
0.0
  0
LINE
  5
7CC3
330
19
100
AcDbEntity
  8
1
100
AcDbLine
 10
1276.605211603564
 20
5724.882568465051
 30
0.0
 11
1040.605211603564
 21
5724.882568465051
 31
0.0
  0
LINE
  5
7CC4
330
19
100
AcDbEntity
  8
1
100
AcDbLine
 10
1276.605211603564
 20
5614.882568465051
 30
0.0
 11
1040.605211603564
 21
5614.882568465051
 31
0.0
  0
LINE
  5
7CC5
330
19
100
AcDbEntity
  8
1
100
AcDbLine
 10
1362.105211603564
 20
5759.882568465052
 30
0.0
 11
1362.105211603564
 21
6417.38256846505
 31
0.0
  0
LINE
  5
7CC6
330
19
100
AcDbEntity
  8
1
100
AcDbLine
 10
955.1052116035643
 20
5759.882568465052
 30
0.0
 11
955.1052116035643
 21
6417.38256846505
 31
0.0
  0
LINE
  5
7CC7
330
19
100
AcDbEntity
  8
1
100
AcDbLine
 10
1362.105211603564
 20
6417.38256846505
 30
0.0
 11
955.1052116035643
 21
6417.38256846505
 31
0.0
  0
LINE
  5
7CC8
330
19
100
AcDbEntity
  8
1
100
AcDbLine
 10
1362.105211603564
 20
5759.882568465052
 30
0.0
 11
955.1052116035643
 21
5759.882568465052
 31
0.0
  0
LINE
  5
7CC9
330
19
100
AcDbEntity
  8
1
100
AcDbLine
 10
1186.105211603564
 20
5724.882568465051
 30
0.0
 11
1186.105211603564
 21
5759.882568465052
 31
0.0
  0
LINE
  5
7CCA
330
19
100
AcDbEntity
  8
1
100
AcDbLine
 10
1131.105211603564
 20
5724.882568465051
 30
0.0
 11
1131.105211603564
 21
5759.882568465052
 31
0.0
  0
LINE
  5
7CCB
330
19
100
AcDbEntity
  8
1
100
AcDbLine
 10
2696.105211603565
 20
5977.882568465052
 30
0.0
 11
2696.105211603565
 21
5724.882568465051
 31
0.0
  0
LINE
  5
7CCC
330
19
100
AcDbEntity
  8
1
100
AcDbLine
 10
2621.105211603565
 20
5977.88256846505
 30
0.0
 11
2621.105211603565
 21
5724.882568465052
 31
0.0
  0
LINE
  5
7CCD
330
19
100
AcDbEntity
  8
1
100
AcDbLine
 10
4704.252841307503
 20
2758.985624603524
 30
0.0
 11
4893.752841307507
 21
2758.985624603524
 31
0.0
  0
LINE
  5
7CCE
330
19
100
AcDbEntity
  8
1
100
AcDbLine
 10
4704.252841307503
 20
3165.985624603524
 30
0.0
 11
4893.752841307507
 21
3165.985624603524
 31
0.0
  0
LINE
  5
7CCF
330
19
100
AcDbEntity
  8
1
100
AcDbLine
 10
4669.252841307504
 20
2989.985624603523
 30
0.0
 11
4704.252841307503
 21
2989.985624603523
 31
0.0
  0
LINE
  5
7CD0
330
19
100
AcDbEntity
  8
1
100
AcDbLine
 10
4669.252841307504
 20
2934.985624603524
 30
0.0
 11
4704.252841307505
 21
2934.985624603524
 31
0.0
  0
LINE
  5
7CD1
330
19
100
AcDbEntity
  8
1
100
AcDbLine
 10
4704.252841307503
 20
2758.985624603524
 30
0.0
 11
4704.252841307503
 21
3165.985624603524
 31
0.0
  0
LINE
  5
7CD8
330
19
100
AcDbEntity
  8
1
100
AcDbLine
 10
4721.052841307505
 20
2793.205937072468
 30
0.0
 11
4721.052841307505
 21
2742.485624603523
 31
0.0
  0
DIMENSION
  5
7CDA
330
19
100
AcDbEntity
  8
3
100
AcDbDimension
280
     0
  2
*D18
 10
3926.277989107698
 20
2372.485624603523
 30
0.0
 11
3838.777989107697
 21
2112.485624603524
 31
0.0
 70
    32
 71
     5
 42
75.0
 73
     0
 74
     0
 75
     0
  3
IGA
100
AcDbAlignedDimension
 13
3318.605211603565
 23
2447.485624603523
 33
0.0
 14
3318.605211603565
 24
2372.485624603523
 34
0.0
 50
90.0
100
AcDbRotatedDimension
1001
ACAD
1000
DSTYLE
1002
{
1070
   287
1070
     3
1070
    40
1040
35.0
1070
   143
1040
0.039
1070
   172
1070
     1
1070
   271
1070
     0
1070
   279
1070
     0
1070
   288
1070
     1
1070
     6
1000
DOT
1002
}
  0
LINE
  5
7CDB
330
19
100
AcDbEntity
  8
1
100
AcDbLine
 10
3318.605211603565
 20
5977.88256846505
 30
0.0
 11
3318.605211603565
 21
5655.882568465052
 31
0.0
  0
DIMENSION
  5
7CDC
330
19
100
AcDbEntity
  8
3
100
AcDbDimension
280
     0
  2
*D19
 10
3926.277989107698
 20
4322.485624603523
 30
0.0
 11
3856.277989107697
 21
3942.485624603524
 31
0.0
 70
    32
 71
     5
 42
-1.0
 73
     0
 74
     0
 75
     0
  3
MATSU
100
AcDbAlignedDimension
 13
3504.444212502298
 23
3562.485624603524
 33
0.0
 14
2663.605211603564
 24
4322.485624603523
 34
0.0
 50
90.0
100
AcDbRotatedDimension
1001
ACAD
1000
DSTYLE
1002
{
1070
   287
1070
     4
1070
    40
1040
35.0
1070
    75
1070
     1
1070
   279
1070
     1
1070
   289
1070
     3
1002
}
  0
DIMENSION
  5
7CDD
330
19
100
AcDbEntity
  8
3
100
AcDbDimension
280
     0
  2
*D20
 10
3463.605211603564
 20
4726.146878415224
 30
0.0
 11
3061.105211603564
 21
4796.146878415224
 31
0.0
 70
    32
 71
     5
 42
-1.0
 73
     0
 74
     0
 75
     0
  3
MATSU
100
AcDbAlignedDimension
 13
2658.605211603564
 23
4408.324625502256
 33
0.0
 14
3463.605211603564
 24
3480.485624603524
 34
0.0
100
AcDbRotatedDimension
1001
ACAD
1000
DSTYLE
1002
{
1070
   287
1070
     4
1070
    40
1040
35.0
1070
    75
1070
     1
1070
   279
1070
     1
1070
   289
1070
     3
1002
}
  0
DIMENSION
  5
7CDE
330
19
100
AcDbEntity
  8
3
100
AcDbDimension
280
     0
  2
*D21
 10
868.6052116035643
 20
4912.144273141425
 30
0.0
 11
2166.105211603564
 21
4982.144273141424
 31
0.0
 12
258.7414280441444
 22
2341.03724129964
 32
0.0
 70
    32
 71
     5
 42
-1.0
 73
     0
 74
     0
 75
     0
  3
MATSU
100
AcDbAlignedDimension
 13
3463.605211603564
 23
3480.485624603524
 33
0.0
 14
868.6052116035643
 24
2702.485624603524
 34
0.0
100
AcDbRotatedDimension
1001
ACAD
1000
DSTYLE
1002
{
1070
    40
1040
35.0
1002
}
  0
LINE
  5
7CE0
330
19
100
AcDbEntity
  8
1
100
AcDbLine
 10
1460.605211603564
 20
7477.88256846505
 30
0.0
 11
1460.605211603564
 21
5977.882568465052
 31
0.0
  0
LINE
  5
7CE1
330
19
100
AcDbEntity
  8
1
100
AcDbLine
 10
3463.605211603564
 20
7477.882568465052
 30
0.0
 11
3463.605211603564
 21
5977.882568465052
 31
0.0
  0
LINE
  5
7CE2
330
19
100
AcDbEntity
  8
1
100
AcDbLine
 10
2610.605211603564
 20
7477.88256846505
 30
0.0
 11
2610.605211603564
 21
5977.882568465052
 31
0.0
  0
LINE
  5
7CE3
330
19
100
AcDbEntity
  8
1
100
AcDbLine
 10
2610.605211603564
 20
7477.882568465052
 30
0.0
 11
1460.605211603564
 21
5977.882568465052
 31
0.0
  0
LINE
  5
7CE4
330
19
100
AcDbEntity
  8
1
100
AcDbLine
 10
1460.605211603564
 20
7477.88256846505
 30
0.0
 11
2610.605211603564
 21
5977.88256846505
 31
0.0
  0
LINE
  5
7CE5
330
19
100
AcDbEntity
  8
1
100
AcDbLine
 10
4843.752841307504
 20
4318.485624603523
 30
0.0
 11
4843.752841307504
 21
4322.485624603523
 31
0.0
  0
LINE
  5
7CE6
330
19
100
AcDbEntity
  8
1
100
AcDbLine
 10
6443.752841307503
 20
4318.485624603523
 30
0.0
 11
6443.752841307506
 21
4322.485624603523
 31
0.0
  0
LINE
  5
7CE7
330
19
100
AcDbEntity
  8
1
100
AcDbLine
 10
4843.752841307504
 20
4318.485624603523
 30
0.0
 11
6443.752841307506
 21
4318.485624603523
 31
0.0
  0
LINE
  5
7F12
330
19
100
AcDbEntity
  8
4
100
AcDbLine
 10
6475.0
 20
1411.801532643661
 30
0.0
 11
6475.0
 21
711.8015326436617
 31
0.0
  0
LINE
  5
7F13
330
19
100
AcDbEntity
  8
4
100
AcDbLine
 10
4025.0
 20
1411.801532643661
 30
0.0
 11
4025.0
 21
711.8015326436617
 31
0.0
  0
LINE
  5
7F14
330
19
100
AcDbEntity
  8
4
100
AcDbLine
 10
2275.0
 20
1411.801532643661
 30
0.0
 11
2275.0
 21
711.8015326436617
 31
0.0
  0
LINE
  5
7F17
330
19
100
AcDbEntity
  8
4
100
AcDbLine
 10
2275.0
 20
711.8015326436616
 30
0.0
 11
6475.0
 21
711.8015326436616
 31
0.0
  0
LINE
  5
7F18
330
19
100
AcDbEntity
  8
4
100
AcDbLine
 10
2275.0
 20
1061.801532643661
 30
0.0
 11
6475.0
 21
1061.801532643661
 31
0.0
  0
TEXT
  5
7F19
330
19
100
AcDbEntity
  8
4
100
AcDbText
 10
2409.757282964156
 20
1172.202123176806
 30
0.0
 40
175.0
  1
機器名称
100
AcDbText
  0
TEXT
  5
7F1A
330
19
100
AcDbEntity
  8
4
100
AcDbText
 10
2401.903371086792
 20
787.5595812056999
 30
0.0
 40
175.0
  1
機器型番
100
AcDbText
  0
TEXT
  5
7F1B
330
19
100
AcDbEntity
  8
4
100
AcDbText
 10
4127.32118141833
 20
1138.683161264445
 30
0.0
 40
140.0
  1
ミツヤリミットロードファン
100
AcDbText
  0
TEXT
  5
7F1C
330
19
100
AcDbEntity
  8
4
100
AcDbText
 10
4153.290734549182
 20
771.8600776234634
 30
0.0
 40
175.0
  1
LL#7-5
100
AcDbText
  0
TEXT
  5
7F1E
330
19
100
AcDbEntity
  8
4
100
AcDbText
 10
2797.119570306124
 20
8342.000944663805
 30
0.0
 40
188.9999999999999
  1
床置防振ベット
100
AcDbText
  0
TEXT
  5
7F1F
330
19
100
AcDbEntity
  8
4
100
AcDbText
 10
1106.586576653062
 20
8868.583416697545
 30
0.0
 40
252.0
  1
遠心式両吸込両持リミットロードファン
100
AcDbText
  0
LINE
  5
7F20
330
19
100
AcDbEntity
  8
4
100
AcDbLine
 10
875.0
 20
8642.930639926817
 30
0.0
 11
6475.0
 21
8642.930639926817
 31
0.0
  0
LINE
  5
7F21
330
19
100
AcDbEntity
  8
4
100
AcDbLine
 10
875.0
 20
9342.930639926818
 30
0.0
 11
6475.0
 21
9342.930639926818
 31
0.0
  0
LINE
  5
7F22
330
19
100
AcDbEntity
  8
4
100
AcDbLine
 10
2275.0
 20
1411.801532643661
 30
0.0
 11
6475.0
 21
1411.801532643661
 31
0.0
  0
LINE
  5
7F23
330
19
100
AcDbEntity
  8
4
100
AcDbLine
 10
875.0
 20
9342.930639926818
 30
0.0
 11
875.0
 21
8642.930639926817
 31
0.0
  0
TEXT
  5
7F24
330
19
100
AcDbEntity
  8
4
100
AcDbText
 10
1271.613657456666
 20
8338.118171412203
 30
0.0
 40
188.9999999999999
  1
右回転上向
100
AcDbText
  0
TEXT
  5
7F25
330
19
100
AcDbEntity
  8
4
100
AcDbText
 10
5141.393457372515
 20
9471.21378523358
 30
0.0
 40
196.0
  1
No.
100
AcDbText
  0
TEXT
  5
7F26
330
19
100
AcDbEntity
  8
4
100
AcDbText
 10
4589.536219100046
 20
8342.000944663805
 30
0.0
 40
188.9999999999999
  1
縮尺：1/35
100
AcDbText
  0
LINE
  5
7F27
330
19
100
AcDbEntity
  8
4
100
AcDbLine
 10
6475.0
 20
9342.930639926818
 30
0.0
 11
6475.0
 21
8642.930639926817
 31
0.0
  0
LINE
  5
7F28
330
19
100
AcDbEntity
  8
4
100
AcDbLine
 10
7350.0
 20
10325.0
 30
0.0
 11
7350.0
 21
10325.0
 31
0.0
  0
LINE
  5
7F29
330
19
100
AcDbEntity
  8
4
100
AcDbLine
 10
5042.160978259526
 20
9384.422540938905
 30
0.0
 11
5042.160978259526
 21
9753.282915424135
 31
0.0
  0
LINE
  5
7F2A
330
19
100
AcDbEntity
  8
4
100
AcDbLine
 10
5042.160978259526
 20
9753.282915424135
 30
0.0
 11
6475.0
 21
9753.282915424135
 31
0.0
  0
LINE
  5
7F2B
330
19
100
AcDbEntity
  8
4
100
AcDbLine
 10
6475.0
 20
9753.282915424135
 30
0.0
 11
6475.0
 21
9384.422540938905
 31
0.0
  0
LINE
  5
7F2C
330
19
100
AcDbEntity
  8
4
100
AcDbLine
 10
6475.0
 20
9384.422540938905
 30
0.0
 11
5042.160978259526
 21
9384.422540938905
 31
0.0
  0
LINE
  5
7F2D
330
19
100
AcDbEntity
  8
4
100
AcDbLine
 10
0.0
 20
0.0
 30
0.0
 11
0.0
 21
10325.0
 31
0.0
  0
LINE
  5
7F2E
330
19
100
AcDbEntity
  8
4
100
AcDbLine
 10
0.0
 20
10325.0
 30
0.0
 11
7350.0
 21
10325.0
 31
0.0
  0
LINE
  5
7F2F
330
19
100
AcDbEntity
  8
4
100
AcDbLine
 10
7350.0
 20
10325.0
 30
0.0
 11
7350.0
 21
0.0
 31
0.0
  0
LINE
  5
7F30
330
19
100
AcDbEntity
  8
4
100
AcDbLine
 10
7350.0
 20
0.0
 30
0.0
 11
0.0
 21
0.0
 31
0.0
  0
DIMENSION
  5
8059
330
19
100
AcDbEntity
  8
3
100
AcDbDimension
280
     0
  2
*D24
 10
3925.802172985147
 20
2552.485624603523
 30
0.0
 11
4042.496695309718
 21
2499.985624603524
 31
0.0
 70
   160
  1
   <>
 71
     5
 42
105.0
 73
     0
 74
     0
 75
     0
  3
IGA
100
AcDbAlignedDimension
 13
3318.605211603565
 23
2447.485624603523
 33
0.0
 14
3318.605211603565
 24
2552.485624603523
 34
0.0
 50
90.0
100
AcDbRotatedDimension
1001
ACAD
1000
DSTYLE
1002
{
1070
     3
1000
(<>)
1070
    40
1040
35.0
1070
    75
1070
     1
1070
    76
1070
     1
1070
   143
1040
0.039
1070
   172
1070
     1
1070
   271
1070
     0
1070
   343
1005
804D
1070
   344
1005
804D
1002
}
  0
DIMENSION
  5
8066
330
19
100
AcDbEntity
  8
3
100
AcDbDimension
280
     0
  2
*D25
 10
4199.249709631251
 20
2372.485624603523
 30
0.0
 11
4084.24970963125
 21
3347.485624603524
 31
0.0
 70
    32
 71
     5
 42
1950.0
 73
     0
 74
     0
 75
     0
  3
IGA
100
AcDbAlignedDimension
 13
2663.605211603564
 23
4322.485624603523
 33
0.0
 14
3318.605211603565
 24
2372.485624603523
 34
0.0
 50
90.0
100
AcDbRotatedDimension
1001
ACAD
1000
DSTYLE
1002
{
1070
   172
1070
     1
1070
    40
1040
35.0
1070
     3
1000
(<>)
1070
   271
1070
     0
1070
   143
1040
0.039
1002
}
  0
ENDSEC
  0
SECTION
  2
OBJECTS
  0
DICTIONARY
  5
C
330
0
100
AcDbDictionary
281
     1
  3
ACAD_CIP_PREVIOUS_PRODUCT_INFO
350
8135
  3
ACAD_COLOR
350
8118
  3
ACAD_DETAILVIEWSTYLE
350
8131
  3
ACAD_GROUP
350
D
  3
ACAD_LAYOUT
350
8088
  3
ACAD_MATERIAL
350
80E6
  3
ACAD_MLEADERSTYLE
350
812D
  3
ACAD_MLINESTYLE
350
E
  3
ACAD_PLOTSETTINGS
350
8089
  3
ACAD_PLOTSTYLENAME
350
8086
  3
ACAD_SCALELIST
350
811B
  3
ACAD_SECTIONVIEWSTYLE
350
812F
  3
ACAD_TABLESTYLE
350
8119
  3
ACAD_VISUALSTYLE
350
80FF
  3
ACDB_RECOMPOSE_DATA
350
81DA
  3
AcDbVariableDictionary
350
80DD
  3
AcDsDecomposeData
350
81E0
  0
DICTIONARY
  5
81BE
330
2
100
AcDbDictionary
280
     1
281
     1
  3
ACAD_LAYERSTATES
360
81BF
  0
DICTIONARY
  5
81B1
330
F
100
AcDbDictionary
280
     1
281
     1
  3
ADSK_XREC_LAYER_RECONCILED
360
81B2
  0
DICTIONARY
  5
81B3
330
31
100
AcDbDictionary
280
     1
281
     1
  3
ADSK_XREC_LAYER_RECONCILED
360
81B4
  0
DICTIONARY
  5
81B5
330
76D0
100
AcDbDictionary
280
     1
281
     1
  3
ADSK_XREC_LAYER_RECONCILED
360
81B6
  0
DICTIONARY
  5
81B7
330
76D1
100
AcDbDictionary
280
     1
281
     1
  3
ADSK_XREC_LAYER_RECONCILED
360
81B8
  0
DICTIONARY
  5
81B9
330
76D2
100
AcDbDictionary
280
     1
281
     1
  3
ADSK_XREC_LAYER_RECONCILED
360
81BA
  0
DICTIONARY
  5
80B5
330
19
100
AcDbDictionary
280
     1
281
     1
  3
ACAD_LAYOUTSELFREF
360
80B6
  0
DICTIONARY
  5
80B3
330
16
100
AcDbDictionary
280
     1
281
     1
  3
ACAD_LAYOUTSELFREF
360
80B4
  0
XRECORD
  5
8135
102
{ACAD_REACTORS
330
C
102
}
330
C
100
AcDbXrecord
280
     1
300
ACDLT
300
2023
300

  0
DICTIONARY
  5
8118
102
{ACAD_REACTORS
330
C
102
}
330
C
100
AcDbDictionary
281
     1
  0
DICTIONARY
  5
8131
102
{ACAD_REACTORS
330
C
102
}
330
C
100
AcDbDictionary
281
     1
  3
Metric50
350
8132
  0
DICTIONARY
  5
D
102
{ACAD_REACTORS
330
C
102
}
330
C
100
AcDbDictionary
281
     1
  0
DICTIONARY
  5
8088
102
{ACAD_REACTORS
330
C
102
}
330
C
100
AcDbDictionary
281
     1
  3
Model
350
808A
  3
ﾚｲｱｳﾄ1
350
808B
  0
DICTIONARY
  5
80E6
102
{ACAD_REACTORS
330
C
102
}
330
C
100
AcDbDictionary
281
     1
  3
ByBlock
350
80EF
  3
ByLayer
350
80E7
  3
Global
350
80F7
  0
DICTIONARY
  5
812D
102
{ACAD_REACTORS
330
C
102
}
330
C
100
AcDbDictionary
281
     1
  3
Standard
350
812E
  0
DICTIONARY
  5
E
102
{ACAD_REACTORS
330
C
102
}
330
C
100
AcDbDictionary
281
     1
  3
STANDARD
350
1C
  0
DICTIONARY
  5
8089
102
{ACAD_REACTORS
330
C
102
}
330
C
100
AcDbDictionary
281
     1
  0
ACDBDICTIONARYWDFLT
  5
8086
102
{ACAD_REACTORS
330
C
102
}
330
C
100
AcDbDictionary
281
     1
  3
Normal
350
8087
100
AcDbDictionaryWithDefault
340
8087
  0
DICTIONARY
  5
811B
102
{ACAD_REACTORS
330
C
102
}
330
C
100
AcDbDictionary
281
     1
  3
A0
350
811C
  3
A1
350
811D
  3
A2
350
811E
  3
A3
350
811F
  3
A4
350
8120
  3
A5
350
8121
  3
A6
350
8122
  3
A7
350
8123
  3
A8
350
8124
  3
A9
350
8125
  3
B0
350
8126
  3
B1
350
8127
  3
B2
350
8128
  3
B3
350
8129
  3
B4
350
812A
  3
B5
350
812B
  3
B6
350
812C
  0
DICTIONARY
  5
812F
102
{ACAD_REACTORS
330
C
102
}
330
C
100
AcDbDictionary
281
     1
  3
Metric50
350
8130
  0
DICTIONARY
  5
8119
102
{ACAD_REACTORS
330
C
102
}
330
C
100
AcDbDictionary
281
     1
  3
Standard
350
811A
  0
DICTIONARY
  5
80FF
102
{ACAD_REACTORS
330
C
102
}
330
C
100
AcDbDictionary
281
     1
  3
2dWireframe
350
8105
  3
Basic
350
8104
  3
Brighten
350
810B
  3
ColorChange
350
810F
  3
Conceptual
350
8108
  3
Dim
350
810A
  3
EdgeColorOff
350
8117
  3
Facepattern
350
810E
  3
Flat
350
8100
  3
FlatWithEdges
350
8101
  3
Gouraud
350
8102
  3
GouraudWithEdges
350
8103
  3
Hidden
350
8107
  3
JitterOff
350
8115
  3
Linepattern
350
810D
  3
OverhangOff
350
8116
  3
Realistic
350
8109
  3
Shaded
350
8114
  3
Shaded with edges
350
8113
  3
Shades of Gray
350
8110
  3
Sketchy
350
8111
  3
Thicken
350
810C
  3
Wireframe
350
8106
  3
X-Ray
350
8112
  0
XRECORD
  5
81DA
102
{ACAD_REACTORS
330
C
102
}
330
C
100
AcDbXrecord
280
     1
 90
        1
330
7CDC
330
7CDD
330
811A
  0
DICTIONARY
  5
80DD
102
{ACAD_REACTORS
330
C
102
}
330
C
100
AcDbDictionary
281
     1
  3
CANNOSCALE
350
81CF
  3
CMLEADERSTYLE
350
81CB
  3
CTABLESTYLE
350
81CA
  3
CVIEWDETAILSTYLE
350
81CC
  3
CVIEWSECTIONSTYLE
350
81CD
  3
DIMASSOC
350
80DE
  3
LAYEREVAL
350
81D1
  3
LAYERNOTIFY
350
81D2
  3
LIGHTINGUNITS
350
81D0
  3
MARKUPASSISTMODE
350
81D7
  3
MSLTSCALE
350
81CE
  0
DICTIONARY
  5
81E0
102
{ACAD_REACTORS
330
C
102
}
330
C
100
AcDbDictionary
281
     1
  3
AcDsRecords
350
81E2
  3
AcDsSchemas
350
81E1
1001
ACAD
1070
     2
  0
DICTIONARY
  5
81BF
102
{ACAD_REACTORS
330
81BE
102
}
330
81BE
100
AcDbDictionary
281
     1
  0
XRECORD
  5
81B2
102
{ACAD_REACTORS
330
81B1
102
}
330
81B1
100
AcDbXrecord
280
     1
290
     1
  0
XRECORD
  5
81B4
102
{ACAD_REACTORS
330
81B3
102
}
330
81B3
100
AcDbXrecord
280
     1
290
     1
  0
XRECORD
  5
81B6
102
{ACAD_REACTORS
330
81B5
102
}
330
81B5
100
AcDbXrecord
280
     1
290
     1
  0
XRECORD
  5
81B8
102
{ACAD_REACTORS
330
81B7
102
}
330
81B7
100
AcDbXrecord
280
     1
290
     1
  0
XRECORD
  5
81BA
102
{ACAD_REACTORS
330
81B9
102
}
330
81B9
100
AcDbXrecord
280
     1
290
     1
  0
XRECORD
  5
80B6
102
{ACAD_REACTORS
330
80B5
102
}
330
80B5
100
AcDbXrecord
280
     1
340
19
  0
XRECORD
  5
80B4
102
{ACAD_REACTORS
330
80B3
102
}
330
80B3
100
AcDbXrecord
280
     1
340
16
  0
ACDBDETAILVIEWSTYLE
  5
8132
102
{ACAD_XDICTIONARY
360
81E5
102
}
102
{ACAD_REACTORS
330
8131
102
}
330
8131
100
AcDbModelDocViewStyle
 70
     0
  3
Metric50
290
     0
100
AcDbDetailViewStyle
 70
     0
 71
     0
 90
        3
 71
     1
340
10
 62
   256
 40
5.0
340
0
 62
   256
 40
5.0
300

 40
0.0
280
     1
 71
     2
340
15
 90
       25
 62
   256
 71
     3
340
10
 62
   256
 40
5.0
 90
        0
 40
15.0
 90
        1
300
%<\AcVar ViewDetailId>% (%<\AcVar ViewScale \f "%sn">%)
 71
     4
340
15
 90
       25
 62
   256
340
15
 90
       25
 62
   256
280
     0
  0
LAYOUT
  5
808A
102
{ACAD_REACTORS
330
8088
102
}
330
8088
100
AcDbPlotSettings
  1

  2
\\Txbo34x8944cqyd\EPSON LP-6100
  4

  6

 40
0.0
 41
0.0
 42
0.0
 43
0.0
 44
0.0
 45
0.0
 46
0.0
 47
0.0
 48
0.0
 49
0.0
140
0.0
141
0.0
142
1.0
143
1.0
 70
  1712
 72
     0
 73
     0
 74
     0
  7
GOD2000TABLE.ctb
 75
     0
147
1.0
 76
     0
 77
     2
 78
   300
148
0.0
149
0.0
100
AcDbLayout
  1
Model
 70
     1
 71
     0
 10
0.0
 20
0.0
 11
12.0
 21
9.0
 12
0.0
 22
0.0
 32
0.0
 14
0.0
 24
0.0
 34
0.0
 15
0.0
 25
0.0
 35
0.0
146
0.0
 13
0.0
 23
0.0
 33
0.0
 16
1.0
 26
0.0
 36
0.0
 17
0.0
 27
1.0
 37
0.0
 76
     0
330
19
331
80E4
  0
LAYOUT
  5
808B
102
{ACAD_REACTORS
330
8088
102
}
330
8088
100
AcDbPlotSettings
  1

  2
\\Txbo34x8944cqyd\EPSON LP-6100
  4

  6

 40
0.0
 41
0.0
 42
0.0
 43
0.0
 44
0.0
 45
0.0
 46
0.0
 47
0.0
 48
0.0
 49
0.0
140
0.0
141
0.0
142
1.0
143
1.0
 70
   688
 72
     0
 73
     0
 74
     5
  7
GOD2000TABLE.ctb
 75
    16
147
1.0
 76
     0
 77
     2
 78
   300
148
0.0
149
0.0
100
AcDbLayout
  1
ﾚｲｱｳﾄ1
 70
     1
 71
     1
 10
0.0
 20
0.0
 11
12.0
 21
9.0
 12
0.0
 22
0.0
 32
0.0
 14
1.000000000000000E+20
 24
1.000000000000000E+20
 34
1.000000000000000E+20
 15
-1.000000000000000E+20
 25
-1.000000000000000E+20
 35
-1.000000000000000E+20
146
0.0
 13
0.0
 23
0.0
 33
0.0
 16
1.0
 26
0.0
 36
0.0
 17
0.0
 27
1.0
 37
0.0
 76
     0
330
16
  0
MATERIAL
  5
80EF
102
{ACAD_XDICTIONARY
360
80F0
102
}
102
{ACAD_REACTORS
330
80E6
102
}
330
80E6
100
AcDbMaterial
  1
ByBlock
 72
     0
 43
0.0208333333333333
 43
0.0
 43
0.0
 43
0.0
 43
0.0
 43
0.0208333333333333
 43
0.0
 43
0.0
 43
0.0
 43
0.0
 43
1.0
 43
0.0
 43
0.0
 43
0.0
 43
0.0
 43
1.0
 77
     0
 47
0.0208333333333333
 47
0.0
 47
0.0
 47
0.0
 47
0.0
 47
0.0208333333333333
 47
0.0
 47
0.0
 47
0.0
 47
0.0
 47
1.0
 47
0.0
 47
0.0
 47
0.0
 47
0.0
 47
1.0
171
     0
 49
0.0208333333333333
 49
0.0
 49
0.0
 49
0.0
 49
0.0
 49
0.0208333333333333
 49
0.0
 49
0.0
 49
0.0
 49
0.0
 49
1.0
 49
0.0
 49
0.0
 49
0.0
 49
0.0
 49
1.0
175
     0
142
0.0208333333333333
142
0.0
142
0.0
142
0.0
142
0.0
142
0.0208333333333333
142
0.0
142
0.0
142
0.0
142
0.0
142
1.0
142
0.0
142
0.0
142
0.0
142
0.0
142
1.0
179
     0
144
0.0208333333333333
144
0.0
144
0.0
144
0.0
144
0.0
144
0.0208333333333333
144
0.0
144
0.0
144
0.0
144
0.0
144
1.0
144
0.0
144
0.0
144
0.0
144
0.0
144
1.0
147
0.0208333333333333
147
0.0
147
0.0
147
0.0
147
0.0
147
0.0208333333333333
147
0.0
147
0.0
147
0.0
147
0.0
147
1.0
147
0.0
147
0.0
147
0.0
147
0.0
147
1.0
  0
MATERIAL
  5
80E7
102
{ACAD_XDICTIONARY
360
80E8
102
}
102
{ACAD_REACTORS
330
80E6
102
}
330
80E6
100
AcDbMaterial
  1
ByLayer
 72
     0
 43
0.0208333333333333
 43
0.0
 43
0.0
 43
0.0
 43
0.0
 43
0.0208333333333333
 43
0.0
 43
0.0
 43
0.0
 43
0.0
 43
1.0
 43
0.0
 43
0.0
 43
0.0
 43
0.0
 43
1.0
 77
     0
 47
0.0208333333333333
 47
0.0
 47
0.0
 47
0.0
 47
0.0
 47
0.0208333333333333
 47
0.0
 47
0.0
 47
0.0
 47
0.0
 47
1.0
 47
0.0
 47
0.0
 47
0.0
 47
0.0
 47
1.0
171
     0
 49
0.0208333333333333
 49
0.0
 49
0.0
 49
0.0
 49
0.0
 49
0.0208333333333333
 49
0.0
 49
0.0
 49
0.0
 49
0.0
 49
1.0
 49
0.0
 49
0.0
 49
0.0
 49
0.0
 49
1.0
175
     0
142
0.0208333333333333
142
0.0
142
0.0
142
0.0
142
0.0
142
0.0208333333333333
142
0.0
142
0.0
142
0.0
142
0.0
142
1.0
142
0.0
142
0.0
142
0.0
142
0.0
142
1.0
179
     0
144
0.0208333333333333
144
0.0
144
0.0
144
0.0
144
0.0
144
0.0208333333333333
144
0.0
144
0.0
144
0.0
144
0.0
144
1.0
144
0.0
144
0.0
144
0.0
144
0.0
144
1.0
147
0.0208333333333333
147
0.0
147
0.0
147
0.0
147
0.0
147
0.0208333333333333
147
0.0
147
0.0
147
0.0
147
0.0
147
1.0
147
0.0
147
0.0
147
0.0
147
0.0
147
1.0
  0
MATERIAL
  5
80F7
102
{ACAD_XDICTIONARY
360
80F8
102
}
102
{ACAD_REACTORS
330
80E6
102
}
330
80E6
100
AcDbMaterial
  1
Global
 72
     0
 43
0.0208333333333333
 43
0.0
 43
0.0
 43
0.0
 43
0.0
 43
0.0208333333333333
 43
0.0
 43
0.0
 43
0.0
 43
0.0
 43
1.0
 43
0.0
 43
0.0
 43
0.0
 43
0.0
 43
1.0
 77
     0
 47
0.0208333333333333
 47
0.0
 47
0.0
 47
0.0
 47
0.0
 47
0.0208333333333333
 47
0.0
 47
0.0
 47
0.0
 47
0.0
 47
1.0
 47
0.0
 47
0.0
 47
0.0
 47
0.0
 47
1.0
171
     0
 49
0.0208333333333333
 49
0.0
 49
0.0
 49
0.0
 49
0.0
 49
0.0208333333333333
 49
0.0
 49
0.0
 49
0.0
 49
0.0
 49
1.0
 49
0.0
 49
0.0
 49
0.0
 49
0.0
 49
1.0
175
     0
142
0.0208333333333333
142
0.0
142
0.0
142
0.0
142
0.0
142
0.0208333333333333
142
0.0
142
0.0
142
0.0
142
0.0
142
1.0
142
0.0
142
0.0
142
0.0
142
0.0
142
1.0
179
     0
144
0.0208333333333333
144
0.0
144
0.0
144
0.0
144
0.0
144
0.0208333333333333
144
0.0
144
0.0
144
0.0
144
0.0
144
1.0
144
0.0
144
0.0
144
0.0
144
0.0
144
1.0
147
0.0208333333333333
147
0.0
147
0.0
147
0.0
147
0.0
147
0.0208333333333333
147
0.0
147
0.0
147
0.0
147
0.0
147
1.0
147
0.0
147
0.0
147
0.0
147
0.0
147
1.0
  0
MLEADERSTYLE
  5
812E
102
{ACAD_REACTORS
330
812D
102
}
330
812D
100
AcDbMLeaderStyle
179
     2
170
     2
171
     1
172
     0
 90
        2
 40
0.0
 41
0.0
173
     1
 91
-1056964608
340
13
 92
       -2
290
     1
 42
2.0
291
     1
 43
0.36
  3
Standard
 44
4.0
300

342
10
174
     1
178
     6
175
     1
176
     0
 93
-1056964608
 45
4.0
292
     0
297
     0
 46
4.0
 94
-1056964608
 47
1.0
 49
1.0
140
1.0
293
     1
141
0.0
294
     1
177
     0
142
1.0
295
     0
296
     0
143
0.125
271
     0
272
     9
273
     9
298
     1
  0
MLINESTYLE
  5
1C
102
{ACAD_REACTORS
330
E
102
}
330
E
100
AcDbMlineStyle
  2
STANDARD
 70
     0
  3

 62
     0
 51
90.0
 52
90.0
 71
     2
 49
0.5
 62
   256
  6
BYLAYER
 49
-0.5
 62
   256
  6
BYLAYER
  0
ACDBPLACEHOLDER
  5
8087
102
{ACAD_REACTORS
330
8086
102
}
330
8086
  0
SCALE
  5
811C
102
{ACAD_REACTORS
330
811B
102
}
330
811B
100
AcDbScale
 70
     0
300
1:1
140
1.0
141
1.0
290
     1
  0
SCALE
  5
811D
102
{ACAD_REACTORS
330
811B
102
}
330
811B
100
AcDbScale
 70
     0
300
1:2
140
1.0
141
2.0
290
     0
  0
SCALE
  5
811E
102
{ACAD_REACTORS
330
811B
102
}
330
811B
100
AcDbScale
 70
     0
300
1:4
140
1.0
141
4.0
290
     0
  0
SCALE
  5
811F
102
{ACAD_REACTORS
330
811B
102
}
330
811B
100
AcDbScale
 70
     0
300
1:5
140
1.0
141
5.0
290
     0
  0
SCALE
  5
8120
102
{ACAD_REACTORS
330
811B
102
}
330
811B
100
AcDbScale
 70
     0
300
1:8
140
1.0
141
8.0
290
     0
  0
SCALE
  5
8121
102
{ACAD_REACTORS
330
811B
102
}
330
811B
100
AcDbScale
 70
     0
300
1:10
140
1.0
141
10.0
290
     0
  0
SCALE
  5
8122
102
{ACAD_REACTORS
330
811B
102
}
330
811B
100
AcDbScale
 70
     0
300
1:16
140
1.0
141
16.0
290
     0
  0
SCALE
  5
8123
102
{ACAD_REACTORS
330
811B
102
}
330
811B
100
AcDbScale
 70
     0
300
1:20
140
1.0
141
20.0
290
     0
  0
SCALE
  5
8124
102
{ACAD_REACTORS
330
811B
102
}
330
811B
100
AcDbScale
 70
     0
300
1:30
140
1.0
141
30.0
290
     0
  0
SCALE
  5
8125
102
{ACAD_REACTORS
330
811B
102
}
330
811B
100
AcDbScale
 70
     0
300
1:40
140
1.0
141
40.0
290
     0
  0
SCALE
  5
8126
102
{ACAD_REACTORS
330
811B
102
}
330
811B
100
AcDbScale
 70
     0
300
1:50
140
1.0
141
50.0
290
     0
  0
SCALE
  5
8127
102
{ACAD_REACTORS
330
811B
102
}
330
811B
100
AcDbScale
 70
     0
300
1:100
140
1.0
141
100.0
290
     0
  0
SCALE
  5
8128
102
{ACAD_REACTORS
330
811B
102
}
330
811B
100
AcDbScale
 70
     0
300
2:1
140
2.0
141
1.0
290
     0
  0
SCALE
  5
8129
102
{ACAD_REACTORS
330
811B
102
}
330
811B
100
AcDbScale
 70
     0
300
4:1
140
4.0
141
1.0
290
     0
  0
SCALE
  5
812A
102
{ACAD_REACTORS
330
811B
102
}
330
811B
100
AcDbScale
 70
     0
300
8:1
140
8.0
141
1.0
290
     0
  0
SCALE
  5
812B
102
{ACAD_REACTORS
330
811B
102
}
330
811B
100
AcDbScale
 70
     0
300
10:1
140
10.0
141
1.0
290
     0
  0
SCALE
  5
812C
102
{ACAD_REACTORS
330
811B
102
}
330
811B
100
AcDbScale
 70
     0
300
100:1
140
100.0
141
1.0
290
     0
  0
ACDBSECTIONVIEWSTYLE
  5
8130
102
{ACAD_XDICTIONARY
360
81E3
102
}
102
{ACAD_REACTORS
330
812F
102
}
330
812F
100
AcDbModelDocViewStyle
 70
     0
  3
Metric50
290
     0
100
AcDbSectionViewStyle
 70
     0
 71
     0
 90
      102
 71
     1
340
10
 62
   256
 40
5.0
340
0
340
0
 62
   256
 40
5.0
300
I, O, Q, S, X, Z
 40
10.0
 90
        0
 40
2.5
 90
        0
 71
     2
340
15
 90
       25
 62
   256
340
15
 90
       50
 62
   256
 40
5.0
 40
2.5
 40
5.0
 71
     3
340
10
 62
   256
 40
5.0
 90
        0
 40
15.0
 90
        1
300
%<\AcVar ViewSectionStartId>%-%<\AcVar ViewSectionEndId>% (%<\AcVar ViewScale \f "%sn">%)
 71
     4
 62
   256
 62
   257
300
ANSI31
 40
1.0
 90
        0
290
     0
290
     0
 90
        6
 40
0.0
 40
1.570796326794896
 40
0.2617993877991494
 40
1.308996938995747
 40
-0.2617993877991494
 40
1.832595714594046
  0
TABLESTYLE
  5
811A
102
{ACAD_XDICTIONARY
360
81D8
102
}
102
{ACAD_REACTORS
330
8119
102
}
330
8119
100
AcDbTableStyle
280
     0
  3
Standard
 70
     0
 71
     0
 40
1.5
 41
1.5
280
     0
281
     0
  7
STANDARD
140
4.5
170
     2
 62
     0
 63
     7
283
     0
 90
      512
 91
        0
  1

274
    -2
284
     1
 64
     0
275
    -2
285
     1
 65
     0
276
    -2
286
     1
 66
     0
277
    -2
287
     1
 67
     0
278
    -2
288
     1
 68
     0
279
    -2
289
     1
 69
     0
  7
STANDARD
140
6.0
170
     5
 62
     0
 63
     7
283
     0
 90
      512
 91
        0
  1

274
    -2
284
     1
 64
     0
275
    -2
285
     1
 65
     0
276
    -2
286
     1
 66
     0
277
    -2
287
     1
 67
     0
278
    -2
288
     1
 68
     0
279
    -2
289
     1
 69
     0
  7
STANDARD
140
4.5
170
     5
 62
     0
 63
     7
283
     0
 90
      512
 91
        0
  1

274
    -2
284
     1
 64
     0
275
    -2
285
     1
 65
     0
276
    -2
286
     1
 66
     0
277
    -2
287
     1
 67
     0
278
    -2
288
     1
 68
     0
279
    -2
289
     1
 69
     0
  0
VISUALSTYLE
  5
8105
102
{ACAD_REACTORS
330
80FF
102
}
330
80FF
100
AcDbVisualStyle
  2
2dWireframe
 70
     4
177
     3
291
     0
 70
    58
 90
        0
176
     1
 90
        2
176
     1
 90
        0
176
     1
 90
        0
176
     1
 40
0.6
176
     1
 40
30.0
176
     1
 62
     7
420
 16777215
176
     1
 90
        1
176
     1
 90
        4
176
     1
 62
     7
176
     1
 62
   257
176
     1
 90
        1
176
     1
 90
        1
176
     1
 40
1.0
176
     1
 90
        0
176
     1
 62
   257
176
     1
 40
1.0
176
     1
 90
        1
176
     1
 90
        6
176
     1
 90
        2
176
     1
 62
     7
176
     1
 90
        5
176
     1
 90
        0
176
     1
 90
        0
176
     1
290
     0
176
     1
 90
        1
176
     1
 40
0.0
176
     1
 90
        0
176
     1
290
     1
176
     1
290
     1
176
     1
290
     0
176
     1
290
     0
176
     1
290
     0
176
     1
290
     0
176
     1
290
     0
176
     1
290
     0
176
     1
290
     0
176
     1
 90
       50
176
     1
 40
0.0
176
     1
 40
1.0
176
     1
 90
        0
176
     1
 62
    18
420
        0
176
     1
 90
       50
176
     1
 90
        3
176
     1
 62
     5
420
      255
176
     1
290
     0
176
     1
 90
       50
176
     1
 90
       50
176
     1
 90
       50
176
     1
290
     0
176
     1
 90
       50
176
     1
 62
   256
176
     0
 40
1.0
176
     0
 90
        2
176
     1
  1
strokes_ogs.tif
176
     1
290
     0
176
     1
 40
1.0
176
     1
 40
1.0
176
     1
1001
ACAD
1000
AcDbSavedByObjectVersion
1070
     0
  0
VISUALSTYLE
  5
8104
102
{ACAD_REACTORS
330
80FF
102
}
330
80FF
100
AcDbVisualStyle
  2
Basic
 70
     7
177
     3
291
     1
 70
    58
 90
        1
176
     1
 90
        0
176
     1
 90
        1
176
     1
 90
        0
176
     1
 40
0.6
176
     1
 40
30.0
176
     1
 62
     7
420
 16777215
176
     1
 90
        0
176
     1
 90
        4
176
     1
 62
     7
176
     1
 62
   257
176
     1
 90
        1
176
     1
 90
        1
176
     1
 40
1.0
176
     1
 90
        8
176
     1
 62
     7
176
     1
 40
1.0
176
     1
 90
        1
176
     1
 90
        6
176
     1
 90
        2
176
     1
 62
     7
176
     1
 90
        5
176
     1
 90
        0
176
     1
 90
        0
176
     1
290
     0
176
     1
 90
        1
176
     1
 40
0.0
176
     1
 90
        0
176
     1
290
     0
176
     1
290
     1
176
     1
290
     1
176
     1
290
     0
176
     1
290
     0
176
     1
290
     0
176
     1
290
     0
176
     1
290
     0
176
     1
290
     0
176
     1
 90
       50
176
     1
 40
0.0
176
     1
 40
1.0
176
     1
 90
        0
176
     1
 62
    18
420
        0
176
     1
 90
       50
176
     1
 90
        3
176
     1
 62
     5
420
      255
176
     1
290
     0
176
     1
 90
       50
176
     1
 90
       50
176
     1
 90
       50
176
     1
290
     0
176
     1
 90
       50
176
     1
 62
   256
176
     0
 40
1.0
176
     0
 90
        2
176
     1
  1
strokes_ogs.tif
176
     1
290
     0
176
     1
 40
1.0
176
     1
 40
1.0
176
     1
1001
ACAD
1000
AcDbSavedByObjectVersion
1070
     0
  0
VISUALSTYLE
  5
810B
102
{ACAD_REACTORS
330
80FF
102
}
330
80FF
100
AcDbVisualStyle
  2
Brighten
 70
    12
177
     3
291
     1
 70
    58
 90
        2
176
     1
 90
        2
176
     1
 90
        0
176
     1
 90
        0
176
     1
 40
0.6
176
     1
 40
30.0
176
     1
 62
     7
420
 16777215
176
     1
 90
        1
176
     1
 90
        4
176
     1
 62
     7
176
     1
 62
   257
176
     1
 90
        1
176
     1
 90
        1
176
     1
 40
1.0
176
     1
 90
        8
176
     1
 62
     7
176
     1
 40
1.0
176
     1
 90
        1
176
     1
 90
        6
176
     1
 90
        2
176
     1
 62
     7
176
     1
 90
        5
176
     1
 90
        0
176
     1
 90
        0
176
     1
290
     0
176
     1
 90
        1
176
     1
 40
50.0
176
     1
 90
        0
176
     1
290
     0
176
     1
290
     1
176
     1
290
     1
176
     1
290
     0
176
     1
290
     0
176
     1
290
     0
176
     1
290
     0
176
     1
290
     0
176
     1
290
     0
176
     1
 90
       50
176
     1
 40
0.0
176
     1
 40
1.0
176
     1
 90
        0
176
     1
 62
    18
420
        0
176
     1
 90
       50
176
     1
 90
        3
176
     1
 62
     5
420
      255
176
     1
290
     0
176
     1
 90
       50
176
     1
 90
       50
176
     1
 90
       50
176
     1
290
     0
176
     1
 90
       50
176
     1
 62
   256
176
     0
 40
1.0
176
     0
 90
        2
176
     1
  1
strokes_ogs.tif
176
     1
290
     0
176
     1
 40
1.0
176
     1
 40
1.0
176
     1
1001
ACAD
1000
AcDbSavedByObjectVersion
1070
     0
  0
VISUALSTYLE
  5
810F
102
{ACAD_REACTORS
330
80FF
102
}
330
80FF
100
AcDbVisualStyle
  2
ColorChange
 70
    16
177
     3
291
     1
 70
    58
 90
        2
176
     1
 90
        2
176
     1
 90
        3
176
     1
 90
        0
176
     1
 40
0.6
176
     1
 40
30.0
176
     1
 62
     8
420
  8421504
176
     1
 90
        1
176
     1
 90
        4
176
     1
 62
     7
176
     1
 62
   257
176
     1
 90
        1
176
     1
 90
        1
176
     1
 40
1.0
176
     1
 90
        8
176
     1
 62
     8
420
  8421504
176
     1
 40
1.0
176
     1
 90
        1
176
     1
 90
        6
176
     1
 90
        2
176
     1
 62
     7
176
     1
 90
        5
176
     1
 90
        0
176
     1
 90
        0
176
     1
290
     0
176
     1
 90
        1
176
     1
 40
0.0
176
     1
 90
        0
176
     1
290
     0
176
     1
290
     1
176
     1
290
     1
176
     1
290
     0
176
     1
290
     0
176
     1
290
     0
176
     1
290
     0
176
     1
290
     0
176
     1
290
     0
176
     1
 90
       50
176
     1
 40
0.0
176
     1
 40
1.0
176
     1
 90
        0
176
     1
 62
    18
420
        0
176
     1
 90
       50
176
     1
 90
        3
176
     1
 62
     5
420
      255
176
     1
290
     0
176
     1
 90
       50
176
     1
 90
       50
176
     1
 90
       50
176
     1
290
     0
176
     1
 90
       50
176
     1
 62
   256
176
     0
 40
1.0
176
     0
 90
        2
176
     1
  1
strokes_ogs.tif
176
     1
290
     0
176
     1
 40
1.0
176
     1
 40
1.0
176
     1
1001
ACAD
1000
AcDbSavedByObjectVersion
1070
     0
  0
VISUALSTYLE
  5
8108
102
{ACAD_REACTORS
330
80FF
102
}
330
80FF
100
AcDbVisualStyle
  2
Conceptual
 70
     9
177
     3
291
     0
 70
    58
 90
        3
176
     1
 90
        2
176
     1
 90
        0
176
     1
 90
        0
176
     1
 40
0.6
176
     1
 40
30.0
176
     1
 62
     7
420
 16777215
176
     1
 90
        2
176
     1
 90
        2
176
     1
 62
     7
176
     1
 62
   257
176
     1
 90
        1
176
     1
 90
        1
176
     1
 40
179.0
176
     1
 90
        8
176
     1
 62
     7
176
     1
 40
1.0
176
     1
 90
        1
176
     1
 90
        6
176
     1
 90
        2
176
     1
 62
     7
176
     1
 90
        3
176
     1
 90
        0
176
     1
 90
        0
176
     1
290
     0
176
     1
 90
        1
176
     1
 40
0.0
176
     1
 90
        0
176
     1
290
     0
176
     1
290
     1
176
     1
290
     1
176
     1
290
     0
176
     1
290
     0
176
     1
290
     0
176
     1
290
     0
176
     1
290
     0
176
     1
290
     0
176
     1
 90
       50
176
     1
 40
0.0
176
     1
 40
1.0
176
     1
 90
        0
176
     1
 62
    18
420
        0
176
     1
 90
       50
176
     1
 90
        3
176
     1
 62
     5
420
      255
176
     1
290
     0
176
     1
 90
       50
176
     1
 90
       50
176
     1
 90
       50
176
     1
290
     0
176
     1
 90
       50
176
     1
 62
   256
176
     0
 40
1.0
176
     0
 90
        2
176
     1
  1
strokes_ogs.tif
176
     1
290
     0
176
     1
 40
1.0
176
     1
 40
1.0
176
     1
1001
ACAD
1000
AcDbSavedByObjectVersion
1070
     0
  0
VISUALSTYLE
  5
810A
102
{ACAD_REACTORS
330
80FF
102
}
330
80FF
100
AcDbVisualStyle
  2
Dim
 70
    11
177
     3
291
     1
 70
    58
 90
        2
176
     1
 90
        2
176
     1
 90
        0
176
     1
 90
        0
176
     1
 40
0.6
176
     1
 40
30.0
176
     1
 62
     7
420
 16777215
176
     1
 90
        1
176
     1
 90
        4
176
     1
 62
     7
176
     1
 62
   257
176
     1
 90
        1
176
     1
 90
        1
176
     1
 40
1.0
176
     1
 90
        8
176
     1
 62
     7
176
     1
 40
1.0
176
     1
 90
        1
176
     1
 90
        6
176
     1
 90
        2
176
     1
 62
     7
176
     1
 90
        5
176
     1
 90
        0
176
     1
 90
        0
176
     1
290
     0
176
     1
 90
        1
176
     1
 40
-50.0
176
     1
 90
        0
176
     1
290
     0
176
     1
290
     1
176
     1
290
     1
176
     1
290
     0
176
     1
290
     0
176
     1
290
     0
176
     1
290
     0
176
     1
290
     0
176
     1
290
     0
176
     1
 90
       50
176
     1
 40
0.0
176
     1
 40
1.0
176
     1
 90
        0
176
     1
 62
    18
420
        0
176
     1
 90
       50
176
     1
 90
        3
176
     1
 62
     5
420
      255
176
     1
290
     0
176
     1
 90
       50
176
     1
 90
       50
176
     1
 90
       50
176
     1
290
     0
176
     1
 90
       50
176
     1
 62
   256
176
     0
 40
1.0
176
     0
 90
        2
176
     1
  1
strokes_ogs.tif
176
     1
290
     0
176
     1
 40
1.0
176
     1
 40
1.0
176
     1
1001
ACAD
1000
AcDbSavedByObjectVersion
1070
     0
  0
VISUALSTYLE
  5
8117
102
{ACAD_REACTORS
330
80FF
102
}
330
80FF
100
AcDbVisualStyle
  2
EdgeColorOff
 70
    22
177
     3
291
     1
 70
    58
 90
        2
176
     0
 90
        2
176
     0
 90
        0
176
     0
 90
        0
176
     0
 40
0.6
176
     0
 40
30.0
176
     0
 62
     7
420
 16777215
176
     0
 90
        1
176
     0
 90
        4
176
     0
 62
     7
176
     0
 62
   257
176
     0
 90
        1
176
     0
 90
        1
176
     0
 40
1.0
176
     0
 90
        8
176
     2
 62
     7
176
     0
 40
1.0
176
     0
 90
        1
176
     0
 90
        6
176
     0
 90
        2
176
     0
 62
     7
176
     0
 90
        5
176
     0
 90
        0
176
     0
 90
        0
176
     0
290
     0
176
     0
 90
        1
176
     0
 40
0.0
176
     0
 90
        0
176
     0
290
     0
176
     0
290
     1
176
     0
290
     1
176
     0
290
     0
176
     0
290
     0
176
     0
290
     0
176
     0
290
     0
176
     0
290
     0
176
     0
290
     0
176
     0
 90
       50
176
     0
 40
0.0
176
     0
 40
1.0
176
     0
 90
        0
176
     0
 62
    18
420
        0
176
     0
 90
       50
176
     0
 90
        3
176
     0
 62
     5
420
      255
176
     0
290
     0
176
     0
 90
       50
176
     0
 90
       50
176
     0
 90
       50
176
     0
290
     0
176
     0
 90
       50
176
     0
 62
   256
176
     0
 40
1.0
176
     0
 90
        2
176
     0
  1
strokes_ogs.tif
176
     0
290
     0
176
     0
 40
1.0
176
     0
 40
1.0
176
     0
1001
ACAD
1000
AcDbSavedByObjectVersion
1070
     0
  0
VISUALSTYLE
  5
810E
102
{ACAD_REACTORS
330
80FF
102
}
330
80FF
100
AcDbVisualStyle
  2
Facepattern
 70
    15
177
     3
291
     1
 70
    58
 90
        2
176
     1
 90
        2
176
     1
 90
        0
176
     1
 90
        0
176
     1
 40
0.6
176
     1
 40
30.0
176
     1
 62
     7
420
 16777215
176
     1
 90
        1
176
     1
 90
        4
176
     1
 62
     7
176
     1
 62
   257
176
     1
 90
        1
176
     1
 90
        1
176
     1
 40
1.0
176
     1
 90
        8
176
     1
 62
     7
176
     1
 40
1.0
176
     1
 90
        1
176
     1
 90
        6
176
     1
 90
        2
176
     1
 62
     7
176
     1
 90
        5
176
     1
 90
        0
176
     1
 90
        0
176
     1
290
     0
176
     1
 90
        1
176
     1
 40
0.0
176
     1
 90
        0
176
     1
290
     0
176
     1
290
     1
176
     1
290
     1
176
     1
290
     0
176
     1
290
     0
176
     1
290
     0
176
     1
290
     0
176
     1
290
     0
176
     1
290
     0
176
     1
 90
       50
176
     1
 40
0.0
176
     1
 40
1.0
176
     1
 90
        0
176
     1
 62
    18
420
        0
176
     1
 90
       50
176
     1
 90
        3
176
     1
 62
     5
420
      255
176
     1
290
     0
176
     1
 90
       50
176
     1
 90
       50
176
     1
 90
       50
176
     1
290
     0
176
     1
 90
       50
176
     1
 62
   256
176
     0
 40
1.0
176
     0
 90
        2
176
     1
  1
strokes_ogs.tif
176
     1
290
     0
176
     1
 40
1.0
176
     1
 40
1.0
176
     1
1001
ACAD
1000
AcDbSavedByObjectVersion
1070
     0
  0
VISUALSTYLE
  5
8100
102
{ACAD_REACTORS
330
80FF
102
}
330
80FF
100
AcDbVisualStyle
  2
Flat
 70
     0
177
     3
291
     1
 70
    58
 90
        2
176
     1
 90
        1
176
     1
 90
        1
176
     1
 90
        2
176
     1
 40
0.6
176
     1
 40
30.0
176
     1
 62
     7
420
 16777215
176
     1
 90
        0
176
     1
 90
        0
176
     1
 62
     7
176
     1
 62
   257
176
     1
 90
        1
176
     1
 90
        1
176
     1
 40
1.0
176
     1
 90
        8
176
     1
 62
     7
176
     1
 40
1.0
176
     1
 90
        1
176
     1
 90
        6
176
     1
 90
        2
176
     1
 62
     7
176
     1
 90
        5
176
     1
 90
        0
176
     1
 90
        0
176
     1
290
     0
176
     1
 90
       13
176
     1
 40
0.0
176
     1
 90
        0
176
     1
290
     0
176
     1
290
     1
176
     1
290
     1
176
     1
290
     0
176
     1
290
     0
176
     1
290
     0
176
     1
290
     0
176
     1
290
     0
176
     1
290
     0
176
     1
 90
       50
176
     1
 40
0.0
176
     1
 40
1.0
176
     1
 90
        0
176
     1
 62
    18
420
        0
176
     1
 90
       50
176
     1
 90
        3
176
     1
 62
     5
420
      255
176
     1
290
     0
176
     1
 90
       50
176
     1
 90
       50
176
     1
 90
       50
176
     1
290
     0
176
     1
 90
       50
176
     1
 62
   256
176
     0
 40
1.0
176
     0
 90
        2
176
     1
  1
strokes_ogs.tif
176
     1
290
     0
176
     1
 40
1.0
176
     1
 40
1.0
176
     1
1001
ACAD
1000
AcDbSavedByObjectVersion
1070
     0
  0
VISUALSTYLE
  5
8101
102
{ACAD_REACTORS
330
80FF
102
}
330
80FF
100
AcDbVisualStyle
  2
FlatWithEdges
 70
     1
177
     3
291
     1
 70
    58
 90
        2
176
     1
 90
        1
176
     1
 90
        1
176
     1
 90
        2
176
     1
 40
0.6
176
     1
 40
30.0
176
     1
 62
     7
420
 16777215
176
     1
 90
        1
176
     1
 90
        0
176
     1
 62
     7
176
     1
 62
   257
176
     1
 90
        1
176
     1
 90
        1
176
     1
 40
1.0
176
     1
 90
        0
176
     1
 62
   257
176
     1
 40
1.0
176
     1
 90
        1
176
     1
 90
        6
176
     1
 90
        2
176
     1
 62
     7
176
     1
 90
        5
176
     1
 90
        0
176
     1
 90
        0
176
     1
290
     0
176
     1
 90
       13
176
     1
 40
0.0
176
     1
 90
        0
176
     1
290
     0
176
     1
290
     1
176
     1
290
     1
176
     1
290
     0
176
     1
290
     0
176
     1
290
     0
176
     1
290
     0
176
     1
290
     0
176
     1
290
     0
176
     1
 90
       50
176
     1
 40
0.0
176
     1
 40
1.0
176
     1
 90
        0
176
     1
 62
    18
420
        0
176
     1
 90
       50
176
     1
 90
        3
176
     1
 62
     5
420
      255
176
     1
290
     0
176
     1
 90
       50
176
     1
 90
       50
176
     1
 90
       50
176
     1
290
     0
176
     1
 90
       50
176
     1
 62
   256
176
     0
 40
1.0
176
     0
 90
        2
176
     1
  1
strokes_ogs.tif
176
     1
290
     0
176
     1
 40
1.0
176
     1
 40
1.0
176
     1
1001
ACAD
1000
AcDbSavedByObjectVersion
1070
     0
  0
VISUALSTYLE
  5
8102
102
{ACAD_REACTORS
330
80FF
102
}
330
80FF
100
AcDbVisualStyle
  2
Gouraud
 70
     2
177
     3
291
     1
 70
    58
 90
        2
176
     1
 90
        2
176
     1
 90
        1
176
     1
 90
        2
176
     1
 40
0.6
176
     1
 40
30.0
176
     1
 62
     7
420
 16777215
176
     1
 90
        0
176
     1
 90
        0
176
     1
 62
     7
176
     1
 62
   257
176
     1
 90
        1
176
     1
 90
        1
176
     1
 40
1.0
176
     1
 90
        0
176
     1
 62
     7
176
     1
 40
1.0
176
     1
 90
        1
176
     1
 90
        6
176
     1
 90
        2
176
     1
 62
     7
176
     1
 90
        5
176
     1
 90
        0
176
     1
 90
        0
176
     1
290
     0
176
     1
 90
       13
176
     1
 40
0.0
176
     1
 90
        0
176
     1
290
     0
176
     1
290
     1
176
     1
290
     1
176
     1
290
     0
176
     1
290
     0
176
     1
290
     0
176
     1
290
     0
176
     1
290
     0
176
     1
290
     0
176
     1
 90
       50
176
     1
 40
0.0
176
     1
 40
1.0
176
     1
 90
        0
176
     1
 62
    18
420
        0
176
     1
 90
       50
176
     1
 90
        3
176
     1
 62
     5
420
      255
176
     1
290
     0
176
     1
 90
       50
176
     1
 90
       50
176
     1
 90
       50
176
     1
290
     0
176
     1
 90
       50
176
     1
 62
   256
176
     0
 40
1.0
176
     0
 90
        2
176
     1
  1
strokes_ogs.tif
176
     1
290
     0
176
     1
 40
1.0
176
     1
 40
1.0
176
     1
1001
ACAD
1000
AcDbSavedByObjectVersion
1070
     0
  0
VISUALSTYLE
  5
8103
102
{ACAD_REACTORS
330
80FF
102
}
330
80FF
100
AcDbVisualStyle
  2
GouraudWithEdges
 70
     3
177
     3
291
     1
 70
    58
 90
        2
176
     1
 90
        2
176
     1
 90
        1
176
     1
 90
        2
176
     1
 40
0.6
176
     1
 40
30.0
176
     1
 62
     7
420
 16777215
176
     1
 90
        1
176
     1
 90
        0
176
     1
 62
     7
176
     1
 62
   257
176
     1
 90
        1
176
     1
 90
        1
176
     1
 40
1.0
176
     1
 90
        0
176
     1
 62
   257
176
     1
 40
1.0
176
     1
 90
        1
176
     1
 90
        6
176
     1
 90
        2
176
     1
 62
     7
176
     1
 90
        5
176
     1
 90
        0
176
     1
 90
        0
176
     1
290
     0
176
     1
 90
       13
176
     1
 40
0.0
176
     1
 90
        0
176
     1
290
     0
176
     1
290
     1
176
     1
290
     1
176
     1
290
     0
176
     1
290
     0
176
     1
290
     0
176
     1
290
     0
176
     1
290
     0
176
     1
290
     0
176
     1
 90
       50
176
     1
 40
0.0
176
     1
 40
1.0
176
     1
 90
        0
176
     1
 62
    18
420
        0
176
     1
 90
       50
176
     1
 90
        3
176
     1
 62
     5
420
      255
176
     1
290
     0
176
     1
 90
       50
176
     1
 90
       50
176
     1
 90
       50
176
     1
290
     0
176
     1
 90
       50
176
     1
 62
   256
176
     0
 40
1.0
176
     0
 90
        2
176
     1
  1
strokes_ogs.tif
176
     1
290
     0
176
     1
 40
1.0
176
     1
 40
1.0
176
     1
1001
ACAD
1000
AcDbSavedByObjectVersion
1070
     0
  0
VISUALSTYLE
  5
8107
102
{ACAD_REACTORS
330
80FF
102
}
330
80FF
100
AcDbVisualStyle
  2
Hidden
 70
     6
177
     3
291
     0
 70
    58
 90
        1
176
     1
 90
        2
176
     1
 90
        2
176
     1
 90
        0
176
     1
 40
0.6
176
     1
 40
30.0
176
     1
 62
     7
420
 16777215
176
     1
 90
        2
176
     1
 90
        2
176
     1
 62
     7
176
     1
 62
   257
176
     1
 90
        2
176
     1
 90
        1
176
     1
 40
40.0
176
     1
 90
        0
176
     1
 62
   257
176
     1
 40
1.0
176
     1
 90
        1
176
     1
 90
        6
176
     1
 90
        2
176
     1
 62
     7
176
     1
 90
        3
176
     1
 90
        0
176
     1
 90
        0
176
     1
290
     0
176
     1
 90
        1
176
     1
 40
0.0
176
     1
 90
        0
176
     1
290
     0
176
     1
290
     1
176
     1
290
     1
176
     1
290
     0
176
     1
290
     0
176
     1
290
     0
176
     1
290
     0
176
     1
290
     0
176
     1
290
     0
176
     1
 90
       50
176
     1
 40
0.0
176
     1
 40
1.0
176
     1
 90
        0
176
     1
 62
    18
420
        0
176
     1
 90
       50
176
     1
 90
        3
176
     1
 62
     5
420
      255
176
     1
290
     0
176
     1
 90
       50
176
     1
 90
       50
176
     1
 90
       50
176
     1
290
     0
176
     1
 90
       50
176
     1
 62
   256
176
     0
 40
1.0
176
     0
 90
        2
176
     1
  1
strokes_ogs.tif
176
     1
290
     0
176
     1
 40
1.0
176
     1
 40
1.0
176
     1
1001
ACAD
1000
AcDbSavedByObjectVersion
1070
     0
  0
VISUALSTYLE
  5
8115
102
{ACAD_REACTORS
330
80FF
102
}
330
80FF
100
AcDbVisualStyle
  2
JitterOff
 70
    20
177
     3
291
     1
 70
    58
 90
        2
176
     0
 90
        2
176
     0
 90
        0
176
     0
 90
        0
176
     0
 40
0.6
176
     0
 40
30.0
176
     0
 62
     7
420
 16777215
176
     0
 90
        1
176
     0
 90
        4
176
     0
 62
     7
176
     0
 62
   257
176
     0
 90
        1
176
     0
 90
        1
176
     0
 40
1.0
176
     0
 90
       10
176
     2
 62
     7
176
     0
 40
1.0
176
     0
 90
        1
176
     0
 90
        6
176
     0
 90
        2
176
     0
 62
     7
176
     0
 90
        5
176
     0
 90
        0
176
     0
 90
        0
176
     0
290
     0
176
     0
 90
        1
176
     0
 40
0.0
176
     0
 90
        0
176
     0
290
     0
176
     0
290
     1
176
     0
290
     1
176
     0
290
     0
176
     0
290
     0
176
     0
290
     0
176
     0
290
     0
176
     0
290
     0
176
     0
290
     0
176
     0
 90
       50
176
     0
 40
0.0
176
     0
 40
1.0
176
     0
 90
        0
176
     0
 62
    18
420
        0
176
     0
 90
       50
176
     0
 90
        3
176
     0
 62
     5
420
      255
176
     0
290
     0
176
     0
 90
       50
176
     0
 90
       50
176
     0
 90
       50
176
     0
290
     0
176
     0
 90
       50
176
     0
 62
   256
176
     0
 40
1.0
176
     0
 90
        2
176
     0
  1
strokes_ogs.tif
176
     0
290
     0
176
     0
 40
1.0
176
     0
 40
1.0
176
     0
1001
ACAD
1000
AcDbSavedByObjectVersion
1070
     0
  0
VISUALSTYLE
  5
810D
102
{ACAD_REACTORS
330
80FF
102
}
330
80FF
100
AcDbVisualStyle
  2
Linepattern
 70
    14
177
     3
291
     1
 70
    58
 90
        2
176
     1
 90
        2
176
     1
 90
        0
176
     1
 90
        0
176
     1
 40
0.6
176
     1
 40
30.0
176
     1
 62
     7
420
 16777215
176
     1
 90
        1
176
     1
 90
        4
176
     1
 62
     7
176
     1
 62
   257
176
     1
 90
        7
176
     1
 90
        7
176
     1
 40
1.0
176
     1
 90
        8
176
     1
 62
     7
176
     1
 40
1.0
176
     1
 90
        1
176
     1
 90
        6
176
     1
 90
        2
176
     1
 62
     7
176
     1
 90
        5
176
     1
 90
        0
176
     1
 90
        0
176
     1
290
     0
176
     1
 90
        1
176
     1
 40
0.0
176
     1
 90
        0
176
     1
290
     0
176
     1
290
     1
176
     1
290
     1
176
     1
290
     0
176
     1
290
     0
176
     1
290
     0
176
     1
290
     0
176
     1
290
     0
176
     1
290
     0
176
     1
 90
       50
176
     1
 40
0.0
176
     1
 40
1.0
176
     1
 90
        0
176
     1
 62
    18
420
        0
176
     1
 90
       50
176
     1
 90
        3
176
     1
 62
     5
420
      255
176
     1
290
     0
176
     1
 90
       50
176
     1
 90
       50
176
     1
 90
       50
176
     1
290
     0
176
     1
 90
       50
176
     1
 62
   256
176
     0
 40
1.0
176
     0
 90
        2
176
     1
  1
strokes_ogs.tif
176
     1
290
     0
176
     1
 40
1.0
176
     1
 40
1.0
176
     1
1001
ACAD
1000
AcDbSavedByObjectVersion
1070
     0
  0
VISUALSTYLE
  5
8116
102
{ACAD_REACTORS
330
80FF
102
}
330
80FF
100
AcDbVisualStyle
  2
OverhangOff
 70
    21
177
     3
291
     1
 70
    58
 90
        2
176
     0
 90
        2
176
     0
 90
        0
176
     0
 90
        0
176
     0
 40
0.6
176
     0
 40
30.0
176
     0
 62
     7
420
 16777215
176
     0
 90
        1
176
     0
 90
        4
176
     0
 62
     7
176
     0
 62
   257
176
     0
 90
        1
176
     0
 90
        1
176
     0
 40
1.0
176
     0
 90
        9
176
     2
 62
     7
176
     0
 40
1.0
176
     0
 90
        1
176
     0
 90
        6
176
     0
 90
        2
176
     0
 62
     7
176
     0
 90
        5
176
     0
 90
        0
176
     0
 90
        0
176
     0
290
     0
176
     0
 90
        1
176
     0
 40
0.0
176
     0
 90
        0
176
     0
290
     0
176
     0
290
     1
176
     0
290
     1
176
     0
290
     0
176
     0
290
     0
176
     0
290
     0
176
     0
290
     0
176
     0
290
     0
176
     0
290
     0
176
     0
 90
       50
176
     0
 40
0.0
176
     0
 40
1.0
176
     0
 90
        0
176
     0
 62
    18
420
        0
176
     0
 90
       50
176
     0
 90
        3
176
     0
 62
     5
420
      255
176
     0
290
     0
176
     0
 90
       50
176
     0
 90
       50
176
     0
 90
       50
176
     0
290
     0
176
     0
 90
       50
176
     0
 62
   256
176
     0
 40
1.0
176
     0
 90
        2
176
     0
  1
strokes_ogs.tif
176
     0
290
     0
176
     0
 40
1.0
176
     0
 40
1.0
176
     0
1001
ACAD
1000
AcDbSavedByObjectVersion
1070
     0
  0
VISUALSTYLE
  5
8109
102
{ACAD_REACTORS
330
80FF
102
}
330
80FF
100
AcDbVisualStyle
  2
Realistic
 70
     8
177
     3
291
     0
 70
    58
 90
        2
176
     1
 90
        3
176
     1
 90
        0
176
     1
 90
        2
176
     1
 40
0.6
176
     1
 40
30.0
176
     1
 62
     7
420
 16777215
176
     1
 90
        0
176
     1
 90
        0
176
     1
 62
     7
176
     1
 62
   257
176
     1
 90
        1
176
     1
 90
        1
176
     1
 40
1.0
176
     1
 90
        8
176
     1
 62
   257
176
     1
 40
1.0
176
     1
 90
        1
176
     1
 90
        6
176
     1
 90
        2
176
     1
 62
     7
176
     1
 90
        3
176
     1
 90
        0
176
     1
 90
        0
176
     1
290
     0
176
     1
 90
       13
176
     1
 40
0.0
176
     1
 90
        0
176
     1
290
     0
176
     1
290
     1
176
     1
290
     1
176
     1
290
     0
176
     1
290
     0
176
     1
290
     0
176
     1
290
     0
176
     1
290
     0
176
     1
290
     0
176
     1
 90
       50
176
     1
 40
0.0
176
     1
 40
1.0
176
     1
 90
        0
176
     1
 62
    18
420
        0
176
     1
 90
       50
176
     1
 90
        3
176
     1
 62
     5
420
      255
176
     1
290
     0
176
     1
 90
       50
176
     1
 90
       50
176
     1
 90
       50
176
     1
290
     0
176
     1
 90
       50
176
     1
 62
   256
176
     0
 40
1.0
176
     0
 90
        2
176
     1
  1
strokes_ogs.tif
176
     1
290
     0
176
     1
 40
1.0
176
     1
 40
1.0
176
     1
1001
ACAD
1000
AcDbSavedByObjectVersion
1070
     0
  0
VISUALSTYLE
  5
8114
102
{ACAD_REACTORS
330
80FF
102
}
330
80FF
100
AcDbVisualStyle
  2
Shaded
 70
    27
177
     3
291
     0
 70
    58
 90
        2
176
     1
 90
        2
176
     1
 90
        1
176
     1
 90
        2
176
     1
 40
0.6
176
     1
 40
30.0
176
     1
 62
     7
420
 16777215
176
     1
 90
        0
176
     1
 90
        4
176
     1
 62
     7
176
     1
 62
   257
176
     1
 90
        1
176
     1
 90
        1
176
     1
 40
1.0
176
     1
 90
        8
176
     1
 62
   257
176
     1
 40
1.0
176
     1
 90
        1
176
     1
 90
        6
176
     1
 90
        2
176
     1
 62
     8
420
  7895160
176
     1
 90
        3
176
     1
 90
        0
176
     1
 90
        0
176
     1
290
     0
176
     1
 90
        5
176
     1
 40
0.0
176
     1
 90
        0
176
     1
290
     0
176
     1
290
     1
176
     1
290
     1
176
     1
290
     0
176
     1
290
     0
176
     1
290
     0
176
     1
290
     0
176
     1
290
     0
176
     1
290
     0
176
     1
 90
       50
176
     1
 40
0.0
176
     1
 40
1.0
176
     1
 90
        0
176
     1
 62
    18
420
        0
176
     1
 90
       50
176
     1
 90
        3
176
     1
 62
     5
420
      255
176
     1
290
     0
176
     1
 90
       50
176
     1
 90
       50
176
     1
 90
       50
176
     1
290
     0
176
     1
 90
       50
176
     1
 62
   256
176
     0
 40
1.0
176
     0
 90
        2
176
     1
  1
strokes_ogs.tif
176
     1
290
     0
176
     1
 40
1.0
176
     1
 40
1.0
176
     1
1001
ACAD
1000
AcDbSavedByObjectVersion
1070
     0
  0
VISUALSTYLE
  5
8113
102
{ACAD_REACTORS
330
80FF
102
}
330
80FF
100
AcDbVisualStyle
  2
Shaded with edges
 70
    26
177
     3
291
     0
 70
    58
 90
        2
176
     1
 90
        2
176
     1
 90
        1
176
     1
 90
        2
176
     1
 40
0.6
176
     1
 40
30.0
176
     1
 62
     7
420
 16777215
176
     1
 90
        1
176
     1
 90
        2
176
     1
 62
     7
176
     1
 62
   257
176
     1
 90
        2
176
     1
 90
        1
176
     1
 40
1.0
176
     1
 90
        8
176
     1
 62
   257
176
     1
 40
1.0
176
     1
 90
        1
176
     1
 90
        6
176
     1
 90
        2
176
     1
 62
     7
176
     1
 90
        3
176
     1
 90
        0
176
     1
 90
        0
176
     1
290
     0
176
     1
 90
        5
176
     1
 40
0.0
176
     1
 90
        0
176
     1
290
     0
176
     1
290
     1
176
     1
290
     1
176
     1
290
     0
176
     1
290
     0
176
     1
290
     0
176
     1
290
     0
176
     1
290
     0
176
     1
290
     0
176
     1
 90
       50
176
     1
 40
0.0
176
     1
 40
1.0
176
     1
 90
        0
176
     1
 62
    18
420
        0
176
     1
 90
       50
176
     1
 90
        3
176
     1
 62
     5
420
      255
176
     1
290
     0
176
     1
 90
       50
176
     1
 90
       50
176
     1
 90
       50
176
     1
290
     0
176
     1
 90
       50
176
     1
 62
   256
176
     0
 40
1.0
176
     0
 90
        2
176
     1
  1
strokes_ogs.tif
176
     1
290
     0
176
     1
 40
1.0
176
     1
 40
1.0
176
     1
1001
ACAD
1000
AcDbSavedByObjectVersion
1070
     0
  0
VISUALSTYLE
  5
8110
102
{ACAD_REACTORS
330
80FF
102
}
330
80FF
100
AcDbVisualStyle
  2
Shades of Gray
 70
    23
177
     3
291
     0
 70
    58
 90
        2
176
     1
 90
        2
176
     1
 90
        3
176
     1
 90
        0
176
     1
 40
0.6
176
     1
 40
30.0
176
     1
 62
     7
420
 16777215
176
     1
 90
        2
176
     1
 90
        2
176
     1
 62
     7
176
     1
 62
     7
176
     1
 90
        1
176
     1
 90
        1
176
     1
 40
40.0
176
     1
 90
        8
176
     1
 62
     7
176
     1
 40
1.0
176
     1
 90
        1
176
     1
 90
        6
176
     1
 90
        2
176
     1
 62
     7
176
     1
 90
        3
176
     1
 90
        0
176
     1
 90
        0
176
     1
290
     0
176
     1
 90
        1
176
     1
 40
0.0
176
     1
 90
        0
176
     1
290
     0
176
     1
290
     1
176
     1
290
     1
176
     1
290
     0
176
     1
290
     0
176
     1
290
     0
176
     1
290
     0
176
     1
290
     0
176
     1
290
     0
176
     1
 90
       50
176
     1
 40
0.0
176
     1
 40
1.0
176
     1
 90
        0
176
     1
 62
    18
420
        0
176
     1
 90
       50
176
     1
 90
        3
176
     1
 62
     5
420
      255
176
     1
290
     0
176
     1
 90
       50
176
     1
 90
       50
176
     1
 90
       50
176
     1
290
     0
176
     1
 90
       50
176
     1
 62
   256
176
     0
 40
1.0
176
     0
 90
        2
176
     1
  1
strokes_ogs.tif
176
     1
290
     0
176
     1
 40
1.0
176
     1
 40
1.0
176
     1
1001
ACAD
1000
AcDbSavedByObjectVersion
1070
     0
  0
VISUALSTYLE
  5
8111
102
{ACAD_REACTORS
330
80FF
102
}
330
80FF
100
AcDbVisualStyle
  2
Sketchy
 70
    24
177
     3
291
     0
 70
    58
 90
        1
176
     1
 90
        2
176
     1
 90
        2
176
     1
 90
        0
176
     1
 40
0.6
176
     1
 40
30.0
176
     1
 62
     7
420
 16777215
176
     1
 90
        2
176
     1
 90
        2
176
     1
 62
     7
176
     1
 62
     7
176
     1
 90
        1
176
     1
 90
        1
176
     1
 40
40.0
176
     1
 90
       11
176
     1
 62
     7
176
     1
 40
1.0
176
     1
 90
        1
176
     1
 90
        6
176
     1
 90
        2
176
     1
 62
     7
176
     1
 90
        6
176
     1
 90
        0
176
     1
 90
        0
176
     1
290
     0
176
     1
 90
        1
176
     1
 40
0.0
176
     1
 90
        0
176
     1
290
     0
176
     1
290
     1
176
     1
290
     1
176
     1
290
     0
176
     1
290
     0
176
     1
290
     0
176
     1
290
     0
176
     1
290
     0
176
     1
290
     0
176
     1
 90
       50
176
     1
 40
0.0
176
     1
 40
1.0
176
     1
 90
        0
176
     1
 62
    18
420
        0
176
     1
 90
       50
176
     1
 90
        3
176
     1
 62
     5
420
      255
176
     1
290
     0
176
     1
 90
       50
176
     1
 90
       50
176
     1
 90
       50
176
     1
290
     0
176
     1
 90
       50
176
     1
 62
   256
176
     0
 40
1.0
176
     0
 90
        2
176
     1
  1
strokes_ogs.tif
176
     1
290
     0
176
     1
 40
1.0
176
     1
 40
1.0
176
     1
1001
ACAD
1000
AcDbSavedByObjectVersion
1070
     0
  0
VISUALSTYLE
  5
810C
102
{ACAD_REACTORS
330
80FF
102
}
330
80FF
100
AcDbVisualStyle
  2
Thicken
 70
    13
177
     3
291
     1
 70
    58
 90
        2
176
     1
 90
        2
176
     1
 90
        0
176
     1
 90
        0
176
     1
 40
0.6
176
     1
 40
30.0
176
     1
 62
     7
420
 16777215
176
     1
 90
        1
176
     1
 90
        4
176
     1
 62
     7
176
     1
 62
   257
176
     1
 90
        1
176
     1
 90
        1
176
     1
 40
1.0
176
     1
 90
       12
176
     1
 62
     7
176
     1
 40
1.0
176
     1
 90
        1
176
     1
 90
        6
176
     1
 90
        2
176
     1
 62
     7
176
     1
 90
        5
176
     1
 90
        0
176
     1
 90
        0
176
     1
290
     0
176
     1
 90
        1
176
     1
 40
0.0
176
     1
 90
        0
176
     1
290
     0
176
     1
290
     1
176
     1
290
     1
176
     1
290
     0
176
     1
290
     0
176
     1
290
     0
176
     1
290
     0
176
     1
290
     0
176
     1
290
     0
176
     1
 90
       50
176
     1
 40
0.0
176
     1
 40
1.0
176
     1
 90
        0
176
     1
 62
    18
420
        0
176
     1
 90
       50
176
     1
 90
        3
176
     1
 62
     5
420
      255
176
     1
290
     0
176
     1
 90
       50
176
     1
 90
       50
176
     1
 90
       50
176
     1
290
     0
176
     1
 90
       50
176
     1
 62
   256
176
     0
 40
1.0
176
     0
 90
        2
176
     1
  1
strokes_ogs.tif
176
     1
290
     0
176
     1
 40
1.0
176
     1
 40
1.0
176
     1
1001
ACAD
1000
AcDbSavedByObjectVersion
1070
     0
  0
VISUALSTYLE
  5
8106
102
{ACAD_REACTORS
330
80FF
102
}
330
80FF
100
AcDbVisualStyle
  2
Wireframe
 70
     5
177
     3
291
     0
 70
    58
 90
        0
176
     1
 90
        2
176
     1
 90
        0
176
     1
 90
        0
176
     1
 40
0.6
176
     1
 40
30.0
176
     1
 62
     7
420
 16777215
176
     1
 90
        1
176
     1
 90
        4
176
     1
 62
     7
176
     1
 62
   257
176
     1
 90
        1
176
     1
 90
        1
176
     1
 40
1.0
176
     1
 90
        0
176
     1
 62
   257
176
     1
 40
1.0
176
     1
 90
        1
176
     1
 90
        6
176
     1
 90
        2
176
     1
 62
     7
176
     1
 90
        3
176
     1
 90
        0
176
     1
 90
        0
176
     1
290
     0
176
     1
 90
        1
176
     1
 40
0.0
176
     1
 90
        0
176
     1
290
     0
176
     1
290
     1
176
     1
290
     1
176
     1
290
     0
176
     1
290
     0
176
     1
290
     0
176
     1
290
     0
176
     1
290
     0
176
     1
290
     0
176
     1
 90
       50
176
     1
 40
0.0
176
     1
 40
1.0
176
     1
 90
        0
176
     1
 62
    18
420
        0
176
     1
 90
       50
176
     1
 90
        3
176
     1
 62
     5
420
      255
176
     1
290
     0
176
     1
 90
       50
176
     1
 90
       50
176
     1
 90
       50
176
     1
290
     0
176
     1
 90
       50
176
     1
 62
   256
176
     0
 40
1.0
176
     0
 90
        2
176
     1
  1
strokes_ogs.tif
176
     1
290
     0
176
     1
 40
1.0
176
     1
 40
1.0
176
     1
1001
ACAD
1000
AcDbSavedByObjectVersion
1070
     0
  0
VISUALSTYLE
  5
8112
102
{ACAD_REACTORS
330
80FF
102
}
330
80FF
100
AcDbVisualStyle
  2
X-Ray
 70
    25
177
     3
291
     0
 70
    58
 90
        2
176
     1
 90
        2
176
     1
 90
        1
176
     1
 90
        1
176
     1
 40
0.5
176
     1
 40
30.0
176
     1
 62
     7
420
 16777215
176
     1
 90
        1
176
     1
 90
        0
176
     1
 62
     7
176
     1
 62
   257
176
     1
 90
        1
176
     1
 90
        1
176
     1
 40
1.0
176
     1
 90
        8
176
     1
 62
     7
176
     1
 40
1.0
176
     1
 90
        1
176
     1
 90
        6
176
     1
 90
        2
176
     1
 62
     7
176
     1
 90
        3
176
     1
 90
        0
176
     1
 90
        0
176
     1
290
     0
176
     1
 90
       13
176
     1
 40
0.0
176
     1
 90
        0
176
     1
290
     0
176
     1
290
     1
176
     1
290
     1
176
     1
290
     0
176
     1
290
     0
176
     1
290
     0
176
     1
290
     0
176
     1
290
     0
176
     1
290
     0
176
     1
 90
       50
176
     1
 40
0.0
176
     1
 40
1.0
176
     1
 90
        0
176
     1
 62
    18
420
        0
176
     1
 90
       50
176
     1
 90
        3
176
     1
 62
     5
420
      255
176
     1
290
     0
176
     1
 90
       50
176
     1
 90
       50
176
     1
 90
       50
176
     1
290
     0
176
     1
 90
       50
176
     1
 62
   256
176
     0
 40
1.0
176
     0
 90
        2
176
     1
  1
strokes_ogs.tif
176
     1
290
     0
176
     1
 40
1.0
176
     1
 40
1.0
176
     1
1001
ACAD
1000
AcDbSavedByObjectVersion
1070
     0
  0
DICTIONARYVAR
  5
81CF
102
{ACAD_REACTORS
330
80DD
102
}
330
80DD
100
DictionaryVariables
280
     0
  1
1:1
  0
DICTIONARYVAR
  5
81CB
102
{ACAD_REACTORS
330
80DD
102
}
330
80DD
100
DictionaryVariables
280
     0
  1
STANDARD
  0
DICTIONARYVAR
  5
81CA
102
{ACAD_REACTORS
330
80DD
102
}
330
80DD
100
DictionaryVariables
280
     0
  1
STANDARD
  0
DICTIONARYVAR
  5
81CC
102
{ACAD_REACTORS
330
80DD
102
}
330
80DD
100
DictionaryVariables
280
     0
  1
Metric50
  0
DICTIONARYVAR
  5
81CD
102
{ACAD_REACTORS
330
80DD
102
}
330
80DD
100
DictionaryVariables
280
     0
  1
Metric50
  0
DICTIONARYVAR
  5
80DE
102
{ACAD_REACTORS
330
80DD
102
}
330
80DD
100
DictionaryVariables
280
     0
  1
1
  0
DICTIONARYVAR
  5
81D1
102
{ACAD_REACTORS
330
80DD
102
}
330
80DD
100
DictionaryVariables
280
     0
  1
1
  0
DICTIONARYVAR
  5
81D2
102
{ACAD_REACTORS
330
80DD
102
}
330
80DD
100
DictionaryVariables
280
     0
  1
15
  0
DICTIONARYVAR
  5
81D0
102
{ACAD_REACTORS
330
80DD
102
}
330
80DD
100
DictionaryVariables
280
     0
  1
0
  0
DICTIONARYVAR
  5
81D7
102
{ACAD_REACTORS
330
80DD
102
}
330
80DD
100
DictionaryVariables
280
     0
  1
0
  0
DICTIONARYVAR
  5
81CE
102
{ACAD_REACTORS
330
80DD
102
}
330
80DD
100
DictionaryVariables
280
     0
  1
0
  0
DICTIONARY
  5
81E2
102
{ACAD_REACTORS
330
81E0
102
}
330
81E0
100
AcDbDictionary
281
     1
  0
DICTIONARY
  5
81E1
102
{ACAD_REACTORS
330
81E0
102
}
330
81E0
100
AcDbDictionary
281
     1
  3
2047869845168
350
81DB
  3
2047869845184
350
81DC
  3
2047869845200
350
81DD
  3
2047869845216
350
81DE
  3
2047869845232
350
81DF
  0
DICTIONARY
  5
81E5
330
8132
100
AcDbDictionary
280
     1
281
     1
  3
ACAD_XREC_ROUNDTRIP
360
81E6
  0
DICTIONARY
  5
80F0
330
80EF
100
AcDbDictionary
280
     1
281
     1
  3
BUMPTILE
360
80F2
  3
DIFFUSETILE
360
80F1
  3
OPACITYTILE
360
80F5
  3
REFLECTIONTILE
360
80F4
  3
REFRACTIONTILE
360
80F6
  3
SPECULARTILE
360
80F3
  0
DICTIONARY
  5
80E8
330
80E7
100
AcDbDictionary
280
     1
281
     1
  3
BUMPTILE
360
80EA
  3
DIFFUSETILE
360
80E9
  3
OPACITYTILE
360
80ED
  3
REFLECTIONTILE
360
80EC
  3
REFRACTIONTILE
360
80EE
  3
SPECULARTILE
360
80EB
  0
DICTIONARY
  5
80F8
330
80F7
100
AcDbDictionary
280
     1
281
     1
  3
BUMPTILE
360
80FA
  3
DIFFUSETILE
360
80F9
  3
OPACITYTILE
360
80FD
  3
REFLECTIONTILE
360
80FC
  3
REFRACTIONTILE
360
80FE
  3
SPECULARTILE
360
80FB
  0
DICTIONARY
  5
81E3
330
8130
100
AcDbDictionary
280
     1
281
     1
  3
ACAD_XREC_ROUNDTRIP
360
81E4
  0
DICTIONARY
  5
81D8
330
811A
100
AcDbDictionary
280
     1
281
     1
  3
ACAD_ROUNDTRIP_2008_TABLESTYLE_CELLSTYLEMAP
360
81D9
  0
XRECORD
  5
81DB
102
{ACAD_REACTORS
330
81E1
102
}
330
81E1
100
AcDbXrecord
280
     1
  1
AcDb_Thumbnail_Schema
102
{ATTRRECORD
341
81DC
  2
AcDbDs::TreatedAsObjectData
280
     1
291
     1
102
ATTRRECORD}
102
{ATTRRECORD
341
81DD
  2
AcDbDs::Legacy
280
     1
291
     1
102
ATTRRECORD}
  2
AcDbDs::ID
280
    10
 91
        8
102
{ATTRRECORD
341
81DE
  2
AcDs:Indexable
280
     1
291
     1
102
ATTRRECORD}
102
{ATTRRECORD
341
81DF
  2
AcDbDs::HandleAttribute
280
     7
282
     1
102
ATTRRECORD}
  2
Thumbnail_Data
280
    15
 91
        0
  0
XRECORD
  5
81DC
102
{ACAD_REACTORS
330
81E1
102
}
330
81E1
100
AcDbXrecord
280
     1
  1
AcDbDs::TreatedAsObjectDataSchema
  2
AcDbDs::TreatedAsObjectData
280
     1
 91
        0
  0
XRECORD
  5
81DD
102
{ACAD_REACTORS
330
81E1
102
}
330
81E1
100
AcDbXrecord
280
     1
  1
AcDbDs::LegacySchema
  2
AcDbDs::Legacy
280
     1
 91
        0
  0
XRECORD
  5
81DE
102
{ACAD_REACTORS
330
81E1
102
}
330
81E1
100
AcDbXrecord
280
     1
  1
AcDbDs::IndexedPropertySchema
  2
AcDs:Indexable
280
     1
 91
        0
  0
XRECORD
  5
81DF
102
{ACAD_REACTORS
330
81E1
102
}
330
81E1
100
AcDbXrecord
280
     1
  1
AcDbDs::HandleAttributeSchema
  2
AcDbDs::HandleAttribute
280
     7
 91
        1
284
     1
  0
XRECORD
  5
81E6
102
{ACAD_REACTORS
330
81E5
102
}
330
81E5
100
AcDbXrecord
280
     1
102
DISPLAYNAME
  1
Metric50
102
FLAGS
 90
        0
  0
XRECORD
  5
80F2
102
{ACAD_REACTORS
330
80F0
102
}
330
80F0
100
AcDbXrecord
280
     1
270
     1
271
     1
  0
XRECORD
  5
80F1
102
{ACAD_REACTORS
330
80F0
102
}
330
80F0
100
AcDbXrecord
280
     1
270
     1
271
     1
  0
XRECORD
  5
80F5
102
{ACAD_REACTORS
330
80F0
102
}
330
80F0
100
AcDbXrecord
280
     1
270
     1
271
     1
  0
XRECORD
  5
80F4
102
{ACAD_REACTORS
330
80F0
102
}
330
80F0
100
AcDbXrecord
280
     1
270
     1
271
     1
  0
XRECORD
  5
80F6
102
{ACAD_REACTORS
330
80F0
102
}
330
80F0
100
AcDbXrecord
280
     1
270
     1
271
     1
  0
XRECORD
  5
80F3
102
{ACAD_REACTORS
330
80F0
102
}
330
80F0
100
AcDbXrecord
280
     1
270
     1
271
     1
  0
XRECORD
  5
80EA
102
{ACAD_REACTORS
330
80E8
102
}
330
80E8
100
AcDbXrecord
280
     1
270
     1
271
     1
  0
XRECORD
  5
80E9
102
{ACAD_REACTORS
330
80E8
102
}
330
80E8
100
AcDbXrecord
280
     1
270
     1
271
     1
  0
XRECORD
  5
80ED
102
{ACAD_REACTORS
330
80E8
102
}
330
80E8
100
AcDbXrecord
280
     1
270
     1
271
     1
  0
XRECORD
  5
80EC
102
{ACAD_REACTORS
330
80E8
102
}
330
80E8
100
AcDbXrecord
280
     1
270
     1
271
     1
  0
XRECORD
  5
80EE
102
{ACAD_REACTORS
330
80E8
102
}
330
80E8
100
AcDbXrecord
280
     1
270
     1
271
     1
  0
XRECORD
  5
80EB
102
{ACAD_REACTORS
330
80E8
102
}
330
80E8
100
AcDbXrecord
280
     1
270
     1
271
     1
  0
XRECORD
  5
80FA
102
{ACAD_REACTORS
330
80F8
102
}
330
80F8
100
AcDbXrecord
280
     1
270
     1
271
     1
  0
XRECORD
  5
80F9
102
{ACAD_REACTORS
330
80F8
102
}
330
80F8
100
AcDbXrecord
280
     1
270
     1
271
     1
  0
XRECORD
  5
80FD
102
{ACAD_REACTORS
330
80F8
102
}
330
80F8
100
AcDbXrecord
280
     1
270
     1
271
     1
  0
XRECORD
  5
80FC
102
{ACAD_REACTORS
330
80F8
102
}
330
80F8
100
AcDbXrecord
280
     1
270
     1
271
     1
  0
XRECORD
  5
80FE
102
{ACAD_REACTORS
330
80F8
102
}
330
80F8
100
AcDbXrecord
280
     1
270
     1
271
     1
  0
XRECORD
  5
80FB
102
{ACAD_REACTORS
330
80F8
102
}
330
80F8
100
AcDbXrecord
280
     1
270
     1
271
     1
  0
XRECORD
  5
81E4
102
{ACAD_REACTORS
330
81E3
102
}
330
81E3
100
AcDbXrecord
280
     1
102
DISPLAYNAME
  1
Metric50
102
FLAGS
 90
        0
  0
CELLSTYLEMAP
  5
81D9
102
{ACAD_REACTORS
330
81D8
102
}
330
81D8
100
AcDbCellStyleMap
 90
        3
300
CELLSTYLE
  1
TABLEFORMAT_BEGIN
 90
        5
170
     1
 91
        0
 92
    32768
 62
   257
 93
        1
300
CONTENTFORMAT
  1
CONTENTFORMAT_BEGIN
 90
        0
 91
        0
 92
      512
 93
        0
300

 40
0.0
140
1.0
 94
        5
 62
     0
340
10
144
6.0
309
CONTENTFORMAT_END
171
     1
301
MARGIN
  1
CELLMARGIN_BEGIN
 40
1.5
 40
1.5
 40
1.5
 40
1.5
 40
4.5
 40
4.5
309
CELLMARGIN_END
 94
        6
 95
        1
302
GRIDFORMAT
  1
GRIDFORMAT_BEGIN
 90
        0
 91
        1
 62
     0
 92
       -2
340
0
 93
        0
 40
1.125
309
GRIDFORMAT_END
 95
        2
302
GRIDFORMAT
  1
GRIDFORMAT_BEGIN
 90
        0
 91
        1
 62
     0
 92
       -2
340
0
 93
        0
 40
1.125
309
GRIDFORMAT_END
 95
        4
302
GRIDFORMAT
  1
GRIDFORMAT_BEGIN
 90
        0
 91
        1
 62
     0
 92
       -2
340
0
 93
        0
 40
1.125
309
GRIDFORMAT_END
 95
        8
302
GRIDFORMAT
  1
GRIDFORMAT_BEGIN
 90
        0
 91
        1
 62
     0
 92
       -2
340
0
 93
        0
 40
1.125
309
GRIDFORMAT_END
 95
       16
302
GRIDFORMAT
  1
GRIDFORMAT_BEGIN
 90
        0
 91
        1
 62
     0
 92
       -2
340
0
 93
        0
 40
1.125
309
GRIDFORMAT_END
 95
       32
302
GRIDFORMAT
  1
GRIDFORMAT_BEGIN
 90
        0
 91
        1
 62
     0
 92
       -2
340
0
 93
        0
 40
1.125
309
GRIDFORMAT_END
309
TABLEFORMAT_END
  1
CELLSTYLE_BEGIN
 90
        1
 91
        1
300
_TITLE
309
CELLSTYLE_END
300
CELLSTYLE
  1
TABLEFORMAT_BEGIN
 90
        5
170
     1
 91
        0
 92
        0
 62
   257
 93
        1
300
CONTENTFORMAT
  1
CONTENTFORMAT_BEGIN
 90
        0
 91
        0
 92
      512
 93
        0
300

 40
0.0
140
1.0
 94
        5
 62
     0
340
10
144
4.5
309
CONTENTFORMAT_END
171
     1
301
MARGIN
  1
CELLMARGIN_BEGIN
 40
1.5
 40
1.5
 40
1.5
 40
1.5
 40
4.5
 40
4.5
309
CELLMARGIN_END
 94
        6
 95
        1
302
GRIDFORMAT
  1
GRIDFORMAT_BEGIN
 90
        0
 91
        1
 62
     0
 92
       -2
340
0
 93
        0
 40
1.125
309
GRIDFORMAT_END
 95
        2
302
GRIDFORMAT
  1
GRIDFORMAT_BEGIN
 90
        0
 91
        1
 62
     0
 92
       -2
340
0
 93
        0
 40
1.125
309
GRIDFORMAT_END
 95
        4
302
GRIDFORMAT
  1
GRIDFORMAT_BEGIN
 90
        0
 91
        1
 62
     0
 92
       -2
340
0
 93
        0
 40
1.125
309
GRIDFORMAT_END
 95
        8
302
GRIDFORMAT
  1
GRIDFORMAT_BEGIN
 90
        0
 91
        1
 62
     0
 92
       -2
340
0
 93
        0
 40
1.125
309
GRIDFORMAT_END
 95
       16
302
GRIDFORMAT
  1
GRIDFORMAT_BEGIN
 90
        0
 91
        1
 62
     0
 92
       -2
340
0
 93
        0
 40
1.125
309
GRIDFORMAT_END
 95
       32
302
GRIDFORMAT
  1
GRIDFORMAT_BEGIN
 90
        0
 91
        1
 62
     0
 92
       -2
340
0
 93
        0
 40
1.125
309
GRIDFORMAT_END
309
TABLEFORMAT_END
  1
CELLSTYLE_BEGIN
 90
        2
 91
        1
300
_HEADER
309
CELLSTYLE_END
300
CELLSTYLE
  1
TABLEFORMAT_BEGIN
 90
        5
170
     1
 91
        0
 92
        0
 62
   257
 93
        1
300
CONTENTFORMAT
  1
CONTENTFORMAT_BEGIN
 90
        0
 91
        0
 92
      512
 93
        0
300

 40
0.0
140
1.0
 94
        2
 62
     0
340
10
144
4.5
309
CONTENTFORMAT_END
171
     1
301
MARGIN
  1
CELLMARGIN_BEGIN
 40
1.5
 40
1.5
 40
1.5
 40
1.5
 40
4.5
 40
4.5
309
CELLMARGIN_END
 94
        6
 95
        1
302
GRIDFORMAT
  1
GRIDFORMAT_BEGIN
 90
        0
 91
        1
 62
     0
 92
       -2
340
0
 93
        0
 40
1.125
309
GRIDFORMAT_END
 95
        2
302
GRIDFORMAT
  1
GRIDFORMAT_BEGIN
 90
        0
 91
        1
 62
     0
 92
       -2
340
0
 93
        0
 40
1.125
309
GRIDFORMAT_END
 95
        4
302
GRIDFORMAT
  1
GRIDFORMAT_BEGIN
 90
        0
 91
        1
 62
     0
 92
       -2
340
0
 93
        0
 40
1.125
309
GRIDFORMAT_END
 95
        8
302
GRIDFORMAT
  1
GRIDFORMAT_BEGIN
 90
        0
 91
        1
 62
     0
 92
       -2
340
0
 93
        0
 40
1.125
309
GRIDFORMAT_END
 95
       16
302
GRIDFORMAT
  1
GRIDFORMAT_BEGIN
 90
        0
 91
        1
 62
     0
 92
       -2
340
0
 93
        0
 40
1.125
309
GRIDFORMAT_END
 95
       32
302
GRIDFORMAT
  1
GRIDFORMAT_BEGIN
 90
        0
 91
        1
 62
     0
 92
       -2
340
0
 93
        0
 40
1.125
309
GRIDFORMAT_END
309
TABLEFORMAT_END
  1
CELLSTYLE_BEGIN
 90
        3
 91
        2
300
_DATA
309
CELLSTYLE_END
  0
ENDSEC
  0
SECTION
  2
ACDSDATA
 70
     2
 71
     8
  0
ACDSSCHEMA
 90
        0
  1
AcDb_Thumbnail_Schema
  2
AcDbDs::ID
280
    10
 91
        8
  2
Thumbnail_Data
280
    15
 91
        0
101
ACDSRECORD
 95
        0
 90
        1
  2
AcDbDs::TreatedAsObjectData
280
     1
291
     1
101
ACDSRECORD
 95
        0
 90
        2
  2
AcDbDs::Legacy
280
     1
291
     1
101
ACDSRECORD
  1
AcDbDs::ID
 90
        3
  2
AcDs:Indexable
280
     1
291
     1
101
ACDSRECORD
  1
AcDbDs::ID
 90
        4
  2
AcDbDs::HandleAttribute
280
     7
282
     1
  0
ACDSSCHEMA
 90
        1
  1
AcDbDs::TreatedAsObjectDataSchema
  2
AcDbDs::TreatedAsObjectData
280
     1
 91
        0
  0
ACDSSCHEMA
 90
        2
  1
AcDbDs::LegacySchema
  2
AcDbDs::Legacy
280
     1
 91
        0
  0
ACDSSCHEMA
 90
        3
  1
AcDbDs::IndexedPropertySchema
  2
AcDs:Indexable
280
     1
 91
        0
  0
ACDSSCHEMA
 90
        4
  1
AcDbDs::HandleAttributeSchema
  2
AcDbDs::HandleAttribute
280
     7
 91
        1
284
     1
  0
ACDSRECORD
 90
        0
  2
AcDbDs::ID
280
    10
320
808A
  2
Thumbnail_Data
280
    15
 94
     1922
310
89504E470D0A1A0A0000000D49484452000001000000009108030000001BE1960600000300504C5445000000000000C8C8C80000000000000000000000000000000000000000000000000000330000660000990000CC0000FF0033000033330033660033990033CC0033FF0066000066330066660066990066CC0066FF0099
310
000099330099660099990099CC0099FF00CC0000CC3300CC6600CC9900CCCC00CCFF00FF0000FF3300FF6600FF9900FFCC00FFFF3300003300333300663300993300CC3300FF3333003333333333663333993333CC3333FF3366003366333366663366993366CC3366FF3399003399333399663399993399CC3399FF33CC00
310
33CC3333CC6633CC9933CCCC33CCFF33FF0033FF3333FF6633FF9933FFCC33FFFF6600006600336600666600996600CC6600FF6633006633336633666633996633CC6633FF6666006666336666666666996666CC6666FF6699006699336699666699996699CC6699FF66CC0066CC3366CC6666CC9966CCCC66CCFF66FF0066
310
FF3366FF6666FF9966FFCC66FFFF9900009900339900669900999900CC9900FF9933009933339933669933999933CC9933FF9966009966339966669966999966CC9966FF9999009999339999669999999999CC9999FF99CC0099CC3399CC6699CC9999CCCC99CCFF99FF0099FF3399FF6699FF9999FFCC99FFFFCC0000CC00
310
33CC0066CC0099CC00CCCC00FFCC3300CC3333CC3366CC3399CC33CCCC33FFCC6600CC6633CC6666CC6699CC66CCCC66FFCC9900CC9933CC9966CC9999CC99CCCC99FFCCCC00CCCC33CCCC66CCCC99CCCCCCCCCCFFCCFF00CCFF33CCFF66CCFF99CCFFCCCCFFFFFF0000FF0033FF0066FF0099FF00CCFF00FFFF3300FF3333
310
FF3366FF3399FF33CCFF33FFFF6600FF6633FF6666FF6699FF66CCFF66FFFF9900FF9933FF9966FF9999FF99CCFF99FFFFCC00FFCC33FFCC66FFCC99FFCCCCFFCCFFFFFF00FFFF33FFFF66FFFF99FFFFCCFFFFFF0000000D0D0D1A1A1A2828283535354343435050505D5D5D6B6B6B787878868686939393A1A1A1AEAEAEBB
310
BBBBC9C9C9D6D6D6E4E4E4F1F1F1FFFFFF00000000000000000000000000000000000000000000000000000000000008F1915C0000043D4944415478DAED9D5992E3200C40751C7EB8FF65B806FF33C12C92009B4E253DA385AA74BC60C77A1692007501F0C1927FA9C0FF5AB2AA9F71000EC001380007E000FEC5933DF97E
310
FD001E8E19D00098C2BD6CB00958D7004AC0A2060837825FEC010A0120E6D60EE07B4F995F7F3336ECD5C3B5ED7329850218320FC15F547AC3BE10E5714D6FEDB8E53358A2002059DB0730910AE092759CAD54FAB75C007906404C7BFF4C1A00E3440123B9095473D09BC32518912A3FDCD3BD8003F04850665F20A3A0609C
310
EF0E117B40DC11CECC118A1D11C25E80FBF8111B010F970600D00280C8439C21F215D843400B146403A0A6A02B3A6BDB3860861E1E818626F0957BF9B0B803900320957277402D8074507403E0BA305777000EC02480E0008C02885379D717080310EFCA5B6A200E00A943766D00002AB203B00700C94C76EC00E842E36D53
310
00AAD468D30118038094DF288061FEED010857E1DF65FBAD511101005E213E0A77C99B271AA017C090F3B609A805001CC0C6089A01B07383AA01540B60310E481780D7E04F34190A7300E63A430C80BDEEB00320000C0E89310006074531005E228D10F402B87FF1DA0124605DA1F1FE8D0028BDC110EF8BEE99A1CBFCC18D
310
06289F1B7CB601A6264757DA6E6C76D81C00EB4952F27FC60138808F3ED961ABE7E66175991E23B80092400F801B2F58F7689D63567203A1692FDD86055868C1008E9BC02D32100C8035E5B4935935003806B0D314454DE001C03840926AA56BC05A68076000404CEB14E95D2BDF0DA1C8D580E5B0E8F4D20780950644D002
310
800D8B9D02A0E6532E802277A883A5B1899E0E35403E806B62345C28BA5E1F0300E900EAC4708041C00480911E12B158F600D464193C31162FD11B809152B40220D6087600B17C3A8106A07B81724E3580227EF1020DC80400F401E8C9C165AEF4DA896D9F4482752E352CCADF83D235A0C53E440322E92A4760F3E9010710
310
A201E029D1BE35D41D03D8348188934AC50188CD004E5E00CE3540248040FA3E550F02DC00D81B41901807D4B01FCB8F23C19A2393B40288C3F03545207D8126563A6802B2010C17D03420A2BCF197F0E939100271BDC1E2D27BA2141D0FC00152EF0BD4EA6AC6038ABD6BF29241011A210E000F1A206E44684E8A24624562
310
2F1502E0FF34168958D8D8752358AD841E004F899203C032B9362CEACA0110C92B84BBF75A014C03C881DD4E1880670DC07DC1847C840E0D80670D00AE0127978BD28078AC01293D5D23D70B4C62EF01A45DCD1893C038808671F8049BF2DFE552245827D3284B959D52C21E9369446689118B476A1000EB9AEC8CB24CD1F4
310
E3AC7175A9B2E601800370000EC001380007600080C53546D8F9B548F967B7D608802D4291735F72632CBAA508002C00005A8B056DB765B6B400D81E6FCB8AA025FAD0BE1A006E047712D565F7DAA27B068D605B77D032809579D40C60E91D40B906583782DE1972000EC001380007E0001C805E00BF543EF9CC7F00600B05
310
0C6D4A6FA00000000049454E44AE426082
  0
ENDSEC
  0
EOF
