  0
SECTION
  2
HEADER
  9
$ACADVER
  1
AC1027
  9
$ACADMAINTVER
 70
   125
  9
$DWGCODEPAGE
  3
ANSI_932
  9
$LASTSAVEDBY
  1
yasukiyo.ogawa
  9
$REQUIREDVERSIONS
160
                 0
  9
$INSBASE
 10
0.0
 20
0.0
 30
0.0
  9
$EXTMIN
 10
0.0
 20
0.0
 30
0.0
  9
$EXTMAX
 10
7350.0
 20
10325.0
 30
0.0
  9
$LIMMIN
 10
0.0
 20
0.0
  9
$LIMMAX
 10
297.0
 20
210.0
  9
$ORTHOMODE
 70
     1
  9
$REGENMODE
 70
     1
  9
$FILLMODE
 70
     0
  9
$QTEXTMODE
 70
     0
  9
$MIRRTEXT
 70
     1
  9
$LTSCALE
 40
100.0
  9
$ATTMODE
 70
     1
  9
$TEXTSIZE
 40
180.0
  9
$TRACEWID
 40
0.05
  9
$TEXTSTYLE
  7
STANDARD
  9
$CLAYER
  8
3
  9
$CELTYPE
  6
BYLAYER
  9
$CECOLOR
 62
   256
  9
$CELTSCALE
 40
1.0
  9
$DISPSILH
 70
     0
  9
$DIMSCALE
 40
35.0
  9
$DIMASZ
 40
2.0
  9
$DIMEXO
 40
0.5
  9
$DIMDLI
 40
10.0
  9
$DIMRND
 40
0.0
  9
$DIMDLE
 40
0.0
  9
$DIMEXE
 40
1.0
  9
$DIMTP
 40
1.0
  9
$DIMTM
 40
1.0
  9
$DIMTXT
 40
3.0
  9
$DIMCEN
 40
0.0
  9
$DIMTSZ
 40
0.0
  9
$DIMTOL
 70
     0
  9
$DIMLIM
 70
     0
  9
$DIMTIH
 70
     0
  9
$DIMTOH
 70
     0
  9
$DIMSE1
 70
     0
  9
$DIMSE2
 70
     0
  9
$DIMTAD
 70
     1
  9
$DIMZIN
 70
     8
  9
$DIMBLK
  1

  9
$DIMASO
 70
     1
  9
$DIMSHO
 70
     1
  9
$DIMPOST
  1
(<>)
  9
$DIMAPOST
  1

  9
$DIMALT
 70
     0
  9
$DIMALTD
 70
     2
  9
$DIMALTF
 40
0.039
  9
$DIMLFAC
 40
1.0
  9
$DIMTOFL
 70
     1
  9
$DIMTVP
 40
0.0
  9
$DIMTIX
 70
     0
  9
$DIMSOXD
 70
     0
  9
$DIMSAH
 70
     1
  9
$DIMBLK1
  1
OPEN
  9
$DIMBLK2
  1
OPEN
  9
$DIMSTYLE
  2
IGA
  9
$DIMCLRD
 70
     0
  9
$DIMCLRE
 70
     0
  9
$DIMCLRT
 70
     0
  9
$DIMTFAC
 40
10.0
  9
$DIMGAP
 40
1.0
  9
$DIMJUST
 70
     0
  9
$DIMSD1
 70
     0
  9
$DIMSD2
 70
     0
  9
$DIMTOLJ
 70
     1
  9
$DIMTZIN
 70
     8
  9
$DIMALTZ
 70
     0
  9
$DIMALTTZ
 70
     0
  9
$DIMUPT
 70
     0
  9
$DIMDEC
 70
     0
  9
$DIMTDEC
 70
     0
  9
$DIMALTU
 70
     2
  9
$DIMALTTD
 70
     2
  9
$DIMTXSTY
  7
STANDARD
  9
$DIMAUNIT
 70
     0
  9
$DIMADEC
 70
     0
  9
$DIMALTRND
 40
0.0
  9
$DIMAZIN
 70
     0
  9
$DIMDSEP
 70
    46
  9
$DIMATFIT
 70
     3
  9
$DIMFRAC
 70
     0
  9
$DIMLDRBLK
  1
OPEN
  9
$DIMLUNIT
 70
     2
  9
$DIMLWD
 70
    -2
  9
$DIMLWE
 70
    -2
  9
$DIMTMOVE
 70
     2
  9
$DIMFXL
 40
1.0
  9
$DIMFXLON
 70
     0
  9
$DIMJOGANG
 40
0.7853981633974483
  9
$DIMTFILL
 70
     0
  9
$DIMTFILLCLR
 70
     0
  9
$DIMARCSYM
 70
     0
  9
$DIMLTYPE
  6

  9
$DIMLTEX1
  6

  9
$DIMLTEX2
  6

  9
$DIMTXTDIRECTION
 70
     0
  9
$LUNITS
 70
     2
  9
$LUPREC
 70
     3
  9
$SKETCHINC
 40
0.1
  9
$FILLETRAD
 40
50.0
  9
$AUNITS
 70
     0
  9
$AUPREC
 70
     0
  9
$MENU
  1
acad
  9
$ELEVATION
 40
0.0
  9
$PELEVATION
 40
0.0
  9
$THICKNESS
 40
0.0
  9
$LIMCHECK
 70
     0
  9
$CHAMFERA
 40
0.5
  9
$CHAMFERB
 40
0.5
  9
$CHAMFERC
 40
20.0
  9
$CHAMFERD
 40
0.0
  9
$SKPOLY
 70
     0
  9
$TDCREATE
 40
2451382.658807871
  9
$TDUCREATE
 40
2451382.283816667
  9
$TDUPDATE
 40
2460241.750451389
  9
$TDUUPDATE
 40
2460241.375460660
  9
$TDINDWG
 40
0.0122304514
  9
$TDUSRTIMER
 40
0.0122304514
  9
$USRTIMER
 70
     1
  9
$ANGBASE
 50
0.0
  9
$ANGDIR
 70
     0
  9
$PDMODE
 70
     0
  9
$PDSIZE
 40
0.0
  9
$PLINEWID
 40
0.0
  9
$SPLFRAME
 70
     0
  9
$SPLINETYPE
 70
     6
  9
$SPLINESEGS
 70
     8
  9
$HANDSEED
  5
81AF
  9
$SURFTAB1
 70
     6
  9
$SURFTAB2
 70
     6
  9
$SURFTYPE
 70
     6
  9
$SURFU
 70
     6
  9
$SURFV
 70
     6
  9
$UCSBASE
  2

  9
$UCSNAME
  2

  9
$UCSORG
 10
0.0
 20
0.0
 30
0.0
  9
$UCSXDIR
 10
1.0
 20
0.0
 30
0.0
  9
$UCSYDIR
 10
0.0
 20
1.0
 30
0.0
  9
$UCSORTHOREF
  2

  9
$UCSORTHOVIEW
 70
     0
  9
$UCSORGTOP
 10
0.0
 20
0.0
 30
0.0
  9
$UCSORGBOTTOM
 10
0.0
 20
0.0
 30
0.0
  9
$UCSORGLEFT
 10
0.0
 20
0.0
 30
0.0
  9
$UCSORGRIGHT
 10
0.0
 20
0.0
 30
0.0
  9
$UCSORGFRONT
 10
0.0
 20
0.0
 30
0.0
  9
$UCSORGBACK
 10
0.0
 20
0.0
 30
0.0
  9
$PUCSBASE
  2

  9
$PUCSNAME
  2

  9
$PUCSORG
 10
0.0
 20
0.0
 30
0.0
  9
$PUCSXDIR
 10
1.0
 20
0.0
 30
0.0
  9
$PUCSYDIR
 10
0.0
 20
1.0
 30
0.0
  9
$PUCSORTHOREF
  2

  9
$PUCSORTHOVIEW
 70
     0
  9
$PUCSORGTOP
 10
0.0
 20
0.0
 30
0.0
  9
$PUCSORGBOTTOM
 10
0.0
 20
0.0
 30
0.0
  9
$PUCSORGLEFT
 10
0.0
 20
0.0
 30
0.0
  9
$PUCSORGRIGHT
 10
0.0
 20
0.0
 30
0.0
  9
$PUCSORGFRONT
 10
0.0
 20
0.0
 30
0.0
  9
$PUCSORGBACK
 10
0.0
 20
0.0
 30
0.0
  9
$USERI1
 70
     0
  9
$USERI2
 70
     0
  9
$USERI3
 70
     0
  9
$USERI4
 70
     0
  9
$USERI5
 70
     0
  9
$USERR1
 40
0.0
  9
$USERR2
 40
0.0
  9
$USERR3
 40
0.0
  9
$USERR4
 40
0.0
  9
$USERR5
 40
0.0
  9
$WORLDVIEW
 70
     1
  9
$SHADEDGE
 70
     3
  9
$SHADEDIF
 70
    70
  9
$TILEMODE
 70
     1
  9
$MAXACTVP
 70
    16
  9
$PINSBASE
 10
0.0
 20
0.0
 30
0.0
  9
$PLIMCHECK
 70
     0
  9
$PEXTMIN
 10
1.000000000000000E+20
 20
1.000000000000000E+20
 30
1.000000000000000E+20
  9
$PEXTMAX
 10
-1.000000000000000E+20
 20
-1.000000000000000E+20
 30
-1.000000000000000E+20
  9
$PLIMMIN
 10
0.0
 20
0.0
  9
$PLIMMAX
 10
12.0
 20
9.0
  9
$UNITMODE
 70
     0
  9
$VISRETAIN
 70
     0
  9
$PLINEGEN
 70
     0
  9
$PSLTSCALE
 70
     1
  9
$TREEDEPTH
 70
  3020
  9
$CMLSTYLE
  2
STANDARD
  9
$CMLJUST
 70
     0
  9
$CMLSCALE
 40
20.0
  9
$PROXYGRAPHICS
 70
     1
  9
$MEASUREMENT
 70
     1
  9
$CELWEIGHT
370
    -1
  9
$ENDCAPS
280
     0
  9
$JOINSTYLE
280
     0
  9
$LWDISPLAY
290
     0
  9
$INSUNITS
 70
     0
  9
$HYPERLINKBASE
  1

  9
$STYLESHEET
  1

  9
$XEDIT
290
     1
  9
$CEPSNTYPE
380
     0
  9
$PSTYLEMODE
290
     1
  9
$FINGERPRINTGUID
  2
{B19D21F8-DE8F-4D3B-9726-085CCE969E0C}
  9
$VERSIONGUID
  2
{AA5BE00E-0144-4B76-846C-FA55B7546E9D}
  9
$EXTNAMES
290
     1
  9
$PSVPSCALE
 40
0.0
  9
$OLESTARTUP
290
     0
  9
$SORTENTS
280
   127
  9
$INDEXCTL
280
     0
  9
$HIDETEXT
280
     0
  9
$XCLIPFRAME
280
     2
  9
$HALOGAP
280
     0
  9
$OBSCOLOR
 70
   257
  9
$OBSLTYPE
280
     0
  9
$INTERSECTIONDISPLAY
280
     0
  9
$INTERSECTIONCOLOR
 70
   257
  9
$DIMASSOC
280
     1
  9
$PROJECTNAME
  1

  9
$CAMERADISPLAY
290
     0
  9
$LENSLENGTH
 40
50.0
  9
$CAMERAHEIGHT
 40
0.0
  9
$STEPSPERSEC
 40
2.0
  9
$STEPSIZE
 40
6.0
  9
$3DDWFPREC
 40
2.0
  9
$PSOLWIDTH
 40
0.25
  9
$PSOLHEIGHT
 40
4.0
  9
$LOFTANG1
 40
1.570796326794896
  9
$LOFTANG2
 40
1.570796326794896
  9
$LOFTMAG1
 40
0.0
  9
$LOFTMAG2
 40
0.0
  9
$LOFTPARAM
 70
     7
  9
$LOFTNORMALS
280
     1
  9
$LATITUDE
 40
37.795
  9
$LONGITUDE
 40
-122.394
  9
$NORTHDIRECTION
 40
0.0
  9
$TIMEZONE
 70
 -8000
  9
$LIGHTGLYPHDISPLAY
280
     1
  9
$TILEMODELIGHTSYNCH
280
     1
  9
$CMATERIAL
347
80B4
  9
$SOLIDHIST
280
     0
  9
$SHOWHIST
280
     1
  9
$DWFFRAME
280
     2
  9
$DGNFRAME
280
     0
  9
$REALWORLDSCALE
290
     1
  9
$INTERFERECOLOR
 62
     1
  9
$INTERFEREOBJVS
345
80D6
  9
$INTERFEREVPVS
346
80D3
  9
$CSHADOW
280
     0
  9
$SHADOWPLANELOCATION
 40
0.0
  0
ENDSEC
  0
SECTION
  2
CLASSES
  0
CLASS
  1
ACDBDICTIONARYWDFLT
  2
AcDbDictionaryWithDefault
  3
ObjectDBX Classes
 90
        0
 91
        1
280
     0
281
     0
  0
CLASS
  1
DICTIONARYVAR
  2
AcDbDictionaryVar
  3
ObjectDBX Classes
 90
        0
 91
       11
280
     0
281
     0
  0
CLASS
  1
MATERIAL
  2
AcDbMaterial
  3
ObjectDBX Classes
 90
     1153
 91
        3
280
     0
281
     0
  0
CLASS
  1
VISUALSTYLE
  2
AcDbVisualStyle
  3
ObjectDBX Classes
 90
     4095
 91
       24
280
     0
281
     0
  0
CLASS
  1
TABLESTYLE
  2
AcDbTableStyle
  3
ObjectDBX Classes
 90
     4095
 91
        1
280
     0
281
     0
  0
CLASS
  1
SCALE
  2
AcDbScale
  3
ObjectDBX Classes
 90
     1153
 91
       17
280
     0
281
     0
  0
CLASS
  1
MLEADERSTYLE
  2
AcDbMLeaderStyle
  3
ACDB_MLEADERSTYLE_CLASS
 90
     4095
 91
        1
280
     0
281
     0
  0
CLASS
  1
ACDBSECTIONVIEWSTYLE
  2
AcDbSectionViewStyle
  3
ObjectDBX Classes
 90
     1025
 91
        1
280
     0
281
     0
  0
CLASS
  1
ACDBDETAILVIEWSTYLE
  2
AcDbDetailViewStyle
  3
ObjectDBX Classes
 90
     1025
 91
        1
280
     0
281
     0
  0
CLASS
  1
CELLSTYLEMAP
  2
AcDbCellStyleMap
  3
ObjectDBX Classes
 90
     1152
 91
        1
280
     0
281
     0
  0
ENDSEC
  0
SECTION
  2
TABLES
  0
TABLE
  2
VPORT
  5
8
330
0
100
AcDbSymbolTable
 70
     1
1001
ACAD
1000
DbSaveVer
1071
      278
  0
VPORT
  5
80B1
330
8
100
AcDbSymbolTableRecord
100
AcDbViewportTableRecord
  2
*Active
 70
     0
 10
0.0
 20
0.0
 11
1.0
 21
1.0
 12
6224.610977130685
 22
5162.500024039763
 13
0.0
 23
0.0
 14
10.0
 24
10.0
 15
10.0
 25
10.0
 16
0.0
 26
0.0
 36
1.0
 17
0.0
 27
0.0
 37
0.0
 40
10391.74948481712
 41
2.250314465408805
 42
50.0
 43
0.0
 44
0.0
 50
0.0
 51
0.0
 71
     0
 72
   100
 73
     1
 74
     0
 75
     0
 76
     0
 77
     0
 78
     0
281
     0
 65
     1
110
0.0
120
0.0
130
0.0
111
1.0
121
0.0
131
0.0
112
0.0
122
1.0
132
0.0
 79
     0
146
0.0
348
80D2
 60
     3
 61
     5
292
     1
282
     1
141
0.0
142
0.0
 63
   250
421
  3355443
1001
ACAD_NAV_VCDISPLAY
1070
     3
  0
ENDTAB
  0
TABLE
  2
LTYPE
  5
5
330
0
100
AcDbSymbolTable
 70
     2
  0
LTYPE
  5
13
330
5
100
AcDbSymbolTableRecord
100
AcDbLinetypeTableRecord
  2
BYBLOCK
 70
     0
  3

 72
    65
 73
     0
 40
0.0
  0
LTYPE
  5
14
330
5
100
AcDbSymbolTableRecord
100
AcDbLinetypeTableRecord
  2
BYLAYER
 70
     0
  3

 72
    65
 73
     0
 40
0.0
  0
LTYPE
  5
15
330
5
100
AcDbSymbolTableRecord
100
AcDbLinetypeTableRecord
  2
CONTINUOUS
 70
     0
  3
Solid line
 72
    65
 73
     0
 40
0.0
  0
LTYPE
  5
1F
330
5
100
AcDbSymbolTableRecord
100
AcDbLinetypeTableRecord
  2
CENTER
 70
     0
  3
____ _ ____ _ ____ _ ____ _ ____ _ ____ _ ____ 
 72
    65
 73
     4
 40
2.0
 49
1.25
 74
     0
 49
-0.25
 74
     0
 49
0.25
 74
     0
 49
-0.25
 74
     0
  0
ENDTAB
  0
TABLE
  2
LAYER
  5
2
102
{ACAD_XDICTIONARY
360
8186
102
}
330
0
100
AcDbSymbolTable
 70
     6
  0
LAYER
  5
F
102
{ACAD_XDICTIONARY
360
8179
102
}
330
2
100
AcDbSymbolTableRecord
100
AcDbLayerTableRecord
  2
0
 70
     0
 62
     7
  6
CONTINUOUS
370
    -3
390
8062
347
80C4
348
0
  0
LAYER
  5
31
102
{ACAD_XDICTIONARY
360
817B
102
}
330
2
100
AcDbSymbolTableRecord
100
AcDbLayerTableRecord
  2
3
 70
     0
 62
     2
  6
CONTINUOUS
370
    -3
390
8062
347
80C4
348
0
  0
LAYER
  5
76D0
102
{ACAD_XDICTIONARY
360
817D
102
}
330
2
100
AcDbSymbolTableRecord
100
AcDbLayerTableRecord
  2
2
 70
     0
 62
     3
  6
CENTER
370
    -3
390
8062
347
80C4
348
0
  0
LAYER
  5
76D1
102
{ACAD_XDICTIONARY
360
817F
102
}
330
2
100
AcDbSymbolTableRecord
100
AcDbLayerTableRecord
  2
1
 70
     0
 62
     4
  6
CONTINUOUS
370
    -3
390
8062
347
80C4
348
0
  0
LAYER
  5
76D2
102
{ACAD_XDICTIONARY
360
8181
102
}
330
2
100
AcDbSymbolTableRecord
100
AcDbLayerTableRecord
  2
4
 70
     0
 62
     7
  6
CONTINUOUS
370
    -3
390
8062
347
80C4
348
0
  0
LAYER
  5
7B3B
330
2
100
AcDbSymbolTableRecord
100
AcDbLayerTableRecord
  2
DEFPOINTS
 70
     0
 62
     7
  6
CONTINUOUS
290
     0
370
    -3
390
8062
347
80C4
348
0
  0
ENDTAB
  0
TABLE
  2
STYLE
  5
3
330
0
100
AcDbSymbolTable
 70
     1
  0
STYLE
  5
10
330
3
100
AcDbSymbolTableRecord
100
AcDbTextStyleTableRecord
  2
STANDARD
 70
     0
 40
0.0
 41
1.0
 50
0.0
 71
     0
 42
180.0
  3
simplex.shx
  4
extfont.shx
  0
ENDTAB
  0
TABLE
  2
VIEW
  5
6
330
0
100
AcDbSymbolTable
 70
     0
  0
ENDTAB
  0
TABLE
  2
UCS
  5
7
330
0
100
AcDbSymbolTable
 70
     0
  0
ENDTAB
  0
TABLE
  2
APPID
  5
9
330
0
100
AcDbSymbolTable
 70
     4
  0
APPID
  5
11
330
9
100
AcDbSymbolTableRecord
100
AcDbRegAppTableRecord
  2
ACAD
 70
     0
  0
APPID
  5
8103
330
9
100
AcDbSymbolTableRecord
100
AcDbRegAppTableRecord
  2
AcadAnnoMonitorAlertIconDisabled
 70
     0
  0
APPID
  5
8104
330
9
100
AcDbSymbolTableRecord
100
AcDbRegAppTableRecord
  2
ACAD_EXEMPT_FROM_CAD_STANDARDS
 70
     0
  0
APPID
  5
818C
330
9
100
AcDbSymbolTableRecord
100
AcDbRegAppTableRecord
  2
ACAD_NAV_VCDISPLAY
 70
     0
  0
ENDTAB
  0
TABLE
  2
DIMSTYLE
  5
A
330
0
100
AcDbSymbolTable
 70
     2
100
AcDbDimStyleTable
 71
     1
340
1D
  0
DIMSTYLE
105
1D
102
{ACAD_REACTORS
330
7CEE
330
8034
330
8041
102
}
330
A
100
AcDbSymbolTableRecord
100
AcDbDimStyleTableRecord
  2
IGA
 70
     0
 40
2.0
 41
2.0
 42
0.5
 43
10.0
 44
1.0
 47
1.0
 48
1.0
 73
     0
 74
     0
 77
     1
 78
     8
140
3.0
141
0.0
143
0.03937
146
10.0
147
1.0
173
     1
271
     1
272
     0
279
     2
284
     8
340
10
341
79FC
343
79FC
344
79FC
  0
DIMSTYLE
105
7B3D
102
{ACAD_REACTORS
330
7C49
330
7C4A
330
7C4B
330
7C81
330
7C87
330
7C88
330
7C8A
330
7C9E
330
7C9F
330
7CA0
330
7CAB
330
7CAC
330
7CAD
330
7CAE
330
7CAF
330
7CBA
330
7CBB
330
7CC3
330
7CE4
102
}
330
A
100
AcDbSymbolTableRecord
100
AcDbDimStyleTableRecord
  2
MATSU
 70
     0
 41
2.0
 42
1.0
 43
10.0
 44
1.0
 73
     0
 74
     0
 77
     1
 78
     8
140
3.0
141
0.0
143
0.03937
147
0.5
172
     1
173
     1
176
   256
177
   256
178
   256
284
     8
289
     0
340
10
341
79FC
343
79FC
344
79FC
  0
ENDTAB
  0
TABLE
  2
BLOCK_RECORD
  5
1
330
0
100
AcDbSymbolTable
 70
    26
  0
BLOCK_RECORD
  5
19
102
{ACAD_XDICTIONARY
360
8090
102
}
330
1
100
AcDbSymbolTableRecord
100
AcDbBlockTableRecord
  2
*MODEL_SPACE
340
8065
 70
     0
280
     1
281
     0
  0
BLOCK_RECORD
  5
16
102
{ACAD_XDICTIONARY
360
808E
102
}
330
1
100
AcDbSymbolTableRecord
100
AcDbBlockTableRecord
  2
*PAPER_SPACE
340
8066
 70
     0
280
     1
281
     0
  0
BLOCK_RECORD
  5
79FC
330
1
100
AcDbSymbolTableRecord
100
AcDbBlockTableRecord
  2
_OPEN
340
0
102
{BLKREFS
331
7EC0
331
7EC1
331
7EEC
331
7EED
331
7EF7
331
7EF8
331
7E1B
331
7E1C
331
7E26
331
7E27
331
7E3C
331
7E3D
331
7E47
331
7E48
331
7E52
331
7E53
331
7E89
331
7E8A
331
7E94
331
7E95
331
7E9F
331
7EA0
331
7EAA
331
7EAB
331
7EB5
331
7EB6
331
8151
331
8152
331
815A
331
815B
331
8166
331
8173
331
8174
331
812D
331
812E
331
8136
331
8137
331
813F
331
8140
331
8148
331
8149
102
}
 70
     0
280
     1
281
     0
  0
BLOCK_RECORD
  5
7A0A
330
1
100
AcDbSymbolTableRecord
100
AcDbBlockTableRecord
  2
YA_N
340
0
102
{BLKREFS
331
7C47
331
7C7E
331
7C1B
331
7C3D
102
}
 70
     0
280
     1
281
     0
  0
BLOCK_RECORD
  5
7CF4
330
1
100
AcDbSymbolTableRecord
100
AcDbBlockTableRecord
  2
*D2
340
0
 70
     0
280
     1
281
     0
  0
BLOCK_RECORD
  5
7D00
330
1
100
AcDbSymbolTableRecord
100
AcDbBlockTableRecord
  2
*D3
340
0
 70
     0
280
     1
281
     0
  0
BLOCK_RECORD
  5
7D0C
330
1
100
AcDbSymbolTableRecord
100
AcDbBlockTableRecord
  2
*D4
340
0
 70
     0
280
     1
281
     0
  0
BLOCK_RECORD
  5
7D18
330
1
100
AcDbSymbolTableRecord
100
AcDbBlockTableRecord
  2
*D5
340
0
 70
     0
280
     1
281
     0
  0
BLOCK_RECORD
  5
7D24
330
1
100
AcDbSymbolTableRecord
100
AcDbBlockTableRecord
  2
*D6
340
0
 70
     0
280
     1
281
     0
  0
BLOCK_RECORD
  5
7D30
330
1
100
AcDbSymbolTableRecord
100
AcDbBlockTableRecord
  2
*D7
340
0
 70
     0
280
     1
281
     0
  0
BLOCK_RECORD
  5
7D3C
330
1
100
AcDbSymbolTableRecord
100
AcDbBlockTableRecord
  2
*D8
340
0
 70
     0
280
     1
281
     0
  0
BLOCK_RECORD
  5
7D54
330
1
100
AcDbSymbolTableRecord
100
AcDbBlockTableRecord
  2
*D9
340
0
 70
     0
280
     1
281
     0
  0
BLOCK_RECORD
  5
7D60
330
1
100
AcDbSymbolTableRecord
100
AcDbBlockTableRecord
  2
*D10
340
0
 70
     0
280
     1
281
     0
  0
BLOCK_RECORD
  5
7D6C
330
1
100
AcDbSymbolTableRecord
100
AcDbBlockTableRecord
  2
*D11
340
0
 70
     0
280
     1
281
     0
  0
BLOCK_RECORD
  5
7D78
330
1
100
AcDbSymbolTableRecord
100
AcDbBlockTableRecord
  2
*D12
340
0
 70
     0
280
     1
281
     0
  0
BLOCK_RECORD
  5
7D84
330
1
100
AcDbSymbolTableRecord
100
AcDbBlockTableRecord
  2
*D13
340
0
 70
     0
280
     1
281
     0
  0
BLOCK_RECORD
  5
7D90
330
1
100
AcDbSymbolTableRecord
100
AcDbBlockTableRecord
  2
*D14
340
0
 70
     0
280
     1
281
     0
  0
BLOCK_RECORD
  5
7D9C
330
1
100
AcDbSymbolTableRecord
100
AcDbBlockTableRecord
  2
*D15
340
0
 70
     0
280
     1
281
     0
  0
BLOCK_RECORD
  5
7DA8
330
1
100
AcDbSymbolTableRecord
100
AcDbBlockTableRecord
  2
*D16
340
0
 70
     0
280
     1
281
     0
  0
BLOCK_RECORD
  5
7DB4
330
1
100
AcDbSymbolTableRecord
100
AcDbBlockTableRecord
  2
*D17
340
0
 70
     0
280
     1
281
     0
  0
BLOCK_RECORD
  5
7DC0
330
1
100
AcDbSymbolTableRecord
100
AcDbBlockTableRecord
  2
*D18
340
0
 70
     0
280
     1
281
     0
  0
BLOCK_RECORD
  5
7DD8
330
1
100
AcDbSymbolTableRecord
100
AcDbBlockTableRecord
  2
*D19
340
0
 70
     0
280
     1
281
     0
  0
BLOCK_RECORD
  5
7DE4
330
1
100
AcDbSymbolTableRecord
100
AcDbBlockTableRecord
  2
*D20
340
0
 70
     0
280
     1
281
     0
  0
BLOCK_RECORD
  5
7E09
330
1
100
AcDbSymbolTableRecord
100
AcDbBlockTableRecord
  2
*D21
340
0
 70
     0
280
     1
281
     0
  0
BLOCK_RECORD
  5
7FAE
330
1
100
AcDbSymbolTableRecord
100
AcDbBlockTableRecord
  2
_DOT
340
0
102
{BLKREFS
331
8165
102
}
 70
     0
280
     1
281
     0
  0
BLOCK_RECORD
  5
8028
330
1
100
AcDbSymbolTableRecord
100
AcDbBlockTableRecord
  2
_NONE
340
0
 70
     0
280
     1
281
     0
  0
BLOCK_RECORD
  5
802C
330
1
100
AcDbSymbolTableRecord
100
AcDbBlockTableRecord
  2
*D24
340
0
 70
     0
280
     1
281
     0
  0
BLOCK_RECORD
  5
8035
330
1
100
AcDbSymbolTableRecord
100
AcDbBlockTableRecord
  2
*D25
340
0
 70
     0
280
     1
281
     0
  0
ENDTAB
  0
ENDSEC
  0
SECTION
  2
BLOCKS
  0
BLOCK
  5
1A
330
19
100
AcDbEntity
  8
0
100
AcDbBlockBegin
  2
*MODEL_SPACE
 70
     0
 10
0.0
 20
0.0
 30
0.0
  3
*MODEL_SPACE
  1

  0
ENDBLK
  5
1B
330
19
100
AcDbEntity
  8
0
100
AcDbBlockEnd
  0
BLOCK
  5
17
330
16
100
AcDbEntity
 67
     1
  8
0
100
AcDbBlockBegin
  2
*PAPER_SPACE
 70
     0
 10
0.0
 20
0.0
 30
0.0
  3
*PAPER_SPACE
  1

  0
ENDBLK
  5
18
330
16
100
AcDbEntity
 67
     1
  8
0
100
AcDbBlockEnd
  0
BLOCK
  5
7A00
330
79FC
100
AcDbEntity
  8
0
100
AcDbBlockBegin
  2
_OPEN
 70
     0
 10
0.0
 20
0.0
 30
0.0
  3
_OPEN
  1

  0
LINE
  5
79FD
330
79FC
100
AcDbEntity
  8
0
  6
ByBlock
 62
     0
100
AcDbLine
 10
-1.0
 20
0.1666666666666666
 30
0.0
 11
0.0
 21
0.0
 31
0.0
  0
LINE
  5
79FE
330
79FC
100
AcDbEntity
  8
0
  6
ByBlock
 62
     0
100
AcDbLine
 10
0.0
 20
0.0
 30
0.0
 11
-1.0
 21
-0.1666666666666666
 31
0.0
  0
LINE
  5
79FF
330
79FC
100
AcDbEntity
  8
0
  6
ByBlock
 62
     0
100
AcDbLine
 10
0.0
 20
0.0
 30
0.0
 11
-1.0
 21
0.0
 31
0.0
  0
ENDBLK
  5
7A01
330
79FC
100
AcDbEntity
  8
0
100
AcDbBlockEnd
  0
BLOCK
  5
7A0B
330
7A0A
100
AcDbEntity
  8
0
100
AcDbBlockBegin
  2
YA_N
 70
     0
 10
0.0
 20
0.0
 30
0.0
  3
YA_N
  1

  0
ENDBLK
  5
7A0C
330
7A0A
100
AcDbEntity
  8
0
100
AcDbBlockEnd
  0
BLOCK
  5
7E17
330
7CF4
100
AcDbEntity
  8
0
100
AcDbBlockBegin
  2
*D2
 70
     1
 10
0.0
 20
0.0
 30
0.0
  3
*D2
  1

  0
LINE
  5
7E18
330
7CF4
100
AcDbEntity
  8
0
  6
ByBlock
440
 16777216
100
AcDbLine
 10
618.4640103621859
 20
2419.448383303883
 30
0.0
 11
418.3556940779198
 21
2419.448383303883
 31
0.0
  0
LINE
  5
7E19
330
7CF4
100
AcDbEntity
  8
0
  6
ByBlock
440
 16777216
100
AcDbLine
 10
618.4640103621859
 20
1269.448383303883
 30
0.0
 11
418.3556940779198
 21
1269.448383303883
 31
0.0
  0
LINE
  5
7E1A
330
7CF4
100
AcDbEntity
  8
0
  6
ByBlock
440
 16777216
100
AcDbLine
 10
453.3556940779199
 20
2349.448383303883
 30
0.0
 11
453.3556940779199
 21
1339.448383303883
 31
0.0
  0
INSERT
  5
7E1B
330
7CF4
100
AcDbEntity
  8
0
  6
ByBlock
440
 16777216
100
AcDbBlockReference
  2
_OPEN
 10
453.3556940779199
 20
2419.448383303883
 30
0.0
 41
70.0
 42
70.0
 43
70.0
 50
90.0
  0
INSERT
  5
7E1C
330
7CF4
100
AcDbEntity
  8
0
  6
ByBlock
440
 16777216
100
AcDbBlockReference
  2
_OPEN
 10
453.3556940779199
 20
1269.448383303883
 30
0.0
 41
70.0
 42
70.0
 43
70.0
 50
270.0
  0
MTEXT
  5
7E1D
330
7CF4
100
AcDbEntity
  8
0
  6
ByBlock
440
 16777216
100
AcDbMText
 10
383.3556940779199
 20
1844.448383303883
 30
0.0
 40
105.0
 41
0.0
 46
0.0
 71
     5
 72
     5
  1
\A1;1150
 11
0.0
 21
1.0
 31
0.0
 73
     1
 44
1.0
  0
POINT
  5
7E1E
330
7CF4
100
AcDbEntity
  8
DEFPOINTS
  6
ByBlock
 62
     0
440
 16777216
100
AcDbPoint
 10
653.4640103621859
 20
2419.448383303883
 30
0.0
  0
POINT
  5
7E1F
330
7CF4
100
AcDbEntity
  8
DEFPOINTS
  6
ByBlock
 62
     0
440
 16777216
100
AcDbPoint
 10
653.4640103621859
 20
1269.448383303883
 30
0.0
  0
POINT
  5
7E20
330
7CF4
100
AcDbEntity
  8
DEFPOINTS
  6
ByBlock
 62
     0
440
 16777216
100
AcDbPoint
 10
453.3556940779199
 20
1269.448383303883
 30
0.0
  0
ENDBLK
  5
7E21
330
7CF4
100
AcDbEntity
  8
0
100
AcDbBlockEnd
  0
BLOCK
  5
7E22
330
7D00
100
AcDbEntity
  8
0
100
AcDbBlockBegin
  2
*D3
 70
     1
 10
0.0
 20
0.0
 30
0.0
  3
*D3
  1

  0
LINE
  5
7E23
330
7D00
100
AcDbEntity
  8
0
  6
ByBlock
440
 16777216
100
AcDbLine
 10
618.4640103621859
 20
2419.448383303883
 30
0.0
 11
112.5183423475864
 21
2419.448383303883
 31
0.0
  0
LINE
  5
7E24
330
7D00
100
AcDbEntity
  8
0
  6
ByBlock
440
 16777216
100
AcDbLine
 10
532.6250094634524
 20
1221.448383303883
 30
0.0
 11
112.5183423475864
 21
1221.448383303883
 31
0.0
  0
LINE
  5
7E25
330
7D00
100
AcDbEntity
  8
0
  6
ByBlock
440
 16777216
100
AcDbLine
 10
147.5183423475864
 20
2349.448383303883
 30
0.0
 11
147.5183423475864
 21
1291.448383303883
 31
0.0
  0
INSERT
  5
7E26
330
7D00
100
AcDbEntity
  8
0
  6
ByBlock
440
 16777216
100
AcDbBlockReference
  2
_OPEN
 10
147.5183423475864
 20
2419.448383303883
 30
0.0
 41
70.0
 42
70.0
 43
70.0
 50
90.0
  0
INSERT
  5
7E27
330
7D00
100
AcDbEntity
  8
0
  6
ByBlock
440
 16777216
100
AcDbBlockReference
  2
_OPEN
 10
147.5183423475864
 20
1221.448383303883
 30
0.0
 41
70.0
 42
70.0
 43
70.0
 50
270.0
  0
MTEXT
  5
7E28
330
7D00
100
AcDbEntity
  8
0
  6
ByBlock
440
 16777216
100
AcDbMText
 10
77.51834234758644
 20
1820.448383303883
 30
0.0
 40
105.0
 41
0.0
 46
0.0
 71
     5
 72
     5
  1
\A1;1198
 11
0.0
 21
1.0
 31
0.0
 73
     1
 44
1.0
  0
POINT
  5
7E29
330
7D00
100
AcDbEntity
  8
DEFPOINTS
  6
ByBlock
 62
     0
440
 16777216
100
AcDbPoint
 10
653.4640103621859
 20
2419.448383303883
 30
0.0
  0
POINT
  5
7E2A
330
7D00
100
AcDbEntity
  8
DEFPOINTS
  6
ByBlock
 62
     0
440
 16777216
100
AcDbPoint
 10
567.6250094634524
 20
1221.448383303883
 30
0.0
  0
POINT
  5
7E2B
330
7D00
100
AcDbEntity
  8
DEFPOINTS
  6
ByBlock
 62
     0
440
 16777216
100
AcDbPoint
 10
147.5183423475864
 20
1221.448383303883
 30
0.0
  0
ENDBLK
  5
7E2C
330
7D00
100
AcDbEntity
  8
0
100
AcDbBlockEnd
  0
BLOCK
  5
7E2D
330
7D0C
100
AcDbEntity
  8
0
100
AcDbBlockBegin
  2
*D4
 70
     1
 10
0.0
 20
0.0
 30
0.0
  3
*D4
  1

  0
LINE
  5
813C
330
7D0C
100
AcDbEntity
  8
3
440
 16777216
370
    -2
100
AcDbLine
 10
1794.075279309898
 20
2232.681612038577
 30
0.0
 11
1794.075279309898
 21
2033.901804481148
 31
0.0
  0
LINE
  5
813D
330
7D0C
100
AcDbEntity
  8
3
440
 16777216
370
    -2
100
AcDbLine
 10
2454.075279309898
 20
2232.681612038577
 30
0.0
 11
2454.075279309898
 21
2033.901804481148
 31
0.0
  0
LINE
  5
813E
330
7D0C
100
AcDbEntity
  8
3
440
 16777216
370
    -2
100
AcDbLine
 10
1864.075279309898
 20
2068.901804481147
 30
0.0
 11
2384.075279309898
 21
2068.901804481147
 31
0.0
  0
INSERT
  5
813F
330
7D0C
100
AcDbEntity
  8
3
440
 16777216
370
    -2
100
AcDbBlockReference
  2
_OPEN
 10
1794.075279309898
 20
2068.901804481147
 30
0.0
 41
70.0
 42
70.0
 43
70.0
 50
180.0
  0
INSERT
  5
8140
330
7D0C
100
AcDbEntity
  8
3
440
 16777216
370
    -2
100
AcDbBlockReference
  2
_OPEN
 10
2454.075279309898
 20
2068.901804481147
 30
0.0
 41
70.0
 42
70.0
 43
70.0
  0
MTEXT
  5
8141
330
7D0C
100
AcDbEntity
  8
3
440
 16777216
100
AcDbMText
 10
2124.075279309898
 20
2138.901804481148
 30
0.0
 40
105.0
 41
0.0
 46
0.0
 71
     5
 72
     1
  1
\A1;660
 73
     1
 44
1.0
  0
POINT
  5
8142
330
7D0C
100
AcDbEntity
  8
DEFPOINTS
 62
     0
440
 16777216
100
AcDbPoint
 10
1794.075279309898
 20
2267.681612038578
 30
0.0
  0
POINT
  5
8143
330
7D0C
100
AcDbEntity
  8
DEFPOINTS
 62
     0
440
 16777216
100
AcDbPoint
 10
2454.075279309898
 20
2267.681612038578
 30
0.0
  0
POINT
  5
8144
330
7D0C
100
AcDbEntity
  8
DEFPOINTS
 62
     0
440
 16777216
100
AcDbPoint
 10
2454.075279309898
 20
2068.901804481147
 30
0.0
  0
ENDBLK
  5
7E37
330
7D0C
100
AcDbEntity
  8
0
100
AcDbBlockEnd
  0
BLOCK
  5
7E38
330
7D18
100
AcDbEntity
  8
0
100
AcDbBlockBegin
  2
*D5
 70
     1
 10
0.0
 20
0.0
 30
0.0
  3
*D5
  1

  0
LINE
  5
7E39
330
7D18
100
AcDbEntity
  8
0
  6
ByBlock
440
 16777216
100
AcDbLine
 10
532.6250094634524
 20
1221.448383303883
 30
0.0
 11
110.7912328580532
 21
1221.448383303883
 31
0.0
  0
LINE
  5
7E3A
330
7D18
100
AcDbEntity
  8
0
  6
ByBlock
440
 16777216
100
AcDbLine
 10
718.4640103621859
 20
381.448383303883
 30
0.0
 11
110.7912328580532
 21
381.448383303883
 31
0.0
  0
LINE
  5
7E3B
330
7D18
100
AcDbEntity
  8
0
  6
ByBlock
440
 16777216
100
AcDbLine
 10
145.7912328580532
 20
1151.448383303883
 30
0.0
 11
145.7912328580532
 21
451.448383303883
 31
0.0
  0
INSERT
  5
7E3C
330
7D18
100
AcDbEntity
  8
0
  6
ByBlock
440
 16777216
100
AcDbBlockReference
  2
_OPEN
 10
145.7912328580532
 20
1221.448383303883
 30
0.0
 41
70.0
 42
70.0
 43
70.0
 50
90.0
  0
INSERT
  5
7E3D
330
7D18
100
AcDbEntity
  8
0
  6
ByBlock
440
 16777216
100
AcDbBlockReference
  2
_OPEN
 10
145.7912328580532
 20
381.448383303883
 30
0.0
 41
70.0
 42
70.0
 43
70.0
 50
270.0
  0
MTEXT
  5
7E3E
330
7D18
100
AcDbEntity
  8
0
  6
ByBlock
440
 16777216
100
AcDbMText
 10
75.79123285805327
 20
801.4483833038831
 30
0.0
 40
105.0
 41
0.0
 46
0.0
 71
     5
 72
     5
  1
\A1;840
 11
0.0
 21
1.0
 31
0.0
 73
     1
 44
1.0
  0
POINT
  5
7E3F
330
7D18
100
AcDbEntity
  8
DEFPOINTS
  6
ByBlock
 62
     0
440
 16777216
100
AcDbPoint
 10
567.6250094634524
 20
1221.448383303883
 30
0.0
  0
POINT
  5
7E40
330
7D18
100
AcDbEntity
  8
DEFPOINTS
  6
ByBlock
 62
     0
440
 16777216
100
AcDbPoint
 10
753.4640103621859
 20
381.448383303883
 30
0.0
  0
POINT
  5
7E41
330
7D18
100
AcDbEntity
  8
DEFPOINTS
  6
ByBlock
 62
     0
440
 16777216
100
AcDbPoint
 10
145.7912328580532
 20
381.448383303883
 30
0.0
  0
ENDBLK
  5
7E42
330
7D18
100
AcDbEntity
  8
0
100
AcDbBlockEnd
  0
BLOCK
  5
7E43
330
7D24
100
AcDbEntity
  8
0
100
AcDbBlockBegin
  2
*D6
 70
     1
 10
0.0
 20
0.0
 30
0.0
  3
*D6
  1

  0
LINE
  5
7E44
330
7D24
100
AcDbEntity
  8
0
  6
ByBlock
440
 16777216
100
AcDbLine
 10
653.4640103621859
 20
2507.448383303883
 30
0.0
 11
653.4640103621859
 21
2710.78177023034
 31
0.0
  0
LINE
  5
7E45
330
7D24
100
AcDbEntity
  8
0
  6
ByBlock
440
 16777216
100
AcDbLine
 10
1413.464010362186
 20
2663.630709469712
 30
0.0
 11
1413.464010362186
 21
2710.78177023034
 31
0.0
  0
LINE
  5
7E46
330
7D24
100
AcDbEntity
  8
0
  6
ByBlock
440
 16777216
100
AcDbLine
 10
723.4640103621859
 20
2675.781770230341
 30
0.0
 11
1343.464010362186
 21
2675.781770230341
 31
0.0
  0
INSERT
  5
7E47
330
7D24
100
AcDbEntity
  8
0
  6
ByBlock
440
 16777216
100
AcDbBlockReference
  2
_OPEN
 10
653.4640103621859
 20
2675.781770230341
 30
0.0
 41
70.0
 42
70.0
 43
70.0
 50
180.0
  0
INSERT
  5
7E48
330
7D24
100
AcDbEntity
  8
0
  6
ByBlock
440
 16777216
100
AcDbBlockReference
  2
_OPEN
 10
1413.464010362186
 20
2675.781770230341
 30
0.0
 41
70.0
 42
70.0
 43
70.0
  0
MTEXT
  5
7E49
330
7D24
100
AcDbEntity
  8
0
  6
ByBlock
440
 16777216
100
AcDbMText
 10
1033.464010362186
 20
2745.78177023034
 30
0.0
 40
105.0
 41
0.0
 46
0.0
 71
     5
 72
     5
  1
\A1;760
 73
     1
 44
1.0
  0
POINT
  5
7E4A
330
7D24
100
AcDbEntity
  8
DEFPOINTS
  6
ByBlock
 62
     0
440
 16777216
100
AcDbPoint
 10
653.4640103621859
 20
2472.448383303883
 30
0.0
  0
POINT
  5
7E4B
330
7D24
100
AcDbEntity
  8
DEFPOINTS
  6
ByBlock
 62
     0
440
 16777216
100
AcDbPoint
 10
1413.464010362186
 20
2628.630709469712
 30
0.0
  0
POINT
  5
7E4C
330
7D24
100
AcDbEntity
  8
DEFPOINTS
  6
ByBlock
 62
     0
440
 16777216
100
AcDbPoint
 10
1413.464010362186
 20
2675.781770230341
 30
0.0
  0
ENDBLK
  5
7E4D
330
7D24
100
AcDbEntity
  8
0
100
AcDbBlockEnd
  0
BLOCK
  5
7E4E
330
7D30
100
AcDbEntity
  8
0
100
AcDbBlockBegin
  2
*D7
 70
     1
 10
0.0
 20
0.0
 30
0.0
  3
*D7
  1

  0
LINE
  5
7E4F
330
7D30
100
AcDbEntity
  8
0
  6
ByBlock
440
 16777216
100
AcDbLine
 10
1413.464010362186
 20
2663.630709469712
 30
0.0
 11
1413.464010362186
 21
2710.78177023034
 31
0.0
  0
LINE
  5
7E50
330
7D30
100
AcDbEntity
  8
0
  6
ByBlock
440
 16777216
100
AcDbLine
 10
2378.665572860805
 20
1256.448383303884
 30
0.0
 11
2378.665572860805
 21
2710.78177023034
 31
0.0
  0
LINE
  5
7E51
330
7D30
100
AcDbEntity
  8
0
  6
ByBlock
440
 16777216
100
AcDbLine
 10
1483.464010362186
 20
2675.781770230341
 30
0.0
 11
2308.665572860805
 21
2675.781770230341
 31
0.0
  0
INSERT
  5
7E52
330
7D30
100
AcDbEntity
  8
0
  6
ByBlock
440
 16777216
100
AcDbBlockReference
  2
_OPEN
 10
1413.464010362186
 20
2675.781770230341
 30
0.0
 41
70.0
 42
70.0
 43
70.0
 50
180.0
  0
INSERT
  5
7E53
330
7D30
100
AcDbEntity
  8
0
  6
ByBlock
440
 16777216
100
AcDbBlockReference
  2
_OPEN
 10
2378.665572860805
 20
2675.781770230341
 30
0.0
 41
70.0
 42
70.0
 43
70.0
  0
MTEXT
  5
7E54
330
7D30
100
AcDbEntity
  8
0
  6
ByBlock
440
 16777216
100
AcDbMText
 10
1896.064791611495
 20
2745.78177023034
 30
0.0
 40
105.0
 41
0.0
 46
0.0
 71
     5
 72
     5
  1
\A1;969
 73
     1
 44
1.0
  0
POINT
  5
7E55
330
7D30
100
AcDbEntity
  8
DEFPOINTS
  6
ByBlock
 62
     0
440
 16777216
100
AcDbPoint
 10
1413.464010362186
 20
2628.630709469712
 30
0.0
  0
POINT
  5
7E56
330
7D30
100
AcDbEntity
  8
DEFPOINTS
  6
ByBlock
 62
     0
440
 16777216
100
AcDbPoint
 10
2378.665572860805
 20
1221.448383303884
 30
0.0
  0
POINT
  5
7E57
330
7D30
100
AcDbEntity
  8
DEFPOINTS
  6
ByBlock
 62
     0
440
 16777216
100
AcDbPoint
 10
2378.665572860805
 20
2675.781770230341
 30
0.0
  0
ENDBLK
  5
7E58
330
7D30
100
AcDbEntity
  8
0
100
AcDbBlockEnd
  0
BLOCK
  5
7E59
330
7D3C
100
AcDbEntity
  8
0
100
AcDbBlockBegin
  2
*D8
 70
     1
 10
0.0
 20
0.0
 30
0.0
  3
*D8
  1

  0
LINE
  5
8145
330
7D3C
100
AcDbEntity
  8
3
440
 16777216
370
    -2
100
AcDbLine
 10
4244.075279309898
 20
2232.681612038577
 30
0.0
 11
4244.075279309898
 21
2033.108012130593
 31
0.0
  0
LINE
  5
8146
330
7D3C
100
AcDbEntity
  8
3
440
 16777216
370
    -2
100
AcDbLine
 10
2454.075279309898
 20
2232.681612038577
 30
0.0
 11
2454.075279309898
 21
2033.108012130593
 31
0.0
  0
LINE
  5
8147
330
7D3C
100
AcDbEntity
  8
3
440
 16777216
370
    -2
100
AcDbLine
 10
4174.075279309898
 20
2068.108012130593
 30
0.0
 11
2524.075279309898
 21
2068.108012130593
 31
0.0
  0
INSERT
  5
8148
330
7D3C
100
AcDbEntity
  8
3
440
 16777216
370
    -2
100
AcDbBlockReference
  2
_OPEN
 10
4244.075279309898
 20
2068.108012130593
 30
0.0
 41
70.0
 42
70.0
 43
70.0
  0
INSERT
  5
8149
330
7D3C
100
AcDbEntity
  8
3
440
 16777216
370
    -2
100
AcDbBlockReference
  2
_OPEN
 10
2454.075279309898
 20
2068.108012130593
 30
0.0
 41
70.0
 42
70.0
 43
70.0
 50
180.0
  0
MTEXT
  5
814A
330
7D3C
100
AcDbEntity
  8
3
440
 16777216
100
AcDbMText
 10
3349.075279309899
 20
2138.108012130593
 30
0.0
 40
105.0
 41
0.0
 46
0.0
 71
     5
 72
     1
  1
\A1;1790
 73
     1
 44
1.0
  0
POINT
  5
814B
330
7D3C
100
AcDbEntity
  8
DEFPOINTS
 62
     0
440
 16777216
100
AcDbPoint
 10
4244.075279309898
 20
2267.681612038578
 30
0.0
  0
POINT
  5
814C
330
7D3C
100
AcDbEntity
  8
DEFPOINTS
 62
     0
440
 16777216
100
AcDbPoint
 10
2454.075279309898
 20
2267.681612038578
 30
0.0
  0
POINT
  5
814D
330
7D3C
100
AcDbEntity
  8
DEFPOINTS
 62
     0
440
 16777216
100
AcDbPoint
 10
2454.075279309898
 20
2068.108012130593
 30
0.0
  0
ENDBLK
  5
7E63
330
7D3C
100
AcDbEntity
  8
0
100
AcDbBlockEnd
  0
BLOCK
  5
7FEB
330
7D54
100
AcDbEntity
  8
0
100
AcDbBlockBegin
  2
*D9
 70
     1
 10
0.0
 20
0.0
 30
0.0
  3
*D9
  1

  0
LINE
  5
812A
330
7D54
100
AcDbEntity
  8
3
440
 16777216
370
    -2
100
AcDbLine
 10
4634.213718127462
 20
3542.681612038578
 30
0.0
 11
4634.213718127462
 21
4972.477742774925
 31
0.0
  0
LINE
  5
812B
330
7D54
100
AcDbEntity
  8
3
440
 16777216
370
    -2
100
AcDbLine
 10
5834.213718127462
 20
4940.599016911754
 30
0.0
 11
5834.213718127462
 21
4972.477742774925
 31
0.0
  0
LINE
  5
812C
330
7D54
100
AcDbEntity
  8
3
440
 16777216
370
    -2
100
AcDbLine
 10
4704.213718127461
 20
4937.477742774925
 30
0.0
 11
5764.213718127462
 21
4937.477742774925
 31
0.0
  0
INSERT
  5
812D
330
7D54
100
AcDbEntity
  8
3
440
 16777216
370
    -2
100
AcDbBlockReference
  2
_OPEN
 10
4634.213718127462
 20
4937.477742774925
 30
0.0
 41
70.0
 42
70.0
 43
70.0
 50
180.0
  0
INSERT
  5
812E
330
7D54
100
AcDbEntity
  8
3
440
 16777216
370
    -2
100
AcDbBlockReference
  2
_OPEN
 10
5834.213718127462
 20
4937.477742774925
 30
0.0
 41
70.0
 42
70.0
 43
70.0
  0
MTEXT
  5
812F
330
7D54
100
AcDbEntity
  8
3
440
 16777216
100
AcDbMText
 10
5234.213718127462
 20
5034.977742774925
 30
0.0
 40
105.0
 41
0.0
 46
0.0
 71
     5
 72
     1
  1
\A1;(1200)
 73
     1
 44
1.0
  0
POINT
  5
8130
330
7D54
100
AcDbEntity
  8
DEFPOINTS
 62
     0
440
 16777216
100
AcDbPoint
 10
4634.213718127462
 20
3507.681612038578
 30
0.0
  0
POINT
  5
8131
330
7D54
100
AcDbEntity
  8
DEFPOINTS
 62
     0
440
 16777216
100
AcDbPoint
 10
5834.213718127462
 20
4905.599016911754
 30
0.0
  0
POINT
  5
8132
330
7D54
100
AcDbEntity
  8
DEFPOINTS
 62
     0
440
 16777216
100
AcDbPoint
 10
5834.213718127462
 20
4937.477742774925
 30
0.0
  0
ENDBLK
  5
7FF5
330
7D54
100
AcDbEntity
  8
0
100
AcDbBlockEnd
  0
BLOCK
  5
7FFA
330
7D60
100
AcDbEntity
  8
0
100
AcDbBlockBegin
  2
*D10
 70
     1
 10
0.0
 20
0.0
 30
0.0
  3
*D10
  1

  0
LINE
  5
8133
330
7D60
100
AcDbEntity
  8
3
440
 16777216
370
    -2
100
AcDbLine
 10
5834.213718127462
 20
4940.599016911754
 30
0.0
 11
5834.213718127462
 21
4972.128611483949
 31
0.0
  0
LINE
  5
8134
330
7D60
100
AcDbEntity
  8
3
440
 16777216
370
    -2
100
AcDbLine
 10
6764.213718127459
 20
3233.171123377281
 30
0.0
 11
6764.213718127459
 21
4972.128611483949
 31
0.0
  0
LINE
  5
8135
330
7D60
100
AcDbEntity
  8
3
440
 16777216
370
    -2
100
AcDbLine
 10
5904.213718127461
 20
4937.12861148395
 30
0.0
 11
6694.213718127459
 21
4937.12861148395
 31
0.0
  0
INSERT
  5
8136
330
7D60
100
AcDbEntity
  8
3
440
 16777216
370
    -2
100
AcDbBlockReference
  2
_OPEN
 10
5834.213718127462
 20
4937.12861148395
 30
0.0
 41
70.0
 42
70.0
 43
70.0
 50
180.0
  0
INSERT
  5
8137
330
7D60
100
AcDbEntity
  8
3
440
 16777216
370
    -2
100
AcDbBlockReference
  2
_OPEN
 10
6764.213718127459
 20
4937.12861148395
 30
0.0
 41
70.0
 42
70.0
 43
70.0
  0
MTEXT
  5
8138
330
7D60
100
AcDbEntity
  8
3
440
 16777216
100
AcDbMText
 10
6299.213718127461
 20
5034.628611483949
 30
0.0
 40
105.0
 41
0.0
 46
0.0
 71
     5
 72
     1
  1
\A1;(930)
 73
     1
 44
1.0
  0
POINT
  5
8139
330
7D60
100
AcDbEntity
  8
DEFPOINTS
 62
     0
440
 16777216
100
AcDbPoint
 10
5834.213718127462
 20
4905.599016911754
 30
0.0
  0
POINT
  5
813A
330
7D60
100
AcDbEntity
  8
DEFPOINTS
 62
     0
440
 16777216
100
AcDbPoint
 10
6764.213718127459
 20
3198.171123377281
 30
0.0
  0
POINT
  5
813B
330
7D60
100
AcDbEntity
  8
DEFPOINTS
 62
     0
440
 16777216
100
AcDbPoint
 10
6764.213718127459
 20
4937.12861148395
 30
0.0
  0
ENDBLK
  5
8004
330
7D60
100
AcDbEntity
  8
0
100
AcDbBlockEnd
  0
BLOCK
  5
7E85
330
7D6C
100
AcDbEntity
  8
0
100
AcDbBlockBegin
  2
*D11
 70
     1
 10
0.0
 20
0.0
 30
0.0
  3
*D11
  1

  0
LINE
  5
7E86
330
7D6C
100
AcDbEntity
  8
0
  6
ByBlock
440
 16777216
100
AcDbLine
 10
6434.252841307508
 20
661.448383303883
 30
0.0
 11
6796.53560766302
 21
661.448383303883
 31
0.0
  0
LINE
  5
7E87
330
7D6C
100
AcDbEntity
  8
0
  6
ByBlock
440
 16777216
100
AcDbLine
 10
6434.252841307508
 20
1781.448383303883
 30
0.0
 11
6796.53560766302
 21
1781.448383303883
 31
0.0
  0
LINE
  5
7E88
330
7D6C
100
AcDbEntity
  8
0
  6
ByBlock
440
 16777216
100
AcDbLine
 10
6761.535607663019
 20
731.4483833038829
 30
0.0
 11
6761.535607663019
 21
1711.448383303883
 31
0.0
  0
INSERT
  5
7E89
330
7D6C
100
AcDbEntity
  8
0
  6
ByBlock
440
 16777216
100
AcDbBlockReference
  2
_OPEN
 10
6761.535607663019
 20
661.448383303883
 30
0.0
 41
70.0
 42
70.0
 43
70.0
 50
270.0
  0
INSERT
  5
7E8A
330
7D6C
100
AcDbEntity
  8
0
  6
ByBlock
440
 16777216
100
AcDbBlockReference
  2
_OPEN
 10
6761.535607663019
 20
1781.448383303883
 30
0.0
 41
70.0
 42
70.0
 43
70.0
 50
90.0
  0
MTEXT
  5
7E8B
330
7D6C
100
AcDbEntity
  8
0
  6
ByBlock
440
 16777216
100
AcDbMText
 10
6691.53560766302
 20
1221.448383303883
 30
0.0
 40
105.0
 41
0.0
 46
0.0
 71
     5
 72
     5
  1
\A1;φ1120
 11
0.0
 21
1.0
 31
0.0
 73
     1
 44
1.0
  0
POINT
  5
7E8C
330
7D6C
100
AcDbEntity
  8
DEFPOINTS
  6
ByBlock
 62
     0
440
 16777216
100
AcDbPoint
 10
6399.252841307507
 20
661.448383303883
 30
0.0
  0
POINT
  5
7E8D
330
7D6C
100
AcDbEntity
  8
DEFPOINTS
  6
ByBlock
 62
     0
440
 16777216
100
AcDbPoint
 10
6399.252841307507
 20
1781.448383303883
 30
0.0
  0
POINT
  5
7E8E
330
7D6C
100
AcDbEntity
  8
DEFPOINTS
  6
ByBlock
 62
     0
440
 16777216
100
AcDbPoint
 10
6761.535607663019
 20
1781.448383303883
 30
0.0
  0
ENDBLK
  5
7E8F
330
7D6C
100
AcDbEntity
  8
0
100
AcDbBlockEnd
  0
BLOCK
  5
7E90
330
7D78
100
AcDbEntity
  8
0
100
AcDbBlockBegin
  2
*D12
 70
     1
 10
0.0
 20
0.0
 30
0.0
  3
*D12
  1

  0
LINE
  5
7E91
330
7D78
100
AcDbEntity
  8
0
  6
ByBlock
440
 16777216
100
AcDbLine
 10
3203.464010362186
 20
3963.253207167579
 30
0.0
 11
3203.464010362186
 21
3631.528631137172
 31
0.0
  0
LINE
  5
7E92
330
7D78
100
AcDbEntity
  8
0
  6
ByBlock
440
 16777216
100
AcDbLine
 10
753.4640103621859
 20
3963.253207167579
 30
0.0
 11
753.4640103621859
 21
3631.528631137172
 31
0.0
  0
LINE
  5
7E93
330
7D78
100
AcDbEntity
  8
0
  6
ByBlock
440
 16777216
100
AcDbLine
 10
3133.464010362186
 20
3666.528631137171
 30
0.0
 11
823.464010362186
 21
3666.528631137171
 31
0.0
  0
INSERT
  5
7E94
330
7D78
100
AcDbEntity
  8
0
  6
ByBlock
440
 16777216
100
AcDbBlockReference
  2
_OPEN
 10
3203.464010362186
 20
3666.528631137171
 30
0.0
 41
70.0
 42
70.0
 43
70.0
  0
INSERT
  5
7E95
330
7D78
100
AcDbEntity
  8
0
  6
ByBlock
440
 16777216
100
AcDbBlockReference
  2
_OPEN
 10
753.4640103621859
 20
3666.528631137171
 30
0.0
 41
70.0
 42
70.0
 43
70.0
 50
180.0
  0
MTEXT
  5
7E96
330
7D78
100
AcDbEntity
  8
0
  6
ByBlock
440
 16777216
100
AcDbMText
 10
1978.464010362186
 20
3736.528631137171
 30
0.0
 40
105.0
 41
0.0
 46
0.0
 71
     5
 72
     5
  1
\A1;2450
 73
     1
 44
1.0
  0
POINT
  5
7E97
330
7D78
100
AcDbEntity
  8
DEFPOINTS
  6
ByBlock
 62
     0
440
 16777216
100
AcDbPoint
 10
3203.464010362186
 20
3998.253207167579
 30
0.0
  0
POINT
  5
7E98
330
7D78
100
AcDbEntity
  8
DEFPOINTS
  6
ByBlock
 62
     0
440
 16777216
100
AcDbPoint
 10
753.4640103621859
 20
3998.253207167579
 30
0.0
  0
POINT
  5
7E99
330
7D78
100
AcDbEntity
  8
DEFPOINTS
  6
ByBlock
 62
     0
440
 16777216
100
AcDbPoint
 10
753.4640103621859
 20
3666.528631137171
 30
0.0
  0
ENDBLK
  5
7E9A
330
7D78
100
AcDbEntity
  8
0
100
AcDbBlockEnd
  0
BLOCK
  5
7E9B
330
7D84
100
AcDbEntity
  8
0
100
AcDbBlockBegin
  2
*D13
 70
     1
 10
0.0
 20
0.0
 30
0.0
  3
*D13
  1

  0
LINE
  5
7E9C
330
7D84
100
AcDbEntity
  8
0
  6
ByBlock
440
 16777216
100
AcDbLine
 10
718.4640103621859
 20
5898.253207167577
 30
0.0
 11
319.4747598402901
 21
5898.253207167577
 31
0.0
  0
LINE
  5
7E9D
330
7D84
100
AcDbEntity
  8
0
  6
ByBlock
440
 16777216
100
AcDbLine
 10
718.4640103621859
 20
3998.253207167579
 30
0.0
 11
319.4747598402901
 21
3998.253207167579
 31
0.0
  0
LINE
  5
7E9E
330
7D84
100
AcDbEntity
  8
0
  6
ByBlock
440
 16777216
100
AcDbLine
 10
354.4747598402901
 20
5828.253207167577
 30
0.0
 11
354.4747598402901
 21
4068.253207167578
 31
0.0
  0
INSERT
  5
7E9F
330
7D84
100
AcDbEntity
  8
0
  6
ByBlock
440
 16777216
100
AcDbBlockReference
  2
_OPEN
 10
354.4747598402901
 20
5898.253207167577
 30
0.0
 41
70.0
 42
70.0
 43
70.0
 50
90.0
  0
INSERT
  5
7EA0
330
7D84
100
AcDbEntity
  8
0
  6
ByBlock
440
 16777216
100
AcDbBlockReference
  2
_OPEN
 10
354.4747598402901
 20
3998.253207167579
 30
0.0
 41
70.0
 42
70.0
 43
70.0
 50
270.0
  0
MTEXT
  5
7EA1
330
7D84
100
AcDbEntity
  8
0
  6
ByBlock
440
 16777216
100
AcDbMText
 10
284.47475984029
 20
4948.253207167578
 30
0.0
 40
105.0
 41
0.0
 46
0.0
 71
     5
 72
     5
  1
\A1;1900
 11
0.0
 21
1.0
 31
0.0
 73
     1
 44
1.0
  0
POINT
  5
7EA2
330
7D84
100
AcDbEntity
  8
DEFPOINTS
  6
ByBlock
 62
     0
440
 16777216
100
AcDbPoint
 10
753.4640103621859
 20
5898.253207167577
 30
0.0
  0
POINT
  5
7EA3
330
7D84
100
AcDbEntity
  8
DEFPOINTS
  6
ByBlock
 62
     0
440
 16777216
100
AcDbPoint
 10
753.4640103621859
 20
3998.253207167579
 30
0.0
  0
POINT
  5
7EA4
330
7D84
100
AcDbEntity
  8
DEFPOINTS
  6
ByBlock
 62
     0
440
 16777216
100
AcDbPoint
 10
354.4747598402901
 20
3998.253207167579
 30
0.0
  0
ENDBLK
  5
7EA5
330
7D84
100
AcDbEntity
  8
0
100
AcDbBlockEnd
  0
BLOCK
  5
7EA6
330
7D90
100
AcDbEntity
  8
0
100
AcDbBlockBegin
  2
*D14
 70
     1
 10
0.0
 20
0.0
 30
0.0
  3
*D14
  1

  0
LINE
  5
7EA7
330
7D90
100
AcDbEntity
  8
0
  6
ByBlock
440
 16777216
100
AcDbLine
 10
3238.464010362186
 20
4998.253207167577
 30
0.0
 11
3639.056965284606
 21
4998.253207167577
 31
0.0
  0
LINE
  5
7EA8
330
7D90
100
AcDbEntity
  8
0
  6
ByBlock
440
 16777216
100
AcDbLine
 10
3238.464010362186
 20
3998.253207167579
 30
0.0
 11
3639.056965284606
 21
3998.253207167579
 31
0.0
  0
LINE
  5
7EA9
330
7D90
100
AcDbEntity
  8
0
  6
ByBlock
440
 16777216
100
AcDbLine
 10
3604.056965284606
 20
4928.253207167577
 30
0.0
 11
3604.056965284606
 21
4068.253207167578
 31
0.0
  0
INSERT
  5
7EAA
330
7D90
100
AcDbEntity
  8
0
  6
ByBlock
440
 16777216
100
AcDbBlockReference
  2
_OPEN
 10
3604.056965284606
 20
4998.253207167577
 30
0.0
 41
70.0
 42
70.0
 43
70.0
 50
90.0
  0
INSERT
  5
7EAB
330
7D90
100
AcDbEntity
  8
0
  6
ByBlock
440
 16777216
100
AcDbBlockReference
  2
_OPEN
 10
3604.056965284606
 20
3998.253207167579
 30
0.0
 41
70.0
 42
70.0
 43
70.0
 50
270.0
  0
MTEXT
  5
7EAC
330
7D90
100
AcDbEntity
  8
0
  6
ByBlock
440
 16777216
100
AcDbMText
 10
3534.056965284606
 20
4498.253207167578
 30
0.0
 40
105.0
 41
0.0
 46
0.0
 71
     5
 72
     5
  1
\A1;1000
 11
0.0
 21
1.0
 31
0.0
 73
     1
 44
1.0
  0
POINT
  5
7EAD
330
7D90
100
AcDbEntity
  8
DEFPOINTS
  6
ByBlock
 62
     0
440
 16777216
100
AcDbPoint
 10
3203.464010362186
 20
4998.253207167577
 30
0.0
  0
POINT
  5
7EAE
330
7D90
100
AcDbEntity
  8
DEFPOINTS
  6
ByBlock
 62
     0
440
 16777216
100
AcDbPoint
 10
3203.464010362186
 20
3998.253207167579
 30
0.0
  0
POINT
  5
7EAF
330
7D90
100
AcDbEntity
  8
DEFPOINTS
  6
ByBlock
 62
     0
440
 16777216
100
AcDbPoint
 10
3604.056965284606
 20
3998.253207167579
 30
0.0
  0
ENDBLK
  5
7EB0
330
7D90
100
AcDbEntity
  8
0
100
AcDbBlockEnd
  0
BLOCK
  5
7EB1
330
7D9C
100
AcDbEntity
  8
0
100
AcDbBlockBegin
  2
*D15
 70
     1
 10
0.0
 20
0.0
 30
0.0
  3
*D15
  1

  0
LINE
  5
7EB2
330
7D9C
100
AcDbEntity
  8
0
  6
ByBlock
440
 16777216
100
AcDbLine
 10
3203.464010362186
 20
5033.253207167577
 30
0.0
 11
3203.464010362186
 21
6330.110343216922
 31
0.0
  0
LINE
  5
7EB3
330
7D9C
100
AcDbEntity
  8
0
  6
ByBlock
440
 16777216
100
AcDbLine
 10
2073.464010362186
 20
5933.253207167577
 30
0.0
 11
2073.464010362186
 21
6330.110343216922
 31
0.0
  0
LINE
  5
7EB4
330
7D9C
100
AcDbEntity
  8
0
  6
ByBlock
440
 16777216
100
AcDbLine
 10
3133.464010362186
 20
6295.110343216922
 30
0.0
 11
2143.464010362186
 21
6295.110343216922
 31
0.0
  0
INSERT
  5
7EB5
330
7D9C
100
AcDbEntity
  8
0
  6
ByBlock
440
 16777216
100
AcDbBlockReference
  2
_OPEN
 10
3203.464010362186
 20
6295.110343216922
 30
0.0
 41
70.0
 42
70.0
 43
70.0
  0
INSERT
  5
7EB6
330
7D9C
100
AcDbEntity
  8
0
  6
ByBlock
440
 16777216
100
AcDbBlockReference
  2
_OPEN
 10
2073.464010362186
 20
6295.110343216922
 30
0.0
 41
70.0
 42
70.0
 43
70.0
 50
180.0
  0
MTEXT
  5
7EB7
330
7D9C
100
AcDbEntity
  8
0
  6
ByBlock
440
 16777216
100
AcDbMText
 10
2638.464010362186
 20
6365.110343216922
 30
0.0
 40
105.0
 41
0.0
 46
0.0
 71
     5
 72
     5
  1
\A1;1130
 73
     1
 44
1.0
  0
POINT
  5
7EB8
330
7D9C
100
AcDbEntity
  8
DEFPOINTS
  6
ByBlock
 62
     0
440
 16777216
100
AcDbPoint
 10
3203.464010362186
 20
4998.253207167577
 30
0.0
  0
POINT
  5
7EB9
330
7D9C
100
AcDbEntity
  8
DEFPOINTS
  6
ByBlock
 62
     0
440
 16777216
100
AcDbPoint
 10
2073.464010362186
 20
5898.253207167577
 30
0.0
  0
POINT
  5
7EBA
330
7D9C
100
AcDbEntity
  8
DEFPOINTS
  6
ByBlock
 62
     0
440
 16777216
100
AcDbPoint
 10
2073.464010362186
 20
6295.110343216922
 30
0.0
  0
ENDBLK
  5
7EBB
330
7D9C
100
AcDbEntity
  8
0
100
AcDbBlockEnd
  0
BLOCK
  5
7EBC
330
7DA8
100
AcDbEntity
  8
0
100
AcDbBlockBegin
  2
*D16
 70
     1
 10
0.0
 20
0.0
 30
0.0
  3
*D16
  1

  0
LINE
  5
7EBD
330
7DA8
100
AcDbEntity
  8
0
  6
ByBlock
440
 16777216
100
AcDbLine
 10
2073.464010362186
 20
5933.253207167578
 30
0.0
 11
2073.464010362186
 21
6330.110343216921
 31
0.0
  0
LINE
  5
7EBE
330
7DA8
100
AcDbEntity
  8
0
  6
ByBlock
440
 16777216
100
AcDbLine
 10
753.4640103621859
 20
5933.253207167577
 30
0.0
 11
753.4640103621859
 21
6330.110343216921
 31
0.0
  0
LINE
  5
7EBF
330
7DA8
100
AcDbEntity
  8
0
  6
ByBlock
440
 16777216
100
AcDbLine
 10
2003.464010362186
 20
6295.110343216921
 30
0.0
 11
823.464010362186
 21
6295.110343216921
 31
0.0
  0
INSERT
  5
7EC0
330
7DA8
100
AcDbEntity
  8
0
  6
ByBlock
440
 16777216
100
AcDbBlockReference
  2
_OPEN
 10
2073.464010362186
 20
6295.110343216921
 30
0.0
 41
70.0
 42
70.0
 43
70.0
  0
INSERT
  5
7EC1
330
7DA8
100
AcDbEntity
  8
0
  6
ByBlock
440
 16777216
100
AcDbBlockReference
  2
_OPEN
 10
753.4640103621859
 20
6295.110343216921
 30
0.0
 41
70.0
 42
70.0
 43
70.0
 50
180.0
  0
MTEXT
  5
7EC2
330
7DA8
100
AcDbEntity
  8
0
  6
ByBlock
440
 16777216
100
AcDbMText
 10
1413.464010362186
 20
6365.110343216922
 30
0.0
 40
105.0
 41
0.0
 46
0.0
 71
     5
 72
     5
  1
\A1;1320
 73
     1
 44
1.0
  0
POINT
  5
7EC3
330
7DA8
100
AcDbEntity
  8
DEFPOINTS
  6
ByBlock
 62
     0
440
 16777216
100
AcDbPoint
 10
2073.464010362186
 20
5898.253207167579
 30
0.0
  0
POINT
  5
7EC4
330
7DA8
100
AcDbEntity
  8
DEFPOINTS
  6
ByBlock
 62
     0
440
 16777216
100
AcDbPoint
 10
753.4640103621859
 20
5898.253207167577
 30
0.0
  0
POINT
  5
7EC5
330
7DA8
100
AcDbEntity
  8
DEFPOINTS
  6
ByBlock
 62
     0
440
 16777216
100
AcDbPoint
 10
753.4640103621859
 20
6295.110343216921
 30
0.0
  0
ENDBLK
  5
7EC6
330
7DA8
100
AcDbEntity
  8
0
100
AcDbBlockEnd
  0
BLOCK
  5
7EC7
330
7DB4
100
AcDbEntity
  8
0
100
AcDbBlockBegin
  2
*D17
 70
     1
 10
0.0
 20
0.0
 30
0.0
  3
*D17
  1

  0
LINE
  5
814E
330
7DB4
100
AcDbEntity
  8
3
440
 16777216
370
    -2
100
AcDbLine
 10
5834.213718127463
 20
2232.681612038577
 30
0.0
 11
5834.213718127463
 21
2033.332481345562
 31
0.0
  0
LINE
  5
814F
330
7DB4
100
AcDbEntity
  8
3
440
 16777216
370
    -2
100
AcDbLine
 10
6662.213718127443
 20
2232.681612038577
 30
0.0
 11
6662.213718127443
 21
2033.332481345562
 31
0.0
  0
LINE
  5
8150
330
7DB4
100
AcDbEntity
  8
3
440
 16777216
370
    -2
100
AcDbLine
 10
5904.213718127463
 20
2068.332481345562
 30
0.0
 11
6592.213718127443
 21
2068.332481345562
 31
0.0
  0
INSERT
  5
8151
330
7DB4
100
AcDbEntity
  8
3
440
 16777216
370
    -2
100
AcDbBlockReference
  2
_OPEN
 10
5834.213718127463
 20
2068.332481345562
 30
0.0
 41
70.0
 42
70.0
 43
70.0
 50
180.0
  0
INSERT
  5
8152
330
7DB4
100
AcDbEntity
  8
3
440
 16777216
370
    -2
100
AcDbBlockReference
  2
_OPEN
 10
6662.213718127443
 20
2068.332481345562
 30
0.0
 41
70.0
 42
70.0
 43
70.0
  0
MTEXT
  5
8153
330
7DB4
100
AcDbEntity
  8
3
440
 16777216
100
AcDbMText
 10
6248.213718127453
 20
2138.332481345562
 30
0.0
 40
105.0
 41
0.0
 46
0.0
 71
     5
 72
     1
  1
\A1;828
 73
     1
 44
1.0
  0
POINT
  5
8154
330
7DB4
100
AcDbEntity
  8
DEFPOINTS
 62
     0
440
 16777216
100
AcDbPoint
 10
5834.213718127463
 20
2267.681612038578
 30
0.0
  0
POINT
  5
8155
330
7DB4
100
AcDbEntity
  8
DEFPOINTS
 62
     0
440
 16777216
100
AcDbPoint
 10
6662.213718127443
 20
2267.681612038578
 30
0.0
  0
POINT
  5
8156
330
7DB4
100
AcDbEntity
  8
DEFPOINTS
 62
     0
440
 16777216
100
AcDbPoint
 10
6662.213718127443
 20
2068.332481345562
 30
0.0
  0
ENDBLK
  5
7ED1
330
7DB4
100
AcDbEntity
  8
0
100
AcDbBlockEnd
  0
BLOCK
  5
7ED2
330
7DC0
100
AcDbEntity
  8
0
100
AcDbBlockBegin
  2
*D18
 70
     1
 10
0.0
 20
0.0
 30
0.0
  3
*D18
  1

  0
LINE
  5
8157
330
7DC0
100
AcDbEntity
  8
3
440
 16777216
370
    -2
100
AcDbLine
 10
4762.213718127465
 20
2232.681612038577
 30
0.0
 11
4762.213718127465
 21
2033.332481345562
 31
0.0
  0
LINE
  5
8158
330
7DC0
100
AcDbEntity
  8
3
440
 16777216
370
    -2
100
AcDbLine
 10
5834.213718127463
 20
2232.681612038577
 30
0.0
 11
5834.213718127463
 21
2033.332481345562
 31
0.0
  0
LINE
  5
8159
330
7DC0
100
AcDbEntity
  8
3
440
 16777216
370
    -2
100
AcDbLine
 10
4832.213718127466
 20
2068.332481345562
 30
0.0
 11
5764.213718127463
 21
2068.332481345562
 31
0.0
  0
INSERT
  5
815A
330
7DC0
100
AcDbEntity
  8
3
440
 16777216
370
    -2
100
AcDbBlockReference
  2
_OPEN
 10
4762.213718127465
 20
2068.332481345562
 30
0.0
 41
70.0
 42
70.0
 43
70.0
 50
180.0
  0
INSERT
  5
815B
330
7DC0
100
AcDbEntity
  8
3
440
 16777216
370
    -2
100
AcDbBlockReference
  2
_OPEN
 10
5834.213718127463
 20
2068.332481345562
 30
0.0
 41
70.0
 42
70.0
 43
70.0
  0
MTEXT
  5
815C
330
7DC0
100
AcDbEntity
  8
3
440
 16777216
100
AcDbMText
 10
5298.213718127465
 20
2138.332481345562
 30
0.0
 40
105.0
 41
0.0
 46
0.0
 71
     5
 72
     1
  1
\A1;1072
 73
     1
 44
1.0
  0
POINT
  5
815D
330
7DC0
100
AcDbEntity
  8
DEFPOINTS
 62
     0
440
 16777216
100
AcDbPoint
 10
4762.213718127465
 20
2267.681612038578
 30
0.0
  0
POINT
  5
815E
330
7DC0
100
AcDbEntity
  8
DEFPOINTS
 62
     0
440
 16777216
100
AcDbPoint
 10
5834.213718127463
 20
2267.681612038578
 30
0.0
  0
POINT
  5
815F
330
7DC0
100
AcDbEntity
  8
DEFPOINTS
 62
     0
440
 16777216
100
AcDbPoint
 10
5834.213718127463
 20
2068.332481345562
 30
0.0
  0
ENDBLK
  5
7EDC
330
7DC0
100
AcDbEntity
  8
0
100
AcDbBlockEnd
  0
BLOCK
  5
7EE8
330
7DD8
100
AcDbEntity
  8
0
100
AcDbBlockBegin
  2
*D19
 70
     1
 10
0.0
 20
0.0
 30
0.0
  3
*D19
  1

  0
LINE
  5
7EE9
330
7DD8
100
AcDbEntity
  8
0
  6
ByBlock
440
 16777216
100
AcDbLine
 10
4893.752841307504
 20
2454.448383303883
 30
0.0
 11
4893.752841307504
 21
2681.706940293118
 31
0.0
  0
LINE
  5
7EEA
330
7DD8
100
AcDbEntity
  8
0
  6
ByBlock
440
 16777216
100
AcDbLine
 10
6393.752841307505
 20
2454.448383303884
 30
0.0
 11
6393.752841307505
 21
2681.706940293118
 31
0.0
  0
LINE
  5
7EEB
330
7DD8
100
AcDbEntity
  8
0
  6
ByBlock
440
 16777216
100
AcDbLine
 10
4963.752841307504
 20
2646.706940293118
 30
0.0
 11
6323.752841307506
 21
2646.706940293118
 31
0.0
  0
INSERT
  5
7EEC
330
7DD8
100
AcDbEntity
  8
0
  6
ByBlock
440
 16777216
100
AcDbBlockReference
  2
_OPEN
 10
4893.752841307504
 20
2646.706940293118
 30
0.0
 41
70.0
 42
70.0
 43
70.0
 50
180.0
  0
INSERT
  5
7EED
330
7DD8
100
AcDbEntity
  8
0
  6
ByBlock
440
 16777216
100
AcDbBlockReference
  2
_OPEN
 10
6393.752841307505
 20
2646.706940293118
 30
0.0
 41
70.0
 42
70.0
 43
70.0
  0
MTEXT
  5
7EEE
330
7DD8
100
AcDbEntity
  8
0
  6
ByBlock
440
 16777216
100
AcDbMText
 10
5643.752841307505
 20
2716.706940293118
 30
0.0
 40
105.0
 41
0.0
 46
0.0
 71
     5
 72
     5
  1
\A1;1500
 73
     1
 44
1.0
  0
POINT
  5
7EEF
330
7DD8
100
AcDbEntity
  8
DEFPOINTS
  6
ByBlock
 62
     0
440
 16777216
100
AcDbPoint
 10
4893.752841307504
 20
2419.448383303883
 30
0.0
  0
POINT
  5
7EF0
330
7DD8
100
AcDbEntity
  8
DEFPOINTS
  6
ByBlock
 62
     0
440
 16777216
100
AcDbPoint
 10
6393.752841307505
 20
2419.448383303884
 30
0.0
  0
POINT
  5
7EF1
330
7DD8
100
AcDbEntity
  8
DEFPOINTS
  6
ByBlock
 62
     0
440
 16777216
100
AcDbPoint
 10
6393.752841307505
 20
2646.706940293118
 30
0.0
  0
ENDBLK
  5
7EF2
330
7DD8
100
AcDbEntity
  8
0
100
AcDbBlockEnd
  0
BLOCK
  5
7EF3
330
7DE4
100
AcDbEntity
  8
0
100
AcDbBlockBegin
  2
*D20
 70
     1
 10
0.0
 20
0.0
 30
0.0
  3
*D20
  1

  0
LINE
  5
7EF4
330
7DE4
100
AcDbEntity
  8
0
  6
ByBlock
440
 16777216
100
AcDbLine
 10
3203.464010362186
 20
566.448383303883
 30
0.0
 11
3203.464010362186
 21
2915.227666957891
 31
0.0
  0
LINE
  5
7EF5
330
7DE4
100
AcDbEntity
  8
0
  6
ByBlock
440
 16777216
100
AcDbLine
 10
653.4640103621859
 20
2507.448383303883
 30
0.0
 11
653.4640103621859
 21
2915.227666957891
 31
0.0
  0
LINE
  5
7EF6
330
7DE4
100
AcDbEntity
  8
0
  6
ByBlock
440
 16777216
100
AcDbLine
 10
3133.464010362186
 20
2880.227666957892
 30
0.0
 11
723.4640103621859
 21
2880.227666957892
 31
0.0
  0
INSERT
  5
7EF7
330
7DE4
100
AcDbEntity
  8
0
  6
ByBlock
440
 16777216
100
AcDbBlockReference
  2
_OPEN
 10
3203.464010362186
 20
2880.227666957892
 30
0.0
 41
70.0
 42
70.0
 43
70.0
  0
INSERT
  5
7EF8
330
7DE4
100
AcDbEntity
  8
0
  6
ByBlock
440
 16777216
100
AcDbBlockReference
  2
_OPEN
 10
653.4640103621859
 20
2880.227666957892
 30
0.0
 41
70.0
 42
70.0
 43
70.0
 50
180.0
  0
MTEXT
  5
7EF9
330
7DE4
100
AcDbEntity
  8
0
  6
ByBlock
440
 16777216
100
AcDbMText
 10
1928.464010362186
 20
2950.227666957891
 30
0.0
 40
105.0
 41
0.0
 46
0.0
 71
     5
 72
     5
  1
\A1;2550
 73
     1
 44
1.0
  0
POINT
  5
7EFA
330
7DE4
100
AcDbEntity
  8
DEFPOINTS
  6
ByBlock
 62
     0
440
 16777216
100
AcDbPoint
 10
3203.464010362186
 20
531.4483833038829
 30
0.0
  0
POINT
  5
7EFB
330
7DE4
100
AcDbEntity
  8
DEFPOINTS
  6
ByBlock
 62
     0
440
 16777216
100
AcDbPoint
 10
653.4640103621859
 20
2472.448383303883
 30
0.0
  0
POINT
  5
7EFC
330
7DE4
100
AcDbEntity
  8
DEFPOINTS
  6
ByBlock
 62
     0
440
 16777216
100
AcDbPoint
 10
653.4640103621859
 20
2880.227666957892
 30
0.0
  0
ENDBLK
  5
7EFD
330
7DE4
100
AcDbEntity
  8
0
100
AcDbBlockEnd
  0
BLOCK
  5
7FD2
330
7E09
100
AcDbEntity
  8
0
100
AcDbBlockBegin
  2
*D21
 70
     1
 10
0.0
 20
0.0
 30
0.0
  3
*D21
  1

  0
LINE
  5
8160
330
7E09
100
AcDbEntity
  8
3
 62
     0
440
 16777216
370
    -2
100
AcDbLine
 10
1776.575279309898
 20
2342.681612038578
 30
0.0
 11
1151.402501805765
 21
2342.681612038578
 31
0.0
  0
LINE
  5
8161
330
7E09
100
AcDbEntity
  8
3
 62
     0
440
 16777216
370
    -2
100
AcDbLine
 10
1776.5752793099
 20
2267.681612038578
 30
0.0
 11
1151.402501805765
 21
2267.681612038578
 31
0.0
  0
LINE
  5
8162
330
7E09
100
AcDbEntity
  8
3
 62
     0
440
 16777216
370
    -2
100
AcDbLine
 10
1186.402501805765
 20
2412.681612038578
 30
0.0
 11
1186.402501805765
 21
2482.681612038577
 31
0.0
  0
LINE
  5
8163
330
7E09
100
AcDbEntity
  8
3
 62
     0
440
 16777216
370
    -2
100
AcDbLine
 10
1186.402501805765
 20
2197.681612038577
 30
0.0
 11
1186.402501805765
 21
1887.681612038577
 31
0.0
  0
LINE
  5
8164
330
7E09
100
AcDbEntity
  8
3
 62
     0
440
 16777216
370
    -2
100
AcDbLine
 10
1186.402501805765
 20
2342.681612038578
 30
0.0
 11
1186.402501805765
 21
2267.681612038578
 31
0.0
  0
INSERT
  5
8165
330
7E09
100
AcDbEntity
  8
3
 62
     0
440
 16777216
370
    -2
100
AcDbBlockReference
  2
_DOT
 10
1186.402501805765
 20
2342.681612038578
 30
0.0
 41
70.0
 42
70.0
 43
70.0
 50
270.0
  0
INSERT
  5
8166
330
7E09
100
AcDbEntity
  8
3
 62
     0
440
 16777216
370
    -2
100
AcDbBlockReference
  2
_OPEN
 10
1186.402501805765
 20
2267.681612038578
 30
0.0
 41
70.0
 42
70.0
 43
70.0
 50
90.0
  0
MTEXT
  5
8167
330
7E09
100
AcDbEntity
  8
3
 62
     0
440
 16777216
100
AcDbMText
 10
1098.902501805765
 20
2007.681612038578
 30
0.0
 40
105.0
 41
0.0
 46
0.0
 71
     5
 72
     1
  1
\A1;75
 11
0.0000000000000001
 21
1.0
 31
0.0
 73
     1
 44
1.0
  0
POINT
  5
8168
330
7E09
100
AcDbEntity
  8
DEFPOINTS
 62
     0
440
 16777216
100
AcDbPoint
 10
1794.075279309898
 20
2342.681612038578
 30
0.0
  0
POINT
  5
8169
330
7E09
100
AcDbEntity
  8
DEFPOINTS
 62
     0
440
 16777216
100
AcDbPoint
 10
1794.0752793099
 20
2267.681612038578
 30
0.0
  0
POINT
  5
816A
330
7E09
100
AcDbEntity
  8
DEFPOINTS
 62
     0
440
 16777216
100
AcDbPoint
 10
1186.402501805765
 20
2267.681612038578
 30
0.0
  0
ENDBLK
  5
7FDE
330
7E09
100
AcDbEntity
  8
0
100
AcDbBlockEnd
  0
BLOCK
  5
7FB4
330
7FAE
100
AcDbEntity
  8
0
100
AcDbBlockBegin
  2
_DOT
 70
     0
 10
0.0
 20
0.0
 30
0.0
  3
_DOT
  1

  0
LWPOLYLINE
  5
7FAF
330
7FAE
100
AcDbEntity
  8
0
  6
ByBlock
 62
     0
100
AcDbPolyline
 90
        2
 70
     1
 43
0.25
 10
-0.125
 20
0.0
 42
1.0
 10
0.125
 20
0.0
 42
1.0
  0
LINE
  5
7FB3
330
7FAE
100
AcDbEntity
  8
0
  6
ByBlock
 62
     0
100
AcDbLine
 10
-0.25
 20
0.0
 30
0.0
 11
-1.0
 21
0.0
 31
0.0
  0
ENDBLK
  5
7FB5
330
7FAE
100
AcDbEntity
  8
0
100
AcDbBlockEnd
  0
BLOCK
  5
8029
330
8028
100
AcDbEntity
  8
0
100
AcDbBlockBegin
  2
_NONE
 70
     0
 10
0.0
 20
0.0
 30
0.0
  3
_NONE
  1

  0
CIRCLE
  5
802A
330
8028
100
AcDbEntity
  8
0
  6
ByBlock
 62
     0
100
AcDbCircle
 10
0.0
 20
0.0
 30
0.0
 40
0.25
  0
ENDBLK
  5
802B
330
8028
100
AcDbEntity
  8
0
100
AcDbBlockEnd
  0
BLOCK
  5
8054
330
802C
100
AcDbEntity
  8
0
100
AcDbBlockBegin
  2
*D24
 70
     1
 10
0.0
 20
0.0
 30
0.0
  3
*D24
  1

  0
LINE
  5
816B
330
802C
100
AcDbEntity
  8
3
 62
     0
440
 16777216
370
    -2
100
AcDbLine
 10
1187.91241007264
 20
2342.681612038578
 30
0.0
 11
1187.91241007264
 21
2447.681612038577
 31
0.0
  0
MTEXT
  5
816C
330
802C
100
AcDbEntity
  8
3
 62
     0
440
 16777216
100
AcDbMText
 10
1020.41241007264
 20
2395.181612038578
 30
0.0
 40
105.0
 41
0.0
 46
0.0
 71
     5
 72
     1
  1
\A1;   (105)
 11
0.0000000000000001
 21
1.0
 31
0.0
 73
     1
 44
1.0
  0
POINT
  5
816D
330
802C
100
AcDbEntity
  8
DEFPOINTS
 62
     0
440
 16777216
100
AcDbPoint
 10
1794.075279309898
 20
2342.681612038578
 30
0.0
  0
POINT
  5
816E
330
802C
100
AcDbEntity
  8
DEFPOINTS
 62
     0
440
 16777216
100
AcDbPoint
 10
1794.075279309898
 20
2447.681612038577
 30
0.0
  0
POINT
  5
816F
330
802C
100
AcDbEntity
  8
DEFPOINTS
 62
     0
440
 16777216
100
AcDbPoint
 10
1187.91241007264
 20
2447.681612038577
 30
0.0
  0
ENDBLK
  5
805A
330
802C
100
AcDbEntity
  8
0
100
AcDbBlockEnd
  0
BLOCK
  5
8036
330
8035
100
AcDbEntity
  8
0
100
AcDbBlockBegin
  2
*D25
 70
     1
 10
0.0
 20
0.0
 30
0.0
  3
*D25
  1

  0
LINE
  5
8170
330
8035
100
AcDbEntity
  8
3
 62
     0
440
 16777216
370
    -2
100
AcDbLine
 10
1676.575279309898
 20
4485.681612038577
 30
0.0
 11
842.4834990961686
 21
4485.681612038577
 31
0.0
  0
LINE
  5
8171
330
8035
100
AcDbEntity
  8
3
 62
     0
440
 16777216
370
    -2
100
AcDbLine
 10
1776.5752793099
 20
2267.681612038578
 30
0.0
 11
842.4834990961681
 21
2267.681612038578
 31
0.0
  0
LINE
  5
8172
330
8035
100
AcDbEntity
  8
3
 62
     0
440
 16777216
370
    -2
100
AcDbLine
 10
877.4834990961686
 20
4415.681612038578
 30
0.0
 11
877.4834990961682
 21
2337.681612038578
 31
0.0
  0
INSERT
  5
8173
330
8035
100
AcDbEntity
  8
3
 62
     0
440
 16777216
370
    -2
100
AcDbBlockReference
  2
_OPEN
 10
877.4834990961686
 20
4485.681612038577
 30
0.0
 41
70.0
 42
70.0
 43
70.0
 50
90.0
  0
INSERT
  5
8174
330
8035
100
AcDbEntity
  8
3
 62
     0
440
 16777216
370
    -2
100
AcDbBlockReference
  2
_OPEN
 10
877.483499096168
 20
2267.681612038578
 30
0.0
 41
70.0
 42
70.0
 43
70.0
 50
270.0
  0
MTEXT
  5
8175
330
8035
100
AcDbEntity
  8
3
 62
     0
440
 16777216
100
AcDbMText
 10
762.4834990961678
 20
3376.681612038578
 30
0.0
 40
105.0
 41
0.0
 46
0.0
 71
     5
 72
     1
  1
\A1;(2218)
 11
0.0000000000000001
 21
1.0
 31
0.0
 73
     1
 44
1.0
  0
POINT
  5
8176
330
8035
100
AcDbEntity
  8
DEFPOINTS
 62
     0
440
 16777216
100
AcDbPoint
 10
1694.075279309898
 20
4485.681612038577
 30
0.0
  0
POINT
  5
8177
330
8035
100
AcDbEntity
  8
DEFPOINTS
 62
     0
440
 16777216
100
AcDbPoint
 10
1794.0752793099
 20
2267.681612038578
 30
0.0
  0
POINT
  5
8178
330
8035
100
AcDbEntity
  8
DEFPOINTS
 62
     0
440
 16777216
100
AcDbPoint
 10
877.483499096168
 20
2267.681612038578
 30
0.0
  0
ENDBLK
  5
8040
330
8035
100
AcDbEntity
  8
0
100
AcDbBlockEnd
  0
ENDSEC
  0
SECTION
  2
ENTITIES
  0
INSERT
  5
7C1B
330
19
100
AcDbEntity
  8
0
100
AcDbBlockReference
  2
YA_N
 10
6.0
 20
5.0
 30
0.0
  0
LINE
  5
7C1D
330
19
100
AcDbEntity
  8
2
100
AcDbLine
 10
1547.294627856921
 20
3287.681612038578
 30
0.0
 11
3520.44962042357
 21
3287.681612038578
 31
0.0
  0
LINE
  5
7C1E
330
19
100
AcDbEntity
  8
2
100
AcDbLine
 10
2454.075279309899
 20
2267.681612038578
 30
0.0
 11
2454.075279309898
 21
4694.863938204405
 31
0.0
  0
LINE
  5
7C1F
330
19
100
AcDbEntity
  8
1
100
AcDbLine
 10
1694.075279309898
 20
3282.681612038577
 30
0.0
 11
1694.075279309898
 21
4538.681612038577
 31
0.0
  0
LINE
  5
7C20
330
19
100
AcDbEntity
  8
1
100
AcDbLine
 10
1694.075279309898
 20
4538.681612038577
 30
0.0
 11
1698.075279309898
 21
4538.681612038577
 31
0.0
  0
LINE
  5
7C21
330
19
100
AcDbEntity
  8
1
100
AcDbLine
 10
1694.075279309898
 20
3282.681612038577
 30
0.0
 11
1698.075279309898
 21
3282.681612038577
 31
0.0
  0
LINE
  5
7C22
330
19
100
AcDbEntity
  8
1
100
AcDbLine
 10
1744.075279309898
 20
3335.681612038577
 30
0.0
 11
1744.075279309898
 21
4481.194523803138
 31
0.0
  0
LINE
  5
7C23
330
19
100
AcDbEntity
  8
1
100
AcDbLine
 10
1698.075279309898
 20
3282.681612038577
 30
0.0
 11
1698.075279309898
 21
4538.681612038577
 31
0.0
  0
LINE
  5
7C24
330
19
100
AcDbEntity
  8
1
100
AcDbLine
 10
1794.075279309898
 20
2447.681612038577
 30
0.0
 11
4244.075279309898
 21
2447.681612038578
 31
0.0
1001
ACAD
1000
ASC_BOUNDS
1002
{
1070
    19
1002
}
  0
LINE
  5
7C25
330
19
100
AcDbEntity
  8
1
100
AcDbLine
 10
1794.075279309898
 20
2597.681612038578
 30
0.0
 11
1794.075279309898
 21
2447.681612038577
 31
0.0
  0
LINE
  5
7C26
330
19
100
AcDbEntity
  8
1
100
AcDbLine
 10
4244.075279309898
 20
2597.681612038578
 30
0.0
 11
4244.075279309898
 21
2447.681612038578
 31
0.0
  0
LINE
  5
7C27
330
19
100
AcDbEntity
  8
1
100
AcDbLine
 10
1794.075279309898
 20
2597.681612038578
 30
0.0
 11
4244.075279309898
 21
2597.681612038578
 31
0.0
  0
ARC
  5
7C28
330
19
100
AcDbEntity
  8
1
100
AcDbCircle
 10
2372.075279309898
 20
3369.681612038578
 30
0.0
 40
1051.0
100
AcDbArc
 50
355.5251821014662
 51
85.52518210146617
  0
ARC
  5
7C29
330
19
100
AcDbEntity
  8
1
100
AcDbCircle
 10
2536.075279309898
 20
3369.681612038578
 30
0.0
 40
887.0
100
AcDbArc
 50
299.5007217711458
 51
354.6956347922042
  0
ARC
  5
7C2A
330
19
100
AcDbEntity
  8
1
100
AcDbCircle
 10
2522.575279309898
 20
3219.181612038577
 30
0.0
 40
736.5
100
AcDbArc
 50
174.6633516786165
 51
237.5495802453484
  0
LINE
  5
7C2B
330
19
100
AcDbEntity
  8
1
100
AcDbLine
 10
1694.075279309898
 20
4485.681612038577
 30
0.0
 11
2454.075279309898
 21
4417.47787085992
 31
0.0
  0
LINE
  5
7C2C
330
19
100
AcDbEntity
  8
1
100
AcDbLine
 10
1694.075279309898
 20
3335.681612038577
 30
0.0
 11
1797.503855076415
 21
3335.681612038577
 31
0.0
  0
LINE
  5
7C2D
330
19
100
AcDbEntity
  8
2
100
AcDbLine
 10
3954.075279309899
 20
3146.539888194523
 30
0.0
 11
3954.075279309898
 21
2267.681612038578
 31
0.0
  0
LINE
  5
7C2E
330
19
100
AcDbEntity
  8
2
100
AcDbLine
 10
3718.74898445092
 20
2857.681612038577
 30
0.0
 11
4227.222104708253
 21
2857.681612038577
 31
0.0
  0
LINE
  5
7C2F
330
19
100
AcDbEntity
  8
1
100
AcDbLine
 10
4762.213718127475
 20
2447.681612038577
 30
0.0
 11
4837.213718127475
 21
2447.681612038577
 31
0.0
1001
ACAD
1000
ASC_BOUNDS
1002
{
1070
    19
1002
}
  0
LINE
  5
7C30
330
19
100
AcDbEntity
  8
1
100
AcDbLine
 10
4762.213718127475
 20
2597.681612038578
 30
0.0
 11
6662.213718127462
 21
2597.681612038578
 31
0.0
  0
LINE
  5
7C31
330
19
100
AcDbEntity
  8
1
100
AcDbLine
 10
4762.213718127475
 20
2597.681612038578
 30
0.0
 11
4762.213718127475
 21
2447.681612038577
 31
0.0
  0
LINE
  5
7C32
330
19
100
AcDbEntity
  8
1
100
AcDbLine
 10
4837.213718127475
 20
2447.681612038577
 30
0.0
 11
6662.213718127462
 21
2447.681612038577
 31
0.0
1001
ACAD
1000
ASC_BOUNDS
1002
{
1070
    19
1002
}
  0
LINE
  5
7C33
330
19
100
AcDbEntity
  8
2
100
AcDbLine
 10
4649.736968060365
 20
3287.681612038578
 30
0.0
 11
6759.201705204202
 21
3287.681612038578
 31
0.0
  0
LINE
  5
7C34
330
19
100
AcDbEntity
  8
1
100
AcDbLine
 10
4749.213718127463
 20
3445.181612038578
 30
0.0
 11
4749.213718127463
 21
2739.681612038578
 31
0.0
  0
LINE
  5
7C35
330
19
100
AcDbEntity
  8
1
100
AcDbLine
 10
4859.713718127464
 20
3445.181612038578
 30
0.0
 11
4859.713718127463
 21
2739.681612038578
 31
0.0
  0
LINE
  5
7C36
330
19
100
AcDbEntity
  8
2
100
AcDbLine
 10
4650.994778908335
 20
2857.681612038577
 30
0.0
 11
5551.713718127462
 21
2857.681612038577
 31
0.0
  0
LINE
  5
7C37
330
19
100
AcDbEntity
  8
1
100
AcDbLine
 10
4634.213718127463
 20
3507.681612038578
 30
0.0
 11
4634.213718127463
 21
2637.681612038578
 31
0.0
  0
LINE
  5
7C38
330
19
100
AcDbEntity
  8
1
100
AcDbLine
 10
4911.513718127463
 20
3507.681612038578
 30
0.0
 11
4911.513718127463
 21
3453.878900894704
 31
0.0
  0
LINE
  5
7C39
330
19
100
AcDbEntity
  8
2
100
AcDbLine
 10
2454.075279309898
 20
7698.783441641545
 30
0.0
 11
2454.075279309898
 21
5567.076781572043
 31
0.0
  0
LINE
  5
7C3A
330
19
100
AcDbEntity
  8
2
100
AcDbLine
 10
1579.969010919831
 20
6767.076781572042
 30
0.0
 11
3423.075279309899
 21
6767.076781572042
 31
0.0
  0
LINE
  5
7C3B
330
19
100
AcDbEntity
  8
2
100
AcDbLine
 10
5834.213718127463
 20
4694.863938204405
 30
0.0
 11
5834.213718127464
 21
2267.681612038578
 31
0.0
  0
POINT
  5
7C3C
330
19
100
AcDbEntity
  8
1
100
AcDbPoint
 10
1652.873716811278
 20
3287.681612038578
 30
0.0
  0
INSERT
  5
7C3D
330
19
100
AcDbEntity
  8
0
100
AcDbBlockReference
  2
YA_N
 10
-1074.779326041183
 20
-1311.669320613289
 30
0.0
 41
25.0
 42
25.0
 43
25.0
  0
LINE
  5
7C3F
330
19
100
AcDbEntity
  8
1
100
AcDbLine
 10
1794.075279309898
 20
2342.681612038578
 30
0.0
 11
4244.075279309898
 21
2342.681612038578
 31
0.0
1001
ACAD
1000
ASC_BOUNDS
1002
{
1070
    19
1002
}
  0
LINE
  5
7C40
330
19
100
AcDbEntity
  8
1
100
AcDbLine
 10
1794.075279309898
 20
2342.681612038578
 30
0.0
 11
1794.0752793099
 21
2267.681612038578
 31
0.0
  0
LINE
  5
7C41
330
19
100
AcDbEntity
  8
1
100
AcDbLine
 10
4244.075279309898
 20
2342.681612038578
 30
0.0
 11
4244.075279309898
 21
2267.681612038578
 31
0.0
  0
LINE
  5
7C42
330
19
100
AcDbEntity
  8
1
100
AcDbLine
 10
1794.075279309898
 20
2267.681612038578
 30
0.0
 11
4244.075279309898
 21
2267.681612038578
 31
0.0
1001
ACAD
1000
ASC_BOUNDS
1002
{
1070
    19
1002
}
  0
LINE
  5
7C43
330
19
100
AcDbEntity
  8
1
100
AcDbLine
 10
4762.213718127474
 20
2342.681612038578
 30
0.0
 11
6662.213718127462
 21
2342.681612038578
 31
0.0
1001
ACAD
1000
ASC_BOUNDS
1002
{
1070
    19
1002
}
  0
LINE
  5
7C44
330
19
100
AcDbEntity
  8
1
100
AcDbLine
 10
4762.213718127475
 20
2342.681612038578
 30
0.0
 11
4762.213718127463
 21
2267.681612038578
 31
0.0
  0
LINE
  5
7C45
330
19
100
AcDbEntity
  8
1
100
AcDbLine
 10
6662.213718127462
 20
2342.681612038578
 30
0.0
 11
6662.213718127439
 21
2267.681612038578
 31
0.0
  0
LINE
  5
7C46
330
19
100
AcDbEntity
  8
1
100
AcDbLine
 10
4762.213718127462
 20
2267.681612038578
 30
0.0
 11
6662.213718127443
 21
2267.681612038578
 31
0.0
  0
INSERT
  5
7C47
330
19
100
AcDbEntity
  8
0
100
AcDbBlockReference
  2
YA_N
 10
-346.941647642394
 20
-375.8074592043958
 30
0.0
 41
25.0
 42
25.0
 43
25.0
  0
DIMENSION
  5
7C49
330
19
100
AcDbEntity
  8
3
100
AcDbDimension
280
     0
  2
*D2
 10
1493.966963025632
 20
3335.681612038577
 30
0.0
 11
1423.966963025632
 21
3910.681612038577
 31
0.0
 12
1040.611268947712
 22
2066.233228734695
 32
0.0
 70
    32
 71
     5
 42
-1.0
 73
     0
 74
     0
 75
     0
  3
MATSU
100
AcDbAlignedDimension
 13
1694.075279309898
 23
4485.681612038577
 33
0.0
 14
1694.075279309898
 24
3335.681612038577
 34
0.0
 50
90.0
100
AcDbRotatedDimension
1001
ACAD
1000
DSTYLE
1002
{
1070
    40
1040
35.0
1002
}
  0
DIMENSION
  5
7C4A
330
19
100
AcDbEntity
  8
3
100
AcDbDimension
280
     0
  2
*D3
 10
1188.129611295298
 20
3287.681612038578
 30
0.0
 11
1118.129611295298
 21
3886.681612038578
 31
0.0
 12
1040.611268947712
 22
2066.233228734695
 32
0.0
 70
    32
 71
     5
 42
-1.0
 73
     0
 74
     0
 75
     0
  3
MATSU
100
AcDbAlignedDimension
 13
1694.075279309898
 23
4485.681612038577
 33
0.0
 14
1608.236278411165
 24
3287.681612038578
 34
0.0
 50
90.0
100
AcDbRotatedDimension
1001
ACAD
1000
DSTYLE
1002
{
1070
    40
1040
35.0
1002
}
  0
DIMENSION
  5
7C4B
330
19
100
AcDbEntity
  8
3
100
AcDbDimension
280
     0
  2
*D4
 10
2454.075279309898
 20
2068.901804481147
 30
0.0
 11
2124.075279309898
 21
2138.901804481148
 31
0.0
 70
    32
 71
     5
 42
660.0
 73
     0
 74
     0
 75
     0
  3
MATSU
100
AcDbAlignedDimension
 13
1794.075279309898
 23
2267.681612038578
 33
0.0
 14
2454.075279309898
 24
2267.681612038578
 34
0.0
100
AcDbRotatedDimension
1001
ACAD
1000
DSTYLE
1002
{
1070
    40
1040
35.0
1002
}
  0
ARC
  5
7C4C
330
19
100
AcDbEntity
  8
1
100
AcDbCircle
 10
2385.575279309898
 20
3219.181612038577
 30
0.0
 40
599.5
100
AcDbArc
 50
168.7944946314464
 51
173.4389464571665
  0
ARC
  5
7C4D
330
19
100
AcDbEntity
  8
1
100
AcDbCircle
 10
3954.075279309899
 20
2857.681612038577
 30
0.0
 40
203.5
100
AcDbArc
 50
285.60376
 51
254.396301
  0
LINE
  5
7C4E
330
19
100
AcDbEntity
  8
1
100
AcDbLine
 10
4008.813316309898
 20
2661.681612038578
 30
0.0
 11
3899.337242309898
 21
2661.681612038578
 31
0.0
  0
ARC
  5
7C4F
330
19
100
AcDbEntity
  8
1
100
AcDbCircle
 10
3768.075279309899
 20
2674.681612038578
 30
0.0
 40
3.0
100
AcDbArc
 50
90.00000000000003
 51
180.0
  0
ARC
  5
7C50
330
19
100
AcDbEntity
  8
1
100
AcDbCircle
 10
3770.075279309899
 20
2732.008273038577
 30
0.0
 40
5.000066999999999
100
AcDbArc
 50
124.943665
 51
180.0
  0
LINE
  5
7C51
330
19
100
AcDbEntity
  8
1
100
AcDbLine
 10
3765.0752793099
 20
2732.008273038577
 30
0.0
 11
3765.0752793099
 21
2657.681612038578
 31
0.0
  0
LINE
  5
7C55
330
19
100
AcDbEntity
  8
1
100
AcDbLine
 10
3849.972709309898
 20
2682.824801038578
 30
0.0
 11
3844.575279309899
 21
2662.681612038578
 31
0.0
  0
LINE
  5
7C56
330
19
100
AcDbEntity
  8
1
100
AcDbLine
 10
3844.575279309899
 20
2674.681612038578
 30
0.0
 11
3844.575279309899
 21
2657.681612038578
 31
0.0
  0
LINE
  5
7C57
330
19
100
AcDbEntity
  8
1
100
AcDbLine
 10
3841.575279309899
 20
2677.681612038578
 30
0.0
 11
3768.075279309899
 21
2677.681612038578
 31
0.0
  0
ARC
  5
7C58
330
19
100
AcDbEntity
  8
1
100
AcDbCircle
 10
3841.575279309899
 20
2674.681612038578
 30
0.0
 40
3.0
100
AcDbArc
 50
0.0000000000000093
 51
90.00000000000003
  0
LINE
  5
7C59
330
19
100
AcDbEntity
  8
1
100
AcDbLine
 10
3767.2115093099
 20
2736.106905038578
 30
0.0
 11
3783.149375309899
 21
2747.243380038578
 31
0.0
  0
LINE
  5
7C5A
330
19
100
AcDbEntity
  8
1
100
AcDbLine
 10
4143.075279309899
 20
2732.008273038577
 30
0.0
 11
4143.075279309899
 21
2657.681612038578
 31
0.0
  0
LINE
  5
7C5E
330
19
100
AcDbEntity
  8
1
100
AcDbLine
 10
4058.178062309898
 20
2682.824923038577
 30
0.0
 11
4063.575279309899
 21
2662.681612038578
 31
0.0
  0
LINE
  5
7C5F
330
19
100
AcDbEntity
  8
1
100
AcDbLine
 10
4063.575279309899
 20
2674.681612038578
 30
0.0
 11
4063.575279309899
 21
2657.681612038578
 31
0.0
  0
LINE
  5
7C60
330
19
100
AcDbEntity
  8
1
100
AcDbLine
 10
4066.575279309899
 20
2677.681612038578
 30
0.0
 11
4140.0752793099
 21
2677.681612038578
 31
0.0
  0
ARC
  5
7C61
330
19
100
AcDbEntity
  8
1
100
AcDbCircle
 10
4066.575279309899
 20
2674.681612038578
 30
0.0
 40
3.0
100
AcDbArc
 50
90.00000000000003
 51
180.0
  0
ARC
  5
7C62
330
19
100
AcDbEntity
  8
1
100
AcDbCircle
 10
4140.0752793099
 20
2674.681612038578
 30
0.0
 40
3.0
100
AcDbArc
 50
0.0000000000000093
 51
90.00000000000003
  0
LINE
  5
7C63
330
19
100
AcDbEntity
  8
1
100
AcDbLine
 10
4140.939170309898
 20
2736.106905038578
 30
0.0
 11
4125.001304309898
 21
2747.243380038578
 31
0.0
  0
ARC
  5
7C64
330
19
100
AcDbEntity
  8
1
100
AcDbCircle
 10
4138.075279309899
 20
2732.008273038577
 30
0.0
 40
5.0
100
AcDbArc
 50
0.0000000000000093
 51
55.056339
  0
LINE
  5
7C65
330
19
100
AcDbEntity
  8
1
100
AcDbLine
 10
3710.013023261809
 20
2657.681612038578
 30
0.0
 11
3884.075279309899
 21
2657.681612038578
 31
0.0
  0
LINE
  5
7C66
330
19
100
AcDbEntity
  8
1
100
AcDbLine
 10
3694.075279309898
 20
2597.681612038578
 30
0.0
 11
3710.013023261808
 21
2657.681612038578
 31
0.0
  0
LINE
  5
7C67
330
19
100
AcDbEntity
  8
1
100
AcDbLine
 10
4214.075279309898
 20
2597.681612038578
 30
0.0
 11
4198.090269403534
 21
2657.681612038578
 31
0.0
  0
LINE
  5
7C69
330
19
100
AcDbEntity
  8
1
100
AcDbLine
 10
3884.075279309899
 20
2647.681612038577
 30
0.0
 11
4024.075279309898
 21
2647.681612038577
 31
0.0
  0
LINE
  5
7C6A
330
19
100
AcDbEntity
  8
1
100
AcDbLine
 10
4024.075279309898
 20
2657.681612038578
 30
0.0
 11
4024.075279309896
 21
2647.681612038577
 31
0.0
  0
LINE
  5
7C6B
330
19
100
AcDbEntity
  8
1
100
AcDbLine
 10
3884.075279309899
 20
2657.681612038578
 30
0.0
 11
3884.075279309899
 21
2647.681612038577
 31
0.0
  0
LINE
  5
7C6E
330
19
100
AcDbEntity
  8
1
100
AcDbLine
 10
4024.075279309898
 20
2657.681612038578
 30
0.0
 11
4198.090269403534
 21
2657.681612038578
 31
0.0
  0
CIRCLE
  5
7C71
330
19
100
AcDbEntity
  8
1
100
AcDbCircle
 10
3954.075279309899
 20
2857.681612038577
 30
0.0
 40
118.0
  0
CIRCLE
  5
7C72
330
19
100
AcDbEntity
  8
1
100
AcDbCircle
 10
2454.075279309898
 20
3287.681612038578
 30
0.0
 40
157.5
  0
LINE
  5
7C73
330
19
100
AcDbEntity
  8
1
100
AcDbLine
 10
4749.213718127463
 20
2975.681612038578
 30
0.0
 11
4859.713718127463
 21
2975.681612038578
 31
0.0
  0
LINE
  5
7C74
330
19
100
AcDbEntity
  8
1
100
AcDbLine
 10
4749.213718127463
 20
2739.681612038578
 30
0.0
 11
4859.713718127463
 21
2739.681612038578
 31
0.0
  0
LINE
  5
7C75
330
19
100
AcDbEntity
  8
1
100
AcDbLine
 10
4749.213718127463
 20
3445.181612038578
 30
0.0
 11
4859.713718127464
 21
3445.181612038578
 31
0.0
  0
LINE
  5
7C76
330
19
100
AcDbEntity
  8
1
100
AcDbLine
 10
4749.213718127463
 20
3130.181612038578
 30
0.0
 11
4859.713718127463
 21
3130.181612038578
 31
0.0
  0
LINE
  5
7C77
330
19
100
AcDbEntity
  8
1
100
AcDbLine
 10
4634.213718127462
 20
3507.681612038578
 30
0.0
 11
4911.513718127463
 21
3507.681612038578
 31
0.0
  0
LINE
  5
7C78
330
19
100
AcDbEntity
  8
1
100
AcDbLine
 10
4634.213718127463
 20
2637.681612038578
 30
0.0
 11
4911.513718127463
 21
2637.681612038578
 31
0.0
  0
POINT
  5
7C7A
330
19
100
AcDbEntity
  8
1
100
AcDbPoint
 10
1794.075279309898
 20
2342.681612038578
 30
0.0
  0
POINT
  5
7C7B
330
19
100
AcDbEntity
  8
1
100
AcDbPoint
 10
1794.075279309898
 20
2447.681612038577
 30
0.0
  0
POINT
  5
7C7C
330
19
100
AcDbEntity
  8
1
100
AcDbPoint
 10
1794.075279309898
 20
2342.681612038578
 30
0.0
  0
POINT
  5
7C7D
330
19
100
AcDbEntity
  8
1
100
AcDbPoint
 10
1794.075279309898
 20
2267.681612038578
 30
0.0
  0
INSERT
  5
7C7E
330
19
100
AcDbEntity
  8
0
100
AcDbBlockReference
  2
YA_N
 10
-394.4722692372307
 20
-430.8984299984331
 30
0.0
 41
25.0
 42
25.0
 43
25.0
  0
DIMENSION
  5
7C81
330
19
100
AcDbEntity
  8
3
100
AcDbDimension
280
     0
  2
*D5
 10
1186.402501805765
 20
2447.681612038577
 30
0.0
 11
1116.402501805765
 21
2867.681612038578
 31
0.0
 12
1040.611268947712
 22
2066.233228734695
 32
0.0
 70
    32
 71
     5
 42
-1.0
 73
     0
 74
     0
 75
     0
  3
MATSU
100
AcDbAlignedDimension
 13
1608.236278411165
 23
3287.681612038578
 33
0.0
 14
1794.075279309898
 24
2447.681612038577
 34
0.0
 50
90.0
100
AcDbRotatedDimension
1001
ACAD
1000
DSTYLE
1002
{
1070
    40
1040
35.0
1002
}
  0
POINT
  5
7C82
330
19
100
AcDbEntity
  8
1
100
AcDbPoint
 10
1794.075279309898
 20
2342.681612038578
 30
0.0
  0
POINT
  5
7C83
330
19
100
AcDbEntity
  8
1
100
AcDbPoint
 10
1794.075279309898
 20
2267.681612038578
 30
0.0
  0
POINT
  5
7C84
330
19
100
AcDbEntity
  8
1
100
AcDbPoint
 10
1794.075279309898
 20
2342.681612038578
 30
0.0
  0
POINT
  5
7C85
330
19
100
AcDbEntity
  8
1
100
AcDbPoint
 10
1794.075279309898
 20
2447.681612038577
 30
0.0
  0
LINE
  5
7C86
330
19
100
AcDbEntity
  8
1
100
AcDbLine
 10
5084.213718127463
 20
4485.681612038577
 30
0.0
 11
6584.213718127464
 21
4485.681612038577
 31
0.0
  0
DIMENSION
  5
7C87
330
19
100
AcDbEntity
  8
3
100
AcDbDimension
280
     0
  2
*D6
 10
2454.075279309898
 20
4742.014998965035
 30
0.0
 11
2074.075279309898
 21
4812.014998965034
 31
0.0
 12
1040.611268947712
 22
2066.233228734695
 32
0.0
 70
    32
 71
     5
 42
-1.0
 73
     0
 74
     0
 75
     0
  3
MATSU
100
AcDbAlignedDimension
 13
1694.075279309898
 23
4538.681612038577
 33
0.0
 14
2454.075279309898
 24
4694.863938204405
 34
0.0
100
AcDbRotatedDimension
1001
ACAD
1000
DSTYLE
1002
{
1070
    40
1040
35.0
1002
}
  0
DIMENSION
  5
7C88
330
19
100
AcDbEntity
  8
3
100
AcDbDimension
280
     0
  2
*D7
 10
3419.276841808517
 20
4742.014998965035
 30
0.0
 11
2936.676060559208
 21
4812.014998965034
 31
0.0
 12
1040.611268947712
 22
2066.233228734695
 32
0.0
 70
    32
  1
969
 71
     5
 42
-1.0
 73
     0
 74
     0
 75
     0
  3
MATSU
100
AcDbAlignedDimension
 13
2454.075279309898
 23
4694.863938204405
 33
0.0
 14
3419.276841808517
 24
3287.681612038579
 34
0.0
100
AcDbRotatedDimension
1001
ACAD
1000
DSTYLE
1002
{
1070
    40
1040
35.0
1002
}
  0
LINE
  5
7C89
330
19
100
AcDbEntity
  8
1
100
AcDbLine
 10
6584.213718127464
 20
2597.681612038578
 30
0.0
 11
6584.213718127464
 21
4485.681612038577
 31
0.0
  0
DIMENSION
  5
7C8A
330
19
100
AcDbEntity
  8
3
100
AcDbDimension
280
     0
  2
*D8
 10
2454.075279309898
 20
2068.108012130593
 30
0.0
 11
3349.075279309899
 21
2138.108012130593
 31
0.0
 70
    32
 71
     5
 42
1790.0
 73
     0
 74
     0
 75
     0
  3
MATSU
100
AcDbAlignedDimension
 13
4244.075279309898
 23
2267.681612038578
 33
0.0
 14
2454.075279309898
 24
2267.681612038578
 34
0.0
100
AcDbRotatedDimension
1001
ACAD
1000
DSTYLE
1002
{
1070
    40
1040
35.0
1002
}
  0
LINE
  5
7C8C
330
19
100
AcDbEntity
  8
1
100
AcDbLine
 10
4926.713718127462
 20
3224.681612038577
 30
0.0
 11
5016.913718127463
 21
3224.681612038577
 31
0.0
  0
LINE
  5
7C8D
330
19
100
AcDbEntity
  8
1
100
AcDbLine
 10
4916.713718127462
 20
3214.681612038577
 30
0.0
 11
4916.713718127462
 21
3084.681612038578
 31
0.0
  0
LINE
  5
7C8E
330
19
100
AcDbEntity
  8
1
100
AcDbLine
 10
5056.713718127462
 20
3224.681612038577
 30
0.0
 11
5056.713718127461
 21
3074.681612038577
 31
0.0
  0
LINE
  5
7C8F
330
19
100
AcDbEntity
  8
1
100
AcDbLine
 10
4926.713718127462
 20
3074.681612038577
 30
0.0
 11
5016.913718127463
 21
3074.681612038577
 31
0.0
  0
ARC
  5
7C90
330
19
100
AcDbEntity
  8
1
100
AcDbCircle
 10
4926.713718127462
 20
3214.681612038577
 30
0.0
 40
10.0
100
AcDbArc
 50
90.0
 51
180.0
  0
ARC
  5
7C91
330
19
100
AcDbEntity
  8
1
100
AcDbCircle
 10
4926.713718127462
 20
3084.681612038578
 30
0.0
 40
10.0
100
AcDbArc
 50
180.0
 51
270.0
  0
LINE
  5
7C92
330
19
100
AcDbEntity
  8
1
100
AcDbLine
 10
6626.713718127463
 20
3224.681612038577
 30
0.0
 11
6626.713718127463
 21
3074.681612038577
 31
0.0
  0
LINE
  5
7C93
330
19
100
AcDbEntity
  8
1
100
AcDbLine
 10
6766.713718127462
 20
3214.681612038577
 30
0.0
 11
6766.713718127462
 21
3084.681612038578
 31
0.0
  0
LINE
  5
7C94
330
19
100
AcDbEntity
  8
1
100
AcDbLine
 10
6756.713718127463
 20
3074.681612038577
 30
0.0
 11
6666.513718127466
 21
3074.681612038577
 31
0.0
  0
ARC
  5
7C95
330
19
100
AcDbEntity
  8
1
100
AcDbCircle
 10
6756.713718127463
 20
3084.681612038578
 30
0.0
 40
10.0
100
AcDbArc
 50
270.0
 51
0.0
  0
LINE
  5
7C96
330
19
100
AcDbEntity
  8
1
100
AcDbLine
 10
6756.713718127463
 20
3224.681612038577
 30
0.0
 11
6666.513718127466
 21
3224.681612038577
 31
0.0
  0
ARC
  5
7C97
330
19
100
AcDbEntity
  8
1
100
AcDbCircle
 10
6756.713718127463
 20
3214.681612038577
 30
0.0
 40
10.0
100
AcDbArc
 50
0.0
 51
90.0
  0
LINE
  5
7C98
330
19
100
AcDbEntity
  8
1
100
AcDbLine
 10
4889.213718127462
 20
3327.681612038578
 30
0.0
 11
5084.213718127463
 21
3327.681612038578
 31
0.0
  0
LINE
  5
7C99
330
19
100
AcDbEntity
  8
1
100
AcDbLine
 10
4889.213718127463
 20
3247.681612038578
 30
0.0
 11
5084.213718127463
 21
3247.681612038578
 31
0.0
  0
LINE
  5
7C9A
330
19
100
AcDbEntity
  8
1
100
AcDbLine
 10
4889.213718127463
 20
3327.681612038578
 30
0.0
 11
4889.213718127463
 21
3247.681612038578
 31
0.0
  0
LINE
  5
7C9B
330
19
100
AcDbEntity
  8
1
100
AcDbLine
 10
4859.713718127464
 20
3320.181612038577
 30
0.0
 11
4889.213718127463
 21
3320.181612038577
 31
0.0
  0
LINE
  5
7C9C
330
19
100
AcDbEntity
  8
1
100
AcDbLine
 10
4859.713718127463
 20
3255.181612038577
 30
0.0
 11
4889.213718127463
 21
3255.181612038577
 31
0.0
  0
LINE
  5
7C9D
330
19
100
AcDbEntity
  8
1
100
AcDbLine
 10
5834.213718127462
 20
4905.599016911754
 30
0.0
 11
5834.213718127462
 21
4856.009893990766
 31
0.0
  0
DIMENSION
  5
7C9E
330
19
100
AcDbEntity
  8
3
100
AcDbDimension
280
     0
  2
*D9
 10
5834.213718127462
 20
4937.477742774925
 30
0.0
 11
5234.213718127462
 21
5034.977742774925
 31
0.0
 70
    32
  1
(<>)
 71
     5
 42
1200.0
 73
     0
 74
     0
 75
     0
  3
MATSU
100
AcDbAlignedDimension
 13
4634.213718127462
 23
3507.681612038578
 33
0.0
 14
5834.213718127462
 24
4905.599016911754
 34
0.0
100
AcDbRotatedDimension
1001
ACAD
1000
DSTYLE
1002
{
1070
    40
1040
35.0
1002
}
  0
DIMENSION
  5
7C9F
330
19
100
AcDbEntity
  8
3
100
AcDbDimension
280
     0
  2
*D10
 10
6764.213718127459
 20
4937.12861148395
 30
0.0
 11
6299.213718127461
 21
5034.628611483949
 31
0.0
 70
    32
  1
(<>)
 71
     5
 42
929.9999999999972
 73
     0
 74
     0
 75
     0
  3
MATSU
100
AcDbAlignedDimension
 13
5834.213718127462
 23
4905.599016911754
 33
0.0
 14
6764.213718127459
 24
3198.171123377281
 34
0.0
100
AcDbRotatedDimension
1001
ACAD
1000
DSTYLE
1002
{
1070
    40
1040
35.0
1002
}
  0
DIMENSION
  5
7CA0
330
19
100
AcDbEntity
  8
3
100
AcDbDimension
280
     0
  2
*D11
 10
6951.996484482977
 20
3847.681612038578
 30
0.0
 11
6881.996484482977
 21
3287.681612038578
 31
0.0
 12
190.4608768199578
 22
2066.233228734695
 32
0.0
 70
    32
  1
φ<>
 71
     5
 42
-1.0
 73
     0
 74
     0
 75
     0
  3
MATSU
100
AcDbAlignedDimension
 13
6589.713718127467
 23
2727.681612038578
 33
0.0
 14
6589.713718127467
 24
3847.681612038578
 34
0.0
 50
90.0
100
AcDbRotatedDimension
1001
ACAD
1000
DSTYLE
1002
{
1070
    40
1040
35.0
1002
}
  0
LINE
  5
7CA1
330
19
100
AcDbEntity
  8
1
100
AcDbLine
 10
6666.513718127465
 20
3224.681612038577
 30
0.0
 11
6626.713718127463
 21
3224.681612038577
 31
0.0
  0
LINE
  5
7CA2
330
19
100
AcDbEntity
  8
1
100
AcDbLine
 10
6666.513718127466
 20
3074.681612038577
 30
0.0
 11
6626.713718127463
 21
3074.681612038577
 31
0.0
  0
LINE
  5
7CA3
330
19
100
AcDbEntity
  8
1
100
AcDbLine
 10
5016.913718127463
 20
3224.681612038577
 30
0.0
 11
5056.713718127462
 21
3224.681612038577
 31
0.0
  0
LINE
  5
7CA4
330
19
100
AcDbEntity
  8
1
100
AcDbLine
 10
5016.913718127463
 20
3074.681612038577
 30
0.0
 11
5056.713718127462
 21
3074.681612038577
 31
0.0
  0
LINE
  5
7CA5
330
19
100
AcDbEntity
  8
1
100
AcDbLine
 10
1794.075279309898
 20
5695.076781572044
 30
0.0
 11
4244.075279309898
 21
5695.076781572043
 31
0.0
  0
LINE
  5
7CA6
330
19
100
AcDbEntity
  8
1
100
AcDbLine
 10
1794.075279309898
 20
7595.076781572041
 30
0.0
 11
3114.075279309898
 21
7595.076781572043
 31
0.0
  0
LINE
  5
7CA7
330
19
100
AcDbEntity
  8
1
100
AcDbLine
 10
1794.075279309898
 20
7595.076781572043
 30
0.0
 11
1794.075279309898
 21
7517.076781572041
 31
0.0
  0
LINE
  5
7CA8
330
19
100
AcDbEntity
  8
1
100
AcDbLine
 10
4244.075279309898
 20
6695.076781572042
 30
0.0
 11
4244.075279309898
 21
5695.076781572043
 31
0.0
  0
LINE
  5
7CA9
330
19
100
AcDbEntity
  8
1
100
AcDbLine
 10
3114.075279309898
 20
7595.076781572044
 30
0.0
 11
3114.075279309898
 21
7517.076781572042
 31
0.0
  0
LINE
  5
7CAA
330
19
100
AcDbEntity
  8
1
100
AcDbLine
 10
3423.075279309898
 20
6695.076781572042
 30
0.0
 11
4244.075279309898
 21
6695.076781572042
 31
0.0
  0
DIMENSION
  5
7CAB
330
19
100
AcDbEntity
  8
3
100
AcDbDimension
280
     0
  2
*D12
 10
1794.075279309898
 20
5363.352205541636
 30
0.0
 11
3019.075279309899
 21
5363.352205541636
 31
0.0
 12
1040.611268947712
 22
1696.823574404465
 32
0.0
 70
   160
 71
     5
 42
-1.0
 73
     0
 74
     0
 75
     0
  3
MATSU
100
AcDbAlignedDimension
 13
4244.075279309898
 23
5695.076781572043
 33
0.0
 14
1794.075279309898
 24
5695.076781572044
 34
0.0
100
AcDbRotatedDimension
1001
ACAD
1000
DSTYLE
1002
{
1070
    40
1040
35.0
1002
}
  0
DIMENSION
  5
7CAC
330
19
100
AcDbEntity
  8
3
100
AcDbDimension
280
     0
  2
*D13
 10
1395.086028788002
 20
5695.076781572044
 30
0.0
 11
1325.086028788002
 21
6645.076781572043
 31
0.0
 12
1040.611268947712
 22
1696.823574404465
 32
0.0
 70
    32
 71
     5
 42
-1.0
 73
     0
 74
     0
 75
     0
  3
MATSU
100
AcDbAlignedDimension
 13
1794.075279309898
 23
7595.076781572043
 33
0.0
 14
1794.075279309898
 24
5695.076781572044
 34
0.0
 50
270.0
100
AcDbRotatedDimension
1001
ACAD
1000
DSTYLE
1002
{
1070
    40
1040
35.0
1002
}
  0
DIMENSION
  5
7CAD
330
19
100
AcDbEntity
  8
3
100
AcDbDimension
280
     0
  2
*D14
 10
4644.668234232319
 20
5695.076781572043
 30
0.0
 11
4574.668234232318
 21
6195.076781572043
 31
0.0
 12
1040.611268947712
 22
1696.823574404465
 32
0.0
 70
    32
 71
     5
 42
-1.0
 73
     0
 74
     0
 75
     0
  3
MATSU
100
AcDbAlignedDimension
 13
4244.075279309898
 23
6695.076781572042
 33
0.0
 14
4244.075279309898
 24
5695.076781572043
 34
0.0
 50
270.0
100
AcDbRotatedDimension
1001
ACAD
1000
DSTYLE
1002
{
1070
    40
1040
35.0
1002
}
  0
DIMENSION
  5
7CAE
330
19
100
AcDbEntity
  8
3
100
AcDbDimension
280
     0
  2
*D15
 10
3114.075279309898
 20
7991.933917621387
 30
0.0
 11
3679.075279309898
 21
8061.933917621386
 31
0.0
 12
1040.611268947712
 22
1696.823574404465
 32
0.0
 70
    32
 71
     5
 42
-1.0
 73
     0
 74
     0
 75
     0
  3
MATSU
100
AcDbAlignedDimension
 13
4244.075279309898
 23
6695.076781572042
 33
0.0
 14
3114.075279309898
 24
7595.076781572043
 34
0.0
100
AcDbRotatedDimension
1001
ACAD
1000
DSTYLE
1002
{
1070
    40
1040
35.0
1002
}
  0
DIMENSION
  5
7CAF
330
19
100
AcDbEntity
  8
3
100
AcDbDimension
280
     0
  2
*D16
 10
1794.075279309898
 20
7991.933917621387
 30
0.0
 11
2454.075279309898
 21
8061.933917621386
 31
0.0
 12
1040.611268947712
 22
1696.823574404465
 32
0.0
 70
    32
 71
     5
 42
-1.0
 73
     0
 74
     0
 75
     0
  3
MATSU
100
AcDbAlignedDimension
 13
3114.075279309898
 23
7595.076781572044
 33
0.0
 14
1794.075279309898
 24
7595.076781572043
 34
0.0
100
AcDbRotatedDimension
1001
ACAD
1000
DSTYLE
1002
{
1070
    40
1040
35.0
1002
}
  0
ARC
  5
7CB0
330
19
100
AcDbEntity
  8
1
100
AcDbCircle
 10
2454.075279309898
 20
3287.681612038578
 30
0.0
 40
220.0
100
AcDbArc
 50
74.00416768647703
 51
254.0041676864771
  0
ARC
  5
7CB1
330
19
100
AcDbEntity
  8
1
100
AcDbCircle
 10
3954.075279309898
 20
2857.681612038577
 30
0.0
 40
220.0
100
AcDbArc
 50
254.0041676864771
 51
74.00416768647713
  0
LINE
  5
7CB2
330
19
100
AcDbEntity
  8
1
100
AcDbLine
 10
2514.700114582023
 20
3499.163595545986
 30
0.0
 11
4014.700114582022
 21
3069.163595545986
 31
0.0
  0
LINE
  5
7CB3
330
19
100
AcDbEntity
  8
1
100
AcDbLine
 10
2501.295791722023
 20
3437.936306499472
 30
0.0
 11
3989.453187021839
 21
2970.253383126739
 31
0.0
  0
LINE
  5
7CB4
330
19
100
AcDbEntity
  8
1
100
AcDbLine
 10
2414.519866080495
 20
3135.229589145305
 30
0.0
 11
3924.440112572948
 21
2743.463588537586
 31
0.0
  0
LINE
  5
7CB5
330
19
100
AcDbEntity
  8
1
100
AcDbLine
 10
2393.450444037775
 20
3076.199628531169
 30
0.0
 11
3893.450444037775
 21
2646.199628531169
 31
0.0
  0
POINT
  5
7CB7
330
19
100
AcDbEntity
  8
1
100
AcDbPoint
 10
1794.075279309898
 20
2342.681612038578
 30
0.0
  0
POINT
  5
7CB8
330
19
100
AcDbEntity
  8
1
100
AcDbPoint
 10
1794.075279309898
 20
2267.681612038578
 30
0.0
  0
LINE
  5
7CB9
330
19
100
AcDbEntity
  8
1
100
AcDbLine
 10
6662.213718127462
 20
2597.681612038578
 30
0.0
 11
6662.213718127462
 21
2447.681612038577
 31
0.0
  0
DIMENSION
  5
7CBA
330
19
100
AcDbEntity
  8
3
100
AcDbDimension
280
     0
  2
*D17
 10
6662.213718127443
 20
2068.332481345562
 30
0.0
 11
6248.213718127453
 21
2138.332481345562
 31
0.0
 70
    32
 71
     5
 42
827.99999999998
 73
     0
 74
     0
 75
     0
  3
MATSU
100
AcDbAlignedDimension
 13
5834.213718127463
 23
2267.681612038578
 33
0.0
 14
6662.213718127443
 24
2267.681612038578
 34
0.0
100
AcDbRotatedDimension
1001
ACAD
1000
DSTYLE
1002
{
1070
    40
1040
35.0
1002
}
  0
DIMENSION
  5
7CBB
330
19
100
AcDbEntity
  8
3
100
AcDbDimension
280
     0
  2
*D18
 10
5834.213718127463
 20
2068.332481345562
 30
0.0
 11
5298.213718127465
 21
2138.332481345562
 31
0.0
 70
    32
 71
     5
 42
1071.999999999997
 73
     0
 74
     0
 75
     0
  3
MATSU
100
AcDbAlignedDimension
 13
4762.213718127465
 23
2267.681612038578
 33
0.0
 14
5834.213718127463
 24
2267.681612038578
 34
0.0
100
AcDbRotatedDimension
1001
ACAD
1000
DSTYLE
1002
{
1070
    40
1040
35.0
1002
}
  0
CIRCLE
  5
7CBD
330
19
100
AcDbEntity
  8
1
100
AcDbCircle
 10
2454.075279309898
 20
3287.681612038578
 30
0.0
 40
560.0
  0
CIRCLE
  5
7CBE
330
19
100
AcDbEntity
  8
1
100
AcDbCircle
 10
2454.075279309898
 20
3287.681612038578
 30
0.0
 40
610.0
  0
LINE
  5
7CC2
330
19
100
AcDbEntity
  8
2
100
AcDbLine
 10
3954.075279309899
 20
5567.076781572044
 30
0.0
 11
3954.075279309898
 21
6456.576781572042
 31
0.0
  0
DIMENSION
  5
7CC3
330
19
100
AcDbEntity
  8
3
100
AcDbDimension
280
     0
  2
*D19
 10
6584.213718127464
 20
4712.940169027812
 30
0.0
 11
5834.213718127463
 21
4782.940169027812
 31
0.0
 12
190.4608768199578
 22
2066.233228734695
 32
0.0
 70
    32
 71
     5
 42
-1.0
 73
     0
 74
     0
 75
     0
  3
MATSU
100
AcDbAlignedDimension
 13
5084.213718127462
 23
4485.681612038577
 33
0.0
 14
6584.213718127464
 24
4485.681612038577
 34
0.0
100
AcDbRotatedDimension
1001
ACAD
1000
DSTYLE
1002
{
1070
    40
1040
35.0
1002
}
  0
LINE
  5
7CC4
330
19
100
AcDbEntity
  8
1
100
AcDbLine
 10
2234.075279309898
 20
5567.076781572044
 30
0.0
 11
4174.075279309898
 21
5567.076781572044
 31
0.0
  0
LINE
  5
7CC5
330
19
100
AcDbEntity
  8
1
100
AcDbLine
 10
2234.075279309898
 20
5817.076781572044
 30
0.0
 11
4174.075279309898
 21
5817.076781572043
 31
0.0
  0
LINE
  5
7CC6
330
19
100
AcDbEntity
  8
1
100
AcDbLine
 10
2234.075279309898
 20
5567.076781572043
 30
0.0
 11
2234.075279309898
 21
5817.076781572043
 31
0.0
  0
LINE
  5
7CC7
330
19
100
AcDbEntity
  8
1
100
AcDbLine
 10
4174.075279309898
 20
5567.076781572044
 30
0.0
 11
4174.075279309898
 21
5817.076781572043
 31
0.0
  0
LINE
  5
7CC8
330
19
100
AcDbEntity
  8
1
100
AcDbLine
 10
1694.075279309898
 20
7567.076781572042
 30
0.0
 11
1694.075279309898
 21
5967.076781572042
 31
0.0
  0
LINE
  5
7CC9
330
19
100
AcDbEntity
  8
1
100
AcDbLine
 10
3423.075279309898
 20
7517.076781572042
 30
0.0
 11
3423.075279309898
 21
6017.076781572043
 31
0.0
  0
LINE
  5
7CCA
330
19
100
AcDbEntity
  8
1
100
AcDbLine
 10
1694.075279309898
 20
7517.076781572042
 30
0.0
 11
3423.075279309898
 21
7517.076781572042
 31
0.0
  0
LINE
  5
7CCB
330
19
100
AcDbEntity
  8
1
100
AcDbLine
 10
1694.075279309898
 20
6017.076781572041
 30
0.0
 11
3423.075279309898
 21
6017.076781572043
 31
0.0
  0
LINE
  5
7CCC
330
19
100
AcDbEntity
  8
1
100
AcDbLine
 10
1694.075279309898
 20
7567.076781572042
 30
0.0
 11
1698.075279309898
 21
7567.07678157204
 31
0.0
  0
LINE
  5
7CCD
330
19
100
AcDbEntity
  8
1
100
AcDbLine
 10
1694.075279309898
 20
5967.076781572041
 30
0.0
 11
1698.075279309898
 21
5967.076781572041
 31
0.0
  0
LINE
  5
7CCE
330
19
100
AcDbEntity
  8
1
100
AcDbLine
 10
1698.075279309898
 20
7567.076781572042
 30
0.0
 11
1698.075279309898
 21
5967.076781572042
 31
0.0
  0
LINE
  5
7CCF
330
19
100
AcDbEntity
  8
1
100
AcDbLine
 10
2296.575279309898
 20
5764.076781572044
 30
0.0
 11
2296.575279309898
 21
5654.076781572044
 31
0.0
  0
LINE
  5
7CD0
330
19
100
AcDbEntity
  8
1
100
AcDbLine
 10
2611.575279309898
 20
5764.076781572044
 30
0.0
 11
2611.575279309898
 21
5654.076781572044
 31
0.0
  0
LINE
  5
7CD1
330
19
100
AcDbEntity
  8
1
100
AcDbLine
 10
3836.075279309898
 20
5654.076781572044
 30
0.0
 11
3836.075279309898
 21
5764.076781572043
 31
0.0
  0
LINE
  5
7CD2
330
19
100
AcDbEntity
  8
1
100
AcDbLine
 10
4072.075279309898
 20
5654.076781572044
 30
0.0
 11
4072.075279309898
 21
5764.076781572043
 31
0.0
  0
LINE
  5
7CD3
330
19
100
AcDbEntity
  8
1
100
AcDbLine
 10
2296.575279309898
 20
5654.076781572043
 30
0.0
 11
2611.575279309898
 21
5654.076781572045
 31
0.0
  0
LINE
  5
7CD4
330
19
100
AcDbEntity
  8
1
100
AcDbLine
 10
2296.575279309898
 20
5764.076781572043
 30
0.0
 11
2611.575279309898
 21
5764.076781572044
 31
0.0
  0
LINE
  5
7CD5
330
19
100
AcDbEntity
  8
1
100
AcDbLine
 10
3836.075279309898
 20
5764.076781572043
 30
0.0
 11
4072.075279309898
 21
5764.076781572043
 31
0.0
  0
LINE
  5
7CD6
330
19
100
AcDbEntity
  8
1
100
AcDbLine
 10
3836.075279309898
 20
5654.076781572044
 30
0.0
 11
4072.075279309898
 21
5654.076781572044
 31
0.0
  0
LINE
  5
7CD7
330
19
100
AcDbEntity
  8
1
100
AcDbLine
 10
3750.575279309899
 20
5799.076781572043
 30
0.0
 11
3750.575279309899
 21
6456.576781572043
 31
0.0
  0
LINE
  5
7CD8
330
19
100
AcDbEntity
  8
1
100
AcDbLine
 10
4157.575279309899
 20
5799.076781572043
 30
0.0
 11
4157.575279309898
 21
6456.576781572043
 31
0.0
  0
LINE
  5
7CD9
330
19
100
AcDbEntity
  8
1
100
AcDbLine
 10
3750.575279309899
 20
6456.576781572043
 30
0.0
 11
4157.575279309898
 21
6456.576781572043
 31
0.0
  0
LINE
  5
7CDA
330
19
100
AcDbEntity
  8
1
100
AcDbLine
 10
3750.575279309899
 20
5799.076781572043
 30
0.0
 11
4157.575279309899
 21
5799.076781572043
 31
0.0
  0
LINE
  5
7CDB
330
19
100
AcDbEntity
  8
1
100
AcDbLine
 10
3926.575279309899
 20
5764.076781572043
 30
0.0
 11
3926.575279309899
 21
5799.076781572043
 31
0.0
  0
LINE
  5
7CDC
330
19
100
AcDbEntity
  8
1
100
AcDbLine
 10
3981.575279309899
 20
5764.076781572043
 30
0.0
 11
3981.575279309899
 21
5799.076781572043
 31
0.0
  0
LINE
  5
7CDD
330
19
100
AcDbEntity
  8
1
100
AcDbLine
 10
2416.575279309898
 20
6017.076781572043
 30
0.0
 11
2416.575279309898
 21
5764.076781572043
 31
0.0
  0
LINE
  5
7CDE
330
19
100
AcDbEntity
  8
1
100
AcDbLine
 10
2491.575279309898
 20
6017.076781572042
 30
0.0
 11
2491.575279309898
 21
5764.076781572044
 31
0.0
  0
LINE
  5
7CDF
330
19
100
AcDbEntity
  8
1
100
AcDbLine
 10
4894.713718127462
 20
2654.181612038577
 30
0.0
 11
5551.713718127462
 21
2654.181612038577
 31
0.0
  0
LINE
  5
7CE0
330
19
100
AcDbEntity
  8
1
100
AcDbLine
 10
4894.713718127462
 20
3061.181612038577
 30
0.0
 11
5551.713718127462
 21
3061.181612038577
 31
0.0
  0
LINE
  5
7CE1
330
19
100
AcDbEntity
  8
1
100
AcDbLine
 10
4859.713718127462
 20
2885.181612038577
 30
0.0
 11
4894.713718127462
 21
2885.181612038577
 31
0.0
  0
LINE
  5
7CE2
330
19
100
AcDbEntity
  8
1
100
AcDbLine
 10
4859.713718127462
 20
2830.181612038578
 30
0.0
 11
4894.713718127462
 21
2830.181612038578
 31
0.0
  0
LINE
  5
7CE3
330
19
100
AcDbEntity
  8
1
100
AcDbLine
 10
4894.713718127462
 20
2654.181612038577
 30
0.0
 11
4894.713718127462
 21
3061.181612038577
 31
0.0
  0
DIMENSION
  5
7CE4
330
19
100
AcDbEntity
  8
3
100
AcDbDimension
280
     0
  2
*D20
 10
1694.075279309898
 20
4946.460895692585
 30
0.0
 11
2969.075279309898
 21
5016.460895692586
 31
0.0
 12
1040.611268947712
 22
2066.233228734695
 32
0.0
 70
    32
 71
     5
 42
-1.0
 73
     0
 74
     0
 75
     0
  3
MATSU
100
AcDbAlignedDimension
 13
4244.075279309898
 23
2597.681612038578
 33
0.0
 14
1694.075279309898
 24
4538.681612038577
 34
0.0
100
AcDbRotatedDimension
1001
ACAD
1000
DSTYLE
1002
{
1070
    40
1040
35.0
1002
}
  0
LINE
  5
7CEC
330
19
100
AcDbEntity
  8
1
100
AcDbLine
 10
4911.513718127463
 20
2691.889367859087
 30
0.0
 11
4911.513718127463
 21
2637.681612038578
 31
0.0
  0
DIMENSION
  5
7CEE
330
19
100
AcDbEntity
  8
3
100
AcDbDimension
280
     0
  2
*D21
 10
1186.402501805765
 20
2267.681612038578
 30
0.0
 11
1098.902501805765
 21
2007.681612038578
 31
0.0
 70
    32
 71
     5
 42
75.0
 73
     0
 74
     0
 75
     0
  3
IGA
100
AcDbAlignedDimension
 13
1794.075279309898
 23
2342.681612038578
 33
0.0
 14
1794.0752793099
 24
2267.681612038578
 34
0.0
 50
270.0
100
AcDbRotatedDimension
1001
ACAD
1000
DSTYLE
1002
{
1070
   287
1070
     3
1070
    40
1040
35.0
1070
   143
1040
0.039
1070
   172
1070
     1
1070
   271
1070
     0
1070
   279
1070
     0
1070
   288
1070
     1
1070
     6
1000
DOT
1002
}
  0
LINE
  5
7CEF
330
19
100
AcDbEntity
  8
1
100
AcDbLine
 10
1794.075279309898
 20
6017.076781572041
 30
0.0
 11
1794.075279309898
 21
5695.076781572044
 31
0.0
  0
LINE
  5
7CF0
330
19
100
AcDbEntity
  8
1
100
AcDbLine
 10
5551.713718127462
 20
2654.181612038577
 30
0.0
 11
5551.713718127462
 21
3061.181612038577
 31
0.0
  0
LINE
  5
7CF1
330
19
100
AcDbEntity
  8
1
100
AcDbLine
 10
5084.213718127465
 20
3061.181612038577
 30
0.0
 11
5084.213718127462
 21
4485.681612038577
 31
0.0
  0
LINE
  5
7CF2
330
19
100
AcDbEntity
  8
1
100
AcDbLine
 10
5466.44133866833
 20
2654.181612038577
 30
0.0
 11
5466.44133866833
 21
2597.681612038578
 31
0.0
  0
LINE
  5
7CF3
330
19
100
AcDbEntity
  8
1
100
AcDbLine
 10
4982.711689249692
 20
2654.181612038577
 30
0.0
 11
4982.711689249692
 21
2597.681612038578
 31
0.0
  0
LINE
  5
7F22
330
19
100
AcDbEntity
  8
4
100
AcDbLine
 10
6475.0
 20
1399.19048881781
 30
0.0
 11
6475.0
 21
699.1904888178105
 31
0.0
  0
LINE
  5
7F23
330
19
100
AcDbEntity
  8
4
100
AcDbLine
 10
4025.0
 20
1399.19048881781
 30
0.0
 11
4025.0
 21
699.1904888178105
 31
0.0
  0
LINE
  5
7F24
330
19
100
AcDbEntity
  8
4
100
AcDbLine
 10
2275.0
 20
1399.19048881781
 30
0.0
 11
2275.0
 21
699.1904888178105
 31
0.0
  0
LINE
  5
7F27
330
19
100
AcDbEntity
  8
4
100
AcDbLine
 10
2275.0
 20
699.1904888178105
 30
0.0
 11
6475.0
 21
699.1904888178105
 31
0.0
  0
LINE
  5
7F28
330
19
100
AcDbEntity
  8
4
100
AcDbLine
 10
2275.0
 20
1049.19048881781
 30
0.0
 11
6475.0
 21
1049.19048881781
 31
0.0
  0
TEXT
  5
7F29
330
19
100
AcDbEntity
  8
4
100
AcDbText
 10
2409.757282964156
 20
1159.591079350955
 30
0.0
 40
175.0
  1
機器名称
100
AcDbText
  0
TEXT
  5
7F2A
330
19
100
AcDbEntity
  8
4
100
AcDbText
 10
2401.903371086792
 20
774.9485373798489
 30
0.0
 40
175.0
  1
機器型番
100
AcDbText
  0
TEXT
  5
7F2B
330
19
100
AcDbEntity
  8
4
100
AcDbText
 10
4127.321178135882
 20
1126.072118016009
 30
0.0
 40
140.0
  1
ミツヤリミットロードファン
100
AcDbText
  0
TEXT
  5
7F2C
330
19
100
AcDbEntity
  8
4
100
AcDbText
 10
4153.290734549182
 20
759.2490337976123
 30
0.0
 40
175.0
  1
LL#7-5
100
AcDbText
  0
TEXT
  5
7F2E
330
19
100
AcDbEntity
  8
4
100
AcDbText
 10
2815.601111107797
 20
8342.000944663805
 30
0.0
 40
188.9999999999999
  1
床置防振ベット
100
AcDbText
  0
TEXT
  5
7F2F
330
19
100
AcDbEntity
  8
4
100
AcDbText
 10
1106.586576653062
 20
8868.583416697545
 30
0.0
 40
252.0
  1
遠心式両吸込両持リミットロードファン
100
AcDbText
  0
LINE
  5
7F30
330
19
100
AcDbEntity
  8
4
100
AcDbLine
 10
875.0
 20
8642.930639926817
 30
0.0
 11
6475.0
 21
8642.930639926817
 31
0.0
  0
LINE
  5
7F31
330
19
100
AcDbEntity
  8
4
100
AcDbLine
 10
875.0
 20
9342.930639926818
 30
0.0
 11
6475.0
 21
9342.930639926818
 31
0.0
  0
LINE
  5
7F32
330
19
100
AcDbEntity
  8
4
100
AcDbLine
 10
2275.0
 20
1399.19048881781
 30
0.0
 11
6475.0
 21
1399.19048881781
 31
0.0
  0
LINE
  5
7F33
330
19
100
AcDbEntity
  8
4
100
AcDbLine
 10
875.0
 20
9342.930639926818
 30
0.0
 11
875.0
 21
8642.930639926817
 31
0.0
  0
TEXT
  5
7F34
330
19
100
AcDbEntity
  8
4
100
AcDbText
 10
1290.095198258339
 20
8338.118171412203
 30
0.0
 40
188.9999999999999
  1
左回転左横向
100
AcDbText
  0
TEXT
  5
7F35
330
19
100
AcDbEntity
  8
4
100
AcDbText
 10
5141.393457372515
 20
9471.21378523358
 30
0.0
 40
196.0
  1
No.
100
AcDbText
  0
TEXT
  5
7F36
330
19
100
AcDbEntity
  8
4
100
AcDbText
 10
4589.536219100046
 20
8342.000944663805
 30
0.0
 40
188.9999999999999
  1
縮尺：1/35
100
AcDbText
  0
LINE
  5
7F37
330
19
100
AcDbEntity
  8
4
100
AcDbLine
 10
6475.0
 20
9342.930639926818
 30
0.0
 11
6475.0
 21
8642.930639926817
 31
0.0
  0
LINE
  5
7F38
330
19
100
AcDbEntity
  8
4
100
AcDbLine
 10
7350.0
 20
10325.0
 30
0.0
 11
7350.0
 21
10325.0
 31
0.0
  0
LINE
  5
7F39
330
19
100
AcDbEntity
  8
4
100
AcDbLine
 10
5042.160978259526
 20
9384.422540938905
 30
0.0
 11
5042.160978259526
 21
9753.282915424135
 31
0.0
  0
LINE
  5
7F3A
330
19
100
AcDbEntity
  8
4
100
AcDbLine
 10
5042.160978259526
 20
9753.282915424135
 30
0.0
 11
6475.0
 21
9753.282915424135
 31
0.0
  0
LINE
  5
7F3B
330
19
100
AcDbEntity
  8
4
100
AcDbLine
 10
6475.0
 20
9753.282915424135
 30
0.0
 11
6475.0
 21
9384.422540938905
 31
0.0
  0
LINE
  5
7F3C
330
19
100
AcDbEntity
  8
4
100
AcDbLine
 10
6475.0
 20
9384.422540938905
 30
0.0
 11
5042.160978259526
 21
9384.422540938905
 31
0.0
  0
LINE
  5
7F3D
330
19
100
AcDbEntity
  8
4
100
AcDbLine
 10
0.0
 20
0.0
 30
0.0
 11
0.0
 21
10325.0
 31
0.0
  0
LINE
  5
7F3E
330
19
100
AcDbEntity
  8
4
100
AcDbLine
 10
0.0
 20
10325.0
 30
0.0
 11
7350.0
 21
10325.0
 31
0.0
  0
LINE
  5
7F3F
330
19
100
AcDbEntity
  8
4
100
AcDbLine
 10
7350.0
 20
10325.0
 30
0.0
 11
7350.0
 21
0.0
 31
0.0
  0
LINE
  5
7F40
330
19
100
AcDbEntity
  8
4
100
AcDbLine
 10
7350.0
 20
0.0
 30
0.0
 11
0.0
 21
0.0
 31
0.0
  0
DIMENSION
  5
8034
330
19
100
AcDbEntity
  8
3
100
AcDbDimension
280
     0
  2
*D24
 10
1187.91241007264
 20
2447.681612038577
 30
0.0
 11
1020.41241007264
 21
2395.181612038578
 31
0.0
 70
    32
  1
   <>
 71
     5
 42
105.0
 73
     0
 74
     0
 75
     0
  3
IGA
100
AcDbAlignedDimension
 13
1794.075279309898
 23
2342.681612038578
 33
0.0
 14
1794.075279309898
 24
2447.681612038577
 34
0.0
 50
90.0
100
AcDbRotatedDimension
1001
ACAD
1000
DSTYLE
1002
{
1070
   172
1070
     1
1070
    76
1070
     1
1070
    75
1070
     1
1070
    40
1040
35.0
1070
     3
1000
(<>)
1070
   271
1070
     0
1070
     7
1000
_NONE
1070
     6
1000
_NONE
1070
   143
1040
0.039
1002
}
  0
DIMENSION
  5
8041
330
19
100
AcDbEntity
  8
3
100
AcDbDimension
280
     0
  2
*D25
 10
877.483499096168
 20
2267.681612038578
 30
0.0
 11
762.4834990961678
 21
3376.681612038578
 31
0.0
 70
    32
 71
     5
 42
2217.999999999999
 73
     0
 74
     0
 75
     0
  3
IGA
100
AcDbAlignedDimension
 13
1694.075279309898
 23
4485.681612038577
 33
0.0
 14
1794.0752793099
 24
2267.681612038578
 34
0.0
 50
90.0
100
AcDbRotatedDimension
1001
ACAD
1000
DSTYLE
1002
{
1070
   172
1070
     1
1070
    40
1040
35.0
1070
     3
1000
(<>)
1070
   271
1070
     0
1070
   143
1040
0.039
1002
}
  0
ENDSEC
  0
SECTION
  2
OBJECTS
  0
DICTIONARY
  5
C
330
0
100
AcDbDictionary
281
     1
  3
ACAD_CIP_PREVIOUS_PRODUCT_INFO
350
8102
  3
ACAD_COLOR
350
80E5
  3
ACAD_DETAILVIEWSTYLE
350
80FE
  3
ACAD_GROUP
350
D
  3
ACAD_LAYOUT
350
8063
  3
ACAD_MATERIAL
350
80B3
  3
ACAD_MLEADERSTYLE
350
80FA
  3
ACAD_MLINESTYLE
350
E
  3
ACAD_PLOTSETTINGS
350
8064
  3
ACAD_PLOTSTYLENAME
350
8061
  3
ACAD_SCALELIST
350
80E8
  3
ACAD_SECTIONVIEWSTYLE
350
80FC
  3
ACAD_TABLESTYLE
350
80E6
  3
ACAD_VISUALSTYLE
350
80CC
  3
ACDB_RECOMPOSE_DATA
350
81A2
  3
AcDbVariableDictionary
350
80A8
  3
AcDsDecomposeData
350
81A8
  0
DICTIONARY
  5
8186
330
2
100
AcDbDictionary
280
     1
281
     1
  3
ACAD_LAYERSTATES
360
8187
  0
DICTIONARY
  5
8179
330
F
100
AcDbDictionary
280
     1
281
     1
  3
ADSK_XREC_LAYER_RECONCILED
360
817A
  0
DICTIONARY
  5
817B
330
31
100
AcDbDictionary
280
     1
281
     1
  3
ADSK_XREC_LAYER_RECONCILED
360
817C
  0
DICTIONARY
  5
817D
330
76D0
100
AcDbDictionary
280
     1
281
     1
  3
ADSK_XREC_LAYER_RECONCILED
360
817E
  0
DICTIONARY
  5
817F
330
76D1
100
AcDbDictionary
280
     1
281
     1
  3
ADSK_XREC_LAYER_RECONCILED
360
8180
  0
DICTIONARY
  5
8181
330
76D2
100
AcDbDictionary
280
     1
281
     1
  3
ADSK_XREC_LAYER_RECONCILED
360
8182
  0
DICTIONARY
  5
8090
330
19
100
AcDbDictionary
280
     1
281
     1
  3
ACAD_LAYOUTSELFREF
360
8091
  0
DICTIONARY
  5
808E
330
16
100
AcDbDictionary
280
     1
281
     1
  3
ACAD_LAYOUTSELFREF
360
808F
  0
XRECORD
  5
8102
102
{ACAD_REACTORS
330
C
102
}
330
C
100
AcDbXrecord
280
     1
300
ACDLT
300
2023
300

  0
DICTIONARY
  5
80E5
102
{ACAD_REACTORS
330
C
102
}
330
C
100
AcDbDictionary
281
     1
  0
DICTIONARY
  5
80FE
102
{ACAD_REACTORS
330
C
102
}
330
C
100
AcDbDictionary
281
     1
  3
Metric50
350
80FF
  0
DICTIONARY
  5
D
102
{ACAD_REACTORS
330
C
102
}
330
C
100
AcDbDictionary
281
     1
  0
DICTIONARY
  5
8063
102
{ACAD_REACTORS
330
C
102
}
330
C
100
AcDbDictionary
281
     1
  3
Model
350
8065
  3
ﾚｲｱｳﾄ1
350
8066
  0
DICTIONARY
  5
80B3
102
{ACAD_REACTORS
330
C
102
}
330
C
100
AcDbDictionary
281
     1
  3
ByBlock
350
80BC
  3
ByLayer
350
80B4
  3
Global
350
80C4
  0
DICTIONARY
  5
80FA
102
{ACAD_REACTORS
330
C
102
}
330
C
100
AcDbDictionary
281
     1
  3
Standard
350
80FB
  0
DICTIONARY
  5
E
102
{ACAD_REACTORS
330
C
102
}
330
C
100
AcDbDictionary
281
     1
  3
STANDARD
350
1C
  0
DICTIONARY
  5
8064
102
{ACAD_REACTORS
330
C
102
}
330
C
100
AcDbDictionary
281
     1
  0
ACDBDICTIONARYWDFLT
  5
8061
102
{ACAD_REACTORS
330
C
102
}
330
C
100
AcDbDictionary
281
     1
  3
Normal
350
8062
100
AcDbDictionaryWithDefault
340
8062
  0
DICTIONARY
  5
80E8
102
{ACAD_REACTORS
330
C
102
}
330
C
100
AcDbDictionary
281
     1
  3
A0
350
80E9
  3
A1
350
80EA
  3
A2
350
80EB
  3
A3
350
80EC
  3
A4
350
80ED
  3
A5
350
80EE
  3
A6
350
80EF
  3
A7
350
80F0
  3
A8
350
80F1
  3
A9
350
80F2
  3
B0
350
80F3
  3
B1
350
80F4
  3
B2
350
80F5
  3
B3
350
80F6
  3
B4
350
80F7
  3
B5
350
80F8
  3
B6
350
80F9
  0
DICTIONARY
  5
80FC
102
{ACAD_REACTORS
330
C
102
}
330
C
100
AcDbDictionary
281
     1
  3
Metric50
350
80FD
  0
DICTIONARY
  5
80E6
102
{ACAD_REACTORS
330
C
102
}
330
C
100
AcDbDictionary
281
     1
  3
Standard
350
80E7
  0
DICTIONARY
  5
80CC
102
{ACAD_REACTORS
330
C
102
}
330
C
100
AcDbDictionary
281
     1
  3
2dWireframe
350
80D2
  3
Basic
350
80D1
  3
Brighten
350
80D8
  3
ColorChange
350
80DC
  3
Conceptual
350
80D5
  3
Dim
350
80D7
  3
EdgeColorOff
350
80E4
  3
Facepattern
350
80DB
  3
Flat
350
80CD
  3
FlatWithEdges
350
80CE
  3
Gouraud
350
80CF
  3
GouraudWithEdges
350
80D0
  3
Hidden
350
80D4
  3
JitterOff
350
80E2
  3
Linepattern
350
80DA
  3
OverhangOff
350
80E3
  3
Realistic
350
80D6
  3
Shaded
350
80E1
  3
Shaded with edges
350
80E0
  3
Shades of Gray
350
80DD
  3
Sketchy
350
80DE
  3
Thicken
350
80D9
  3
Wireframe
350
80D3
  3
X-Ray
350
80DF
  0
XRECORD
  5
81A2
102
{ACAD_REACTORS
330
C
102
}
330
C
100
AcDbXrecord
280
     1
 90
        1
330
80E7
  0
DICTIONARY
  5
80A8
102
{ACAD_REACTORS
330
C
102
}
330
C
100
AcDbDictionary
281
     1
  3
CANNOSCALE
350
8197
  3
CMLEADERSTYLE
350
8193
  3
CTABLESTYLE
350
8192
  3
CVIEWDETAILSTYLE
350
8194
  3
CVIEWSECTIONSTYLE
350
8195
  3
DIMASSOC
350
80A9
  3
LAYEREVAL
350
8199
  3
LAYERNOTIFY
350
819A
  3
LIGHTINGUNITS
350
8198
  3
MARKUPASSISTMODE
350
819F
  3
MSLTSCALE
350
8196
  0
DICTIONARY
  5
81A8
102
{ACAD_REACTORS
330
C
102
}
330
C
100
AcDbDictionary
281
     1
  3
AcDsRecords
350
81AA
  3
AcDsSchemas
350
81A9
1001
ACAD
1070
     2
  0
DICTIONARY
  5
8187
102
{ACAD_REACTORS
330
8186
102
}
330
8186
100
AcDbDictionary
281
     1
  0
XRECORD
  5
817A
102
{ACAD_REACTORS
330
8179
102
}
330
8179
100
AcDbXrecord
280
     1
290
     1
  0
XRECORD
  5
817C
102
{ACAD_REACTORS
330
817B
102
}
330
817B
100
AcDbXrecord
280
     1
290
     1
  0
XRECORD
  5
817E
102
{ACAD_REACTORS
330
817D
102
}
330
817D
100
AcDbXrecord
280
     1
290
     1
  0
XRECORD
  5
8180
102
{ACAD_REACTORS
330
817F
102
}
330
817F
100
AcDbXrecord
280
     1
290
     1
  0
XRECORD
  5
8182
102
{ACAD_REACTORS
330
8181
102
}
330
8181
100
AcDbXrecord
280
     1
290
     1
  0
XRECORD
  5
8091
102
{ACAD_REACTORS
330
8090
102
}
330
8090
100
AcDbXrecord
280
     1
340
19
  0
XRECORD
  5
808F
102
{ACAD_REACTORS
330
808E
102
}
330
808E
100
AcDbXrecord
280
     1
340
16
  0
ACDBDETAILVIEWSTYLE
  5
80FF
102
{ACAD_XDICTIONARY
360
81AD
102
}
102
{ACAD_REACTORS
330
80FE
102
}
330
80FE
100
AcDbModelDocViewStyle
 70
     0
  3
Metric50
290
     0
100
AcDbDetailViewStyle
 70
     0
 71
     0
 90
        3
 71
     1
340
10
 62
   256
 40
5.0
340
0
 62
   256
 40
5.0
300

 40
0.0
280
     1
 71
     2
340
15
 90
       25
 62
   256
 71
     3
340
10
 62
   256
 40
5.0
 90
        0
 40
15.0
 90
        1
300
%<\AcVar ViewDetailId>% (%<\AcVar ViewScale \f "%sn">%)
 71
     4
340
15
 90
       25
 62
   256
340
15
 90
       25
 62
   256
280
     0
  0
LAYOUT
  5
8065
102
{ACAD_REACTORS
330
8063
102
}
330
8063
100
AcDbPlotSettings
  1

  2
\\Txbo34x8944cqyd\EPSON LP-6100
  4

  6

 40
0.0
 41
0.0
 42
0.0
 43
0.0
 44
0.0
 45
0.0
 46
0.0
 47
0.0
 48
0.0
 49
0.0
140
0.0
141
0.0
142
1.0
143
1.0
 70
  1712
 72
     0
 73
     0
 74
     0
  7
GOD2000TABLE.ctb
 75
     0
147
1.0
 76
     0
 77
     2
 78
   300
148
0.0
149
0.0
100
AcDbLayout
  1
Model
 70
     1
 71
     0
 10
0.0
 20
0.0
 11
12.0
 21
9.0
 12
0.0
 22
0.0
 32
0.0
 14
0.0
 24
0.0
 34
0.0
 15
0.0
 25
0.0
 35
0.0
146
0.0
 13
0.0
 23
0.0
 33
0.0
 16
1.0
 26
0.0
 36
0.0
 17
0.0
 27
1.0
 37
0.0
 76
     0
330
19
331
80B1
  0
LAYOUT
  5
8066
102
{ACAD_REACTORS
330
8063
102
}
330
8063
100
AcDbPlotSettings
  1

  2
\\Txbo34x8944cqyd\EPSON LP-6100
  4

  6

 40
0.0
 41
0.0
 42
0.0
 43
0.0
 44
0.0
 45
0.0
 46
0.0
 47
0.0
 48
0.0
 49
0.0
140
0.0
141
0.0
142
1.0
143
1.0
 70
   688
 72
     0
 73
     0
 74
     5
  7
GOD2000TABLE.ctb
 75
    16
147
1.0
 76
     0
 77
     2
 78
   300
148
0.0
149
0.0
100
AcDbLayout
  1
ﾚｲｱｳﾄ1
 70
     1
 71
     1
 10
0.0
 20
0.0
 11
12.0
 21
9.0
 12
0.0
 22
0.0
 32
0.0
 14
1.000000000000000E+20
 24
1.000000000000000E+20
 34
1.000000000000000E+20
 15
-1.000000000000000E+20
 25
-1.000000000000000E+20
 35
-1.000000000000000E+20
146
0.0
 13
0.0
 23
0.0
 33
0.0
 16
1.0
 26
0.0
 36
0.0
 17
0.0
 27
1.0
 37
0.0
 76
     0
330
16
  0
MATERIAL
  5
80BC
102
{ACAD_XDICTIONARY
360
80BD
102
}
102
{ACAD_REACTORS
330
80B3
102
}
330
80B3
100
AcDbMaterial
  1
ByBlock
 72
     0
 43
0.0208333333333333
 43
0.0
 43
0.0
 43
0.0
 43
0.0
 43
0.0208333333333333
 43
0.0
 43
0.0
 43
0.0
 43
0.0
 43
1.0
 43
0.0
 43
0.0
 43
0.0
 43
0.0
 43
1.0
 77
     0
 47
0.0208333333333333
 47
0.0
 47
0.0
 47
0.0
 47
0.0
 47
0.0208333333333333
 47
0.0
 47
0.0
 47
0.0
 47
0.0
 47
1.0
 47
0.0
 47
0.0
 47
0.0
 47
0.0
 47
1.0
171
     0
 49
0.0208333333333333
 49
0.0
 49
0.0
 49
0.0
 49
0.0
 49
0.0208333333333333
 49
0.0
 49
0.0
 49
0.0
 49
0.0
 49
1.0
 49
0.0
 49
0.0
 49
0.0
 49
0.0
 49
1.0
175
     0
142
0.0208333333333333
142
0.0
142
0.0
142
0.0
142
0.0
142
0.0208333333333333
142
0.0
142
0.0
142
0.0
142
0.0
142
1.0
142
0.0
142
0.0
142
0.0
142
0.0
142
1.0
179
     0
144
0.0208333333333333
144
0.0
144
0.0
144
0.0
144
0.0
144
0.0208333333333333
144
0.0
144
0.0
144
0.0
144
0.0
144
1.0
144
0.0
144
0.0
144
0.0
144
0.0
144
1.0
147
0.0208333333333333
147
0.0
147
0.0
147
0.0
147
0.0
147
0.0208333333333333
147
0.0
147
0.0
147
0.0
147
0.0
147
1.0
147
0.0
147
0.0
147
0.0
147
0.0
147
1.0
  0
MATERIAL
  5
80B4
102
{ACAD_XDICTIONARY
360
80B5
102
}
102
{ACAD_REACTORS
330
80B3
102
}
330
80B3
100
AcDbMaterial
  1
ByLayer
 72
     0
 43
0.0208333333333333
 43
0.0
 43
0.0
 43
0.0
 43
0.0
 43
0.0208333333333333
 43
0.0
 43
0.0
 43
0.0
 43
0.0
 43
1.0
 43
0.0
 43
0.0
 43
0.0
 43
0.0
 43
1.0
 77
     0
 47
0.0208333333333333
 47
0.0
 47
0.0
 47
0.0
 47
0.0
 47
0.0208333333333333
 47
0.0
 47
0.0
 47
0.0
 47
0.0
 47
1.0
 47
0.0
 47
0.0
 47
0.0
 47
0.0
 47
1.0
171
     0
 49
0.0208333333333333
 49
0.0
 49
0.0
 49
0.0
 49
0.0
 49
0.0208333333333333
 49
0.0
 49
0.0
 49
0.0
 49
0.0
 49
1.0
 49
0.0
 49
0.0
 49
0.0
 49
0.0
 49
1.0
175
     0
142
0.0208333333333333
142
0.0
142
0.0
142
0.0
142
0.0
142
0.0208333333333333
142
0.0
142
0.0
142
0.0
142
0.0
142
1.0
142
0.0
142
0.0
142
0.0
142
0.0
142
1.0
179
     0
144
0.0208333333333333
144
0.0
144
0.0
144
0.0
144
0.0
144
0.0208333333333333
144
0.0
144
0.0
144
0.0
144
0.0
144
1.0
144
0.0
144
0.0
144
0.0
144
0.0
144
1.0
147
0.0208333333333333
147
0.0
147
0.0
147
0.0
147
0.0
147
0.0208333333333333
147
0.0
147
0.0
147
0.0
147
0.0
147
1.0
147
0.0
147
0.0
147
0.0
147
0.0
147
1.0
  0
MATERIAL
  5
80C4
102
{ACAD_XDICTIONARY
360
80C5
102
}
102
{ACAD_REACTORS
330
80B3
102
}
330
80B3
100
AcDbMaterial
  1
Global
 72
     0
 43
0.0208333333333333
 43
0.0
 43
0.0
 43
0.0
 43
0.0
 43
0.0208333333333333
 43
0.0
 43
0.0
 43
0.0
 43
0.0
 43
1.0
 43
0.0
 43
0.0
 43
0.0
 43
0.0
 43
1.0
 77
     0
 47
0.0208333333333333
 47
0.0
 47
0.0
 47
0.0
 47
0.0
 47
0.0208333333333333
 47
0.0
 47
0.0
 47
0.0
 47
0.0
 47
1.0
 47
0.0
 47
0.0
 47
0.0
 47
0.0
 47
1.0
171
     0
 49
0.0208333333333333
 49
0.0
 49
0.0
 49
0.0
 49
0.0
 49
0.0208333333333333
 49
0.0
 49
0.0
 49
0.0
 49
0.0
 49
1.0
 49
0.0
 49
0.0
 49
0.0
 49
0.0
 49
1.0
175
     0
142
0.0208333333333333
142
0.0
142
0.0
142
0.0
142
0.0
142
0.0208333333333333
142
0.0
142
0.0
142
0.0
142
0.0
142
1.0
142
0.0
142
0.0
142
0.0
142
0.0
142
1.0
179
     0
144
0.0208333333333333
144
0.0
144
0.0
144
0.0
144
0.0
144
0.0208333333333333
144
0.0
144
0.0
144
0.0
144
0.0
144
1.0
144
0.0
144
0.0
144
0.0
144
0.0
144
1.0
147
0.0208333333333333
147
0.0
147
0.0
147
0.0
147
0.0
147
0.0208333333333333
147
0.0
147
0.0
147
0.0
147
0.0
147
1.0
147
0.0
147
0.0
147
0.0
147
0.0
147
1.0
  0
MLEADERSTYLE
  5
80FB
102
{ACAD_REACTORS
330
80FA
102
}
330
80FA
100
AcDbMLeaderStyle
179
     2
170
     2
171
     1
172
     0
 90
        2
 40
0.0
 41
0.0
173
     1
 91
-1056964608
340
13
 92
       -2
290
     1
 42
2.0
291
     1
 43
0.36
  3
Standard
 44
4.0
300

342
10
174
     1
178
     6
175
     1
176
     0
 93
-1056964608
 45
4.0
292
     0
297
     0
 46
4.0
 94
-1056964608
 47
1.0
 49
1.0
140
1.0
293
     1
141
0.0
294
     1
177
     0
142
1.0
295
     0
296
     0
143
0.125
271
     0
272
     9
273
     9
298
     1
  0
MLINESTYLE
  5
1C
102
{ACAD_REACTORS
330
E
102
}
330
E
100
AcDbMlineStyle
  2
STANDARD
 70
     0
  3

 62
     0
 51
90.0
 52
90.0
 71
     2
 49
0.5
 62
   256
  6
BYLAYER
 49
-0.5
 62
   256
  6
BYLAYER
  0
ACDBPLACEHOLDER
  5
8062
102
{ACAD_REACTORS
330
8061
102
}
330
8061
  0
SCALE
  5
80E9
102
{ACAD_REACTORS
330
80E8
102
}
330
80E8
100
AcDbScale
 70
     0
300
1:1
140
1.0
141
1.0
290
     1
  0
SCALE
  5
80EA
102
{ACAD_REACTORS
330
80E8
102
}
330
80E8
100
AcDbScale
 70
     0
300
1:2
140
1.0
141
2.0
290
     0
  0
SCALE
  5
80EB
102
{ACAD_REACTORS
330
80E8
102
}
330
80E8
100
AcDbScale
 70
     0
300
1:4
140
1.0
141
4.0
290
     0
  0
SCALE
  5
80EC
102
{ACAD_REACTORS
330
80E8
102
}
330
80E8
100
AcDbScale
 70
     0
300
1:5
140
1.0
141
5.0
290
     0
  0
SCALE
  5
80ED
102
{ACAD_REACTORS
330
80E8
102
}
330
80E8
100
AcDbScale
 70
     0
300
1:8
140
1.0
141
8.0
290
     0
  0
SCALE
  5
80EE
102
{ACAD_REACTORS
330
80E8
102
}
330
80E8
100
AcDbScale
 70
     0
300
1:10
140
1.0
141
10.0
290
     0
  0
SCALE
  5
80EF
102
{ACAD_REACTORS
330
80E8
102
}
330
80E8
100
AcDbScale
 70
     0
300
1:16
140
1.0
141
16.0
290
     0
  0
SCALE
  5
80F0
102
{ACAD_REACTORS
330
80E8
102
}
330
80E8
100
AcDbScale
 70
     0
300
1:20
140
1.0
141
20.0
290
     0
  0
SCALE
  5
80F1
102
{ACAD_REACTORS
330
80E8
102
}
330
80E8
100
AcDbScale
 70
     0
300
1:30
140
1.0
141
30.0
290
     0
  0
SCALE
  5
80F2
102
{ACAD_REACTORS
330
80E8
102
}
330
80E8
100
AcDbScale
 70
     0
300
1:40
140
1.0
141
40.0
290
     0
  0
SCALE
  5
80F3
102
{ACAD_REACTORS
330
80E8
102
}
330
80E8
100
AcDbScale
 70
     0
300
1:50
140
1.0
141
50.0
290
     0
  0
SCALE
  5
80F4
102
{ACAD_REACTORS
330
80E8
102
}
330
80E8
100
AcDbScale
 70
     0
300
1:100
140
1.0
141
100.0
290
     0
  0
SCALE
  5
80F5
102
{ACAD_REACTORS
330
80E8
102
}
330
80E8
100
AcDbScale
 70
     0
300
2:1
140
2.0
141
1.0
290
     0
  0
SCALE
  5
80F6
102
{ACAD_REACTORS
330
80E8
102
}
330
80E8
100
AcDbScale
 70
     0
300
4:1
140
4.0
141
1.0
290
     0
  0
SCALE
  5
80F7
102
{ACAD_REACTORS
330
80E8
102
}
330
80E8
100
AcDbScale
 70
     0
300
8:1
140
8.0
141
1.0
290
     0
  0
SCALE
  5
80F8
102
{ACAD_REACTORS
330
80E8
102
}
330
80E8
100
AcDbScale
 70
     0
300
10:1
140
10.0
141
1.0
290
     0
  0
SCALE
  5
80F9
102
{ACAD_REACTORS
330
80E8
102
}
330
80E8
100
AcDbScale
 70
     0
300
100:1
140
100.0
141
1.0
290
     0
  0
ACDBSECTIONVIEWSTYLE
  5
80FD
102
{ACAD_XDICTIONARY
360
81AB
102
}
102
{ACAD_REACTORS
330
80FC
102
}
330
80FC
100
AcDbModelDocViewStyle
 70
     0
  3
Metric50
290
     0
100
AcDbSectionViewStyle
 70
     0
 71
     0
 90
      102
 71
     1
340
10
 62
   256
 40
5.0
340
0
340
0
 62
   256
 40
5.0
300
I, O, Q, S, X, Z
 40
10.0
 90
        0
 40
2.5
 90
        0
 71
     2
340
15
 90
       25
 62
   256
340
15
 90
       50
 62
   256
 40
5.0
 40
2.5
 40
5.0
 71
     3
340
10
 62
   256
 40
5.0
 90
        0
 40
15.0
 90
        1
300
%<\AcVar ViewSectionStartId>%-%<\AcVar ViewSectionEndId>% (%<\AcVar ViewScale \f "%sn">%)
 71
     4
 62
   256
 62
   257
300
ANSI31
 40
1.0
 90
        0
290
     0
290
     0
 90
        6
 40
0.0
 40
1.570796326794896
 40
0.2617993877991494
 40
1.308996938995747
 40
-0.2617993877991494
 40
1.832595714594046
  0
TABLESTYLE
  5
80E7
102
{ACAD_XDICTIONARY
360
81A0
102
}
102
{ACAD_REACTORS
330
80E6
102
}
330
80E6
100
AcDbTableStyle
280
     0
  3
Standard
 70
     0
 71
     0
 40
1.5
 41
1.5
280
     0
281
     0
  7
STANDARD
140
4.5
170
     2
 62
     0
 63
     7
283
     0
 90
      512
 91
        0
  1

274
    -2
284
     1
 64
     0
275
    -2
285
     1
 65
     0
276
    -2
286
     1
 66
     0
277
    -2
287
     1
 67
     0
278
    -2
288
     1
 68
     0
279
    -2
289
     1
 69
     0
  7
STANDARD
140
6.0
170
     5
 62
     0
 63
     7
283
     0
 90
      512
 91
        0
  1

274
    -2
284
     1
 64
     0
275
    -2
285
     1
 65
     0
276
    -2
286
     1
 66
     0
277
    -2
287
     1
 67
     0
278
    -2
288
     1
 68
     0
279
    -2
289
     1
 69
     0
  7
STANDARD
140
4.5
170
     5
 62
     0
 63
     7
283
     0
 90
      512
 91
        0
  1

274
    -2
284
     1
 64
     0
275
    -2
285
     1
 65
     0
276
    -2
286
     1
 66
     0
277
    -2
287
     1
 67
     0
278
    -2
288
     1
 68
     0
279
    -2
289
     1
 69
     0
  0
VISUALSTYLE
  5
80D2
102
{ACAD_REACTORS
330
80CC
102
}
330
80CC
100
AcDbVisualStyle
  2
2dWireframe
 70
     4
177
     3
291
     0
 70
    58
 90
        0
176
     1
 90
        2
176
     1
 90
        0
176
     1
 90
        0
176
     1
 40
0.6
176
     1
 40
30.0
176
     1
 62
     7
420
 16777215
176
     1
 90
        1
176
     1
 90
        4
176
     1
 62
     7
176
     1
 62
   257
176
     1
 90
        1
176
     1
 90
        1
176
     1
 40
1.0
176
     1
 90
        0
176
     1
 62
   257
176
     1
 40
1.0
176
     1
 90
        1
176
     1
 90
        6
176
     1
 90
        2
176
     1
 62
     7
176
     1
 90
        5
176
     1
 90
        0
176
     1
 90
        0
176
     1
290
     0
176
     1
 90
        1
176
     1
 40
0.0
176
     1
 90
        0
176
     1
290
     1
176
     1
290
     1
176
     1
290
     0
176
     1
290
     0
176
     1
290
     0
176
     1
290
     0
176
     1
290
     0
176
     1
290
     0
176
     1
290
     0
176
     1
 90
       50
176
     1
 40
0.0
176
     1
 40
1.0
176
     1
 90
        0
176
     1
 62
    18
420
        0
176
     1
 90
       50
176
     1
 90
        3
176
     1
 62
     5
420
      255
176
     1
290
     0
176
     1
 90
       50
176
     1
 90
       50
176
     1
 90
       50
176
     1
290
     0
176
     1
 90
       50
176
     1
 62
   256
176
     0
 40
1.0
176
     0
 90
        2
176
     1
  1
strokes_ogs.tif
176
     1
290
     0
176
     1
 40
1.0
176
     1
 40
1.0
176
     1
1001
ACAD
1000
AcDbSavedByObjectVersion
1070
     0
  0
VISUALSTYLE
  5
80D1
102
{ACAD_REACTORS
330
80CC
102
}
330
80CC
100
AcDbVisualStyle
  2
Basic
 70
     7
177
     3
291
     1
 70
    58
 90
        1
176
     1
 90
        0
176
     1
 90
        1
176
     1
 90
        0
176
     1
 40
0.6
176
     1
 40
30.0
176
     1
 62
     7
420
 16777215
176
     1
 90
        0
176
     1
 90
        4
176
     1
 62
     7
176
     1
 62
   257
176
     1
 90
        1
176
     1
 90
        1
176
     1
 40
1.0
176
     1
 90
        8
176
     1
 62
     7
176
     1
 40
1.0
176
     1
 90
        1
176
     1
 90
        6
176
     1
 90
        2
176
     1
 62
     7
176
     1
 90
        5
176
     1
 90
        0
176
     1
 90
        0
176
     1
290
     0
176
     1
 90
        1
176
     1
 40
0.0
176
     1
 90
        0
176
     1
290
     0
176
     1
290
     1
176
     1
290
     1
176
     1
290
     0
176
     1
290
     0
176
     1
290
     0
176
     1
290
     0
176
     1
290
     0
176
     1
290
     0
176
     1
 90
       50
176
     1
 40
0.0
176
     1
 40
1.0
176
     1
 90
        0
176
     1
 62
    18
420
        0
176
     1
 90
       50
176
     1
 90
        3
176
     1
 62
     5
420
      255
176
     1
290
     0
176
     1
 90
       50
176
     1
 90
       50
176
     1
 90
       50
176
     1
290
     0
176
     1
 90
       50
176
     1
 62
   256
176
     0
 40
1.0
176
     0
 90
        2
176
     1
  1
strokes_ogs.tif
176
     1
290
     0
176
     1
 40
1.0
176
     1
 40
1.0
176
     1
1001
ACAD
1000
AcDbSavedByObjectVersion
1070
     0
  0
VISUALSTYLE
  5
80D8
102
{ACAD_REACTORS
330
80CC
102
}
330
80CC
100
AcDbVisualStyle
  2
Brighten
 70
    12
177
     3
291
     1
 70
    58
 90
        2
176
     1
 90
        2
176
     1
 90
        0
176
     1
 90
        0
176
     1
 40
0.6
176
     1
 40
30.0
176
     1
 62
     7
420
 16777215
176
     1
 90
        1
176
     1
 90
        4
176
     1
 62
     7
176
     1
 62
   257
176
     1
 90
        1
176
     1
 90
        1
176
     1
 40
1.0
176
     1
 90
        8
176
     1
 62
     7
176
     1
 40
1.0
176
     1
 90
        1
176
     1
 90
        6
176
     1
 90
        2
176
     1
 62
     7
176
     1
 90
        5
176
     1
 90
        0
176
     1
 90
        0
176
     1
290
     0
176
     1
 90
        1
176
     1
 40
50.0
176
     1
 90
        0
176
     1
290
     0
176
     1
290
     1
176
     1
290
     1
176
     1
290
     0
176
     1
290
     0
176
     1
290
     0
176
     1
290
     0
176
     1
290
     0
176
     1
290
     0
176
     1
 90
       50
176
     1
 40
0.0
176
     1
 40
1.0
176
     1
 90
        0
176
     1
 62
    18
420
        0
176
     1
 90
       50
176
     1
 90
        3
176
     1
 62
     5
420
      255
176
     1
290
     0
176
     1
 90
       50
176
     1
 90
       50
176
     1
 90
       50
176
     1
290
     0
176
     1
 90
       50
176
     1
 62
   256
176
     0
 40
1.0
176
     0
 90
        2
176
     1
  1
strokes_ogs.tif
176
     1
290
     0
176
     1
 40
1.0
176
     1
 40
1.0
176
     1
1001
ACAD
1000
AcDbSavedByObjectVersion
1070
     0
  0
VISUALSTYLE
  5
80DC
102
{ACAD_REACTORS
330
80CC
102
}
330
80CC
100
AcDbVisualStyle
  2
ColorChange
 70
    16
177
     3
291
     1
 70
    58
 90
        2
176
     1
 90
        2
176
     1
 90
        3
176
     1
 90
        0
176
     1
 40
0.6
176
     1
 40
30.0
176
     1
 62
     8
420
  8421504
176
     1
 90
        1
176
     1
 90
        4
176
     1
 62
     7
176
     1
 62
   257
176
     1
 90
        1
176
     1
 90
        1
176
     1
 40
1.0
176
     1
 90
        8
176
     1
 62
     8
420
  8421504
176
     1
 40
1.0
176
     1
 90
        1
176
     1
 90
        6
176
     1
 90
        2
176
     1
 62
     7
176
     1
 90
        5
176
     1
 90
        0
176
     1
 90
        0
176
     1
290
     0
176
     1
 90
        1
176
     1
 40
0.0
176
     1
 90
        0
176
     1
290
     0
176
     1
290
     1
176
     1
290
     1
176
     1
290
     0
176
     1
290
     0
176
     1
290
     0
176
     1
290
     0
176
     1
290
     0
176
     1
290
     0
176
     1
 90
       50
176
     1
 40
0.0
176
     1
 40
1.0
176
     1
 90
        0
176
     1
 62
    18
420
        0
176
     1
 90
       50
176
     1
 90
        3
176
     1
 62
     5
420
      255
176
     1
290
     0
176
     1
 90
       50
176
     1
 90
       50
176
     1
 90
       50
176
     1
290
     0
176
     1
 90
       50
176
     1
 62
   256
176
     0
 40
1.0
176
     0
 90
        2
176
     1
  1
strokes_ogs.tif
176
     1
290
     0
176
     1
 40
1.0
176
     1
 40
1.0
176
     1
1001
ACAD
1000
AcDbSavedByObjectVersion
1070
     0
  0
VISUALSTYLE
  5
80D5
102
{ACAD_REACTORS
330
80CC
102
}
330
80CC
100
AcDbVisualStyle
  2
Conceptual
 70
     9
177
     3
291
     0
 70
    58
 90
        3
176
     1
 90
        2
176
     1
 90
        0
176
     1
 90
        0
176
     1
 40
0.6
176
     1
 40
30.0
176
     1
 62
     7
420
 16777215
176
     1
 90
        2
176
     1
 90
        2
176
     1
 62
     7
176
     1
 62
   257
176
     1
 90
        1
176
     1
 90
        1
176
     1
 40
179.0
176
     1
 90
        8
176
     1
 62
     7
176
     1
 40
1.0
176
     1
 90
        1
176
     1
 90
        6
176
     1
 90
        2
176
     1
 62
     7
176
     1
 90
        3
176
     1
 90
        0
176
     1
 90
        0
176
     1
290
     0
176
     1
 90
        1
176
     1
 40
0.0
176
     1
 90
        0
176
     1
290
     0
176
     1
290
     1
176
     1
290
     1
176
     1
290
     0
176
     1
290
     0
176
     1
290
     0
176
     1
290
     0
176
     1
290
     0
176
     1
290
     0
176
     1
 90
       50
176
     1
 40
0.0
176
     1
 40
1.0
176
     1
 90
        0
176
     1
 62
    18
420
        0
176
     1
 90
       50
176
     1
 90
        3
176
     1
 62
     5
420
      255
176
     1
290
     0
176
     1
 90
       50
176
     1
 90
       50
176
     1
 90
       50
176
     1
290
     0
176
     1
 90
       50
176
     1
 62
   256
176
     0
 40
1.0
176
     0
 90
        2
176
     1
  1
strokes_ogs.tif
176
     1
290
     0
176
     1
 40
1.0
176
     1
 40
1.0
176
     1
1001
ACAD
1000
AcDbSavedByObjectVersion
1070
     0
  0
VISUALSTYLE
  5
80D7
102
{ACAD_REACTORS
330
80CC
102
}
330
80CC
100
AcDbVisualStyle
  2
Dim
 70
    11
177
     3
291
     1
 70
    58
 90
        2
176
     1
 90
        2
176
     1
 90
        0
176
     1
 90
        0
176
     1
 40
0.6
176
     1
 40
30.0
176
     1
 62
     7
420
 16777215
176
     1
 90
        1
176
     1
 90
        4
176
     1
 62
     7
176
     1
 62
   257
176
     1
 90
        1
176
     1
 90
        1
176
     1
 40
1.0
176
     1
 90
        8
176
     1
 62
     7
176
     1
 40
1.0
176
     1
 90
        1
176
     1
 90
        6
176
     1
 90
        2
176
     1
 62
     7
176
     1
 90
        5
176
     1
 90
        0
176
     1
 90
        0
176
     1
290
     0
176
     1
 90
        1
176
     1
 40
-50.0
176
     1
 90
        0
176
     1
290
     0
176
     1
290
     1
176
     1
290
     1
176
     1
290
     0
176
     1
290
     0
176
     1
290
     0
176
     1
290
     0
176
     1
290
     0
176
     1
290
     0
176
     1
 90
       50
176
     1
 40
0.0
176
     1
 40
1.0
176
     1
 90
        0
176
     1
 62
    18
420
        0
176
     1
 90
       50
176
     1
 90
        3
176
     1
 62
     5
420
      255
176
     1
290
     0
176
     1
 90
       50
176
     1
 90
       50
176
     1
 90
       50
176
     1
290
     0
176
     1
 90
       50
176
     1
 62
   256
176
     0
 40
1.0
176
     0
 90
        2
176
     1
  1
strokes_ogs.tif
176
     1
290
     0
176
     1
 40
1.0
176
     1
 40
1.0
176
     1
1001
ACAD
1000
AcDbSavedByObjectVersion
1070
     0
  0
VISUALSTYLE
  5
80E4
102
{ACAD_REACTORS
330
80CC
102
}
330
80CC
100
AcDbVisualStyle
  2
EdgeColorOff
 70
    22
177
     3
291
     1
 70
    58
 90
        2
176
     0
 90
        2
176
     0
 90
        0
176
     0
 90
        0
176
     0
 40
0.6
176
     0
 40
30.0
176
     0
 62
     7
420
 16777215
176
     0
 90
        1
176
     0
 90
        4
176
     0
 62
     7
176
     0
 62
   257
176
     0
 90
        1
176
     0
 90
        1
176
     0
 40
1.0
176
     0
 90
        8
176
     2
 62
     7
176
     0
 40
1.0
176
     0
 90
        1
176
     0
 90
        6
176
     0
 90
        2
176
     0
 62
     7
176
     0
 90
        5
176
     0
 90
        0
176
     0
 90
        0
176
     0
290
     0
176
     0
 90
        1
176
     0
 40
0.0
176
     0
 90
        0
176
     0
290
     0
176
     0
290
     1
176
     0
290
     1
176
     0
290
     0
176
     0
290
     0
176
     0
290
     0
176
     0
290
     0
176
     0
290
     0
176
     0
290
     0
176
     0
 90
       50
176
     0
 40
0.0
176
     0
 40
1.0
176
     0
 90
        0
176
     0
 62
    18
420
        0
176
     0
 90
       50
176
     0
 90
        3
176
     0
 62
     5
420
      255
176
     0
290
     0
176
     0
 90
       50
176
     0
 90
       50
176
     0
 90
       50
176
     0
290
     0
176
     0
 90
       50
176
     0
 62
   256
176
     0
 40
1.0
176
     0
 90
        2
176
     0
  1
strokes_ogs.tif
176
     0
290
     0
176
     0
 40
1.0
176
     0
 40
1.0
176
     0
1001
ACAD
1000
AcDbSavedByObjectVersion
1070
     0
  0
VISUALSTYLE
  5
80DB
102
{ACAD_REACTORS
330
80CC
102
}
330
80CC
100
AcDbVisualStyle
  2
Facepattern
 70
    15
177
     3
291
     1
 70
    58
 90
        2
176
     1
 90
        2
176
     1
 90
        0
176
     1
 90
        0
176
     1
 40
0.6
176
     1
 40
30.0
176
     1
 62
     7
420
 16777215
176
     1
 90
        1
176
     1
 90
        4
176
     1
 62
     7
176
     1
 62
   257
176
     1
 90
        1
176
     1
 90
        1
176
     1
 40
1.0
176
     1
 90
        8
176
     1
 62
     7
176
     1
 40
1.0
176
     1
 90
        1
176
     1
 90
        6
176
     1
 90
        2
176
     1
 62
     7
176
     1
 90
        5
176
     1
 90
        0
176
     1
 90
        0
176
     1
290
     0
176
     1
 90
        1
176
     1
 40
0.0
176
     1
 90
        0
176
     1
290
     0
176
     1
290
     1
176
     1
290
     1
176
     1
290
     0
176
     1
290
     0
176
     1
290
     0
176
     1
290
     0
176
     1
290
     0
176
     1
290
     0
176
     1
 90
       50
176
     1
 40
0.0
176
     1
 40
1.0
176
     1
 90
        0
176
     1
 62
    18
420
        0
176
     1
 90
       50
176
     1
 90
        3
176
     1
 62
     5
420
      255
176
     1
290
     0
176
     1
 90
       50
176
     1
 90
       50
176
     1
 90
       50
176
     1
290
     0
176
     1
 90
       50
176
     1
 62
   256
176
     0
 40
1.0
176
     0
 90
        2
176
     1
  1
strokes_ogs.tif
176
     1
290
     0
176
     1
 40
1.0
176
     1
 40
1.0
176
     1
1001
ACAD
1000
AcDbSavedByObjectVersion
1070
     0
  0
VISUALSTYLE
  5
80CD
102
{ACAD_REACTORS
330
80CC
102
}
330
80CC
100
AcDbVisualStyle
  2
Flat
 70
     0
177
     3
291
     1
 70
    58
 90
        2
176
     1
 90
        1
176
     1
 90
        1
176
     1
 90
        2
176
     1
 40
0.6
176
     1
 40
30.0
176
     1
 62
     7
420
 16777215
176
     1
 90
        0
176
     1
 90
        0
176
     1
 62
     7
176
     1
 62
   257
176
     1
 90
        1
176
     1
 90
        1
176
     1
 40
1.0
176
     1
 90
        8
176
     1
 62
     7
176
     1
 40
1.0
176
     1
 90
        1
176
     1
 90
        6
176
     1
 90
        2
176
     1
 62
     7
176
     1
 90
        5
176
     1
 90
        0
176
     1
 90
        0
176
     1
290
     0
176
     1
 90
       13
176
     1
 40
0.0
176
     1
 90
        0
176
     1
290
     0
176
     1
290
     1
176
     1
290
     1
176
     1
290
     0
176
     1
290
     0
176
     1
290
     0
176
     1
290
     0
176
     1
290
     0
176
     1
290
     0
176
     1
 90
       50
176
     1
 40
0.0
176
     1
 40
1.0
176
     1
 90
        0
176
     1
 62
    18
420
        0
176
     1
 90
       50
176
     1
 90
        3
176
     1
 62
     5
420
      255
176
     1
290
     0
176
     1
 90
       50
176
     1
 90
       50
176
     1
 90
       50
176
     1
290
     0
176
     1
 90
       50
176
     1
 62
   256
176
     0
 40
1.0
176
     0
 90
        2
176
     1
  1
strokes_ogs.tif
176
     1
290
     0
176
     1
 40
1.0
176
     1
 40
1.0
176
     1
1001
ACAD
1000
AcDbSavedByObjectVersion
1070
     0
  0
VISUALSTYLE
  5
80CE
102
{ACAD_REACTORS
330
80CC
102
}
330
80CC
100
AcDbVisualStyle
  2
FlatWithEdges
 70
     1
177
     3
291
     1
 70
    58
 90
        2
176
     1
 90
        1
176
     1
 90
        1
176
     1
 90
        2
176
     1
 40
0.6
176
     1
 40
30.0
176
     1
 62
     7
420
 16777215
176
     1
 90
        1
176
     1
 90
        0
176
     1
 62
     7
176
     1
 62
   257
176
     1
 90
        1
176
     1
 90
        1
176
     1
 40
1.0
176
     1
 90
        0
176
     1
 62
   257
176
     1
 40
1.0
176
     1
 90
        1
176
     1
 90
        6
176
     1
 90
        2
176
     1
 62
     7
176
     1
 90
        5
176
     1
 90
        0
176
     1
 90
        0
176
     1
290
     0
176
     1
 90
       13
176
     1
 40
0.0
176
     1
 90
        0
176
     1
290
     0
176
     1
290
     1
176
     1
290
     1
176
     1
290
     0
176
     1
290
     0
176
     1
290
     0
176
     1
290
     0
176
     1
290
     0
176
     1
290
     0
176
     1
 90
       50
176
     1
 40
0.0
176
     1
 40
1.0
176
     1
 90
        0
176
     1
 62
    18
420
        0
176
     1
 90
       50
176
     1
 90
        3
176
     1
 62
     5
420
      255
176
     1
290
     0
176
     1
 90
       50
176
     1
 90
       50
176
     1
 90
       50
176
     1
290
     0
176
     1
 90
       50
176
     1
 62
   256
176
     0
 40
1.0
176
     0
 90
        2
176
     1
  1
strokes_ogs.tif
176
     1
290
     0
176
     1
 40
1.0
176
     1
 40
1.0
176
     1
1001
ACAD
1000
AcDbSavedByObjectVersion
1070
     0
  0
VISUALSTYLE
  5
80CF
102
{ACAD_REACTORS
330
80CC
102
}
330
80CC
100
AcDbVisualStyle
  2
Gouraud
 70
     2
177
     3
291
     1
 70
    58
 90
        2
176
     1
 90
        2
176
     1
 90
        1
176
     1
 90
        2
176
     1
 40
0.6
176
     1
 40
30.0
176
     1
 62
     7
420
 16777215
176
     1
 90
        0
176
     1
 90
        0
176
     1
 62
     7
176
     1
 62
   257
176
     1
 90
        1
176
     1
 90
        1
176
     1
 40
1.0
176
     1
 90
        0
176
     1
 62
     7
176
     1
 40
1.0
176
     1
 90
        1
176
     1
 90
        6
176
     1
 90
        2
176
     1
 62
     7
176
     1
 90
        5
176
     1
 90
        0
176
     1
 90
        0
176
     1
290
     0
176
     1
 90
       13
176
     1
 40
0.0
176
     1
 90
        0
176
     1
290
     0
176
     1
290
     1
176
     1
290
     1
176
     1
290
     0
176
     1
290
     0
176
     1
290
     0
176
     1
290
     0
176
     1
290
     0
176
     1
290
     0
176
     1
 90
       50
176
     1
 40
0.0
176
     1
 40
1.0
176
     1
 90
        0
176
     1
 62
    18
420
        0
176
     1
 90
       50
176
     1
 90
        3
176
     1
 62
     5
420
      255
176
     1
290
     0
176
     1
 90
       50
176
     1
 90
       50
176
     1
 90
       50
176
     1
290
     0
176
     1
 90
       50
176
     1
 62
   256
176
     0
 40
1.0
176
     0
 90
        2
176
     1
  1
strokes_ogs.tif
176
     1
290
     0
176
     1
 40
1.0
176
     1
 40
1.0
176
     1
1001
ACAD
1000
AcDbSavedByObjectVersion
1070
     0
  0
VISUALSTYLE
  5
80D0
102
{ACAD_REACTORS
330
80CC
102
}
330
80CC
100
AcDbVisualStyle
  2
GouraudWithEdges
 70
     3
177
     3
291
     1
 70
    58
 90
        2
176
     1
 90
        2
176
     1
 90
        1
176
     1
 90
        2
176
     1
 40
0.6
176
     1
 40
30.0
176
     1
 62
     7
420
 16777215
176
     1
 90
        1
176
     1
 90
        0
176
     1
 62
     7
176
     1
 62
   257
176
     1
 90
        1
176
     1
 90
        1
176
     1
 40
1.0
176
     1
 90
        0
176
     1
 62
   257
176
     1
 40
1.0
176
     1
 90
        1
176
     1
 90
        6
176
     1
 90
        2
176
     1
 62
     7
176
     1
 90
        5
176
     1
 90
        0
176
     1
 90
        0
176
     1
290
     0
176
     1
 90
       13
176
     1
 40
0.0
176
     1
 90
        0
176
     1
290
     0
176
     1
290
     1
176
     1
290
     1
176
     1
290
     0
176
     1
290
     0
176
     1
290
     0
176
     1
290
     0
176
     1
290
     0
176
     1
290
     0
176
     1
 90
       50
176
     1
 40
0.0
176
     1
 40
1.0
176
     1
 90
        0
176
     1
 62
    18
420
        0
176
     1
 90
       50
176
     1
 90
        3
176
     1
 62
     5
420
      255
176
     1
290
     0
176
     1
 90
       50
176
     1
 90
       50
176
     1
 90
       50
176
     1
290
     0
176
     1
 90
       50
176
     1
 62
   256
176
     0
 40
1.0
176
     0
 90
        2
176
     1
  1
strokes_ogs.tif
176
     1
290
     0
176
     1
 40
1.0
176
     1
 40
1.0
176
     1
1001
ACAD
1000
AcDbSavedByObjectVersion
1070
     0
  0
VISUALSTYLE
  5
80D4
102
{ACAD_REACTORS
330
80CC
102
}
330
80CC
100
AcDbVisualStyle
  2
Hidden
 70
     6
177
     3
291
     0
 70
    58
 90
        1
176
     1
 90
        2
176
     1
 90
        2
176
     1
 90
        0
176
     1
 40
0.6
176
     1
 40
30.0
176
     1
 62
     7
420
 16777215
176
     1
 90
        2
176
     1
 90
        2
176
     1
 62
     7
176
     1
 62
   257
176
     1
 90
        2
176
     1
 90
        1
176
     1
 40
40.0
176
     1
 90
        0
176
     1
 62
   257
176
     1
 40
1.0
176
     1
 90
        1
176
     1
 90
        6
176
     1
 90
        2
176
     1
 62
     7
176
     1
 90
        3
176
     1
 90
        0
176
     1
 90
        0
176
     1
290
     0
176
     1
 90
        1
176
     1
 40
0.0
176
     1
 90
        0
176
     1
290
     0
176
     1
290
     1
176
     1
290
     1
176
     1
290
     0
176
     1
290
     0
176
     1
290
     0
176
     1
290
     0
176
     1
290
     0
176
     1
290
     0
176
     1
 90
       50
176
     1
 40
0.0
176
     1
 40
1.0
176
     1
 90
        0
176
     1
 62
    18
420
        0
176
     1
 90
       50
176
     1
 90
        3
176
     1
 62
     5
420
      255
176
     1
290
     0
176
     1
 90
       50
176
     1
 90
       50
176
     1
 90
       50
176
     1
290
     0
176
     1
 90
       50
176
     1
 62
   256
176
     0
 40
1.0
176
     0
 90
        2
176
     1
  1
strokes_ogs.tif
176
     1
290
     0
176
     1
 40
1.0
176
     1
 40
1.0
176
     1
1001
ACAD
1000
AcDbSavedByObjectVersion
1070
     0
  0
VISUALSTYLE
  5
80E2
102
{ACAD_REACTORS
330
80CC
102
}
330
80CC
100
AcDbVisualStyle
  2
JitterOff
 70
    20
177
     3
291
     1
 70
    58
 90
        2
176
     0
 90
        2
176
     0
 90
        0
176
     0
 90
        0
176
     0
 40
0.6
176
     0
 40
30.0
176
     0
 62
     7
420
 16777215
176
     0
 90
        1
176
     0
 90
        4
176
     0
 62
     7
176
     0
 62
   257
176
     0
 90
        1
176
     0
 90
        1
176
     0
 40
1.0
176
     0
 90
       10
176
     2
 62
     7
176
     0
 40
1.0
176
     0
 90
        1
176
     0
 90
        6
176
     0
 90
        2
176
     0
 62
     7
176
     0
 90
        5
176
     0
 90
        0
176
     0
 90
        0
176
     0
290
     0
176
     0
 90
        1
176
     0
 40
0.0
176
     0
 90
        0
176
     0
290
     0
176
     0
290
     1
176
     0
290
     1
176
     0
290
     0
176
     0
290
     0
176
     0
290
     0
176
     0
290
     0
176
     0
290
     0
176
     0
290
     0
176
     0
 90
       50
176
     0
 40
0.0
176
     0
 40
1.0
176
     0
 90
        0
176
     0
 62
    18
420
        0
176
     0
 90
       50
176
     0
 90
        3
176
     0
 62
     5
420
      255
176
     0
290
     0
176
     0
 90
       50
176
     0
 90
       50
176
     0
 90
       50
176
     0
290
     0
176
     0
 90
       50
176
     0
 62
   256
176
     0
 40
1.0
176
     0
 90
        2
176
     0
  1
strokes_ogs.tif
176
     0
290
     0
176
     0
 40
1.0
176
     0
 40
1.0
176
     0
1001
ACAD
1000
AcDbSavedByObjectVersion
1070
     0
  0
VISUALSTYLE
  5
80DA
102
{ACAD_REACTORS
330
80CC
102
}
330
80CC
100
AcDbVisualStyle
  2
Linepattern
 70
    14
177
     3
291
     1
 70
    58
 90
        2
176
     1
 90
        2
176
     1
 90
        0
176
     1
 90
        0
176
     1
 40
0.6
176
     1
 40
30.0
176
     1
 62
     7
420
 16777215
176
     1
 90
        1
176
     1
 90
        4
176
     1
 62
     7
176
     1
 62
   257
176
     1
 90
        7
176
     1
 90
        7
176
     1
 40
1.0
176
     1
 90
        8
176
     1
 62
     7
176
     1
 40
1.0
176
     1
 90
        1
176
     1
 90
        6
176
     1
 90
        2
176
     1
 62
     7
176
     1
 90
        5
176
     1
 90
        0
176
     1
 90
        0
176
     1
290
     0
176
     1
 90
        1
176
     1
 40
0.0
176
     1
 90
        0
176
     1
290
     0
176
     1
290
     1
176
     1
290
     1
176
     1
290
     0
176
     1
290
     0
176
     1
290
     0
176
     1
290
     0
176
     1
290
     0
176
     1
290
     0
176
     1
 90
       50
176
     1
 40
0.0
176
     1
 40
1.0
176
     1
 90
        0
176
     1
 62
    18
420
        0
176
     1
 90
       50
176
     1
 90
        3
176
     1
 62
     5
420
      255
176
     1
290
     0
176
     1
 90
       50
176
     1
 90
       50
176
     1
 90
       50
176
     1
290
     0
176
     1
 90
       50
176
     1
 62
   256
176
     0
 40
1.0
176
     0
 90
        2
176
     1
  1
strokes_ogs.tif
176
     1
290
     0
176
     1
 40
1.0
176
     1
 40
1.0
176
     1
1001
ACAD
1000
AcDbSavedByObjectVersion
1070
     0
  0
VISUALSTYLE
  5
80E3
102
{ACAD_REACTORS
330
80CC
102
}
330
80CC
100
AcDbVisualStyle
  2
OverhangOff
 70
    21
177
     3
291
     1
 70
    58
 90
        2
176
     0
 90
        2
176
     0
 90
        0
176
     0
 90
        0
176
     0
 40
0.6
176
     0
 40
30.0
176
     0
 62
     7
420
 16777215
176
     0
 90
        1
176
     0
 90
        4
176
     0
 62
     7
176
     0
 62
   257
176
     0
 90
        1
176
     0
 90
        1
176
     0
 40
1.0
176
     0
 90
        9
176
     2
 62
     7
176
     0
 40
1.0
176
     0
 90
        1
176
     0
 90
        6
176
     0
 90
        2
176
     0
 62
     7
176
     0
 90
        5
176
     0
 90
        0
176
     0
 90
        0
176
     0
290
     0
176
     0
 90
        1
176
     0
 40
0.0
176
     0
 90
        0
176
     0
290
     0
176
     0
290
     1
176
     0
290
     1
176
     0
290
     0
176
     0
290
     0
176
     0
290
     0
176
     0
290
     0
176
     0
290
     0
176
     0
290
     0
176
     0
 90
       50
176
     0
 40
0.0
176
     0
 40
1.0
176
     0
 90
        0
176
     0
 62
    18
420
        0
176
     0
 90
       50
176
     0
 90
        3
176
     0
 62
     5
420
      255
176
     0
290
     0
176
     0
 90
       50
176
     0
 90
       50
176
     0
 90
       50
176
     0
290
     0
176
     0
 90
       50
176
     0
 62
   256
176
     0
 40
1.0
176
     0
 90
        2
176
     0
  1
strokes_ogs.tif
176
     0
290
     0
176
     0
 40
1.0
176
     0
 40
1.0
176
     0
1001
ACAD
1000
AcDbSavedByObjectVersion
1070
     0
  0
VISUALSTYLE
  5
80D6
102
{ACAD_REACTORS
330
80CC
102
}
330
80CC
100
AcDbVisualStyle
  2
Realistic
 70
     8
177
     3
291
     0
 70
    58
 90
        2
176
     1
 90
        3
176
     1
 90
        0
176
     1
 90
        2
176
     1
 40
0.6
176
     1
 40
30.0
176
     1
 62
     7
420
 16777215
176
     1
 90
        0
176
     1
 90
        0
176
     1
 62
     7
176
     1
 62
   257
176
     1
 90
        1
176
     1
 90
        1
176
     1
 40
1.0
176
     1
 90
        8
176
     1
 62
   257
176
     1
 40
1.0
176
     1
 90
        1
176
     1
 90
        6
176
     1
 90
        2
176
     1
 62
     7
176
     1
 90
        3
176
     1
 90
        0
176
     1
 90
        0
176
     1
290
     0
176
     1
 90
       13
176
     1
 40
0.0
176
     1
 90
        0
176
     1
290
     0
176
     1
290
     1
176
     1
290
     1
176
     1
290
     0
176
     1
290
     0
176
     1
290
     0
176
     1
290
     0
176
     1
290
     0
176
     1
290
     0
176
     1
 90
       50
176
     1
 40
0.0
176
     1
 40
1.0
176
     1
 90
        0
176
     1
 62
    18
420
        0
176
     1
 90
       50
176
     1
 90
        3
176
     1
 62
     5
420
      255
176
     1
290
     0
176
     1
 90
       50
176
     1
 90
       50
176
     1
 90
       50
176
     1
290
     0
176
     1
 90
       50
176
     1
 62
   256
176
     0
 40
1.0
176
     0
 90
        2
176
     1
  1
strokes_ogs.tif
176
     1
290
     0
176
     1
 40
1.0
176
     1
 40
1.0
176
     1
1001
ACAD
1000
AcDbSavedByObjectVersion
1070
     0
  0
VISUALSTYLE
  5
80E1
102
{ACAD_REACTORS
330
80CC
102
}
330
80CC
100
AcDbVisualStyle
  2
Shaded
 70
    27
177
     3
291
     0
 70
    58
 90
        2
176
     1
 90
        2
176
     1
 90
        1
176
     1
 90
        2
176
     1
 40
0.6
176
     1
 40
30.0
176
     1
 62
     7
420
 16777215
176
     1
 90
        0
176
     1
 90
        4
176
     1
 62
     7
176
     1
 62
   257
176
     1
 90
        1
176
     1
 90
        1
176
     1
 40
1.0
176
     1
 90
        8
176
     1
 62
   257
176
     1
 40
1.0
176
     1
 90
        1
176
     1
 90
        6
176
     1
 90
        2
176
     1
 62
     8
420
  7895160
176
     1
 90
        3
176
     1
 90
        0
176
     1
 90
        0
176
     1
290
     0
176
     1
 90
        5
176
     1
 40
0.0
176
     1
 90
        0
176
     1
290
     0
176
     1
290
     1
176
     1
290
     1
176
     1
290
     0
176
     1
290
     0
176
     1
290
     0
176
     1
290
     0
176
     1
290
     0
176
     1
290
     0
176
     1
 90
       50
176
     1
 40
0.0
176
     1
 40
1.0
176
     1
 90
        0
176
     1
 62
    18
420
        0
176
     1
 90
       50
176
     1
 90
        3
176
     1
 62
     5
420
      255
176
     1
290
     0
176
     1
 90
       50
176
     1
 90
       50
176
     1
 90
       50
176
     1
290
     0
176
     1
 90
       50
176
     1
 62
   256
176
     0
 40
1.0
176
     0
 90
        2
176
     1
  1
strokes_ogs.tif
176
     1
290
     0
176
     1
 40
1.0
176
     1
 40
1.0
176
     1
1001
ACAD
1000
AcDbSavedByObjectVersion
1070
     0
  0
VISUALSTYLE
  5
80E0
102
{ACAD_REACTORS
330
80CC
102
}
330
80CC
100
AcDbVisualStyle
  2
Shaded with edges
 70
    26
177
     3
291
     0
 70
    58
 90
        2
176
     1
 90
        2
176
     1
 90
        1
176
     1
 90
        2
176
     1
 40
0.6
176
     1
 40
30.0
176
     1
 62
     7
420
 16777215
176
     1
 90
        1
176
     1
 90
        2
176
     1
 62
     7
176
     1
 62
   257
176
     1
 90
        2
176
     1
 90
        1
176
     1
 40
1.0
176
     1
 90
        8
176
     1
 62
   257
176
     1
 40
1.0
176
     1
 90
        1
176
     1
 90
        6
176
     1
 90
        2
176
     1
 62
     7
176
     1
 90
        3
176
     1
 90
        0
176
     1
 90
        0
176
     1
290
     0
176
     1
 90
        5
176
     1
 40
0.0
176
     1
 90
        0
176
     1
290
     0
176
     1
290
     1
176
     1
290
     1
176
     1
290
     0
176
     1
290
     0
176
     1
290
     0
176
     1
290
     0
176
     1
290
     0
176
     1
290
     0
176
     1
 90
       50
176
     1
 40
0.0
176
     1
 40
1.0
176
     1
 90
        0
176
     1
 62
    18
420
        0
176
     1
 90
       50
176
     1
 90
        3
176
     1
 62
     5
420
      255
176
     1
290
     0
176
     1
 90
       50
176
     1
 90
       50
176
     1
 90
       50
176
     1
290
     0
176
     1
 90
       50
176
     1
 62
   256
176
     0
 40
1.0
176
     0
 90
        2
176
     1
  1
strokes_ogs.tif
176
     1
290
     0
176
     1
 40
1.0
176
     1
 40
1.0
176
     1
1001
ACAD
1000
AcDbSavedByObjectVersion
1070
     0
  0
VISUALSTYLE
  5
80DD
102
{ACAD_REACTORS
330
80CC
102
}
330
80CC
100
AcDbVisualStyle
  2
Shades of Gray
 70
    23
177
     3
291
     0
 70
    58
 90
        2
176
     1
 90
        2
176
     1
 90
        3
176
     1
 90
        0
176
     1
 40
0.6
176
     1
 40
30.0
176
     1
 62
     7
420
 16777215
176
     1
 90
        2
176
     1
 90
        2
176
     1
 62
     7
176
     1
 62
     7
176
     1
 90
        1
176
     1
 90
        1
176
     1
 40
40.0
176
     1
 90
        8
176
     1
 62
     7
176
     1
 40
1.0
176
     1
 90
        1
176
     1
 90
        6
176
     1
 90
        2
176
     1
 62
     7
176
     1
 90
        3
176
     1
 90
        0
176
     1
 90
        0
176
     1
290
     0
176
     1
 90
        1
176
     1
 40
0.0
176
     1
 90
        0
176
     1
290
     0
176
     1
290
     1
176
     1
290
     1
176
     1
290
     0
176
     1
290
     0
176
     1
290
     0
176
     1
290
     0
176
     1
290
     0
176
     1
290
     0
176
     1
 90
       50
176
     1
 40
0.0
176
     1
 40
1.0
176
     1
 90
        0
176
     1
 62
    18
420
        0
176
     1
 90
       50
176
     1
 90
        3
176
     1
 62
     5
420
      255
176
     1
290
     0
176
     1
 90
       50
176
     1
 90
       50
176
     1
 90
       50
176
     1
290
     0
176
     1
 90
       50
176
     1
 62
   256
176
     0
 40
1.0
176
     0
 90
        2
176
     1
  1
strokes_ogs.tif
176
     1
290
     0
176
     1
 40
1.0
176
     1
 40
1.0
176
     1
1001
ACAD
1000
AcDbSavedByObjectVersion
1070
     0
  0
VISUALSTYLE
  5
80DE
102
{ACAD_REACTORS
330
80CC
102
}
330
80CC
100
AcDbVisualStyle
  2
Sketchy
 70
    24
177
     3
291
     0
 70
    58
 90
        1
176
     1
 90
        2
176
     1
 90
        2
176
     1
 90
        0
176
     1
 40
0.6
176
     1
 40
30.0
176
     1
 62
     7
420
 16777215
176
     1
 90
        2
176
     1
 90
        2
176
     1
 62
     7
176
     1
 62
     7
176
     1
 90
        1
176
     1
 90
        1
176
     1
 40
40.0
176
     1
 90
       11
176
     1
 62
     7
176
     1
 40
1.0
176
     1
 90
        1
176
     1
 90
        6
176
     1
 90
        2
176
     1
 62
     7
176
     1
 90
        6
176
     1
 90
        0
176
     1
 90
        0
176
     1
290
     0
176
     1
 90
        1
176
     1
 40
0.0
176
     1
 90
        0
176
     1
290
     0
176
     1
290
     1
176
     1
290
     1
176
     1
290
     0
176
     1
290
     0
176
     1
290
     0
176
     1
290
     0
176
     1
290
     0
176
     1
290
     0
176
     1
 90
       50
176
     1
 40
0.0
176
     1
 40
1.0
176
     1
 90
        0
176
     1
 62
    18
420
        0
176
     1
 90
       50
176
     1
 90
        3
176
     1
 62
     5
420
      255
176
     1
290
     0
176
     1
 90
       50
176
     1
 90
       50
176
     1
 90
       50
176
     1
290
     0
176
     1
 90
       50
176
     1
 62
   256
176
     0
 40
1.0
176
     0
 90
        2
176
     1
  1
strokes_ogs.tif
176
     1
290
     0
176
     1
 40
1.0
176
     1
 40
1.0
176
     1
1001
ACAD
1000
AcDbSavedByObjectVersion
1070
     0
  0
VISUALSTYLE
  5
80D9
102
{ACAD_REACTORS
330
80CC
102
}
330
80CC
100
AcDbVisualStyle
  2
Thicken
 70
    13
177
     3
291
     1
 70
    58
 90
        2
176
     1
 90
        2
176
     1
 90
        0
176
     1
 90
        0
176
     1
 40
0.6
176
     1
 40
30.0
176
     1
 62
     7
420
 16777215
176
     1
 90
        1
176
     1
 90
        4
176
     1
 62
     7
176
     1
 62
   257
176
     1
 90
        1
176
     1
 90
        1
176
     1
 40
1.0
176
     1
 90
       12
176
     1
 62
     7
176
     1
 40
1.0
176
     1
 90
        1
176
     1
 90
        6
176
     1
 90
        2
176
     1
 62
     7
176
     1
 90
        5
176
     1
 90
        0
176
     1
 90
        0
176
     1
290
     0
176
     1
 90
        1
176
     1
 40
0.0
176
     1
 90
        0
176
     1
290
     0
176
     1
290
     1
176
     1
290
     1
176
     1
290
     0
176
     1
290
     0
176
     1
290
     0
176
     1
290
     0
176
     1
290
     0
176
     1
290
     0
176
     1
 90
       50
176
     1
 40
0.0
176
     1
 40
1.0
176
     1
 90
        0
176
     1
 62
    18
420
        0
176
     1
 90
       50
176
     1
 90
        3
176
     1
 62
     5
420
      255
176
     1
290
     0
176
     1
 90
       50
176
     1
 90
       50
176
     1
 90
       50
176
     1
290
     0
176
     1
 90
       50
176
     1
 62
   256
176
     0
 40
1.0
176
     0
 90
        2
176
     1
  1
strokes_ogs.tif
176
     1
290
     0
176
     1
 40
1.0
176
     1
 40
1.0
176
     1
1001
ACAD
1000
AcDbSavedByObjectVersion
1070
     0
  0
VISUALSTYLE
  5
80D3
102
{ACAD_REACTORS
330
80CC
102
}
330
80CC
100
AcDbVisualStyle
  2
Wireframe
 70
     5
177
     3
291
     0
 70
    58
 90
        0
176
     1
 90
        2
176
     1
 90
        0
176
     1
 90
        0
176
     1
 40
0.6
176
     1
 40
30.0
176
     1
 62
     7
420
 16777215
176
     1
 90
        1
176
     1
 90
        4
176
     1
 62
     7
176
     1
 62
   257
176
     1
 90
        1
176
     1
 90
        1
176
     1
 40
1.0
176
     1
 90
        0
176
     1
 62
   257
176
     1
 40
1.0
176
     1
 90
        1
176
     1
 90
        6
176
     1
 90
        2
176
     1
 62
     7
176
     1
 90
        3
176
     1
 90
        0
176
     1
 90
        0
176
     1
290
     0
176
     1
 90
        1
176
     1
 40
0.0
176
     1
 90
        0
176
     1
290
     0
176
     1
290
     1
176
     1
290
     1
176
     1
290
     0
176
     1
290
     0
176
     1
290
     0
176
     1
290
     0
176
     1
290
     0
176
     1
290
     0
176
     1
 90
       50
176
     1
 40
0.0
176
     1
 40
1.0
176
     1
 90
        0
176
     1
 62
    18
420
        0
176
     1
 90
       50
176
     1
 90
        3
176
     1
 62
     5
420
      255
176
     1
290
     0
176
     1
 90
       50
176
     1
 90
       50
176
     1
 90
       50
176
     1
290
     0
176
     1
 90
       50
176
     1
 62
   256
176
     0
 40
1.0
176
     0
 90
        2
176
     1
  1
strokes_ogs.tif
176
     1
290
     0
176
     1
 40
1.0
176
     1
 40
1.0
176
     1
1001
ACAD
1000
AcDbSavedByObjectVersion
1070
     0
  0
VISUALSTYLE
  5
80DF
102
{ACAD_REACTORS
330
80CC
102
}
330
80CC
100
AcDbVisualStyle
  2
X-Ray
 70
    25
177
     3
291
     0
 70
    58
 90
        2
176
     1
 90
        2
176
     1
 90
        1
176
     1
 90
        1
176
     1
 40
0.5
176
     1
 40
30.0
176
     1
 62
     7
420
 16777215
176
     1
 90
        1
176
     1
 90
        0
176
     1
 62
     7
176
     1
 62
   257
176
     1
 90
        1
176
     1
 90
        1
176
     1
 40
1.0
176
     1
 90
        8
176
     1
 62
     7
176
     1
 40
1.0
176
     1
 90
        1
176
     1
 90
        6
176
     1
 90
        2
176
     1
 62
     7
176
     1
 90
        3
176
     1
 90
        0
176
     1
 90
        0
176
     1
290
     0
176
     1
 90
       13
176
     1
 40
0.0
176
     1
 90
        0
176
     1
290
     0
176
     1
290
     1
176
     1
290
     1
176
     1
290
     0
176
     1
290
     0
176
     1
290
     0
176
     1
290
     0
176
     1
290
     0
176
     1
290
     0
176
     1
 90
       50
176
     1
 40
0.0
176
     1
 40
1.0
176
     1
 90
        0
176
     1
 62
    18
420
        0
176
     1
 90
       50
176
     1
 90
        3
176
     1
 62
     5
420
      255
176
     1
290
     0
176
     1
 90
       50
176
     1
 90
       50
176
     1
 90
       50
176
     1
290
     0
176
     1
 90
       50
176
     1
 62
   256
176
     0
 40
1.0
176
     0
 90
        2
176
     1
  1
strokes_ogs.tif
176
     1
290
     0
176
     1
 40
1.0
176
     1
 40
1.0
176
     1
1001
ACAD
1000
AcDbSavedByObjectVersion
1070
     0
  0
DICTIONARYVAR
  5
8197
102
{ACAD_REACTORS
330
80A8
102
}
330
80A8
100
DictionaryVariables
280
     0
  1
1:1
  0
DICTIONARYVAR
  5
8193
102
{ACAD_REACTORS
330
80A8
102
}
330
80A8
100
DictionaryVariables
280
     0
  1
STANDARD
  0
DICTIONARYVAR
  5
8192
102
{ACAD_REACTORS
330
80A8
102
}
330
80A8
100
DictionaryVariables
280
     0
  1
STANDARD
  0
DICTIONARYVAR
  5
8194
102
{ACAD_REACTORS
330
80A8
102
}
330
80A8
100
DictionaryVariables
280
     0
  1
Metric50
  0
DICTIONARYVAR
  5
8195
102
{ACAD_REACTORS
330
80A8
102
}
330
80A8
100
DictionaryVariables
280
     0
  1
Metric50
  0
DICTIONARYVAR
  5
80A9
102
{ACAD_REACTORS
330
80A8
102
}
330
80A8
100
DictionaryVariables
280
     0
  1
1
  0
DICTIONARYVAR
  5
8199
102
{ACAD_REACTORS
330
80A8
102
}
330
80A8
100
DictionaryVariables
280
     0
  1
1
  0
DICTIONARYVAR
  5
819A
102
{ACAD_REACTORS
330
80A8
102
}
330
80A8
100
DictionaryVariables
280
     0
  1
15
  0
DICTIONARYVAR
  5
8198
102
{ACAD_REACTORS
330
80A8
102
}
330
80A8
100
DictionaryVariables
280
     0
  1
0
  0
DICTIONARYVAR
  5
819F
102
{ACAD_REACTORS
330
80A8
102
}
330
80A8
100
DictionaryVariables
280
     0
  1
0
  0
DICTIONARYVAR
  5
8196
102
{ACAD_REACTORS
330
80A8
102
}
330
80A8
100
DictionaryVariables
280
     0
  1
0
  0
DICTIONARY
  5
81AA
102
{ACAD_REACTORS
330
81A8
102
}
330
81A8
100
AcDbDictionary
281
     1
  0
DICTIONARY
  5
81A9
102
{ACAD_REACTORS
330
81A8
102
}
330
81A8
100
AcDbDictionary
281
     1
  3
2047567912240
350
81A3
  3
2047567912256
350
81A4
  3
2047567912272
350
81A5
  3
2047567912288
350
81A6
  3
2047567912304
350
81A7
  0
DICTIONARY
  5
81AD
330
80FF
100
AcDbDictionary
280
     1
281
     1
  3
ACAD_XREC_ROUNDTRIP
360
81AE
  0
DICTIONARY
  5
80BD
330
80BC
100
AcDbDictionary
280
     1
281
     1
  3
BUMPTILE
360
80BF
  3
DIFFUSETILE
360
80BE
  3
OPACITYTILE
360
80C2
  3
REFLECTIONTILE
360
80C1
  3
REFRACTIONTILE
360
80C3
  3
SPECULARTILE
360
80C0
  0
DICTIONARY
  5
80B5
330
80B4
100
AcDbDictionary
280
     1
281
     1
  3
BUMPTILE
360
80B7
  3
DIFFUSETILE
360
80B6
  3
OPACITYTILE
360
80BA
  3
REFLECTIONTILE
360
80B9
  3
REFRACTIONTILE
360
80BB
  3
SPECULARTILE
360
80B8
  0
DICTIONARY
  5
80C5
330
80C4
100
AcDbDictionary
280
     1
281
     1
  3
BUMPTILE
360
80C7
  3
DIFFUSETILE
360
80C6
  3
OPACITYTILE
360
80CA
  3
REFLECTIONTILE
360
80C9
  3
REFRACTIONTILE
360
80CB
  3
SPECULARTILE
360
80C8
  0
DICTIONARY
  5
81AB
330
80FD
100
AcDbDictionary
280
     1
281
     1
  3
ACAD_XREC_ROUNDTRIP
360
81AC
  0
DICTIONARY
  5
81A0
330
80E7
100
AcDbDictionary
280
     1
281
     1
  3
ACAD_ROUNDTRIP_2008_TABLESTYLE_CELLSTYLEMAP
360
81A1
  0
XRECORD
  5
81A3
102
{ACAD_REACTORS
330
81A9
102
}
330
81A9
100
AcDbXrecord
280
     1
  1
AcDb_Thumbnail_Schema
102
{ATTRRECORD
341
81A4
  2
AcDbDs::TreatedAsObjectData
280
     1
291
     1
102
ATTRRECORD}
102
{ATTRRECORD
341
81A5
  2
AcDbDs::Legacy
280
     1
291
     1
102
ATTRRECORD}
  2
AcDbDs::ID
280
    10
 91
        8
102
{ATTRRECORD
341
81A6
  2
AcDs:Indexable
280
     1
291
     1
102
ATTRRECORD}
102
{ATTRRECORD
341
81A7
  2
AcDbDs::HandleAttribute
280
     7
282
     1
102
ATTRRECORD}
  2
Thumbnail_Data
280
    15
 91
        0
  0
XRECORD
  5
81A4
102
{ACAD_REACTORS
330
81A9
102
}
330
81A9
100
AcDbXrecord
280
     1
  1
AcDbDs::TreatedAsObjectDataSchema
  2
AcDbDs::TreatedAsObjectData
280
     1
 91
        0
  0
XRECORD
  5
81A5
102
{ACAD_REACTORS
330
81A9
102
}
330
81A9
100
AcDbXrecord
280
     1
  1
AcDbDs::LegacySchema
  2
AcDbDs::Legacy
280
     1
 91
        0
  0
XRECORD
  5
81A6
102
{ACAD_REACTORS
330
81A9
102
}
330
81A9
100
AcDbXrecord
280
     1
  1
AcDbDs::IndexedPropertySchema
  2
AcDs:Indexable
280
     1
 91
        0
  0
XRECORD
  5
81A7
102
{ACAD_REACTORS
330
81A9
102
}
330
81A9
100
AcDbXrecord
280
     1
  1
AcDbDs::HandleAttributeSchema
  2
AcDbDs::HandleAttribute
280
     7
 91
        1
284
     1
  0
XRECORD
  5
81AE
102
{ACAD_REACTORS
330
81AD
102
}
330
81AD
100
AcDbXrecord
280
     1
102
DISPLAYNAME
  1
Metric50
102
FLAGS
 90
        0
  0
XRECORD
  5
80BF
102
{ACAD_REACTORS
330
80BD
102
}
330
80BD
100
AcDbXrecord
280
     1
270
     1
271
     1
  0
XRECORD
  5
80BE
102
{ACAD_REACTORS
330
80BD
102
}
330
80BD
100
AcDbXrecord
280
     1
270
     1
271
     1
  0
XRECORD
  5
80C2
102
{ACAD_REACTORS
330
80BD
102
}
330
80BD
100
AcDbXrecord
280
     1
270
     1
271
     1
  0
XRECORD
  5
80C1
102
{ACAD_REACTORS
330
80BD
102
}
330
80BD
100
AcDbXrecord
280
     1
270
     1
271
     1
  0
XRECORD
  5
80C3
102
{ACAD_REACTORS
330
80BD
102
}
330
80BD
100
AcDbXrecord
280
     1
270
     1
271
     1
  0
XRECORD
  5
80C0
102
{ACAD_REACTORS
330
80BD
102
}
330
80BD
100
AcDbXrecord
280
     1
270
     1
271
     1
  0
XRECORD
  5
80B7
102
{ACAD_REACTORS
330
80B5
102
}
330
80B5
100
AcDbXrecord
280
     1
270
     1
271
     1
  0
XRECORD
  5
80B6
102
{ACAD_REACTORS
330
80B5
102
}
330
80B5
100
AcDbXrecord
280
     1
270
     1
271
     1
  0
XRECORD
  5
80BA
102
{ACAD_REACTORS
330
80B5
102
}
330
80B5
100
AcDbXrecord
280
     1
270
     1
271
     1
  0
XRECORD
  5
80B9
102
{ACAD_REACTORS
330
80B5
102
}
330
80B5
100
AcDbXrecord
280
     1
270
     1
271
     1
  0
XRECORD
  5
80BB
102
{ACAD_REACTORS
330
80B5
102
}
330
80B5
100
AcDbXrecord
280
     1
270
     1
271
     1
  0
XRECORD
  5
80B8
102
{ACAD_REACTORS
330
80B5
102
}
330
80B5
100
AcDbXrecord
280
     1
270
     1
271
     1
  0
XRECORD
  5
80C7
102
{ACAD_REACTORS
330
80C5
102
}
330
80C5
100
AcDbXrecord
280
     1
270
     1
271
     1
  0
XRECORD
  5
80C6
102
{ACAD_REACTORS
330
80C5
102
}
330
80C5
100
AcDbXrecord
280
     1
270
     1
271
     1
  0
XRECORD
  5
80CA
102
{ACAD_REACTORS
330
80C5
102
}
330
80C5
100
AcDbXrecord
280
     1
270
     1
271
     1
  0
XRECORD
  5
80C9
102
{ACAD_REACTORS
330
80C5
102
}
330
80C5
100
AcDbXrecord
280
     1
270
     1
271
     1
  0
XRECORD
  5
80CB
102
{ACAD_REACTORS
330
80C5
102
}
330
80C5
100
AcDbXrecord
280
     1
270
     1
271
     1
  0
XRECORD
  5
80C8
102
{ACAD_REACTORS
330
80C5
102
}
330
80C5
100
AcDbXrecord
280
     1
270
     1
271
     1
  0
XRECORD
  5
81AC
102
{ACAD_REACTORS
330
81AB
102
}
330
81AB
100
AcDbXrecord
280
     1
102
DISPLAYNAME
  1
Metric50
102
FLAGS
 90
        0
  0
CELLSTYLEMAP
  5
81A1
102
{ACAD_REACTORS
330
81A0
102
}
330
81A0
100
AcDbCellStyleMap
 90
        3
300
CELLSTYLE
  1
TABLEFORMAT_BEGIN
 90
        5
170
     1
 91
        0
 92
    32768
 62
   257
 93
        1
300
CONTENTFORMAT
  1
CONTENTFORMAT_BEGIN
 90
        0
 91
        0
 92
      512
 93
        0
300

 40
0.0
140
1.0
 94
        5
 62
     0
340
10
144
6.0
309
CONTENTFORMAT_END
171
     1
301
MARGIN
  1
CELLMARGIN_BEGIN
 40
1.5
 40
1.5
 40
1.5
 40
1.5
 40
4.5
 40
4.5
309
CELLMARGIN_END
 94
        6
 95
        1
302
GRIDFORMAT
  1
GRIDFORMAT_BEGIN
 90
        0
 91
        1
 62
     0
 92
       -2
340
0
 93
        0
 40
1.125
309
GRIDFORMAT_END
 95
        2
302
GRIDFORMAT
  1
GRIDFORMAT_BEGIN
 90
        0
 91
        1
 62
     0
 92
       -2
340
0
 93
        0
 40
1.125
309
GRIDFORMAT_END
 95
        4
302
GRIDFORMAT
  1
GRIDFORMAT_BEGIN
 90
        0
 91
        1
 62
     0
 92
       -2
340
0
 93
        0
 40
1.125
309
GRIDFORMAT_END
 95
        8
302
GRIDFORMAT
  1
GRIDFORMAT_BEGIN
 90
        0
 91
        1
 62
     0
 92
       -2
340
0
 93
        0
 40
1.125
309
GRIDFORMAT_END
 95
       16
302
GRIDFORMAT
  1
GRIDFORMAT_BEGIN
 90
        0
 91
        1
 62
     0
 92
       -2
340
0
 93
        0
 40
1.125
309
GRIDFORMAT_END
 95
       32
302
GRIDFORMAT
  1
GRIDFORMAT_BEGIN
 90
        0
 91
        1
 62
     0
 92
       -2
340
0
 93
        0
 40
1.125
309
GRIDFORMAT_END
309
TABLEFORMAT_END
  1
CELLSTYLE_BEGIN
 90
        1
 91
        1
300
_TITLE
309
CELLSTYLE_END
300
CELLSTYLE
  1
TABLEFORMAT_BEGIN
 90
        5
170
     1
 91
        0
 92
        0
 62
   257
 93
        1
300
CONTENTFORMAT
  1
CONTENTFORMAT_BEGIN
 90
        0
 91
        0
 92
      512
 93
        0
300

 40
0.0
140
1.0
 94
        5
 62
     0
340
10
144
4.5
309
CONTENTFORMAT_END
171
     1
301
MARGIN
  1
CELLMARGIN_BEGIN
 40
1.5
 40
1.5
 40
1.5
 40
1.5
 40
4.5
 40
4.5
309
CELLMARGIN_END
 94
        6
 95
        1
302
GRIDFORMAT
  1
GRIDFORMAT_BEGIN
 90
        0
 91
        1
 62
     0
 92
       -2
340
0
 93
        0
 40
1.125
309
GRIDFORMAT_END
 95
        2
302
GRIDFORMAT
  1
GRIDFORMAT_BEGIN
 90
        0
 91
        1
 62
     0
 92
       -2
340
0
 93
        0
 40
1.125
309
GRIDFORMAT_END
 95
        4
302
GRIDFORMAT
  1
GRIDFORMAT_BEGIN
 90
        0
 91
        1
 62
     0
 92
       -2
340
0
 93
        0
 40
1.125
309
GRIDFORMAT_END
 95
        8
302
GRIDFORMAT
  1
GRIDFORMAT_BEGIN
 90
        0
 91
        1
 62
     0
 92
       -2
340
0
 93
        0
 40
1.125
309
GRIDFORMAT_END
 95
       16
302
GRIDFORMAT
  1
GRIDFORMAT_BEGIN
 90
        0
 91
        1
 62
     0
 92
       -2
340
0
 93
        0
 40
1.125
309
GRIDFORMAT_END
 95
       32
302
GRIDFORMAT
  1
GRIDFORMAT_BEGIN
 90
        0
 91
        1
 62
     0
 92
       -2
340
0
 93
        0
 40
1.125
309
GRIDFORMAT_END
309
TABLEFORMAT_END
  1
CELLSTYLE_BEGIN
 90
        2
 91
        1
300
_HEADER
309
CELLSTYLE_END
300
CELLSTYLE
  1
TABLEFORMAT_BEGIN
 90
        5
170
     1
 91
        0
 92
        0
 62
   257
 93
        1
300
CONTENTFORMAT
  1
CONTENTFORMAT_BEGIN
 90
        0
 91
        0
 92
      512
 93
        0
300

 40
0.0
140
1.0
 94
        2
 62
     0
340
10
144
4.5
309
CONTENTFORMAT_END
171
     1
301
MARGIN
  1
CELLMARGIN_BEGIN
 40
1.5
 40
1.5
 40
1.5
 40
1.5
 40
4.5
 40
4.5
309
CELLMARGIN_END
 94
        6
 95
        1
302
GRIDFORMAT
  1
GRIDFORMAT_BEGIN
 90
        0
 91
        1
 62
     0
 92
       -2
340
0
 93
        0
 40
1.125
309
GRIDFORMAT_END
 95
        2
302
GRIDFORMAT
  1
GRIDFORMAT_BEGIN
 90
        0
 91
        1
 62
     0
 92
       -2
340
0
 93
        0
 40
1.125
309
GRIDFORMAT_END
 95
        4
302
GRIDFORMAT
  1
GRIDFORMAT_BEGIN
 90
        0
 91
        1
 62
     0
 92
       -2
340
0
 93
        0
 40
1.125
309
GRIDFORMAT_END
 95
        8
302
GRIDFORMAT
  1
GRIDFORMAT_BEGIN
 90
        0
 91
        1
 62
     0
 92
       -2
340
0
 93
        0
 40
1.125
309
GRIDFORMAT_END
 95
       16
302
GRIDFORMAT
  1
GRIDFORMAT_BEGIN
 90
        0
 91
        1
 62
     0
 92
       -2
340
0
 93
        0
 40
1.125
309
GRIDFORMAT_END
 95
       32
302
GRIDFORMAT
  1
GRIDFORMAT_BEGIN
 90
        0
 91
        1
 62
     0
 92
       -2
340
0
 93
        0
 40
1.125
309
GRIDFORMAT_END
309
TABLEFORMAT_END
  1
CELLSTYLE_BEGIN
 90
        3
 91
        2
300
_DATA
309
CELLSTYLE_END
  0
ENDSEC
  0
SECTION
  2
ACDSDATA
 70
     2
 71
     8
  0
ACDSSCHEMA
 90
        0
  1
AcDb_Thumbnail_Schema
  2
AcDbDs::ID
280
    10
 91
        8
  2
Thumbnail_Data
280
    15
 91
        0
101
ACDSRECORD
 95
        0
 90
        1
  2
AcDbDs::TreatedAsObjectData
280
     1
291
     1
101
ACDSRECORD
 95
        0
 90
        2
  2
AcDbDs::Legacy
280
     1
291
     1
101
ACDSRECORD
  1
AcDbDs::ID
 90
        3
  2
AcDs:Indexable
280
     1
291
     1
101
ACDSRECORD
  1
AcDbDs::ID
 90
        4
  2
AcDbDs::HandleAttribute
280
     7
282
     1
  0
ACDSSCHEMA
 90
        1
  1
AcDbDs::TreatedAsObjectDataSchema
  2
AcDbDs::TreatedAsObjectData
280
     1
 91
        0
  0
ACDSSCHEMA
 90
        2
  1
AcDbDs::LegacySchema
  2
AcDbDs::Legacy
280
     1
 91
        0
  0
ACDSSCHEMA
 90
        3
  1
AcDbDs::IndexedPropertySchema
  2
AcDs:Indexable
280
     1
 91
        0
  0
ACDSSCHEMA
 90
        4
  1
AcDbDs::HandleAttributeSchema
  2
AcDbDs::HandleAttribute
280
     7
 91
        1
284
     1
  0
ACDSRECORD
 90
        0
  2
AcDbDs::ID
280
    10
320
8065
  2
Thumbnail_Data
280
    15
 94
     1859
310
89504E470D0A1A0A0000000D49484452000001000000009108030000001BE1960600000300504C5445000000000000C8C8C80000000000000000000000000000000000000000000000000000330000660000990000CC0000FF0033000033330033660033990033CC0033FF0066000066330066660066990066CC0066FF0099
310
000099330099660099990099CC0099FF00CC0000CC3300CC6600CC9900CCCC00CCFF00FF0000FF3300FF6600FF9900FFCC00FFFF3300003300333300663300993300CC3300FF3333003333333333663333993333CC3333FF3366003366333366663366993366CC3366FF3399003399333399663399993399CC3399FF33CC00
310
33CC3333CC6633CC9933CCCC33CCFF33FF0033FF3333FF6633FF9933FFCC33FFFF6600006600336600666600996600CC6600FF6633006633336633666633996633CC6633FF6666006666336666666666996666CC6666FF6699006699336699666699996699CC6699FF66CC0066CC3366CC6666CC9966CCCC66CCFF66FF0066
310
FF3366FF6666FF9966FFCC66FFFF9900009900339900669900999900CC9900FF9933009933339933669933999933CC9933FF9966009966339966669966999966CC9966FF9999009999339999669999999999CC9999FF99CC0099CC3399CC6699CC9999CCCC99CCFF99FF0099FF3399FF6699FF9999FFCC99FFFFCC0000CC00
310
33CC0066CC0099CC00CCCC00FFCC3300CC3333CC3366CC3399CC33CCCC33FFCC6600CC6633CC6666CC6699CC66CCCC66FFCC9900CC9933CC9966CC9999CC99CCCC99FFCCCC00CCCC33CCCC66CCCC99CCCCCCCCCCFFCCFF00CCFF33CCFF66CCFF99CCFFCCCCFFFFFF0000FF0033FF0066FF0099FF00CCFF00FFFF3300FF3333
310
FF3366FF3399FF33CCFF33FFFF6600FF6633FF6666FF6699FF66CCFF66FFFF9900FF9933FF9966FF9999FF99CCFF99FFFFCC00FFCC33FFCC66FFCC99FFCCCCFFCCFFFFFF00FFFF33FFFF66FFFF99FFFFCCFFFFFF0000000D0D0D1A1A1A2828283535354343435050505D5D5D6B6B6B787878868686939393A1A1A1AEAEAEBB
310
BBBBC9C9C9D6D6D6E4E4E4F1F1F1FFFFFF00000000000000000000000000000000000000000000000000000000000008F1915C000003FE4944415478DAED9D5D72EB200C85B51C5ED8FF66D806EFB7060C123F0EE934BD9538CC344DB19B469F0F12C84A21FAC1167FA9D15F6DD1D49F010000000000000000F81FEFEC55EC
310
B70FE045DF010AA061BA170F1C02A72B4012385101CA9DE00757804A00A8796900F8DCBB8CD763E48EBD44B8FBF9BE954A01349B9BE117953AB033A2D87EA78E763EF23B58AA00305BEF2FE2440A806C6B3B5AA8D4EF7A01C4118070EDF56B5000B503098CE62150DC411D0ED93061557CF19A8802008099A0CEB540E49382
310
EACC982B1427B678D00542B519A1F9A5ECA2431F358A7B5CDE04D2A580390012005AB86B114228C69002C6F9411D216CE65801A81F021F792DA4C5D50208A93D75580510467B43EB61679805F0BA1DA180872E0000803300B8E3001417E787768C022ECBFCAA1D0380C62140A21F0000000000000000000000C01C80BCD03F
310
1C8073DECD1B14C0D6466F24864C0E01FF860E00C01600BE32B60760230CFAAB3301D8CD0D0300000000002803F094143D03409BFB0D27340076C32001403FF55FDC223803C02001D3005677C6863B6546578362B5FF08C0683E603BDD71168089DA51238421601A80CA3F03001F7B672F067DE715461F0100EA0084DD28B0
310
172914026045C1249FCB28101E83836A00948D0E02407806D06B3FD81B027300AB73752B2037B7127898EB40549602802A0042BE35E5B10560B55ED606E0F67E77C66F4C08AD00CC14E0D501A01E40318831381300B59F8F05302907380D4036D23A806BF69266301300C94A00381900B7E81400DD0765FC5B00D8EA412980
310
64BAA346C0BFAF80A04F01C400DC0655028601B0057F01E0B941FE3C005E02F8E644482F00E606198111403A6109206807D0AA211600BC4900391F90ED7322164E00905C312B07C0F321E9F301F7C39DE4700380EBF0F4E3055F9D4A1550A49D2EE2A50099F4D95740AA22D10D80BC74823704B7E503BEFA83B289D000A015
310
441545B43C995040538750803A002CF1EFEB3C40D488E6C756232446851F568FA41800F1ACB018FF39343005980490AF7336A88C81C2C05D01A20270CE7BFE99325B00EA3C80493F39416F5301F2E69FEF95CF9DE2860FD0970F48D900227909655294F983D93DA15101A44C013C0C3E34C72A45278786FFB8A211C0242728
310
673B7EBCD0630E511D80EEEEE89302BC3D05846D007E0DC05B03105E558B772784593DB9A20289202605322CC81A99209610A28AA83CB70780CC03188A1D376A0077EAC91502F8B0D000E0CFFA00020000000000000000A8C70FDC63A43BFE6D8B0C0288B29FEAEE12452AF55B3C0300DB60A5F1A0CAC40A8065FFBDADC8BD
310
FD5ABCB7EB8B75DB3538413B4380E8EDEDE3CCFB002EFC782880C836E33B01C0B49F8C2BE0742788C51000000000000000000000D805F04BED27DFF33FC5311E751F6FC2050000000049454E44AE426082
  0
ENDSEC
  0
EOF
