  0
SECTION
  2
HEADER
  9
$ACADVER
  1
AC1027
  9
$ACADMAINTVER
 70
   125
  9
$DWGCODEPAGE
  3
ANSI_932
  9
$LASTSAVEDBY
  1
yasukiyo.ogawa
  9
$REQUIREDVERSIONS
160
                 0
  9
$INSBASE
 10
0.0
 20
0.0
 30
0.0
  9
$EXTMIN
 10
0.0
 20
0.0
 30
0.0
  9
$EXTMAX
 10
7350.0
 20
10325.0
 30
0.0
  9
$LIMMIN
 10
0.0
 20
0.0
  9
$LIMMAX
 10
297.0
 20
210.0
  9
$ORTHOMODE
 70
     1
  9
$REGENMODE
 70
     1
  9
$FILLMODE
 70
     0
  9
$QTEXTMODE
 70
     0
  9
$MIRRTEXT
 70
     1
  9
$LTSCALE
 40
100.0
  9
$ATTMODE
 70
     1
  9
$TEXTSIZE
 40
180.0
  9
$TRACEWID
 40
0.05
  9
$TEXTSTYLE
  7
STANDARD
  9
$CLAYER
  8
3
  9
$CELTYPE
  6
BYLAYER
  9
$CECOLOR
 62
   256
  9
$CELTSCALE
 40
1.0
  9
$DISPSILH
 70
     0
  9
$DIMSCALE
 40
35.0
  9
$DIMASZ
 40
2.0
  9
$DIMEXO
 40
0.5
  9
$DIMDLI
 40
10.0
  9
$DIMRND
 40
0.0
  9
$DIMDLE
 40
0.0
  9
$DIMEXE
 40
1.0
  9
$DIMTP
 40
1.0
  9
$DIMTM
 40
1.0
  9
$DIMTXT
 40
3.0
  9
$DIMCEN
 40
0.0
  9
$DIMTSZ
 40
0.0
  9
$DIMTOL
 70
     0
  9
$DIMLIM
 70
     0
  9
$DIMTIH
 70
     0
  9
$DIMTOH
 70
     0
  9
$DIMSE1
 70
     0
  9
$DIMSE2
 70
     0
  9
$DIMTAD
 70
     1
  9
$DIMZIN
 70
     8
  9
$DIMBLK
  1

  9
$DIMASO
 70
     1
  9
$DIMSHO
 70
     1
  9
$DIMPOST
  1
(<>)
  9
$DIMAPOST
  1

  9
$DIMALT
 70
     0
  9
$DIMALTD
 70
     2
  9
$DIMALTF
 40
0.039
  9
$DIMLFAC
 40
1.0
  9
$DIMTOFL
 70
     1
  9
$DIMTVP
 40
0.0
  9
$DIMTIX
 70
     0
  9
$DIMSOXD
 70
     0
  9
$DIMSAH
 70
     1
  9
$DIMBLK1
  1
OPEN
  9
$DIMBLK2
  1
OPEN
  9
$DIMSTYLE
  2
IGA
  9
$DIMCLRD
 70
     0
  9
$DIMCLRE
 70
     0
  9
$DIMCLRT
 70
     0
  9
$DIMTFAC
 40
10.0
  9
$DIMGAP
 40
1.0
  9
$DIMJUST
 70
     0
  9
$DIMSD1
 70
     0
  9
$DIMSD2
 70
     0
  9
$DIMTOLJ
 70
     1
  9
$DIMTZIN
 70
     8
  9
$DIMALTZ
 70
     0
  9
$DIMALTTZ
 70
     0
  9
$DIMUPT
 70
     0
  9
$DIMDEC
 70
     0
  9
$DIMTDEC
 70
     0
  9
$DIMALTU
 70
     2
  9
$DIMALTTD
 70
     2
  9
$DIMTXSTY
  7
STANDARD
  9
$DIMAUNIT
 70
     0
  9
$DIMADEC
 70
     0
  9
$DIMALTRND
 40
0.0
  9
$DIMAZIN
 70
     0
  9
$DIMDSEP
 70
    46
  9
$DIMATFIT
 70
     3
  9
$DIMFRAC
 70
     0
  9
$DIMLDRBLK
  1
OPEN
  9
$DIMLUNIT
 70
     2
  9
$DIMLWD
 70
    -2
  9
$DIMLWE
 70
    -2
  9
$DIMTMOVE
 70
     2
  9
$DIMFXL
 40
1.0
  9
$DIMFXLON
 70
     0
  9
$DIMJOGANG
 40
0.7853981633974483
  9
$DIMTFILL
 70
     0
  9
$DIMTFILLCLR
 70
     0
  9
$DIMARCSYM
 70
     0
  9
$DIMLTYPE
  6

  9
$DIMLTEX1
  6

  9
$DIMLTEX2
  6

  9
$DIMTXTDIRECTION
 70
     0
  9
$LUNITS
 70
     2
  9
$LUPREC
 70
     3
  9
$SKETCHINC
 40
0.1
  9
$FILLETRAD
 40
50.0
  9
$AUNITS
 70
     0
  9
$AUPREC
 70
     0
  9
$MENU
  1
acad
  9
$ELEVATION
 40
0.0
  9
$PELEVATION
 40
0.0
  9
$THICKNESS
 40
0.0
  9
$LIMCHECK
 70
     0
  9
$CHAMFERA
 40
0.5
  9
$CHAMFERB
 40
0.5
  9
$CHAMFERC
 40
20.0
  9
$CHAMFERD
 40
0.0
  9
$SKPOLY
 70
     0
  9
$TDCREATE
 40
2451382.647326389
  9
$TDUCREATE
 40
2451382.272333102
  9
$TDUPDATE
 40
2460241.749432870
  9
$TDUUPDATE
 40
2460241.374438298
  9
$TDINDWG
 40
0.0173233333
  9
$TDUSRTIMER
 40
0.0173233333
  9
$USRTIMER
 70
     1
  9
$ANGBASE
 50
0.0
  9
$ANGDIR
 70
     0
  9
$PDMODE
 70
     0
  9
$PDSIZE
 40
0.0
  9
$PLINEWID
 40
0.0
  9
$SPLFRAME
 70
     0
  9
$SPLINETYPE
 70
     6
  9
$SPLINESEGS
 70
     8
  9
$HANDSEED
  5
8171
  9
$SURFTAB1
 70
     6
  9
$SURFTAB2
 70
     6
  9
$SURFTYPE
 70
     6
  9
$SURFU
 70
     6
  9
$SURFV
 70
     6
  9
$UCSBASE
  2

  9
$UCSNAME
  2

  9
$UCSORG
 10
0.0
 20
0.0
 30
0.0
  9
$UCSXDIR
 10
1.0
 20
0.0
 30
0.0
  9
$UCSYDIR
 10
0.0
 20
1.0
 30
0.0
  9
$UCSORTHOREF
  2

  9
$UCSORTHOVIEW
 70
     0
  9
$UCSORGTOP
 10
0.0
 20
0.0
 30
0.0
  9
$UCSORGBOTTOM
 10
0.0
 20
0.0
 30
0.0
  9
$UCSORGLEFT
 10
0.0
 20
0.0
 30
0.0
  9
$UCSORGRIGHT
 10
0.0
 20
0.0
 30
0.0
  9
$UCSORGFRONT
 10
0.0
 20
0.0
 30
0.0
  9
$UCSORGBACK
 10
0.0
 20
0.0
 30
0.0
  9
$PUCSBASE
  2

  9
$PUCSNAME
  2

  9
$PUCSORG
 10
0.0
 20
0.0
 30
0.0
  9
$PUCSXDIR
 10
1.0
 20
0.0
 30
0.0
  9
$PUCSYDIR
 10
0.0
 20
1.0
 30
0.0
  9
$PUCSORTHOREF
  2

  9
$PUCSORTHOVIEW
 70
     0
  9
$PUCSORGTOP
 10
0.0
 20
0.0
 30
0.0
  9
$PUCSORGBOTTOM
 10
0.0
 20
0.0
 30
0.0
  9
$PUCSORGLEFT
 10
0.0
 20
0.0
 30
0.0
  9
$PUCSORGRIGHT
 10
0.0
 20
0.0
 30
0.0
  9
$PUCSORGFRONT
 10
0.0
 20
0.0
 30
0.0
  9
$PUCSORGBACK
 10
0.0
 20
0.0
 30
0.0
  9
$USERI1
 70
     0
  9
$USERI2
 70
     0
  9
$USERI3
 70
     0
  9
$USERI4
 70
     0
  9
$USERI5
 70
     0
  9
$USERR1
 40
0.0
  9
$USERR2
 40
0.0
  9
$USERR3
 40
0.0
  9
$USERR4
 40
0.0
  9
$USERR5
 40
0.0
  9
$WORLDVIEW
 70
     1
  9
$SHADEDGE
 70
     3
  9
$SHADEDIF
 70
    70
  9
$TILEMODE
 70
     1
  9
$MAXACTVP
 70
    16
  9
$PINSBASE
 10
0.0
 20
0.0
 30
0.0
  9
$PLIMCHECK
 70
     0
  9
$PEXTMIN
 10
1.000000000000000E+20
 20
1.000000000000000E+20
 30
1.000000000000000E+20
  9
$PEXTMAX
 10
-1.000000000000000E+20
 20
-1.000000000000000E+20
 30
-1.000000000000000E+20
  9
$PLIMMIN
 10
0.0
 20
0.0
  9
$PLIMMAX
 10
12.0
 20
9.0
  9
$UNITMODE
 70
     0
  9
$VISRETAIN
 70
     0
  9
$PLINEGEN
 70
     0
  9
$PSLTSCALE
 70
     1
  9
$TREEDEPTH
 70
  3020
  9
$CMLSTYLE
  2
STANDARD
  9
$CMLJUST
 70
     0
  9
$CMLSCALE
 40
20.0
  9
$PROXYGRAPHICS
 70
     1
  9
$MEASUREMENT
 70
     1
  9
$CELWEIGHT
370
    -1
  9
$ENDCAPS
280
     0
  9
$JOINSTYLE
280
     0
  9
$LWDISPLAY
290
     0
  9
$INSUNITS
 70
     0
  9
$HYPERLINKBASE
  1

  9
$STYLESHEET
  1

  9
$XEDIT
290
     1
  9
$CEPSNTYPE
380
     0
  9
$PSTYLEMODE
290
     1
  9
$FINGERPRINTGUID
  2
{A740AC43-F242-475C-927A-E74B08FAF403}
  9
$VERSIONGUID
  2
{4A598113-6299-44B5-B9FE-F29987DD36C9}
  9
$EXTNAMES
290
     1
  9
$PSVPSCALE
 40
0.0
  9
$OLESTARTUP
290
     0
  9
$SORTENTS
280
   127
  9
$INDEXCTL
280
     0
  9
$HIDETEXT
280
     0
  9
$XCLIPFRAME
280
     2
  9
$HALOGAP
280
     0
  9
$OBSCOLOR
 70
   257
  9
$OBSLTYPE
280
     0
  9
$INTERSECTIONDISPLAY
280
     0
  9
$INTERSECTIONCOLOR
 70
   257
  9
$DIMASSOC
280
     1
  9
$PROJECTNAME
  1

  9
$CAMERADISPLAY
290
     0
  9
$LENSLENGTH
 40
50.0
  9
$CAMERAHEIGHT
 40
0.0
  9
$STEPSPERSEC
 40
2.0
  9
$STEPSIZE
 40
6.0
  9
$3DDWFPREC
 40
2.0
  9
$PSOLWIDTH
 40
0.25
  9
$PSOLHEIGHT
 40
4.0
  9
$LOFTANG1
 40
1.570796326794896
  9
$LOFTANG2
 40
1.570796326794896
  9
$LOFTMAG1
 40
0.0
  9
$LOFTMAG2
 40
0.0
  9
$LOFTPARAM
 70
     7
  9
$LOFTNORMALS
280
     1
  9
$LATITUDE
 40
37.795
  9
$LONGITUDE
 40
-122.394
  9
$NORTHDIRECTION
 40
0.0
  9
$TIMEZONE
 70
 -8000
  9
$LIGHTGLYPHDISPLAY
280
     1
  9
$TILEMODELIGHTSYNCH
280
     1
  9
$CMATERIAL
347
80B3
  9
$SOLIDHIST
280
     0
  9
$SHOWHIST
280
     1
  9
$DWFFRAME
280
     2
  9
$DGNFRAME
280
     0
  9
$REALWORLDSCALE
290
     1
  9
$INTERFERECOLOR
 62
     1
  9
$INTERFEREOBJVS
345
80D5
  9
$INTERFEREVPVS
346
80D2
  9
$CSHADOW
280
     0
  9
$SHADOWPLANELOCATION
 40
0.0
  0
ENDSEC
  0
SECTION
  2
CLASSES
  0
CLASS
  1
ACDBDICTIONARYWDFLT
  2
AcDbDictionaryWithDefault
  3
ObjectDBX Classes
 90
        0
 91
        1
280
     0
281
     0
  0
CLASS
  1
DICTIONARYVAR
  2
AcDbDictionaryVar
  3
ObjectDBX Classes
 90
        0
 91
       11
280
     0
281
     0
  0
CLASS
  1
MATERIAL
  2
AcDbMaterial
  3
ObjectDBX Classes
 90
     1153
 91
        3
280
     0
281
     0
  0
CLASS
  1
VISUALSTYLE
  2
AcDbVisualStyle
  3
ObjectDBX Classes
 90
     4095
 91
       24
280
     0
281
     0
  0
CLASS
  1
TABLESTYLE
  2
AcDbTableStyle
  3
ObjectDBX Classes
 90
     4095
 91
        1
280
     0
281
     0
  0
CLASS
  1
SCALE
  2
AcDbScale
  3
ObjectDBX Classes
 90
     1153
 91
       17
280
     0
281
     0
  0
CLASS
  1
MLEADERSTYLE
  2
AcDbMLeaderStyle
  3
ACDB_MLEADERSTYLE_CLASS
 90
     4095
 91
        1
280
     0
281
     0
  0
CLASS
  1
ACDBSECTIONVIEWSTYLE
  2
AcDbSectionViewStyle
  3
ObjectDBX Classes
 90
     1025
 91
        1
280
     0
281
     0
  0
CLASS
  1
ACDBDETAILVIEWSTYLE
  2
AcDbDetailViewStyle
  3
ObjectDBX Classes
 90
     1025
 91
        1
280
     0
281
     0
  0
CLASS
  1
CELLSTYLEMAP
  2
AcDbCellStyleMap
  3
ObjectDBX Classes
 90
     1152
 91
        1
280
     0
281
     0
  0
ENDSEC
  0
SECTION
  2
TABLES
  0
TABLE
  2
VPORT
  5
8
330
0
100
AcDbSymbolTable
 70
     1
1001
ACAD
1000
DbSaveVer
1071
      278
  0
VPORT
  5
80B0
330
8
100
AcDbSymbolTableRecord
100
AcDbViewportTableRecord
  2
*Active
 70
     0
 10
0.0
 20
0.0
 11
1.0
 21
1.0
 12
6224.610977130685
 22
5162.500024039763
 13
0.0
 23
0.0
 14
10.0
 24
10.0
 15
10.0
 25
10.0
 16
0.0
 26
0.0
 36
1.0
 17
0.0
 27
0.0
 37
0.0
 40
10391.74948481712
 41
2.250314465408805
 42
50.0
 43
0.0
 44
0.0
 50
0.0
 51
0.0
 71
     0
 72
   100
 73
     1
 74
     0
 75
     0
 76
     0
 77
     0
 78
     0
281
     0
 65
     1
110
0.0
120
0.0
130
0.0
111
1.0
121
0.0
131
0.0
112
0.0
122
1.0
132
0.0
 79
     0
146
0.0
348
80D1
 60
     3
 61
     5
292
     1
282
     1
141
0.0
142
0.0
 63
   250
421
  3355443
1001
ACAD_NAV_VCDISPLAY
1070
     3
  0
ENDTAB
  0
TABLE
  2
LTYPE
  5
5
330
0
100
AcDbSymbolTable
 70
     2
  0
LTYPE
  5
13
330
5
100
AcDbSymbolTableRecord
100
AcDbLinetypeTableRecord
  2
BYBLOCK
 70
     0
  3

 72
    65
 73
     0
 40
0.0
  0
LTYPE
  5
14
330
5
100
AcDbSymbolTableRecord
100
AcDbLinetypeTableRecord
  2
BYLAYER
 70
     0
  3

 72
    65
 73
     0
 40
0.0
  0
LTYPE
  5
15
330
5
100
AcDbSymbolTableRecord
100
AcDbLinetypeTableRecord
  2
CONTINUOUS
 70
     0
  3
Solid line
 72
    65
 73
     0
 40
0.0
  0
LTYPE
  5
1F
330
5
100
AcDbSymbolTableRecord
100
AcDbLinetypeTableRecord
  2
CENTER
 70
     0
  3
____ _ ____ _ ____ _ ____ _ ____ _ ____ _ ____ 
 72
    65
 73
     4
 40
2.0
 49
1.25
 74
     0
 49
-0.25
 74
     0
 49
0.25
 74
     0
 49
-0.25
 74
     0
  0
ENDTAB
  0
TABLE
  2
LAYER
  5
2
102
{ACAD_XDICTIONARY
360
8148
102
}
330
0
100
AcDbSymbolTable
 70
     6
  0
LAYER
  5
F
102
{ACAD_XDICTIONARY
360
813B
102
}
330
2
100
AcDbSymbolTableRecord
100
AcDbLayerTableRecord
  2
0
 70
     0
 62
     7
  6
CONTINUOUS
370
    -3
390
8062
347
80C3
348
0
  0
LAYER
  5
31
102
{ACAD_XDICTIONARY
360
813D
102
}
330
2
100
AcDbSymbolTableRecord
100
AcDbLayerTableRecord
  2
3
 70
     0
 62
     2
  6
CONTINUOUS
370
    -3
390
8062
347
80C3
348
0
  0
LAYER
  5
76D0
102
{ACAD_XDICTIONARY
360
813F
102
}
330
2
100
AcDbSymbolTableRecord
100
AcDbLayerTableRecord
  2
2
 70
     0
 62
     3
  6
CENTER
370
    -3
390
8062
347
80C3
348
0
  0
LAYER
  5
76D1
102
{ACAD_XDICTIONARY
360
8141
102
}
330
2
100
AcDbSymbolTableRecord
100
AcDbLayerTableRecord
  2
1
 70
     0
 62
     4
  6
CONTINUOUS
370
    -3
390
8062
347
80C3
348
0
  0
LAYER
  5
76D2
102
{ACAD_XDICTIONARY
360
8143
102
}
330
2
100
AcDbSymbolTableRecord
100
AcDbLayerTableRecord
  2
4
 70
     0
 62
     7
  6
CONTINUOUS
370
    -3
390
8062
347
80C3
348
0
  0
LAYER
  5
7B46
330
2
100
AcDbSymbolTableRecord
100
AcDbLayerTableRecord
  2
DEFPOINTS
 70
     0
 62
     7
  6
CONTINUOUS
290
     0
370
    -3
390
8062
347
80C3
348
0
  0
ENDTAB
  0
TABLE
  2
STYLE
  5
3
330
0
100
AcDbSymbolTable
 70
     1
  0
STYLE
  5
10
330
3
100
AcDbSymbolTableRecord
100
AcDbTextStyleTableRecord
  2
STANDARD
 70
     0
 40
0.0
 41
1.0
 50
0.0
 71
     0
 42
180.0
  3
simplex.shx
  4
extfont.shx
  0
ENDTAB
  0
TABLE
  2
VIEW
  5
6
330
0
100
AcDbSymbolTable
 70
     0
  0
ENDTAB
  0
TABLE
  2
UCS
  5
7
330
0
100
AcDbSymbolTable
 70
     0
  0
ENDTAB
  0
TABLE
  2
APPID
  5
9
330
0
100
AcDbSymbolTable
 70
     4
  0
APPID
  5
11
330
9
100
AcDbSymbolTableRecord
100
AcDbRegAppTableRecord
  2
ACAD
 70
     0
  0
APPID
  5
8102
330
9
100
AcDbSymbolTableRecord
100
AcDbRegAppTableRecord
  2
AcadAnnoMonitorAlertIconDisabled
 70
     0
  0
APPID
  5
8103
330
9
100
AcDbSymbolTableRecord
100
AcDbRegAppTableRecord
  2
ACAD_EXEMPT_FROM_CAD_STANDARDS
 70
     0
  0
APPID
  5
814E
330
9
100
AcDbSymbolTableRecord
100
AcDbRegAppTableRecord
  2
ACAD_NAV_VCDISPLAY
 70
     0
  0
ENDTAB
  0
TABLE
  2
DIMSTYLE
  5
A
330
0
100
AcDbSymbolTable
 70
     2
100
AcDbDimStyleTable
 71
     1
340
1D
  0
DIMSTYLE
105
1D
102
{ACAD_REACTORS
330
7CEC
330
7CED
330
804D
330
805A
102
}
330
A
100
AcDbSymbolTableRecord
100
AcDbDimStyleTableRecord
  2
IGA
 70
     0
 40
2.0
 41
2.0
 42
0.5
 43
10.0
 44
1.0
 47
1.0
 48
1.0
 73
     0
 74
     0
 77
     1
 78
     8
140
3.0
141
0.0
143
0.03937
146
10.0
147
1.0
173
     1
271
     1
272
     0
279
     2
284
     8
340
10
341
79FC
343
79FC
344
79FC
  0
DIMSTYLE
105
7B48
102
{ACAD_REACTORS
330
7C51
330
7C52
330
7C53
330
7C89
330
7C8F
330
7C90
330
7C92
330
7CA6
330
7CA7
330
7CA8
330
7CB3
330
7CB4
330
7CB5
330
7CB6
330
7CB7
330
7CBD
330
7CBE
330
7CC3
330
7CE4
102
}
330
A
100
AcDbSymbolTableRecord
100
AcDbDimStyleTableRecord
  2
MATSU
 70
     0
 41
2.0
 42
1.0
 43
10.0
 44
1.0
 73
     0
 74
     0
 77
     1
 78
     8
140
3.0
141
0.0
143
0.03937
147
0.5
172
     1
173
     1
176
   256
177
   256
178
   256
284
     8
289
     0
340
10
341
79FC
343
79FC
344
79FC
  0
ENDTAB
  0
TABLE
  2
BLOCK_RECORD
  5
1
330
0
100
AcDbSymbolTable
 70
    26
  0
BLOCK_RECORD
  5
19
102
{ACAD_XDICTIONARY
360
8090
102
}
330
1
100
AcDbSymbolTableRecord
100
AcDbBlockTableRecord
  2
*MODEL_SPACE
340
8065
 70
     0
280
     1
281
     0
  0
BLOCK_RECORD
  5
16
102
{ACAD_XDICTIONARY
360
808E
102
}
330
1
100
AcDbSymbolTableRecord
100
AcDbBlockTableRecord
  2
*PAPER_SPACE
340
8066
 70
     0
280
     1
281
     0
  0
BLOCK_RECORD
  5
79FC
330
1
100
AcDbSymbolTableRecord
100
AcDbBlockTableRecord
  2
_OPEN
340
0
102
{BLKREFS
331
7ED0
331
7ED1
331
7EDB
331
7EDC
331
7EE6
331
7EE7
331
7EFC
331
7EFD
331
7F40
331
7F41
331
7F4B
331
7F4C
331
7F56
331
7F57
331
809E
331
7E2B
331
7E2C
331
7E36
331
7E37
331
7E41
331
7E42
331
7E4C
331
7E4D
331
7E6D
331
7E6E
331
7E99
331
7E9A
331
7EA4
331
7EA5
331
7EAF
331
7EB0
331
7EBA
331
7EBB
331
7EC5
331
7EC6
331
7FFB
331
8046
331
8047
331
8053
331
8054
331
812C
331
812D
331
8135
331
8136
102
}
 70
     0
280
     1
281
     0
  0
BLOCK_RECORD
  5
7A0A
330
1
100
AcDbSymbolTableRecord
100
AcDbBlockTableRecord
  2
YA_N
340
0
102
{BLKREFS
331
7C23
331
7C45
331
7C4F
331
7C86
102
}
 70
     0
280
     1
281
     0
  0
BLOCK_RECORD
  5
7CF9
330
1
100
AcDbSymbolTableRecord
100
AcDbBlockTableRecord
  2
*D2
340
0
 70
     0
280
     1
281
     0
  0
BLOCK_RECORD
  5
7D05
330
1
100
AcDbSymbolTableRecord
100
AcDbBlockTableRecord
  2
*D3
340
0
 70
     0
280
     1
281
     0
  0
BLOCK_RECORD
  5
7D11
330
1
100
AcDbSymbolTableRecord
100
AcDbBlockTableRecord
  2
*D4
340
0
 70
     0
280
     1
281
     0
  0
BLOCK_RECORD
  5
7D1D
330
1
100
AcDbSymbolTableRecord
100
AcDbBlockTableRecord
  2
*D5
340
0
 70
     0
280
     1
281
     0
  0
BLOCK_RECORD
  5
7D29
330
1
100
AcDbSymbolTableRecord
100
AcDbBlockTableRecord
  2
*D6
340
0
 70
     0
280
     1
281
     0
  0
BLOCK_RECORD
  5
7D35
330
1
100
AcDbSymbolTableRecord
100
AcDbBlockTableRecord
  2
*D7
340
0
 70
     0
280
     1
281
     0
  0
BLOCK_RECORD
  5
7D41
330
1
100
AcDbSymbolTableRecord
100
AcDbBlockTableRecord
  2
*D8
340
0
 70
     0
280
     1
281
     0
  0
BLOCK_RECORD
  5
7D59
330
1
100
AcDbSymbolTableRecord
100
AcDbBlockTableRecord
  2
*D9
340
0
 70
     0
280
     1
281
     0
  0
BLOCK_RECORD
  5
7D65
330
1
100
AcDbSymbolTableRecord
100
AcDbBlockTableRecord
  2
*D10
340
0
 70
     0
280
     1
281
     0
  0
BLOCK_RECORD
  5
7D71
330
1
100
AcDbSymbolTableRecord
100
AcDbBlockTableRecord
  2
*D11
340
0
 70
     0
280
     1
281
     0
  0
BLOCK_RECORD
  5
7D7D
330
1
100
AcDbSymbolTableRecord
100
AcDbBlockTableRecord
  2
*D12
340
0
 70
     0
280
     1
281
     0
  0
BLOCK_RECORD
  5
7D89
330
1
100
AcDbSymbolTableRecord
100
AcDbBlockTableRecord
  2
*D13
340
0
 70
     0
280
     1
281
     0
  0
BLOCK_RECORD
  5
7D95
330
1
100
AcDbSymbolTableRecord
100
AcDbBlockTableRecord
  2
*D14
340
0
 70
     0
280
     1
281
     0
  0
BLOCK_RECORD
  5
7DA1
330
1
100
AcDbSymbolTableRecord
100
AcDbBlockTableRecord
  2
*D15
340
0
 70
     0
280
     1
281
     0
  0
BLOCK_RECORD
  5
7DAD
330
1
100
AcDbSymbolTableRecord
100
AcDbBlockTableRecord
  2
*D16
340
0
 70
     0
280
     1
281
     0
  0
BLOCK_RECORD
  5
7DB9
330
1
100
AcDbSymbolTableRecord
100
AcDbBlockTableRecord
  2
*D17
340
0
 70
     0
280
     1
281
     0
  0
BLOCK_RECORD
  5
7DC5
330
1
100
AcDbSymbolTableRecord
100
AcDbBlockTableRecord
  2
*D18
340
0
 70
     0
280
     1
281
     0
  0
BLOCK_RECORD
  5
7DDD
330
1
100
AcDbSymbolTableRecord
100
AcDbBlockTableRecord
  2
*D19
340
0
 70
     0
280
     1
281
     0
  0
BLOCK_RECORD
  5
7DE9
330
1
100
AcDbSymbolTableRecord
100
AcDbBlockTableRecord
  2
*D20
340
0
 70
     0
280
     1
281
     0
  0
BLOCK_RECORD
  5
7DF5
330
1
100
AcDbSymbolTableRecord
100
AcDbBlockTableRecord
  2
*D21
340
0
 70
     0
280
     1
281
     0
  0
BLOCK_RECORD
  5
7E02
330
1
100
AcDbSymbolTableRecord
100
AcDbBlockTableRecord
  2
*D22
340
0
 70
     0
280
     1
281
     0
  0
BLOCK_RECORD
  5
7FEA
330
1
100
AcDbSymbolTableRecord
100
AcDbBlockTableRecord
  2
_DOT
340
0
102
{BLKREFS
331
809D
331
7FFC
102
}
 70
     0
280
     1
281
     0
  0
BLOCK_RECORD
  5
8041
330
1
100
AcDbSymbolTableRecord
100
AcDbBlockTableRecord
  2
*D24
340
0
 70
     0
280
     1
281
     0
  0
BLOCK_RECORD
  5
804E
330
1
100
AcDbSymbolTableRecord
100
AcDbBlockTableRecord
  2
*D25
340
0
 70
     0
280
     1
281
     0
  0
ENDTAB
  0
ENDSEC
  0
SECTION
  2
BLOCKS
  0
BLOCK
  5
1A
330
19
100
AcDbEntity
  8
0
100
AcDbBlockBegin
  2
*MODEL_SPACE
 70
     0
 10
0.0
 20
0.0
 30
0.0
  3
*MODEL_SPACE
  1

  0
ENDBLK
  5
1B
330
19
100
AcDbEntity
  8
0
100
AcDbBlockEnd
  0
BLOCK
  5
17
330
16
100
AcDbEntity
 67
     1
  8
0
100
AcDbBlockBegin
  2
*PAPER_SPACE
 70
     0
 10
0.0
 20
0.0
 30
0.0
  3
*PAPER_SPACE
  1

  0
ENDBLK
  5
18
330
16
100
AcDbEntity
 67
     1
  8
0
100
AcDbBlockEnd
  0
BLOCK
  5
7A00
330
79FC
100
AcDbEntity
  8
0
100
AcDbBlockBegin
  2
_OPEN
 70
     0
 10
0.0
 20
0.0
 30
0.0
  3
_OPEN
  1

  0
LINE
  5
79FD
330
79FC
100
AcDbEntity
  8
0
  6
ByBlock
 62
     0
100
AcDbLine
 10
-1.0
 20
0.1666666666666666
 30
0.0
 11
0.0
 21
0.0
 31
0.0
  0
LINE
  5
79FE
330
79FC
100
AcDbEntity
  8
0
  6
ByBlock
 62
     0
100
AcDbLine
 10
0.0
 20
0.0
 30
0.0
 11
-1.0
 21
-0.1666666666666666
 31
0.0
  0
LINE
  5
79FF
330
79FC
100
AcDbEntity
  8
0
  6
ByBlock
 62
     0
100
AcDbLine
 10
0.0
 20
0.0
 30
0.0
 11
-1.0
 21
0.0
 31
0.0
  0
ENDBLK
  5
7A01
330
79FC
100
AcDbEntity
  8
0
100
AcDbBlockEnd
  0
BLOCK
  5
7A0B
330
7A0A
100
AcDbEntity
  8
0
100
AcDbBlockBegin
  2
YA_N
 70
     0
 10
0.0
 20
0.0
 30
0.0
  3
YA_N
  1

  0
ENDBLK
  5
7A0C
330
7A0A
100
AcDbEntity
  8
0
100
AcDbBlockEnd
  0
BLOCK
  5
7E27
330
7CF9
100
AcDbEntity
  8
0
100
AcDbBlockBegin
  2
*D2
 70
     1
 10
0.0
 20
0.0
 30
0.0
  3
*D2
  1

  0
LINE
  5
7E28
330
7CF9
100
AcDbEntity
  8
0
  6
ByBlock
440
 16777216
100
AcDbLine
 10
735.8925723543944
 20
23.44838330388302
 30
0.0
 11
535.7842560701283
 21
23.44838330388302
 31
0.0
  0
LINE
  5
7E29
330
7CF9
100
AcDbEntity
  8
0
  6
ByBlock
440
 16777216
100
AcDbLine
 10
735.8925723543944
 20
1173.448383303883
 30
0.0
 11
535.7842560701283
 21
1173.448383303883
 31
0.0
  0
LINE
  5
7E2A
330
7CF9
100
AcDbEntity
  8
0
  6
ByBlock
440
 16777216
100
AcDbLine
 10
570.7842560701283
 20
93.44838330388302
 30
0.0
 11
570.7842560701283
 21
1103.448383303883
 31
0.0
  0
INSERT
  5
7E2B
330
7CF9
100
AcDbEntity
  8
0
  6
ByBlock
440
 16777216
100
AcDbBlockReference
  2
_OPEN
 10
570.7842560701283
 20
23.44838330388302
 30
0.0
 41
70.0
 42
70.0
 43
70.0
 50
270.0
  0
INSERT
  5
7E2C
330
7CF9
100
AcDbEntity
  8
0
  6
ByBlock
440
 16777216
100
AcDbBlockReference
  2
_OPEN
 10
570.7842560701283
 20
1173.448383303883
 30
0.0
 41
70.0
 42
70.0
 43
70.0
 50
90.0
  0
MTEXT
  5
7E2D
330
7CF9
100
AcDbEntity
  8
0
  6
ByBlock
440
 16777216
100
AcDbMText
 10
500.7842560701283
 20
598.4483833038829
 30
0.0
 40
105.0
 41
0.0
 46
0.0
 71
     5
 72
     5
  1
\A1;1150
 11
0.0
 21
1.0
 31
0.0
 73
     1
 44
1.0
  0
POINT
  5
7E2E
330
7CF9
100
AcDbEntity
  8
DEFPOINTS
  6
ByBlock
 62
     0
440
 16777216
100
AcDbPoint
 10
770.8925723543943
 20
23.44838330388302
 30
0.0
  0
POINT
  5
7E2F
330
7CF9
100
AcDbEntity
  8
DEFPOINTS
  6
ByBlock
 62
     0
440
 16777216
100
AcDbPoint
 10
770.8925723543943
 20
1173.448383303883
 30
0.0
  0
POINT
  5
7E30
330
7CF9
100
AcDbEntity
  8
DEFPOINTS
  6
ByBlock
 62
     0
440
 16777216
100
AcDbPoint
 10
570.7842560701283
 20
1173.448383303883
 30
0.0
  0
ENDBLK
  5
7E31
330
7CF9
100
AcDbEntity
  8
0
100
AcDbBlockEnd
  0
BLOCK
  5
7E32
330
7D05
100
AcDbEntity
  8
0
100
AcDbBlockBegin
  2
*D3
 70
     1
 10
0.0
 20
0.0
 30
0.0
  3
*D3
  1

  0
LINE
  5
7E33
330
7D05
100
AcDbEntity
  8
0
  6
ByBlock
440
 16777216
100
AcDbLine
 10
735.8925723543944
 20
23.44838330388302
 30
0.0
 11
346.2410655866697
 21
23.44838330388302
 31
0.0
  0
LINE
  5
7E34
330
7D05
100
AcDbEntity
  8
0
  6
ByBlock
440
 16777216
100
AcDbLine
 10
650.0535714556608
 20
1221.448383303883
 30
0.0
 11
346.2410655866697
 21
1221.448383303883
 31
0.0
  0
LINE
  5
7E35
330
7D05
100
AcDbEntity
  8
0
  6
ByBlock
440
 16777216
100
AcDbLine
 10
381.2410655866697
 20
93.44838330388302
 30
0.0
 11
381.2410655866697
 21
1151.448383303883
 31
0.0
  0
INSERT
  5
7E36
330
7D05
100
AcDbEntity
  8
0
  6
ByBlock
440
 16777216
100
AcDbBlockReference
  2
_OPEN
 10
381.2410655866697
 20
23.44838330388302
 30
0.0
 41
70.0
 42
70.0
 43
70.0
 50
270.0
  0
INSERT
  5
7E37
330
7D05
100
AcDbEntity
  8
0
  6
ByBlock
440
 16777216
100
AcDbBlockReference
  2
_OPEN
 10
381.2410655866697
 20
1221.448383303883
 30
0.0
 41
70.0
 42
70.0
 43
70.0
 50
90.0
  0
MTEXT
  5
7E38
330
7D05
100
AcDbEntity
  8
0
  6
ByBlock
440
 16777216
100
AcDbMText
 10
311.2410655866697
 20
622.448383303883
 30
0.0
 40
105.0
 41
0.0
 46
0.0
 71
     5
 72
     5
  1
\A1;1198
 11
0.0
 21
1.0
 31
0.0
 73
     1
 44
1.0
  0
POINT
  5
7E39
330
7D05
100
AcDbEntity
  8
DEFPOINTS
  6
ByBlock
 62
     0
440
 16777216
100
AcDbPoint
 10
770.8925723543943
 20
23.44838330388302
 30
0.0
  0
POINT
  5
7E3A
330
7D05
100
AcDbEntity
  8
DEFPOINTS
  6
ByBlock
 62
     0
440
 16777216
100
AcDbPoint
 10
685.0535714556608
 20
1221.448383303883
 30
0.0
  0
POINT
  5
7E3B
330
7D05
100
AcDbEntity
  8
DEFPOINTS
  6
ByBlock
 62
     0
440
 16777216
100
AcDbPoint
 10
381.2410655866697
 20
1221.448383303883
 30
0.0
  0
ENDBLK
  5
7E3C
330
7D05
100
AcDbEntity
  8
0
100
AcDbBlockEnd
  0
BLOCK
  5
7E3D
330
7D11
100
AcDbEntity
  8
0
100
AcDbBlockBegin
  2
*D4
 70
     1
 10
0.0
 20
0.0
 30
0.0
  3
*D4
  1

  0
LINE
  5
7E3E
330
7D11
100
AcDbEntity
  8
0
  6
ByBlock
440
 16777216
100
AcDbLine
 10
870.8925723543943
 20
-288.551616696117
 30
0.0
 11
870.8925723543943
 21
-487.331424253547
 31
0.0
  0
LINE
  5
7E3F
330
7D11
100
AcDbEntity
  8
0
  6
ByBlock
440
 16777216
100
AcDbLine
 10
1530.892572354394
 20
-288.551616696117
 30
0.0
 11
1530.892572354394
 21
-487.331424253547
 31
0.0
  0
LINE
  5
7E40
330
7D11
100
AcDbEntity
  8
0
  6
ByBlock
440
 16777216
100
AcDbLine
 10
940.8925723543942
 20
-452.331424253547
 30
0.0
 11
1460.892572354394
 21
-452.331424253547
 31
0.0
  0
INSERT
  5
7E41
330
7D11
100
AcDbEntity
  8
0
  6
ByBlock
440
 16777216
100
AcDbBlockReference
  2
_OPEN
 10
870.8925723543943
 20
-452.331424253547
 30
0.0
 41
70.0
 42
70.0
 43
70.0
 50
180.0
  0
INSERT
  5
7E42
330
7D11
100
AcDbEntity
  8
0
  6
ByBlock
440
 16777216
100
AcDbBlockReference
  2
_OPEN
 10
1530.892572354394
 20
-452.331424253547
 30
0.0
 41
70.0
 42
70.0
 43
70.0
  0
MTEXT
  5
7E43
330
7D11
100
AcDbEntity
  8
0
  6
ByBlock
440
 16777216
100
AcDbMText
 10
1200.892572354394
 20
-382.3314242535471
 30
0.0
 40
105.0
 41
0.0
 46
0.0
 71
     5
 72
     5
  1
\A1;660
 73
     1
 44
1.0
  0
POINT
  5
7E44
330
7D11
100
AcDbEntity
  8
DEFPOINTS
  6
ByBlock
 62
     0
440
 16777216
100
AcDbPoint
 10
870.8925723543943
 20
-253.551616696117
 30
0.0
  0
POINT
  5
7E45
330
7D11
100
AcDbEntity
  8
DEFPOINTS
  6
ByBlock
 62
     0
440
 16777216
100
AcDbPoint
 10
1530.892572354394
 20
-253.551616696117
 30
0.0
  0
POINT
  5
7E46
330
7D11
100
AcDbEntity
  8
DEFPOINTS
  6
ByBlock
 62
     0
440
 16777216
100
AcDbPoint
 10
1530.892572354394
 20
-452.331424253547
 30
0.0
  0
ENDBLK
  5
7E47
330
7D11
100
AcDbEntity
  8
0
100
AcDbBlockEnd
  0
BLOCK
  5
7E48
330
7D1D
100
AcDbEntity
  8
0
100
AcDbBlockBegin
  2
*D5
 70
     1
 10
0.0
 20
0.0
 30
0.0
  3
*D5
  1

  0
LINE
  5
7E49
330
7D1D
100
AcDbEntity
  8
0
  6
ByBlock
440
 16777216
100
AcDbLine
 10
650.0535714556608
 20
1221.448383303883
 30
0.0
 11
170.0727027004686
 21
1221.448383303883
 31
0.0
  0
LINE
  5
7E4A
330
7D1D
100
AcDbEntity
  8
0
  6
ByBlock
440
 16777216
100
AcDbLine
 10
835.8925723543944
 20
-133.551616696117
 30
0.0
 11
170.0727027004686
 21
-133.551616696117
 31
0.0
  0
LINE
  5
7E4B
330
7D1D
100
AcDbEntity
  8
0
  6
ByBlock
440
 16777216
100
AcDbLine
 10
205.0727027004687
 20
1151.448383303883
 30
0.0
 11
205.0727027004687
 21
-63.55161669611698
 31
0.0
  0
INSERT
  5
7E4C
330
7D1D
100
AcDbEntity
  8
0
  6
ByBlock
440
 16777216
100
AcDbBlockReference
  2
_OPEN
 10
205.0727027004687
 20
1221.448383303883
 30
0.0
 41
70.0
 42
70.0
 43
70.0
 50
90.0
  0
INSERT
  5
7E4D
330
7D1D
100
AcDbEntity
  8
0
  6
ByBlock
440
 16777216
100
AcDbBlockReference
  2
_OPEN
 10
205.0727027004687
 20
-133.551616696117
 30
0.0
 41
70.0
 42
70.0
 43
70.0
 50
270.0
  0
MTEXT
  5
7E4E
330
7D1D
100
AcDbEntity
  8
0
  6
ByBlock
440
 16777216
100
AcDbMText
 10
135.0727027004686
 20
543.9483833038829
 30
0.0
 40
105.0
 41
0.0
 46
0.0
 71
     5
 72
     5
  1
\A1;1355
 11
0.0
 21
1.0
 31
0.0
 73
     1
 44
1.0
  0
POINT
  5
7E4F
330
7D1D
100
AcDbEntity
  8
DEFPOINTS
  6
ByBlock
 62
     0
440
 16777216
100
AcDbPoint
 10
685.0535714556608
 20
1221.448383303883
 30
0.0
  0
POINT
  5
7E50
330
7D1D
100
AcDbEntity
  8
DEFPOINTS
  6
ByBlock
 62
     0
440
 16777216
100
AcDbPoint
 10
870.8925723543943
 20
-133.551616696117
 30
0.0
  0
POINT
  5
7E51
330
7D1D
100
AcDbEntity
  8
DEFPOINTS
  6
ByBlock
 62
     0
440
 16777216
100
AcDbPoint
 10
205.0727027004687
 20
-133.551616696117
 30
0.0
  0
ENDBLK
  5
7E52
330
7D1D
100
AcDbEntity
  8
0
100
AcDbBlockEnd
  0
BLOCK
  5
7F52
330
7D29
100
AcDbEntity
  8
0
100
AcDbBlockBegin
  2
*D6
 70
     1
 10
0.0
 20
0.0
 30
0.0
  3
*D6
  1

  0
LINE
  5
7F53
330
7D29
100
AcDbEntity
  8
0
  6
ByBlock
440
 16777216
100
AcDbLine
 10
1357.817553802568
 20
3793.615273752493
 30
0.0
 11
1357.817553802568
 21
4854.033603701441
 31
0.0
  0
LINE
  5
7F54
330
7D29
100
AcDbEntity
  8
0
  6
ByBlock
440
 16777216
100
AcDbLine
 10
2117.817553802568
 20
4806.882542940813
 30
0.0
 11
2117.817553802568
 21
4854.033603701441
 31
0.0
  0
LINE
  5
7F55
330
7D29
100
AcDbEntity
  8
0
  6
ByBlock
440
 16777216
100
AcDbLine
 10
1427.817553802568
 20
4819.033603701442
 30
0.0
 11
2047.817553802568
 21
4819.033603701442
 31
0.0
  0
INSERT
  5
7F56
330
7D29
100
AcDbEntity
  8
0
  6
ByBlock
440
 16777216
100
AcDbBlockReference
  2
_OPEN
 10
1357.817553802568
 20
4819.033603701442
 30
0.0
 41
70.0
 42
70.0
 43
70.0
 50
180.0
  0
INSERT
  5
7F57
330
7D29
100
AcDbEntity
  8
0
  6
ByBlock
440
 16777216
100
AcDbBlockReference
  2
_OPEN
 10
2117.817553802568
 20
4819.033603701442
 30
0.0
 41
70.0
 42
70.0
 43
70.0
  0
MTEXT
  5
7F58
330
7D29
100
AcDbEntity
  8
0
  6
ByBlock
440
 16777216
100
AcDbMText
 10
1737.817553802568
 20
4889.033603701442
 30
0.0
 40
105.0
 41
0.0
 46
0.0
 71
     5
 72
     5
  1
\A1;760
 73
     1
 44
1.0
  0
POINT
  5
7F59
330
7D29
100
AcDbEntity
  8
DEFPOINTS
  6
ByBlock
 62
     0
440
 16777216
100
AcDbPoint
 10
1357.817553802568
 20
3758.615273752493
 30
0.0
  0
POINT
  5
7F5A
330
7D29
100
AcDbEntity
  8
DEFPOINTS
  6
ByBlock
 62
     0
440
 16777216
100
AcDbPoint
 10
2117.817553802568
 20
4771.882542940813
 30
0.0
  0
POINT
  5
7F5B
330
7D29
100
AcDbEntity
  8
DEFPOINTS
  6
ByBlock
 62
     0
440
 16777216
100
AcDbPoint
 10
2117.817553802568
 20
4819.033603701442
 30
0.0
  0
ENDBLK
  5
7F5C
330
7D29
100
AcDbEntity
  8
0
100
AcDbBlockEnd
  0
BLOCK
  5
7F47
330
7D35
100
AcDbEntity
  8
0
100
AcDbBlockBegin
  2
*D7
 70
     1
 10
0.0
 20
0.0
 30
0.0
  3
*D7
  1

  0
LINE
  5
7F48
330
7D35
100
AcDbEntity
  8
0
  6
ByBlock
440
 16777216
100
AcDbLine
 10
2117.817553802568
 20
4806.882542940813
 30
0.0
 11
2117.817553802568
 21
4854.033603701441
 31
0.0
  0
LINE
  5
7F49
330
7D35
100
AcDbEntity
  8
0
  6
ByBlock
440
 16777216
100
AcDbLine
 10
3083.019116301186
 20
3828.350583469209
 30
0.0
 11
3083.019116301186
 21
4854.033603701441
 31
0.0
  0
LINE
  5
7F4A
330
7D35
100
AcDbEntity
  8
0
  6
ByBlock
440
 16777216
100
AcDbLine
 10
2187.817553802568
 20
4819.033603701442
 30
0.0
 11
3013.019116301186
 21
4819.033603701442
 31
0.0
  0
INSERT
  5
7F4B
330
7D35
100
AcDbEntity
  8
0
  6
ByBlock
440
 16777216
100
AcDbBlockReference
  2
_OPEN
 10
2117.817553802568
 20
4819.033603701442
 30
0.0
 41
70.0
 42
70.0
 43
70.0
 50
180.0
  0
INSERT
  5
7F4C
330
7D35
100
AcDbEntity
  8
0
  6
ByBlock
440
 16777216
100
AcDbBlockReference
  2
_OPEN
 10
3083.019116301186
 20
4819.033603701442
 30
0.0
 41
70.0
 42
70.0
 43
70.0
  0
MTEXT
  5
7F4D
330
7D35
100
AcDbEntity
  8
0
  6
ByBlock
440
 16777216
100
AcDbMText
 10
2600.418335051877
 20
4889.033603701442
 30
0.0
 40
105.0
 41
0.0
 46
0.0
 71
     5
 72
     5
  1
\A1;969
 73
     1
 44
1.0
  0
POINT
  5
7F4E
330
7D35
100
AcDbEntity
  8
DEFPOINTS
  6
ByBlock
 62
     0
440
 16777216
100
AcDbPoint
 10
2117.817553802568
 20
4771.882542940813
 30
0.0
  0
POINT
  5
7F4F
330
7D35
100
AcDbEntity
  8
DEFPOINTS
  6
ByBlock
 62
     0
440
 16777216
100
AcDbPoint
 10
3083.019116301186
 20
3793.350583469209
 30
0.0
  0
POINT
  5
7F50
330
7D35
100
AcDbEntity
  8
DEFPOINTS
  6
ByBlock
 62
     0
440
 16777216
100
AcDbPoint
 10
3083.019116301186
 20
4819.033603701442
 30
0.0
  0
ENDBLK
  5
7F51
330
7D35
100
AcDbEntity
  8
0
100
AcDbBlockEnd
  0
BLOCK
  5
7E69
330
7D41
100
AcDbEntity
  8
0
100
AcDbBlockBegin
  2
*D8
 70
     1
 10
0.0
 20
0.0
 30
0.0
  3
*D8
  1

  0
LINE
  5
7E6A
330
7D41
100
AcDbEntity
  8
0
  6
ByBlock
440
 16777216
100
AcDbLine
 10
3320.892572354394
 20
-288.551616696117
 30
0.0
 11
3320.892572354394
 21
-488.1252166041012
 31
0.0
  0
LINE
  5
7E6B
330
7D41
100
AcDbEntity
  8
0
  6
ByBlock
440
 16777216
100
AcDbLine
 10
1530.892572354394
 20
-288.551616696117
 30
0.0
 11
1530.892572354394
 21
-488.1252166041012
 31
0.0
  0
LINE
  5
7E6C
330
7D41
100
AcDbEntity
  8
0
  6
ByBlock
440
 16777216
100
AcDbLine
 10
3250.892572354393
 20
-453.1252166041013
 30
0.0
 11
1600.892572354394
 21
-453.1252166041013
 31
0.0
  0
INSERT
  5
7E6D
330
7D41
100
AcDbEntity
  8
0
  6
ByBlock
440
 16777216
100
AcDbBlockReference
  2
_OPEN
 10
3320.892572354394
 20
-453.1252166041013
 30
0.0
 41
70.0
 42
70.0
 43
70.0
  0
INSERT
  5
7E6E
330
7D41
100
AcDbEntity
  8
0
  6
ByBlock
440
 16777216
100
AcDbBlockReference
  2
_OPEN
 10
1530.892572354394
 20
-453.1252166041013
 30
0.0
 41
70.0
 42
70.0
 43
70.0
 50
180.0
  0
MTEXT
  5
7E6F
330
7D41
100
AcDbEntity
  8
0
  6
ByBlock
440
 16777216
100
AcDbMText
 10
2425.892572354394
 20
-383.1252166041013
 30
0.0
 40
105.0
 41
0.0
 46
0.0
 71
     5
 72
     5
  1
\A1;1790
 73
     1
 44
1.0
  0
POINT
  5
7E70
330
7D41
100
AcDbEntity
  8
DEFPOINTS
  6
ByBlock
 62
     0
440
 16777216
100
AcDbPoint
 10
3320.892572354394
 20
-253.551616696117
 30
0.0
  0
POINT
  5
7E71
330
7D41
100
AcDbEntity
  8
DEFPOINTS
  6
ByBlock
 62
     0
440
 16777216
100
AcDbPoint
 10
1530.892572354394
 20
-253.551616696117
 30
0.0
  0
POINT
  5
7E72
330
7D41
100
AcDbEntity
  8
DEFPOINTS
  6
ByBlock
 62
     0
440
 16777216
100
AcDbPoint
 10
1530.892572354394
 20
-453.1252166041013
 30
0.0
  0
ENDBLK
  5
7E73
330
7D41
100
AcDbEntity
  8
0
100
AcDbBlockEnd
  0
BLOCK
  5
801E
330
7D59
100
AcDbEntity
  8
0
100
AcDbBlockBegin
  2
*D9
 70
     1
 10
0.0
 20
0.0
 30
0.0
  3
*D9
  1

  0
LINE
  5
8129
330
7D59
100
AcDbEntity
  8
3
440
 16777216
370
    -2
100
AcDbLine
 10
4513.194970078249
 20
4048.350583469208
 30
0.0
 11
4513.194970078249
 21
5085.146714205555
 31
0.0
  0
LINE
  5
812A
330
7D59
100
AcDbEntity
  8
3
440
 16777216
370
    -2
100
AcDbLine
 10
5713.194970078249
 20
5053.267988342384
 30
0.0
 11
5713.194970078249
 21
5085.146714205555
 31
0.0
  0
LINE
  5
812B
330
7D59
100
AcDbEntity
  8
3
440
 16777216
370
    -2
100
AcDbLine
 10
4583.194970078248
 20
5050.146714205555
 30
0.0
 11
5643.194970078249
 21
5050.146714205555
 31
0.0
  0
INSERT
  5
812C
330
7D59
100
AcDbEntity
  8
3
440
 16777216
370
    -2
100
AcDbBlockReference
  2
_OPEN
 10
4513.194970078249
 20
5050.146714205555
 30
0.0
 41
70.0
 42
70.0
 43
70.0
 50
180.0
  0
INSERT
  5
812D
330
7D59
100
AcDbEntity
  8
3
440
 16777216
370
    -2
100
AcDbBlockReference
  2
_OPEN
 10
5713.194970078249
 20
5050.146714205555
 30
0.0
 41
70.0
 42
70.0
 43
70.0
  0
MTEXT
  5
812E
330
7D59
100
AcDbEntity
  8
3
440
 16777216
100
AcDbMText
 10
5113.194970078249
 20
5147.646714205555
 30
0.0
 40
105.0
 41
0.0
 46
0.0
 71
     5
 72
     1
  1
\A1;(1200)
 73
     1
 44
1.0
  0
POINT
  5
812F
330
7D59
100
AcDbEntity
  8
DEFPOINTS
 62
     0
440
 16777216
100
AcDbPoint
 10
4513.194970078249
 20
4013.350583469208
 30
0.0
  0
POINT
  5
8130
330
7D59
100
AcDbEntity
  8
DEFPOINTS
 62
     0
440
 16777216
100
AcDbPoint
 10
5713.194970078249
 20
5018.267988342384
 30
0.0
  0
POINT
  5
8131
330
7D59
100
AcDbEntity
  8
DEFPOINTS
 62
     0
440
 16777216
100
AcDbPoint
 10
5713.194970078249
 20
5050.146714205555
 30
0.0
  0
ENDBLK
  5
8028
330
7D59
100
AcDbEntity
  8
0
100
AcDbBlockEnd
  0
BLOCK
  5
802D
330
7D65
100
AcDbEntity
  8
0
100
AcDbBlockBegin
  2
*D10
 70
     1
 10
0.0
 20
0.0
 30
0.0
  3
*D10
  1

  0
LINE
  5
8132
330
7D65
100
AcDbEntity
  8
3
440
 16777216
370
    -2
100
AcDbLine
 10
5713.194970078249
 20
5053.267988342384
 30
0.0
 11
5713.194970078249
 21
5084.79758291458
 31
0.0
  0
LINE
  5
8133
330
7D65
100
AcDbEntity
  8
3
440
 16777216
370
    -2
100
AcDbLine
 10
6643.194970078247
 20
3738.840094807911
 30
0.0
 11
6643.194970078247
 21
5084.79758291458
 31
0.0
  0
LINE
  5
8134
330
7D65
100
AcDbEntity
  8
3
440
 16777216
370
    -2
100
AcDbLine
 10
5783.194970078248
 20
5049.79758291458
 30
0.0
 11
6573.194970078247
 21
5049.79758291458
 31
0.0
  0
INSERT
  5
8135
330
7D65
100
AcDbEntity
  8
3
440
 16777216
370
    -2
100
AcDbBlockReference
  2
_OPEN
 10
5713.194970078249
 20
5049.79758291458
 30
0.0
 41
70.0
 42
70.0
 43
70.0
 50
180.0
  0
INSERT
  5
8136
330
7D65
100
AcDbEntity
  8
3
440
 16777216
370
    -2
100
AcDbBlockReference
  2
_OPEN
 10
6643.194970078247
 20
5049.79758291458
 30
0.0
 41
70.0
 42
70.0
 43
70.0
  0
MTEXT
  5
8137
330
7D65
100
AcDbEntity
  8
3
440
 16777216
100
AcDbMText
 10
6178.194970078248
 20
5147.29758291458
 30
0.0
 40
105.0
 41
0.0
 46
0.0
 71
     5
 72
     1
  1
\A1;(930)
 73
     1
 44
1.0
  0
POINT
  5
8138
330
7D65
100
AcDbEntity
  8
DEFPOINTS
 62
     0
440
 16777216
100
AcDbPoint
 10
5713.194970078249
 20
5018.267988342384
 30
0.0
  0
POINT
  5
8139
330
7D65
100
AcDbEntity
  8
DEFPOINTS
 62
     0
440
 16777216
100
AcDbPoint
 10
6643.194970078247
 20
3703.840094807912
 30
0.0
  0
POINT
  5
813A
330
7D65
100
AcDbEntity
  8
DEFPOINTS
 62
     0
440
 16777216
100
AcDbPoint
 10
6643.194970078247
 20
5049.79758291458
 30
0.0
  0
ENDBLK
  5
8037
330
7D65
100
AcDbEntity
  8
0
100
AcDbBlockEnd
  0
BLOCK
  5
7E95
330
7D71
100
AcDbEntity
  8
0
100
AcDbBlockBegin
  2
*D11
 70
     1
 10
0.0
 20
0.0
 30
0.0
  3
*D11
  1

  0
LINE
  5
7E96
330
7D71
100
AcDbEntity
  8
0
  6
ByBlock
440
 16777216
100
AcDbLine
 10
6434.252841307508
 20
661.448383303883
 30
0.0
 11
6796.53560766302
 21
661.448383303883
 31
0.0
  0
LINE
  5
7E97
330
7D71
100
AcDbEntity
  8
0
  6
ByBlock
440
 16777216
100
AcDbLine
 10
6434.252841307508
 20
1781.448383303883
 30
0.0
 11
6796.53560766302
 21
1781.448383303883
 31
0.0
  0
LINE
  5
7E98
330
7D71
100
AcDbEntity
  8
0
  6
ByBlock
440
 16777216
100
AcDbLine
 10
6761.535607663019
 20
731.4483833038829
 30
0.0
 11
6761.535607663019
 21
1711.448383303883
 31
0.0
  0
INSERT
  5
7E99
330
7D71
100
AcDbEntity
  8
0
  6
ByBlock
440
 16777216
100
AcDbBlockReference
  2
_OPEN
 10
6761.535607663019
 20
661.448383303883
 30
0.0
 41
70.0
 42
70.0
 43
70.0
 50
270.0
  0
INSERT
  5
7E9A
330
7D71
100
AcDbEntity
  8
0
  6
ByBlock
440
 16777216
100
AcDbBlockReference
  2
_OPEN
 10
6761.535607663019
 20
1781.448383303883
 30
0.0
 41
70.0
 42
70.0
 43
70.0
 50
90.0
  0
MTEXT
  5
7E9B
330
7D71
100
AcDbEntity
  8
0
  6
ByBlock
440
 16777216
100
AcDbMText
 10
6691.53560766302
 20
1221.448383303883
 30
0.0
 40
105.0
 41
0.0
 46
0.0
 71
     5
 72
     5
  1
\A1;φ1120
 11
0.0
 21
1.0
 31
0.0
 73
     1
 44
1.0
  0
POINT
  5
7E9C
330
7D71
100
AcDbEntity
  8
DEFPOINTS
  6
ByBlock
 62
     0
440
 16777216
100
AcDbPoint
 10
6399.252841307507
 20
661.448383303883
 30
0.0
  0
POINT
  5
7E9D
330
7D71
100
AcDbEntity
  8
DEFPOINTS
  6
ByBlock
 62
     0
440
 16777216
100
AcDbPoint
 10
6399.252841307507
 20
1781.448383303883
 30
0.0
  0
POINT
  5
7E9E
330
7D71
100
AcDbEntity
  8
DEFPOINTS
  6
ByBlock
 62
     0
440
 16777216
100
AcDbPoint
 10
6761.535607663019
 20
1781.448383303883
 30
0.0
  0
ENDBLK
  5
7E9F
330
7D71
100
AcDbEntity
  8
0
100
AcDbBlockEnd
  0
BLOCK
  5
7EA0
330
7D7D
100
AcDbEntity
  8
0
100
AcDbBlockBegin
  2
*D12
 70
     1
 10
0.0
 20
0.0
 30
0.0
  3
*D12
  1

  0
LINE
  5
7EA1
330
7D7D
100
AcDbEntity
  8
0
  6
ByBlock
440
 16777216
100
AcDbLine
 10
3320.892572354394
 20
3530.9342663594
 30
0.0
 11
3320.892572354394
 21
3199.209690328993
 31
0.0
  0
LINE
  5
7EA2
330
7D7D
100
AcDbEntity
  8
0
  6
ByBlock
440
 16777216
100
AcDbLine
 10
870.8925723543943
 20
3530.934266359401
 30
0.0
 11
870.8925723543943
 21
3199.209690328993
 31
0.0
  0
LINE
  5
7EA3
330
7D7D
100
AcDbEntity
  8
0
  6
ByBlock
440
 16777216
100
AcDbLine
 10
3250.892572354395
 20
3234.209690328993
 30
0.0
 11
940.8925723543942
 21
3234.209690328993
 31
0.0
  0
INSERT
  5
7EA4
330
7D7D
100
AcDbEntity
  8
0
  6
ByBlock
440
 16777216
100
AcDbBlockReference
  2
_OPEN
 10
3320.892572354394
 20
3234.209690328993
 30
0.0
 41
70.0
 42
70.0
 43
70.0
  0
INSERT
  5
7EA5
330
7D7D
100
AcDbEntity
  8
0
  6
ByBlock
440
 16777216
100
AcDbBlockReference
  2
_OPEN
 10
870.8925723543943
 20
3234.209690328993
 30
0.0
 41
70.0
 42
70.0
 43
70.0
 50
180.0
  0
MTEXT
  5
7EA6
330
7D7D
100
AcDbEntity
  8
0
  6
ByBlock
440
 16777216
100
AcDbMText
 10
2095.892572354395
 20
3304.209690328993
 30
0.0
 40
105.0
 41
0.0
 46
0.0
 71
     5
 72
     5
  1
\A1;2450
 73
     1
 44
1.0
  0
POINT
  5
7EA7
330
7D7D
100
AcDbEntity
  8
DEFPOINTS
  6
ByBlock
 62
     0
440
 16777216
100
AcDbPoint
 10
3320.892572354394
 20
3565.9342663594
 30
0.0
  0
POINT
  5
7EA8
330
7D7D
100
AcDbEntity
  8
DEFPOINTS
  6
ByBlock
 62
     0
440
 16777216
100
AcDbPoint
 10
870.8925723543943
 20
3565.934266359401
 30
0.0
  0
POINT
  5
7EA9
330
7D7D
100
AcDbEntity
  8
DEFPOINTS
  6
ByBlock
 62
     0
440
 16777216
100
AcDbPoint
 10
870.8925723543943
 20
3234.209690328993
 30
0.0
  0
ENDBLK
  5
7EAA
330
7D7D
100
AcDbEntity
  8
0
100
AcDbBlockEnd
  0
BLOCK
  5
7EAB
330
7D89
100
AcDbEntity
  8
0
100
AcDbBlockBegin
  2
*D13
 70
     1
 10
0.0
 20
0.0
 30
0.0
  3
*D13
  1

  0
LINE
  5
7EAC
330
7D89
100
AcDbEntity
  8
0
  6
ByBlock
440
 16777216
100
AcDbLine
 10
835.8925723543944
 20
5465.9342663594
 30
0.0
 11
436.9033218324984
 21
5465.9342663594
 31
0.0
  0
LINE
  5
7EAD
330
7D89
100
AcDbEntity
  8
0
  6
ByBlock
440
 16777216
100
AcDbLine
 10
835.8925723543944
 20
3565.934266359401
 30
0.0
 11
436.9033218324984
 21
3565.934266359401
 31
0.0
  0
LINE
  5
7EAE
330
7D89
100
AcDbEntity
  8
0
  6
ByBlock
440
 16777216
100
AcDbLine
 10
471.9033218324985
 20
5395.9342663594
 30
0.0
 11
471.9033218324985
 21
3635.934266359401
 31
0.0
  0
INSERT
  5
7EAF
330
7D89
100
AcDbEntity
  8
0
  6
ByBlock
440
 16777216
100
AcDbBlockReference
  2
_OPEN
 10
471.9033218324985
 20
5465.9342663594
 30
0.0
 41
70.0
 42
70.0
 43
70.0
 50
90.0
  0
INSERT
  5
7EB0
330
7D89
100
AcDbEntity
  8
0
  6
ByBlock
440
 16777216
100
AcDbBlockReference
  2
_OPEN
 10
471.9033218324985
 20
3565.934266359401
 30
0.0
 41
70.0
 42
70.0
 43
70.0
 50
270.0
  0
MTEXT
  5
7EB1
330
7D89
100
AcDbEntity
  8
0
  6
ByBlock
440
 16777216
100
AcDbMText
 10
401.9033218324985
 20
4515.934266359399
 30
0.0
 40
105.0
 41
0.0
 46
0.0
 71
     5
 72
     5
  1
\A1;1900
 11
0.0
 21
1.0
 31
0.0
 73
     1
 44
1.0
  0
POINT
  5
7EB2
330
7D89
100
AcDbEntity
  8
DEFPOINTS
  6
ByBlock
 62
     0
440
 16777216
100
AcDbPoint
 10
870.8925723543943
 20
5465.9342663594
 30
0.0
  0
POINT
  5
7EB3
330
7D89
100
AcDbEntity
  8
DEFPOINTS
  6
ByBlock
 62
     0
440
 16777216
100
AcDbPoint
 10
870.8925723543943
 20
3565.934266359401
 30
0.0
  0
POINT
  5
7EB4
330
7D89
100
AcDbEntity
  8
DEFPOINTS
  6
ByBlock
 62
     0
440
 16777216
100
AcDbPoint
 10
471.9033218324985
 20
3565.934266359401
 30
0.0
  0
ENDBLK
  5
7EB5
330
7D89
100
AcDbEntity
  8
0
100
AcDbBlockEnd
  0
BLOCK
  5
7EB6
330
7D95
100
AcDbEntity
  8
0
100
AcDbBlockBegin
  2
*D14
 70
     1
 10
0.0
 20
0.0
 30
0.0
  3
*D14
  1

  0
LINE
  5
7EB7
330
7D95
100
AcDbEntity
  8
0
  6
ByBlock
440
 16777216
100
AcDbLine
 10
3355.892572354394
 20
4565.934266359398
 30
0.0
 11
3756.485527276815
 21
4565.934266359398
 31
0.0
  0
LINE
  5
7EB8
330
7D95
100
AcDbEntity
  8
0
  6
ByBlock
440
 16777216
100
AcDbLine
 10
3355.892572354394
 20
3565.9342663594
 30
0.0
 11
3756.485527276815
 21
3565.9342663594
 31
0.0
  0
LINE
  5
7EB9
330
7D95
100
AcDbEntity
  8
0
  6
ByBlock
440
 16777216
100
AcDbLine
 10
3721.485527276815
 20
4495.934266359398
 30
0.0
 11
3721.485527276815
 21
3635.9342663594
 31
0.0
  0
INSERT
  5
7EBA
330
7D95
100
AcDbEntity
  8
0
  6
ByBlock
440
 16777216
100
AcDbBlockReference
  2
_OPEN
 10
3721.485527276815
 20
4565.934266359398
 30
0.0
 41
70.0
 42
70.0
 43
70.0
 50
90.0
  0
INSERT
  5
7EBB
330
7D95
100
AcDbEntity
  8
0
  6
ByBlock
440
 16777216
100
AcDbBlockReference
  2
_OPEN
 10
3721.485527276815
 20
3565.9342663594
 30
0.0
 41
70.0
 42
70.0
 43
70.0
 50
270.0
  0
MTEXT
  5
7EBC
330
7D95
100
AcDbEntity
  8
0
  6
ByBlock
440
 16777216
100
AcDbMText
 10
3651.485527276815
 20
4065.934266359399
 30
0.0
 40
105.0
 41
0.0
 46
0.0
 71
     5
 72
     5
  1
\A1;1000
 11
0.0
 21
1.0
 31
0.0
 73
     1
 44
1.0
  0
POINT
  5
7EBD
330
7D95
100
AcDbEntity
  8
DEFPOINTS
  6
ByBlock
 62
     0
440
 16777216
100
AcDbPoint
 10
3320.892572354394
 20
4565.934266359398
 30
0.0
  0
POINT
  5
7EBE
330
7D95
100
AcDbEntity
  8
DEFPOINTS
  6
ByBlock
 62
     0
440
 16777216
100
AcDbPoint
 10
3320.892572354394
 20
3565.9342663594
 30
0.0
  0
POINT
  5
7EBF
330
7D95
100
AcDbEntity
  8
DEFPOINTS
  6
ByBlock
 62
     0
440
 16777216
100
AcDbPoint
 10
3721.485527276815
 20
3565.9342663594
 30
0.0
  0
ENDBLK
  5
7EC0
330
7D95
100
AcDbEntity
  8
0
100
AcDbBlockEnd
  0
BLOCK
  5
7EC1
330
7DA1
100
AcDbEntity
  8
0
100
AcDbBlockBegin
  2
*D15
 70
     1
 10
0.0
 20
0.0
 30
0.0
  3
*D15
  1

  0
LINE
  5
7EC2
330
7DA1
100
AcDbEntity
  8
0
  6
ByBlock
440
 16777216
100
AcDbLine
 10
3320.892572354394
 20
4600.934266359399
 30
0.0
 11
3320.892572354394
 21
5897.791402408744
 31
0.0
  0
LINE
  5
7EC3
330
7DA1
100
AcDbEntity
  8
0
  6
ByBlock
440
 16777216
100
AcDbLine
 10
2190.892572354394
 20
5500.9342663594
 30
0.0
 11
2190.892572354394
 21
5897.791402408744
 31
0.0
  0
LINE
  5
7EC4
330
7DA1
100
AcDbEntity
  8
0
  6
ByBlock
440
 16777216
100
AcDbLine
 10
3250.892572354395
 20
5862.791402408744
 30
0.0
 11
2260.892572354395
 21
5862.791402408744
 31
0.0
  0
INSERT
  5
7EC5
330
7DA1
100
AcDbEntity
  8
0
  6
ByBlock
440
 16777216
100
AcDbBlockReference
  2
_OPEN
 10
3320.892572354394
 20
5862.791402408744
 30
0.0
 41
70.0
 42
70.0
 43
70.0
  0
INSERT
  5
7EC6
330
7DA1
100
AcDbEntity
  8
0
  6
ByBlock
440
 16777216
100
AcDbBlockReference
  2
_OPEN
 10
2190.892572354394
 20
5862.791402408744
 30
0.0
 41
70.0
 42
70.0
 43
70.0
 50
180.0
  0
MTEXT
  5
7EC7
330
7DA1
100
AcDbEntity
  8
0
  6
ByBlock
440
 16777216
100
AcDbMText
 10
2755.892572354394
 20
5932.791402408744
 30
0.0
 40
105.0
 41
0.0
 46
0.0
 71
     5
 72
     5
  1
\A1;1130
 73
     1
 44
1.0
  0
POINT
  5
7EC8
330
7DA1
100
AcDbEntity
  8
DEFPOINTS
  6
ByBlock
 62
     0
440
 16777216
100
AcDbPoint
 10
3320.892572354394
 20
4565.934266359398
 30
0.0
  0
POINT
  5
7EC9
330
7DA1
100
AcDbEntity
  8
DEFPOINTS
  6
ByBlock
 62
     0
440
 16777216
100
AcDbPoint
 10
2190.892572354394
 20
5465.9342663594
 30
0.0
  0
POINT
  5
7ECA
330
7DA1
100
AcDbEntity
  8
DEFPOINTS
  6
ByBlock
 62
     0
440
 16777216
100
AcDbPoint
 10
2190.892572354394
 20
5862.791402408744
 30
0.0
  0
ENDBLK
  5
7ECB
330
7DA1
100
AcDbEntity
  8
0
100
AcDbBlockEnd
  0
BLOCK
  5
7ECC
330
7DAD
100
AcDbEntity
  8
0
100
AcDbBlockBegin
  2
*D16
 70
     1
 10
0.0
 20
0.0
 30
0.0
  3
*D16
  1

  0
LINE
  5
7ECD
330
7DAD
100
AcDbEntity
  8
0
  6
ByBlock
440
 16777216
100
AcDbLine
 10
2190.892572354395
 20
5500.934266359401
 30
0.0
 11
2190.892572354395
 21
5897.791402408744
 31
0.0
  0
LINE
  5
7ECE
330
7DAD
100
AcDbEntity
  8
0
  6
ByBlock
440
 16777216
100
AcDbLine
 10
870.8925723543943
 20
5500.9342663594
 30
0.0
 11
870.8925723543943
 21
5897.791402408744
 31
0.0
  0
LINE
  5
7ECF
330
7DAD
100
AcDbEntity
  8
0
  6
ByBlock
440
 16777216
100
AcDbLine
 10
2120.892572354395
 20
5862.791402408744
 30
0.0
 11
940.8925723543942
 21
5862.791402408744
 31
0.0
  0
INSERT
  5
7ED0
330
7DAD
100
AcDbEntity
  8
0
  6
ByBlock
440
 16777216
100
AcDbBlockReference
  2
_OPEN
 10
2190.892572354395
 20
5862.791402408744
 30
0.0
 41
70.0
 42
70.0
 43
70.0
  0
INSERT
  5
7ED1
330
7DAD
100
AcDbEntity
  8
0
  6
ByBlock
440
 16777216
100
AcDbBlockReference
  2
_OPEN
 10
870.8925723543943
 20
5862.791402408744
 30
0.0
 41
70.0
 42
70.0
 43
70.0
 50
180.0
  0
MTEXT
  5
7ED2
330
7DAD
100
AcDbEntity
  8
0
  6
ByBlock
440
 16777216
100
AcDbMText
 10
1530.892572354395
 20
5932.791402408744
 30
0.0
 40
105.0
 41
0.0
 46
0.0
 71
     5
 72
     5
  1
\A1;1320
 73
     1
 44
1.0
  0
POINT
  5
7ED3
330
7DAD
100
AcDbEntity
  8
DEFPOINTS
  6
ByBlock
 62
     0
440
 16777216
100
AcDbPoint
 10
2190.892572354395
 20
5465.934266359401
 30
0.0
  0
POINT
  5
7ED4
330
7DAD
100
AcDbEntity
  8
DEFPOINTS
  6
ByBlock
 62
     0
440
 16777216
100
AcDbPoint
 10
870.8925723543943
 20
5465.9342663594
 30
0.0
  0
POINT
  5
7ED5
330
7DAD
100
AcDbEntity
  8
DEFPOINTS
  6
ByBlock
 62
     0
440
 16777216
100
AcDbPoint
 10
870.8925723543943
 20
5862.791402408744
 30
0.0
  0
ENDBLK
  5
7ED6
330
7DAD
100
AcDbEntity
  8
0
100
AcDbBlockEnd
  0
BLOCK
  5
7ED7
330
7DB9
100
AcDbEntity
  8
0
100
AcDbBlockBegin
  2
*D17
 70
     1
 10
0.0
 20
0.0
 30
0.0
  3
*D17
  1

  0
LINE
  5
7ED8
330
7DB9
100
AcDbEntity
  8
0
  6
ByBlock
440
 16777216
100
AcDbLine
 10
5643.752841307505
 20
-288.551616696117
 30
0.0
 11
5643.752841307505
 21
-487.9007473891324
 31
0.0
  0
LINE
  5
7ED9
330
7DB9
100
AcDbEntity
  8
0
  6
ByBlock
440
 16777216
100
AcDbLine
 10
6471.752841307486
 20
-288.551616696117
 30
0.0
 11
6471.752841307486
 21
-487.9007473891324
 31
0.0
  0
LINE
  5
7EDA
330
7DB9
100
AcDbEntity
  8
0
  6
ByBlock
440
 16777216
100
AcDbLine
 10
5713.752841307505
 20
-452.9007473891324
 30
0.0
 11
6401.752841307486
 21
-452.9007473891324
 31
0.0
  0
INSERT
  5
7EDB
330
7DB9
100
AcDbEntity
  8
0
  6
ByBlock
440
 16777216
100
AcDbBlockReference
  2
_OPEN
 10
5643.752841307505
 20
-452.9007473891324
 30
0.0
 41
70.0
 42
70.0
 43
70.0
 50
180.0
  0
INSERT
  5
7EDC
330
7DB9
100
AcDbEntity
  8
0
  6
ByBlock
440
 16777216
100
AcDbBlockReference
  2
_OPEN
 10
6471.752841307486
 20
-452.9007473891324
 30
0.0
 41
70.0
 42
70.0
 43
70.0
  0
MTEXT
  5
7EDD
330
7DB9
100
AcDbEntity
  8
0
  6
ByBlock
440
 16777216
100
AcDbMText
 10
6057.752841307495
 20
-382.9007473891325
 30
0.0
 40
105.0
 41
0.0
 46
0.0
 71
     5
 72
     5
  1
\A1;828
 73
     1
 44
1.0
  0
POINT
  5
7EDE
330
7DB9
100
AcDbEntity
  8
DEFPOINTS
  6
ByBlock
 62
     0
440
 16777216
100
AcDbPoint
 10
5643.752841307505
 20
-253.551616696117
 30
0.0
  0
POINT
  5
7EDF
330
7DB9
100
AcDbEntity
  8
DEFPOINTS
  6
ByBlock
 62
     0
440
 16777216
100
AcDbPoint
 10
6471.752841307486
 20
-253.551616696117
 30
0.0
  0
POINT
  5
7EE0
330
7DB9
100
AcDbEntity
  8
DEFPOINTS
  6
ByBlock
 62
     0
440
 16777216
100
AcDbPoint
 10
6471.752841307486
 20
-452.9007473891324
 30
0.0
  0
ENDBLK
  5
7EE1
330
7DB9
100
AcDbEntity
  8
0
100
AcDbBlockEnd
  0
BLOCK
  5
7EE2
330
7DC5
100
AcDbEntity
  8
0
100
AcDbBlockBegin
  2
*D18
 70
     1
 10
0.0
 20
0.0
 30
0.0
  3
*D18
  1

  0
LINE
  5
7EE3
330
7DC5
100
AcDbEntity
  8
0
  6
ByBlock
440
 16777216
100
AcDbLine
 10
4571.752841307508
 20
-288.551616696117
 30
0.0
 11
4571.752841307508
 21
-487.9007473891324
 31
0.0
  0
LINE
  5
7EE4
330
7DC5
100
AcDbEntity
  8
0
  6
ByBlock
440
 16777216
100
AcDbLine
 10
5643.752841307505
 20
-288.551616696117
 30
0.0
 11
5643.752841307505
 21
-487.9007473891324
 31
0.0
  0
LINE
  5
7EE5
330
7DC5
100
AcDbEntity
  8
0
  6
ByBlock
440
 16777216
100
AcDbLine
 10
4641.752841307508
 20
-452.9007473891324
 30
0.0
 11
5573.752841307506
 21
-452.9007473891324
 31
0.0
  0
INSERT
  5
7EE6
330
7DC5
100
AcDbEntity
  8
0
  6
ByBlock
440
 16777216
100
AcDbBlockReference
  2
_OPEN
 10
4571.752841307508
 20
-452.9007473891324
 30
0.0
 41
70.0
 42
70.0
 43
70.0
 50
180.0
  0
INSERT
  5
7EE7
330
7DC5
100
AcDbEntity
  8
0
  6
ByBlock
440
 16777216
100
AcDbBlockReference
  2
_OPEN
 10
5643.752841307505
 20
-452.9007473891324
 30
0.0
 41
70.0
 42
70.0
 43
70.0
  0
MTEXT
  5
7EE8
330
7DC5
100
AcDbEntity
  8
0
  6
ByBlock
440
 16777216
100
AcDbMText
 10
5107.752841307507
 20
-382.9007473891325
 30
0.0
 40
105.0
 41
0.0
 46
0.0
 71
     5
 72
     5
  1
\A1;1072
 73
     1
 44
1.0
  0
POINT
  5
7EE9
330
7DC5
100
AcDbEntity
  8
DEFPOINTS
  6
ByBlock
 62
     0
440
 16777216
100
AcDbPoint
 10
4571.752841307508
 20
-253.551616696117
 30
0.0
  0
POINT
  5
7EEA
330
7DC5
100
AcDbEntity
  8
DEFPOINTS
  6
ByBlock
 62
     0
440
 16777216
100
AcDbPoint
 10
5643.752841307505
 20
-253.551616696117
 30
0.0
  0
POINT
  5
7EEB
330
7DC5
100
AcDbEntity
  8
DEFPOINTS
  6
ByBlock
 62
     0
440
 16777216
100
AcDbPoint
 10
5643.752841307505
 20
-452.9007473891324
 30
0.0
  0
ENDBLK
  5
7EEC
330
7DC5
100
AcDbEntity
  8
0
100
AcDbBlockEnd
  0
BLOCK
  5
7EF8
330
7DDD
100
AcDbEntity
  8
0
100
AcDbBlockBegin
  2
*D19
 70
     1
 10
0.0
 20
0.0
 30
0.0
  3
*D19
  1

  0
LINE
  5
7EF9
330
7DDD
100
AcDbEntity
  8
0
  6
ByBlock
440
 16777216
100
AcDbLine
 10
4893.752841307504
 20
2061.448383303883
 30
0.0
 11
4893.752841307504
 21
2288.706940293117
 31
0.0
  0
LINE
  5
7EFA
330
7DDD
100
AcDbEntity
  8
0
  6
ByBlock
440
 16777216
100
AcDbLine
 10
6393.752841307505
 20
2061.448383303884
 30
0.0
 11
6393.752841307505
 21
2288.706940293117
 31
0.0
  0
LINE
  5
7EFB
330
7DDD
100
AcDbEntity
  8
0
  6
ByBlock
440
 16777216
100
AcDbLine
 10
4963.752841307504
 20
2253.706940293117
 30
0.0
 11
6323.752841307506
 21
2253.706940293117
 31
0.0
  0
INSERT
  5
7EFC
330
7DDD
100
AcDbEntity
  8
0
  6
ByBlock
440
 16777216
100
AcDbBlockReference
  2
_OPEN
 10
4893.752841307504
 20
2253.706940293117
 30
0.0
 41
70.0
 42
70.0
 43
70.0
 50
180.0
  0
INSERT
  5
7EFD
330
7DDD
100
AcDbEntity
  8
0
  6
ByBlock
440
 16777216
100
AcDbBlockReference
  2
_OPEN
 10
6393.752841307505
 20
2253.706940293117
 30
0.0
 41
70.0
 42
70.0
 43
70.0
  0
MTEXT
  5
7EFE
330
7DDD
100
AcDbEntity
  8
0
  6
ByBlock
440
 16777216
100
AcDbMText
 10
5643.752841307505
 20
2323.706940293118
 30
0.0
 40
105.0
 41
0.0
 46
0.0
 71
     5
 72
     5
  1
\A1;1500
 73
     1
 44
1.0
  0
POINT
  5
7EFF
330
7DDD
100
AcDbEntity
  8
DEFPOINTS
  6
ByBlock
 62
     0
440
 16777216
100
AcDbPoint
 10
4893.752841307504
 20
2026.448383303883
 30
0.0
  0
POINT
  5
7F00
330
7DDD
100
AcDbEntity
  8
DEFPOINTS
  6
ByBlock
 62
     0
440
 16777216
100
AcDbPoint
 10
6393.752841307505
 20
2026.448383303883
 30
0.0
  0
POINT
  5
7F01
330
7DDD
100
AcDbEntity
  8
DEFPOINTS
  6
ByBlock
 62
     0
440
 16777216
100
AcDbPoint
 10
6393.752841307505
 20
2253.706940293117
 30
0.0
  0
ENDBLK
  5
7F02
330
7DDD
100
AcDbEntity
  8
0
100
AcDbBlockEnd
  0
BLOCK
  5
7F3C
330
7DE9
100
AcDbEntity
  8
0
100
AcDbBlockBegin
  2
*D20
 70
     1
 10
0.0
 20
0.0
 30
0.0
  3
*D20
  1

  0
LINE
  5
7F3D
330
7DE9
100
AcDbEntity
  8
0
  6
ByBlock
440
 16777216
100
AcDbLine
 10
3907.817553802567
 20
2623.350583469208
 30
0.0
 11
3907.817553802567
 21
5058.479500428994
 31
0.0
  0
LINE
  5
7F3E
330
7DE9
100
AcDbEntity
  8
0
  6
ByBlock
440
 16777216
100
AcDbLine
 10
1357.817553802568
 20
3793.615273752493
 30
0.0
 11
1357.817553802568
 21
5058.479500428994
 31
0.0
  0
LINE
  5
7F3F
330
7DE9
100
AcDbEntity
  8
0
  6
ByBlock
440
 16777216
100
AcDbLine
 10
3837.817553802567
 20
5023.479500428994
 30
0.0
 11
1427.817553802568
 21
5023.479500428994
 31
0.0
  0
INSERT
  5
7F40
330
7DE9
100
AcDbEntity
  8
0
  6
ByBlock
440
 16777216
100
AcDbBlockReference
  2
_OPEN
 10
3907.817553802567
 20
5023.479500428994
 30
0.0
 41
70.0
 42
70.0
 43
70.0
  0
INSERT
  5
7F41
330
7DE9
100
AcDbEntity
  8
0
  6
ByBlock
440
 16777216
100
AcDbBlockReference
  2
_OPEN
 10
1357.817553802568
 20
5023.479500428994
 30
0.0
 41
70.0
 42
70.0
 43
70.0
 50
180.0
  0
MTEXT
  5
7F42
330
7DE9
100
AcDbEntity
  8
0
  6
ByBlock
440
 16777216
100
AcDbMText
 10
2632.817553802567
 20
5093.479500428994
 30
0.0
 40
105.0
 41
0.0
 46
0.0
 71
     5
 72
     5
  1
\A1;2550
 73
     1
 44
1.0
  0
POINT
  5
7F43
330
7DE9
100
AcDbEntity
  8
DEFPOINTS
  6
ByBlock
 62
     0
440
 16777216
100
AcDbPoint
 10
3907.817553802567
 20
2588.350583469208
 30
0.0
  0
POINT
  5
7F44
330
7DE9
100
AcDbEntity
  8
DEFPOINTS
  6
ByBlock
 62
     0
440
 16777216
100
AcDbPoint
 10
1357.817553802568
 20
3758.615273752493
 30
0.0
  0
POINT
  5
7F45
330
7DE9
100
AcDbEntity
  8
DEFPOINTS
  6
ByBlock
 62
     0
440
 16777216
100
AcDbPoint
 10
1357.817553802568
 20
5023.479500428994
 30
0.0
  0
ENDBLK
  5
7F46
330
7DE9
100
AcDbEntity
  8
0
100
AcDbBlockEnd
  0
BLOCK
  5
7FF4
330
7DF5
100
AcDbEntity
  8
0
100
AcDbBlockBegin
  2
*D21
 70
     1
 10
0.0
 20
0.0
 30
0.0
  3
*D21
  1

  0
LINE
  5
7FF5
330
7DF5
100
AcDbEntity
  8
0
  6
ByBlock
 62
     0
440
 16777216
100
AcDbLine
 10
1440.317553802568
 20
2438.350583469208
 30
0.0
 11
757.0036709598025
 21
2438.350583469208
 31
0.0
  0
LINE
  5
7FF6
330
7DF5
100
AcDbEntity
  8
0
  6
ByBlock
 62
     0
440
 16777216
100
AcDbLine
 10
1440.317553802568
 20
2393.350583469208
 30
0.0
 11
757.0036709598025
 21
2393.350583469208
 31
0.0
  0
LINE
  5
7FF7
330
7DF5
100
AcDbEntity
  8
0
  6
ByBlock
 62
     0
440
 16777216
100
AcDbLine
 10
792.0036709598025
 20
2508.350583469208
 30
0.0
 11
792.0036709598025
 21
2578.350583469208
 31
0.0
  0
LINE
  5
7FF8
330
7DF5
100
AcDbEntity
  8
0
  6
ByBlock
 62
     0
440
 16777216
100
AcDbLine
 10
792.0036709598025
 20
2323.350583469208
 30
0.0
 11
792.0036709598025
 21
2253.350583469208
 31
0.0
  0
MTEXT
  5
7FF9
330
7DF5
100
AcDbEntity
  8
0
  6
ByBlock
 62
     0
440
 16777216
100
AcDbMText
 10
624.5036709598025
 20
2506.550274987509
 30
0.0
 40
105.0
 41
0.0
 46
0.0
 71
     5
 72
     5
  1
\A1;(45)
 11
0.0
 21
1.0
 31
0.0
 73
     1
 44
1.0
  0
LINE
  5
7FFA
330
7DF5
100
AcDbEntity
  8
0
  6
ByBlock
 62
     0
440
 16777216
100
AcDbLine
 10
792.0036709598025
 20
2438.350583469208
 30
0.0
 11
792.0036709598025
 21
2393.350583469208
 31
0.0
  0
INSERT
  5
7FFB
330
7DF5
100
AcDbEntity
  8
0
  6
ByBlock
 62
     0
440
 16777216
100
AcDbBlockReference
  2
_OPEN
 10
792.0036709598025
 20
2438.350583469208
 30
0.0
 41
70.0
 42
70.0
 43
70.0
 50
270.0
  0
INSERT
  5
7FFC
330
7DF5
100
AcDbEntity
  8
0
  6
ByBlock
 62
     0
440
 16777216
100
AcDbBlockReference
  2
_DOT
 10
792.0036709598025
 20
2393.350583469208
 30
0.0
 41
70.0
 42
70.0
 43
70.0
 50
90.0
  0
POINT
  5
7FFD
330
7DF5
100
AcDbEntity
  8
DEFPOINTS
  6
ByBlock
 62
     0
440
 16777216
100
AcDbPoint
 10
1457.817553802568
 20
2438.350583469208
 30
0.0
  0
POINT
  5
7FFE
330
7DF5
100
AcDbEntity
  8
DEFPOINTS
  6
ByBlock
 62
     0
440
 16777216
100
AcDbPoint
 10
1457.817553802568
 20
2393.350583469208
 30
0.0
  0
POINT
  5
7FFF
330
7DF5
100
AcDbEntity
  8
DEFPOINTS
  6
ByBlock
 62
     0
440
 16777216
100
AcDbPoint
 10
792.0036709598025
 20
2393.350583469208
 30
0.0
  0
ENDBLK
  5
8000
330
7DF5
100
AcDbEntity
  8
0
100
AcDbBlockEnd
  0
BLOCK
  5
8001
330
7E02
100
AcDbEntity
  8
0
100
AcDbBlockBegin
  2
*D22
 70
     1
 10
0.0
 20
0.0
 30
0.0
  3
*D22
  1

  0
LINE
  5
8098
330
7E02
100
AcDbEntity
  8
3
 62
     0
440
 16777216
100
AcDbLine
 10
1772.985093829971
 20
2393.350583469208
 30
0.0
 11
1089.665224176046
 21
2393.350583469208
 31
0.0
  0
LINE
  5
8099
330
7E02
100
AcDbEntity
  8
3
 62
     0
440
 16777216
100
AcDbLine
 10
1772.985093829971
 20
2318.350583469208
 30
0.0
 11
1089.665224176046
 21
2318.350583469208
 31
0.0
  0
LINE
  5
809A
330
7E02
100
AcDbEntity
  8
3
 62
     0
440
 16777216
100
AcDbLine
 10
1124.665224176045
 20
2463.350583469208
 30
0.0
 11
1124.665224176045
 21
2533.350583469208
 31
0.0
  0
LINE
  5
809B
330
7E02
100
AcDbEntity
  8
3
 62
     0
440
 16777216
100
AcDbLine
 10
1124.665224176045
 20
2248.350583469208
 30
0.0
 11
1124.665224176045
 21
1938.350583469208
 31
0.0
  0
LINE
  5
809C
330
7E02
100
AcDbEntity
  8
3
 62
     0
440
 16777216
100
AcDbLine
 10
1124.665224176045
 20
2393.350583469208
 30
0.0
 11
1124.665224176045
 21
2318.350583469208
 31
0.0
  0
INSERT
  5
809D
330
7E02
100
AcDbEntity
  8
3
 62
     0
440
 16777216
100
AcDbBlockReference
  2
_DOT
 10
1124.665224176045
 20
2393.350583469208
 30
0.0
 41
70.0
 42
70.0
 43
70.0
 50
270.0
  0
INSERT
  5
809E
330
7E02
100
AcDbEntity
  8
3
 62
     0
440
 16777216
100
AcDbBlockReference
  2
_OPEN
 10
1124.665224176045
 20
2318.350583469208
 30
0.0
 41
70.0
 42
70.0
 43
70.0
 50
90.0
  0
MTEXT
  5
809F
330
7E02
100
AcDbEntity
  8
3
 62
     0
440
 16777216
100
AcDbMText
 10
1037.165224176045
 20
2058.350583469208
 30
0.0
 40
105.0
 41
0.0
 46
0.0
 71
     5
 72
     5
  1
\A1;75
 11
0.0000000000000001
 21
1.0
 31
0.0
 73
     1
 44
1.0
  0
POINT
  5
80A0
330
7E02
100
AcDbEntity
  8
DEFPOINTS
 62
     0
440
 16777216
100
AcDbPoint
 10
1790.485093829971
 20
2393.350583469208
 30
0.0
  0
POINT
  5
80A1
330
7E02
100
AcDbEntity
  8
DEFPOINTS
 62
     0
440
 16777216
100
AcDbPoint
 10
1790.485093829971
 20
2318.350583469208
 30
0.0
  0
POINT
  5
80A2
330
7E02
100
AcDbEntity
  8
DEFPOINTS
 62
     0
440
 16777216
100
AcDbPoint
 10
1124.665224176045
 20
2318.350583469208
 30
0.0
  0
ENDBLK
  5
800D
330
7E02
100
AcDbEntity
  8
0
100
AcDbBlockEnd
  0
BLOCK
  5
7FF0
330
7FEA
100
AcDbEntity
  8
0
100
AcDbBlockBegin
  2
_DOT
 70
     0
 10
0.0
 20
0.0
 30
0.0
  3
_DOT
  1

  0
LWPOLYLINE
  5
7FEB
330
7FEA
100
AcDbEntity
  8
0
  6
ByBlock
 62
     0
100
AcDbPolyline
 90
        2
 70
     1
 43
0.25
 10
-0.125
 20
0.0
 42
1.0
 10
0.125
 20
0.0
 42
1.0
  0
LINE
  5
7FEF
330
7FEA
100
AcDbEntity
  8
0
  6
ByBlock
 62
     0
100
AcDbLine
 10
-0.25
 20
0.0
 30
0.0
 11
-1.0
 21
0.0
 31
0.0
  0
ENDBLK
  5
7FF1
330
7FEA
100
AcDbEntity
  8
0
100
AcDbBlockEnd
  0
BLOCK
  5
8042
330
8041
100
AcDbEntity
  8
0
100
AcDbBlockBegin
  2
*D24
 70
     1
 10
0.0
 20
0.0
 30
0.0
  3
*D24
  1

  0
LINE
  5
8043
330
8041
100
AcDbEntity
  8
0
  6
ByBlock
 62
     0
440
 16777216
100
AcDbLine
 10
2514.985093829972
 20
4598.350583469207
 30
0.0
 11
1093.098418579364
 21
4598.350583469207
 31
0.0
  0
LINE
  5
8044
330
8041
100
AcDbEntity
  8
0
  6
ByBlock
 62
     0
440
 16777216
100
AcDbLine
 10
1552.146092931238
 20
3793.350583469208
 30
0.0
 11
1093.098418579364
 21
3793.350583469208
 31
0.0
  0
LINE
  5
8045
330
8041
100
AcDbEntity
  8
0
  6
ByBlock
 62
     0
440
 16777216
100
AcDbLine
 10
1128.098418579364
 20
4528.350583469207
 30
0.0
 11
1128.098418579364
 21
3863.350583469208
 31
0.0
  0
INSERT
  5
8046
330
8041
100
AcDbEntity
  8
0
  6
ByBlock
 62
     0
440
 16777216
100
AcDbBlockReference
  2
_OPEN
 10
1128.098418579364
 20
4598.350583469207
 30
0.0
 41
70.0
 42
70.0
 43
70.0
 50
90.0
  0
INSERT
  5
8047
330
8041
100
AcDbEntity
  8
0
  6
ByBlock
 62
     0
440
 16777216
100
AcDbBlockReference
  2
_OPEN
 10
1128.098418579364
 20
3793.350583469208
 30
0.0
 41
70.0
 42
70.0
 43
70.0
 50
270.0
  0
MTEXT
  5
8048
330
8041
100
AcDbEntity
  8
0
  6
ByBlock
 62
     0
440
 16777216
100
AcDbMText
 10
1040.598418579364
 20
4195.850583469208
 30
0.0
 40
105.0
 41
0.0
 46
0.0
 71
     5
 72
     5
  1
\A1;805
 11
0.0
 21
1.0
 31
0.0
 73
     1
 44
1.0
  0
POINT
  5
8049
330
8041
100
AcDbEntity
  8
DEFPOINTS
  6
ByBlock
 62
     0
440
 16777216
100
AcDbPoint
 10
2532.485093829972
 20
4598.350583469207
 30
0.0
  0
POINT
  5
804A
330
8041
100
AcDbEntity
  8
DEFPOINTS
  6
ByBlock
 62
     0
440
 16777216
100
AcDbPoint
 10
1569.646092931238
 20
3793.350583469208
 30
0.0
  0
POINT
  5
804B
330
8041
100
AcDbEntity
  8
DEFPOINTS
  6
ByBlock
 62
     0
440
 16777216
100
AcDbPoint
 10
1128.098418579364
 20
3793.350583469208
 30
0.0
  0
ENDBLK
  5
804C
330
8041
100
AcDbEntity
  8
0
100
AcDbBlockEnd
  0
BLOCK
  5
804F
330
804E
100
AcDbEntity
  8
0
100
AcDbBlockBegin
  2
*D25
 70
     1
 10
0.0
 20
0.0
 30
0.0
  3
*D25
  1

  0
LINE
  5
8050
330
804E
100
AcDbEntity
  8
0
  6
ByBlock
 62
     0
440
 16777216
100
AcDbLine
 10
2497.485093829971
 20
4598.350583469207
 30
0.0
 11
805.0372402828797
 21
4598.350583469207
 31
0.0
  0
LINE
  5
8051
330
804E
100
AcDbEntity
  8
0
  6
ByBlock
 62
     0
440
 16777216
100
AcDbLine
 10
1772.985093829971
 20
2318.350583469208
 30
0.0
 11
805.0372402828797
 21
2318.350583469208
 31
0.0
  0
LINE
  5
8052
330
804E
100
AcDbEntity
  8
0
  6
ByBlock
 62
     0
440
 16777216
100
AcDbLine
 10
840.0372402828798
 20
4528.350583469207
 30
0.0
 11
840.0372402828798
 21
2388.350583469208
 31
0.0
  0
INSERT
  5
8053
330
804E
100
AcDbEntity
  8
0
  6
ByBlock
 62
     0
440
 16777216
100
AcDbBlockReference
  2
_OPEN
 10
840.0372402828798
 20
4598.350583469207
 30
0.0
 41
70.0
 42
70.0
 43
70.0
 50
90.0
  0
INSERT
  5
8054
330
804E
100
AcDbEntity
  8
0
  6
ByBlock
 62
     0
440
 16777216
100
AcDbBlockReference
  2
_OPEN
 10
840.0372402828798
 20
2318.350583469208
 30
0.0
 41
70.0
 42
70.0
 43
70.0
 50
270.0
  0
MTEXT
  5
8055
330
804E
100
AcDbEntity
  8
0
  6
ByBlock
 62
     0
440
 16777216
100
AcDbMText
 10
725.0372402828798
 20
3458.350583469208
 30
0.0
 40
105.0
 41
0.0
 46
0.0
 71
     5
 72
     5
  1
\A1;(2280)
 11
0.0
 21
1.0
 31
0.0
 73
     1
 44
1.0
  0
POINT
  5
8056
330
804E
100
AcDbEntity
  8
DEFPOINTS
  6
ByBlock
 62
     0
440
 16777216
100
AcDbPoint
 10
2514.985093829972
 20
4598.350583469207
 30
0.0
  0
POINT
  5
8057
330
804E
100
AcDbEntity
  8
DEFPOINTS
  6
ByBlock
 62
     0
440
 16777216
100
AcDbPoint
 10
1790.485093829971
 20
2318.350583469208
 30
0.0
  0
POINT
  5
8058
330
804E
100
AcDbEntity
  8
DEFPOINTS
  6
ByBlock
 62
     0
440
 16777216
100
AcDbPoint
 10
840.0372402828798
 20
2318.350583469208
 30
0.0
  0
ENDBLK
  5
8059
330
804E
100
AcDbEntity
  8
0
100
AcDbBlockEnd
  0
ENDSEC
  0
SECTION
  2
ENTITIES
  0
INSERT
  5
7C23
330
19
100
AcDbEntity
  8
0
100
AcDbBlockReference
  2
YA_N
 10
6.0
 20
5.0
 30
0.0
  0
LINE
  5
7C25
330
19
100
AcDbEntity
  8
2
100
AcDbLine
 10
1543.704442376995
 20
3793.350583469208
 30
0.0
 11
3516.859434943643
 21
3793.350583469208
 31
0.0
  0
LINE
  5
7C26
330
19
100
AcDbEntity
  8
2
100
AcDbLine
 10
2450.485093829972
 20
2318.350583469208
 30
0.0
 11
2450.485093829972
 21
4771.882542940813
 31
0.0
  0
LINE
  5
7C27
330
19
100
AcDbEntity
  8
1
100
AcDbLine
 10
1690.485093829971
 20
3798.350583469208
 30
0.0
 11
1690.485093829971
 21
2542.350583469208
 31
0.0
  0
LINE
  5
7C28
330
19
100
AcDbEntity
  8
1
100
AcDbLine
 10
1690.485093829971
 20
2542.350583469208
 30
0.0
 11
1694.485093829971
 21
2542.350583469208
 31
0.0
  0
LINE
  5
7C29
330
19
100
AcDbEntity
  8
1
100
AcDbLine
 10
1690.485093829971
 20
3798.350583469208
 30
0.0
 11
1694.485093829971
 21
3798.350583469208
 31
0.0
  0
LINE
  5
7C2A
330
19
100
AcDbEntity
  8
1
100
AcDbLine
 10
1740.485093829971
 20
3745.350583469208
 30
0.0
 11
1740.485093829971
 21
2599.837671704646
 31
0.0
  0
LINE
  5
7C2B
330
19
100
AcDbEntity
  8
1
100
AcDbLine
 10
1694.485093829971
 20
3798.350583469208
 30
0.0
 11
1694.485093829971
 21
2542.350583469208
 31
0.0
  0
LINE
  5
7C2C
330
19
100
AcDbEntity
  8
1
100
AcDbLine
 10
1790.485093829971
 20
2438.350583469208
 30
0.0
 11
4240.48509382997
 21
2438.350583469208
 31
0.0
1001
ACAD
1000
ASC_BOUNDS
1002
{
1070
    19
1002
}
  0
LINE
  5
7C2D
330
19
100
AcDbEntity
  8
1
100
AcDbLine
 10
1790.485093829971
 20
2588.350583469208
 30
0.0
 11
1790.485093829971
 21
2438.350583469208
 31
0.0
  0
LINE
  5
7C2E
330
19
100
AcDbEntity
  8
1
100
AcDbLine
 10
4240.48509382997
 20
2588.350583469208
 30
0.0
 11
4240.48509382997
 21
2438.350583469208
 31
0.0
  0
LINE
  5
7C2F
330
19
100
AcDbEntity
  8
1
100
AcDbLine
 10
1790.485093829971
 20
2588.350583469208
 30
0.0
 11
4240.48509382997
 21
2588.350583469208
 31
0.0
  0
ARC
  5
7C30
330
19
100
AcDbEntity
  8
1
100
AcDbCircle
 10
2368.485093829971
 20
3711.350583469208
 30
0.0
 40
1051.0
100
AcDbArc
 50
274.4748178985338
 51
4.474817898533837
  0
ARC
  5
7C31
330
19
100
AcDbEntity
  8
1
100
AcDbCircle
 10
2532.485093829972
 20
3711.350583469208
 30
0.0
 40
887.0
100
AcDbArc
 50
5.304365207795824
 51
95.30436520779586
  0
ARC
  5
7C32
330
19
100
AcDbEntity
  8
1
100
AcDbCircle
 10
2518.985093829972
 20
3861.850583469208
 30
0.0
 40
736.5
100
AcDbArc
 50
95.33664832138351
 51
185.3366483213834
  0
LINE
  5
7C33
330
19
100
AcDbEntity
  8
1
100
AcDbLine
 10
1690.485093829971
 20
2595.350583469208
 30
0.0
 11
2450.485093829972
 21
2663.554324647865
 31
0.0
  0
LINE
  5
7C34
330
19
100
AcDbEntity
  8
1
100
AcDbLine
 10
1690.485093829971
 20
3745.350583469208
 30
0.0
 11
1793.913669596486
 21
3745.350583469208
 31
0.0
  0
LINE
  5
7C35
330
19
100
AcDbEntity
  8
2
100
AcDbLine
 10
3950.485093829972
 20
3137.208859625153
 30
0.0
 11
3950.48509382997
 21
2318.350583469208
 31
0.0
  0
LINE
  5
7C36
330
19
100
AcDbEntity
  8
2
100
AcDbLine
 10
3715.158798970993
 20
2848.350583469208
 30
0.0
 11
4223.631919228326
 21
2848.350583469208
 31
0.0
  0
LINE
  5
7C37
330
19
100
AcDbEntity
  8
1
100
AcDbLine
 10
4641.194970078262
 20
2438.350583469208
 30
0.0
 11
4716.194970078262
 21
2438.350583469208
 31
0.0
1001
ACAD
1000
ASC_BOUNDS
1002
{
1070
    19
1002
}
  0
LINE
  5
7C38
330
19
100
AcDbEntity
  8
1
100
AcDbLine
 10
4641.194970078262
 20
2588.350583469208
 30
0.0
 11
6541.194970078251
 21
2588.350583469208
 31
0.0
  0
LINE
  5
7C39
330
19
100
AcDbEntity
  8
1
100
AcDbLine
 10
4641.194970078262
 20
2588.350583469208
 30
0.0
 11
4641.194970078262
 21
2438.350583469208
 31
0.0
  0
LINE
  5
7C3A
330
19
100
AcDbEntity
  8
1
100
AcDbLine
 10
4716.194970078262
 20
2438.350583469208
 30
0.0
 11
6541.194970078251
 21
2438.350583469208
 31
0.0
1001
ACAD
1000
ASC_BOUNDS
1002
{
1070
    19
1002
}
  0
LINE
  5
7C3B
330
19
100
AcDbEntity
  8
2
100
AcDbLine
 10
4606.018220011152
 20
3793.350583469208
 30
0.0
 11
6638.18295715499
 21
3793.350583469208
 31
0.0
  0
LINE
  5
7C3C
330
19
100
AcDbEntity
  8
1
100
AcDbLine
 10
4628.19497007825
 20
3950.850583469208
 30
0.0
 11
4628.19497007825
 21
2730.350583469208
 31
0.0
  0
LINE
  5
7C3D
330
19
100
AcDbEntity
  8
1
100
AcDbLine
 10
4738.694970078251
 20
3950.850583469208
 30
0.0
 11
4738.694970078248
 21
2730.350583469208
 31
0.0
  0
LINE
  5
7C3E
330
19
100
AcDbEntity
  8
2
100
AcDbLine
 10
4607.276030859121
 20
2848.350583469208
 30
0.0
 11
5430.694970078249
 21
2848.350583469208
 31
0.0
  0
LINE
  5
7C3F
330
19
100
AcDbEntity
  8
1
100
AcDbLine
 10
4513.19497007825
 20
4013.350583469208
 30
0.0
 11
4513.19497007825
 21
2628.350583469208
 31
0.0
  0
LINE
  5
7C40
330
19
100
AcDbEntity
  8
1
100
AcDbLine
 10
4790.49497007825
 20
4013.350583469208
 30
0.0
 11
4790.49497007825
 21
3959.547872325334
 31
0.0
  0
LINE
  5
7C41
330
19
100
AcDbEntity
  8
2
100
AcDbLine
 10
2450.485093829972
 20
7712.892759900004
 30
0.0
 11
2450.485093829972
 21
5581.186099830503
 31
0.0
  0
LINE
  5
7C42
330
19
100
AcDbEntity
  8
2
100
AcDbLine
 10
1576.378825439904
 20
6781.186099830502
 30
0.0
 11
3419.485093829972
 21
6781.186099830503
 31
0.0
  0
LINE
  5
7C43
330
19
100
AcDbEntity
  8
2
100
AcDbLine
 10
5713.19497007825
 20
4807.532909635035
 30
0.0
 11
5713.19497007825
 21
2318.350583469208
 31
0.0
  0
POINT
  5
7C44
330
19
100
AcDbEntity
  8
1
100
AcDbPoint
 10
1649.283531331352
 20
3793.350583469208
 30
0.0
  0
INSERT
  5
7C45
330
19
100
AcDbEntity
  8
0
100
AcDbBlockReference
  2
YA_N
 10
-1074.779326041183
 20
-1311.669320613289
 30
0.0
 41
25.0
 42
25.0
 43
25.0
  0
LINE
  5
7C47
330
19
100
AcDbEntity
  8
1
100
AcDbLine
 10
1790.485093829971
 20
2393.350583469208
 30
0.0
 11
4240.48509382997
 21
2393.350583469208
 31
0.0
1001
ACAD
1000
ASC_BOUNDS
1002
{
1070
    19
1002
}
  0
LINE
  5
7C48
330
19
100
AcDbEntity
  8
1
100
AcDbLine
 10
1790.485093829971
 20
2393.350583469208
 30
0.0
 11
1790.485093829971
 21
2318.350583469208
 31
0.0
  0
LINE
  5
7C49
330
19
100
AcDbEntity
  8
1
100
AcDbLine
 10
4240.48509382997
 20
2393.350583469208
 30
0.0
 11
4240.48509382997
 21
2318.350583469208
 31
0.0
  0
LINE
  5
7C4A
330
19
100
AcDbEntity
  8
1
100
AcDbLine
 10
1790.485093829971
 20
2318.350583469208
 30
0.0
 11
4240.48509382997
 21
2318.350583469208
 31
0.0
1001
ACAD
1000
ASC_BOUNDS
1002
{
1070
    19
1002
}
  0
LINE
  5
7C4B
330
19
100
AcDbEntity
  8
1
100
AcDbLine
 10
4641.194970078261
 20
2393.350583469208
 30
0.0
 11
6541.194970078251
 21
2393.350583469208
 31
0.0
1001
ACAD
1000
ASC_BOUNDS
1002
{
1070
    19
1002
}
  0
LINE
  5
7C4C
330
19
100
AcDbEntity
  8
1
100
AcDbLine
 10
4641.194970078262
 20
2393.350583469208
 30
0.0
 11
4641.19497007825
 21
2318.350583469208
 31
0.0
  0
LINE
  5
7C4D
330
19
100
AcDbEntity
  8
1
100
AcDbLine
 10
6541.194970078251
 20
2393.350583469208
 30
0.0
 11
6541.194970078226
 21
2318.350583469208
 31
0.0
  0
LINE
  5
7C4E
330
19
100
AcDbEntity
  8
1
100
AcDbLine
 10
4641.194970078248
 20
2318.350583469208
 30
0.0
 11
6541.19497007823
 21
2318.350583469208
 31
0.0
  0
INSERT
  5
7C4F
330
19
100
AcDbEntity
  8
0
100
AcDbBlockReference
  2
YA_N
 10
-346.941647642394
 20
-375.8074592043958
 30
0.0
 41
25.0
 42
25.0
 43
25.0
  0
DIMENSION
  5
7C51
330
19
100
AcDbEntity
  8
3
100
AcDbDimension
280
     0
  2
*D2
 10
1490.376777545705
 20
3745.350583469208
 30
0.0
 11
1420.376777545705
 21
3170.350583469208
 31
0.0
 12
919.5925214755771
 22
2571.902200165325
 32
0.0
 70
    32
 71
     5
 42
-1.0
 73
     0
 74
     0
 75
     0
  3
MATSU
100
AcDbAlignedDimension
 13
1690.485093829971
 23
2595.350583469208
 33
0.0
 14
1690.485093829971
 24
3745.350583469208
 34
0.0
 50
90.0
100
AcDbRotatedDimension
1001
ACAD
1000
DSTYLE
1002
{
1070
    40
1040
35.0
1002
}
  0
DIMENSION
  5
7C52
330
19
100
AcDbEntity
  8
3
100
AcDbDimension
280
     0
  2
*D3
 10
1300.833587062247
 20
3793.350583469208
 30
0.0
 11
1230.833587062247
 21
3194.350583469208
 31
0.0
 12
919.5925214755771
 22
2571.902200165325
 32
0.0
 70
    32
 71
     5
 42
-1.0
 73
     0
 74
     0
 75
     0
  3
MATSU
100
AcDbAlignedDimension
 13
1690.485093829971
 23
2595.350583469208
 33
0.0
 14
1604.646092931238
 24
3793.350583469208
 34
0.0
 50
90.0
100
AcDbRotatedDimension
1001
ACAD
1000
DSTYLE
1002
{
1070
    40
1040
35.0
1002
}
  0
DIMENSION
  5
7C53
330
19
100
AcDbEntity
  8
3
100
AcDbDimension
280
     0
  2
*D4
 10
2450.485093829972
 20
2119.570775911778
 30
0.0
 11
2120.485093829971
 21
2189.570775911778
 31
0.0
 12
919.5925214755771
 22
2571.902200165325
 32
0.0
 70
    32
 71
     5
 42
-1.0
 73
     0
 74
     0
 75
     0
  3
MATSU
100
AcDbAlignedDimension
 13
1790.485093829971
 23
2318.350583469208
 33
0.0
 14
2450.485093829972
 24
2318.350583469208
 34
0.0
100
AcDbRotatedDimension
1001
ACAD
1000
DSTYLE
1002
{
1070
    40
1040
35.0
1002
}
  0
ARC
  5
7C54
330
19
100
AcDbEntity
  8
1
100
AcDbCircle
 10
2381.985093829972
 20
3861.850583469208
 30
0.0
 40
599.5
100
AcDbArc
 50
186.5610535428334
 51
191.2055053685536
  0
ARC
  5
7C55
330
19
100
AcDbEntity
  8
1
100
AcDbCircle
 10
3950.485093829972
 20
2848.350583469208
 30
0.0
 40
203.5
100
AcDbArc
 50
285.60376
 51
254.396301
  0
LINE
  5
7C56
330
19
100
AcDbEntity
  8
1
100
AcDbLine
 10
4005.22313082997
 20
2652.350583469208
 30
0.0
 11
3895.747056829971
 21
2652.350583469208
 31
0.0
  0
ARC
  5
7C57
330
19
100
AcDbEntity
  8
1
100
AcDbCircle
 10
3764.485093829972
 20
2665.350583469208
 30
0.0
 40
3.0
100
AcDbArc
 50
90.0
 51
180.0
  0
ARC
  5
7C58
330
19
100
AcDbEntity
  8
1
100
AcDbCircle
 10
3766.485093829972
 20
2722.677244469208
 30
0.0
 40
5.000066999999999
100
AcDbArc
 50
124.943665
 51
180.0
  0
LINE
  5
7C59
330
19
100
AcDbEntity
  8
1
100
AcDbLine
 10
3761.485093829972
 20
2722.677244469208
 30
0.0
 11
3761.485093829972
 21
2648.350583469208
 31
0.0
  0
LINE
  5
7C5D
330
19
100
AcDbEntity
  8
1
100
AcDbLine
 10
3846.382523829971
 20
2673.493772469208
 30
0.0
 11
3840.985093829971
 21
2653.350583469208
 31
0.0
  0
LINE
  5
7C5E
330
19
100
AcDbEntity
  8
1
100
AcDbLine
 10
3840.985093829971
 20
2665.350583469208
 30
0.0
 11
3840.985093829971
 21
2648.350583469208
 31
0.0
  0
LINE
  5
7C5F
330
19
100
AcDbEntity
  8
1
100
AcDbLine
 10
3837.985093829972
 20
2668.350583469208
 30
0.0
 11
3764.485093829972
 21
2668.350583469208
 31
0.0
  0
ARC
  5
7C60
330
19
100
AcDbEntity
  8
1
100
AcDbCircle
 10
3837.985093829972
 20
2665.350583469208
 30
0.0
 40
3.0
100
AcDbArc
 50
0.0
 51
90.0
  0
LINE
  5
7C61
330
19
100
AcDbEntity
  8
1
100
AcDbLine
 10
3763.621323829972
 20
2726.775876469208
 30
0.0
 11
3779.559189829971
 21
2737.912351469208
 31
0.0
  0
LINE
  5
7C62
330
19
100
AcDbEntity
  8
1
100
AcDbLine
 10
4139.485093829971
 20
2722.677244469208
 30
0.0
 11
4139.485093829971
 21
2648.350583469208
 31
0.0
  0
LINE
  5
7C66
330
19
100
AcDbEntity
  8
1
100
AcDbLine
 10
4054.587876829971
 20
2673.493894469208
 30
0.0
 11
4059.985093829971
 21
2653.350583469208
 31
0.0
  0
LINE
  5
7C67
330
19
100
AcDbEntity
  8
1
100
AcDbLine
 10
4059.985093829971
 20
2665.350583469208
 30
0.0
 11
4059.985093829971
 21
2648.350583469208
 31
0.0
  0
LINE
  5
7C68
330
19
100
AcDbEntity
  8
1
100
AcDbLine
 10
4062.985093829971
 20
2668.350583469208
 30
0.0
 11
4136.485093829971
 21
2668.350583469208
 31
0.0
  0
ARC
  5
7C69
330
19
100
AcDbEntity
  8
1
100
AcDbCircle
 10
4062.985093829971
 20
2665.350583469208
 30
0.0
 40
3.0
100
AcDbArc
 50
90.0
 51
180.0
  0
ARC
  5
7C6A
330
19
100
AcDbEntity
  8
1
100
AcDbCircle
 10
4136.485093829971
 20
2665.350583469208
 30
0.0
 40
3.0
100
AcDbArc
 50
0.0
 51
90.0
  0
LINE
  5
7C6B
330
19
100
AcDbEntity
  8
1
100
AcDbLine
 10
4137.34898482997
 20
2726.775876469208
 30
0.0
 11
4121.41111882997
 21
2737.912351469208
 31
0.0
  0
ARC
  5
7C6C
330
19
100
AcDbEntity
  8
1
100
AcDbCircle
 10
4134.485093829971
 20
2722.677244469208
 30
0.0
 40
5.0
100
AcDbArc
 50
0.0
 51
55.05633899999998
  0
LINE
  5
7C6D
330
19
100
AcDbEntity
  8
1
100
AcDbLine
 10
3706.422837781882
 20
2648.350583469208
 30
0.0
 11
3880.485093829971
 21
2648.350583469208
 31
0.0
  0
LINE
  5
7C6E
330
19
100
AcDbEntity
  8
1
100
AcDbLine
 10
3690.48509382997
 20
2588.350583469208
 30
0.0
 11
3706.422837781881
 21
2648.350583469208
 31
0.0
  0
LINE
  5
7C6F
330
19
100
AcDbEntity
  8
1
100
AcDbLine
 10
4210.485093829969
 20
2588.350583469208
 30
0.0
 11
4194.500083923606
 21
2648.350583469208
 31
0.0
  0
LINE
  5
7C71
330
19
100
AcDbEntity
  8
1
100
AcDbLine
 10
3880.485093829971
 20
2638.350583469208
 30
0.0
 11
4020.485093829971
 21
2638.350583469208
 31
0.0
  0
LINE
  5
7C72
330
19
100
AcDbEntity
  8
1
100
AcDbLine
 10
4020.485093829971
 20
2648.350583469208
 30
0.0
 11
4020.48509382997
 21
2638.350583469208
 31
0.0
  0
LINE
  5
7C73
330
19
100
AcDbEntity
  8
1
100
AcDbLine
 10
3880.485093829971
 20
2648.350583469208
 30
0.0
 11
3880.485093829971
 21
2638.350583469208
 31
0.0
  0
LINE
  5
7C76
330
19
100
AcDbEntity
  8
1
100
AcDbLine
 10
4020.485093829971
 20
2648.350583469208
 30
0.0
 11
4194.500083923606
 21
2648.350583469208
 31
0.0
  0
CIRCLE
  5
7C79
330
19
100
AcDbEntity
  8
1
100
AcDbCircle
 10
3950.485093829972
 20
2848.350583469208
 30
0.0
 40
118.0
  0
CIRCLE
  5
7C7A
330
19
100
AcDbEntity
  8
1
100
AcDbCircle
 10
2450.485093829972
 20
3793.350583469208
 30
0.0
 40
157.5
  0
LINE
  5
7C7B
330
19
100
AcDbEntity
  8
1
100
AcDbLine
 10
4628.19497007825
 20
2966.350583469208
 30
0.0
 11
4738.69497007825
 21
2966.350583469208
 31
0.0
  0
LINE
  5
7C7C
330
19
100
AcDbEntity
  8
1
100
AcDbLine
 10
4628.19497007825
 20
2730.350583469208
 30
0.0
 11
4738.69497007825
 21
2730.350583469208
 31
0.0
  0
LINE
  5
7C7D
330
19
100
AcDbEntity
  8
1
100
AcDbLine
 10
4628.19497007825
 20
3950.850583469208
 30
0.0
 11
4738.694970078251
 21
3950.850583469208
 31
0.0
  0
LINE
  5
7C7E
330
19
100
AcDbEntity
  8
1
100
AcDbLine
 10
4628.19497007825
 20
3635.850583469208
 30
0.0
 11
4738.69497007825
 21
3635.850583469208
 31
0.0
  0
LINE
  5
7C7F
330
19
100
AcDbEntity
  8
1
100
AcDbLine
 10
4513.194970078249
 20
4013.350583469208
 30
0.0
 11
4790.49497007825
 21
4013.350583469208
 31
0.0
  0
LINE
  5
7C80
330
19
100
AcDbEntity
  8
1
100
AcDbLine
 10
4513.19497007825
 20
2628.350583469208
 30
0.0
 11
4790.49497007825
 21
2628.350583469208
 31
0.0
  0
POINT
  5
7C82
330
19
100
AcDbEntity
  8
1
100
AcDbPoint
 10
1790.485093829971
 20
2393.350583469208
 30
0.0
  0
POINT
  5
7C83
330
19
100
AcDbEntity
  8
1
100
AcDbPoint
 10
1790.485093829971
 20
2438.350583469208
 30
0.0
  0
POINT
  5
7C84
330
19
100
AcDbEntity
  8
1
100
AcDbPoint
 10
1790.485093829971
 20
2393.350583469208
 30
0.0
  0
POINT
  5
7C85
330
19
100
AcDbEntity
  8
1
100
AcDbPoint
 10
1790.485093829971
 20
2318.350583469208
 30
0.0
  0
INSERT
  5
7C86
330
19
100
AcDbEntity
  8
0
100
AcDbBlockReference
  2
YA_N
 10
-394.4722692372307
 20
-430.8984299984331
 30
0.0
 41
25.0
 42
25.0
 43
25.0
  0
DIMENSION
  5
7C89
330
19
100
AcDbEntity
  8
3
100
AcDbDimension
280
     0
  2
*D5
 10
1124.665224176045
 20
2438.350583469208
 30
0.0
 11
1054.665224176045
 21
3115.850583469208
 31
0.0
 12
919.5925214755771
 22
2571.902200165325
 32
0.0
 70
    32
 71
     5
 42
-1.0
 73
     0
 74
     0
 75
     0
  3
MATSU
100
AcDbAlignedDimension
 13
1604.646092931238
 23
3793.350583469208
 33
0.0
 14
1790.485093829971
 24
2438.350583469208
 34
0.0
 50
90.0
100
AcDbRotatedDimension
1001
ACAD
1000
DSTYLE
1002
{
1070
    40
1040
35.0
1002
}
  0
POINT
  5
7C8A
330
19
100
AcDbEntity
  8
1
100
AcDbPoint
 10
1790.485093829971
 20
2393.350583469208
 30
0.0
  0
POINT
  5
7C8B
330
19
100
AcDbEntity
  8
1
100
AcDbPoint
 10
1790.485093829971
 20
2318.350583469208
 30
0.0
  0
POINT
  5
7C8C
330
19
100
AcDbEntity
  8
1
100
AcDbPoint
 10
1790.485093829971
 20
2393.350583469208
 30
0.0
  0
POINT
  5
7C8D
330
19
100
AcDbEntity
  8
1
100
AcDbPoint
 10
1790.485093829971
 20
2438.350583469208
 30
0.0
  0
LINE
  5
7C8E
330
19
100
AcDbEntity
  8
1
100
AcDbLine
 10
4963.19497007825
 20
4598.350583469207
 30
0.0
 11
6463.19497007825
 21
4598.350583469207
 31
0.0
  0
DIMENSION
  5
7C8F
330
19
100
AcDbEntity
  8
3
100
AcDbDimension
280
     0
  2
*D6
 10
2450.485093829972
 20
4819.033603701442
 30
0.0
 11
2070.485093829971
 21
4889.033603701442
 31
0.0
 12
332.6675400274035
 22
0.0
 32
0.0
 70
    32
 71
     5
 42
-1.0
 73
     0
 74
     0
 75
     0
  3
MATSU
100
AcDbAlignedDimension
 13
1690.485093829971
 23
3758.615273752493
 33
0.0
 14
2450.485093829972
 24
4771.882542940813
 34
0.0
100
AcDbRotatedDimension
1001
ACAD
1000
DSTYLE
1002
{
1070
    40
1040
35.0
1002
}
  0
DIMENSION
  5
7C90
330
19
100
AcDbEntity
  8
3
100
AcDbDimension
280
     0
  2
*D7
 10
3415.68665632859
 20
4819.033603701442
 30
0.0
 11
2933.08587507928
 21
4889.033603701442
 31
0.0
 12
332.6675400274035
 22
0.0
 32
0.0
 70
    32
  1
969
 71
     5
 42
-1.0
 73
     0
 74
     0
 75
     0
  3
MATSU
100
AcDbAlignedDimension
 13
2450.485093829972
 23
4771.882542940813
 33
0.0
 14
3415.68665632859
 24
3793.350583469209
 34
0.0
100
AcDbRotatedDimension
1001
ACAD
1000
DSTYLE
1002
{
1070
    40
1040
35.0
1002
}
  0
LINE
  5
7C91
330
19
100
AcDbEntity
  8
1
100
AcDbLine
 10
6463.194970078252
 20
2588.350583469208
 30
0.0
 11
6463.194970078248
 21
4598.350583469207
 31
0.0
  0
DIMENSION
  5
7C92
330
19
100
AcDbEntity
  8
3
100
AcDbDimension
280
     0
  2
*D8
 10
2450.485093829972
 20
2118.776983561224
 30
0.0
 11
3345.485093829971
 21
2188.776983561224
 31
0.0
 12
919.5925214755771
 22
2571.902200165325
 32
0.0
 70
    32
 71
     5
 42
-1.0
 73
     0
 74
     0
 75
     0
  3
MATSU
100
AcDbAlignedDimension
 13
4240.48509382997
 23
2318.350583469208
 33
0.0
 14
2450.485093829972
 24
2318.350583469208
 34
0.0
100
AcDbRotatedDimension
1001
ACAD
1000
DSTYLE
1002
{
1070
    40
1040
35.0
1002
}
  0
LINE
  5
7C94
330
19
100
AcDbEntity
  8
1
100
AcDbLine
 10
4805.694970078249
 20
3730.350583469208
 30
0.0
 11
4895.894970078249
 21
3730.350583469207
 31
0.0
  0
LINE
  5
7C95
330
19
100
AcDbEntity
  8
1
100
AcDbLine
 10
4795.694970078248
 20
3720.350583469208
 30
0.0
 11
4795.694970078248
 21
3590.350583469208
 31
0.0
  0
LINE
  5
7C96
330
19
100
AcDbEntity
  8
1
100
AcDbLine
 10
4935.694970078248
 20
3730.350583469207
 30
0.0
 11
4935.694970078248
 21
3580.350583469207
 31
0.0
  0
LINE
  5
7C97
330
19
100
AcDbEntity
  8
1
100
AcDbLine
 10
4805.694970078249
 20
3580.350583469208
 30
0.0
 11
4895.894970078249
 21
3580.350583469207
 31
0.0
  0
ARC
  5
7C98
330
19
100
AcDbEntity
  8
1
100
AcDbCircle
 10
4805.694970078249
 20
3720.350583469208
 30
0.0
 40
10.0
100
AcDbArc
 50
90.0
 51
180.0
  0
ARC
  5
7C99
330
19
100
AcDbEntity
  8
1
100
AcDbCircle
 10
4805.694970078249
 20
3590.350583469208
 30
0.0
 40
10.0
100
AcDbArc
 50
180.0
 51
270.0
  0
LINE
  5
7C9A
330
19
100
AcDbEntity
  8
1
100
AcDbLine
 10
6505.694970078249
 20
3730.350583469207
 30
0.0
 11
6505.694970078249
 21
3580.350583469207
 31
0.0
  0
LINE
  5
7C9B
330
19
100
AcDbEntity
  8
1
100
AcDbLine
 10
6645.694970078249
 20
3720.350583469208
 30
0.0
 11
6645.694970078249
 21
3590.350583469208
 31
0.0
  0
LINE
  5
7C9C
330
19
100
AcDbEntity
  8
1
100
AcDbLine
 10
6635.694970078249
 20
3580.350583469208
 30
0.0
 11
6545.494970078252
 21
3580.350583469207
 31
0.0
  0
ARC
  5
7C9D
330
19
100
AcDbEntity
  8
1
100
AcDbCircle
 10
6635.694970078249
 20
3590.350583469208
 30
0.0
 40
10.0
100
AcDbArc
 50
270.0
 51
0.0
  0
LINE
  5
7C9E
330
19
100
AcDbEntity
  8
1
100
AcDbLine
 10
6635.694970078249
 20
3730.350583469208
 30
0.0
 11
6545.494970078252
 21
3730.350583469207
 31
0.0
  0
ARC
  5
7C9F
330
19
100
AcDbEntity
  8
1
100
AcDbCircle
 10
6635.694970078249
 20
3720.350583469208
 30
0.0
 40
10.0
100
AcDbArc
 50
0.0
 51
90.0
  0
LINE
  5
7CA0
330
19
100
AcDbEntity
  8
1
100
AcDbLine
 10
4768.194970078249
 20
3833.350583469208
 30
0.0
 11
4963.19497007825
 21
3833.350583469208
 31
0.0
  0
LINE
  5
7CA1
330
19
100
AcDbEntity
  8
1
100
AcDbLine
 10
4768.194970078249
 20
3753.350583469208
 30
0.0
 11
4963.19497007825
 21
3753.350583469208
 31
0.0
  0
LINE
  5
7CA2
330
19
100
AcDbEntity
  8
1
100
AcDbLine
 10
4768.194970078249
 20
3833.350583469208
 30
0.0
 11
4768.194970078249
 21
3753.350583469208
 31
0.0
  0
LINE
  5
7CA3
330
19
100
AcDbEntity
  8
1
100
AcDbLine
 10
4738.694970078251
 20
3825.850583469208
 30
0.0
 11
4768.194970078249
 21
3825.850583469208
 31
0.0
  0
LINE
  5
7CA4
330
19
100
AcDbEntity
  8
1
100
AcDbLine
 10
4738.69497007825
 20
3760.850583469208
 30
0.0
 11
4768.194970078249
 21
3760.850583469208
 31
0.0
  0
LINE
  5
7CA5
330
19
100
AcDbEntity
  8
1
100
AcDbLine
 10
5713.194970078249
 20
5018.267988342384
 30
0.0
 11
5713.194970078249
 21
4968.678865421396
 31
0.0
  0
DIMENSION
  5
7CA6
330
19
100
AcDbEntity
  8
3
100
AcDbDimension
280
     0
  2
*D9
 10
5713.194970078249
 20
5050.146714205555
 30
0.0
 11
5113.194970078249
 21
5147.646714205555
 31
0.0
 70
    32
  1
(<>)
 71
     5
 42
1200.0
 73
     0
 74
     0
 75
     0
  3
MATSU
100
AcDbAlignedDimension
 13
4513.194970078249
 23
4013.350583469208
 33
0.0
 14
5713.194970078249
 24
5018.267988342384
 34
0.0
100
AcDbRotatedDimension
1001
ACAD
1000
DSTYLE
1002
{
1070
    40
1040
35.0
1002
}
  0
DIMENSION
  5
7CA7
330
19
100
AcDbEntity
  8
3
100
AcDbDimension
280
     0
  2
*D10
 10
6643.194970078247
 20
5049.79758291458
 30
0.0
 11
6178.194970078248
 21
5147.29758291458
 31
0.0
 70
    32
  1
(<>)
 71
     5
 42
929.9999999999981
 73
     0
 74
     0
 75
     0
  3
MATSU
100
AcDbAlignedDimension
 13
5713.194970078249
 23
5018.267988342384
 33
0.0
 14
6643.194970078247
 24
3703.840094807912
 34
0.0
100
AcDbRotatedDimension
1001
ACAD
1000
DSTYLE
1002
{
1070
    40
1040
35.0
1002
}
  0
DIMENSION
  5
7CA8
330
19
100
AcDbEntity
  8
3
100
AcDbDimension
280
     0
  2
*D11
 10
6830.977736433765
 20
4353.350583469207
 30
0.0
 11
6760.977736433765
 21
3793.350583469208
 31
0.0
 12
69.4421287707446
 22
2571.902200165325
 32
0.0
 70
    32
  1
φ<>
 71
     5
 42
-1.0
 73
     0
 74
     0
 75
     0
  3
MATSU
100
AcDbAlignedDimension
 13
6468.694970078252
 23
3233.350583469208
 33
0.0
 14
6468.694970078252
 24
4353.350583469207
 34
0.0
 50
90.0
100
AcDbRotatedDimension
1001
ACAD
1000
DSTYLE
1002
{
1070
    40
1040
35.0
1002
}
  0
LINE
  5
7CA9
330
19
100
AcDbEntity
  8
1
100
AcDbLine
 10
6545.494970078251
 20
3730.350583469207
 30
0.0
 11
6505.694970078249
 21
3730.350583469207
 31
0.0
  0
LINE
  5
7CAA
330
19
100
AcDbEntity
  8
1
100
AcDbLine
 10
6545.494970078252
 20
3580.350583469207
 30
0.0
 11
6505.694970078249
 21
3580.350583469207
 31
0.0
  0
LINE
  5
7CAB
330
19
100
AcDbEntity
  8
1
100
AcDbLine
 10
4895.894970078249
 20
3730.350583469207
 30
0.0
 11
4935.694970078248
 21
3730.350583469207
 31
0.0
  0
LINE
  5
7CAC
330
19
100
AcDbEntity
  8
1
100
AcDbLine
 10
4895.894970078249
 20
3580.350583469207
 30
0.0
 11
4935.694970078248
 21
3580.350583469207
 31
0.0
  0
LINE
  5
7CAD
330
19
100
AcDbEntity
  8
1
100
AcDbLine
 10
1790.485093829971
 20
5709.186099830503
 30
0.0
 11
4240.485093829971
 21
5709.186099830502
 31
0.0
  0
LINE
  5
7CAE
330
19
100
AcDbEntity
  8
1
100
AcDbLine
 10
1790.485093829971
 20
7609.186099830501
 30
0.0
 11
3110.485093829972
 21
7609.186099830502
 31
0.0
  0
LINE
  5
7CAF
330
19
100
AcDbEntity
  8
1
100
AcDbLine
 10
1790.485093829971
 20
7609.186099830502
 30
0.0
 11
1790.485093829971
 21
7531.186099830503
 31
0.0
  0
LINE
  5
7CB0
330
19
100
AcDbEntity
  8
1
100
AcDbLine
 10
4240.485093829971
 20
6709.186099830501
 30
0.0
 11
4240.485093829971
 21
5709.186099830502
 31
0.0
  0
LINE
  5
7CB1
330
19
100
AcDbEntity
  8
1
100
AcDbLine
 10
3110.485093829972
 20
7609.186099830502
 30
0.0
 11
3110.485093829972
 21
7531.186099830501
 31
0.0
  0
LINE
  5
7CB2
330
19
100
AcDbEntity
  8
1
100
AcDbLine
 10
3419.485093829972
 20
6709.186099830501
 30
0.0
 11
4240.485093829971
 21
6709.186099830501
 31
0.0
  0
DIMENSION
  5
7CB3
330
19
100
AcDbEntity
  8
3
100
AcDbDimension
280
     0
  2
*D12
 10
1790.485093829971
 20
5377.461523800096
 30
0.0
 11
3015.485093829972
 21
5377.461523800096
 31
0.0
 12
919.5925214755771
 22
2143.251833471103
 32
0.0
 70
   160
 71
     5
 42
-1.0
 73
     0
 74
     0
 75
     0
  3
MATSU
100
AcDbAlignedDimension
 13
4240.485093829971
 23
5709.186099830502
 33
0.0
 14
1790.485093829971
 24
5709.186099830503
 34
0.0
100
AcDbRotatedDimension
1001
ACAD
1000
DSTYLE
1002
{
1070
    40
1040
35.0
1002
}
  0
DIMENSION
  5
7CB4
330
19
100
AcDbEntity
  8
3
100
AcDbDimension
280
     0
  2
*D13
 10
1391.495843308075
 20
5709.186099830503
 30
0.0
 11
1321.495843308075
 21
6659.186099830503
 31
0.0
 12
919.5925214755771
 22
2143.251833471103
 32
0.0
 70
    32
 71
     5
 42
-1.0
 73
     0
 74
     0
 75
     0
  3
MATSU
100
AcDbAlignedDimension
 13
1790.485093829971
 23
7609.186099830502
 33
0.0
 14
1790.485093829971
 24
5709.186099830503
 34
0.0
 50
270.0
100
AcDbRotatedDimension
1001
ACAD
1000
DSTYLE
1002
{
1070
    40
1040
35.0
1002
}
  0
DIMENSION
  5
7CB5
330
19
100
AcDbEntity
  8
3
100
AcDbDimension
280
     0
  2
*D14
 10
4641.078048752391
 20
5709.186099830502
 30
0.0
 11
4571.078048752392
 21
6209.186099830502
 31
0.0
 12
919.5925214755771
 22
2143.251833471103
 32
0.0
 70
    32
 71
     5
 42
-1.0
 73
     0
 74
     0
 75
     0
  3
MATSU
100
AcDbAlignedDimension
 13
4240.485093829971
 23
6709.186099830501
 33
0.0
 14
4240.485093829971
 24
5709.186099830502
 34
0.0
 50
270.0
100
AcDbRotatedDimension
1001
ACAD
1000
DSTYLE
1002
{
1070
    40
1040
35.0
1002
}
  0
DIMENSION
  5
7CB6
330
19
100
AcDbEntity
  8
3
100
AcDbDimension
280
     0
  2
*D15
 10
3110.485093829972
 20
8006.043235879847
 30
0.0
 11
3675.485093829972
 21
8076.043235879847
 31
0.0
 12
919.5925214755771
 22
2143.251833471103
 32
0.0
 70
    32
 71
     5
 42
-1.0
 73
     0
 74
     0
 75
     0
  3
MATSU
100
AcDbAlignedDimension
 13
4240.485093829971
 23
6709.186099830501
 33
0.0
 14
3110.485093829972
 24
7609.186099830502
 34
0.0
100
AcDbRotatedDimension
1001
ACAD
1000
DSTYLE
1002
{
1070
    40
1040
35.0
1002
}
  0
DIMENSION
  5
7CB7
330
19
100
AcDbEntity
  8
3
100
AcDbDimension
280
     0
  2
*D16
 10
1790.485093829971
 20
8006.043235879847
 30
0.0
 11
2450.485093829972
 21
8076.043235879847
 31
0.0
 12
919.5925214755771
 22
2143.251833471103
 32
0.0
 70
    32
 71
     5
 42
-1.0
 73
     0
 74
     0
 75
     0
  3
MATSU
100
AcDbAlignedDimension
 13
3110.485093829972
 23
7609.186099830502
 33
0.0
 14
1790.485093829971
 24
7609.186099830502
 34
0.0
100
AcDbRotatedDimension
1001
ACAD
1000
DSTYLE
1002
{
1070
    40
1040
35.0
1002
}
  0
ARC
  5
7CB8
330
19
100
AcDbEntity
  8
1
100
AcDbCircle
 10
2450.485093829972
 20
3793.350583469208
 30
0.0
 40
220.0
100
AcDbArc
 50
57.78907227632624
 51
237.7890722763262
  0
ARC
  5
7CB9
330
19
100
AcDbEntity
  8
1
100
AcDbCircle
 10
3950.485093829972
 20
2848.350583469208
 30
0.0
 40
220.0
100
AcDbArc
 50
237.7890722763262
 51
57.78907227632629
  0
POINT
  5
7CBA
330
19
100
AcDbEntity
  8
1
100
AcDbPoint
 10
1790.485093829971
 20
2393.350583469208
 30
0.0
  0
POINT
  5
7CBB
330
19
100
AcDbEntity
  8
1
100
AcDbPoint
 10
1790.485093829971
 20
2318.350583469208
 30
0.0
  0
LINE
  5
7CBC
330
19
100
AcDbEntity
  8
1
100
AcDbLine
 10
6541.19497007825
 20
2588.350583469208
 30
0.0
 11
6541.19497007825
 21
2438.350583469208
 31
0.0
  0
DIMENSION
  5
7CBD
330
19
100
AcDbEntity
  8
3
100
AcDbDimension
280
     0
  2
*D17
 10
6541.19497007823
 20
2119.001452776192
 30
0.0
 11
6127.19497007824
 21
2189.001452776192
 31
0.0
 12
69.4421287707446
 22
2571.902200165325
 32
0.0
 70
    32
 71
     5
 42
-1.0
 73
     0
 74
     0
 75
     0
  3
MATSU
100
AcDbAlignedDimension
 13
5713.19497007825
 23
2318.350583469208
 33
0.0
 14
6541.19497007823
 24
2318.350583469208
 34
0.0
100
AcDbRotatedDimension
1001
ACAD
1000
DSTYLE
1002
{
1070
    40
1040
35.0
1002
}
  0
DIMENSION
  5
7CBE
330
19
100
AcDbEntity
  8
3
100
AcDbDimension
280
     0
  2
*D18
 10
5713.19497007825
 20
2119.001452776192
 30
0.0
 11
5177.194970078251
 21
2189.001452776192
 31
0.0
 12
69.4421287707446
 22
2571.902200165325
 32
0.0
 70
    32
 71
     5
 42
-1.0
 73
     0
 74
     0
 75
     0
  3
MATSU
100
AcDbAlignedDimension
 13
4641.194970078252
 23
2318.350583469208
 33
0.0
 14
5713.19497007825
 24
2318.350583469208
 34
0.0
100
AcDbRotatedDimension
1001
ACAD
1000
DSTYLE
1002
{
1070
    40
1040
35.0
1002
}
  0
CIRCLE
  5
7CC0
330
19
100
AcDbEntity
  8
1
100
AcDbCircle
 10
2450.485093829972
 20
3793.350583469208
 30
0.0
 40
560.0
  0
CIRCLE
  5
7CC1
330
19
100
AcDbEntity
  8
1
100
AcDbCircle
 10
2450.485093829972
 20
3793.350583469208
 30
0.0
 40
610.0
  0
LINE
  5
7CC2
330
19
100
AcDbEntity
  8
2
100
AcDbLine
 10
3950.485093829972
 20
5581.186099830503
 30
0.0
 11
3950.485093829972
 21
6470.686099830503
 31
0.0
  0
DIMENSION
  5
7CC3
330
19
100
AcDbEntity
  8
3
100
AcDbDimension
280
     0
  2
*D19
 10
6463.19497007825
 20
4825.609140458443
 30
0.0
 11
5713.19497007825
 21
4895.609140458442
 31
0.0
 12
69.4421287707446
 22
2571.902200165325
 32
0.0
 70
    32
 71
     5
 42
-1.0
 73
     0
 74
     0
 75
     0
  3
MATSU
100
AcDbAlignedDimension
 13
4963.194970078249
 23
4598.350583469207
 33
0.0
 14
6463.19497007825
 24
4598.350583469207
 34
0.0
100
AcDbRotatedDimension
1001
ACAD
1000
DSTYLE
1002
{
1070
    40
1040
35.0
1002
}
  0
LINE
  5
7CC4
330
19
100
AcDbEntity
  8
1
100
AcDbLine
 10
2230.485093829972
 20
5581.186099830503
 30
0.0
 11
4170.485093829971
 21
5581.186099830502
 31
0.0
  0
LINE
  5
7CC5
330
19
100
AcDbEntity
  8
1
100
AcDbLine
 10
2230.485093829972
 20
5831.186099830503
 30
0.0
 11
4170.485093829971
 21
5831.186099830502
 31
0.0
  0
LINE
  5
7CC6
330
19
100
AcDbEntity
  8
1
100
AcDbLine
 10
2230.485093829972
 20
5581.186099830502
 30
0.0
 11
2230.485093829972
 21
5831.186099830502
 31
0.0
  0
LINE
  5
7CC7
330
19
100
AcDbEntity
  8
1
100
AcDbLine
 10
4170.485093829971
 20
5581.186099830502
 30
0.0
 11
4170.485093829971
 21
5831.186099830502
 31
0.0
  0
LINE
  5
7CC8
330
19
100
AcDbEntity
  8
1
100
AcDbLine
 10
1690.485093829971
 20
7581.186099830502
 30
0.0
 11
1690.485093829971
 21
5981.186099830502
 31
0.0
  0
LINE
  5
7CC9
330
19
100
AcDbEntity
  8
1
100
AcDbLine
 10
3419.485093829972
 20
7531.186099830501
 30
0.0
 11
3419.485093829972
 21
6031.186099830502
 31
0.0
  0
LINE
  5
7CCA
330
19
100
AcDbEntity
  8
1
100
AcDbLine
 10
1690.485093829971
 20
7531.186099830502
 30
0.0
 11
3419.485093829972
 21
7531.186099830501
 31
0.0
  0
LINE
  5
7CCB
330
19
100
AcDbEntity
  8
1
100
AcDbLine
 10
1690.485093829971
 20
6031.186099830501
 30
0.0
 11
3419.485093829972
 21
6031.186099830502
 31
0.0
  0
LINE
  5
7CCC
330
19
100
AcDbEntity
  8
1
100
AcDbLine
 10
1690.485093829971
 20
7581.186099830502
 30
0.0
 11
1694.485093829971
 21
7581.1860998305
 31
0.0
  0
LINE
  5
7CCD
330
19
100
AcDbEntity
  8
1
100
AcDbLine
 10
1690.485093829971
 20
5981.186099830501
 30
0.0
 11
1694.485093829971
 21
5981.186099830501
 31
0.0
  0
LINE
  5
7CCE
330
19
100
AcDbEntity
  8
1
100
AcDbLine
 10
1694.485093829971
 20
7581.186099830502
 30
0.0
 11
1694.485093829971
 21
5981.186099830502
 31
0.0
  0
LINE
  5
7CCF
330
19
100
AcDbEntity
  8
1
100
AcDbLine
 10
2292.985093829972
 20
5778.186099830503
 30
0.0
 11
2292.985093829972
 21
5668.186099830503
 31
0.0
  0
LINE
  5
7CD0
330
19
100
AcDbEntity
  8
1
100
AcDbLine
 10
2607.985093829972
 20
5778.186099830503
 30
0.0
 11
2607.985093829972
 21
5668.186099830503
 31
0.0
  0
LINE
  5
7CD1
330
19
100
AcDbEntity
  8
1
100
AcDbLine
 10
3832.485093829972
 20
5668.186099830502
 30
0.0
 11
3832.485093829972
 21
5778.186099830502
 31
0.0
  0
LINE
  5
7CD2
330
19
100
AcDbEntity
  8
1
100
AcDbLine
 10
4068.485093829972
 20
5668.186099830502
 30
0.0
 11
4068.485093829972
 21
5778.186099830502
 31
0.0
  0
LINE
  5
7CD3
330
19
100
AcDbEntity
  8
1
100
AcDbLine
 10
2292.985093829972
 20
5668.186099830502
 30
0.0
 11
2607.985093829972
 21
5668.186099830504
 31
0.0
  0
LINE
  5
7CD4
330
19
100
AcDbEntity
  8
1
100
AcDbLine
 10
2292.985093829972
 20
5778.186099830502
 30
0.0
 11
2607.985093829972
 21
5778.186099830503
 31
0.0
  0
LINE
  5
7CD5
330
19
100
AcDbEntity
  8
1
100
AcDbLine
 10
3832.485093829972
 20
5778.186099830502
 30
0.0
 11
4068.485093829972
 21
5778.186099830502
 31
0.0
  0
LINE
  5
7CD6
330
19
100
AcDbEntity
  8
1
100
AcDbLine
 10
3832.485093829972
 20
5668.186099830502
 30
0.0
 11
4068.485093829972
 21
5668.186099830502
 31
0.0
  0
LINE
  5
7CD7
330
19
100
AcDbEntity
  8
1
100
AcDbLine
 10
3746.985093829972
 20
5813.186099830502
 30
0.0
 11
3746.985093829972
 21
6470.686099830501
 31
0.0
  0
LINE
  5
7CD8
330
19
100
AcDbEntity
  8
1
100
AcDbLine
 10
4153.985093829971
 20
5813.186099830502
 30
0.0
 11
4153.985093829971
 21
6470.686099830501
 31
0.0
  0
LINE
  5
7CD9
330
19
100
AcDbEntity
  8
1
100
AcDbLine
 10
3746.985093829972
 20
6470.686099830501
 30
0.0
 11
4153.985093829971
 21
6470.686099830501
 31
0.0
  0
LINE
  5
7CDA
330
19
100
AcDbEntity
  8
1
100
AcDbLine
 10
3746.985093829972
 20
5813.186099830502
 30
0.0
 11
4153.985093829971
 21
5813.186099830502
 31
0.0
  0
LINE
  5
7CDB
330
19
100
AcDbEntity
  8
1
100
AcDbLine
 10
3922.985093829971
 20
5778.186099830502
 30
0.0
 11
3922.985093829971
 21
5813.186099830502
 31
0.0
  0
LINE
  5
7CDC
330
19
100
AcDbEntity
  8
1
100
AcDbLine
 10
3977.985093829972
 20
5778.186099830502
 30
0.0
 11
3977.985093829972
 21
5813.186099830502
 31
0.0
  0
LINE
  5
7CDD
330
19
100
AcDbEntity
  8
1
100
AcDbLine
 10
2412.985093829972
 20
6031.186099830502
 30
0.0
 11
2412.985093829972
 21
5778.186099830502
 31
0.0
  0
LINE
  5
7CDE
330
19
100
AcDbEntity
  8
1
100
AcDbLine
 10
2487.985093829971
 20
6031.186099830501
 30
0.0
 11
2487.985093829971
 21
5778.186099830503
 31
0.0
  0
LINE
  5
7CDF
330
19
100
AcDbEntity
  8
1
100
AcDbLine
 10
4773.694970078248
 20
2644.850583469208
 30
0.0
 11
5430.694970078249
 21
2644.850583469208
 31
0.0
  0
LINE
  5
7CE0
330
19
100
AcDbEntity
  8
1
100
AcDbLine
 10
4773.694970078248
 20
3051.850583469208
 30
0.0
 11
5430.694970078249
 21
3051.850583469208
 31
0.0
  0
LINE
  5
7CE1
330
19
100
AcDbEntity
  8
1
100
AcDbLine
 10
4738.694970078248
 20
2875.850583469208
 30
0.0
 11
4773.694970078248
 21
2875.850583469208
 31
0.0
  0
LINE
  5
7CE2
330
19
100
AcDbEntity
  8
1
100
AcDbLine
 10
4738.694970078248
 20
2820.850583469208
 30
0.0
 11
4773.694970078249
 21
2820.850583469208
 31
0.0
  0
LINE
  5
7CE3
330
19
100
AcDbEntity
  8
1
100
AcDbLine
 10
4773.694970078248
 20
2644.850583469208
 30
0.0
 11
4773.694970078248
 21
3051.850583469208
 31
0.0
  0
DIMENSION
  5
7CE4
330
19
100
AcDbEntity
  8
3
100
AcDbDimension
280
     0
  2
*D20
 10
1690.485093829971
 20
5023.479500428994
 30
0.0
 11
2965.485093829971
 21
5093.479500428994
 31
0.0
 12
332.6675400274035
 22
0.0
 32
0.0
 70
    32
 71
     5
 42
-1.0
 73
     0
 74
     0
 75
     0
  3
MATSU
100
AcDbAlignedDimension
 13
4240.48509382997
 23
2588.350583469208
 33
0.0
 14
1690.485093829971
 24
3758.615273752493
 34
0.0
100
AcDbRotatedDimension
1001
ACAD
1000
DSTYLE
1002
{
1070
    40
1040
35.0
1002
}
  0
LINE
  5
7CEB
330
19
100
AcDbEntity
  8
1
100
AcDbLine
 10
4790.49497007825
 20
2684.471567567888
 30
0.0
 11
4790.49497007825
 21
2628.350583469208
 31
0.0
  0
DIMENSION
  5
7CEC
330
19
100
AcDbEntity
  8
3
100
AcDbDimension
280
     0
  2
*D21
 10
1124.671210987206
 20
2393.350583469208
 30
0.0
 11
957.1712109872059
 21
2506.550274987509
 31
0.0
 12
332.6675400274035
 22
0.0
 32
0.0
 70
   160
  1
(<>)
 71
     5
 42
-1.0
 73
     0
 74
     0
 75
     0
  3
IGA
100
AcDbAlignedDimension
 13
1790.485093829971
 23
2438.350583469208
 33
0.0
 14
1790.485093829971
 24
2393.350583469208
 34
0.0
 50
270.0
100
AcDbRotatedDimension
1001
ACAD
1000
DSTYLE
1002
{
1070
   288
1070
     1
1070
   172
1070
     1
1070
    40
1040
35.0
1070
   271
1070
     0
1070
     7
1000
_DOT
1070
   143
1040
0.039
1002
}
  0
DIMENSION
  5
7CED
330
19
100
AcDbEntity
  8
3
100
AcDbDimension
280
     0
  2
*D22
 10
1124.665224176045
 20
2318.350583469208
 30
0.0
 11
1037.165224176045
 21
2058.350583469208
 31
0.0
 70
    32
 71
     5
 42
-1.0
 73
     0
 74
     0
 75
     0
  3
IGA
100
AcDbAlignedDimension
 13
1790.485093829971
 23
2393.350583469208
 33
0.0
 14
1790.485093829971
 24
2318.350583469208
 34
0.0
 50
270.0
100
AcDbRotatedDimension
1001
ACAD
1000
DSTYLE
1002
{
1070
   287
1070
     3
1070
    40
1040
35.0
1070
   143
1040
0.039
1070
   172
1070
     1
1070
   271
1070
     0
1070
   279
1070
     0
1070
   288
1070
     1
1070
     6
1000
DOT
1002
}
  0
LINE
  5
7CEF
330
19
100
AcDbEntity
  8
1
100
AcDbLine
 10
2567.753378230167
 20
3979.490717437772
 30
0.0
 11
4067.753378230166
 21
3034.490717437772
 31
0.0
  0
LINE
  5
7CF0
330
19
100
AcDbEntity
  8
1
100
AcDbLine
 10
2333.216809429776
 20
3607.210449500644
 30
0.0
 11
3833.216809429777
 21
2662.210449500645
 31
0.0
  0
LINE
  5
7CF1
330
19
100
AcDbEntity
  8
1
100
AcDbLine
 10
2537.38675855841
 20
3924.706400498474
 30
0.0
 11
4015.592372801118
 21
2946.763195592722
 31
0.0
  0
LINE
  5
7CF2
330
19
100
AcDbEntity
  8
1
100
AcDbLine
 10
2369.521577859497
 20
3658.253732722424
 30
0.0
 11
3889.826713610823
 21
2747.135165131935
 31
0.0
  0
LINE
  5
7CF3
330
19
100
AcDbEntity
  8
1
100
AcDbLine
 10
5430.694970078249
 20
2644.850583469208
 30
0.0
 11
5430.694970078249
 21
3051.850583469208
 31
0.0
  0
LINE
  5
7CF4
330
19
100
AcDbEntity
  8
1
100
AcDbLine
 10
4963.194970078251
 20
3051.850583469208
 30
0.0
 11
4963.194970078249
 21
4598.350583469207
 31
0.0
  0
LINE
  5
7CF6
330
19
100
AcDbEntity
  8
1
100
AcDbLine
 10
5354.833103459238
 20
2644.850583469208
 30
0.0
 11
5354.833103459237
 21
2588.350583469208
 31
0.0
  0
LINE
  5
7CF7
330
19
100
AcDbEntity
  8
1
100
AcDbLine
 10
4874.882266731933
 20
2644.850583469208
 30
0.0
 11
4874.882266731933
 21
2588.350583469208
 31
0.0
  0
LINE
  5
7CF8
330
19
100
AcDbEntity
  8
1
100
AcDbLine
 10
1790.485093829971
 20
6031.186099830501
 30
0.0
 11
1790.485093829971
 21
5709.186099830503
 31
0.0
  0
LINE
  5
7F5D
330
19
100
AcDbEntity
  8
4
100
AcDbLine
 10
6475.0
 20
1411.801556683425
 30
0.0
 11
6475.0
 21
711.8015566834255
 31
0.0
  0
LINE
  5
7F5E
330
19
100
AcDbEntity
  8
4
100
AcDbLine
 10
4025.0
 20
1411.801556683425
 30
0.0
 11
4025.0
 21
711.8015566834255
 31
0.0
  0
LINE
  5
7F5F
330
19
100
AcDbEntity
  8
4
100
AcDbLine
 10
2275.0
 20
1411.801556683425
 30
0.0
 11
2275.0
 21
711.8015566834255
 31
0.0
  0
LINE
  5
7F62
330
19
100
AcDbEntity
  8
4
100
AcDbLine
 10
2275.0
 20
711.8015566834255
 30
0.0
 11
6475.0
 21
711.8015566834255
 31
0.0
  0
LINE
  5
7F63
330
19
100
AcDbEntity
  8
4
100
AcDbLine
 10
2275.0
 20
1061.801556683425
 30
0.0
 11
6475.0
 21
1061.801556683425
 31
0.0
  0
TEXT
  5
7F64
330
19
100
AcDbEntity
  8
4
100
AcDbText
 10
2409.757282964156
 20
1172.20214721657
 30
0.0
 40
175.0
  1
機器名称
100
AcDbText
  0
TEXT
  5
7F65
330
19
100
AcDbEntity
  8
4
100
AcDbText
 10
2401.903371086792
 20
787.5596052454639
 30
0.0
 40
175.0
  1
機器型番
100
AcDbText
  0
TEXT
  5
7F66
330
19
100
AcDbEntity
  8
4
100
AcDbText
 10
4127.321178614098
 20
1142.377280746505
 30
0.0
 40
140.0
  1
ミツヤリミットロードファン
100
AcDbText
  0
TEXT
  5
7F67
330
19
100
AcDbEntity
  8
4
100
AcDbText
 10
4153.290734549182
 20
771.8601016632273
 30
0.0
 40
175.0
  1
LL#7-5
100
AcDbText
  0
TEXT
  5
7F69
330
19
100
AcDbEntity
  8
4
100
AcDbText
 10
2889.527245724356
 20
8342.000944663805
 30
0.0
 40
188.9999999999999
  1
床置防振ベット
100
AcDbText
  0
TEXT
  5
7F6A
330
19
100
AcDbEntity
  8
4
100
AcDbText
 10
1106.586576653062
 20
8868.583416697545
 30
0.0
 40
252.0
  1
遠心式両吸込両持リミットロードファン
100
AcDbText
  0
LINE
  5
7F6B
330
19
100
AcDbEntity
  8
4
100
AcDbLine
 10
875.0
 20
8642.930639926817
 30
0.0
 11
6475.0
 21
8642.930639926817
 31
0.0
  0
LINE
  5
7F6C
330
19
100
AcDbEntity
  8
4
100
AcDbLine
 10
875.0
 20
9342.930639926818
 30
0.0
 11
6475.0
 21
9342.930639926818
 31
0.0
  0
LINE
  5
7F6D
330
19
100
AcDbEntity
  8
4
100
AcDbLine
 10
2275.0
 20
1411.801556683425
 30
0.0
 11
6475.0
 21
1411.801556683425
 31
0.0
  0
LINE
  5
7F6E
330
19
100
AcDbEntity
  8
4
100
AcDbLine
 10
875.0
 20
9342.930639926818
 30
0.0
 11
875.0
 21
8642.930639926817
 31
0.0
  0
TEXT
  5
7F6F
330
19
100
AcDbEntity
  8
4
100
AcDbText
 10
1364.021332874898
 20
8338.118171412203
 30
0.0
 40
188.9999999999999
  1
右回転左横向
100
AcDbText
  0
TEXT
  5
7F70
330
19
100
AcDbEntity
  8
4
100
AcDbText
 10
5141.393457372515
 20
9471.21378523358
 30
0.0
 40
196.0
  1
No.
100
AcDbText
  0
TEXT
  5
7F71
330
19
100
AcDbEntity
  8
4
100
AcDbText
 10
4589.536219100046
 20
8342.000944663805
 30
0.0
 40
188.9999999999999
  1
縮尺：1/35
100
AcDbText
  0
LINE
  5
7F72
330
19
100
AcDbEntity
  8
4
100
AcDbLine
 10
6475.0
 20
9342.930639926818
 30
0.0
 11
6475.0
 21
8642.930639926817
 31
0.0
  0
LINE
  5
7F73
330
19
100
AcDbEntity
  8
4
100
AcDbLine
 10
7350.0
 20
10325.0
 30
0.0
 11
7350.0
 21
10325.0
 31
0.0
  0
LINE
  5
7F74
330
19
100
AcDbEntity
  8
4
100
AcDbLine
 10
5042.160978259526
 20
9384.422540938905
 30
0.0
 11
5042.160978259526
 21
9753.282915424135
 31
0.0
  0
LINE
  5
7F75
330
19
100
AcDbEntity
  8
4
100
AcDbLine
 10
5042.160978259526
 20
9753.282915424135
 30
0.0
 11
6475.0
 21
9753.282915424135
 31
0.0
  0
LINE
  5
7F76
330
19
100
AcDbEntity
  8
4
100
AcDbLine
 10
6475.0
 20
9753.282915424135
 30
0.0
 11
6475.0
 21
9384.422540938905
 31
0.0
  0
LINE
  5
7F77
330
19
100
AcDbEntity
  8
4
100
AcDbLine
 10
6475.0
 20
9384.422540938905
 30
0.0
 11
5042.160978259526
 21
9384.422540938905
 31
0.0
  0
LINE
  5
7F78
330
19
100
AcDbEntity
  8
4
100
AcDbLine
 10
0.0
 20
0.0
 30
0.0
 11
0.0
 21
10325.0
 31
0.0
  0
LINE
  5
7F79
330
19
100
AcDbEntity
  8
4
100
AcDbLine
 10
0.0
 20
10325.0
 30
0.0
 11
7350.0
 21
10325.0
 31
0.0
  0
LINE
  5
7F7A
330
19
100
AcDbEntity
  8
4
100
AcDbLine
 10
7350.0
 20
10325.0
 30
0.0
 11
7350.0
 21
0.0
 31
0.0
  0
LINE
  5
7F7B
330
19
100
AcDbEntity
  8
4
100
AcDbLine
 10
7350.0
 20
0.0
 30
0.0
 11
0.0
 21
0.0
 31
0.0
  0
DIMENSION
  5
804D
330
19
100
AcDbEntity
  8
3
100
AcDbDimension
280
     0
  2
*D24
 10
1128.098418579364
 20
3793.350583469208
 30
0.0
 11
1040.598418579364
 21
4195.850583469208
 31
0.0
 70
    32
 71
     5
 42
-1.0
 73
     0
 74
     0
 75
     0
  3
IGA
100
AcDbAlignedDimension
 13
2532.485093829972
 23
4598.350583469207
 33
0.0
 14
1569.646092931238
 24
3793.350583469208
 34
0.0
 50
90.0
100
AcDbRotatedDimension
1001
ACAD
1000
DSTYLE
1002
{
1070
   172
1070
     1
1070
    40
1040
35.0
1070
   271
1070
     0
1070
   143
1040
0.039
1002
}
  0
DIMENSION
  5
805A
330
19
100
AcDbEntity
  8
3
100
AcDbDimension
280
     0
  2
*D25
 10
840.0372402828798
 20
2318.350583469208
 30
0.0
 11
725.0372402828798
 21
3458.350583469208
 31
0.0
 70
    32
 71
     5
 42
-1.0
 73
     0
 74
     0
 75
     0
  3
IGA
100
AcDbAlignedDimension
 13
2514.985093829972
 23
4598.350583469207
 33
0.0
 14
1790.485093829971
 24
2318.350583469208
 34
0.0
 50
90.0
100
AcDbRotatedDimension
1001
ACAD
1000
DSTYLE
1002
{
1070
   172
1070
     1
1070
    40
1040
35.0
1070
     3
1000
(<>)
1070
   271
1070
     0
1070
   143
1040
0.039
1002
}
  0
ENDSEC
  0
SECTION
  2
OBJECTS
  0
DICTIONARY
  5
C
330
0
100
AcDbDictionary
281
     1
  3
ACAD_CIP_PREVIOUS_PRODUCT_INFO
350
8101
  3
ACAD_COLOR
350
80E4
  3
ACAD_DETAILVIEWSTYLE
350
80FD
  3
ACAD_GROUP
350
D
  3
ACAD_LAYOUT
350
8063
  3
ACAD_MATERIAL
350
80B2
  3
ACAD_MLEADERSTYLE
350
80F9
  3
ACAD_MLINESTYLE
350
E
  3
ACAD_PLOTSETTINGS
350
8064
  3
ACAD_PLOTSTYLENAME
350
8061
  3
ACAD_SCALELIST
350
80E7
  3
ACAD_SECTIONVIEWSTYLE
350
80FB
  3
ACAD_TABLESTYLE
350
80E5
  3
ACAD_VISUALSTYLE
350
80CB
  3
ACDB_RECOMPOSE_DATA
350
8164
  3
AcDbVariableDictionary
350
80A8
  3
AcDsDecomposeData
350
816A
  0
DICTIONARY
  5
8148
330
2
100
AcDbDictionary
280
     1
281
     1
  3
ACAD_LAYERSTATES
360
8149
  0
DICTIONARY
  5
813B
330
F
100
AcDbDictionary
280
     1
281
     1
  3
ADSK_XREC_LAYER_RECONCILED
360
813C
  0
DICTIONARY
  5
813D
330
31
100
AcDbDictionary
280
     1
281
     1
  3
ADSK_XREC_LAYER_RECONCILED
360
813E
  0
DICTIONARY
  5
813F
330
76D0
100
AcDbDictionary
280
     1
281
     1
  3
ADSK_XREC_LAYER_RECONCILED
360
8140
  0
DICTIONARY
  5
8141
330
76D1
100
AcDbDictionary
280
     1
281
     1
  3
ADSK_XREC_LAYER_RECONCILED
360
8142
  0
DICTIONARY
  5
8143
330
76D2
100
AcDbDictionary
280
     1
281
     1
  3
ADSK_XREC_LAYER_RECONCILED
360
8144
  0
DICTIONARY
  5
8090
330
19
100
AcDbDictionary
280
     1
281
     1
  3
ACAD_LAYOUTSELFREF
360
8091
  0
DICTIONARY
  5
808E
330
16
100
AcDbDictionary
280
     1
281
     1
  3
ACAD_LAYOUTSELFREF
360
808F
  0
XRECORD
  5
8101
102
{ACAD_REACTORS
330
C
102
}
330
C
100
AcDbXrecord
280
     1
300
ACDLT
300
2023
300

  0
DICTIONARY
  5
80E4
102
{ACAD_REACTORS
330
C
102
}
330
C
100
AcDbDictionary
281
     1
  0
DICTIONARY
  5
80FD
102
{ACAD_REACTORS
330
C
102
}
330
C
100
AcDbDictionary
281
     1
  3
Metric50
350
80FE
  0
DICTIONARY
  5
D
102
{ACAD_REACTORS
330
C
102
}
330
C
100
AcDbDictionary
281
     1
  0
DICTIONARY
  5
8063
102
{ACAD_REACTORS
330
C
102
}
330
C
100
AcDbDictionary
281
     1
  3
Model
350
8065
  3
ﾚｲｱｳﾄ1
350
8066
  0
DICTIONARY
  5
80B2
102
{ACAD_REACTORS
330
C
102
}
330
C
100
AcDbDictionary
281
     1
  3
ByBlock
350
80BB
  3
ByLayer
350
80B3
  3
Global
350
80C3
  0
DICTIONARY
  5
80F9
102
{ACAD_REACTORS
330
C
102
}
330
C
100
AcDbDictionary
281
     1
  3
Standard
350
80FA
  0
DICTIONARY
  5
E
102
{ACAD_REACTORS
330
C
102
}
330
C
100
AcDbDictionary
281
     1
  3
STANDARD
350
1C
  0
DICTIONARY
  5
8064
102
{ACAD_REACTORS
330
C
102
}
330
C
100
AcDbDictionary
281
     1
  0
ACDBDICTIONARYWDFLT
  5
8061
102
{ACAD_REACTORS
330
C
102
}
330
C
100
AcDbDictionary
281
     1
  3
Normal
350
8062
100
AcDbDictionaryWithDefault
340
8062
  0
DICTIONARY
  5
80E7
102
{ACAD_REACTORS
330
C
102
}
330
C
100
AcDbDictionary
281
     1
  3
A0
350
80E8
  3
A1
350
80E9
  3
A2
350
80EA
  3
A3
350
80EB
  3
A4
350
80EC
  3
A5
350
80ED
  3
A6
350
80EE
  3
A7
350
80EF
  3
A8
350
80F0
  3
A9
350
80F1
  3
B0
350
80F2
  3
B1
350
80F3
  3
B2
350
80F4
  3
B3
350
80F5
  3
B4
350
80F6
  3
B5
350
80F7
  3
B6
350
80F8
  0
DICTIONARY
  5
80FB
102
{ACAD_REACTORS
330
C
102
}
330
C
100
AcDbDictionary
281
     1
  3
Metric50
350
80FC
  0
DICTIONARY
  5
80E5
102
{ACAD_REACTORS
330
C
102
}
330
C
100
AcDbDictionary
281
     1
  3
Standard
350
80E6
  0
DICTIONARY
  5
80CB
102
{ACAD_REACTORS
330
C
102
}
330
C
100
AcDbDictionary
281
     1
  3
2dWireframe
350
80D1
  3
Basic
350
80D0
  3
Brighten
350
80D7
  3
ColorChange
350
80DB
  3
Conceptual
350
80D4
  3
Dim
350
80D6
  3
EdgeColorOff
350
80E3
  3
Facepattern
350
80DA
  3
Flat
350
80CC
  3
FlatWithEdges
350
80CD
  3
Gouraud
350
80CE
  3
GouraudWithEdges
350
80CF
  3
Hidden
350
80D3
  3
JitterOff
350
80E1
  3
Linepattern
350
80D9
  3
OverhangOff
350
80E2
  3
Realistic
350
80D5
  3
Shaded
350
80E0
  3
Shaded with edges
350
80DF
  3
Shades of Gray
350
80DC
  3
Sketchy
350
80DD
  3
Thicken
350
80D8
  3
Wireframe
350
80D2
  3
X-Ray
350
80DE
  0
XRECORD
  5
8164
102
{ACAD_REACTORS
330
C
102
}
330
C
100
AcDbXrecord
280
     1
 90
        1
330
80E6
  0
DICTIONARY
  5
80A8
102
{ACAD_REACTORS
330
C
102
}
330
C
100
AcDbDictionary
281
     1
  3
CANNOSCALE
350
8159
  3
CMLEADERSTYLE
350
8155
  3
CTABLESTYLE
350
8154
  3
CVIEWDETAILSTYLE
350
8156
  3
CVIEWSECTIONSTYLE
350
8157
  3
DIMASSOC
350
80A9
  3
LAYEREVAL
350
815B
  3
LAYERNOTIFY
350
815C
  3
LIGHTINGUNITS
350
815A
  3
MARKUPASSISTMODE
350
8161
  3
MSLTSCALE
350
8158
  0
DICTIONARY
  5
816A
102
{ACAD_REACTORS
330
C
102
}
330
C
100
AcDbDictionary
281
     1
  3
AcDsRecords
350
816C
  3
AcDsSchemas
350
816B
1001
ACAD
1070
     2
  0
DICTIONARY
  5
8149
102
{ACAD_REACTORS
330
8148
102
}
330
8148
100
AcDbDictionary
281
     1
  0
XRECORD
  5
813C
102
{ACAD_REACTORS
330
813B
102
}
330
813B
100
AcDbXrecord
280
     1
290
     1
  0
XRECORD
  5
813E
102
{ACAD_REACTORS
330
813D
102
}
330
813D
100
AcDbXrecord
280
     1
290
     1
  0
XRECORD
  5
8140
102
{ACAD_REACTORS
330
813F
102
}
330
813F
100
AcDbXrecord
280
     1
290
     1
  0
XRECORD
  5
8142
102
{ACAD_REACTORS
330
8141
102
}
330
8141
100
AcDbXrecord
280
     1
290
     1
  0
XRECORD
  5
8144
102
{ACAD_REACTORS
330
8143
102
}
330
8143
100
AcDbXrecord
280
     1
290
     1
  0
XRECORD
  5
8091
102
{ACAD_REACTORS
330
8090
102
}
330
8090
100
AcDbXrecord
280
     1
340
19
  0
XRECORD
  5
808F
102
{ACAD_REACTORS
330
808E
102
}
330
808E
100
AcDbXrecord
280
     1
340
16
  0
ACDBDETAILVIEWSTYLE
  5
80FE
102
{ACAD_XDICTIONARY
360
816F
102
}
102
{ACAD_REACTORS
330
80FD
102
}
330
80FD
100
AcDbModelDocViewStyle
 70
     0
  3
Metric50
290
     0
100
AcDbDetailViewStyle
 70
     0
 71
     0
 90
        3
 71
     1
340
10
 62
   256
 40
5.0
340
0
 62
   256
 40
5.0
300

 40
0.0
280
     1
 71
     2
340
15
 90
       25
 62
   256
 71
     3
340
10
 62
   256
 40
5.0
 90
        0
 40
15.0
 90
        1
300
%<\AcVar ViewDetailId>% (%<\AcVar ViewScale \f "%sn">%)
 71
     4
340
15
 90
       25
 62
   256
340
15
 90
       25
 62
   256
280
     0
  0
LAYOUT
  5
8065
102
{ACAD_REACTORS
330
8063
102
}
330
8063
100
AcDbPlotSettings
  1

  2
\\Txbo34x8944cqyd\EPSON LP-6100
  4

  6

 40
0.0
 41
0.0
 42
0.0
 43
0.0
 44
0.0
 45
0.0
 46
0.0
 47
0.0
 48
0.0
 49
0.0
140
0.0
141
0.0
142
1.0
143
1.0
 70
  1712
 72
     0
 73
     0
 74
     0
  7
GOD2000TABLE.ctb
 75
     0
147
1.0
 76
     0
 77
     2
 78
   300
148
0.0
149
0.0
100
AcDbLayout
  1
Model
 70
     1
 71
     0
 10
0.0
 20
0.0
 11
12.0
 21
9.0
 12
0.0
 22
0.0
 32
0.0
 14
0.0
 24
0.0
 34
0.0
 15
0.0
 25
0.0
 35
0.0
146
0.0
 13
0.0
 23
0.0
 33
0.0
 16
1.0
 26
0.0
 36
0.0
 17
0.0
 27
1.0
 37
0.0
 76
     0
330
19
331
80B0
  0
LAYOUT
  5
8066
102
{ACAD_REACTORS
330
8063
102
}
330
8063
100
AcDbPlotSettings
  1

  2
\\Txbo34x8944cqyd\EPSON LP-6100
  4

  6

 40
0.0
 41
0.0
 42
0.0
 43
0.0
 44
0.0
 45
0.0
 46
0.0
 47
0.0
 48
0.0
 49
0.0
140
0.0
141
0.0
142
1.0
143
1.0
 70
   688
 72
     0
 73
     0
 74
     5
  7
GOD2000TABLE.ctb
 75
    16
147
1.0
 76
     0
 77
     2
 78
   300
148
0.0
149
0.0
100
AcDbLayout
  1
ﾚｲｱｳﾄ1
 70
     1
 71
     1
 10
0.0
 20
0.0
 11
12.0
 21
9.0
 12
0.0
 22
0.0
 32
0.0
 14
1.000000000000000E+20
 24
1.000000000000000E+20
 34
1.000000000000000E+20
 15
-1.000000000000000E+20
 25
-1.000000000000000E+20
 35
-1.000000000000000E+20
146
0.0
 13
0.0
 23
0.0
 33
0.0
 16
1.0
 26
0.0
 36
0.0
 17
0.0
 27
1.0
 37
0.0
 76
     0
330
16
  0
MATERIAL
  5
80BB
102
{ACAD_XDICTIONARY
360
80BC
102
}
102
{ACAD_REACTORS
330
80B2
102
}
330
80B2
100
AcDbMaterial
  1
ByBlock
 72
     0
 43
0.0208333333333333
 43
0.0
 43
0.0
 43
0.0
 43
0.0
 43
0.0208333333333333
 43
0.0
 43
0.0
 43
0.0
 43
0.0
 43
1.0
 43
0.0
 43
0.0
 43
0.0
 43
0.0
 43
1.0
 77
     0
 47
0.0208333333333333
 47
0.0
 47
0.0
 47
0.0
 47
0.0
 47
0.0208333333333333
 47
0.0
 47
0.0
 47
0.0
 47
0.0
 47
1.0
 47
0.0
 47
0.0
 47
0.0
 47
0.0
 47
1.0
171
     0
 49
0.0208333333333333
 49
0.0
 49
0.0
 49
0.0
 49
0.0
 49
0.0208333333333333
 49
0.0
 49
0.0
 49
0.0
 49
0.0
 49
1.0
 49
0.0
 49
0.0
 49
0.0
 49
0.0
 49
1.0
175
     0
142
0.0208333333333333
142
0.0
142
0.0
142
0.0
142
0.0
142
0.0208333333333333
142
0.0
142
0.0
142
0.0
142
0.0
142
1.0
142
0.0
142
0.0
142
0.0
142
0.0
142
1.0
179
     0
144
0.0208333333333333
144
0.0
144
0.0
144
0.0
144
0.0
144
0.0208333333333333
144
0.0
144
0.0
144
0.0
144
0.0
144
1.0
144
0.0
144
0.0
144
0.0
144
0.0
144
1.0
147
0.0208333333333333
147
0.0
147
0.0
147
0.0
147
0.0
147
0.0208333333333333
147
0.0
147
0.0
147
0.0
147
0.0
147
1.0
147
0.0
147
0.0
147
0.0
147
0.0
147
1.0
  0
MATERIAL
  5
80B3
102
{ACAD_XDICTIONARY
360
80B4
102
}
102
{ACAD_REACTORS
330
80B2
102
}
330
80B2
100
AcDbMaterial
  1
ByLayer
 72
     0
 43
0.0208333333333333
 43
0.0
 43
0.0
 43
0.0
 43
0.0
 43
0.0208333333333333
 43
0.0
 43
0.0
 43
0.0
 43
0.0
 43
1.0
 43
0.0
 43
0.0
 43
0.0
 43
0.0
 43
1.0
 77
     0
 47
0.0208333333333333
 47
0.0
 47
0.0
 47
0.0
 47
0.0
 47
0.0208333333333333
 47
0.0
 47
0.0
 47
0.0
 47
0.0
 47
1.0
 47
0.0
 47
0.0
 47
0.0
 47
0.0
 47
1.0
171
     0
 49
0.0208333333333333
 49
0.0
 49
0.0
 49
0.0
 49
0.0
 49
0.0208333333333333
 49
0.0
 49
0.0
 49
0.0
 49
0.0
 49
1.0
 49
0.0
 49
0.0
 49
0.0
 49
0.0
 49
1.0
175
     0
142
0.0208333333333333
142
0.0
142
0.0
142
0.0
142
0.0
142
0.0208333333333333
142
0.0
142
0.0
142
0.0
142
0.0
142
1.0
142
0.0
142
0.0
142
0.0
142
0.0
142
1.0
179
     0
144
0.0208333333333333
144
0.0
144
0.0
144
0.0
144
0.0
144
0.0208333333333333
144
0.0
144
0.0
144
0.0
144
0.0
144
1.0
144
0.0
144
0.0
144
0.0
144
0.0
144
1.0
147
0.0208333333333333
147
0.0
147
0.0
147
0.0
147
0.0
147
0.0208333333333333
147
0.0
147
0.0
147
0.0
147
0.0
147
1.0
147
0.0
147
0.0
147
0.0
147
0.0
147
1.0
  0
MATERIAL
  5
80C3
102
{ACAD_XDICTIONARY
360
80C4
102
}
102
{ACAD_REACTORS
330
80B2
102
}
330
80B2
100
AcDbMaterial
  1
Global
 72
     0
 43
0.0208333333333333
 43
0.0
 43
0.0
 43
0.0
 43
0.0
 43
0.0208333333333333
 43
0.0
 43
0.0
 43
0.0
 43
0.0
 43
1.0
 43
0.0
 43
0.0
 43
0.0
 43
0.0
 43
1.0
 77
     0
 47
0.0208333333333333
 47
0.0
 47
0.0
 47
0.0
 47
0.0
 47
0.0208333333333333
 47
0.0
 47
0.0
 47
0.0
 47
0.0
 47
1.0
 47
0.0
 47
0.0
 47
0.0
 47
0.0
 47
1.0
171
     0
 49
0.0208333333333333
 49
0.0
 49
0.0
 49
0.0
 49
0.0
 49
0.0208333333333333
 49
0.0
 49
0.0
 49
0.0
 49
0.0
 49
1.0
 49
0.0
 49
0.0
 49
0.0
 49
0.0
 49
1.0
175
     0
142
0.0208333333333333
142
0.0
142
0.0
142
0.0
142
0.0
142
0.0208333333333333
142
0.0
142
0.0
142
0.0
142
0.0
142
1.0
142
0.0
142
0.0
142
0.0
142
0.0
142
1.0
179
     0
144
0.0208333333333333
144
0.0
144
0.0
144
0.0
144
0.0
144
0.0208333333333333
144
0.0
144
0.0
144
0.0
144
0.0
144
1.0
144
0.0
144
0.0
144
0.0
144
0.0
144
1.0
147
0.0208333333333333
147
0.0
147
0.0
147
0.0
147
0.0
147
0.0208333333333333
147
0.0
147
0.0
147
0.0
147
0.0
147
1.0
147
0.0
147
0.0
147
0.0
147
0.0
147
1.0
  0
MLEADERSTYLE
  5
80FA
102
{ACAD_REACTORS
330
80F9
102
}
330
80F9
100
AcDbMLeaderStyle
179
     2
170
     2
171
     1
172
     0
 90
        2
 40
0.0
 41
0.0
173
     1
 91
-1056964608
340
13
 92
       -2
290
     1
 42
2.0
291
     1
 43
0.36
  3
Standard
 44
4.0
300

342
10
174
     1
178
     6
175
     1
176
     0
 93
-1056964608
 45
4.0
292
     0
297
     0
 46
4.0
 94
-1056964608
 47
1.0
 49
1.0
140
1.0
293
     1
141
0.0
294
     1
177
     0
142
1.0
295
     0
296
     0
143
0.125
271
     0
272
     9
273
     9
298
     1
  0
MLINESTYLE
  5
1C
102
{ACAD_REACTORS
330
E
102
}
330
E
100
AcDbMlineStyle
  2
STANDARD
 70
     0
  3

 62
     0
 51
90.0
 52
90.0
 71
     2
 49
0.5
 62
   256
  6
BYLAYER
 49
-0.5
 62
   256
  6
BYLAYER
  0
ACDBPLACEHOLDER
  5
8062
102
{ACAD_REACTORS
330
8061
102
}
330
8061
  0
SCALE
  5
80E8
102
{ACAD_REACTORS
330
80E7
102
}
330
80E7
100
AcDbScale
 70
     0
300
1:1
140
1.0
141
1.0
290
     1
  0
SCALE
  5
80E9
102
{ACAD_REACTORS
330
80E7
102
}
330
80E7
100
AcDbScale
 70
     0
300
1:2
140
1.0
141
2.0
290
     0
  0
SCALE
  5
80EA
102
{ACAD_REACTORS
330
80E7
102
}
330
80E7
100
AcDbScale
 70
     0
300
1:4
140
1.0
141
4.0
290
     0
  0
SCALE
  5
80EB
102
{ACAD_REACTORS
330
80E7
102
}
330
80E7
100
AcDbScale
 70
     0
300
1:5
140
1.0
141
5.0
290
     0
  0
SCALE
  5
80EC
102
{ACAD_REACTORS
330
80E7
102
}
330
80E7
100
AcDbScale
 70
     0
300
1:8
140
1.0
141
8.0
290
     0
  0
SCALE
  5
80ED
102
{ACAD_REACTORS
330
80E7
102
}
330
80E7
100
AcDbScale
 70
     0
300
1:10
140
1.0
141
10.0
290
     0
  0
SCALE
  5
80EE
102
{ACAD_REACTORS
330
80E7
102
}
330
80E7
100
AcDbScale
 70
     0
300
1:16
140
1.0
141
16.0
290
     0
  0
SCALE
  5
80EF
102
{ACAD_REACTORS
330
80E7
102
}
330
80E7
100
AcDbScale
 70
     0
300
1:20
140
1.0
141
20.0
290
     0
  0
SCALE
  5
80F0
102
{ACAD_REACTORS
330
80E7
102
}
330
80E7
100
AcDbScale
 70
     0
300
1:30
140
1.0
141
30.0
290
     0
  0
SCALE
  5
80F1
102
{ACAD_REACTORS
330
80E7
102
}
330
80E7
100
AcDbScale
 70
     0
300
1:40
140
1.0
141
40.0
290
     0
  0
SCALE
  5
80F2
102
{ACAD_REACTORS
330
80E7
102
}
330
80E7
100
AcDbScale
 70
     0
300
1:50
140
1.0
141
50.0
290
     0
  0
SCALE
  5
80F3
102
{ACAD_REACTORS
330
80E7
102
}
330
80E7
100
AcDbScale
 70
     0
300
1:100
140
1.0
141
100.0
290
     0
  0
SCALE
  5
80F4
102
{ACAD_REACTORS
330
80E7
102
}
330
80E7
100
AcDbScale
 70
     0
300
2:1
140
2.0
141
1.0
290
     0
  0
SCALE
  5
80F5
102
{ACAD_REACTORS
330
80E7
102
}
330
80E7
100
AcDbScale
 70
     0
300
4:1
140
4.0
141
1.0
290
     0
  0
SCALE
  5
80F6
102
{ACAD_REACTORS
330
80E7
102
}
330
80E7
100
AcDbScale
 70
     0
300
8:1
140
8.0
141
1.0
290
     0
  0
SCALE
  5
80F7
102
{ACAD_REACTORS
330
80E7
102
}
330
80E7
100
AcDbScale
 70
     0
300
10:1
140
10.0
141
1.0
290
     0
  0
SCALE
  5
80F8
102
{ACAD_REACTORS
330
80E7
102
}
330
80E7
100
AcDbScale
 70
     0
300
100:1
140
100.0
141
1.0
290
     0
  0
ACDBSECTIONVIEWSTYLE
  5
80FC
102
{ACAD_XDICTIONARY
360
816D
102
}
102
{ACAD_REACTORS
330
80FB
102
}
330
80FB
100
AcDbModelDocViewStyle
 70
     0
  3
Metric50
290
     0
100
AcDbSectionViewStyle
 70
     0
 71
     0
 90
      102
 71
     1
340
10
 62
   256
 40
5.0
340
0
340
0
 62
   256
 40
5.0
300
I, O, Q, S, X, Z
 40
10.0
 90
        0
 40
2.5
 90
        0
 71
     2
340
15
 90
       25
 62
   256
340
15
 90
       50
 62
   256
 40
5.0
 40
2.5
 40
5.0
 71
     3
340
10
 62
   256
 40
5.0
 90
        0
 40
15.0
 90
        1
300
%<\AcVar ViewSectionStartId>%-%<\AcVar ViewSectionEndId>% (%<\AcVar ViewScale \f "%sn">%)
 71
     4
 62
   256
 62
   257
300
ANSI31
 40
1.0
 90
        0
290
     0
290
     0
 90
        6
 40
0.0
 40
1.570796326794896
 40
0.2617993877991494
 40
1.308996938995747
 40
-0.2617993877991494
 40
1.832595714594046
  0
TABLESTYLE
  5
80E6
102
{ACAD_XDICTIONARY
360
8162
102
}
102
{ACAD_REACTORS
330
80E5
102
}
330
80E5
100
AcDbTableStyle
280
     0
  3
Standard
 70
     0
 71
     0
 40
1.5
 41
1.5
280
     0
281
     0
  7
STANDARD
140
4.5
170
     2
 62
     0
 63
     7
283
     0
 90
      512
 91
        0
  1

274
    -2
284
     1
 64
     0
275
    -2
285
     1
 65
     0
276
    -2
286
     1
 66
     0
277
    -2
287
     1
 67
     0
278
    -2
288
     1
 68
     0
279
    -2
289
     1
 69
     0
  7
STANDARD
140
6.0
170
     5
 62
     0
 63
     7
283
     0
 90
      512
 91
        0
  1

274
    -2
284
     1
 64
     0
275
    -2
285
     1
 65
     0
276
    -2
286
     1
 66
     0
277
    -2
287
     1
 67
     0
278
    -2
288
     1
 68
     0
279
    -2
289
     1
 69
     0
  7
STANDARD
140
4.5
170
     5
 62
     0
 63
     7
283
     0
 90
      512
 91
        0
  1

274
    -2
284
     1
 64
     0
275
    -2
285
     1
 65
     0
276
    -2
286
     1
 66
     0
277
    -2
287
     1
 67
     0
278
    -2
288
     1
 68
     0
279
    -2
289
     1
 69
     0
  0
VISUALSTYLE
  5
80D1
102
{ACAD_REACTORS
330
80CB
102
}
330
80CB
100
AcDbVisualStyle
  2
2dWireframe
 70
     4
177
     3
291
     0
 70
    58
 90
        0
176
     1
 90
        2
176
     1
 90
        0
176
     1
 90
        0
176
     1
 40
0.6
176
     1
 40
30.0
176
     1
 62
     7
420
 16777215
176
     1
 90
        1
176
     1
 90
        4
176
     1
 62
     7
176
     1
 62
   257
176
     1
 90
        1
176
     1
 90
        1
176
     1
 40
1.0
176
     1
 90
        0
176
     1
 62
   257
176
     1
 40
1.0
176
     1
 90
        1
176
     1
 90
        6
176
     1
 90
        2
176
     1
 62
     7
176
     1
 90
        5
176
     1
 90
        0
176
     1
 90
        0
176
     1
290
     0
176
     1
 90
        1
176
     1
 40
0.0
176
     1
 90
        0
176
     1
290
     1
176
     1
290
     1
176
     1
290
     0
176
     1
290
     0
176
     1
290
     0
176
     1
290
     0
176
     1
290
     0
176
     1
290
     0
176
     1
290
     0
176
     1
 90
       50
176
     1
 40
0.0
176
     1
 40
1.0
176
     1
 90
        0
176
     1
 62
    18
420
        0
176
     1
 90
       50
176
     1
 90
        3
176
     1
 62
     5
420
      255
176
     1
290
     0
176
     1
 90
       50
176
     1
 90
       50
176
     1
 90
       50
176
     1
290
     0
176
     1
 90
       50
176
     1
 62
   256
176
     0
 40
1.0
176
     0
 90
        2
176
     1
  1
strokes_ogs.tif
176
     1
290
     0
176
     1
 40
1.0
176
     1
 40
1.0
176
     1
1001
ACAD
1000
AcDbSavedByObjectVersion
1070
     0
  0
VISUALSTYLE
  5
80D0
102
{ACAD_REACTORS
330
80CB
102
}
330
80CB
100
AcDbVisualStyle
  2
Basic
 70
     7
177
     3
291
     1
 70
    58
 90
        1
176
     1
 90
        0
176
     1
 90
        1
176
     1
 90
        0
176
     1
 40
0.6
176
     1
 40
30.0
176
     1
 62
     7
420
 16777215
176
     1
 90
        0
176
     1
 90
        4
176
     1
 62
     7
176
     1
 62
   257
176
     1
 90
        1
176
     1
 90
        1
176
     1
 40
1.0
176
     1
 90
        8
176
     1
 62
     7
176
     1
 40
1.0
176
     1
 90
        1
176
     1
 90
        6
176
     1
 90
        2
176
     1
 62
     7
176
     1
 90
        5
176
     1
 90
        0
176
     1
 90
        0
176
     1
290
     0
176
     1
 90
        1
176
     1
 40
0.0
176
     1
 90
        0
176
     1
290
     0
176
     1
290
     1
176
     1
290
     1
176
     1
290
     0
176
     1
290
     0
176
     1
290
     0
176
     1
290
     0
176
     1
290
     0
176
     1
290
     0
176
     1
 90
       50
176
     1
 40
0.0
176
     1
 40
1.0
176
     1
 90
        0
176
     1
 62
    18
420
        0
176
     1
 90
       50
176
     1
 90
        3
176
     1
 62
     5
420
      255
176
     1
290
     0
176
     1
 90
       50
176
     1
 90
       50
176
     1
 90
       50
176
     1
290
     0
176
     1
 90
       50
176
     1
 62
   256
176
     0
 40
1.0
176
     0
 90
        2
176
     1
  1
strokes_ogs.tif
176
     1
290
     0
176
     1
 40
1.0
176
     1
 40
1.0
176
     1
1001
ACAD
1000
AcDbSavedByObjectVersion
1070
     0
  0
VISUALSTYLE
  5
80D7
102
{ACAD_REACTORS
330
80CB
102
}
330
80CB
100
AcDbVisualStyle
  2
Brighten
 70
    12
177
     3
291
     1
 70
    58
 90
        2
176
     1
 90
        2
176
     1
 90
        0
176
     1
 90
        0
176
     1
 40
0.6
176
     1
 40
30.0
176
     1
 62
     7
420
 16777215
176
     1
 90
        1
176
     1
 90
        4
176
     1
 62
     7
176
     1
 62
   257
176
     1
 90
        1
176
     1
 90
        1
176
     1
 40
1.0
176
     1
 90
        8
176
     1
 62
     7
176
     1
 40
1.0
176
     1
 90
        1
176
     1
 90
        6
176
     1
 90
        2
176
     1
 62
     7
176
     1
 90
        5
176
     1
 90
        0
176
     1
 90
        0
176
     1
290
     0
176
     1
 90
        1
176
     1
 40
50.0
176
     1
 90
        0
176
     1
290
     0
176
     1
290
     1
176
     1
290
     1
176
     1
290
     0
176
     1
290
     0
176
     1
290
     0
176
     1
290
     0
176
     1
290
     0
176
     1
290
     0
176
     1
 90
       50
176
     1
 40
0.0
176
     1
 40
1.0
176
     1
 90
        0
176
     1
 62
    18
420
        0
176
     1
 90
       50
176
     1
 90
        3
176
     1
 62
     5
420
      255
176
     1
290
     0
176
     1
 90
       50
176
     1
 90
       50
176
     1
 90
       50
176
     1
290
     0
176
     1
 90
       50
176
     1
 62
   256
176
     0
 40
1.0
176
     0
 90
        2
176
     1
  1
strokes_ogs.tif
176
     1
290
     0
176
     1
 40
1.0
176
     1
 40
1.0
176
     1
1001
ACAD
1000
AcDbSavedByObjectVersion
1070
     0
  0
VISUALSTYLE
  5
80DB
102
{ACAD_REACTORS
330
80CB
102
}
330
80CB
100
AcDbVisualStyle
  2
ColorChange
 70
    16
177
     3
291
     1
 70
    58
 90
        2
176
     1
 90
        2
176
     1
 90
        3
176
     1
 90
        0
176
     1
 40
0.6
176
     1
 40
30.0
176
     1
 62
     8
420
  8421504
176
     1
 90
        1
176
     1
 90
        4
176
     1
 62
     7
176
     1
 62
   257
176
     1
 90
        1
176
     1
 90
        1
176
     1
 40
1.0
176
     1
 90
        8
176
     1
 62
     8
420
  8421504
176
     1
 40
1.0
176
     1
 90
        1
176
     1
 90
        6
176
     1
 90
        2
176
     1
 62
     7
176
     1
 90
        5
176
     1
 90
        0
176
     1
 90
        0
176
     1
290
     0
176
     1
 90
        1
176
     1
 40
0.0
176
     1
 90
        0
176
     1
290
     0
176
     1
290
     1
176
     1
290
     1
176
     1
290
     0
176
     1
290
     0
176
     1
290
     0
176
     1
290
     0
176
     1
290
     0
176
     1
290
     0
176
     1
 90
       50
176
     1
 40
0.0
176
     1
 40
1.0
176
     1
 90
        0
176
     1
 62
    18
420
        0
176
     1
 90
       50
176
     1
 90
        3
176
     1
 62
     5
420
      255
176
     1
290
     0
176
     1
 90
       50
176
     1
 90
       50
176
     1
 90
       50
176
     1
290
     0
176
     1
 90
       50
176
     1
 62
   256
176
     0
 40
1.0
176
     0
 90
        2
176
     1
  1
strokes_ogs.tif
176
     1
290
     0
176
     1
 40
1.0
176
     1
 40
1.0
176
     1
1001
ACAD
1000
AcDbSavedByObjectVersion
1070
     0
  0
VISUALSTYLE
  5
80D4
102
{ACAD_REACTORS
330
80CB
102
}
330
80CB
100
AcDbVisualStyle
  2
Conceptual
 70
     9
177
     3
291
     0
 70
    58
 90
        3
176
     1
 90
        2
176
     1
 90
        0
176
     1
 90
        0
176
     1
 40
0.6
176
     1
 40
30.0
176
     1
 62
     7
420
 16777215
176
     1
 90
        2
176
     1
 90
        2
176
     1
 62
     7
176
     1
 62
   257
176
     1
 90
        1
176
     1
 90
        1
176
     1
 40
179.0
176
     1
 90
        8
176
     1
 62
     7
176
     1
 40
1.0
176
     1
 90
        1
176
     1
 90
        6
176
     1
 90
        2
176
     1
 62
     7
176
     1
 90
        3
176
     1
 90
        0
176
     1
 90
        0
176
     1
290
     0
176
     1
 90
        1
176
     1
 40
0.0
176
     1
 90
        0
176
     1
290
     0
176
     1
290
     1
176
     1
290
     1
176
     1
290
     0
176
     1
290
     0
176
     1
290
     0
176
     1
290
     0
176
     1
290
     0
176
     1
290
     0
176
     1
 90
       50
176
     1
 40
0.0
176
     1
 40
1.0
176
     1
 90
        0
176
     1
 62
    18
420
        0
176
     1
 90
       50
176
     1
 90
        3
176
     1
 62
     5
420
      255
176
     1
290
     0
176
     1
 90
       50
176
     1
 90
       50
176
     1
 90
       50
176
     1
290
     0
176
     1
 90
       50
176
     1
 62
   256
176
     0
 40
1.0
176
     0
 90
        2
176
     1
  1
strokes_ogs.tif
176
     1
290
     0
176
     1
 40
1.0
176
     1
 40
1.0
176
     1
1001
ACAD
1000
AcDbSavedByObjectVersion
1070
     0
  0
VISUALSTYLE
  5
80D6
102
{ACAD_REACTORS
330
80CB
102
}
330
80CB
100
AcDbVisualStyle
  2
Dim
 70
    11
177
     3
291
     1
 70
    58
 90
        2
176
     1
 90
        2
176
     1
 90
        0
176
     1
 90
        0
176
     1
 40
0.6
176
     1
 40
30.0
176
     1
 62
     7
420
 16777215
176
     1
 90
        1
176
     1
 90
        4
176
     1
 62
     7
176
     1
 62
   257
176
     1
 90
        1
176
     1
 90
        1
176
     1
 40
1.0
176
     1
 90
        8
176
     1
 62
     7
176
     1
 40
1.0
176
     1
 90
        1
176
     1
 90
        6
176
     1
 90
        2
176
     1
 62
     7
176
     1
 90
        5
176
     1
 90
        0
176
     1
 90
        0
176
     1
290
     0
176
     1
 90
        1
176
     1
 40
-50.0
176
     1
 90
        0
176
     1
290
     0
176
     1
290
     1
176
     1
290
     1
176
     1
290
     0
176
     1
290
     0
176
     1
290
     0
176
     1
290
     0
176
     1
290
     0
176
     1
290
     0
176
     1
 90
       50
176
     1
 40
0.0
176
     1
 40
1.0
176
     1
 90
        0
176
     1
 62
    18
420
        0
176
     1
 90
       50
176
     1
 90
        3
176
     1
 62
     5
420
      255
176
     1
290
     0
176
     1
 90
       50
176
     1
 90
       50
176
     1
 90
       50
176
     1
290
     0
176
     1
 90
       50
176
     1
 62
   256
176
     0
 40
1.0
176
     0
 90
        2
176
     1
  1
strokes_ogs.tif
176
     1
290
     0
176
     1
 40
1.0
176
     1
 40
1.0
176
     1
1001
ACAD
1000
AcDbSavedByObjectVersion
1070
     0
  0
VISUALSTYLE
  5
80E3
102
{ACAD_REACTORS
330
80CB
102
}
330
80CB
100
AcDbVisualStyle
  2
EdgeColorOff
 70
    22
177
     3
291
     1
 70
    58
 90
        2
176
     0
 90
        2
176
     0
 90
        0
176
     0
 90
        0
176
     0
 40
0.6
176
     0
 40
30.0
176
     0
 62
     7
420
 16777215
176
     0
 90
        1
176
     0
 90
        4
176
     0
 62
     7
176
     0
 62
   257
176
     0
 90
        1
176
     0
 90
        1
176
     0
 40
1.0
176
     0
 90
        8
176
     2
 62
     7
176
     0
 40
1.0
176
     0
 90
        1
176
     0
 90
        6
176
     0
 90
        2
176
     0
 62
     7
176
     0
 90
        5
176
     0
 90
        0
176
     0
 90
        0
176
     0
290
     0
176
     0
 90
        1
176
     0
 40
0.0
176
     0
 90
        0
176
     0
290
     0
176
     0
290
     1
176
     0
290
     1
176
     0
290
     0
176
     0
290
     0
176
     0
290
     0
176
     0
290
     0
176
     0
290
     0
176
     0
290
     0
176
     0
 90
       50
176
     0
 40
0.0
176
     0
 40
1.0
176
     0
 90
        0
176
     0
 62
    18
420
        0
176
     0
 90
       50
176
     0
 90
        3
176
     0
 62
     5
420
      255
176
     0
290
     0
176
     0
 90
       50
176
     0
 90
       50
176
     0
 90
       50
176
     0
290
     0
176
     0
 90
       50
176
     0
 62
   256
176
     0
 40
1.0
176
     0
 90
        2
176
     0
  1
strokes_ogs.tif
176
     0
290
     0
176
     0
 40
1.0
176
     0
 40
1.0
176
     0
1001
ACAD
1000
AcDbSavedByObjectVersion
1070
     0
  0
VISUALSTYLE
  5
80DA
102
{ACAD_REACTORS
330
80CB
102
}
330
80CB
100
AcDbVisualStyle
  2
Facepattern
 70
    15
177
     3
291
     1
 70
    58
 90
        2
176
     1
 90
        2
176
     1
 90
        0
176
     1
 90
        0
176
     1
 40
0.6
176
     1
 40
30.0
176
     1
 62
     7
420
 16777215
176
     1
 90
        1
176
     1
 90
        4
176
     1
 62
     7
176
     1
 62
   257
176
     1
 90
        1
176
     1
 90
        1
176
     1
 40
1.0
176
     1
 90
        8
176
     1
 62
     7
176
     1
 40
1.0
176
     1
 90
        1
176
     1
 90
        6
176
     1
 90
        2
176
     1
 62
     7
176
     1
 90
        5
176
     1
 90
        0
176
     1
 90
        0
176
     1
290
     0
176
     1
 90
        1
176
     1
 40
0.0
176
     1
 90
        0
176
     1
290
     0
176
     1
290
     1
176
     1
290
     1
176
     1
290
     0
176
     1
290
     0
176
     1
290
     0
176
     1
290
     0
176
     1
290
     0
176
     1
290
     0
176
     1
 90
       50
176
     1
 40
0.0
176
     1
 40
1.0
176
     1
 90
        0
176
     1
 62
    18
420
        0
176
     1
 90
       50
176
     1
 90
        3
176
     1
 62
     5
420
      255
176
     1
290
     0
176
     1
 90
       50
176
     1
 90
       50
176
     1
 90
       50
176
     1
290
     0
176
     1
 90
       50
176
     1
 62
   256
176
     0
 40
1.0
176
     0
 90
        2
176
     1
  1
strokes_ogs.tif
176
     1
290
     0
176
     1
 40
1.0
176
     1
 40
1.0
176
     1
1001
ACAD
1000
AcDbSavedByObjectVersion
1070
     0
  0
VISUALSTYLE
  5
80CC
102
{ACAD_REACTORS
330
80CB
102
}
330
80CB
100
AcDbVisualStyle
  2
Flat
 70
     0
177
     3
291
     1
 70
    58
 90
        2
176
     1
 90
        1
176
     1
 90
        1
176
     1
 90
        2
176
     1
 40
0.6
176
     1
 40
30.0
176
     1
 62
     7
420
 16777215
176
     1
 90
        0
176
     1
 90
        0
176
     1
 62
     7
176
     1
 62
   257
176
     1
 90
        1
176
     1
 90
        1
176
     1
 40
1.0
176
     1
 90
        8
176
     1
 62
     7
176
     1
 40
1.0
176
     1
 90
        1
176
     1
 90
        6
176
     1
 90
        2
176
     1
 62
     7
176
     1
 90
        5
176
     1
 90
        0
176
     1
 90
        0
176
     1
290
     0
176
     1
 90
       13
176
     1
 40
0.0
176
     1
 90
        0
176
     1
290
     0
176
     1
290
     1
176
     1
290
     1
176
     1
290
     0
176
     1
290
     0
176
     1
290
     0
176
     1
290
     0
176
     1
290
     0
176
     1
290
     0
176
     1
 90
       50
176
     1
 40
0.0
176
     1
 40
1.0
176
     1
 90
        0
176
     1
 62
    18
420
        0
176
     1
 90
       50
176
     1
 90
        3
176
     1
 62
     5
420
      255
176
     1
290
     0
176
     1
 90
       50
176
     1
 90
       50
176
     1
 90
       50
176
     1
290
     0
176
     1
 90
       50
176
     1
 62
   256
176
     0
 40
1.0
176
     0
 90
        2
176
     1
  1
strokes_ogs.tif
176
     1
290
     0
176
     1
 40
1.0
176
     1
 40
1.0
176
     1
1001
ACAD
1000
AcDbSavedByObjectVersion
1070
     0
  0
VISUALSTYLE
  5
80CD
102
{ACAD_REACTORS
330
80CB
102
}
330
80CB
100
AcDbVisualStyle
  2
FlatWithEdges
 70
     1
177
     3
291
     1
 70
    58
 90
        2
176
     1
 90
        1
176
     1
 90
        1
176
     1
 90
        2
176
     1
 40
0.6
176
     1
 40
30.0
176
     1
 62
     7
420
 16777215
176
     1
 90
        1
176
     1
 90
        0
176
     1
 62
     7
176
     1
 62
   257
176
     1
 90
        1
176
     1
 90
        1
176
     1
 40
1.0
176
     1
 90
        0
176
     1
 62
   257
176
     1
 40
1.0
176
     1
 90
        1
176
     1
 90
        6
176
     1
 90
        2
176
     1
 62
     7
176
     1
 90
        5
176
     1
 90
        0
176
     1
 90
        0
176
     1
290
     0
176
     1
 90
       13
176
     1
 40
0.0
176
     1
 90
        0
176
     1
290
     0
176
     1
290
     1
176
     1
290
     1
176
     1
290
     0
176
     1
290
     0
176
     1
290
     0
176
     1
290
     0
176
     1
290
     0
176
     1
290
     0
176
     1
 90
       50
176
     1
 40
0.0
176
     1
 40
1.0
176
     1
 90
        0
176
     1
 62
    18
420
        0
176
     1
 90
       50
176
     1
 90
        3
176
     1
 62
     5
420
      255
176
     1
290
     0
176
     1
 90
       50
176
     1
 90
       50
176
     1
 90
       50
176
     1
290
     0
176
     1
 90
       50
176
     1
 62
   256
176
     0
 40
1.0
176
     0
 90
        2
176
     1
  1
strokes_ogs.tif
176
     1
290
     0
176
     1
 40
1.0
176
     1
 40
1.0
176
     1
1001
ACAD
1000
AcDbSavedByObjectVersion
1070
     0
  0
VISUALSTYLE
  5
80CE
102
{ACAD_REACTORS
330
80CB
102
}
330
80CB
100
AcDbVisualStyle
  2
Gouraud
 70
     2
177
     3
291
     1
 70
    58
 90
        2
176
     1
 90
        2
176
     1
 90
        1
176
     1
 90
        2
176
     1
 40
0.6
176
     1
 40
30.0
176
     1
 62
     7
420
 16777215
176
     1
 90
        0
176
     1
 90
        0
176
     1
 62
     7
176
     1
 62
   257
176
     1
 90
        1
176
     1
 90
        1
176
     1
 40
1.0
176
     1
 90
        0
176
     1
 62
     7
176
     1
 40
1.0
176
     1
 90
        1
176
     1
 90
        6
176
     1
 90
        2
176
     1
 62
     7
176
     1
 90
        5
176
     1
 90
        0
176
     1
 90
        0
176
     1
290
     0
176
     1
 90
       13
176
     1
 40
0.0
176
     1
 90
        0
176
     1
290
     0
176
     1
290
     1
176
     1
290
     1
176
     1
290
     0
176
     1
290
     0
176
     1
290
     0
176
     1
290
     0
176
     1
290
     0
176
     1
290
     0
176
     1
 90
       50
176
     1
 40
0.0
176
     1
 40
1.0
176
     1
 90
        0
176
     1
 62
    18
420
        0
176
     1
 90
       50
176
     1
 90
        3
176
     1
 62
     5
420
      255
176
     1
290
     0
176
     1
 90
       50
176
     1
 90
       50
176
     1
 90
       50
176
     1
290
     0
176
     1
 90
       50
176
     1
 62
   256
176
     0
 40
1.0
176
     0
 90
        2
176
     1
  1
strokes_ogs.tif
176
     1
290
     0
176
     1
 40
1.0
176
     1
 40
1.0
176
     1
1001
ACAD
1000
AcDbSavedByObjectVersion
1070
     0
  0
VISUALSTYLE
  5
80CF
102
{ACAD_REACTORS
330
80CB
102
}
330
80CB
100
AcDbVisualStyle
  2
GouraudWithEdges
 70
     3
177
     3
291
     1
 70
    58
 90
        2
176
     1
 90
        2
176
     1
 90
        1
176
     1
 90
        2
176
     1
 40
0.6
176
     1
 40
30.0
176
     1
 62
     7
420
 16777215
176
     1
 90
        1
176
     1
 90
        0
176
     1
 62
     7
176
     1
 62
   257
176
     1
 90
        1
176
     1
 90
        1
176
     1
 40
1.0
176
     1
 90
        0
176
     1
 62
   257
176
     1
 40
1.0
176
     1
 90
        1
176
     1
 90
        6
176
     1
 90
        2
176
     1
 62
     7
176
     1
 90
        5
176
     1
 90
        0
176
     1
 90
        0
176
     1
290
     0
176
     1
 90
       13
176
     1
 40
0.0
176
     1
 90
        0
176
     1
290
     0
176
     1
290
     1
176
     1
290
     1
176
     1
290
     0
176
     1
290
     0
176
     1
290
     0
176
     1
290
     0
176
     1
290
     0
176
     1
290
     0
176
     1
 90
       50
176
     1
 40
0.0
176
     1
 40
1.0
176
     1
 90
        0
176
     1
 62
    18
420
        0
176
     1
 90
       50
176
     1
 90
        3
176
     1
 62
     5
420
      255
176
     1
290
     0
176
     1
 90
       50
176
     1
 90
       50
176
     1
 90
       50
176
     1
290
     0
176
     1
 90
       50
176
     1
 62
   256
176
     0
 40
1.0
176
     0
 90
        2
176
     1
  1
strokes_ogs.tif
176
     1
290
     0
176
     1
 40
1.0
176
     1
 40
1.0
176
     1
1001
ACAD
1000
AcDbSavedByObjectVersion
1070
     0
  0
VISUALSTYLE
  5
80D3
102
{ACAD_REACTORS
330
80CB
102
}
330
80CB
100
AcDbVisualStyle
  2
Hidden
 70
     6
177
     3
291
     0
 70
    58
 90
        1
176
     1
 90
        2
176
     1
 90
        2
176
     1
 90
        0
176
     1
 40
0.6
176
     1
 40
30.0
176
     1
 62
     7
420
 16777215
176
     1
 90
        2
176
     1
 90
        2
176
     1
 62
     7
176
     1
 62
   257
176
     1
 90
        2
176
     1
 90
        1
176
     1
 40
40.0
176
     1
 90
        0
176
     1
 62
   257
176
     1
 40
1.0
176
     1
 90
        1
176
     1
 90
        6
176
     1
 90
        2
176
     1
 62
     7
176
     1
 90
        3
176
     1
 90
        0
176
     1
 90
        0
176
     1
290
     0
176
     1
 90
        1
176
     1
 40
0.0
176
     1
 90
        0
176
     1
290
     0
176
     1
290
     1
176
     1
290
     1
176
     1
290
     0
176
     1
290
     0
176
     1
290
     0
176
     1
290
     0
176
     1
290
     0
176
     1
290
     0
176
     1
 90
       50
176
     1
 40
0.0
176
     1
 40
1.0
176
     1
 90
        0
176
     1
 62
    18
420
        0
176
     1
 90
       50
176
     1
 90
        3
176
     1
 62
     5
420
      255
176
     1
290
     0
176
     1
 90
       50
176
     1
 90
       50
176
     1
 90
       50
176
     1
290
     0
176
     1
 90
       50
176
     1
 62
   256
176
     0
 40
1.0
176
     0
 90
        2
176
     1
  1
strokes_ogs.tif
176
     1
290
     0
176
     1
 40
1.0
176
     1
 40
1.0
176
     1
1001
ACAD
1000
AcDbSavedByObjectVersion
1070
     0
  0
VISUALSTYLE
  5
80E1
102
{ACAD_REACTORS
330
80CB
102
}
330
80CB
100
AcDbVisualStyle
  2
JitterOff
 70
    20
177
     3
291
     1
 70
    58
 90
        2
176
     0
 90
        2
176
     0
 90
        0
176
     0
 90
        0
176
     0
 40
0.6
176
     0
 40
30.0
176
     0
 62
     7
420
 16777215
176
     0
 90
        1
176
     0
 90
        4
176
     0
 62
     7
176
     0
 62
   257
176
     0
 90
        1
176
     0
 90
        1
176
     0
 40
1.0
176
     0
 90
       10
176
     2
 62
     7
176
     0
 40
1.0
176
     0
 90
        1
176
     0
 90
        6
176
     0
 90
        2
176
     0
 62
     7
176
     0
 90
        5
176
     0
 90
        0
176
     0
 90
        0
176
     0
290
     0
176
     0
 90
        1
176
     0
 40
0.0
176
     0
 90
        0
176
     0
290
     0
176
     0
290
     1
176
     0
290
     1
176
     0
290
     0
176
     0
290
     0
176
     0
290
     0
176
     0
290
     0
176
     0
290
     0
176
     0
290
     0
176
     0
 90
       50
176
     0
 40
0.0
176
     0
 40
1.0
176
     0
 90
        0
176
     0
 62
    18
420
        0
176
     0
 90
       50
176
     0
 90
        3
176
     0
 62
     5
420
      255
176
     0
290
     0
176
     0
 90
       50
176
     0
 90
       50
176
     0
 90
       50
176
     0
290
     0
176
     0
 90
       50
176
     0
 62
   256
176
     0
 40
1.0
176
     0
 90
        2
176
     0
  1
strokes_ogs.tif
176
     0
290
     0
176
     0
 40
1.0
176
     0
 40
1.0
176
     0
1001
ACAD
1000
AcDbSavedByObjectVersion
1070
     0
  0
VISUALSTYLE
  5
80D9
102
{ACAD_REACTORS
330
80CB
102
}
330
80CB
100
AcDbVisualStyle
  2
Linepattern
 70
    14
177
     3
291
     1
 70
    58
 90
        2
176
     1
 90
        2
176
     1
 90
        0
176
     1
 90
        0
176
     1
 40
0.6
176
     1
 40
30.0
176
     1
 62
     7
420
 16777215
176
     1
 90
        1
176
     1
 90
        4
176
     1
 62
     7
176
     1
 62
   257
176
     1
 90
        7
176
     1
 90
        7
176
     1
 40
1.0
176
     1
 90
        8
176
     1
 62
     7
176
     1
 40
1.0
176
     1
 90
        1
176
     1
 90
        6
176
     1
 90
        2
176
     1
 62
     7
176
     1
 90
        5
176
     1
 90
        0
176
     1
 90
        0
176
     1
290
     0
176
     1
 90
        1
176
     1
 40
0.0
176
     1
 90
        0
176
     1
290
     0
176
     1
290
     1
176
     1
290
     1
176
     1
290
     0
176
     1
290
     0
176
     1
290
     0
176
     1
290
     0
176
     1
290
     0
176
     1
290
     0
176
     1
 90
       50
176
     1
 40
0.0
176
     1
 40
1.0
176
     1
 90
        0
176
     1
 62
    18
420
        0
176
     1
 90
       50
176
     1
 90
        3
176
     1
 62
     5
420
      255
176
     1
290
     0
176
     1
 90
       50
176
     1
 90
       50
176
     1
 90
       50
176
     1
290
     0
176
     1
 90
       50
176
     1
 62
   256
176
     0
 40
1.0
176
     0
 90
        2
176
     1
  1
strokes_ogs.tif
176
     1
290
     0
176
     1
 40
1.0
176
     1
 40
1.0
176
     1
1001
ACAD
1000
AcDbSavedByObjectVersion
1070
     0
  0
VISUALSTYLE
  5
80E2
102
{ACAD_REACTORS
330
80CB
102
}
330
80CB
100
AcDbVisualStyle
  2
OverhangOff
 70
    21
177
     3
291
     1
 70
    58
 90
        2
176
     0
 90
        2
176
     0
 90
        0
176
     0
 90
        0
176
     0
 40
0.6
176
     0
 40
30.0
176
     0
 62
     7
420
 16777215
176
     0
 90
        1
176
     0
 90
        4
176
     0
 62
     7
176
     0
 62
   257
176
     0
 90
        1
176
     0
 90
        1
176
     0
 40
1.0
176
     0
 90
        9
176
     2
 62
     7
176
     0
 40
1.0
176
     0
 90
        1
176
     0
 90
        6
176
     0
 90
        2
176
     0
 62
     7
176
     0
 90
        5
176
     0
 90
        0
176
     0
 90
        0
176
     0
290
     0
176
     0
 90
        1
176
     0
 40
0.0
176
     0
 90
        0
176
     0
290
     0
176
     0
290
     1
176
     0
290
     1
176
     0
290
     0
176
     0
290
     0
176
     0
290
     0
176
     0
290
     0
176
     0
290
     0
176
     0
290
     0
176
     0
 90
       50
176
     0
 40
0.0
176
     0
 40
1.0
176
     0
 90
        0
176
     0
 62
    18
420
        0
176
     0
 90
       50
176
     0
 90
        3
176
     0
 62
     5
420
      255
176
     0
290
     0
176
     0
 90
       50
176
     0
 90
       50
176
     0
 90
       50
176
     0
290
     0
176
     0
 90
       50
176
     0
 62
   256
176
     0
 40
1.0
176
     0
 90
        2
176
     0
  1
strokes_ogs.tif
176
     0
290
     0
176
     0
 40
1.0
176
     0
 40
1.0
176
     0
1001
ACAD
1000
AcDbSavedByObjectVersion
1070
     0
  0
VISUALSTYLE
  5
80D5
102
{ACAD_REACTORS
330
80CB
102
}
330
80CB
100
AcDbVisualStyle
  2
Realistic
 70
     8
177
     3
291
     0
 70
    58
 90
        2
176
     1
 90
        3
176
     1
 90
        0
176
     1
 90
        2
176
     1
 40
0.6
176
     1
 40
30.0
176
     1
 62
     7
420
 16777215
176
     1
 90
        0
176
     1
 90
        0
176
     1
 62
     7
176
     1
 62
   257
176
     1
 90
        1
176
     1
 90
        1
176
     1
 40
1.0
176
     1
 90
        8
176
     1
 62
   257
176
     1
 40
1.0
176
     1
 90
        1
176
     1
 90
        6
176
     1
 90
        2
176
     1
 62
     7
176
     1
 90
        3
176
     1
 90
        0
176
     1
 90
        0
176
     1
290
     0
176
     1
 90
       13
176
     1
 40
0.0
176
     1
 90
        0
176
     1
290
     0
176
     1
290
     1
176
     1
290
     1
176
     1
290
     0
176
     1
290
     0
176
     1
290
     0
176
     1
290
     0
176
     1
290
     0
176
     1
290
     0
176
     1
 90
       50
176
     1
 40
0.0
176
     1
 40
1.0
176
     1
 90
        0
176
     1
 62
    18
420
        0
176
     1
 90
       50
176
     1
 90
        3
176
     1
 62
     5
420
      255
176
     1
290
     0
176
     1
 90
       50
176
     1
 90
       50
176
     1
 90
       50
176
     1
290
     0
176
     1
 90
       50
176
     1
 62
   256
176
     0
 40
1.0
176
     0
 90
        2
176
     1
  1
strokes_ogs.tif
176
     1
290
     0
176
     1
 40
1.0
176
     1
 40
1.0
176
     1
1001
ACAD
1000
AcDbSavedByObjectVersion
1070
     0
  0
VISUALSTYLE
  5
80E0
102
{ACAD_REACTORS
330
80CB
102
}
330
80CB
100
AcDbVisualStyle
  2
Shaded
 70
    27
177
     3
291
     0
 70
    58
 90
        2
176
     1
 90
        2
176
     1
 90
        1
176
     1
 90
        2
176
     1
 40
0.6
176
     1
 40
30.0
176
     1
 62
     7
420
 16777215
176
     1
 90
        0
176
     1
 90
        4
176
     1
 62
     7
176
     1
 62
   257
176
     1
 90
        1
176
     1
 90
        1
176
     1
 40
1.0
176
     1
 90
        8
176
     1
 62
   257
176
     1
 40
1.0
176
     1
 90
        1
176
     1
 90
        6
176
     1
 90
        2
176
     1
 62
     8
420
  7895160
176
     1
 90
        3
176
     1
 90
        0
176
     1
 90
        0
176
     1
290
     0
176
     1
 90
        5
176
     1
 40
0.0
176
     1
 90
        0
176
     1
290
     0
176
     1
290
     1
176
     1
290
     1
176
     1
290
     0
176
     1
290
     0
176
     1
290
     0
176
     1
290
     0
176
     1
290
     0
176
     1
290
     0
176
     1
 90
       50
176
     1
 40
0.0
176
     1
 40
1.0
176
     1
 90
        0
176
     1
 62
    18
420
        0
176
     1
 90
       50
176
     1
 90
        3
176
     1
 62
     5
420
      255
176
     1
290
     0
176
     1
 90
       50
176
     1
 90
       50
176
     1
 90
       50
176
     1
290
     0
176
     1
 90
       50
176
     1
 62
   256
176
     0
 40
1.0
176
     0
 90
        2
176
     1
  1
strokes_ogs.tif
176
     1
290
     0
176
     1
 40
1.0
176
     1
 40
1.0
176
     1
1001
ACAD
1000
AcDbSavedByObjectVersion
1070
     0
  0
VISUALSTYLE
  5
80DF
102
{ACAD_REACTORS
330
80CB
102
}
330
80CB
100
AcDbVisualStyle
  2
Shaded with edges
 70
    26
177
     3
291
     0
 70
    58
 90
        2
176
     1
 90
        2
176
     1
 90
        1
176
     1
 90
        2
176
     1
 40
0.6
176
     1
 40
30.0
176
     1
 62
     7
420
 16777215
176
     1
 90
        1
176
     1
 90
        2
176
     1
 62
     7
176
     1
 62
   257
176
     1
 90
        2
176
     1
 90
        1
176
     1
 40
1.0
176
     1
 90
        8
176
     1
 62
   257
176
     1
 40
1.0
176
     1
 90
        1
176
     1
 90
        6
176
     1
 90
        2
176
     1
 62
     7
176
     1
 90
        3
176
     1
 90
        0
176
     1
 90
        0
176
     1
290
     0
176
     1
 90
        5
176
     1
 40
0.0
176
     1
 90
        0
176
     1
290
     0
176
     1
290
     1
176
     1
290
     1
176
     1
290
     0
176
     1
290
     0
176
     1
290
     0
176
     1
290
     0
176
     1
290
     0
176
     1
290
     0
176
     1
 90
       50
176
     1
 40
0.0
176
     1
 40
1.0
176
     1
 90
        0
176
     1
 62
    18
420
        0
176
     1
 90
       50
176
     1
 90
        3
176
     1
 62
     5
420
      255
176
     1
290
     0
176
     1
 90
       50
176
     1
 90
       50
176
     1
 90
       50
176
     1
290
     0
176
     1
 90
       50
176
     1
 62
   256
176
     0
 40
1.0
176
     0
 90
        2
176
     1
  1
strokes_ogs.tif
176
     1
290
     0
176
     1
 40
1.0
176
     1
 40
1.0
176
     1
1001
ACAD
1000
AcDbSavedByObjectVersion
1070
     0
  0
VISUALSTYLE
  5
80DC
102
{ACAD_REACTORS
330
80CB
102
}
330
80CB
100
AcDbVisualStyle
  2
Shades of Gray
 70
    23
177
     3
291
     0
 70
    58
 90
        2
176
     1
 90
        2
176
     1
 90
        3
176
     1
 90
        0
176
     1
 40
0.6
176
     1
 40
30.0
176
     1
 62
     7
420
 16777215
176
     1
 90
        2
176
     1
 90
        2
176
     1
 62
     7
176
     1
 62
     7
176
     1
 90
        1
176
     1
 90
        1
176
     1
 40
40.0
176
     1
 90
        8
176
     1
 62
     7
176
     1
 40
1.0
176
     1
 90
        1
176
     1
 90
        6
176
     1
 90
        2
176
     1
 62
     7
176
     1
 90
        3
176
     1
 90
        0
176
     1
 90
        0
176
     1
290
     0
176
     1
 90
        1
176
     1
 40
0.0
176
     1
 90
        0
176
     1
290
     0
176
     1
290
     1
176
     1
290
     1
176
     1
290
     0
176
     1
290
     0
176
     1
290
     0
176
     1
290
     0
176
     1
290
     0
176
     1
290
     0
176
     1
 90
       50
176
     1
 40
0.0
176
     1
 40
1.0
176
     1
 90
        0
176
     1
 62
    18
420
        0
176
     1
 90
       50
176
     1
 90
        3
176
     1
 62
     5
420
      255
176
     1
290
     0
176
     1
 90
       50
176
     1
 90
       50
176
     1
 90
       50
176
     1
290
     0
176
     1
 90
       50
176
     1
 62
   256
176
     0
 40
1.0
176
     0
 90
        2
176
     1
  1
strokes_ogs.tif
176
     1
290
     0
176
     1
 40
1.0
176
     1
 40
1.0
176
     1
1001
ACAD
1000
AcDbSavedByObjectVersion
1070
     0
  0
VISUALSTYLE
  5
80DD
102
{ACAD_REACTORS
330
80CB
102
}
330
80CB
100
AcDbVisualStyle
  2
Sketchy
 70
    24
177
     3
291
     0
 70
    58
 90
        1
176
     1
 90
        2
176
     1
 90
        2
176
     1
 90
        0
176
     1
 40
0.6
176
     1
 40
30.0
176
     1
 62
     7
420
 16777215
176
     1
 90
        2
176
     1
 90
        2
176
     1
 62
     7
176
     1
 62
     7
176
     1
 90
        1
176
     1
 90
        1
176
     1
 40
40.0
176
     1
 90
       11
176
     1
 62
     7
176
     1
 40
1.0
176
     1
 90
        1
176
     1
 90
        6
176
     1
 90
        2
176
     1
 62
     7
176
     1
 90
        6
176
     1
 90
        0
176
     1
 90
        0
176
     1
290
     0
176
     1
 90
        1
176
     1
 40
0.0
176
     1
 90
        0
176
     1
290
     0
176
     1
290
     1
176
     1
290
     1
176
     1
290
     0
176
     1
290
     0
176
     1
290
     0
176
     1
290
     0
176
     1
290
     0
176
     1
290
     0
176
     1
 90
       50
176
     1
 40
0.0
176
     1
 40
1.0
176
     1
 90
        0
176
     1
 62
    18
420
        0
176
     1
 90
       50
176
     1
 90
        3
176
     1
 62
     5
420
      255
176
     1
290
     0
176
     1
 90
       50
176
     1
 90
       50
176
     1
 90
       50
176
     1
290
     0
176
     1
 90
       50
176
     1
 62
   256
176
     0
 40
1.0
176
     0
 90
        2
176
     1
  1
strokes_ogs.tif
176
     1
290
     0
176
     1
 40
1.0
176
     1
 40
1.0
176
     1
1001
ACAD
1000
AcDbSavedByObjectVersion
1070
     0
  0
VISUALSTYLE
  5
80D8
102
{ACAD_REACTORS
330
80CB
102
}
330
80CB
100
AcDbVisualStyle
  2
Thicken
 70
    13
177
     3
291
     1
 70
    58
 90
        2
176
     1
 90
        2
176
     1
 90
        0
176
     1
 90
        0
176
     1
 40
0.6
176
     1
 40
30.0
176
     1
 62
     7
420
 16777215
176
     1
 90
        1
176
     1
 90
        4
176
     1
 62
     7
176
     1
 62
   257
176
     1
 90
        1
176
     1
 90
        1
176
     1
 40
1.0
176
     1
 90
       12
176
     1
 62
     7
176
     1
 40
1.0
176
     1
 90
        1
176
     1
 90
        6
176
     1
 90
        2
176
     1
 62
     7
176
     1
 90
        5
176
     1
 90
        0
176
     1
 90
        0
176
     1
290
     0
176
     1
 90
        1
176
     1
 40
0.0
176
     1
 90
        0
176
     1
290
     0
176
     1
290
     1
176
     1
290
     1
176
     1
290
     0
176
     1
290
     0
176
     1
290
     0
176
     1
290
     0
176
     1
290
     0
176
     1
290
     0
176
     1
 90
       50
176
     1
 40
0.0
176
     1
 40
1.0
176
     1
 90
        0
176
     1
 62
    18
420
        0
176
     1
 90
       50
176
     1
 90
        3
176
     1
 62
     5
420
      255
176
     1
290
     0
176
     1
 90
       50
176
     1
 90
       50
176
     1
 90
       50
176
     1
290
     0
176
     1
 90
       50
176
     1
 62
   256
176
     0
 40
1.0
176
     0
 90
        2
176
     1
  1
strokes_ogs.tif
176
     1
290
     0
176
     1
 40
1.0
176
     1
 40
1.0
176
     1
1001
ACAD
1000
AcDbSavedByObjectVersion
1070
     0
  0
VISUALSTYLE
  5
80D2
102
{ACAD_REACTORS
330
80CB
102
}
330
80CB
100
AcDbVisualStyle
  2
Wireframe
 70
     5
177
     3
291
     0
 70
    58
 90
        0
176
     1
 90
        2
176
     1
 90
        0
176
     1
 90
        0
176
     1
 40
0.6
176
     1
 40
30.0
176
     1
 62
     7
420
 16777215
176
     1
 90
        1
176
     1
 90
        4
176
     1
 62
     7
176
     1
 62
   257
176
     1
 90
        1
176
     1
 90
        1
176
     1
 40
1.0
176
     1
 90
        0
176
     1
 62
   257
176
     1
 40
1.0
176
     1
 90
        1
176
     1
 90
        6
176
     1
 90
        2
176
     1
 62
     7
176
     1
 90
        3
176
     1
 90
        0
176
     1
 90
        0
176
     1
290
     0
176
     1
 90
        1
176
     1
 40
0.0
176
     1
 90
        0
176
     1
290
     0
176
     1
290
     1
176
     1
290
     1
176
     1
290
     0
176
     1
290
     0
176
     1
290
     0
176
     1
290
     0
176
     1
290
     0
176
     1
290
     0
176
     1
 90
       50
176
     1
 40
0.0
176
     1
 40
1.0
176
     1
 90
        0
176
     1
 62
    18
420
        0
176
     1
 90
       50
176
     1
 90
        3
176
     1
 62
     5
420
      255
176
     1
290
     0
176
     1
 90
       50
176
     1
 90
       50
176
     1
 90
       50
176
     1
290
     0
176
     1
 90
       50
176
     1
 62
   256
176
     0
 40
1.0
176
     0
 90
        2
176
     1
  1
strokes_ogs.tif
176
     1
290
     0
176
     1
 40
1.0
176
     1
 40
1.0
176
     1
1001
ACAD
1000
AcDbSavedByObjectVersion
1070
     0
  0
VISUALSTYLE
  5
80DE
102
{ACAD_REACTORS
330
80CB
102
}
330
80CB
100
AcDbVisualStyle
  2
X-Ray
 70
    25
177
     3
291
     0
 70
    58
 90
        2
176
     1
 90
        2
176
     1
 90
        1
176
     1
 90
        1
176
     1
 40
0.5
176
     1
 40
30.0
176
     1
 62
     7
420
 16777215
176
     1
 90
        1
176
     1
 90
        0
176
     1
 62
     7
176
     1
 62
   257
176
     1
 90
        1
176
     1
 90
        1
176
     1
 40
1.0
176
     1
 90
        8
176
     1
 62
     7
176
     1
 40
1.0
176
     1
 90
        1
176
     1
 90
        6
176
     1
 90
        2
176
     1
 62
     7
176
     1
 90
        3
176
     1
 90
        0
176
     1
 90
        0
176
     1
290
     0
176
     1
 90
       13
176
     1
 40
0.0
176
     1
 90
        0
176
     1
290
     0
176
     1
290
     1
176
     1
290
     1
176
     1
290
     0
176
     1
290
     0
176
     1
290
     0
176
     1
290
     0
176
     1
290
     0
176
     1
290
     0
176
     1
 90
       50
176
     1
 40
0.0
176
     1
 40
1.0
176
     1
 90
        0
176
     1
 62
    18
420
        0
176
     1
 90
       50
176
     1
 90
        3
176
     1
 62
     5
420
      255
176
     1
290
     0
176
     1
 90
       50
176
     1
 90
       50
176
     1
 90
       50
176
     1
290
     0
176
     1
 90
       50
176
     1
 62
   256
176
     0
 40
1.0
176
     0
 90
        2
176
     1
  1
strokes_ogs.tif
176
     1
290
     0
176
     1
 40
1.0
176
     1
 40
1.0
176
     1
1001
ACAD
1000
AcDbSavedByObjectVersion
1070
     0
  0
DICTIONARYVAR
  5
8159
102
{ACAD_REACTORS
330
80A8
102
}
330
80A8
100
DictionaryVariables
280
     0
  1
1:1
  0
DICTIONARYVAR
  5
8155
102
{ACAD_REACTORS
330
80A8
102
}
330
80A8
100
DictionaryVariables
280
     0
  1
STANDARD
  0
DICTIONARYVAR
  5
8154
102
{ACAD_REACTORS
330
80A8
102
}
330
80A8
100
DictionaryVariables
280
     0
  1
STANDARD
  0
DICTIONARYVAR
  5
8156
102
{ACAD_REACTORS
330
80A8
102
}
330
80A8
100
DictionaryVariables
280
     0
  1
Metric50
  0
DICTIONARYVAR
  5
8157
102
{ACAD_REACTORS
330
80A8
102
}
330
80A8
100
DictionaryVariables
280
     0
  1
Metric50
  0
DICTIONARYVAR
  5
80A9
102
{ACAD_REACTORS
330
80A8
102
}
330
80A8
100
DictionaryVariables
280
     0
  1
1
  0
DICTIONARYVAR
  5
815B
102
{ACAD_REACTORS
330
80A8
102
}
330
80A8
100
DictionaryVariables
280
     0
  1
1
  0
DICTIONARYVAR
  5
815C
102
{ACAD_REACTORS
330
80A8
102
}
330
80A8
100
DictionaryVariables
280
     0
  1
15
  0
DICTIONARYVAR
  5
815A
102
{ACAD_REACTORS
330
80A8
102
}
330
80A8
100
DictionaryVariables
280
     0
  1
0
  0
DICTIONARYVAR
  5
8161
102
{ACAD_REACTORS
330
80A8
102
}
330
80A8
100
DictionaryVariables
280
     0
  1
0
  0
DICTIONARYVAR
  5
8158
102
{ACAD_REACTORS
330
80A8
102
}
330
80A8
100
DictionaryVariables
280
     0
  1
0
  0
DICTIONARY
  5
816C
102
{ACAD_REACTORS
330
816A
102
}
330
816A
100
AcDbDictionary
281
     1
  0
DICTIONARY
  5
816B
102
{ACAD_REACTORS
330
816A
102
}
330
816A
100
AcDbDictionary
281
     1
  3
2047567834064
350
8165
  3
2047567834080
350
8166
  3
2047567834096
350
8167
  3
2047567834112
350
8168
  3
2047567834128
350
8169
  0
DICTIONARY
  5
816F
330
80FE
100
AcDbDictionary
280
     1
281
     1
  3
ACAD_XREC_ROUNDTRIP
360
8170
  0
DICTIONARY
  5
80BC
330
80BB
100
AcDbDictionary
280
     1
281
     1
  3
BUMPTILE
360
80BE
  3
DIFFUSETILE
360
80BD
  3
OPACITYTILE
360
80C1
  3
REFLECTIONTILE
360
80C0
  3
REFRACTIONTILE
360
80C2
  3
SPECULARTILE
360
80BF
  0
DICTIONARY
  5
80B4
330
80B3
100
AcDbDictionary
280
     1
281
     1
  3
BUMPTILE
360
80B6
  3
DIFFUSETILE
360
80B5
  3
OPACITYTILE
360
80B9
  3
REFLECTIONTILE
360
80B8
  3
REFRACTIONTILE
360
80BA
  3
SPECULARTILE
360
80B7
  0
DICTIONARY
  5
80C4
330
80C3
100
AcDbDictionary
280
     1
281
     1
  3
BUMPTILE
360
80C6
  3
DIFFUSETILE
360
80C5
  3
OPACITYTILE
360
80C9
  3
REFLECTIONTILE
360
80C8
  3
REFRACTIONTILE
360
80CA
  3
SPECULARTILE
360
80C7
  0
DICTIONARY
  5
816D
330
80FC
100
AcDbDictionary
280
     1
281
     1
  3
ACAD_XREC_ROUNDTRIP
360
816E
  0
DICTIONARY
  5
8162
330
80E6
100
AcDbDictionary
280
     1
281
     1
  3
ACAD_ROUNDTRIP_2008_TABLESTYLE_CELLSTYLEMAP
360
8163
  0
XRECORD
  5
8165
102
{ACAD_REACTORS
330
816B
102
}
330
816B
100
AcDbXrecord
280
     1
  1
AcDb_Thumbnail_Schema
102
{ATTRRECORD
341
8166
  2
AcDbDs::TreatedAsObjectData
280
     1
291
     1
102
ATTRRECORD}
102
{ATTRRECORD
341
8167
  2
AcDbDs::Legacy
280
     1
291
     1
102
ATTRRECORD}
  2
AcDbDs::ID
280
    10
 91
        8
102
{ATTRRECORD
341
8168
  2
AcDs:Indexable
280
     1
291
     1
102
ATTRRECORD}
102
{ATTRRECORD
341
8169
  2
AcDbDs::HandleAttribute
280
     7
282
     1
102
ATTRRECORD}
  2
Thumbnail_Data
280
    15
 91
        0
  0
XRECORD
  5
8166
102
{ACAD_REACTORS
330
816B
102
}
330
816B
100
AcDbXrecord
280
     1
  1
AcDbDs::TreatedAsObjectDataSchema
  2
AcDbDs::TreatedAsObjectData
280
     1
 91
        0
  0
XRECORD
  5
8167
102
{ACAD_REACTORS
330
816B
102
}
330
816B
100
AcDbXrecord
280
     1
  1
AcDbDs::LegacySchema
  2
AcDbDs::Legacy
280
     1
 91
        0
  0
XRECORD
  5
8168
102
{ACAD_REACTORS
330
816B
102
}
330
816B
100
AcDbXrecord
280
     1
  1
AcDbDs::IndexedPropertySchema
  2
AcDs:Indexable
280
     1
 91
        0
  0
XRECORD
  5
8169
102
{ACAD_REACTORS
330
816B
102
}
330
816B
100
AcDbXrecord
280
     1
  1
AcDbDs::HandleAttributeSchema
  2
AcDbDs::HandleAttribute
280
     7
 91
        1
284
     1
  0
XRECORD
  5
8170
102
{ACAD_REACTORS
330
816F
102
}
330
816F
100
AcDbXrecord
280
     1
102
DISPLAYNAME
  1
Metric50
102
FLAGS
 90
        0
  0
XRECORD
  5
80BE
102
{ACAD_REACTORS
330
80BC
102
}
330
80BC
100
AcDbXrecord
280
     1
270
     1
271
     1
  0
XRECORD
  5
80BD
102
{ACAD_REACTORS
330
80BC
102
}
330
80BC
100
AcDbXrecord
280
     1
270
     1
271
     1
  0
XRECORD
  5
80C1
102
{ACAD_REACTORS
330
80BC
102
}
330
80BC
100
AcDbXrecord
280
     1
270
     1
271
     1
  0
XRECORD
  5
80C0
102
{ACAD_REACTORS
330
80BC
102
}
330
80BC
100
AcDbXrecord
280
     1
270
     1
271
     1
  0
XRECORD
  5
80C2
102
{ACAD_REACTORS
330
80BC
102
}
330
80BC
100
AcDbXrecord
280
     1
270
     1
271
     1
  0
XRECORD
  5
80BF
102
{ACAD_REACTORS
330
80BC
102
}
330
80BC
100
AcDbXrecord
280
     1
270
     1
271
     1
  0
XRECORD
  5
80B6
102
{ACAD_REACTORS
330
80B4
102
}
330
80B4
100
AcDbXrecord
280
     1
270
     1
271
     1
  0
XRECORD
  5
80B5
102
{ACAD_REACTORS
330
80B4
102
}
330
80B4
100
AcDbXrecord
280
     1
270
     1
271
     1
  0
XRECORD
  5
80B9
102
{ACAD_REACTORS
330
80B4
102
}
330
80B4
100
AcDbXrecord
280
     1
270
     1
271
     1
  0
XRECORD
  5
80B8
102
{ACAD_REACTORS
330
80B4
102
}
330
80B4
100
AcDbXrecord
280
     1
270
     1
271
     1
  0
XRECORD
  5
80BA
102
{ACAD_REACTORS
330
80B4
102
}
330
80B4
100
AcDbXrecord
280
     1
270
     1
271
     1
  0
XRECORD
  5
80B7
102
{ACAD_REACTORS
330
80B4
102
}
330
80B4
100
AcDbXrecord
280
     1
270
     1
271
     1
  0
XRECORD
  5
80C6
102
{ACAD_REACTORS
330
80C4
102
}
330
80C4
100
AcDbXrecord
280
     1
270
     1
271
     1
  0
XRECORD
  5
80C5
102
{ACAD_REACTORS
330
80C4
102
}
330
80C4
100
AcDbXrecord
280
     1
270
     1
271
     1
  0
XRECORD
  5
80C9
102
{ACAD_REACTORS
330
80C4
102
}
330
80C4
100
AcDbXrecord
280
     1
270
     1
271
     1
  0
XRECORD
  5
80C8
102
{ACAD_REACTORS
330
80C4
102
}
330
80C4
100
AcDbXrecord
280
     1
270
     1
271
     1
  0
XRECORD
  5
80CA
102
{ACAD_REACTORS
330
80C4
102
}
330
80C4
100
AcDbXrecord
280
     1
270
     1
271
     1
  0
XRECORD
  5
80C7
102
{ACAD_REACTORS
330
80C4
102
}
330
80C4
100
AcDbXrecord
280
     1
270
     1
271
     1
  0
XRECORD
  5
816E
102
{ACAD_REACTORS
330
816D
102
}
330
816D
100
AcDbXrecord
280
     1
102
DISPLAYNAME
  1
Metric50
102
FLAGS
 90
        0
  0
CELLSTYLEMAP
  5
8163
102
{ACAD_REACTORS
330
8162
102
}
330
8162
100
AcDbCellStyleMap
 90
        3
300
CELLSTYLE
  1
TABLEFORMAT_BEGIN
 90
        5
170
     1
 91
        0
 92
    32768
 62
   257
 93
        1
300
CONTENTFORMAT
  1
CONTENTFORMAT_BEGIN
 90
        0
 91
        0
 92
      512
 93
        0
300

 40
0.0
140
1.0
 94
        5
 62
     0
340
10
144
6.0
309
CONTENTFORMAT_END
171
     1
301
MARGIN
  1
CELLMARGIN_BEGIN
 40
1.5
 40
1.5
 40
1.5
 40
1.5
 40
4.5
 40
4.5
309
CELLMARGIN_END
 94
        6
 95
        1
302
GRIDFORMAT
  1
GRIDFORMAT_BEGIN
 90
        0
 91
        1
 62
     0
 92
       -2
340
0
 93
        0
 40
1.125
309
GRIDFORMAT_END
 95
        2
302
GRIDFORMAT
  1
GRIDFORMAT_BEGIN
 90
        0
 91
        1
 62
     0
 92
       -2
340
0
 93
        0
 40
1.125
309
GRIDFORMAT_END
 95
        4
302
GRIDFORMAT
  1
GRIDFORMAT_BEGIN
 90
        0
 91
        1
 62
     0
 92
       -2
340
0
 93
        0
 40
1.125
309
GRIDFORMAT_END
 95
        8
302
GRIDFORMAT
  1
GRIDFORMAT_BEGIN
 90
        0
 91
        1
 62
     0
 92
       -2
340
0
 93
        0
 40
1.125
309
GRIDFORMAT_END
 95
       16
302
GRIDFORMAT
  1
GRIDFORMAT_BEGIN
 90
        0
 91
        1
 62
     0
 92
       -2
340
0
 93
        0
 40
1.125
309
GRIDFORMAT_END
 95
       32
302
GRIDFORMAT
  1
GRIDFORMAT_BEGIN
 90
        0
 91
        1
 62
     0
 92
       -2
340
0
 93
        0
 40
1.125
309
GRIDFORMAT_END
309
TABLEFORMAT_END
  1
CELLSTYLE_BEGIN
 90
        1
 91
        1
300
_TITLE
309
CELLSTYLE_END
300
CELLSTYLE
  1
TABLEFORMAT_BEGIN
 90
        5
170
     1
 91
        0
 92
        0
 62
   257
 93
        1
300
CONTENTFORMAT
  1
CONTENTFORMAT_BEGIN
 90
        0
 91
        0
 92
      512
 93
        0
300

 40
0.0
140
1.0
 94
        5
 62
     0
340
10
144
4.5
309
CONTENTFORMAT_END
171
     1
301
MARGIN
  1
CELLMARGIN_BEGIN
 40
1.5
 40
1.5
 40
1.5
 40
1.5
 40
4.5
 40
4.5
309
CELLMARGIN_END
 94
        6
 95
        1
302
GRIDFORMAT
  1
GRIDFORMAT_BEGIN
 90
        0
 91
        1
 62
     0
 92
       -2
340
0
 93
        0
 40
1.125
309
GRIDFORMAT_END
 95
        2
302
GRIDFORMAT
  1
GRIDFORMAT_BEGIN
 90
        0
 91
        1
 62
     0
 92
       -2
340
0
 93
        0
 40
1.125
309
GRIDFORMAT_END
 95
        4
302
GRIDFORMAT
  1
GRIDFORMAT_BEGIN
 90
        0
 91
        1
 62
     0
 92
       -2
340
0
 93
        0
 40
1.125
309
GRIDFORMAT_END
 95
        8
302
GRIDFORMAT
  1
GRIDFORMAT_BEGIN
 90
        0
 91
        1
 62
     0
 92
       -2
340
0
 93
        0
 40
1.125
309
GRIDFORMAT_END
 95
       16
302
GRIDFORMAT
  1
GRIDFORMAT_BEGIN
 90
        0
 91
        1
 62
     0
 92
       -2
340
0
 93
        0
 40
1.125
309
GRIDFORMAT_END
 95
       32
302
GRIDFORMAT
  1
GRIDFORMAT_BEGIN
 90
        0
 91
        1
 62
     0
 92
       -2
340
0
 93
        0
 40
1.125
309
GRIDFORMAT_END
309
TABLEFORMAT_END
  1
CELLSTYLE_BEGIN
 90
        2
 91
        1
300
_HEADER
309
CELLSTYLE_END
300
CELLSTYLE
  1
TABLEFORMAT_BEGIN
 90
        5
170
     1
 91
        0
 92
        0
 62
   257
 93
        1
300
CONTENTFORMAT
  1
CONTENTFORMAT_BEGIN
 90
        0
 91
        0
 92
      512
 93
        0
300

 40
0.0
140
1.0
 94
        2
 62
     0
340
10
144
4.5
309
CONTENTFORMAT_END
171
     1
301
MARGIN
  1
CELLMARGIN_BEGIN
 40
1.5
 40
1.5
 40
1.5
 40
1.5
 40
4.5
 40
4.5
309
CELLMARGIN_END
 94
        6
 95
        1
302
GRIDFORMAT
  1
GRIDFORMAT_BEGIN
 90
        0
 91
        1
 62
     0
 92
       -2
340
0
 93
        0
 40
1.125
309
GRIDFORMAT_END
 95
        2
302
GRIDFORMAT
  1
GRIDFORMAT_BEGIN
 90
        0
 91
        1
 62
     0
 92
       -2
340
0
 93
        0
 40
1.125
309
GRIDFORMAT_END
 95
        4
302
GRIDFORMAT
  1
GRIDFORMAT_BEGIN
 90
        0
 91
        1
 62
     0
 92
       -2
340
0
 93
        0
 40
1.125
309
GRIDFORMAT_END
 95
        8
302
GRIDFORMAT
  1
GRIDFORMAT_BEGIN
 90
        0
 91
        1
 62
     0
 92
       -2
340
0
 93
        0
 40
1.125
309
GRIDFORMAT_END
 95
       16
302
GRIDFORMAT
  1
GRIDFORMAT_BEGIN
 90
        0
 91
        1
 62
     0
 92
       -2
340
0
 93
        0
 40
1.125
309
GRIDFORMAT_END
 95
       32
302
GRIDFORMAT
  1
GRIDFORMAT_BEGIN
 90
        0
 91
        1
 62
     0
 92
       -2
340
0
 93
        0
 40
1.125
309
GRIDFORMAT_END
309
TABLEFORMAT_END
  1
CELLSTYLE_BEGIN
 90
        3
 91
        2
300
_DATA
309
CELLSTYLE_END
  0
ENDSEC
  0
SECTION
  2
ACDSDATA
 70
     2
 71
     8
  0
ACDSSCHEMA
 90
        0
  1
AcDb_Thumbnail_Schema
  2
AcDbDs::ID
280
    10
 91
        8
  2
Thumbnail_Data
280
    15
 91
        0
101
ACDSRECORD
 95
        0
 90
        1
  2
AcDbDs::TreatedAsObjectData
280
     1
291
     1
101
ACDSRECORD
 95
        0
 90
        2
  2
AcDbDs::Legacy
280
     1
291
     1
101
ACDSRECORD
  1
AcDbDs::ID
 90
        3
  2
AcDs:Indexable
280
     1
291
     1
101
ACDSRECORD
  1
AcDbDs::ID
 90
        4
  2
AcDbDs::HandleAttribute
280
     7
282
     1
  0
ACDSSCHEMA
 90
        1
  1
AcDbDs::TreatedAsObjectDataSchema
  2
AcDbDs::TreatedAsObjectData
280
     1
 91
        0
  0
ACDSSCHEMA
 90
        2
  1
AcDbDs::LegacySchema
  2
AcDbDs::Legacy
280
     1
 91
        0
  0
ACDSSCHEMA
 90
        3
  1
AcDbDs::IndexedPropertySchema
  2
AcDs:Indexable
280
     1
 91
        0
  0
ACDSSCHEMA
 90
        4
  1
AcDbDs::HandleAttributeSchema
  2
AcDbDs::HandleAttribute
280
     7
 91
        1
284
     1
  0
ACDSRECORD
 90
        0
  2
AcDbDs::ID
280
    10
320
8065
  2
Thumbnail_Data
280
    15
 94
     1937
310
89504E470D0A1A0A0000000D49484452000001000000009108030000001BE1960600000300504C5445000000000000C8C8C80000000000000000000000000000000000000000000000000000330000660000990000CC0000FF0033000033330033660033990033CC0033FF0066000066330066660066990066CC0066FF0099
310
000099330099660099990099CC0099FF00CC0000CC3300CC6600CC9900CCCC00CCFF00FF0000FF3300FF6600FF9900FFCC00FFFF3300003300333300663300993300CC3300FF3333003333333333663333993333CC3333FF3366003366333366663366993366CC3366FF3399003399333399663399993399CC3399FF33CC00
310
33CC3333CC6633CC9933CCCC33CCFF33FF0033FF3333FF6633FF9933FFCC33FFFF6600006600336600666600996600CC6600FF6633006633336633666633996633CC6633FF6666006666336666666666996666CC6666FF6699006699336699666699996699CC6699FF66CC0066CC3366CC6666CC9966CCCC66CCFF66FF0066
310
FF3366FF6666FF9966FFCC66FFFF9900009900339900669900999900CC9900FF9933009933339933669933999933CC9933FF9966009966339966669966999966CC9966FF9999009999339999669999999999CC9999FF99CC0099CC3399CC6699CC9999CCCC99CCFF99FF0099FF3399FF6699FF9999FFCC99FFFFCC0000CC00
310
33CC0066CC0099CC00CCCC00FFCC3300CC3333CC3366CC3399CC33CCCC33FFCC6600CC6633CC6666CC6699CC66CCCC66FFCC9900CC9933CC9966CC9999CC99CCCC99FFCCCC00CCCC33CCCC66CCCC99CCCCCCCCCCFFCCFF00CCFF33CCFF66CCFF99CCFFCCCCFFFFFF0000FF0033FF0066FF0099FF00CCFF00FFFF3300FF3333
310
FF3366FF3399FF33CCFF33FFFF6600FF6633FF6666FF6699FF66CCFF66FFFF9900FF9933FF9966FF9999FF99CCFF99FFFFCC00FFCC33FFCC66FFCC99FFCCCCFFCCFFFFFF00FFFF33FFFF66FFFF99FFFFCCFFFFFF0000000D0D0D1A1A1A2828283535354343435050505D5D5D6B6B6B787878868686939393A1A1A1AEAEAEBB
310
BBBBC9C9C9D6D6D6E4E4E4F1F1F1FFFFFF00000000000000000000000000000000000000000000000000000000000008F1915C0000044C4944415478DAED9D6B96EA200C80B39CFEC9FE37C336F83F96F2482094F69C71EE4D0867D44AD5319F790151007EB1C53F6AF0BFB668EADF380007E0001C80037000FFE29DAD62BF
310
7D008BBE0D340086742F6E6802BB6B0027B0A3062877825F1C012A01A0E6A51DC0F7DE653CAF2375EC39C295E3E7522A05D0646E829F54AA615F88627B4EB5766AF91D2C550088ACE50294480670C9DACE662AF5562F80380260AEBD5E060D80762281D16C02D91D5473B8046352C5C56B7A1470009E092A1D0B449A15546F
310
467C21771A251E748150EF8C90FC5976E18124012D3B80E9229036002001000620C73B1A2198C22806003D803141A816D232C70A40BF097CE3B57C5A5C2D8090DA5D8755005948226FBE2D1DAF28A804B06CC6012CBB1C8003D803C0B11D80E4E030E0D0F601F0B9C259DBC1041200184D0058BF0370000EC001380007E000
310
1C803900D7407F7300C78187DC5C03C8D8E8C5BC904913C0177AE00034015847013A32B607E04118C4B33301B0E8031C800370000E603129BA078096FB0D0F6800EC8641D818402000F0AED9059096866EDB617830C406BBC3721019136EB1387AA7057B2D8F0BEAEE008C03F01AA155330EE045EB3542D00FF5006E75DE24
310
80B50F845A2D4900A4EB728F3C412180674EF0A99B54A9015404C902C2A028BD9E280700599119802001E0D64F105A340111C0E491C184133C66CE51D080AEACD201E8023077E664402C02980D16B5690075EB45B2F299160432004903D00000A422E17E00B0297715F339001635B40060511C93F81F912A017CAD01EA0114
310
91B20BC0D726A0180066B90EE202F602801CC045C03800E2048BFCD80E2400E9F414803A27380268514004901CA571005714C81E1124006808004B7FCFBAC8543089475A0B3B0F03FF12D9D52F56557E3A550128533C67E826F97FD200A831B12F95BDD3806BF55021802B09E89D60F104CF7DC0A7DF08802610BED300DD00
310
80AB40965F0030CF0340531E3002C8D2E628504603681D40B84630F953CFF3019D1DD805D0E6339BDA1F34192A7F4F0104DD00582258F4BFDAC60280D6F9000E80CE08D55400DBD4C0D2044021009001101778690509834D512C00085300251FBC86062D112222EB0740C26007806603A548CA1A009E07743EA0DEA4715101
310
90C74BE51B656601B0DAE1DD34A02F9544B33EA0C40092094EEB44330034150592ECE171AD30A5414F8CBFB7A20A40FF011ED2D38EFA081C4F082AA02D0F58AB009B3059FEE28ECAE5F1BACC7D5F2CDD9D0E7231B59E028940674881D7B9701BA1C51101680D515E12340020741207F625290A8015510D15427A000CE59EEB
310
2AC067C5D41A010C07202ACBFC17D69403F8AEA529F001BB020007E0001C800370000EA09DDF718F117E5E1629BE7B698B00F8061440B622699B6E1902000200681BACD0E3B2CD961500D3FEB2AD08D9A28FDC3703C09DE04CA2583799018871472758F61DDC1980E41E2D0310A30318D780DD9DA00F861C800370000EC001
310
3800076017C01FB5DF7CCF3FD36D62EA783C162A0000000049454E44AE426082
  0
ENDSEC
  0
EOF
