  0
SECTION
  2
HEADER
  9
$ACADVER
  1
AC1027
  9
$ACADMAINTVER
 70
   125
  9
$DWGCODEPAGE
  3
ANSI_932
  9
$LASTSAVEDBY
  1
yasukiyo.ogawa
  9
$REQUIREDVERSIONS
160
                 0
  9
$INSBASE
 10
0.0
 20
0.0
 30
0.0
  9
$EXTMIN
 10
0.0
 20
0.0
 30
0.0
  9
$EXTMAX
 10
7350.0
 20
10325.0
 30
0.0
  9
$LIMMIN
 10
0.0
 20
0.0
  9
$LIMMAX
 10
297.0
 20
210.0
  9
$ORTHOMODE
 70
     1
  9
$REGENMODE
 70
     1
  9
$FILLMODE
 70
     0
  9
$QTEXTMODE
 70
     0
  9
$MIRRTEXT
 70
     1
  9
$LTSCALE
 40
100.0
  9
$ATTMODE
 70
     1
  9
$TEXTSIZE
 40
180.0
  9
$TRACEWID
 40
0.05
  9
$TEXTSTYLE
  7
STANDARD
  9
$CLAYER
  8
3
  9
$CELTYPE
  6
BYLAYER
  9
$CECOLOR
 62
   256
  9
$CELTSCALE
 40
1.0
  9
$DISPSILH
 70
     0
  9
$DIMSCALE
 40
35.0
  9
$DIMASZ
 40
2.0
  9
$DIMEXO
 40
0.5
  9
$DIMDLI
 40
10.0
  9
$DIMRND
 40
0.0
  9
$DIMDLE
 40
0.0
  9
$DIMEXE
 40
1.0
  9
$DIMTP
 40
1.0
  9
$DIMTM
 40
1.0
  9
$DIMTXT
 40
3.0
  9
$DIMCEN
 40
0.0
  9
$DIMTSZ
 40
0.0
  9
$DIMTOL
 70
     0
  9
$DIMLIM
 70
     0
  9
$DIMTIH
 70
     0
  9
$DIMTOH
 70
     0
  9
$DIMSE1
 70
     0
  9
$DIMSE2
 70
     0
  9
$DIMTAD
 70
     1
  9
$DIMZIN
 70
     8
  9
$DIMBLK
  1

  9
$DIMASO
 70
     1
  9
$DIMSHO
 70
     1
  9
$DIMPOST
  1
(<>)
  9
$DIMAPOST
  1

  9
$DIMALT
 70
     0
  9
$DIMALTD
 70
     2
  9
$DIMALTF
 40
0.039
  9
$DIMLFAC
 40
1.0
  9
$DIMTOFL
 70
     1
  9
$DIMTVP
 40
0.0
  9
$DIMTIX
 70
     0
  9
$DIMSOXD
 70
     0
  9
$DIMSAH
 70
     1
  9
$DIMBLK1
  1
OPEN
  9
$DIMBLK2
  1
OPEN
  9
$DIMSTYLE
  2
IGA
  9
$DIMCLRD
 70
     0
  9
$DIMCLRE
 70
     0
  9
$DIMCLRT
 70
     0
  9
$DIMTFAC
 40
10.0
  9
$DIMGAP
 40
1.0
  9
$DIMJUST
 70
     0
  9
$DIMSD1
 70
     0
  9
$DIMSD2
 70
     0
  9
$DIMTOLJ
 70
     1
  9
$DIMTZIN
 70
     8
  9
$DIMALTZ
 70
     0
  9
$DIMALTTZ
 70
     0
  9
$DIMUPT
 70
     0
  9
$DIMDEC
 70
     0
  9
$DIMTDEC
 70
     0
  9
$DIMALTU
 70
     2
  9
$DIMALTTD
 70
     2
  9
$DIMTXSTY
  7
STANDARD
  9
$DIMAUNIT
 70
     0
  9
$DIMADEC
 70
     0
  9
$DIMALTRND
 40
0.0
  9
$DIMAZIN
 70
     0
  9
$DIMDSEP
 70
    46
  9
$DIMATFIT
 70
     3
  9
$DIMFRAC
 70
     0
  9
$DIMLDRBLK
  1
OPEN
  9
$DIMLUNIT
 70
     2
  9
$DIMLWD
 70
    -2
  9
$DIMLWE
 70
    -2
  9
$DIMTMOVE
 70
     2
  9
$DIMFXL
 40
1.0
  9
$DIMFXLON
 70
     0
  9
$DIMJOGANG
 40
0.7853981633974483
  9
$DIMTFILL
 70
     0
  9
$DIMTFILLCLR
 70
     0
  9
$DIMARCSYM
 70
     0
  9
$DIMLTYPE
  6

  9
$DIMLTEX1
  6

  9
$DIMLTEX2
  6

  9
$DIMTXTDIRECTION
 70
     0
  9
$LUNITS
 70
     2
  9
$LUPREC
 70
     3
  9
$SKETCHINC
 40
0.1
  9
$FILLETRAD
 40
50.0
  9
$AUNITS
 70
     0
  9
$AUPREC
 70
     0
  9
$MENU
  1
acad
  9
$ELEVATION
 40
0.0
  9
$PELEVATION
 40
0.0
  9
$THICKNESS
 40
0.0
  9
$LIMCHECK
 70
     0
  9
$CHAMFERA
 40
0.5
  9
$CHAMFERB
 40
0.5
  9
$CHAMFERC
 40
20.0
  9
$CHAMFERD
 40
0.0
  9
$SKPOLY
 70
     0
  9
$TDCREATE
 40
2451382.627210648
  9
$TDUCREATE
 40
2451382.252221065
  9
$TDUPDATE
 40
2460241.747731482
  9
$TDUUPDATE
 40
2460241.372741655
  9
$TDINDWG
 40
0.0342119213
  9
$TDUSRTIMER
 40
0.0342119213
  9
$USRTIMER
 70
     1
  9
$ANGBASE
 50
0.0
  9
$ANGDIR
 70
     0
  9
$PDMODE
 70
     0
  9
$PDSIZE
 40
0.0
  9
$PLINEWID
 40
0.0
  9
$SPLFRAME
 70
     0
  9
$SPLINETYPE
 70
     6
  9
$SPLINESEGS
 70
     8
  9
$HANDSEED
  5
814F
  9
$SURFTAB1
 70
     6
  9
$SURFTAB2
 70
     6
  9
$SURFTYPE
 70
     6
  9
$SURFU
 70
     6
  9
$SURFV
 70
     6
  9
$UCSBASE
  2

  9
$UCSNAME
  2

  9
$UCSORG
 10
0.0
 20
0.0
 30
0.0
  9
$UCSXDIR
 10
1.0
 20
0.0
 30
0.0
  9
$UCSYDIR
 10
0.0
 20
1.0
 30
0.0
  9
$UCSORTHOREF
  2

  9
$UCSORTHOVIEW
 70
     0
  9
$UCSORGTOP
 10
0.0
 20
0.0
 30
0.0
  9
$UCSORGBOTTOM
 10
0.0
 20
0.0
 30
0.0
  9
$UCSORGLEFT
 10
0.0
 20
0.0
 30
0.0
  9
$UCSORGRIGHT
 10
0.0
 20
0.0
 30
0.0
  9
$UCSORGFRONT
 10
0.0
 20
0.0
 30
0.0
  9
$UCSORGBACK
 10
0.0
 20
0.0
 30
0.0
  9
$PUCSBASE
  2

  9
$PUCSNAME
  2

  9
$PUCSORG
 10
0.0
 20
0.0
 30
0.0
  9
$PUCSXDIR
 10
1.0
 20
0.0
 30
0.0
  9
$PUCSYDIR
 10
0.0
 20
1.0
 30
0.0
  9
$PUCSORTHOREF
  2

  9
$PUCSORTHOVIEW
 70
     0
  9
$PUCSORGTOP
 10
0.0
 20
0.0
 30
0.0
  9
$PUCSORGBOTTOM
 10
0.0
 20
0.0
 30
0.0
  9
$PUCSORGLEFT
 10
0.0
 20
0.0
 30
0.0
  9
$PUCSORGRIGHT
 10
0.0
 20
0.0
 30
0.0
  9
$PUCSORGFRONT
 10
0.0
 20
0.0
 30
0.0
  9
$PUCSORGBACK
 10
0.0
 20
0.0
 30
0.0
  9
$USERI1
 70
     0
  9
$USERI2
 70
     0
  9
$USERI3
 70
     0
  9
$USERI4
 70
     0
  9
$USERI5
 70
     0
  9
$USERR1
 40
0.0
  9
$USERR2
 40
0.0
  9
$USERR3
 40
0.0
  9
$USERR4
 40
0.0
  9
$USERR5
 40
0.0
  9
$WORLDVIEW
 70
     1
  9
$SHADEDGE
 70
     3
  9
$SHADEDIF
 70
    70
  9
$TILEMODE
 70
     1
  9
$MAXACTVP
 70
    16
  9
$PINSBASE
 10
0.0
 20
0.0
 30
0.0
  9
$PLIMCHECK
 70
     0
  9
$PEXTMIN
 10
1.000000000000000E+20
 20
1.000000000000000E+20
 30
1.000000000000000E+20
  9
$PEXTMAX
 10
-1.000000000000000E+20
 20
-1.000000000000000E+20
 30
-1.000000000000000E+20
  9
$PLIMMIN
 10
0.0
 20
0.0
  9
$PLIMMAX
 10
12.0
 20
9.0
  9
$UNITMODE
 70
     0
  9
$VISRETAIN
 70
     0
  9
$PLINEGEN
 70
     0
  9
$PSLTSCALE
 70
     1
  9
$TREEDEPTH
 70
  3020
  9
$CMLSTYLE
  2
STANDARD
  9
$CMLJUST
 70
     0
  9
$CMLSCALE
 40
20.0
  9
$PROXYGRAPHICS
 70
     1
  9
$MEASUREMENT
 70
     1
  9
$CELWEIGHT
370
    -1
  9
$ENDCAPS
280
     0
  9
$JOINSTYLE
280
     0
  9
$LWDISPLAY
290
     0
  9
$INSUNITS
 70
     0
  9
$HYPERLINKBASE
  1

  9
$STYLESHEET
  1

  9
$XEDIT
290
     1
  9
$CEPSNTYPE
380
     0
  9
$PSTYLEMODE
290
     1
  9
$FINGERPRINTGUID
  2
{C7A117E9-EBE3-4E16-9C84-ADA5642EE840}
  9
$VERSIONGUID
  2
{67307EDD-65D4-4289-A5DF-DB6C540E45C6}
  9
$EXTNAMES
290
     1
  9
$PSVPSCALE
 40
0.0
  9
$OLESTARTUP
290
     0
  9
$SORTENTS
280
   127
  9
$INDEXCTL
280
     0
  9
$HIDETEXT
280
     0
  9
$XCLIPFRAME
280
     2
  9
$HALOGAP
280
     0
  9
$OBSCOLOR
 70
   257
  9
$OBSLTYPE
280
     0
  9
$INTERSECTIONDISPLAY
280
     0
  9
$INTERSECTIONCOLOR
 70
   257
  9
$DIMASSOC
280
     1
  9
$PROJECTNAME
  1

  9
$CAMERADISPLAY
290
     0
  9
$LENSLENGTH
 40
50.0
  9
$CAMERAHEIGHT
 40
0.0
  9
$STEPSPERSEC
 40
2.0
  9
$STEPSIZE
 40
6.0
  9
$3DDWFPREC
 40
2.0
  9
$PSOLWIDTH
 40
0.25
  9
$PSOLHEIGHT
 40
4.0
  9
$LOFTANG1
 40
1.570796326794896
  9
$LOFTANG2
 40
1.570796326794896
  9
$LOFTMAG1
 40
0.0
  9
$LOFTMAG2
 40
0.0
  9
$LOFTPARAM
 70
     7
  9
$LOFTNORMALS
280
     1
  9
$LATITUDE
 40
37.795
  9
$LONGITUDE
 40
-122.394
  9
$NORTHDIRECTION
 40
0.0
  9
$TIMEZONE
 70
 -8000
  9
$LIGHTGLYPHDISPLAY
280
     1
  9
$TILEMODELIGHTSYNCH
280
     1
  9
$CMATERIAL
347
8091
  9
$SOLIDHIST
280
     0
  9
$SHOWHIST
280
     1
  9
$DWFFRAME
280
     2
  9
$DGNFRAME
280
     0
  9
$REALWORLDSCALE
290
     1
  9
$INTERFERECOLOR
 62
     1
  9
$INTERFEREOBJVS
345
80B3
  9
$INTERFEREVPVS
346
80B0
  9
$CSHADOW
280
     0
  9
$SHADOWPLANELOCATION
 40
0.0
  0
ENDSEC
  0
SECTION
  2
CLASSES
  0
CLASS
  1
ACDBDICTIONARYWDFLT
  2
AcDbDictionaryWithDefault
  3
ObjectDBX Classes
 90
        0
 91
        1
280
     0
281
     0
  0
CLASS
  1
DICTIONARYVAR
  2
AcDbDictionaryVar
  3
ObjectDBX Classes
 90
        0
 91
       11
280
     0
281
     0
  0
CLASS
  1
MATERIAL
  2
AcDbMaterial
  3
ObjectDBX Classes
 90
     1153
 91
        3
280
     0
281
     0
  0
CLASS
  1
VISUALSTYLE
  2
AcDbVisualStyle
  3
ObjectDBX Classes
 90
     4095
 91
       24
280
     0
281
     0
  0
CLASS
  1
TABLESTYLE
  2
AcDbTableStyle
  3
ObjectDBX Classes
 90
     4095
 91
        1
280
     0
281
     0
  0
CLASS
  1
SCALE
  2
AcDbScale
  3
ObjectDBX Classes
 90
     1153
 91
       17
280
     0
281
     0
  0
CLASS
  1
MLEADERSTYLE
  2
AcDbMLeaderStyle
  3
ACDB_MLEADERSTYLE_CLASS
 90
     4095
 91
        1
280
     0
281
     0
  0
CLASS
  1
ACDBSECTIONVIEWSTYLE
  2
AcDbSectionViewStyle
  3
ObjectDBX Classes
 90
     1025
 91
        1
280
     0
281
     0
  0
CLASS
  1
ACDBDETAILVIEWSTYLE
  2
AcDbDetailViewStyle
  3
ObjectDBX Classes
 90
     1025
 91
        1
280
     0
281
     0
  0
CLASS
  1
CELLSTYLEMAP
  2
AcDbCellStyleMap
  3
ObjectDBX Classes
 90
     1152
 91
        1
280
     0
281
     0
  0
ENDSEC
  0
SECTION
  2
TABLES
  0
TABLE
  2
VPORT
  5
8
330
0
100
AcDbSymbolTable
 70
     1
1001
ACAD
1000
DbSaveVer
1071
      278
  0
VPORT
  5
808E
330
8
100
AcDbSymbolTableRecord
100
AcDbViewportTableRecord
  2
*Active
 70
     0
 10
0.0
 20
0.0
 11
1.0
 21
1.0
 12
6224.610977130685
 22
5162.500024039763
 13
0.0
 23
0.0
 14
10.0
 24
10.0
 15
10.0
 25
10.0
 16
0.0
 26
0.0
 36
1.0
 17
0.0
 27
0.0
 37
0.0
 40
10391.74948481712
 41
2.250314465408805
 42
50.0
 43
0.0
 44
0.0
 50
0.0
 51
0.0
 71
     0
 72
   100
 73
     1
 74
     0
 75
     0
 76
     0
 77
     0
 78
     0
281
     0
 65
     1
110
0.0
120
0.0
130
0.0
111
1.0
121
0.0
131
0.0
112
0.0
122
1.0
132
0.0
 79
     0
146
0.0
348
80AF
 60
     3
 61
     5
292
     1
282
     1
141
0.0
142
0.0
 63
   250
421
  3355443
1001
ACAD_NAV_VCDISPLAY
1070
     3
  0
ENDTAB
  0
TABLE
  2
LTYPE
  5
5
330
0
100
AcDbSymbolTable
 70
     2
  0
LTYPE
  5
13
330
5
100
AcDbSymbolTableRecord
100
AcDbLinetypeTableRecord
  2
BYBLOCK
 70
     0
  3

 72
    65
 73
     0
 40
0.0
  0
LTYPE
  5
14
330
5
100
AcDbSymbolTableRecord
100
AcDbLinetypeTableRecord
  2
BYLAYER
 70
     0
  3

 72
    65
 73
     0
 40
0.0
  0
LTYPE
  5
15
330
5
100
AcDbSymbolTableRecord
100
AcDbLinetypeTableRecord
  2
CONTINUOUS
 70
     0
  3
Solid line
 72
    65
 73
     0
 40
0.0
  0
LTYPE
  5
1F
330
5
100
AcDbSymbolTableRecord
100
AcDbLinetypeTableRecord
  2
CENTER
 70
     0
  3
____ _ ____ _ ____ _ ____ _ ____ _ ____ _ ____ 
 72
    65
 73
     4
 40
2.0
 49
1.25
 74
     0
 49
-0.25
 74
     0
 49
0.25
 74
     0
 49
-0.25
 74
     0
  0
ENDTAB
  0
TABLE
  2
LAYER
  5
2
102
{ACAD_XDICTIONARY
360
8126
102
}
330
0
100
AcDbSymbolTable
 70
     6
  0
LAYER
  5
F
102
{ACAD_XDICTIONARY
360
8119
102
}
330
2
100
AcDbSymbolTableRecord
100
AcDbLayerTableRecord
  2
0
 70
     0
 62
     7
  6
CONTINUOUS
370
    -3
390
8041
347
80A1
348
0
  0
LAYER
  5
31
102
{ACAD_XDICTIONARY
360
811B
102
}
330
2
100
AcDbSymbolTableRecord
100
AcDbLayerTableRecord
  2
3
 70
     0
 62
     2
  6
CONTINUOUS
370
    -3
390
8041
347
80A1
348
0
  0
LAYER
  5
76D0
102
{ACAD_XDICTIONARY
360
811D
102
}
330
2
100
AcDbSymbolTableRecord
100
AcDbLayerTableRecord
  2
2
 70
     0
 62
     3
  6
CENTER
370
    -3
390
8041
347
80A1
348
0
  0
LAYER
  5
76D1
102
{ACAD_XDICTIONARY
360
811F
102
}
330
2
100
AcDbSymbolTableRecord
100
AcDbLayerTableRecord
  2
1
 70
     0
 62
     4
  6
CONTINUOUS
370
    -3
390
8041
347
80A1
348
0
  0
LAYER
  5
76D2
102
{ACAD_XDICTIONARY
360
8121
102
}
330
2
100
AcDbSymbolTableRecord
100
AcDbLayerTableRecord
  2
4
 70
     0
 62
     7
  6
CONTINUOUS
370
    -3
390
8041
347
80A1
348
0
  0
LAYER
  5
7B3B
330
2
100
AcDbSymbolTableRecord
100
AcDbLayerTableRecord
  2
DEFPOINTS
 70
     0
 62
     7
  6
CONTINUOUS
290
     0
370
    -3
390
8041
347
80A1
348
0
  0
ENDTAB
  0
TABLE
  2
STYLE
  5
3
330
0
100
AcDbSymbolTable
 70
     1
  0
STYLE
  5
10
330
3
100
AcDbSymbolTableRecord
100
AcDbTextStyleTableRecord
  2
STANDARD
 70
     0
 40
0.0
 41
1.0
 50
0.0
 71
     0
 42
180.0
  3
simplex.shx
  4
extfont.shx
  0
ENDTAB
  0
TABLE
  2
VIEW
  5
6
330
0
100
AcDbSymbolTable
 70
     0
  0
ENDTAB
  0
TABLE
  2
UCS
  5
7
330
0
100
AcDbSymbolTable
 70
     0
  0
ENDTAB
  0
TABLE
  2
APPID
  5
9
330
0
100
AcDbSymbolTable
 70
     4
  0
APPID
  5
11
330
9
100
AcDbSymbolTableRecord
100
AcDbRegAppTableRecord
  2
ACAD
 70
     0
  0
APPID
  5
80E0
330
9
100
AcDbSymbolTableRecord
100
AcDbRegAppTableRecord
  2
AcadAnnoMonitorAlertIconDisabled
 70
     0
  0
APPID
  5
80E1
330
9
100
AcDbSymbolTableRecord
100
AcDbRegAppTableRecord
  2
ACAD_EXEMPT_FROM_CAD_STANDARDS
 70
     0
  0
APPID
  5
812C
330
9
100
AcDbSymbolTableRecord
100
AcDbRegAppTableRecord
  2
ACAD_NAV_VCDISPLAY
 70
     0
  0
ENDTAB
  0
TABLE
  2
DIMSTYLE
  5
A
330
0
100
AcDbSymbolTable
 70
     2
100
AcDbDimStyleTable
 71
     1
340
1D
  0
DIMSTYLE
105
1D
102
{ACAD_REACTORS
330
7CEB
330
7CEC
330
8038
102
}
330
A
100
AcDbSymbolTableRecord
100
AcDbDimStyleTableRecord
  2
IGA
 70
     0
 40
2.0
 41
2.0
 42
0.5
 43
10.0
 44
1.0
 47
1.0
 48
1.0
 73
     0
 74
     0
 77
     1
 78
     8
140
3.0
141
0.0
143
0.03937
146
10.0
147
1.0
173
     1
271
     1
272
     0
279
     2
284
     8
340
10
341
79FC
343
79FC
344
79FC
  0
DIMSTYLE
105
7B3D
102
{ACAD_REACTORS
330
7C46
330
7C47
330
7C48
330
7C7E
330
7C84
330
7C85
330
7C88
330
7C9C
330
7C9D
330
7C9E
330
7CA9
330
7CAA
330
7CAB
330
7CAC
330
7CAD
330
7CB8
330
7CB9
330
7CC1
330
7CE2
102
}
330
A
100
AcDbSymbolTableRecord
100
AcDbDimStyleTableRecord
  2
MATSU
 70
     0
 41
2.0
 42
1.0
 43
10.0
 44
1.0
 73
     0
 74
     0
 77
     1
 78
     8
140
3.0
141
0.0
143
0.03937
147
0.5
172
     1
173
     1
176
   256
177
   256
178
   256
284
     8
289
     0
340
10
341
79FC
343
79FC
344
79FC
  0
ENDTAB
  0
TABLE
  2
BLOCK_RECORD
  5
1
330
0
100
AcDbSymbolTable
 70
    25
  0
BLOCK_RECORD
  5
19
102
{ACAD_XDICTIONARY
360
806F
102
}
330
1
100
AcDbSymbolTableRecord
100
AcDbBlockTableRecord
  2
*MODEL_SPACE
340
8044
 70
     0
280
     1
281
     0
  0
BLOCK_RECORD
  5
16
102
{ACAD_XDICTIONARY
360
806D
102
}
330
1
100
AcDbSymbolTableRecord
100
AcDbBlockTableRecord
  2
*PAPER_SPACE
340
8045
 70
     0
280
     1
281
     0
  0
BLOCK_RECORD
  5
79FC
330
1
100
AcDbSymbolTableRecord
100
AcDbBlockTableRecord
  2
_OPEN
340
0
102
{BLKREFS
331
810A
331
810B
331
7E15
331
7E16
331
7E20
331
7E21
331
8113
331
8114
331
7FD4
331
7FE5
331
7FE6
331
8031
331
8032
331
807D
331
7E2B
331
7E2C
331
7E36
331
7E37
331
7E41
331
7E42
331
7E4C
331
7E4D
331
7E57
331
7E58
331
7E83
331
7E84
331
7E8E
331
7E8F
331
7E99
331
7E9A
331
7EAF
331
7EB0
331
7EBA
331
7EBB
331
7EC5
331
7EC6
331
7ED0
331
7ED1
331
7EE6
331
7EE7
331
7EF1
331
7EF2
102
}
 70
     0
280
     1
281
     0
  0
BLOCK_RECORD
  5
7A0A
330
1
100
AcDbSymbolTableRecord
100
AcDbBlockTableRecord
  2
YA_N
340
0
102
{BLKREFS
331
7C18
331
7C3A
331
7C44
331
7C7B
102
}
 70
     0
280
     1
281
     0
  0
BLOCK_RECORD
  5
7CEE
330
1
100
AcDbSymbolTableRecord
100
AcDbBlockTableRecord
  2
*D2
340
0
 70
     0
280
     1
281
     0
  0
BLOCK_RECORD
  5
7CFA
330
1
100
AcDbSymbolTableRecord
100
AcDbBlockTableRecord
  2
*D3
340
0
 70
     0
280
     1
281
     0
  0
BLOCK_RECORD
  5
7D06
330
1
100
AcDbSymbolTableRecord
100
AcDbBlockTableRecord
  2
*D4
340
0
 70
     0
280
     1
281
     0
  0
BLOCK_RECORD
  5
7D12
330
1
100
AcDbSymbolTableRecord
100
AcDbBlockTableRecord
  2
*D5
340
0
 70
     0
280
     1
281
     0
  0
BLOCK_RECORD
  5
7D1E
330
1
100
AcDbSymbolTableRecord
100
AcDbBlockTableRecord
  2
*D6
340
0
 70
     0
280
     1
281
     0
  0
BLOCK_RECORD
  5
7D2A
330
1
100
AcDbSymbolTableRecord
100
AcDbBlockTableRecord
  2
*D7
340
0
 70
     0
280
     1
281
     0
  0
BLOCK_RECORD
  5
7D36
330
1
100
AcDbSymbolTableRecord
100
AcDbBlockTableRecord
  2
*D8
340
0
 70
     0
280
     1
281
     0
  0
BLOCK_RECORD
  5
7D4E
330
1
100
AcDbSymbolTableRecord
100
AcDbBlockTableRecord
  2
*D9
340
0
 70
     0
280
     1
281
     0
  0
BLOCK_RECORD
  5
7D5A
330
1
100
AcDbSymbolTableRecord
100
AcDbBlockTableRecord
  2
*D10
340
0
 70
     0
280
     1
281
     0
  0
BLOCK_RECORD
  5
7D66
330
1
100
AcDbSymbolTableRecord
100
AcDbBlockTableRecord
  2
*D11
340
0
 70
     0
280
     1
281
     0
  0
BLOCK_RECORD
  5
7D72
330
1
100
AcDbSymbolTableRecord
100
AcDbBlockTableRecord
  2
*D12
340
0
 70
     0
280
     1
281
     0
  0
BLOCK_RECORD
  5
7D7E
330
1
100
AcDbSymbolTableRecord
100
AcDbBlockTableRecord
  2
*D13
340
0
 70
     0
280
     1
281
     0
  0
BLOCK_RECORD
  5
7D8A
330
1
100
AcDbSymbolTableRecord
100
AcDbBlockTableRecord
  2
*D14
340
0
 70
     0
280
     1
281
     0
  0
BLOCK_RECORD
  5
7D96
330
1
100
AcDbSymbolTableRecord
100
AcDbBlockTableRecord
  2
*D15
340
0
 70
     0
280
     1
281
     0
  0
BLOCK_RECORD
  5
7DA2
330
1
100
AcDbSymbolTableRecord
100
AcDbBlockTableRecord
  2
*D16
340
0
 70
     0
280
     1
281
     0
  0
BLOCK_RECORD
  5
7DAE
330
1
100
AcDbSymbolTableRecord
100
AcDbBlockTableRecord
  2
*D17
340
0
 70
     0
280
     1
281
     0
  0
BLOCK_RECORD
  5
7DBA
330
1
100
AcDbSymbolTableRecord
100
AcDbBlockTableRecord
  2
*D18
340
0
 70
     0
280
     1
281
     0
  0
BLOCK_RECORD
  5
7DD2
330
1
100
AcDbSymbolTableRecord
100
AcDbBlockTableRecord
  2
*D19
340
0
 70
     0
280
     1
281
     0
  0
BLOCK_RECORD
  5
7DDE
330
1
100
AcDbSymbolTableRecord
100
AcDbBlockTableRecord
  2
*D20
340
0
 70
     0
280
     1
281
     0
  0
BLOCK_RECORD
  5
7DF6
330
1
100
AcDbSymbolTableRecord
100
AcDbBlockTableRecord
  2
*D21
340
0
 70
     0
280
     1
281
     0
  0
BLOCK_RECORD
  5
7E03
330
1
100
AcDbSymbolTableRecord
100
AcDbBlockTableRecord
  2
*D22
340
0
 70
     0
280
     1
281
     0
  0
BLOCK_RECORD
  5
7FA9
330
1
100
AcDbSymbolTableRecord
100
AcDbBlockTableRecord
  2
_DOT
340
0
102
{BLKREFS
331
7FD5
331
807C
102
}
 70
     0
280
     1
281
     0
  0
BLOCK_RECORD
  5
802C
330
1
100
AcDbSymbolTableRecord
100
AcDbBlockTableRecord
  2
*D24
340
0
 70
     0
280
     1
281
     0
  0
ENDTAB
  0
ENDSEC
  0
SECTION
  2
BLOCKS
  0
BLOCK
  5
1A
330
19
100
AcDbEntity
  8
0
100
AcDbBlockBegin
  2
*MODEL_SPACE
 70
     0
 10
0.0
 20
0.0
 30
0.0
  3
*MODEL_SPACE
  1

  0
ENDBLK
  5
1B
330
19
100
AcDbEntity
  8
0
100
AcDbBlockEnd
  0
BLOCK
  5
17
330
16
100
AcDbEntity
 67
     1
  8
0
100
AcDbBlockBegin
  2
*PAPER_SPACE
 70
     0
 10
0.0
 20
0.0
 30
0.0
  3
*PAPER_SPACE
  1

  0
ENDBLK
  5
18
330
16
100
AcDbEntity
 67
     1
  8
0
100
AcDbBlockEnd
  0
BLOCK
  5
7A00
330
79FC
100
AcDbEntity
  8
0
100
AcDbBlockBegin
  2
_OPEN
 70
     0
 10
0.0
 20
0.0
 30
0.0
  3
_OPEN
  1

  0
LINE
  5
79FD
330
79FC
100
AcDbEntity
  8
0
  6
ByBlock
 62
     0
100
AcDbLine
 10
-1.0
 20
0.1666666666666666
 30
0.0
 11
0.0
 21
0.0
 31
0.0
  0
LINE
  5
79FE
330
79FC
100
AcDbEntity
  8
0
  6
ByBlock
 62
     0
100
AcDbLine
 10
0.0
 20
0.0
 30
0.0
 11
-1.0
 21
-0.1666666666666666
 31
0.0
  0
LINE
  5
79FF
330
79FC
100
AcDbEntity
  8
0
  6
ByBlock
 62
     0
100
AcDbLine
 10
0.0
 20
0.0
 30
0.0
 11
-1.0
 21
0.0
 31
0.0
  0
ENDBLK
  5
7A01
330
79FC
100
AcDbEntity
  8
0
100
AcDbBlockEnd
  0
BLOCK
  5
7A0B
330
7A0A
100
AcDbEntity
  8
0
100
AcDbBlockBegin
  2
YA_N
 70
     0
 10
0.0
 20
0.0
 30
0.0
  3
YA_N
  1

  0
ENDBLK
  5
7A0C
330
7A0A
100
AcDbEntity
  8
0
100
AcDbBlockEnd
  0
BLOCK
  5
7E11
330
7CEE
100
AcDbEntity
  8
0
100
AcDbBlockBegin
  2
*D2
 70
     1
 10
0.0
 20
0.0
 30
0.0
  3
*D2
  1

  0
LINE
  5
7E12
330
7CEE
100
AcDbEntity
  8
0
  6
ByBlock
440
 16777216
100
AcDbLine
 10
3194.86378355942
 20
2419.448383303883
 30
0.0
 11
3394.972099843686
 21
2419.448383303883
 31
0.0
  0
LINE
  5
7E13
330
7CEE
100
AcDbEntity
  8
0
  6
ByBlock
440
 16777216
100
AcDbLine
 10
3194.86378355942
 20
1269.448383303883
 30
0.0
 11
3394.972099843686
 21
1269.448383303883
 31
0.0
  0
LINE
  5
7E14
330
7CEE
100
AcDbEntity
  8
0
  6
ByBlock
440
 16777216
100
AcDbLine
 10
3359.972099843686
 20
2349.448383303883
 30
0.0
 11
3359.972099843686
 21
1339.448383303883
 31
0.0
  0
INSERT
  5
7E15
330
7CEE
100
AcDbEntity
  8
0
  6
ByBlock
440
 16777216
100
AcDbBlockReference
  2
_OPEN
 10
3359.972099843686
 20
2419.448383303883
 30
0.0
 41
70.0
 42
70.0
 43
70.0
 50
90.0
  0
INSERT
  5
7E16
330
7CEE
100
AcDbEntity
  8
0
  6
ByBlock
440
 16777216
100
AcDbBlockReference
  2
_OPEN
 10
3359.972099843686
 20
1269.448383303883
 30
0.0
 41
70.0
 42
70.0
 43
70.0
 50
270.0
  0
MTEXT
  5
7E17
330
7CEE
100
AcDbEntity
  8
0
  6
ByBlock
440
 16777216
100
AcDbMText
 10
3289.972099843686
 20
1844.448383303883
 30
0.0
 40
105.0
 41
0.0
 46
0.0
 71
     5
 72
     5
  1
\A1;1150
 11
0.0
 21
1.0
 31
0.0
 73
     1
 44
1.0
  0
POINT
  5
7E18
330
7CEE
100
AcDbEntity
  8
DEFPOINTS
  6
ByBlock
 62
     0
440
 16777216
100
AcDbPoint
 10
3159.86378355942
 20
2419.448383303883
 30
0.0
  0
POINT
  5
7E19
330
7CEE
100
AcDbEntity
  8
DEFPOINTS
  6
ByBlock
 62
     0
440
 16777216
100
AcDbPoint
 10
3159.86378355942
 20
1269.448383303883
 30
0.0
  0
POINT
  5
7E1A
330
7CEE
100
AcDbEntity
  8
DEFPOINTS
  6
ByBlock
 62
     0
440
 16777216
100
AcDbPoint
 10
3359.972099843686
 20
1269.448383303883
 30
0.0
  0
ENDBLK
  5
7E1B
330
7CEE
100
AcDbEntity
  8
0
100
AcDbBlockEnd
  0
BLOCK
  5
7E1C
330
7CFA
100
AcDbEntity
  8
0
100
AcDbBlockBegin
  2
*D3
 70
     1
 10
0.0
 20
0.0
 30
0.0
  3
*D3
  1

  0
LINE
  5
7E1D
330
7CFA
100
AcDbEntity
  8
0
  6
ByBlock
440
 16777216
100
AcDbLine
 10
3194.86378355942
 20
2419.448383303883
 30
0.0
 11
3700.80945157402
 21
2419.448383303883
 31
0.0
  0
LINE
  5
7E1E
330
7CFA
100
AcDbEntity
  8
0
  6
ByBlock
440
 16777216
100
AcDbLine
 10
3280.702784458153
 20
1221.448383303883
 30
0.0
 11
3700.80945157402
 21
1221.448383303883
 31
0.0
  0
LINE
  5
7E1F
330
7CFA
100
AcDbEntity
  8
0
  6
ByBlock
440
 16777216
100
AcDbLine
 10
3665.80945157402
 20
2349.448383303883
 30
0.0
 11
3665.80945157402
 21
1291.448383303883
 31
0.0
  0
INSERT
  5
7E20
330
7CFA
100
AcDbEntity
  8
0
  6
ByBlock
440
 16777216
100
AcDbBlockReference
  2
_OPEN
 10
3665.80945157402
 20
2419.448383303883
 30
0.0
 41
70.0
 42
70.0
 43
70.0
 50
90.0
  0
INSERT
  5
7E21
330
7CFA
100
AcDbEntity
  8
0
  6
ByBlock
440
 16777216
100
AcDbBlockReference
  2
_OPEN
 10
3665.80945157402
 20
1221.448383303883
 30
0.0
 41
70.0
 42
70.0
 43
70.0
 50
270.0
  0
MTEXT
  5
7E22
330
7CFA
100
AcDbEntity
  8
0
  6
ByBlock
440
 16777216
100
AcDbMText
 10
3595.809451574019
 20
1820.448383303883
 30
0.0
 40
105.0
 41
0.0
 46
0.0
 71
     5
 72
     5
  1
\A1;1198
 11
0.0
 21
1.0
 31
0.0
 73
     1
 44
1.0
  0
POINT
  5
7E23
330
7CFA
100
AcDbEntity
  8
DEFPOINTS
  6
ByBlock
 62
     0
440
 16777216
100
AcDbPoint
 10
3159.86378355942
 20
2419.448383303883
 30
0.0
  0
POINT
  5
7E24
330
7CFA
100
AcDbEntity
  8
DEFPOINTS
  6
ByBlock
 62
     0
440
 16777216
100
AcDbPoint
 10
3245.702784458153
 20
1221.448383303883
 30
0.0
  0
POINT
  5
7E25
330
7CFA
100
AcDbEntity
  8
DEFPOINTS
  6
ByBlock
 62
     0
440
 16777216
100
AcDbPoint
 10
3665.80945157402
 20
1221.448383303883
 30
0.0
  0
ENDBLK
  5
7E26
330
7CFA
100
AcDbEntity
  8
0
100
AcDbBlockEnd
  0
BLOCK
  5
7E27
330
7D06
100
AcDbEntity
  8
0
100
AcDbBlockBegin
  2
*D4
 70
     1
 10
0.0
 20
0.0
 30
0.0
  3
*D4
  1

  0
LINE
  5
7E28
330
7D06
100
AcDbEntity
  8
0
  6
ByBlock
440
 16777216
100
AcDbLine
 10
3059.86378355942
 20
226.448383303883
 30
0.0
 11
3059.86378355942
 21
27.66857574645292
 31
0.0
  0
LINE
  5
7E29
330
7D06
100
AcDbEntity
  8
0
  6
ByBlock
440
 16777216
100
AcDbLine
 10
2399.86378355942
 20
226.448383303883
 30
0.0
 11
2399.86378355942
 21
27.66857574645292
 31
0.0
  0
LINE
  5
7E2A
330
7D06
100
AcDbEntity
  8
0
  6
ByBlock
440
 16777216
100
AcDbLine
 10
2989.86378355942
 20
62.66857574645292
 30
0.0
 11
2469.86378355942
 21
62.66857574645292
 31
0.0
  0
INSERT
  5
7E2B
330
7D06
100
AcDbEntity
  8
0
  6
ByBlock
440
 16777216
100
AcDbBlockReference
  2
_OPEN
 10
3059.86378355942
 20
62.66857574645292
 30
0.0
 41
70.0
 42
70.0
 43
70.0
  0
INSERT
  5
7E2C
330
7D06
100
AcDbEntity
  8
0
  6
ByBlock
440
 16777216
100
AcDbBlockReference
  2
_OPEN
 10
2399.86378355942
 20
62.66857574645292
 30
0.0
 41
70.0
 42
70.0
 43
70.0
 50
180.0
  0
MTEXT
  5
7E2D
330
7D06
100
AcDbEntity
  8
0
  6
ByBlock
440
 16777216
100
AcDbMText
 10
2729.86378355942
 20
132.6685757464529
 30
0.0
 40
105.0
 41
0.0
 46
0.0
 71
     5
 72
     5
  1
\A1;660
 73
     1
 44
1.0
  0
POINT
  5
7E2E
330
7D06
100
AcDbEntity
  8
DEFPOINTS
  6
ByBlock
 62
     0
440
 16777216
100
AcDbPoint
 10
3059.86378355942
 20
261.448383303883
 30
0.0
  0
POINT
  5
7E2F
330
7D06
100
AcDbEntity
  8
DEFPOINTS
  6
ByBlock
 62
     0
440
 16777216
100
AcDbPoint
 10
2399.86378355942
 20
261.448383303883
 30
0.0
  0
POINT
  5
7E30
330
7D06
100
AcDbEntity
  8
DEFPOINTS
  6
ByBlock
 62
     0
440
 16777216
100
AcDbPoint
 10
2399.86378355942
 20
62.66857574645292
 30
0.0
  0
ENDBLK
  5
7E31
330
7D06
100
AcDbEntity
  8
0
100
AcDbBlockEnd
  0
BLOCK
  5
7E32
330
7D12
100
AcDbEntity
  8
0
100
AcDbBlockBegin
  2
*D5
 70
     1
 10
0.0
 20
0.0
 30
0.0
  3
*D5
  1

  0
LINE
  5
7E33
330
7D12
100
AcDbEntity
  8
0
  6
ByBlock
440
 16777216
100
AcDbLine
 10
3280.702784458153
 20
1221.448383303883
 30
0.0
 11
3702.536561063553
 21
1221.448383303883
 31
0.0
  0
LINE
  5
7E34
330
7D12
100
AcDbEntity
  8
0
  6
ByBlock
440
 16777216
100
AcDbLine
 10
3094.86378355942
 20
381.448383303883
 30
0.0
 11
3702.536561063553
 21
381.448383303883
 31
0.0
  0
LINE
  5
7E35
330
7D12
100
AcDbEntity
  8
0
  6
ByBlock
440
 16777216
100
AcDbLine
 10
3667.536561063553
 20
1151.448383303883
 30
0.0
 11
3667.536561063553
 21
451.448383303883
 31
0.0
  0
INSERT
  5
7E36
330
7D12
100
AcDbEntity
  8
0
  6
ByBlock
440
 16777216
100
AcDbBlockReference
  2
_OPEN
 10
3667.536561063553
 20
1221.448383303883
 30
0.0
 41
70.0
 42
70.0
 43
70.0
 50
90.0
  0
INSERT
  5
7E37
330
7D12
100
AcDbEntity
  8
0
  6
ByBlock
440
 16777216
100
AcDbBlockReference
  2
_OPEN
 10
3667.536561063553
 20
381.448383303883
 30
0.0
 41
70.0
 42
70.0
 43
70.0
 50
270.0
  0
MTEXT
  5
7E38
330
7D12
100
AcDbEntity
  8
0
  6
ByBlock
440
 16777216
100
AcDbMText
 10
3597.536561063553
 20
801.4483833038831
 30
0.0
 40
105.0
 41
0.0
 46
0.0
 71
     5
 72
     5
  1
\A1;840
 11
0.0
 21
1.0
 31
0.0
 73
     1
 44
1.0
  0
POINT
  5
7E39
330
7D12
100
AcDbEntity
  8
DEFPOINTS
  6
ByBlock
 62
     0
440
 16777216
100
AcDbPoint
 10
3245.702784458153
 20
1221.448383303883
 30
0.0
  0
POINT
  5
7E3A
330
7D12
100
AcDbEntity
  8
DEFPOINTS
  6
ByBlock
 62
     0
440
 16777216
100
AcDbPoint
 10
3059.86378355942
 20
381.448383303883
 30
0.0
  0
POINT
  5
7E3B
330
7D12
100
AcDbEntity
  8
DEFPOINTS
  6
ByBlock
 62
     0
440
 16777216
100
AcDbPoint
 10
3667.536561063553
 20
381.448383303883
 30
0.0
  0
ENDBLK
  5
7E3C
330
7D12
100
AcDbEntity
  8
0
100
AcDbBlockEnd
  0
BLOCK
  5
7E3D
330
7D1E
100
AcDbEntity
  8
0
100
AcDbBlockBegin
  2
*D6
 70
     1
 10
0.0
 20
0.0
 30
0.0
  3
*D6
  1

  0
LINE
  5
7E3E
330
7D1E
100
AcDbEntity
  8
0
  6
ByBlock
440
 16777216
100
AcDbLine
 10
3159.86378355942
 20
2507.448383303883
 30
0.0
 11
3159.86378355942
 21
2710.78177023034
 31
0.0
  0
LINE
  5
7E3F
330
7D1E
100
AcDbEntity
  8
0
  6
ByBlock
440
 16777216
100
AcDbLine
 10
2399.86378355942
 20
2663.630709469712
 30
0.0
 11
2399.86378355942
 21
2710.78177023034
 31
0.0
  0
LINE
  5
7E40
330
7D1E
100
AcDbEntity
  8
0
  6
ByBlock
440
 16777216
100
AcDbLine
 10
3089.86378355942
 20
2675.781770230341
 30
0.0
 11
2469.86378355942
 21
2675.781770230341
 31
0.0
  0
INSERT
  5
7E41
330
7D1E
100
AcDbEntity
  8
0
  6
ByBlock
440
 16777216
100
AcDbBlockReference
  2
_OPEN
 10
3159.86378355942
 20
2675.781770230341
 30
0.0
 41
70.0
 42
70.0
 43
70.0
  0
INSERT
  5
7E42
330
7D1E
100
AcDbEntity
  8
0
  6
ByBlock
440
 16777216
100
AcDbBlockReference
  2
_OPEN
 10
2399.86378355942
 20
2675.781770230341
 30
0.0
 41
70.0
 42
70.0
 43
70.0
 50
180.0
  0
MTEXT
  5
7E43
330
7D1E
100
AcDbEntity
  8
0
  6
ByBlock
440
 16777216
100
AcDbMText
 10
2779.86378355942
 20
2745.78177023034
 30
0.0
 40
105.0
 41
0.0
 46
0.0
 71
     5
 72
     5
  1
\A1;760
 73
     1
 44
1.0
  0
POINT
  5
7E44
330
7D1E
100
AcDbEntity
  8
DEFPOINTS
  6
ByBlock
 62
     0
440
 16777216
100
AcDbPoint
 10
3159.86378355942
 20
2472.448383303883
 30
0.0
  0
POINT
  5
7E45
330
7D1E
100
AcDbEntity
  8
DEFPOINTS
  6
ByBlock
 62
     0
440
 16777216
100
AcDbPoint
 10
2399.86378355942
 20
2628.630709469712
 30
0.0
  0
POINT
  5
7E46
330
7D1E
100
AcDbEntity
  8
DEFPOINTS
  6
ByBlock
 62
     0
440
 16777216
100
AcDbPoint
 10
2399.86378355942
 20
2675.781770230341
 30
0.0
  0
ENDBLK
  5
7E47
330
7D1E
100
AcDbEntity
  8
0
100
AcDbBlockEnd
  0
BLOCK
  5
7E48
330
7D2A
100
AcDbEntity
  8
0
100
AcDbBlockBegin
  2
*D7
 70
     1
 10
0.0
 20
0.0
 30
0.0
  3
*D7
  1

  0
LINE
  5
7E49
330
7D2A
100
AcDbEntity
  8
0
  6
ByBlock
440
 16777216
100
AcDbLine
 10
2399.86378355942
 20
2663.630709469712
 30
0.0
 11
2399.86378355942
 21
2710.78177023034
 31
0.0
  0
LINE
  5
7E4A
330
7D2A
100
AcDbEntity
  8
0
  6
ByBlock
440
 16777216
100
AcDbLine
 10
1434.662221060802
 20
1256.448383303883
 30
0.0
 11
1434.662221060802
 21
2710.78177023034
 31
0.0
  0
LINE
  5
7E4B
330
7D2A
100
AcDbEntity
  8
0
  6
ByBlock
440
 16777216
100
AcDbLine
 10
2329.86378355942
 20
2675.781770230341
 30
0.0
 11
1504.662221060802
 21
2675.781770230341
 31
0.0
  0
INSERT
  5
7E4C
330
7D2A
100
AcDbEntity
  8
0
  6
ByBlock
440
 16777216
100
AcDbBlockReference
  2
_OPEN
 10
2399.86378355942
 20
2675.781770230341
 30
0.0
 41
70.0
 42
70.0
 43
70.0
  0
INSERT
  5
7E4D
330
7D2A
100
AcDbEntity
  8
0
  6
ByBlock
440
 16777216
100
AcDbBlockReference
  2
_OPEN
 10
1434.662221060802
 20
2675.781770230341
 30
0.0
 41
70.0
 42
70.0
 43
70.0
 50
180.0
  0
MTEXT
  5
7E4E
330
7D2A
100
AcDbEntity
  8
0
  6
ByBlock
440
 16777216
100
AcDbMText
 10
1917.263002310111
 20
2745.78177023034
 30
0.0
 40
105.0
 41
0.0
 46
0.0
 71
     5
 72
     5
  1
\A1;969
 73
     1
 44
1.0
  0
POINT
  5
7E4F
330
7D2A
100
AcDbEntity
  8
DEFPOINTS
  6
ByBlock
 62
     0
440
 16777216
100
AcDbPoint
 10
2399.86378355942
 20
2628.630709469712
 30
0.0
  0
POINT
  5
7E50
330
7D2A
100
AcDbEntity
  8
DEFPOINTS
  6
ByBlock
 62
     0
440
 16777216
100
AcDbPoint
 10
1434.662221060802
 20
1221.448383303883
 30
0.0
  0
POINT
  5
7E51
330
7D2A
100
AcDbEntity
  8
DEFPOINTS
  6
ByBlock
 62
     0
440
 16777216
100
AcDbPoint
 10
1434.662221060802
 20
2675.781770230341
 30
0.0
  0
ENDBLK
  5
7E52
330
7D2A
100
AcDbEntity
  8
0
100
AcDbBlockEnd
  0
BLOCK
  5
7E53
330
7D36
100
AcDbEntity
  8
0
100
AcDbBlockBegin
  2
*D8
 70
     1
 10
0.0
 20
0.0
 30
0.0
  3
*D8
  1

  0
LINE
  5
7E54
330
7D36
100
AcDbEntity
  8
0
  6
ByBlock
440
 16777216
100
AcDbLine
 10
609.8637835594209
 20
226.448383303883
 30
0.0
 11
609.8637835594209
 21
26.8747833958987
 31
0.0
  0
LINE
  5
7E55
330
7D36
100
AcDbEntity
  8
0
  6
ByBlock
440
 16777216
100
AcDbLine
 10
2399.86378355942
 20
226.448383303883
 30
0.0
 11
2399.86378355942
 21
26.8747833958987
 31
0.0
  0
LINE
  5
7E56
330
7D36
100
AcDbEntity
  8
0
  6
ByBlock
440
 16777216
100
AcDbLine
 10
679.8637835594209
 20
61.8747833958987
 30
0.0
 11
2329.86378355942
 21
61.8747833958987
 31
0.0
  0
INSERT
  5
7E57
330
7D36
100
AcDbEntity
  8
0
  6
ByBlock
440
 16777216
100
AcDbBlockReference
  2
_OPEN
 10
609.8637835594209
 20
61.8747833958987
 30
0.0
 41
70.0
 42
70.0
 43
70.0
 50
180.0
  0
INSERT
  5
7E58
330
7D36
100
AcDbEntity
  8
0
  6
ByBlock
440
 16777216
100
AcDbBlockReference
  2
_OPEN
 10
2399.86378355942
 20
61.8747833958987
 30
0.0
 41
70.0
 42
70.0
 43
70.0
  0
MTEXT
  5
7E59
330
7D36
100
AcDbEntity
  8
0
  6
ByBlock
440
 16777216
100
AcDbMText
 10
1504.86378355942
 20
131.8747833958987
 30
0.0
 40
105.0
 41
0.0
 46
0.0
 71
     5
 72
     5
  1
\A1;1790
 73
     1
 44
1.0
  0
POINT
  5
7E5A
330
7D36
100
AcDbEntity
  8
DEFPOINTS
  6
ByBlock
 62
     0
440
 16777216
100
AcDbPoint
 10
609.8637835594209
 20
261.448383303883
 30
0.0
  0
POINT
  5
7E5B
330
7D36
100
AcDbEntity
  8
DEFPOINTS
  6
ByBlock
 62
     0
440
 16777216
100
AcDbPoint
 10
2399.86378355942
 20
261.448383303883
 30
0.0
  0
POINT
  5
7E5C
330
7D36
100
AcDbEntity
  8
DEFPOINTS
  6
ByBlock
 62
     0
440
 16777216
100
AcDbPoint
 10
2399.86378355942
 20
61.8747833958987
 30
0.0
  0
ENDBLK
  5
7E5D
330
7D36
100
AcDbEntity
  8
0
100
AcDbBlockEnd
  0
BLOCK
  5
7FFD
330
7D4E
100
AcDbEntity
  8
0
100
AcDbBlockBegin
  2
*D9
 70
     1
 10
0.0
 20
0.0
 30
0.0
  3
*D9
  1

  0
LINE
  5
8107
330
7D4E
100
AcDbEntity
  8
3
440
 16777216
370
    -2
100
AcDbLine
 10
4443.752841307504
 20
3505.113733374478
 30
0.0
 11
4443.752841307504
 21
4934.909864110824
 31
0.0
  0
LINE
  5
8108
330
7D4E
100
AcDbEntity
  8
3
440
 16777216
370
    -2
100
AcDbLine
 10
5643.752841307505
 20
4903.031138247654
 30
0.0
 11
5643.752841307505
 21
4934.909864110824
 31
0.0
  0
LINE
  5
8109
330
7D4E
100
AcDbEntity
  8
3
440
 16777216
370
    -2
100
AcDbLine
 10
4513.752841307504
 20
4899.909864110824
 30
0.0
 11
5573.752841307506
 21
4899.909864110824
 31
0.0
  0
INSERT
  5
810A
330
7D4E
100
AcDbEntity
  8
3
440
 16777216
370
    -2
100
AcDbBlockReference
  2
_OPEN
 10
4443.752841307504
 20
4899.909864110824
 30
0.0
 41
70.0
 42
70.0
 43
70.0
 50
180.0
  0
INSERT
  5
810B
330
7D4E
100
AcDbEntity
  8
3
440
 16777216
370
    -2
100
AcDbBlockReference
  2
_OPEN
 10
5643.752841307505
 20
4899.909864110824
 30
0.0
 41
70.0
 42
70.0
 43
70.0
  0
MTEXT
  5
810C
330
7D4E
100
AcDbEntity
  8
3
440
 16777216
100
AcDbMText
 10
5043.752841307505
 20
4997.409864110824
 30
0.0
 40
105.0
 41
0.0
 46
0.0
 71
     5
 72
     1
  1
\A1;(1200)
 73
     1
 44
1.0
  0
POINT
  5
810D
330
7D4E
100
AcDbEntity
  8
DEFPOINTS
 62
     0
440
 16777216
100
AcDbPoint
 10
4443.752841307504
 20
3470.113733374478
 30
0.0
  0
POINT
  5
810E
330
7D4E
100
AcDbEntity
  8
DEFPOINTS
 62
     0
440
 16777216
100
AcDbPoint
 10
5643.752841307505
 20
4868.031138247654
 30
0.0
  0
POINT
  5
810F
330
7D4E
100
AcDbEntity
  8
DEFPOINTS
 62
     0
440
 16777216
100
AcDbPoint
 10
5643.752841307505
 20
4899.909864110824
 30
0.0
  0
ENDBLK
  5
8007
330
7D4E
100
AcDbEntity
  8
0
100
AcDbBlockEnd
  0
BLOCK
  5
800C
330
7D5A
100
AcDbEntity
  8
0
100
AcDbBlockBegin
  2
*D10
 70
     1
 10
0.0
 20
0.0
 30
0.0
  3
*D10
  1

  0
LINE
  5
8110
330
7D5A
100
AcDbEntity
  8
3
440
 16777216
370
    -2
100
AcDbLine
 10
5643.752841307505
 20
4903.031138247654
 30
0.0
 11
5643.752841307505
 21
4934.56073281985
 31
0.0
  0
LINE
  5
8111
330
7D5A
100
AcDbEntity
  8
3
440
 16777216
370
    -2
100
AcDbLine
 10
6573.752841307501
 20
3195.603244713181
 30
0.0
 11
6573.752841307501
 21
4934.56073281985
 31
0.0
  0
LINE
  5
8112
330
7D5A
100
AcDbEntity
  8
3
440
 16777216
370
    -2
100
AcDbLine
 10
5713.752841307505
 20
4899.56073281985
 30
0.0
 11
6503.752841307502
 21
4899.56073281985
 31
0.0
  0
INSERT
  5
8113
330
7D5A
100
AcDbEntity
  8
3
440
 16777216
370
    -2
100
AcDbBlockReference
  2
_OPEN
 10
5643.752841307505
 20
4899.56073281985
 30
0.0
 41
70.0
 42
70.0
 43
70.0
 50
180.0
  0
INSERT
  5
8114
330
7D5A
100
AcDbEntity
  8
3
440
 16777216
370
    -2
100
AcDbBlockReference
  2
_OPEN
 10
6573.752841307501
 20
4899.56073281985
 30
0.0
 41
70.0
 42
70.0
 43
70.0
  0
MTEXT
  5
8115
330
7D5A
100
AcDbEntity
  8
3
440
 16777216
100
AcDbMText
 10
6108.752841307503
 20
4997.06073281985
 30
0.0
 40
105.0
 41
0.0
 46
0.0
 71
     5
 72
     1
  1
\A1;(930)
 73
     1
 44
1.0
  0
POINT
  5
8116
330
7D5A
100
AcDbEntity
  8
DEFPOINTS
 62
     0
440
 16777216
100
AcDbPoint
 10
5643.752841307505
 20
4868.031138247654
 30
0.0
  0
POINT
  5
8117
330
7D5A
100
AcDbEntity
  8
DEFPOINTS
 62
     0
440
 16777216
100
AcDbPoint
 10
6573.752841307501
 20
3160.603244713181
 30
0.0
  0
POINT
  5
8118
330
7D5A
100
AcDbEntity
  8
DEFPOINTS
 62
     0
440
 16777216
100
AcDbPoint
 10
6573.752841307501
 20
4899.56073281985
 30
0.0
  0
ENDBLK
  5
8016
330
7D5A
100
AcDbEntity
  8
0
100
AcDbBlockEnd
  0
BLOCK
  5
7E7F
330
7D66
100
AcDbEntity
  8
0
100
AcDbBlockBegin
  2
*D11
 70
     1
 10
0.0
 20
0.0
 30
0.0
  3
*D11
  1

  0
LINE
  5
7E80
330
7D66
100
AcDbEntity
  8
0
  6
ByBlock
440
 16777216
100
AcDbLine
 10
6434.252841307508
 20
661.448383303883
 30
0.0
 11
6796.53560766302
 21
661.448383303883
 31
0.0
  0
LINE
  5
7E81
330
7D66
100
AcDbEntity
  8
0
  6
ByBlock
440
 16777216
100
AcDbLine
 10
6434.252841307508
 20
1781.448383303883
 30
0.0
 11
6796.53560766302
 21
1781.448383303883
 31
0.0
  0
LINE
  5
7E82
330
7D66
100
AcDbEntity
  8
0
  6
ByBlock
440
 16777216
100
AcDbLine
 10
6761.535607663019
 20
731.4483833038829
 30
0.0
 11
6761.535607663019
 21
1711.448383303883
 31
0.0
  0
INSERT
  5
7E83
330
7D66
100
AcDbEntity
  8
0
  6
ByBlock
440
 16777216
100
AcDbBlockReference
  2
_OPEN
 10
6761.535607663019
 20
661.448383303883
 30
0.0
 41
70.0
 42
70.0
 43
70.0
 50
270.0
  0
INSERT
  5
7E84
330
7D66
100
AcDbEntity
  8
0
  6
ByBlock
440
 16777216
100
AcDbBlockReference
  2
_OPEN
 10
6761.535607663019
 20
1781.448383303883
 30
0.0
 41
70.0
 42
70.0
 43
70.0
 50
90.0
  0
MTEXT
  5
7E85
330
7D66
100
AcDbEntity
  8
0
  6
ByBlock
440
 16777216
100
AcDbMText
 10
6691.53560766302
 20
1221.448383303883
 30
0.0
 40
105.0
 41
0.0
 46
0.0
 71
     5
 72
     5
  1
\A1;φ1120
 11
0.0
 21
1.0
 31
0.0
 73
     1
 44
1.0
  0
POINT
  5
7E86
330
7D66
100
AcDbEntity
  8
DEFPOINTS
  6
ByBlock
 62
     0
440
 16777216
100
AcDbPoint
 10
6399.252841307507
 20
661.448383303883
 30
0.0
  0
POINT
  5
7E87
330
7D66
100
AcDbEntity
  8
DEFPOINTS
  6
ByBlock
 62
     0
440
 16777216
100
AcDbPoint
 10
6399.252841307507
 20
1781.448383303883
 30
0.0
  0
POINT
  5
7E88
330
7D66
100
AcDbEntity
  8
DEFPOINTS
  6
ByBlock
 62
     0
440
 16777216
100
AcDbPoint
 10
6761.535607663019
 20
1781.448383303883
 30
0.0
  0
ENDBLK
  5
7E89
330
7D66
100
AcDbEntity
  8
0
100
AcDbBlockEnd
  0
BLOCK
  5
7E8A
330
7D72
100
AcDbEntity
  8
0
100
AcDbBlockBegin
  2
*D12
 70
     1
 10
0.0
 20
0.0
 30
0.0
  3
*D12
  1

  0
LINE
  5
7E8B
330
7D72
100
AcDbEntity
  8
0
  6
ByBlock
440
 16777216
100
AcDbLine
 10
609.86378355942
 20
3963.253207167578
 30
0.0
 11
609.86378355942
 21
3631.528631137172
 31
0.0
  0
LINE
  5
7E8C
330
7D72
100
AcDbEntity
  8
0
  6
ByBlock
440
 16777216
100
AcDbLine
 10
3059.86378355942
 20
3963.253207167579
 30
0.0
 11
3059.86378355942
 21
3631.528631137172
 31
0.0
  0
LINE
  5
7E8D
330
7D72
100
AcDbEntity
  8
0
  6
ByBlock
440
 16777216
100
AcDbLine
 10
679.8637835594199
 20
3666.528631137171
 30
0.0
 11
2989.86378355942
 21
3666.528631137171
 31
0.0
  0
INSERT
  5
7E8E
330
7D72
100
AcDbEntity
  8
0
  6
ByBlock
440
 16777216
100
AcDbBlockReference
  2
_OPEN
 10
609.86378355942
 20
3666.528631137171
 30
0.0
 41
70.0
 42
70.0
 43
70.0
 50
180.0
  0
INSERT
  5
7E8F
330
7D72
100
AcDbEntity
  8
0
  6
ByBlock
440
 16777216
100
AcDbBlockReference
  2
_OPEN
 10
3059.86378355942
 20
3666.528631137171
 30
0.0
 41
70.0
 42
70.0
 43
70.0
  0
MTEXT
  5
7E90
330
7D72
100
AcDbEntity
  8
0
  6
ByBlock
440
 16777216
100
AcDbMText
 10
1834.86378355942
 20
3736.528631137171
 30
0.0
 40
105.0
 41
0.0
 46
0.0
 71
     5
 72
     5
  1
\A1;2450
 73
     1
 44
1.0
  0
POINT
  5
7E91
330
7D72
100
AcDbEntity
  8
DEFPOINTS
  6
ByBlock
 62
     0
440
 16777216
100
AcDbPoint
 10
609.86378355942
 20
3998.253207167578
 30
0.0
  0
POINT
  5
7E92
330
7D72
100
AcDbEntity
  8
DEFPOINTS
  6
ByBlock
 62
     0
440
 16777216
100
AcDbPoint
 10
3059.86378355942
 20
3998.253207167579
 30
0.0
  0
POINT
  5
7E93
330
7D72
100
AcDbEntity
  8
DEFPOINTS
  6
ByBlock
 62
     0
440
 16777216
100
AcDbPoint
 10
3059.86378355942
 20
3666.528631137171
 30
0.0
  0
ENDBLK
  5
7E94
330
7D72
100
AcDbEntity
  8
0
100
AcDbBlockEnd
  0
BLOCK
  5
7E95
330
7D7E
100
AcDbEntity
  8
0
100
AcDbBlockBegin
  2
*D13
 70
     1
 10
0.0
 20
0.0
 30
0.0
  3
*D13
  1

  0
LINE
  5
7E96
330
7D7E
100
AcDbEntity
  8
0
  6
ByBlock
440
 16777216
100
AcDbLine
 10
3094.86378355942
 20
5898.253207167577
 30
0.0
 11
3493.853034081316
 21
5898.253207167577
 31
0.0
  0
LINE
  5
7E97
330
7D7E
100
AcDbEntity
  8
0
  6
ByBlock
440
 16777216
100
AcDbLine
 10
3094.86378355942
 20
3998.253207167579
 30
0.0
 11
3493.853034081316
 21
3998.253207167579
 31
0.0
  0
LINE
  5
7E98
330
7D7E
100
AcDbEntity
  8
0
  6
ByBlock
440
 16777216
100
AcDbLine
 10
3458.853034081316
 20
5828.253207167578
 30
0.0
 11
3458.853034081316
 21
4068.253207167578
 31
0.0
  0
INSERT
  5
7E99
330
7D7E
100
AcDbEntity
  8
0
  6
ByBlock
440
 16777216
100
AcDbBlockReference
  2
_OPEN
 10
3458.853034081316
 20
5898.253207167577
 30
0.0
 41
70.0
 42
70.0
 43
70.0
 50
90.0
  0
INSERT
  5
7E9A
330
7D7E
100
AcDbEntity
  8
0
  6
ByBlock
440
 16777216
100
AcDbBlockReference
  2
_OPEN
 10
3458.853034081316
 20
3998.253207167579
 30
0.0
 41
70.0
 42
70.0
 43
70.0
 50
270.0
  0
MTEXT
  5
7E9B
330
7D7E
100
AcDbEntity
  8
0
  6
ByBlock
440
 16777216
100
AcDbMText
 10
3388.853034081316
 20
4948.253207167578
 30
0.0
 40
105.0
 41
0.0
 46
0.0
 71
     5
 72
     5
  1
\A1;1900
 11
0.0
 21
1.0
 31
0.0
 73
     1
 44
1.0
  0
POINT
  5
7E9C
330
7D7E
100
AcDbEntity
  8
DEFPOINTS
  6
ByBlock
 62
     0
440
 16777216
100
AcDbPoint
 10
3059.86378355942
 20
5898.253207167577
 30
0.0
  0
POINT
  5
7E9D
330
7D7E
100
AcDbEntity
  8
DEFPOINTS
  6
ByBlock
 62
     0
440
 16777216
100
AcDbPoint
 10
3059.86378355942
 20
3998.253207167579
 30
0.0
  0
POINT
  5
7E9E
330
7D7E
100
AcDbEntity
  8
DEFPOINTS
  6
ByBlock
 62
     0
440
 16777216
100
AcDbPoint
 10
3458.853034081316
 20
3998.253207167579
 30
0.0
  0
ENDBLK
  5
7E9F
330
7D7E
100
AcDbEntity
  8
0
100
AcDbBlockEnd
  0
BLOCK
  5
7FE1
330
7D8A
100
AcDbEntity
  8
0
100
AcDbBlockBegin
  2
*D14
 70
     1
 10
0.0
 20
0.0
 30
0.0
  3
*D14
  1

  0
LINE
  5
7FE2
330
7D8A
100
AcDbEntity
  8
0
  6
ByBlock
440
 16777216
100
AcDbLine
 10
574.8637835594199
 20
6657.508902907942
 30
0.0
 11
359.086108595151
 21
6657.508902907942
 31
0.0
  0
LINE
  5
7FE3
330
7D8A
100
AcDbEntity
  8
0
  6
ByBlock
440
 16777216
100
AcDbLine
 10
574.8637835594199
 20
5657.508902907943
 30
0.0
 11
359.086108595151
 21
5657.508902907943
 31
0.0
  0
LINE
  5
7FE4
330
7D8A
100
AcDbEntity
  8
0
  6
ByBlock
440
 16777216
100
AcDbLine
 10
394.086108595151
 20
6587.508902907941
 30
0.0
 11
394.086108595151
 21
5727.508902907942
 31
0.0
  0
INSERT
  5
7FE5
330
7D8A
100
AcDbEntity
  8
0
  6
ByBlock
440
 16777216
100
AcDbBlockReference
  2
_OPEN
 10
394.086108595151
 20
6657.508902907942
 30
0.0
 41
70.0
 42
70.0
 43
70.0
 50
90.0
  0
INSERT
  5
7FE6
330
7D8A
100
AcDbEntity
  8
0
  6
ByBlock
440
 16777216
100
AcDbBlockReference
  2
_OPEN
 10
394.086108595151
 20
5657.508902907943
 30
0.0
 41
70.0
 42
70.0
 43
70.0
 50
270.0
  0
MTEXT
  5
7FE7
330
7D8A
100
AcDbEntity
  8
0
  6
ByBlock
440
 16777216
100
AcDbMText
 10
324.086108595151
 20
6157.508902907943
 30
0.0
 40
105.0
 41
0.0
 46
0.0
 71
     5
 72
     5
  1
\A1;1000
 11
0.0
 21
1.0
 31
0.0
 73
     1
 44
1.0
  0
POINT
  5
7FE8
330
7D8A
100
AcDbEntity
  8
DEFPOINTS
  6
ByBlock
 62
     0
440
 16777216
100
AcDbPoint
 10
609.86378355942
 20
6657.508902907942
 30
0.0
  0
POINT
  5
7FE9
330
7D8A
100
AcDbEntity
  8
DEFPOINTS
  6
ByBlock
 62
     0
440
 16777216
100
AcDbPoint
 10
609.86378355942
 20
5657.508902907943
 30
0.0
  0
POINT
  5
7FEA
330
7D8A
100
AcDbEntity
  8
DEFPOINTS
  6
ByBlock
 62
     0
440
 16777216
100
AcDbPoint
 10
394.086108595151
 20
5657.508902907943
 30
0.0
  0
ENDBLK
  5
7FEB
330
7D8A
100
AcDbEntity
  8
0
100
AcDbBlockEnd
  0
BLOCK
  5
7EAB
330
7D96
100
AcDbEntity
  8
0
100
AcDbBlockBegin
  2
*D15
 70
     1
 10
0.0
 20
0.0
 30
0.0
  3
*D15
  1

  0
LINE
  5
7EAC
330
7D96
100
AcDbEntity
  8
0
  6
ByBlock
440
 16777216
100
AcDbLine
 10
609.86378355942
 20
5033.253207167577
 30
0.0
 11
609.86378355942
 21
6330.110343216922
 31
0.0
  0
LINE
  5
7EAD
330
7D96
100
AcDbEntity
  8
0
  6
ByBlock
440
 16777216
100
AcDbLine
 10
1739.863783559419
 20
5933.253207167577
 30
0.0
 11
1739.863783559419
 21
6330.110343216922
 31
0.0
  0
LINE
  5
7EAE
330
7D96
100
AcDbEntity
  8
0
  6
ByBlock
440
 16777216
100
AcDbLine
 10
679.8637835594199
 20
6295.110343216922
 30
0.0
 11
1669.863783559419
 21
6295.110343216922
 31
0.0
  0
INSERT
  5
7EAF
330
7D96
100
AcDbEntity
  8
0
  6
ByBlock
440
 16777216
100
AcDbBlockReference
  2
_OPEN
 10
609.86378355942
 20
6295.110343216922
 30
0.0
 41
70.0
 42
70.0
 43
70.0
 50
180.0
  0
INSERT
  5
7EB0
330
7D96
100
AcDbEntity
  8
0
  6
ByBlock
440
 16777216
100
AcDbBlockReference
  2
_OPEN
 10
1739.863783559419
 20
6295.110343216922
 30
0.0
 41
70.0
 42
70.0
 43
70.0
  0
MTEXT
  5
7EB1
330
7D96
100
AcDbEntity
  8
0
  6
ByBlock
440
 16777216
100
AcDbMText
 10
1174.86378355942
 20
6365.110343216922
 30
0.0
 40
105.0
 41
0.0
 46
0.0
 71
     5
 72
     5
  1
\A1;1130
 73
     1
 44
1.0
  0
POINT
  5
7EB2
330
7D96
100
AcDbEntity
  8
DEFPOINTS
  6
ByBlock
 62
     0
440
 16777216
100
AcDbPoint
 10
609.86378355942
 20
4998.253207167577
 30
0.0
  0
POINT
  5
7EB3
330
7D96
100
AcDbEntity
  8
DEFPOINTS
  6
ByBlock
 62
     0
440
 16777216
100
AcDbPoint
 10
1739.863783559419
 20
5898.253207167577
 30
0.0
  0
POINT
  5
7EB4
330
7D96
100
AcDbEntity
  8
DEFPOINTS
  6
ByBlock
 62
     0
440
 16777216
100
AcDbPoint
 10
1739.863783559419
 20
6295.110343216922
 30
0.0
  0
ENDBLK
  5
7EB5
330
7D96
100
AcDbEntity
  8
0
100
AcDbBlockEnd
  0
BLOCK
  5
7EB6
330
7DA2
100
AcDbEntity
  8
0
100
AcDbBlockBegin
  2
*D16
 70
     1
 10
0.0
 20
0.0
 30
0.0
  3
*D16
  1

  0
LINE
  5
7EB7
330
7DA2
100
AcDbEntity
  8
0
  6
ByBlock
440
 16777216
100
AcDbLine
 10
1739.863783559419
 20
5933.253207167578
 30
0.0
 11
1739.863783559419
 21
6330.110343216922
 31
0.0
  0
LINE
  5
7EB8
330
7DA2
100
AcDbEntity
  8
0
  6
ByBlock
440
 16777216
100
AcDbLine
 10
3059.86378355942
 20
5933.253207167577
 30
0.0
 11
3059.86378355942
 21
6330.110343216922
 31
0.0
  0
LINE
  5
7EB9
330
7DA2
100
AcDbEntity
  8
0
  6
ByBlock
440
 16777216
100
AcDbLine
 10
1809.863783559419
 20
6295.110343216922
 30
0.0
 11
2989.86378355942
 21
6295.110343216922
 31
0.0
  0
INSERT
  5
7EBA
330
7DA2
100
AcDbEntity
  8
0
  6
ByBlock
440
 16777216
100
AcDbBlockReference
  2
_OPEN
 10
1739.863783559419
 20
6295.110343216922
 30
0.0
 41
70.0
 42
70.0
 43
70.0
 50
180.0
  0
INSERT
  5
7EBB
330
7DA2
100
AcDbEntity
  8
0
  6
ByBlock
440
 16777216
100
AcDbBlockReference
  2
_OPEN
 10
3059.86378355942
 20
6295.110343216922
 30
0.0
 41
70.0
 42
70.0
 43
70.0
  0
MTEXT
  5
7EBC
330
7DA2
100
AcDbEntity
  8
0
  6
ByBlock
440
 16777216
100
AcDbMText
 10
2399.863783559419
 20
6365.110343216922
 30
0.0
 40
105.0
 41
0.0
 46
0.0
 71
     5
 72
     5
  1
\A1;1320
 73
     1
 44
1.0
  0
POINT
  5
7EBD
330
7DA2
100
AcDbEntity
  8
DEFPOINTS
  6
ByBlock
 62
     0
440
 16777216
100
AcDbPoint
 10
1739.863783559419
 20
5898.253207167579
 30
0.0
  0
POINT
  5
7EBE
330
7DA2
100
AcDbEntity
  8
DEFPOINTS
  6
ByBlock
 62
     0
440
 16777216
100
AcDbPoint
 10
3059.86378355942
 20
5898.253207167577
 30
0.0
  0
POINT
  5
7EBF
330
7DA2
100
AcDbEntity
  8
DEFPOINTS
  6
ByBlock
 62
     0
440
 16777216
100
AcDbPoint
 10
3059.86378355942
 20
6295.110343216922
 30
0.0
  0
ENDBLK
  5
7EC0
330
7DA2
100
AcDbEntity
  8
0
100
AcDbBlockEnd
  0
BLOCK
  5
7EC1
330
7DAE
100
AcDbEntity
  8
0
100
AcDbBlockBegin
  2
*D17
 70
     1
 10
0.0
 20
0.0
 30
0.0
  3
*D17
  1

  0
LINE
  5
7EC2
330
7DAE
100
AcDbEntity
  8
0
  6
ByBlock
440
 16777216
100
AcDbLine
 10
5643.752841307505
 20
226.448383303883
 30
0.0
 11
5643.752841307505
 21
27.09925261086755
 31
0.0
  0
LINE
  5
7EC3
330
7DAE
100
AcDbEntity
  8
0
  6
ByBlock
440
 16777216
100
AcDbLine
 10
6471.752841307486
 20
226.448383303883
 30
0.0
 11
6471.752841307486
 21
27.09925261086755
 31
0.0
  0
LINE
  5
7EC4
330
7DAE
100
AcDbEntity
  8
0
  6
ByBlock
440
 16777216
100
AcDbLine
 10
5713.752841307505
 20
62.09925261086755
 30
0.0
 11
6401.752841307486
 21
62.09925261086755
 31
0.0
  0
INSERT
  5
7EC5
330
7DAE
100
AcDbEntity
  8
0
  6
ByBlock
440
 16777216
100
AcDbBlockReference
  2
_OPEN
 10
5643.752841307505
 20
62.09925261086755
 30
0.0
 41
70.0
 42
70.0
 43
70.0
 50
180.0
  0
INSERT
  5
7EC6
330
7DAE
100
AcDbEntity
  8
0
  6
ByBlock
440
 16777216
100
AcDbBlockReference
  2
_OPEN
 10
6471.752841307486
 20
62.09925261086755
 30
0.0
 41
70.0
 42
70.0
 43
70.0
  0
MTEXT
  5
7EC7
330
7DAE
100
AcDbEntity
  8
0
  6
ByBlock
440
 16777216
100
AcDbMText
 10
6057.752841307495
 20
132.0992526108675
 30
0.0
 40
105.0
 41
0.0
 46
0.0
 71
     5
 72
     5
  1
\A1;828
 73
     1
 44
1.0
  0
POINT
  5
7EC8
330
7DAE
100
AcDbEntity
  8
DEFPOINTS
  6
ByBlock
 62
     0
440
 16777216
100
AcDbPoint
 10
5643.752841307505
 20
261.448383303883
 30
0.0
  0
POINT
  5
7EC9
330
7DAE
100
AcDbEntity
  8
DEFPOINTS
  6
ByBlock
 62
     0
440
 16777216
100
AcDbPoint
 10
6471.752841307486
 20
261.448383303883
 30
0.0
  0
POINT
  5
7ECA
330
7DAE
100
AcDbEntity
  8
DEFPOINTS
  6
ByBlock
 62
     0
440
 16777216
100
AcDbPoint
 10
6471.752841307486
 20
62.09925261086755
 30
0.0
  0
ENDBLK
  5
7ECB
330
7DAE
100
AcDbEntity
  8
0
100
AcDbBlockEnd
  0
BLOCK
  5
7ECC
330
7DBA
100
AcDbEntity
  8
0
100
AcDbBlockBegin
  2
*D18
 70
     1
 10
0.0
 20
0.0
 30
0.0
  3
*D18
  1

  0
LINE
  5
7ECD
330
7DBA
100
AcDbEntity
  8
0
  6
ByBlock
440
 16777216
100
AcDbLine
 10
4571.752841307508
 20
226.448383303883
 30
0.0
 11
4571.752841307508
 21
27.09925261086755
 31
0.0
  0
LINE
  5
7ECE
330
7DBA
100
AcDbEntity
  8
0
  6
ByBlock
440
 16777216
100
AcDbLine
 10
5643.752841307505
 20
226.448383303883
 30
0.0
 11
5643.752841307505
 21
27.09925261086755
 31
0.0
  0
LINE
  5
7ECF
330
7DBA
100
AcDbEntity
  8
0
  6
ByBlock
440
 16777216
100
AcDbLine
 10
4641.752841307508
 20
62.09925261086755
 30
0.0
 11
5573.752841307506
 21
62.09925261086755
 31
0.0
  0
INSERT
  5
7ED0
330
7DBA
100
AcDbEntity
  8
0
  6
ByBlock
440
 16777216
100
AcDbBlockReference
  2
_OPEN
 10
4571.752841307508
 20
62.09925261086755
 30
0.0
 41
70.0
 42
70.0
 43
70.0
 50
180.0
  0
INSERT
  5
7ED1
330
7DBA
100
AcDbEntity
  8
0
  6
ByBlock
440
 16777216
100
AcDbBlockReference
  2
_OPEN
 10
5643.752841307505
 20
62.09925261086755
 30
0.0
 41
70.0
 42
70.0
 43
70.0
  0
MTEXT
  5
7ED2
330
7DBA
100
AcDbEntity
  8
0
  6
ByBlock
440
 16777216
100
AcDbMText
 10
5107.752841307507
 20
132.0992526108675
 30
0.0
 40
105.0
 41
0.0
 46
0.0
 71
     5
 72
     5
  1
\A1;1072
 73
     1
 44
1.0
  0
POINT
  5
7ED3
330
7DBA
100
AcDbEntity
  8
DEFPOINTS
  6
ByBlock
 62
     0
440
 16777216
100
AcDbPoint
 10
4571.752841307508
 20
261.448383303883
 30
0.0
  0
POINT
  5
7ED4
330
7DBA
100
AcDbEntity
  8
DEFPOINTS
  6
ByBlock
 62
     0
440
 16777216
100
AcDbPoint
 10
5643.752841307505
 20
261.448383303883
 30
0.0
  0
POINT
  5
7ED5
330
7DBA
100
AcDbEntity
  8
DEFPOINTS
  6
ByBlock
 62
     0
440
 16777216
100
AcDbPoint
 10
5643.752841307505
 20
62.09925261086755
 30
0.0
  0
ENDBLK
  5
7ED6
330
7DBA
100
AcDbEntity
  8
0
100
AcDbBlockEnd
  0
BLOCK
  5
7EE2
330
7DD2
100
AcDbEntity
  8
0
100
AcDbBlockBegin
  2
*D19
 70
     1
 10
0.0
 20
0.0
 30
0.0
  3
*D19
  1

  0
LINE
  5
7EE3
330
7DD2
100
AcDbEntity
  8
0
  6
ByBlock
440
 16777216
100
AcDbLine
 10
4893.752841307504
 20
2454.448383303883
 30
0.0
 11
4893.752841307504
 21
2681.706940293118
 31
0.0
  0
LINE
  5
7EE4
330
7DD2
100
AcDbEntity
  8
0
  6
ByBlock
440
 16777216
100
AcDbLine
 10
6393.752841307505
 20
2454.448383303884
 30
0.0
 11
6393.752841307505
 21
2681.706940293118
 31
0.0
  0
LINE
  5
7EE5
330
7DD2
100
AcDbEntity
  8
0
  6
ByBlock
440
 16777216
100
AcDbLine
 10
4963.752841307504
 20
2646.706940293118
 30
0.0
 11
6323.752841307506
 21
2646.706940293118
 31
0.0
  0
INSERT
  5
7EE6
330
7DD2
100
AcDbEntity
  8
0
  6
ByBlock
440
 16777216
100
AcDbBlockReference
  2
_OPEN
 10
4893.752841307504
 20
2646.706940293118
 30
0.0
 41
70.0
 42
70.0
 43
70.0
 50
180.0
  0
INSERT
  5
7EE7
330
7DD2
100
AcDbEntity
  8
0
  6
ByBlock
440
 16777216
100
AcDbBlockReference
  2
_OPEN
 10
6393.752841307505
 20
2646.706940293118
 30
0.0
 41
70.0
 42
70.0
 43
70.0
  0
MTEXT
  5
7EE8
330
7DD2
100
AcDbEntity
  8
0
  6
ByBlock
440
 16777216
100
AcDbMText
 10
5643.752841307505
 20
2716.706940293118
 30
0.0
 40
105.0
 41
0.0
 46
0.0
 71
     5
 72
     5
  1
\A1;1500
 73
     1
 44
1.0
  0
POINT
  5
7EE9
330
7DD2
100
AcDbEntity
  8
DEFPOINTS
  6
ByBlock
 62
     0
440
 16777216
100
AcDbPoint
 10
4893.752841307504
 20
2419.448383303883
 30
0.0
  0
POINT
  5
7EEA
330
7DD2
100
AcDbEntity
  8
DEFPOINTS
  6
ByBlock
 62
     0
440
 16777216
100
AcDbPoint
 10
6393.752841307505
 20
2419.448383303884
 30
0.0
  0
POINT
  5
7EEB
330
7DD2
100
AcDbEntity
  8
DEFPOINTS
  6
ByBlock
 62
     0
440
 16777216
100
AcDbPoint
 10
6393.752841307505
 20
2646.706940293118
 30
0.0
  0
ENDBLK
  5
7EEC
330
7DD2
100
AcDbEntity
  8
0
100
AcDbBlockEnd
  0
BLOCK
  5
7EED
330
7DDE
100
AcDbEntity
  8
0
100
AcDbBlockBegin
  2
*D20
 70
     1
 10
0.0
 20
0.0
 30
0.0
  3
*D20
  1

  0
LINE
  5
7EEE
330
7DDE
100
AcDbEntity
  8
0
  6
ByBlock
440
 16777216
100
AcDbLine
 10
609.8637835594209
 20
566.448383303883
 30
0.0
 11
609.8637835594209
 21
2915.227666957891
 31
0.0
  0
LINE
  5
7EEF
330
7DDE
100
AcDbEntity
  8
0
  6
ByBlock
440
 16777216
100
AcDbLine
 10
3159.86378355942
 20
2507.448383303883
 30
0.0
 11
3159.86378355942
 21
2915.227666957891
 31
0.0
  0
LINE
  5
7EF0
330
7DDE
100
AcDbEntity
  8
0
  6
ByBlock
440
 16777216
100
AcDbLine
 10
679.8637835594209
 20
2880.227666957892
 30
0.0
 11
3089.86378355942
 21
2880.227666957892
 31
0.0
  0
INSERT
  5
7EF1
330
7DDE
100
AcDbEntity
  8
0
  6
ByBlock
440
 16777216
100
AcDbBlockReference
  2
_OPEN
 10
609.8637835594209
 20
2880.227666957892
 30
0.0
 41
70.0
 42
70.0
 43
70.0
 50
180.0
  0
INSERT
  5
7EF2
330
7DDE
100
AcDbEntity
  8
0
  6
ByBlock
440
 16777216
100
AcDbBlockReference
  2
_OPEN
 10
3159.86378355942
 20
2880.227666957892
 30
0.0
 41
70.0
 42
70.0
 43
70.0
  0
MTEXT
  5
7EF3
330
7DDE
100
AcDbEntity
  8
0
  6
ByBlock
440
 16777216
100
AcDbMText
 10
1884.86378355942
 20
2950.227666957891
 30
0.0
 40
105.0
 41
0.0
 46
0.0
 71
     5
 72
     5
  1
\A1;2550
 73
     1
 44
1.0
  0
POINT
  5
7EF4
330
7DDE
100
AcDbEntity
  8
DEFPOINTS
  6
ByBlock
 62
     0
440
 16777216
100
AcDbPoint
 10
609.8637835594209
 20
531.4483833038829
 30
0.0
  0
POINT
  5
7EF5
330
7DDE
100
AcDbEntity
  8
DEFPOINTS
  6
ByBlock
 62
     0
440
 16777216
100
AcDbPoint
 10
3159.86378355942
 20
2472.448383303883
 30
0.0
  0
POINT
  5
7EF6
330
7DDE
100
AcDbEntity
  8
DEFPOINTS
  6
ByBlock
 62
     0
440
 16777216
100
AcDbPoint
 10
3159.86378355942
 20
2880.227666957892
 30
0.0
  0
ENDBLK
  5
7EF7
330
7DDE
100
AcDbEntity
  8
0
100
AcDbBlockEnd
  0
BLOCK
  5
7FCD
330
7DF6
100
AcDbEntity
  8
0
100
AcDbBlockBegin
  2
*D21
 70
     1
 10
0.0
 20
0.0
 30
0.0
  3
*D21
  1

  0
LINE
  5
7FCE
330
7DF6
100
AcDbEntity
  8
0
  6
ByBlock
 62
     0
440
 16777216
100
AcDbLine
 10
3077.36378355942
 20
2410.113733374477
 30
0.0
 11
3702.535952589366
 21
2410.113733374477
 31
0.0
  0
LINE
  5
7FCF
330
7DF6
100
AcDbEntity
  8
0
  6
ByBlock
 62
     0
440
 16777216
100
AcDbLine
 10
3077.36378355942
 20
2365.113733374478
 30
0.0
 11
3702.535952589366
 21
2365.113733374478
 31
0.0
  0
LINE
  5
7FD0
330
7DF6
100
AcDbEntity
  8
0
  6
ByBlock
 62
     0
440
 16777216
100
AcDbLine
 10
3667.535952589366
 20
2480.113733374477
 30
0.0
 11
3667.535952589366
 21
2550.113733374477
 31
0.0
  0
LINE
  5
7FD1
330
7DF6
100
AcDbEntity
  8
0
  6
ByBlock
 62
     0
440
 16777216
100
AcDbLine
 10
3667.535952589366
 20
2295.113733374478
 30
0.0
 11
3667.535952589366
 21
2225.113733374477
 31
0.0
  0
MTEXT
  5
7FD2
330
7DF6
100
AcDbEntity
  8
0
  6
ByBlock
 62
     0
440
 16777216
100
AcDbMText
 10
3835.035952589366
 20
2475.556889077925
 30
0.0
 40
105.0
 41
0.0
 46
0.0
 71
     5
 72
     5
  1
\A1;(45)
 11
0.0
 21
1.0
 31
0.0
 73
     1
 44
1.0
  0
LINE
  5
7FD3
330
7DF6
100
AcDbEntity
  8
0
  6
ByBlock
 62
     0
440
 16777216
100
AcDbLine
 10
3667.535952589366
 20
2410.113733374477
 30
0.0
 11
3667.535952589366
 21
2365.113733374478
 31
0.0
  0
INSERT
  5
7FD4
330
7DF6
100
AcDbEntity
  8
0
  6
ByBlock
 62
     0
440
 16777216
100
AcDbBlockReference
  2
_OPEN
 10
3667.535952589366
 20
2410.113733374477
 30
0.0
 41
70.0
 42
70.0
 43
70.0
 50
270.0
  0
INSERT
  5
7FD5
330
7DF6
100
AcDbEntity
  8
0
  6
ByBlock
 62
     0
440
 16777216
100
AcDbBlockReference
  2
_DOT
 10
3667.535952589366
 20
2365.113733374478
 30
0.0
 41
70.0
 42
70.0
 43
70.0
 50
90.0
  0
POINT
  5
7FD6
330
7DF6
100
AcDbEntity
  8
DEFPOINTS
  6
ByBlock
 62
     0
440
 16777216
100
AcDbPoint
 10
3059.86378355942
 20
2410.113733374477
 30
0.0
  0
POINT
  5
7FD7
330
7DF6
100
AcDbEntity
  8
DEFPOINTS
  6
ByBlock
 62
     0
440
 16777216
100
AcDbPoint
 10
3059.86378355942
 20
2365.113733374478
 30
0.0
  0
POINT
  5
7FD8
330
7DF6
100
AcDbEntity
  8
DEFPOINTS
  6
ByBlock
 62
     0
440
 16777216
100
AcDbPoint
 10
3667.535952589366
 20
2365.113733374478
 30
0.0
  0
ENDBLK
  5
7FD9
330
7DF6
100
AcDbEntity
  8
0
100
AcDbBlockEnd
  0
BLOCK
  5
7FC0
330
7E03
100
AcDbEntity
  8
0
100
AcDbBlockBegin
  2
*D22
 70
     1
 10
0.0
 20
0.0
 30
0.0
  3
*D22
  1

  0
LINE
  5
8077
330
7E03
100
AcDbEntity
  8
3
 62
     0
440
 16777216
100
AcDbLine
 10
3391.549795591011
 20
2365.113733374478
 30
0.0
 11
4016.722573095143
 21
2365.113733374478
 31
0.0
  0
LINE
  5
8078
330
7E03
100
AcDbEntity
  8
3
 62
     0
440
 16777216
100
AcDbLine
 10
3391.549795591011
 20
2290.113733374477
 30
0.0
 11
4016.722573095143
 21
2290.113733374477
 31
0.0
  0
LINE
  5
8079
330
7E03
100
AcDbEntity
  8
3
 62
     0
440
 16777216
100
AcDbLine
 10
3981.722573095144
 20
2435.113733374477
 30
0.0
 11
3981.722573095144
 21
2505.113733374477
 31
0.0
  0
LINE
  5
807A
330
7E03
100
AcDbEntity
  8
3
 62
     0
440
 16777216
100
AcDbLine
 10
3981.722573095144
 20
2220.113733374478
 30
0.0
 11
3981.722573095144
 21
1910.113733374477
 31
0.0
  0
LINE
  5
807B
330
7E03
100
AcDbEntity
  8
3
 62
     0
440
 16777216
100
AcDbLine
 10
3981.722573095144
 20
2365.113733374478
 30
0.0
 11
3981.722573095144
 21
2290.113733374477
 31
0.0
  0
INSERT
  5
807C
330
7E03
100
AcDbEntity
  8
3
 62
     0
440
 16777216
100
AcDbBlockReference
  2
_DOT
 10
3981.722573095144
 20
2365.113733374478
 30
0.0
 41
70.0
 42
70.0
 43
70.0
 50
270.0
  0
INSERT
  5
807D
330
7E03
100
AcDbEntity
  8
3
 62
     0
440
 16777216
100
AcDbBlockReference
  2
_OPEN
 10
3981.722573095144
 20
2290.113733374477
 30
0.0
 41
70.0
 42
70.0
 43
70.0
 50
90.0
  0
MTEXT
  5
807E
330
7E03
100
AcDbEntity
  8
3
 62
     0
440
 16777216
100
AcDbMText
 10
3894.222573095143
 20
2030.113733374478
 30
0.0
 40
105.0
 41
0.0
 46
0.0
 71
     5
 72
     5
  1
\A1;75
 11
0.0000000000000001
 21
1.0
 31
0.0
 73
     1
 44
1.0
  0
POINT
  5
807F
330
7E03
100
AcDbEntity
  8
DEFPOINTS
 62
     0
440
 16777216
100
AcDbPoint
 10
3374.049795591011
 20
2365.113733374478
 30
0.0
  0
POINT
  5
8080
330
7E03
100
AcDbEntity
  8
DEFPOINTS
 62
     0
440
 16777216
100
AcDbPoint
 10
3374.049795591011
 20
2290.113733374477
 30
0.0
  0
POINT
  5
8081
330
7E03
100
AcDbEntity
  8
DEFPOINTS
 62
     0
440
 16777216
100
AcDbPoint
 10
3981.722573095144
 20
2290.113733374477
 30
0.0
  0
ENDBLK
  5
7FCC
330
7E03
100
AcDbEntity
  8
0
100
AcDbBlockEnd
  0
BLOCK
  5
7FAF
330
7FA9
100
AcDbEntity
  8
0
100
AcDbBlockBegin
  2
_DOT
 70
     0
 10
0.0
 20
0.0
 30
0.0
  3
_DOT
  1

  0
LWPOLYLINE
  5
7FAA
330
7FA9
100
AcDbEntity
  8
0
  6
ByBlock
 62
     0
100
AcDbPolyline
 90
        2
 70
     1
 43
0.25
 10
-0.125
 20
0.0
 42
1.0
 10
0.125
 20
0.0
 42
1.0
  0
LINE
  5
7FAE
330
7FA9
100
AcDbEntity
  8
0
  6
ByBlock
 62
     0
100
AcDbLine
 10
-0.25
 20
0.0
 30
0.0
 11
-1.0
 21
0.0
 31
0.0
  0
ENDBLK
  5
7FB0
330
7FA9
100
AcDbEntity
  8
0
100
AcDbBlockEnd
  0
BLOCK
  5
802D
330
802C
100
AcDbEntity
  8
0
100
AcDbBlockBegin
  2
*D24
 70
     1
 10
0.0
 20
0.0
 30
0.0
  3
*D24
  1

  0
LINE
  5
802E
330
802C
100
AcDbEntity
  8
0
  6
ByBlock
 62
     0
440
 16777216
100
AcDbLine
 10
3491.549795591011
 20
4448.113733374477
 30
0.0
 11
4301.516176095137
 21
4448.113733374477
 31
0.0
  0
LINE
  5
802F
330
802C
100
AcDbEntity
  8
0
  6
ByBlock
 62
     0
440
 16777216
100
AcDbLine
 10
3391.549795591011
 20
2290.113733374477
 30
0.0
 11
4301.516176095137
 21
2290.113733374477
 31
0.0
  0
LINE
  5
8030
330
802C
100
AcDbEntity
  8
0
  6
ByBlock
 62
     0
440
 16777216
100
AcDbLine
 10
4266.516176095137
 20
4378.113733374477
 30
0.0
 11
4266.516176095137
 21
2360.113733374477
 31
0.0
  0
INSERT
  5
8031
330
802C
100
AcDbEntity
  8
0
  6
ByBlock
 62
     0
440
 16777216
100
AcDbBlockReference
  2
_OPEN
 10
4266.516176095137
 20
4448.113733374477
 30
0.0
 41
70.0
 42
70.0
 43
70.0
 50
90.0
  0
INSERT
  5
8032
330
802C
100
AcDbEntity
  8
0
  6
ByBlock
 62
     0
440
 16777216
100
AcDbBlockReference
  2
_OPEN
 10
4266.516176095137
 20
2290.113733374477
 30
0.0
 41
70.0
 42
70.0
 43
70.0
 50
270.0
  0
MTEXT
  5
8033
330
802C
100
AcDbEntity
  8
0
  6
ByBlock
 62
     0
440
 16777216
100
AcDbMText
 10
4151.516176095138
 20
3369.113733374478
 30
0.0
 40
105.0
 41
0.0
 46
0.0
 71
     5
 72
     5
  1
\A1;(2158)
 11
0.0
 21
1.0
 31
0.0
 73
     1
 44
1.0
  0
POINT
  5
8034
330
802C
100
AcDbEntity
  8
DEFPOINTS
  6
ByBlock
 62
     0
440
 16777216
100
AcDbPoint
 10
3474.049795591011
 20
4448.113733374477
 30
0.0
  0
POINT
  5
8035
330
802C
100
AcDbEntity
  8
DEFPOINTS
  6
ByBlock
 62
     0
440
 16777216
100
AcDbPoint
 10
3374.049795591011
 20
2290.113733374477
 30
0.0
  0
POINT
  5
8036
330
802C
100
AcDbEntity
  8
DEFPOINTS
  6
ByBlock
 62
     0
440
 16777216
100
AcDbPoint
 10
4266.516176095137
 20
2290.113733374477
 30
0.0
  0
ENDBLK
  5
8037
330
802C
100
AcDbEntity
  8
0
100
AcDbBlockEnd
  0
ENDSEC
  0
SECTION
  2
ENTITIES
  0
INSERT
  5
7C18
330
19
100
AcDbEntity
  8
0
100
AcDbBlockReference
  2
YA_N
 10
6.0
 20
5.0
 30
0.0
  0
LINE
  5
7C1A
330
19
100
AcDbEntity
  8
2
100
AcDbLine
 10
3620.830447043987
 20
3250.113733374477
 30
0.0
 11
1647.675454477339
 21
3250.113733374477
 31
0.0
  0
LINE
  5
7C1B
330
19
100
AcDbEntity
  8
2
100
AcDbLine
 10
2714.049795591011
 20
2290.113733374477
 30
0.0
 11
2714.049795591011
 21
4657.296059540305
 31
0.0
  0
LINE
  5
7C1C
330
19
100
AcDbEntity
  8
1
100
AcDbLine
 10
3474.049795591011
 20
3245.113733374477
 30
0.0
 11
3474.049795591011
 21
4501.113733374477
 31
0.0
  0
LINE
  5
7C1D
330
19
100
AcDbEntity
  8
1
100
AcDbLine
 10
3474.049795591011
 20
4501.113733374477
 30
0.0
 11
3470.049795591011
 21
4501.113733374477
 31
0.0
  0
LINE
  5
7C1E
330
19
100
AcDbEntity
  8
1
100
AcDbLine
 10
3474.049795591011
 20
3245.113733374477
 30
0.0
 11
3470.049795591011
 21
3245.113733374477
 31
0.0
  0
LINE
  5
7C1F
330
19
100
AcDbEntity
  8
1
100
AcDbLine
 10
3424.049795591011
 20
3298.113733374478
 30
0.0
 11
3424.049795591011
 21
4443.62664513904
 31
0.0
  0
LINE
  5
7C20
330
19
100
AcDbEntity
  8
1
100
AcDbLine
 10
3470.049795591011
 20
3245.113733374477
 30
0.0
 11
3470.049795591011
 21
4501.113733374477
 31
0.0
  0
LINE
  5
7C21
330
19
100
AcDbEntity
  8
1
100
AcDbLine
 10
3374.049795591011
 20
2410.113733374477
 30
0.0
 11
924.0497955910104
 21
2410.113733374477
 31
0.0
1001
ACAD
1000
ASC_BOUNDS
1002
{
1070
    19
1002
}
  0
LINE
  5
7C22
330
19
100
AcDbEntity
  8
1
100
AcDbLine
 10
3374.049795591011
 20
2560.113733374477
 30
0.0
 11
3374.049795591011
 21
2410.113733374477
 31
0.0
  0
LINE
  5
7C23
330
19
100
AcDbEntity
  8
1
100
AcDbLine
 10
924.0497955910104
 20
2560.113733374477
 30
0.0
 11
924.0497955910104
 21
2410.113733374477
 31
0.0
  0
LINE
  5
7C24
330
19
100
AcDbEntity
  8
1
100
AcDbLine
 10
3374.049795591011
 20
2560.113733374477
 30
0.0
 11
924.0497955910104
 21
2560.113733374477
 31
0.0
  0
ARC
  5
7C25
330
19
100
AcDbEntity
  8
1
100
AcDbCircle
 10
2796.049795591011
 20
3332.113733374477
 30
0.0
 40
1051.0
100
AcDbArc
 50
94.47481789853384
 51
184.4748178985338
  0
ARC
  5
7C26
330
19
100
AcDbEntity
  8
1
100
AcDbCircle
 10
2632.049795591011
 20
3332.113733374477
 30
0.0
 40
887.0
100
AcDbArc
 50
185.3043652077958
 51
240.4992782288542
  0
ARC
  5
7C27
330
19
100
AcDbEntity
  8
1
100
AcDbCircle
 10
2645.549795591011
 20
3181.613733374478
 30
0.0
 40
736.5
100
AcDbArc
 50
302.4504197546515
 51
5.336648321383474
  0
LINE
  5
7C28
330
19
100
AcDbEntity
  8
1
100
AcDbLine
 10
3474.049795591011
 20
4448.113733374477
 30
0.0
 11
2714.049795591011
 21
4379.909992195819
 31
0.0
  0
LINE
  5
7C29
330
19
100
AcDbEntity
  8
1
100
AcDbLine
 10
3474.049795591011
 20
3298.113733374478
 30
0.0
 11
3370.621219824496
 21
3298.113733374478
 31
0.0
  0
LINE
  5
7C2A
330
19
100
AcDbEntity
  8
2
100
AcDbLine
 10
1214.04979559101
 20
3108.972009530422
 30
0.0
 11
1214.049795591012
 21
2290.113733374477
 31
0.0
  0
LINE
  5
7C2B
330
19
100
AcDbEntity
  8
2
100
AcDbLine
 10
1449.37609044999
 20
2820.113733374478
 30
0.0
 11
940.9029701926556
 21
2820.113733374478
 31
0.0
  0
LINE
  5
7C2C
330
19
100
AcDbEntity
  8
1
100
AcDbLine
 10
4571.752841307517
 20
2410.113733374477
 30
0.0
 11
4646.752841307518
 21
2410.113733374477
 31
0.0
1001
ACAD
1000
ASC_BOUNDS
1002
{
1070
    19
1002
}
  0
LINE
  5
7C2D
330
19
100
AcDbEntity
  8
1
100
AcDbLine
 10
4571.752841307517
 20
2560.113733374477
 30
0.0
 11
6471.752841307505
 21
2560.113733374477
 31
0.0
  0
LINE
  5
7C2E
330
19
100
AcDbEntity
  8
1
100
AcDbLine
 10
4571.752841307517
 20
2560.113733374477
 30
0.0
 11
4571.752841307517
 21
2410.113733374477
 31
0.0
  0
LINE
  5
7C2F
330
19
100
AcDbEntity
  8
1
100
AcDbLine
 10
4646.752841307518
 20
2410.113733374477
 30
0.0
 11
6471.752841307505
 21
2410.113733374477
 31
0.0
1001
ACAD
1000
ASC_BOUNDS
1002
{
1070
    19
1002
}
  0
LINE
  5
7C30
330
19
100
AcDbEntity
  8
2
100
AcDbLine
 10
4536.576091240408
 20
3250.113733374477
 30
0.0
 11
6568.740828384246
 21
3250.113733374477
 31
0.0
  0
LINE
  5
7C31
330
19
100
AcDbEntity
  8
1
100
AcDbLine
 10
4558.752841307505
 20
3407.613733374478
 30
0.0
 11
4558.752841307505
 21
2702.113733374478
 31
0.0
  0
LINE
  5
7C32
330
19
100
AcDbEntity
  8
1
100
AcDbLine
 10
4669.252841307505
 20
3407.613733374478
 30
0.0
 11
4669.252841307505
 21
2702.113733374478
 31
0.0
  0
LINE
  5
7C33
330
19
100
AcDbEntity
  8
2
100
AcDbLine
 10
4537.833902088375
 20
2820.113733374478
 30
0.0
 11
4893.752841307505
 21
2820.113733374478
 31
0.0
  0
LINE
  5
7C34
330
19
100
AcDbEntity
  8
1
100
AcDbLine
 10
4443.752841307504
 20
3470.113733374478
 30
0.0
 11
4443.752841307504
 21
2600.113733374477
 31
0.0
  0
LINE
  5
7C35
330
19
100
AcDbEntity
  8
1
100
AcDbLine
 10
4721.052841307504
 20
3470.113733374478
 30
0.0
 11
4721.052841307504
 21
3416.311022230604
 31
0.0
  0
LINE
  5
7C36
330
19
100
AcDbEntity
  8
2
100
AcDbLine
 10
2714.049795591011
 20
7661.215562977445
 30
0.0
 11
2714.049795591011
 21
5529.508902907943
 31
0.0
  0
LINE
  5
7C37
330
19
100
AcDbEntity
  8
2
100
AcDbLine
 10
3588.156063981078
 20
6729.508902907944
 30
0.0
 11
1745.04979559101
 21
6729.508902907944
 31
0.0
  0
LINE
  5
7C38
330
19
100
AcDbEntity
  8
2
100
AcDbLine
 10
5643.752841307505
 20
4657.296059540305
 30
0.0
 11
5643.752841307505
 21
2290.113733374477
 31
0.0
  0
POINT
  5
7C39
330
19
100
AcDbEntity
  8
1
100
AcDbPoint
 10
3515.25135808963
 20
3250.113733374477
 30
0.0
  0
INSERT
  5
7C3A
330
19
100
AcDbEntity
  8
0
100
AcDbBlockReference
  2
YA_N
 10
-1074.779326041183
 20
-1311.669320613289
 30
0.0
 41
25.0
 42
25.0
 43
25.0
  0
LINE
  5
7C3C
330
19
100
AcDbEntity
  8
1
100
AcDbLine
 10
3374.049795591011
 20
2365.113733374478
 30
0.0
 11
924.0497955910104
 21
2365.113733374478
 31
0.0
1001
ACAD
1000
ASC_BOUNDS
1002
{
1070
    19
1002
}
  0
LINE
  5
7C3D
330
19
100
AcDbEntity
  8
1
100
AcDbLine
 10
3374.049795591011
 20
2365.113733374478
 30
0.0
 11
3374.049795591011
 21
2290.113733374477
 31
0.0
  0
LINE
  5
7C3E
330
19
100
AcDbEntity
  8
1
100
AcDbLine
 10
924.0497955910104
 20
2365.113733374478
 30
0.0
 11
924.0497955910104
 21
2290.113733374477
 31
0.0
  0
LINE
  5
7C3F
330
19
100
AcDbEntity
  8
1
100
AcDbLine
 10
3374.049795591011
 20
2290.113733374477
 30
0.0
 11
924.0497955910104
 21
2290.113733374477
 31
0.0
1001
ACAD
1000
ASC_BOUNDS
1002
{
1070
    19
1002
}
  0
LINE
  5
7C40
330
19
100
AcDbEntity
  8
1
100
AcDbLine
 10
4571.752841307517
 20
2365.113733374478
 30
0.0
 11
6471.752841307505
 21
2365.113733374478
 31
0.0
1001
ACAD
1000
ASC_BOUNDS
1002
{
1070
    19
1002
}
  0
LINE
  5
7C41
330
19
100
AcDbEntity
  8
1
100
AcDbLine
 10
4571.752841307517
 20
2365.113733374478
 30
0.0
 11
4571.752841307505
 21
2290.113733374477
 31
0.0
  0
LINE
  5
7C42
330
19
100
AcDbEntity
  8
1
100
AcDbLine
 10
6471.752841307505
 20
2365.113733374478
 30
0.0
 11
6471.752841307481
 21
2290.113733374477
 31
0.0
  0
LINE
  5
7C43
330
19
100
AcDbEntity
  8
1
100
AcDbLine
 10
4571.752841307505
 20
2290.113733374477
 30
0.0
 11
6471.752841307486
 21
2290.113733374477
 31
0.0
  0
INSERT
  5
7C44
330
19
100
AcDbEntity
  8
0
100
AcDbBlockReference
  2
YA_N
 10
-346.941647642394
 20
-375.8074592043958
 30
0.0
 41
25.0
 42
25.0
 43
25.0
  0
DIMENSION
  5
7C46
330
19
100
AcDbEntity
  8
3
100
AcDbDimension
280
     0
  2
*D2
 10
3674.158111875277
 20
3298.113733374478
 30
0.0
 11
3604.158111875277
 21
3873.113733374477
 31
0.0
 12
314.1860120315905
 22
2028.665350070594
 32
0.0
 70
    32
 71
     5
 42
-1.0
 73
     0
 74
     0
 75
     0
  3
MATSU
100
AcDbAlignedDimension
 13
3474.049795591011
 23
4448.113733374477
 33
0.0
 14
3474.049795591011
 24
3298.113733374478
 34
0.0
 50
270.0
100
AcDbRotatedDimension
1001
ACAD
1000
DSTYLE
1002
{
1070
    40
1040
35.0
1002
}
  0
DIMENSION
  5
7C47
330
19
100
AcDbEntity
  8
3
100
AcDbDimension
280
     0
  2
*D3
 10
3979.99546360561
 20
3250.113733374477
 30
0.0
 11
3909.995463605611
 21
3849.113733374478
 31
0.0
 12
314.1860120315905
 22
2028.665350070594
 32
0.0
 70
    32
 71
     5
 42
-1.0
 73
     0
 74
     0
 75
     0
  3
MATSU
100
AcDbAlignedDimension
 13
3474.049795591011
 23
4448.113733374477
 33
0.0
 14
3559.888796489744
 24
3250.113733374477
 34
0.0
 50
270.0
100
AcDbRotatedDimension
1001
ACAD
1000
DSTYLE
1002
{
1070
    40
1040
35.0
1002
}
  0
DIMENSION
  5
7C48
330
19
100
AcDbEntity
  8
3
100
AcDbDimension
280
     0
  2
*D4
 10
2714.049795591011
 20
2091.333925817048
 30
0.0
 11
3044.049795591011
 21
2161.333925817047
 31
0.0
 12
314.1860120315905
 22
2028.665350070594
 32
0.0
 70
    32
 71
     5
 42
-1.0
 73
     0
 74
     0
 75
     0
  3
MATSU
100
AcDbAlignedDimension
 13
3374.049795591011
 23
2290.113733374477
 33
0.0
 14
2714.049795591011
 24
2290.113733374477
 34
0.0
100
AcDbRotatedDimension
1001
ACAD
1000
DSTYLE
1002
{
1070
    40
1040
35.0
1002
}
  0
ARC
  5
7C49
330
19
100
AcDbEntity
  8
1
100
AcDbCircle
 10
2782.549795591011
 20
3181.613733374478
 30
0.0
 40
599.5
100
AcDbArc
 50
6.561053542833476
 51
11.2055053685536
  0
ARC
  5
7C4A
330
19
100
AcDbEntity
  8
1
100
AcDbCircle
 10
1214.04979559101
 20
2820.113733374478
 30
0.0
 40
203.5
100
AcDbArc
 50
285.6036990000001
 51
254.39624
  0
LINE
  5
7C4B
330
19
100
AcDbEntity
  8
1
100
AcDbLine
 10
1159.311758591011
 20
2624.113733374477
 30
0.0
 11
1268.787832591011
 21
2624.113733374477
 31
0.0
  0
ARC
  5
7C4C
330
19
100
AcDbEntity
  8
1
100
AcDbCircle
 10
1400.04979559101
 20
2637.113733374477
 30
0.0
 40
3.0
100
AcDbArc
 50
0.0
 51
90.0
  0
ARC
  5
7C4D
330
19
100
AcDbEntity
  8
1
100
AcDbCircle
 10
1398.04979559101
 20
2694.440394374478
 30
0.0
 40
5.000066999999999
100
AcDbArc
 50
0.0
 51
55.056335
  0
LINE
  5
7C4E
330
19
100
AcDbEntity
  8
1
100
AcDbLine
 10
1403.04979559101
 20
2694.440394374478
 30
0.0
 11
1403.04979559101
 21
2620.113733374477
 31
0.0
  0
LINE
  5
7C52
330
19
100
AcDbEntity
  8
1
100
AcDbLine
 10
1318.152365591011
 20
2645.256922374478
 30
0.0
 11
1323.54979559101
 21
2625.113733374477
 31
0.0
  0
LINE
  5
7C53
330
19
100
AcDbEntity
  8
1
100
AcDbLine
 10
1323.54979559101
 20
2637.113733374477
 30
0.0
 11
1323.54979559101
 21
2620.113733374477
 31
0.0
  0
LINE
  5
7C54
330
19
100
AcDbEntity
  8
1
100
AcDbLine
 10
1326.54979559101
 20
2640.113733374477
 30
0.0
 11
1400.04979559101
 21
2640.113733374477
 31
0.0
  0
ARC
  5
7C55
330
19
100
AcDbEntity
  8
1
100
AcDbCircle
 10
1326.54979559101
 20
2637.113733374477
 30
0.0
 40
3.0
100
AcDbArc
 50
90.0
 51
180.0
  0
LINE
  5
7C56
330
19
100
AcDbEntity
  8
1
100
AcDbLine
 10
1400.91356559101
 20
2698.539026374478
 30
0.0
 11
1384.97569959101
 21
2709.675501374477
 31
0.0
  0
LINE
  5
7C57
330
19
100
AcDbEntity
  8
1
100
AcDbLine
 10
1025.04979559101
 20
2694.440394374478
 30
0.0
 11
1025.04979559101
 21
2620.113733374477
 31
0.0
  0
LINE
  5
7C5B
330
19
100
AcDbEntity
  8
1
100
AcDbLine
 10
1109.947012591012
 20
2645.257044374477
 30
0.0
 11
1104.54979559101
 21
2625.113733374477
 31
0.0
  0
LINE
  5
7C5C
330
19
100
AcDbEntity
  8
1
100
AcDbLine
 10
1104.54979559101
 20
2637.113733374477
 30
0.0
 11
1104.54979559101
 21
2620.113733374477
 31
0.0
  0
LINE
  5
7C5D
330
19
100
AcDbEntity
  8
1
100
AcDbLine
 10
1101.54979559101
 20
2640.113733374477
 30
0.0
 11
1028.04979559101
 21
2640.113733374477
 31
0.0
  0
ARC
  5
7C5E
330
19
100
AcDbEntity
  8
1
100
AcDbCircle
 10
1101.54979559101
 20
2637.113733374477
 30
0.0
 40
3.0
100
AcDbArc
 50
0.0
 51
90.0
  0
ARC
  5
7C5F
330
19
100
AcDbEntity
  8
1
100
AcDbCircle
 10
1028.04979559101
 20
2637.113733374477
 30
0.0
 40
3.0
100
AcDbArc
 50
90.0
 51
180.0
  0
LINE
  5
7C60
330
19
100
AcDbEntity
  8
1
100
AcDbLine
 10
1027.185904591011
 20
2698.539026374478
 30
0.0
 11
1043.123770591011
 21
2709.675501374477
 31
0.0
  0
ARC
  5
7C61
330
19
100
AcDbEntity
  8
1
100
AcDbCircle
 10
1030.04979559101
 20
2694.440394374478
 30
0.0
 40
5.0
100
AcDbArc
 50
124.943661
 51
180.0
  0
LINE
  5
7C62
330
19
100
AcDbEntity
  8
1
100
AcDbLine
 10
1458.1120516391
 20
2620.113733374477
 30
0.0
 11
1284.04979559101
 21
2620.113733374477
 31
0.0
  0
LINE
  5
7C63
330
19
100
AcDbEntity
  8
1
100
AcDbLine
 10
1474.049795591012
 20
2560.113733374477
 30
0.0
 11
1458.112051639102
 21
2620.113733374477
 31
0.0
  0
LINE
  5
7C64
330
19
100
AcDbEntity
  8
1
100
AcDbLine
 10
954.0497955910122
 20
2560.113733374477
 30
0.0
 11
970.0348054973765
 21
2620.113733374477
 31
0.0
  0
LINE
  5
7C66
330
19
100
AcDbEntity
  8
1
100
AcDbLine
 10
1284.04979559101
 20
2610.113733374478
 30
0.0
 11
1144.04979559101
 21
2610.113733374478
 31
0.0
  0
LINE
  5
7C67
330
19
100
AcDbEntity
  8
1
100
AcDbLine
 10
1144.04979559101
 20
2620.113733374477
 30
0.0
 11
1144.049795591012
 21
2610.113733374478
 31
0.0
  0
LINE
  5
7C68
330
19
100
AcDbEntity
  8
1
100
AcDbLine
 10
1284.04979559101
 20
2620.113733374477
 30
0.0
 11
1284.04979559101
 21
2610.113733374478
 31
0.0
  0
LINE
  5
7C6B
330
19
100
AcDbEntity
  8
1
100
AcDbLine
 10
1144.04979559101
 20
2620.113733374477
 30
0.0
 11
970.0348054973765
 21
2620.113733374477
 31
0.0
  0
CIRCLE
  5
7C6E
330
19
100
AcDbEntity
  8
1
100
AcDbCircle
 10
1214.04979559101
 20
2820.113733374478
 30
0.0
 40
118.0
  0
CIRCLE
  5
7C6F
330
19
100
AcDbEntity
  8
1
100
AcDbCircle
 10
2714.049795591011
 20
3250.113733374477
 30
0.0
 40
157.5
  0
LINE
  5
7C70
330
19
100
AcDbEntity
  8
1
100
AcDbLine
 10
4558.752841307505
 20
2938.113733374478
 30
0.0
 11
4669.252841307505
 21
2938.113733374478
 31
0.0
  0
LINE
  5
7C71
330
19
100
AcDbEntity
  8
1
100
AcDbLine
 10
4558.752841307505
 20
2702.113733374478
 30
0.0
 11
4669.252841307505
 21
2702.113733374478
 31
0.0
  0
LINE
  5
7C72
330
19
100
AcDbEntity
  8
1
100
AcDbLine
 10
4558.752841307505
 20
3407.613733374478
 30
0.0
 11
4669.252841307505
 21
3407.613733374478
 31
0.0
  0
LINE
  5
7C73
330
19
100
AcDbEntity
  8
1
100
AcDbLine
 10
4558.752841307505
 20
3092.613733374478
 30
0.0
 11
4669.252841307505
 21
3092.613733374478
 31
0.0
  0
LINE
  5
7C74
330
19
100
AcDbEntity
  8
1
100
AcDbLine
 10
4443.752841307504
 20
3470.113733374478
 30
0.0
 11
4721.052841307504
 21
3470.113733374478
 31
0.0
  0
LINE
  5
7C75
330
19
100
AcDbEntity
  8
1
100
AcDbLine
 10
4443.752841307504
 20
2600.113733374477
 30
0.0
 11
4721.052841307504
 21
2600.113733374477
 31
0.0
  0
LINE
  5
7C76
330
19
100
AcDbEntity
  8
1
100
AcDbLine
 10
5640.752841307506
 20
2691.113733374477
 30
0.0
 11
5646.752841307507
 21
2691.113733374477
 31
0.0
  0
POINT
  5
7C77
330
19
100
AcDbEntity
  8
1
100
AcDbPoint
 10
3374.049795591011
 20
2365.113733374478
 30
0.0
  0
POINT
  5
7C78
330
19
100
AcDbEntity
  8
1
100
AcDbPoint
 10
3374.049795591011
 20
2410.113733374477
 30
0.0
  0
POINT
  5
7C79
330
19
100
AcDbEntity
  8
1
100
AcDbPoint
 10
3374.049795591011
 20
2365.113733374478
 30
0.0
  0
POINT
  5
7C7A
330
19
100
AcDbEntity
  8
1
100
AcDbPoint
 10
3374.049795591011
 20
2290.113733374477
 30
0.0
  0
INSERT
  5
7C7B
330
19
100
AcDbEntity
  8
0
100
AcDbBlockReference
  2
YA_N
 10
-394.4722692372307
 20
-430.8984299984331
 30
0.0
 41
25.0
 42
25.0
 43
25.0
  0
LINE
  5
7C7D
330
19
100
AcDbEntity
  8
1
100
AcDbLine
 10
2073.04979559101
 20
4100.113733374477
 30
0.0
 11
2064.049795591012
 21
4100.113733374477
 31
0.0
  0
DIMENSION
  5
7C7E
330
19
100
AcDbEntity
  8
3
100
AcDbDimension
280
     0
  2
*D5
 10
3981.722573095144
 20
2410.113733374477
 30
0.0
 11
3911.722573095143
 21
2830.113733374478
 31
0.0
 12
314.1860120315905
 22
2028.665350070594
 32
0.0
 70
    32
 71
     5
 42
-1.0
 73
     0
 74
     0
 75
     0
  3
MATSU
100
AcDbAlignedDimension
 13
3559.888796489744
 23
3250.113733374477
 33
0.0
 14
3374.049795591011
 24
2410.113733374477
 34
0.0
 50
270.0
100
AcDbRotatedDimension
1001
ACAD
1000
DSTYLE
1002
{
1070
    40
1040
35.0
1002
}
  0
POINT
  5
7C7F
330
19
100
AcDbEntity
  8
1
100
AcDbPoint
 10
3374.049795591011
 20
2365.113733374478
 30
0.0
  0
POINT
  5
7C80
330
19
100
AcDbEntity
  8
1
100
AcDbPoint
 10
3374.049795591011
 20
2290.113733374477
 30
0.0
  0
POINT
  5
7C81
330
19
100
AcDbEntity
  8
1
100
AcDbPoint
 10
3374.049795591011
 20
2365.113733374478
 30
0.0
  0
POINT
  5
7C82
330
19
100
AcDbEntity
  8
1
100
AcDbPoint
 10
3374.049795591011
 20
2410.113733374477
 30
0.0
  0
LINE
  5
7C83
330
19
100
AcDbEntity
  8
1
100
AcDbLine
 10
4893.752841307505
 20
4448.113733374477
 30
0.0
 11
6393.752841307505
 21
4448.113733374477
 31
0.0
  0
DIMENSION
  5
7C84
330
19
100
AcDbEntity
  8
3
100
AcDbDimension
280
     0
  2
*D6
 10
2714.049795591011
 20
4704.447120300934
 30
0.0
 11
3094.049795591011
 21
4774.447120300934
 31
0.0
 12
314.1860120315905
 22
2028.665350070594
 32
0.0
 70
    32
 71
     5
 42
-1.0
 73
     0
 74
     0
 75
     0
  3
MATSU
100
AcDbAlignedDimension
 13
3474.049795591011
 23
4501.113733374477
 33
0.0
 14
2714.049795591011
 24
4657.296059540305
 34
0.0
100
AcDbRotatedDimension
1001
ACAD
1000
DSTYLE
1002
{
1070
    40
1040
35.0
1002
}
  0
DIMENSION
  5
7C85
330
19
100
AcDbEntity
  8
3
100
AcDbDimension
280
     0
  2
*D7
 10
1748.848233092392
 20
4704.447120300934
 30
0.0
 11
2231.449014341702
 21
4774.447120300934
 31
0.0
 12
314.1860120315905
 22
2028.665350070594
 32
0.0
 70
    32
  1
969
 71
     5
 42
-1.0
 73
     0
 74
     0
 75
     0
  3
MATSU
100
AcDbAlignedDimension
 13
2714.049795591011
 23
4657.296059540305
 33
0.0
 14
1748.848233092392
 24
3250.113733374477
 34
0.0
100
AcDbRotatedDimension
1001
ACAD
1000
DSTYLE
1002
{
1070
    40
1040
35.0
1002
}
  0
LINE
  5
7C86
330
19
100
AcDbEntity
  8
1
100
AcDbLine
 10
4893.752841307505
 20
2560.113733374477
 30
0.0
 11
4893.752841307505
 21
4448.113733374477
 31
0.0
  0
LINE
  5
7C87
330
19
100
AcDbEntity
  8
1
100
AcDbLine
 10
6393.752841307505
 20
2560.113733374477
 30
0.0
 11
6393.752841307505
 21
4448.113733374477
 31
0.0
  0
DIMENSION
  5
7C88
330
19
100
AcDbEntity
  8
3
100
AcDbDimension
280
     0
  2
*D8
 10
2714.049795591011
 20
2090.540133466493
 30
0.0
 11
1819.04979559101
 21
2160.540133466493
 31
0.0
 12
314.1860120315905
 22
2028.665350070594
 32
0.0
 70
    32
 71
     5
 42
-1.0
 73
     0
 74
     0
 75
     0
  3
MATSU
100
AcDbAlignedDimension
 13
924.0497955910104
 23
2290.113733374477
 33
0.0
 14
2714.049795591011
 24
2290.113733374477
 34
0.0
100
AcDbRotatedDimension
1001
ACAD
1000
DSTYLE
1002
{
1070
    40
1040
35.0
1002
}
  0
LINE
  5
7C8A
330
19
100
AcDbEntity
  8
1
100
AcDbLine
 10
4736.252841307505
 20
3187.113733374477
 30
0.0
 11
4826.452841307506
 21
3187.113733374477
 31
0.0
  0
LINE
  5
7C8B
330
19
100
AcDbEntity
  8
1
100
AcDbLine
 10
4726.252841307505
 20
3177.113733374478
 30
0.0
 11
4726.252841307505
 21
3047.113733374477
 31
0.0
  0
LINE
  5
7C8C
330
19
100
AcDbEntity
  8
1
100
AcDbLine
 10
4866.252841307505
 20
3187.113733374477
 30
0.0
 11
4866.252841307503
 21
3037.113733374477
 31
0.0
  0
LINE
  5
7C8D
330
19
100
AcDbEntity
  8
1
100
AcDbLine
 10
4736.252841307505
 20
3037.113733374477
 30
0.0
 11
4826.452841307506
 21
3037.113733374477
 31
0.0
  0
ARC
  5
7C8E
330
19
100
AcDbEntity
  8
1
100
AcDbCircle
 10
4736.252841307505
 20
3177.113733374478
 30
0.0
 40
10.0
100
AcDbArc
 50
90.0
 51
180.0
  0
ARC
  5
7C8F
330
19
100
AcDbEntity
  8
1
100
AcDbCircle
 10
4736.252841307505
 20
3047.113733374477
 30
0.0
 40
10.0
100
AcDbArc
 50
180.0
 51
270.0
  0
LINE
  5
7C90
330
19
100
AcDbEntity
  8
1
100
AcDbLine
 10
6436.252841307505
 20
3187.113733374477
 30
0.0
 11
6436.252841307505
 21
3037.113733374477
 31
0.0
  0
LINE
  5
7C91
330
19
100
AcDbEntity
  8
1
100
AcDbLine
 10
6576.252841307504
 20
3177.113733374478
 30
0.0
 11
6576.252841307504
 21
3047.113733374477
 31
0.0
  0
LINE
  5
7C92
330
19
100
AcDbEntity
  8
1
100
AcDbLine
 10
6566.252841307505
 20
3037.113733374477
 30
0.0
 11
6476.052841307508
 21
3037.113733374477
 31
0.0
  0
ARC
  5
7C93
330
19
100
AcDbEntity
  8
1
100
AcDbCircle
 10
6566.252841307505
 20
3047.113733374477
 30
0.0
 40
10.0
100
AcDbArc
 50
270.0
 51
0.0
  0
LINE
  5
7C94
330
19
100
AcDbEntity
  8
1
100
AcDbLine
 10
6566.252841307505
 20
3187.113733374477
 30
0.0
 11
6476.052841307508
 21
3187.113733374477
 31
0.0
  0
ARC
  5
7C95
330
19
100
AcDbEntity
  8
1
100
AcDbCircle
 10
6566.252841307505
 20
3177.113733374478
 30
0.0
 40
10.0
100
AcDbArc
 50
0.0
 51
90.0
  0
LINE
  5
7C96
330
19
100
AcDbEntity
  8
1
100
AcDbLine
 10
4698.752841307505
 20
3290.113733374477
 30
0.0
 11
4893.752841307505
 21
3290.113733374477
 31
0.0
  0
LINE
  5
7C97
330
19
100
AcDbEntity
  8
1
100
AcDbLine
 10
4698.752841307505
 20
3210.113733374477
 30
0.0
 11
4893.752841307505
 21
3210.113733374477
 31
0.0
  0
LINE
  5
7C98
330
19
100
AcDbEntity
  8
1
100
AcDbLine
 10
4698.752841307505
 20
3290.113733374477
 30
0.0
 11
4698.752841307505
 21
3210.113733374477
 31
0.0
  0
LINE
  5
7C99
330
19
100
AcDbEntity
  8
1
100
AcDbLine
 10
4669.252841307505
 20
3282.613733374478
 30
0.0
 11
4698.752841307505
 21
3282.613733374478
 31
0.0
  0
LINE
  5
7C9A
330
19
100
AcDbEntity
  8
1
100
AcDbLine
 10
4669.252841307505
 20
3217.613733374478
 30
0.0
 11
4698.752841307505
 21
3217.613733374478
 31
0.0
  0
LINE
  5
7C9B
330
19
100
AcDbEntity
  8
1
100
AcDbLine
 10
5643.752841307505
 20
4868.031138247654
 30
0.0
 11
5643.752841307505
 21
4818.442015326666
 31
0.0
  0
DIMENSION
  5
7C9C
330
19
100
AcDbEntity
  8
3
100
AcDbDimension
280
     0
  2
*D9
 10
5643.752841307505
 20
4899.909864110824
 30
0.0
 11
5043.752841307505
 21
4997.409864110824
 31
0.0
 70
    32
  1
(<>)
 71
     5
 42
1200.000000000001
 73
     0
 74
     0
 75
     0
  3
MATSU
100
AcDbAlignedDimension
 13
4443.752841307504
 23
3470.113733374478
 33
0.0
 14
5643.752841307505
 24
4868.031138247654
 34
0.0
100
AcDbRotatedDimension
1001
ACAD
1000
DSTYLE
1002
{
1070
    40
1040
35.0
1002
}
  0
DIMENSION
  5
7C9D
330
19
100
AcDbEntity
  8
3
100
AcDbDimension
280
     0
  2
*D10
 10
6573.752841307501
 20
4899.56073281985
 30
0.0
 11
6108.752841307503
 21
4997.06073281985
 31
0.0
 70
    32
  1
(<>)
 71
     5
 42
929.9999999999963
 73
     0
 74
     0
 75
     0
  3
MATSU
100
AcDbAlignedDimension
 13
5643.752841307505
 23
4868.031138247654
 33
0.0
 14
6573.752841307501
 24
3160.603244713181
 34
0.0
100
AcDbRotatedDimension
1001
ACAD
1000
DSTYLE
1002
{
1070
    40
1040
35.0
1002
}
  0
DIMENSION
  5
7C9E
330
19
100
AcDbEntity
  8
3
100
AcDbDimension
280
     0
  2
*D11
 10
6761.535607663019
 20
3810.113733374477
 30
0.0
 11
6691.53560766302
 21
3250.113733374477
 31
0.0
 12
0.0
 22
2028.665350070594
 32
0.0
 70
    32
  1
φ<>
 71
     5
 42
-1.0
 73
     0
 74
     0
 75
     0
  3
MATSU
100
AcDbAlignedDimension
 13
6399.252841307509
 23
2690.113733374478
 33
0.0
 14
6399.252841307509
 24
3810.113733374477
 34
0.0
 50
90.0
100
AcDbRotatedDimension
1001
ACAD
1000
DSTYLE
1002
{
1070
    40
1040
35.0
1002
}
  0
LINE
  5
7C9F
330
19
100
AcDbEntity
  8
1
100
AcDbLine
 10
6476.052841307506
 20
3187.113733374477
 30
0.0
 11
6436.252841307505
 21
3187.113733374477
 31
0.0
  0
LINE
  5
7CA0
330
19
100
AcDbEntity
  8
1
100
AcDbLine
 10
6476.052841307508
 20
3037.113733374477
 30
0.0
 11
6436.252841307505
 21
3037.113733374477
 31
0.0
  0
LINE
  5
7CA1
330
19
100
AcDbEntity
  8
1
100
AcDbLine
 10
4826.452841307506
 20
3187.113733374477
 30
0.0
 11
4866.252841307505
 21
3187.113733374477
 31
0.0
  0
LINE
  5
7CA2
330
19
100
AcDbEntity
  8
1
100
AcDbLine
 10
4826.452841307506
 20
3037.113733374477
 30
0.0
 11
4866.252841307505
 21
3037.113733374477
 31
0.0
  0
LINE
  5
7CA3
330
19
100
AcDbEntity
  8
1
100
AcDbLine
 10
3374.049795591011
 20
5657.508902907943
 30
0.0
 11
924.0497955910104
 21
5657.508902907943
 31
0.0
  0
LINE
  5
7CA4
330
19
100
AcDbEntity
  8
1
100
AcDbLine
 10
3374.049795591011
 20
7557.508902907942
 30
0.0
 11
2054.04979559101
 21
7557.508902907942
 31
0.0
  0
LINE
  5
7CA5
330
19
100
AcDbEntity
  8
1
100
AcDbLine
 10
3374.049795591011
 20
7557.508902907942
 30
0.0
 11
3374.049795591011
 21
7479.508902907942
 31
0.0
  0
LINE
  5
7CA6
330
19
100
AcDbEntity
  8
1
100
AcDbLine
 10
924.0497955910104
 20
6657.508902907942
 30
0.0
 11
924.0497955910104
 21
5657.508902907943
 31
0.0
  0
LINE
  5
7CA7
330
19
100
AcDbEntity
  8
1
100
AcDbLine
 10
2054.04979559101
 20
7557.508902907944
 30
0.0
 11
2054.04979559101
 21
7479.508902907942
 31
0.0
  0
LINE
  5
7CA8
330
19
100
AcDbEntity
  8
1
100
AcDbLine
 10
1745.04979559101
 20
6657.508902907942
 30
0.0
 11
924.0497955910104
 21
6657.508902907942
 31
0.0
  0
DIMENSION
  5
7CA9
330
19
100
AcDbEntity
  8
3
100
AcDbDimension
280
     0
  2
*D12
 10
3374.049795591011
 20
5325.784326877536
 30
0.0
 11
2149.049795591011
 21
5325.784326877536
 31
0.0
 12
314.1860120315905
 22
1659.255695740364
 32
0.0
 70
   160
 71
     5
 42
-1.0
 73
     0
 74
     0
 75
     0
  3
MATSU
100
AcDbAlignedDimension
 13
924.0497955910104
 23
5657.508902907943
 33
0.0
 14
3374.049795591011
 24
5657.508902907943
 34
0.0
100
AcDbRotatedDimension
1001
ACAD
1000
DSTYLE
1002
{
1070
    40
1040
35.0
1002
}
  0
DIMENSION
  5
7CAA
330
19
100
AcDbEntity
  8
3
100
AcDbDimension
280
     0
  2
*D13
 10
3773.039046112906
 20
5657.508902907943
 30
0.0
 11
3703.039046112907
 21
6607.508902907942
 31
0.0
 12
314.1860120315905
 22
1659.255695740364
 32
0.0
 70
    32
 71
     5
 42
-1.0
 73
     0
 74
     0
 75
     0
  3
MATSU
100
AcDbAlignedDimension
 13
3374.049795591011
 23
7557.508902907942
 33
0.0
 14
3374.049795591011
 24
5657.508902907943
 34
0.0
 50
90.0
100
AcDbRotatedDimension
1001
ACAD
1000
DSTYLE
1002
{
1070
    40
1040
35.0
1002
}
  0
DIMENSION
  5
7CAB
330
19
100
AcDbEntity
  8
3
100
AcDbDimension
280
     0
  2
*D14
 10
708.2721206267414
 20
5657.508902907943
 30
0.0
 11
638.2721206267415
 21
6157.508902907943
 31
0.0
 12
314.1860120315905
 22
0.0
 32
0.0
 70
    32
 71
     5
 42
-1.0
 73
     0
 74
     0
 75
     0
  3
MATSU
100
AcDbAlignedDimension
 13
924.0497955910104
 23
6657.508902907942
 33
0.0
 14
924.0497955910104
 24
5657.508902907943
 34
0.0
 50
90.0
100
AcDbRotatedDimension
1001
ACAD
1000
DSTYLE
1002
{
1070
    40
1040
35.0
1002
}
  0
DIMENSION
  5
7CAC
330
19
100
AcDbEntity
  8
3
100
AcDbDimension
280
     0
  2
*D15
 10
2054.04979559101
 20
7954.366038957288
 30
0.0
 11
1489.04979559101
 21
8024.366038957287
 31
0.0
 12
314.1860120315905
 22
1659.255695740364
 32
0.0
 70
    32
 71
     5
 42
-1.0
 73
     0
 74
     0
 75
     0
  3
MATSU
100
AcDbAlignedDimension
 13
924.0497955910104
 23
6657.508902907942
 33
0.0
 14
2054.04979559101
 24
7557.508902907942
 34
0.0
100
AcDbRotatedDimension
1001
ACAD
1000
DSTYLE
1002
{
1070
    40
1040
35.0
1002
}
  0
DIMENSION
  5
7CAD
330
19
100
AcDbEntity
  8
3
100
AcDbDimension
280
     0
  2
*D16
 10
3374.049795591011
 20
7954.366038957288
 30
0.0
 11
2714.049795591011
 21
8024.366038957287
 31
0.0
 12
314.1860120315905
 22
1659.255695740364
 32
0.0
 70
    32
 71
     5
 42
-1.0
 73
     0
 74
     0
 75
     0
  3
MATSU
100
AcDbAlignedDimension
 13
2054.04979559101
 23
7557.508902907944
 33
0.0
 14
3374.049795591011
 24
7557.508902907942
 34
0.0
100
AcDbRotatedDimension
1001
ACAD
1000
DSTYLE
1002
{
1070
    40
1040
35.0
1002
}
  0
ARC
  5
7CAE
330
19
100
AcDbEntity
  8
1
100
AcDbCircle
 10
2714.049795591011
 20
3250.113733374477
 30
0.0
 40
220.0
100
AcDbArc
 50
285.9958323135229
 51
105.995832313523
  0
ARC
  5
7CAF
330
19
100
AcDbEntity
  8
1
100
AcDbCircle
 10
1214.04979559101
 20
2820.113733374478
 30
0.0
 40
220.0
100
AcDbArc
 50
105.9958323135229
 51
285.9958323135229
  0
LINE
  5
7CB0
330
19
100
AcDbEntity
  8
1
100
AcDbLine
 10
2653.424960318887
 20
3461.595716881886
 30
0.0
 11
1153.424960318887
 21
3031.595716881886
 31
0.0
  0
LINE
  5
7CB1
330
19
100
AcDbEntity
  8
1
100
AcDbLine
 10
2666.829283178888
 20
3400.368427835371
 30
0.0
 11
1178.67188787907
 21
2932.685504462639
 31
0.0
  0
LINE
  5
7CB2
330
19
100
AcDbEntity
  8
1
100
AcDbLine
 10
2753.605208820415
 20
3097.661710481205
 30
0.0
 11
1243.684962327961
 21
2705.895709873486
 31
0.0
  0
LINE
  5
7CB3
330
19
100
AcDbEntity
  8
1
100
AcDbLine
 10
2774.674630863135
 20
3038.631749867069
 30
0.0
 11
1274.674630863134
 21
2608.631749867069
 31
0.0
  0
POINT
  5
7CB5
330
19
100
AcDbEntity
  8
1
100
AcDbPoint
 10
3374.049795591011
 20
2365.113733374478
 30
0.0
  0
POINT
  5
7CB6
330
19
100
AcDbEntity
  8
1
100
AcDbPoint
 10
3374.049795591011
 20
2290.113733374477
 30
0.0
  0
LINE
  5
7CB7
330
19
100
AcDbEntity
  8
1
100
AcDbLine
 10
6471.752841307505
 20
2560.113733374477
 30
0.0
 11
6471.752841307505
 21
2410.113733374477
 31
0.0
  0
DIMENSION
  5
7CB8
330
19
100
AcDbEntity
  8
3
100
AcDbDimension
280
     0
  2
*D17
 10
6471.752841307486
 20
2090.764602681462
 30
0.0
 11
6057.752841307494
 21
2160.764602681462
 31
0.0
 12
0.0
 22
2028.665350070594
 32
0.0
 70
    32
 71
     5
 42
-1.0
 73
     0
 74
     0
 75
     0
  3
MATSU
100
AcDbAlignedDimension
 13
5643.752841307505
 23
2290.113733374477
 33
0.0
 14
6471.752841307486
 24
2290.113733374477
 34
0.0
100
AcDbRotatedDimension
1001
ACAD
1000
DSTYLE
1002
{
1070
    40
1040
35.0
1002
}
  0
DIMENSION
  5
7CB9
330
19
100
AcDbEntity
  8
3
100
AcDbDimension
280
     0
  2
*D18
 10
5643.752841307505
 20
2090.764602681462
 30
0.0
 11
5107.752841307507
 21
2160.764602681462
 31
0.0
 12
0.0
 22
2028.665350070594
 32
0.0
 70
    32
 71
     5
 42
-1.0
 73
     0
 74
     0
 75
     0
  3
MATSU
100
AcDbAlignedDimension
 13
4571.752841307509
 23
2290.113733374477
 33
0.0
 14
5643.752841307505
 24
2290.113733374477
 34
0.0
100
AcDbRotatedDimension
1001
ACAD
1000
DSTYLE
1002
{
1070
    40
1040
35.0
1002
}
  0
CIRCLE
  5
7CBB
330
19
100
AcDbEntity
  8
1
100
AcDbCircle
 10
2714.049795591011
 20
3250.113733374477
 30
0.0
 40
560.0
  0
CIRCLE
  5
7CBC
330
19
100
AcDbEntity
  8
1
100
AcDbCircle
 10
2714.049795591011
 20
3250.113733374477
 30
0.0
 40
610.0
  0
LINE
  5
7CBD
330
19
100
AcDbEntity
  8
1
100
AcDbLine
 10
4891.452841307506
 20
3301.113733374478
 30
0.0
 11
6396.052841307506
 21
3301.113733374478
 31
0.0
  0
LINE
  5
7CBE
330
19
100
AcDbEntity
  8
1
100
AcDbLine
 10
6393.752841307505
 20
4448.113733374477
 30
0.0
 11
4893.752841307505
 21
3301.113733374478
 31
0.0
  0
LINE
  5
7CBF
330
19
100
AcDbEntity
  8
1
100
AcDbLine
 10
4893.752841307505
 20
4448.113733374477
 30
0.0
 11
6393.752841307505
 21
3301.113733374478
 31
0.0
  0
LINE
  5
7CC0
330
19
100
AcDbEntity
  8
2
100
AcDbLine
 10
1214.04979559101
 20
5529.508902907943
 30
0.0
 11
1214.04979559101
 21
6419.008902907943
 31
0.0
  0
DIMENSION
  5
7CC1
330
19
100
AcDbEntity
  8
3
100
AcDbDimension
280
     0
  2
*D19
 10
6393.752841307505
 20
4675.372290363712
 30
0.0
 11
5643.752841307505
 21
4745.372290363712
 31
0.0
 12
0.0
 22
2028.665350070594
 32
0.0
 70
    32
 71
     5
 42
-1.0
 73
     0
 74
     0
 75
     0
  3
MATSU
100
AcDbAlignedDimension
 13
4893.752841307505
 23
4448.113733374477
 33
0.0
 14
6393.752841307505
 24
4448.113733374477
 34
0.0
100
AcDbRotatedDimension
1001
ACAD
1000
DSTYLE
1002
{
1070
    40
1040
35.0
1002
}
  0
LINE
  5
7CC2
330
19
100
AcDbEntity
  8
1
100
AcDbLine
 10
2934.049795591011
 20
5529.508902907943
 30
0.0
 11
994.0497955910105
 21
5529.508902907942
 31
0.0
  0
LINE
  5
7CC3
330
19
100
AcDbEntity
  8
1
100
AcDbLine
 10
2934.049795591011
 20
5779.508902907943
 30
0.0
 11
994.0497955910105
 21
5779.508902907942
 31
0.0
  0
LINE
  5
7CC4
330
19
100
AcDbEntity
  8
1
100
AcDbLine
 10
2934.049795591011
 20
5529.508902907942
 30
0.0
 11
2934.049795591011
 21
5779.508902907942
 31
0.0
  0
LINE
  5
7CC5
330
19
100
AcDbEntity
  8
1
100
AcDbLine
 10
994.0497955910105
 20
5529.508902907942
 30
0.0
 11
994.0497955910105
 21
5779.508902907942
 31
0.0
  0
LINE
  5
7CC6
330
19
100
AcDbEntity
  8
1
100
AcDbLine
 10
3474.049795591011
 20
7529.508902907943
 30
0.0
 11
3474.049795591011
 21
5929.508902907943
 31
0.0
  0
LINE
  5
7CC7
330
19
100
AcDbEntity
  8
1
100
AcDbLine
 10
1745.04979559101
 20
7479.508902907942
 30
0.0
 11
1745.04979559101
 21
5979.508902907944
 31
0.0
  0
LINE
  5
7CC8
330
19
100
AcDbEntity
  8
1
100
AcDbLine
 10
3474.049795591011
 20
7479.508902907944
 30
0.0
 11
1745.04979559101
 21
7479.508902907942
 31
0.0
  0
LINE
  5
7CC9
330
19
100
AcDbEntity
  8
1
100
AcDbLine
 10
3474.049795591011
 20
5979.508902907942
 30
0.0
 11
1745.04979559101
 21
5979.508902907943
 31
0.0
  0
LINE
  5
7CCA
330
19
100
AcDbEntity
  8
1
100
AcDbLine
 10
3474.049795591011
 20
7529.508902907943
 30
0.0
 11
3470.049795591011
 21
7529.508902907942
 31
0.0
  0
LINE
  5
7CCB
330
19
100
AcDbEntity
  8
1
100
AcDbLine
 10
3474.049795591011
 20
5929.508902907942
 30
0.0
 11
3470.049795591011
 21
5929.508902907942
 31
0.0
  0
LINE
  5
7CCC
330
19
100
AcDbEntity
  8
1
100
AcDbLine
 10
3470.049795591011
 20
7529.508902907943
 30
0.0
 11
3470.049795591011
 21
5929.508902907943
 31
0.0
  0
LINE
  5
7CCD
330
19
100
AcDbEntity
  8
1
100
AcDbLine
 10
2871.549795591011
 20
5726.508902907944
 30
0.0
 11
2871.549795591011
 21
5616.508902907944
 31
0.0
  0
LINE
  5
7CCE
330
19
100
AcDbEntity
  8
1
100
AcDbLine
 10
2556.54979559101
 20
5726.508902907944
 30
0.0
 11
2556.54979559101
 21
5616.508902907944
 31
0.0
  0
LINE
  5
7CCF
330
19
100
AcDbEntity
  8
1
100
AcDbLine
 10
1332.04979559101
 20
5616.508902907942
 30
0.0
 11
1332.04979559101
 21
5726.508902907943
 31
0.0
  0
LINE
  5
7CD0
330
19
100
AcDbEntity
  8
1
100
AcDbLine
 10
1096.04979559101
 20
5616.508902907942
 30
0.0
 11
1096.04979559101
 21
5726.508902907943
 31
0.0
  0
LINE
  5
7CD1
330
19
100
AcDbEntity
  8
1
100
AcDbLine
 10
2871.549795591011
 20
5616.508902907942
 30
0.0
 11
2556.54979559101
 21
5616.508902907945
 31
0.0
  0
LINE
  5
7CD2
330
19
100
AcDbEntity
  8
1
100
AcDbLine
 10
2871.549795591011
 20
5726.508902907943
 30
0.0
 11
2556.54979559101
 21
5726.508902907944
 31
0.0
  0
LINE
  5
7CD3
330
19
100
AcDbEntity
  8
1
100
AcDbLine
 10
1332.04979559101
 20
5726.508902907943
 30
0.0
 11
1096.04979559101
 21
5726.508902907943
 31
0.0
  0
LINE
  5
7CD4
330
19
100
AcDbEntity
  8
1
100
AcDbLine
 10
1332.04979559101
 20
5616.508902907942
 30
0.0
 11
1096.04979559101
 21
5616.508902907942
 31
0.0
  0
LINE
  5
7CD5
330
19
100
AcDbEntity
  8
1
100
AcDbLine
 10
1417.54979559101
 20
5761.508902907943
 30
0.0
 11
1417.54979559101
 21
6419.008902907943
 31
0.0
  0
LINE
  5
7CD6
330
19
100
AcDbEntity
  8
1
100
AcDbLine
 10
1010.54979559101
 20
5761.508902907943
 30
0.0
 11
1010.54979559101
 21
6419.008902907943
 31
0.0
  0
LINE
  5
7CD7
330
19
100
AcDbEntity
  8
1
100
AcDbLine
 10
1417.54979559101
 20
6419.008902907943
 30
0.0
 11
1010.54979559101
 21
6419.008902907943
 31
0.0
  0
LINE
  5
7CD8
330
19
100
AcDbEntity
  8
1
100
AcDbLine
 10
1417.54979559101
 20
5761.508902907943
 30
0.0
 11
1010.54979559101
 21
5761.508902907943
 31
0.0
  0
LINE
  5
7CD9
330
19
100
AcDbEntity
  8
1
100
AcDbLine
 10
1241.54979559101
 20
5726.508902907943
 30
0.0
 11
1241.54979559101
 21
5761.508902907944
 31
0.0
  0
LINE
  5
7CDA
330
19
100
AcDbEntity
  8
1
100
AcDbLine
 10
1186.54979559101
 20
5726.508902907943
 30
0.0
 11
1186.54979559101
 21
5761.508902907943
 31
0.0
  0
LINE
  5
7CDB
330
19
100
AcDbEntity
  8
1
100
AcDbLine
 10
2751.549795591011
 20
5979.508902907943
 30
0.0
 11
2751.549795591011
 21
5726.508902907943
 31
0.0
  0
LINE
  5
7CDC
330
19
100
AcDbEntity
  8
1
100
AcDbLine
 10
2676.549795591011
 20
5979.508902907942
 30
0.0
 11
2676.549795591011
 21
5726.508902907944
 31
0.0
  0
LINE
  5
7CDD
330
19
100
AcDbEntity
  8
1
100
AcDbLine
 10
4704.252841307505
 20
2616.613733374478
 30
0.0
 11
4893.752841307507
 21
2616.613733374478
 31
0.0
  0
LINE
  5
7CDE
330
19
100
AcDbEntity
  8
1
100
AcDbLine
 10
4704.252841307505
 20
3023.613733374478
 30
0.0
 11
4893.752841307507
 21
3023.613733374478
 31
0.0
  0
LINE
  5
7CDF
330
19
100
AcDbEntity
  8
1
100
AcDbLine
 10
4669.252841307505
 20
2847.613733374478
 30
0.0
 11
4704.252841307505
 21
2847.613733374478
 31
0.0
  0
LINE
  5
7CE0
330
19
100
AcDbEntity
  8
1
100
AcDbLine
 10
4669.252841307505
 20
2792.613733374477
 30
0.0
 11
4704.252841307505
 21
2792.613733374477
 31
0.0
  0
LINE
  5
7CE1
330
19
100
AcDbEntity
  8
1
100
AcDbLine
 10
4704.252841307505
 20
2616.613733374478
 30
0.0
 11
4704.252841307505
 21
3023.613733374478
 31
0.0
  0
DIMENSION
  5
7CE2
330
19
100
AcDbEntity
  8
3
100
AcDbDimension
280
     0
  2
*D20
 10
3474.049795591011
 20
4908.893017028486
 30
0.0
 11
2199.04979559101
 21
4978.893017028486
 31
0.0
 12
314.1860120315905
 22
2028.665350070594
 32
0.0
 70
    32
 71
     5
 42
-1.0
 73
     0
 74
     0
 75
     0
  3
MATSU
100
AcDbAlignedDimension
 13
924.0497955910104
 23
2560.113733374477
 33
0.0
 14
3474.049795591011
 24
4501.113733374477
 34
0.0
100
AcDbRotatedDimension
1001
ACAD
1000
DSTYLE
1002
{
1070
    40
1040
35.0
1002
}
  0
LINE
  5
7CEA
330
19
100
AcDbEntity
  8
1
100
AcDbLine
 10
4721.052841307504
 20
2654.321489194987
 30
0.0
 11
4721.052841307504
 21
2600.113733374477
 31
0.0
  0
DIMENSION
  5
7CEB
330
19
100
AcDbEntity
  8
3
100
AcDbDimension
280
     0
  2
*D21
 10
3981.721964620956
 20
2365.113733374478
 30
0.0
 11
4149.221964620956
 21
2475.556889077925
 31
0.0
 12
314.1860120315905
 22
0.0
 32
0.0
 70
   160
  1
(<>)
 71
     5
 42
-1.0
 73
     0
 74
     0
 75
     0
  3
IGA
100
AcDbAlignedDimension
 13
3374.049795591011
 23
2410.113733374477
 33
0.0
 14
3374.049795591011
 24
2365.113733374478
 34
0.0
 50
90.0
100
AcDbRotatedDimension
1001
ACAD
1000
DSTYLE
1002
{
1070
   288
1070
     1
1070
   172
1070
     1
1070
    40
1040
35.0
1070
   271
1070
     0
1070
     7
1000
_DOT
1070
   143
1040
0.039
1002
}
  0
DIMENSION
  5
7CEC
330
19
100
AcDbEntity
  8
3
100
AcDbDimension
280
     0
  2
*D22
 10
3981.722573095144
 20
2290.113733374477
 30
0.0
 11
3894.222573095143
 21
2030.113733374478
 31
0.0
 70
    32
 71
     5
 42
-1.0
 73
     0
 74
     0
 75
     0
  3
IGA
100
AcDbAlignedDimension
 13
3374.049795591011
 23
2365.113733374478
 33
0.0
 14
3374.049795591011
 24
2290.113733374477
 34
0.0
 50
90.0
100
AcDbRotatedDimension
1001
ACAD
1000
DSTYLE
1002
{
1070
   287
1070
     3
1070
    40
1040
35.0
1070
   143
1040
0.039
1070
   172
1070
     1
1070
   271
1070
     0
1070
   279
1070
     0
1070
   288
1070
     1
1070
     6
1000
DOT
1002
}
  0
LINE
  5
7CED
330
19
100
AcDbEntity
  8
1
100
AcDbLine
 10
3374.049795591011
 20
5979.508902907942
 30
0.0
 11
3374.049795591011
 21
5657.508902907943
 31
0.0
  0
LINE
  5
7F1C
330
19
100
AcDbEntity
  8
4
100
AcDbLine
 10
6475.0
 20
1411.801556683425
 30
0.0
 11
6475.0
 21
711.8015566834255
 31
0.0
  0
LINE
  5
7F1D
330
19
100
AcDbEntity
  8
4
100
AcDbLine
 10
4025.0
 20
1411.801556683425
 30
0.0
 11
4025.0
 21
711.8015566834255
 31
0.0
  0
LINE
  5
7F1E
330
19
100
AcDbEntity
  8
4
100
AcDbLine
 10
2275.0
 20
1411.801556683425
 30
0.0
 11
2275.0
 21
711.8015566834255
 31
0.0
  0
LINE
  5
7F21
330
19
100
AcDbEntity
  8
4
100
AcDbLine
 10
2275.0
 20
711.8015566834255
 30
0.0
 11
6475.0
 21
711.8015566834255
 31
0.0
  0
LINE
  5
7F22
330
19
100
AcDbEntity
  8
4
100
AcDbLine
 10
2275.0
 20
1061.801556683425
 30
0.0
 11
6475.0
 21
1061.801556683425
 31
0.0
  0
TEXT
  5
7F23
330
19
100
AcDbEntity
  8
4
100
AcDbText
 10
2409.757282964156
 20
1172.20214721657
 30
0.0
 40
175.0
  1
機器名称
100
AcDbText
  0
TEXT
  5
7F24
330
19
100
AcDbEntity
  8
4
100
AcDbText
 10
2401.903371086792
 20
787.5596052454639
 30
0.0
 40
175.0
  1
機器型番
100
AcDbText
  0
TEXT
  5
7F25
330
19
100
AcDbEntity
  8
4
100
AcDbText
 10
4123.624871286091
 20
1138.683184980159
 30
0.0
 40
140.0
  1
ミツヤリミットロードファン
100
AcDbText
  0
TEXT
  5
7F26
330
19
100
AcDbEntity
  8
4
100
AcDbText
 10
4153.290734549182
 20
771.8601016632273
 30
0.0
 40
175.0
  1
LL#7-5
100
AcDbText
  0
TEXT
  5
7F28
330
19
100
AcDbEntity
  8
4
100
AcDbText
 10
2852.564160028458
 20
8342.000944663805
 30
0.0
 40
188.9999999999999
  1
床置防振ベット
100
AcDbText
  0
TEXT
  5
7F29
330
19
100
AcDbEntity
  8
4
100
AcDbText
 10
1106.586576653062
 20
8868.583416697545
 30
0.0
 40
252.0
  1
遠心式両吸込両持リミットロードファン
100
AcDbText
  0
LINE
  5
7F2A
330
19
100
AcDbEntity
  8
4
100
AcDbLine
 10
875.0
 20
8642.930639926817
 30
0.0
 11
6475.0
 21
8642.930639926817
 31
0.0
  0
LINE
  5
7F2B
330
19
100
AcDbEntity
  8
4
100
AcDbLine
 10
875.0
 20
9342.930639926818
 30
0.0
 11
6475.0
 21
9342.930639926818
 31
0.0
  0
LINE
  5
7F2C
330
19
100
AcDbEntity
  8
4
100
AcDbLine
 10
2275.0
 20
1411.801556683425
 30
0.0
 11
6475.0
 21
1411.801556683425
 31
0.0
  0
LINE
  5
7F2D
330
19
100
AcDbEntity
  8
4
100
AcDbLine
 10
875.0
 20
9342.930639926818
 30
0.0
 11
875.0
 21
8642.930639926817
 31
0.0
  0
TEXT
  5
7F2E
330
19
100
AcDbEntity
  8
4
100
AcDbText
 10
1327.058247179
 20
8338.118171412203
 30
0.0
 40
188.9999999999999
  1
右回転右横向
100
AcDbText
  0
TEXT
  5
7F2F
330
19
100
AcDbEntity
  8
4
100
AcDbText
 10
5141.393457372515
 20
9471.21378523358
 30
0.0
 40
196.0
  1
No.
100
AcDbText
  0
TEXT
  5
7F30
330
19
100
AcDbEntity
  8
4
100
AcDbText
 10
4589.536219100046
 20
8342.000944663805
 30
0.0
 40
188.9999999999999
  1
縮尺：1/35
100
AcDbText
  0
LINE
  5
7F31
330
19
100
AcDbEntity
  8
4
100
AcDbLine
 10
6475.0
 20
9342.930639926818
 30
0.0
 11
6475.0
 21
8642.930639926817
 31
0.0
  0
LINE
  5
7F32
330
19
100
AcDbEntity
  8
4
100
AcDbLine
 10
7350.0
 20
10325.0
 30
0.0
 11
7350.0
 21
10325.0
 31
0.0
  0
LINE
  5
7F33
330
19
100
AcDbEntity
  8
4
100
AcDbLine
 10
5042.160978259526
 20
9384.422540938905
 30
0.0
 11
5042.160978259526
 21
9753.282915424135
 31
0.0
  0
LINE
  5
7F34
330
19
100
AcDbEntity
  8
4
100
AcDbLine
 10
5042.160978259526
 20
9753.282915424135
 30
0.0
 11
6475.0
 21
9753.282915424135
 31
0.0
  0
LINE
  5
7F35
330
19
100
AcDbEntity
  8
4
100
AcDbLine
 10
6475.0
 20
9753.282915424135
 30
0.0
 11
6475.0
 21
9384.422540938905
 31
0.0
  0
LINE
  5
7F36
330
19
100
AcDbEntity
  8
4
100
AcDbLine
 10
6475.0
 20
9384.422540938905
 30
0.0
 11
5042.160978259526
 21
9384.422540938905
 31
0.0
  0
LINE
  5
7F37
330
19
100
AcDbEntity
  8
4
100
AcDbLine
 10
0.0
 20
0.0
 30
0.0
 11
0.0
 21
10325.0
 31
0.0
  0
LINE
  5
7F38
330
19
100
AcDbEntity
  8
4
100
AcDbLine
 10
0.0
 20
10325.0
 30
0.0
 11
7350.0
 21
10325.0
 31
0.0
  0
LINE
  5
7F39
330
19
100
AcDbEntity
  8
4
100
AcDbLine
 10
7350.0
 20
10325.0
 30
0.0
 11
7350.0
 21
0.0
 31
0.0
  0
LINE
  5
7F3A
330
19
100
AcDbEntity
  8
4
100
AcDbLine
 10
7350.0
 20
0.0
 30
0.0
 11
0.0
 21
0.0
 31
0.0
  0
DIMENSION
  5
8038
330
19
100
AcDbEntity
  8
3
100
AcDbDimension
280
     0
  2
*D24
 10
4266.516176095137
 20
2290.113733374477
 30
0.0
 11
4151.516176095138
 21
3369.113733374478
 31
0.0
 70
    32
 71
     5
 42
-1.0
 73
     0
 74
     0
 75
     0
  3
IGA
100
AcDbAlignedDimension
 13
3474.049795591011
 23
4448.113733374477
 33
0.0
 14
3374.049795591011
 24
2290.113733374477
 34
0.0
 50
90.0
100
AcDbRotatedDimension
1001
ACAD
1000
DSTYLE
1002
{
1070
   172
1070
     1
1070
    40
1040
35.0
1070
     3
1000
(<>)
1070
   271
1070
     0
1070
   143
1040
0.039
1002
}
  0
ENDSEC
  0
SECTION
  2
OBJECTS
  0
DICTIONARY
  5
C
330
0
100
AcDbDictionary
281
     1
  3
ACAD_CIP_PREVIOUS_PRODUCT_INFO
350
80DF
  3
ACAD_COLOR
350
80C2
  3
ACAD_DETAILVIEWSTYLE
350
80DB
  3
ACAD_GROUP
350
D
  3
ACAD_LAYOUT
350
8042
  3
ACAD_MATERIAL
350
8090
  3
ACAD_MLEADERSTYLE
350
80D7
  3
ACAD_MLINESTYLE
350
E
  3
ACAD_PLOTSETTINGS
350
8043
  3
ACAD_PLOTSTYLENAME
350
8040
  3
ACAD_SCALELIST
350
80C5
  3
ACAD_SECTIONVIEWSTYLE
350
80D9
  3
ACAD_TABLESTYLE
350
80C3
  3
ACAD_VISUALSTYLE
350
80A9
  3
ACDB_RECOMPOSE_DATA
350
8142
  3
AcDbVariableDictionary
350
8087
  3
AcDsDecomposeData
350
8148
  0
DICTIONARY
  5
8126
330
2
100
AcDbDictionary
280
     1
281
     1
  3
ACAD_LAYERSTATES
360
8127
  0
DICTIONARY
  5
8119
330
F
100
AcDbDictionary
280
     1
281
     1
  3
ADSK_XREC_LAYER_RECONCILED
360
811A
  0
DICTIONARY
  5
811B
330
31
100
AcDbDictionary
280
     1
281
     1
  3
ADSK_XREC_LAYER_RECONCILED
360
811C
  0
DICTIONARY
  5
811D
330
76D0
100
AcDbDictionary
280
     1
281
     1
  3
ADSK_XREC_LAYER_RECONCILED
360
811E
  0
DICTIONARY
  5
811F
330
76D1
100
AcDbDictionary
280
     1
281
     1
  3
ADSK_XREC_LAYER_RECONCILED
360
8120
  0
DICTIONARY
  5
8121
330
76D2
100
AcDbDictionary
280
     1
281
     1
  3
ADSK_XREC_LAYER_RECONCILED
360
8122
  0
DICTIONARY
  5
806F
330
19
100
AcDbDictionary
280
     1
281
     1
  3
ACAD_LAYOUTSELFREF
360
8070
  0
DICTIONARY
  5
806D
330
16
100
AcDbDictionary
280
     1
281
     1
  3
ACAD_LAYOUTSELFREF
360
806E
  0
XRECORD
  5
80DF
102
{ACAD_REACTORS
330
C
102
}
330
C
100
AcDbXrecord
280
     1
300
ACDLT
300
2023
300

  0
DICTIONARY
  5
80C2
102
{ACAD_REACTORS
330
C
102
}
330
C
100
AcDbDictionary
281
     1
  0
DICTIONARY
  5
80DB
102
{ACAD_REACTORS
330
C
102
}
330
C
100
AcDbDictionary
281
     1
  3
Metric50
350
80DC
  0
DICTIONARY
  5
D
102
{ACAD_REACTORS
330
C
102
}
330
C
100
AcDbDictionary
281
     1
  0
DICTIONARY
  5
8042
102
{ACAD_REACTORS
330
C
102
}
330
C
100
AcDbDictionary
281
     1
  3
Model
350
8044
  3
ﾚｲｱｳﾄ1
350
8045
  0
DICTIONARY
  5
8090
102
{ACAD_REACTORS
330
C
102
}
330
C
100
AcDbDictionary
281
     1
  3
ByBlock
350
8099
  3
ByLayer
350
8091
  3
Global
350
80A1
  0
DICTIONARY
  5
80D7
102
{ACAD_REACTORS
330
C
102
}
330
C
100
AcDbDictionary
281
     1
  3
Standard
350
80D8
  0
DICTIONARY
  5
E
102
{ACAD_REACTORS
330
C
102
}
330
C
100
AcDbDictionary
281
     1
  3
STANDARD
350
1C
  0
DICTIONARY
  5
8043
102
{ACAD_REACTORS
330
C
102
}
330
C
100
AcDbDictionary
281
     1
  0
ACDBDICTIONARYWDFLT
  5
8040
102
{ACAD_REACTORS
330
C
102
}
330
C
100
AcDbDictionary
281
     1
  3
Normal
350
8041
100
AcDbDictionaryWithDefault
340
8041
  0
DICTIONARY
  5
80C5
102
{ACAD_REACTORS
330
C
102
}
330
C
100
AcDbDictionary
281
     1
  3
A0
350
80C6
  3
A1
350
80C7
  3
A2
350
80C8
  3
A3
350
80C9
  3
A4
350
80CA
  3
A5
350
80CB
  3
A6
350
80CC
  3
A7
350
80CD
  3
A8
350
80CE
  3
A9
350
80CF
  3
B0
350
80D0
  3
B1
350
80D1
  3
B2
350
80D2
  3
B3
350
80D3
  3
B4
350
80D4
  3
B5
350
80D5
  3
B6
350
80D6
  0
DICTIONARY
  5
80D9
102
{ACAD_REACTORS
330
C
102
}
330
C
100
AcDbDictionary
281
     1
  3
Metric50
350
80DA
  0
DICTIONARY
  5
80C3
102
{ACAD_REACTORS
330
C
102
}
330
C
100
AcDbDictionary
281
     1
  3
Standard
350
80C4
  0
DICTIONARY
  5
80A9
102
{ACAD_REACTORS
330
C
102
}
330
C
100
AcDbDictionary
281
     1
  3
2dWireframe
350
80AF
  3
Basic
350
80AE
  3
Brighten
350
80B5
  3
ColorChange
350
80B9
  3
Conceptual
350
80B2
  3
Dim
350
80B4
  3
EdgeColorOff
350
80C1
  3
Facepattern
350
80B8
  3
Flat
350
80AA
  3
FlatWithEdges
350
80AB
  3
Gouraud
350
80AC
  3
GouraudWithEdges
350
80AD
  3
Hidden
350
80B1
  3
JitterOff
350
80BF
  3
Linepattern
350
80B7
  3
OverhangOff
350
80C0
  3
Realistic
350
80B3
  3
Shaded
350
80BE
  3
Shaded with edges
350
80BD
  3
Shades of Gray
350
80BA
  3
Sketchy
350
80BB
  3
Thicken
350
80B6
  3
Wireframe
350
80B0
  3
X-Ray
350
80BC
  0
XRECORD
  5
8142
102
{ACAD_REACTORS
330
C
102
}
330
C
100
AcDbXrecord
280
     1
 90
        1
330
80C4
  0
DICTIONARY
  5
8087
102
{ACAD_REACTORS
330
C
102
}
330
C
100
AcDbDictionary
281
     1
  3
CANNOSCALE
350
8137
  3
CMLEADERSTYLE
350
8133
  3
CTABLESTYLE
350
8132
  3
CVIEWDETAILSTYLE
350
8134
  3
CVIEWSECTIONSTYLE
350
8135
  3
DIMASSOC
350
8088
  3
LAYEREVAL
350
8139
  3
LAYERNOTIFY
350
813A
  3
LIGHTINGUNITS
350
8138
  3
MARKUPASSISTMODE
350
813F
  3
MSLTSCALE
350
8136
  0
DICTIONARY
  5
8148
102
{ACAD_REACTORS
330
C
102
}
330
C
100
AcDbDictionary
281
     1
  3
AcDsRecords
350
814A
  3
AcDsSchemas
350
8149
1001
ACAD
1070
     2
  0
DICTIONARY
  5
8127
102
{ACAD_REACTORS
330
8126
102
}
330
8126
100
AcDbDictionary
281
     1
  0
XRECORD
  5
811A
102
{ACAD_REACTORS
330
8119
102
}
330
8119
100
AcDbXrecord
280
     1
290
     1
  0
XRECORD
  5
811C
102
{ACAD_REACTORS
330
811B
102
}
330
811B
100
AcDbXrecord
280
     1
290
     1
  0
XRECORD
  5
811E
102
{ACAD_REACTORS
330
811D
102
}
330
811D
100
AcDbXrecord
280
     1
290
     1
  0
XRECORD
  5
8120
102
{ACAD_REACTORS
330
811F
102
}
330
811F
100
AcDbXrecord
280
     1
290
     1
  0
XRECORD
  5
8122
102
{ACAD_REACTORS
330
8121
102
}
330
8121
100
AcDbXrecord
280
     1
290
     1
  0
XRECORD
  5
8070
102
{ACAD_REACTORS
330
806F
102
}
330
806F
100
AcDbXrecord
280
     1
340
19
  0
XRECORD
  5
806E
102
{ACAD_REACTORS
330
806D
102
}
330
806D
100
AcDbXrecord
280
     1
340
16
  0
ACDBDETAILVIEWSTYLE
  5
80DC
102
{ACAD_XDICTIONARY
360
814D
102
}
102
{ACAD_REACTORS
330
80DB
102
}
330
80DB
100
AcDbModelDocViewStyle
 70
     0
  3
Metric50
290
     0
100
AcDbDetailViewStyle
 70
     0
 71
     0
 90
        3
 71
     1
340
10
 62
   256
 40
5.0
340
0
 62
   256
 40
5.0
300

 40
0.0
280
     1
 71
     2
340
15
 90
       25
 62
   256
 71
     3
340
10
 62
   256
 40
5.0
 90
        0
 40
15.0
 90
        1
300
%<\AcVar ViewDetailId>% (%<\AcVar ViewScale \f "%sn">%)
 71
     4
340
15
 90
       25
 62
   256
340
15
 90
       25
 62
   256
280
     0
  0
LAYOUT
  5
8044
102
{ACAD_REACTORS
330
8042
102
}
330
8042
100
AcDbPlotSettings
  1

  2
\\Txbo34x8944cqyd\EPSON LP-6100
  4

  6

 40
0.0
 41
0.0
 42
0.0
 43
0.0
 44
0.0
 45
0.0
 46
0.0
 47
0.0
 48
0.0
 49
0.0
140
0.0
141
0.0
142
1.0
143
1.0
 70
  1712
 72
     0
 73
     0
 74
     0
  7
GOD2000TABLE.ctb
 75
     0
147
1.0
 76
     0
 77
     2
 78
   300
148
0.0
149
0.0
100
AcDbLayout
  1
Model
 70
     1
 71
     0
 10
0.0
 20
0.0
 11
12.0
 21
9.0
 12
0.0
 22
0.0
 32
0.0
 14
0.0
 24
0.0
 34
0.0
 15
0.0
 25
0.0
 35
0.0
146
0.0
 13
0.0
 23
0.0
 33
0.0
 16
1.0
 26
0.0
 36
0.0
 17
0.0
 27
1.0
 37
0.0
 76
     0
330
19
331
808E
  0
LAYOUT
  5
8045
102
{ACAD_REACTORS
330
8042
102
}
330
8042
100
AcDbPlotSettings
  1

  2
\\Txbo34x8944cqyd\EPSON LP-6100
  4

  6

 40
0.0
 41
0.0
 42
0.0
 43
0.0
 44
0.0
 45
0.0
 46
0.0
 47
0.0
 48
0.0
 49
0.0
140
0.0
141
0.0
142
1.0
143
1.0
 70
   688
 72
     0
 73
     0
 74
     5
  7
GOD2000TABLE.ctb
 75
    16
147
1.0
 76
     0
 77
     2
 78
   300
148
0.0
149
0.0
100
AcDbLayout
  1
ﾚｲｱｳﾄ1
 70
     1
 71
     1
 10
0.0
 20
0.0
 11
12.0
 21
9.0
 12
0.0
 22
0.0
 32
0.0
 14
1.000000000000000E+20
 24
1.000000000000000E+20
 34
1.000000000000000E+20
 15
-1.000000000000000E+20
 25
-1.000000000000000E+20
 35
-1.000000000000000E+20
146
0.0
 13
0.0
 23
0.0
 33
0.0
 16
1.0
 26
0.0
 36
0.0
 17
0.0
 27
1.0
 37
0.0
 76
     0
330
16
  0
MATERIAL
  5
8099
102
{ACAD_XDICTIONARY
360
809A
102
}
102
{ACAD_REACTORS
330
8090
102
}
330
8090
100
AcDbMaterial
  1
ByBlock
 72
     0
 43
0.0208333333333333
 43
0.0
 43
0.0
 43
0.0
 43
0.0
 43
0.0208333333333333
 43
0.0
 43
0.0
 43
0.0
 43
0.0
 43
1.0
 43
0.0
 43
0.0
 43
0.0
 43
0.0
 43
1.0
 77
     0
 47
0.0208333333333333
 47
0.0
 47
0.0
 47
0.0
 47
0.0
 47
0.0208333333333333
 47
0.0
 47
0.0
 47
0.0
 47
0.0
 47
1.0
 47
0.0
 47
0.0
 47
0.0
 47
0.0
 47
1.0
171
     0
 49
0.0208333333333333
 49
0.0
 49
0.0
 49
0.0
 49
0.0
 49
0.0208333333333333
 49
0.0
 49
0.0
 49
0.0
 49
0.0
 49
1.0
 49
0.0
 49
0.0
 49
0.0
 49
0.0
 49
1.0
175
     0
142
0.0208333333333333
142
0.0
142
0.0
142
0.0
142
0.0
142
0.0208333333333333
142
0.0
142
0.0
142
0.0
142
0.0
142
1.0
142
0.0
142
0.0
142
0.0
142
0.0
142
1.0
179
     0
144
0.0208333333333333
144
0.0
144
0.0
144
0.0
144
0.0
144
0.0208333333333333
144
0.0
144
0.0
144
0.0
144
0.0
144
1.0
144
0.0
144
0.0
144
0.0
144
0.0
144
1.0
147
0.0208333333333333
147
0.0
147
0.0
147
0.0
147
0.0
147
0.0208333333333333
147
0.0
147
0.0
147
0.0
147
0.0
147
1.0
147
0.0
147
0.0
147
0.0
147
0.0
147
1.0
  0
MATERIAL
  5
8091
102
{ACAD_XDICTIONARY
360
8092
102
}
102
{ACAD_REACTORS
330
8090
102
}
330
8090
100
AcDbMaterial
  1
ByLayer
 72
     0
 43
0.0208333333333333
 43
0.0
 43
0.0
 43
0.0
 43
0.0
 43
0.0208333333333333
 43
0.0
 43
0.0
 43
0.0
 43
0.0
 43
1.0
 43
0.0
 43
0.0
 43
0.0
 43
0.0
 43
1.0
 77
     0
 47
0.0208333333333333
 47
0.0
 47
0.0
 47
0.0
 47
0.0
 47
0.0208333333333333
 47
0.0
 47
0.0
 47
0.0
 47
0.0
 47
1.0
 47
0.0
 47
0.0
 47
0.0
 47
0.0
 47
1.0
171
     0
 49
0.0208333333333333
 49
0.0
 49
0.0
 49
0.0
 49
0.0
 49
0.0208333333333333
 49
0.0
 49
0.0
 49
0.0
 49
0.0
 49
1.0
 49
0.0
 49
0.0
 49
0.0
 49
0.0
 49
1.0
175
     0
142
0.0208333333333333
142
0.0
142
0.0
142
0.0
142
0.0
142
0.0208333333333333
142
0.0
142
0.0
142
0.0
142
0.0
142
1.0
142
0.0
142
0.0
142
0.0
142
0.0
142
1.0
179
     0
144
0.0208333333333333
144
0.0
144
0.0
144
0.0
144
0.0
144
0.0208333333333333
144
0.0
144
0.0
144
0.0
144
0.0
144
1.0
144
0.0
144
0.0
144
0.0
144
0.0
144
1.0
147
0.0208333333333333
147
0.0
147
0.0
147
0.0
147
0.0
147
0.0208333333333333
147
0.0
147
0.0
147
0.0
147
0.0
147
1.0
147
0.0
147
0.0
147
0.0
147
0.0
147
1.0
  0
MATERIAL
  5
80A1
102
{ACAD_XDICTIONARY
360
80A2
102
}
102
{ACAD_REACTORS
330
8090
102
}
330
8090
100
AcDbMaterial
  1
Global
 72
     0
 43
0.0208333333333333
 43
0.0
 43
0.0
 43
0.0
 43
0.0
 43
0.0208333333333333
 43
0.0
 43
0.0
 43
0.0
 43
0.0
 43
1.0
 43
0.0
 43
0.0
 43
0.0
 43
0.0
 43
1.0
 77
     0
 47
0.0208333333333333
 47
0.0
 47
0.0
 47
0.0
 47
0.0
 47
0.0208333333333333
 47
0.0
 47
0.0
 47
0.0
 47
0.0
 47
1.0
 47
0.0
 47
0.0
 47
0.0
 47
0.0
 47
1.0
171
     0
 49
0.0208333333333333
 49
0.0
 49
0.0
 49
0.0
 49
0.0
 49
0.0208333333333333
 49
0.0
 49
0.0
 49
0.0
 49
0.0
 49
1.0
 49
0.0
 49
0.0
 49
0.0
 49
0.0
 49
1.0
175
     0
142
0.0208333333333333
142
0.0
142
0.0
142
0.0
142
0.0
142
0.0208333333333333
142
0.0
142
0.0
142
0.0
142
0.0
142
1.0
142
0.0
142
0.0
142
0.0
142
0.0
142
1.0
179
     0
144
0.0208333333333333
144
0.0
144
0.0
144
0.0
144
0.0
144
0.0208333333333333
144
0.0
144
0.0
144
0.0
144
0.0
144
1.0
144
0.0
144
0.0
144
0.0
144
0.0
144
1.0
147
0.0208333333333333
147
0.0
147
0.0
147
0.0
147
0.0
147
0.0208333333333333
147
0.0
147
0.0
147
0.0
147
0.0
147
1.0
147
0.0
147
0.0
147
0.0
147
0.0
147
1.0
  0
MLEADERSTYLE
  5
80D8
102
{ACAD_REACTORS
330
80D7
102
}
330
80D7
100
AcDbMLeaderStyle
179
     2
170
     2
171
     1
172
     0
 90
        2
 40
0.0
 41
0.0
173
     1
 91
-1056964608
340
13
 92
       -2
290
     1
 42
2.0
291
     1
 43
0.36
  3
Standard
 44
4.0
300

342
10
174
     1
178
     6
175
     1
176
     0
 93
-1056964608
 45
4.0
292
     0
297
     0
 46
4.0
 94
-1056964608
 47
1.0
 49
1.0
140
1.0
293
     1
141
0.0
294
     1
177
     0
142
1.0
295
     0
296
     0
143
0.125
271
     0
272
     9
273
     9
298
     1
  0
MLINESTYLE
  5
1C
102
{ACAD_REACTORS
330
E
102
}
330
E
100
AcDbMlineStyle
  2
STANDARD
 70
     0
  3

 62
     0
 51
90.0
 52
90.0
 71
     2
 49
0.5
 62
   256
  6
BYLAYER
 49
-0.5
 62
   256
  6
BYLAYER
  0
ACDBPLACEHOLDER
  5
8041
102
{ACAD_REACTORS
330
8040
102
}
330
8040
  0
SCALE
  5
80C6
102
{ACAD_REACTORS
330
80C5
102
}
330
80C5
100
AcDbScale
 70
     0
300
1:1
140
1.0
141
1.0
290
     1
  0
SCALE
  5
80C7
102
{ACAD_REACTORS
330
80C5
102
}
330
80C5
100
AcDbScale
 70
     0
300
1:2
140
1.0
141
2.0
290
     0
  0
SCALE
  5
80C8
102
{ACAD_REACTORS
330
80C5
102
}
330
80C5
100
AcDbScale
 70
     0
300
1:4
140
1.0
141
4.0
290
     0
  0
SCALE
  5
80C9
102
{ACAD_REACTORS
330
80C5
102
}
330
80C5
100
AcDbScale
 70
     0
300
1:5
140
1.0
141
5.0
290
     0
  0
SCALE
  5
80CA
102
{ACAD_REACTORS
330
80C5
102
}
330
80C5
100
AcDbScale
 70
     0
300
1:8
140
1.0
141
8.0
290
     0
  0
SCALE
  5
80CB
102
{ACAD_REACTORS
330
80C5
102
}
330
80C5
100
AcDbScale
 70
     0
300
1:10
140
1.0
141
10.0
290
     0
  0
SCALE
  5
80CC
102
{ACAD_REACTORS
330
80C5
102
}
330
80C5
100
AcDbScale
 70
     0
300
1:16
140
1.0
141
16.0
290
     0
  0
SCALE
  5
80CD
102
{ACAD_REACTORS
330
80C5
102
}
330
80C5
100
AcDbScale
 70
     0
300
1:20
140
1.0
141
20.0
290
     0
  0
SCALE
  5
80CE
102
{ACAD_REACTORS
330
80C5
102
}
330
80C5
100
AcDbScale
 70
     0
300
1:30
140
1.0
141
30.0
290
     0
  0
SCALE
  5
80CF
102
{ACAD_REACTORS
330
80C5
102
}
330
80C5
100
AcDbScale
 70
     0
300
1:40
140
1.0
141
40.0
290
     0
  0
SCALE
  5
80D0
102
{ACAD_REACTORS
330
80C5
102
}
330
80C5
100
AcDbScale
 70
     0
300
1:50
140
1.0
141
50.0
290
     0
  0
SCALE
  5
80D1
102
{ACAD_REACTORS
330
80C5
102
}
330
80C5
100
AcDbScale
 70
     0
300
1:100
140
1.0
141
100.0
290
     0
  0
SCALE
  5
80D2
102
{ACAD_REACTORS
330
80C5
102
}
330
80C5
100
AcDbScale
 70
     0
300
2:1
140
2.0
141
1.0
290
     0
  0
SCALE
  5
80D3
102
{ACAD_REACTORS
330
80C5
102
}
330
80C5
100
AcDbScale
 70
     0
300
4:1
140
4.0
141
1.0
290
     0
  0
SCALE
  5
80D4
102
{ACAD_REACTORS
330
80C5
102
}
330
80C5
100
AcDbScale
 70
     0
300
8:1
140
8.0
141
1.0
290
     0
  0
SCALE
  5
80D5
102
{ACAD_REACTORS
330
80C5
102
}
330
80C5
100
AcDbScale
 70
     0
300
10:1
140
10.0
141
1.0
290
     0
  0
SCALE
  5
80D6
102
{ACAD_REACTORS
330
80C5
102
}
330
80C5
100
AcDbScale
 70
     0
300
100:1
140
100.0
141
1.0
290
     0
  0
ACDBSECTIONVIEWSTYLE
  5
80DA
102
{ACAD_XDICTIONARY
360
814B
102
}
102
{ACAD_REACTORS
330
80D9
102
}
330
80D9
100
AcDbModelDocViewStyle
 70
     0
  3
Metric50
290
     0
100
AcDbSectionViewStyle
 70
     0
 71
     0
 90
      102
 71
     1
340
10
 62
   256
 40
5.0
340
0
340
0
 62
   256
 40
5.0
300
I, O, Q, S, X, Z
 40
10.0
 90
        0
 40
2.5
 90
        0
 71
     2
340
15
 90
       25
 62
   256
340
15
 90
       50
 62
   256
 40
5.0
 40
2.5
 40
5.0
 71
     3
340
10
 62
   256
 40
5.0
 90
        0
 40
15.0
 90
        1
300
%<\AcVar ViewSectionStartId>%-%<\AcVar ViewSectionEndId>% (%<\AcVar ViewScale \f "%sn">%)
 71
     4
 62
   256
 62
   257
300
ANSI31
 40
1.0
 90
        0
290
     0
290
     0
 90
        6
 40
0.0
 40
1.570796326794896
 40
0.2617993877991494
 40
1.308996938995747
 40
-0.2617993877991494
 40
1.832595714594046
  0
TABLESTYLE
  5
80C4
102
{ACAD_XDICTIONARY
360
8140
102
}
102
{ACAD_REACTORS
330
80C3
102
}
330
80C3
100
AcDbTableStyle
280
     0
  3
Standard
 70
     0
 71
     0
 40
1.5
 41
1.5
280
     0
281
     0
  7
STANDARD
140
4.5
170
     2
 62
     0
 63
     7
283
     0
 90
      512
 91
        0
  1

274
    -2
284
     1
 64
     0
275
    -2
285
     1
 65
     0
276
    -2
286
     1
 66
     0
277
    -2
287
     1
 67
     0
278
    -2
288
     1
 68
     0
279
    -2
289
     1
 69
     0
  7
STANDARD
140
6.0
170
     5
 62
     0
 63
     7
283
     0
 90
      512
 91
        0
  1

274
    -2
284
     1
 64
     0
275
    -2
285
     1
 65
     0
276
    -2
286
     1
 66
     0
277
    -2
287
     1
 67
     0
278
    -2
288
     1
 68
     0
279
    -2
289
     1
 69
     0
  7
STANDARD
140
4.5
170
     5
 62
     0
 63
     7
283
     0
 90
      512
 91
        0
  1

274
    -2
284
     1
 64
     0
275
    -2
285
     1
 65
     0
276
    -2
286
     1
 66
     0
277
    -2
287
     1
 67
     0
278
    -2
288
     1
 68
     0
279
    -2
289
     1
 69
     0
  0
VISUALSTYLE
  5
80AF
102
{ACAD_REACTORS
330
80A9
102
}
330
80A9
100
AcDbVisualStyle
  2
2dWireframe
 70
     4
177
     3
291
     0
 70
    58
 90
        0
176
     1
 90
        2
176
     1
 90
        0
176
     1
 90
        0
176
     1
 40
0.6
176
     1
 40
30.0
176
     1
 62
     7
420
 16777215
176
     1
 90
        1
176
     1
 90
        4
176
     1
 62
     7
176
     1
 62
   257
176
     1
 90
        1
176
     1
 90
        1
176
     1
 40
1.0
176
     1
 90
        0
176
     1
 62
   257
176
     1
 40
1.0
176
     1
 90
        1
176
     1
 90
        6
176
     1
 90
        2
176
     1
 62
     7
176
     1
 90
        5
176
     1
 90
        0
176
     1
 90
        0
176
     1
290
     0
176
     1
 90
        1
176
     1
 40
0.0
176
     1
 90
        0
176
     1
290
     1
176
     1
290
     1
176
     1
290
     0
176
     1
290
     0
176
     1
290
     0
176
     1
290
     0
176
     1
290
     0
176
     1
290
     0
176
     1
290
     0
176
     1
 90
       50
176
     1
 40
0.0
176
     1
 40
1.0
176
     1
 90
        0
176
     1
 62
    18
420
        0
176
     1
 90
       50
176
     1
 90
        3
176
     1
 62
     5
420
      255
176
     1
290
     0
176
     1
 90
       50
176
     1
 90
       50
176
     1
 90
       50
176
     1
290
     0
176
     1
 90
       50
176
     1
 62
   256
176
     0
 40
1.0
176
     0
 90
        2
176
     1
  1
strokes_ogs.tif
176
     1
290
     0
176
     1
 40
1.0
176
     1
 40
1.0
176
     1
1001
ACAD
1000
AcDbSavedByObjectVersion
1070
     0
  0
VISUALSTYLE
  5
80AE
102
{ACAD_REACTORS
330
80A9
102
}
330
80A9
100
AcDbVisualStyle
  2
Basic
 70
     7
177
     3
291
     1
 70
    58
 90
        1
176
     1
 90
        0
176
     1
 90
        1
176
     1
 90
        0
176
     1
 40
0.6
176
     1
 40
30.0
176
     1
 62
     7
420
 16777215
176
     1
 90
        0
176
     1
 90
        4
176
     1
 62
     7
176
     1
 62
   257
176
     1
 90
        1
176
     1
 90
        1
176
     1
 40
1.0
176
     1
 90
        8
176
     1
 62
     7
176
     1
 40
1.0
176
     1
 90
        1
176
     1
 90
        6
176
     1
 90
        2
176
     1
 62
     7
176
     1
 90
        5
176
     1
 90
        0
176
     1
 90
        0
176
     1
290
     0
176
     1
 90
        1
176
     1
 40
0.0
176
     1
 90
        0
176
     1
290
     0
176
     1
290
     1
176
     1
290
     1
176
     1
290
     0
176
     1
290
     0
176
     1
290
     0
176
     1
290
     0
176
     1
290
     0
176
     1
290
     0
176
     1
 90
       50
176
     1
 40
0.0
176
     1
 40
1.0
176
     1
 90
        0
176
     1
 62
    18
420
        0
176
     1
 90
       50
176
     1
 90
        3
176
     1
 62
     5
420
      255
176
     1
290
     0
176
     1
 90
       50
176
     1
 90
       50
176
     1
 90
       50
176
     1
290
     0
176
     1
 90
       50
176
     1
 62
   256
176
     0
 40
1.0
176
     0
 90
        2
176
     1
  1
strokes_ogs.tif
176
     1
290
     0
176
     1
 40
1.0
176
     1
 40
1.0
176
     1
1001
ACAD
1000
AcDbSavedByObjectVersion
1070
     0
  0
VISUALSTYLE
  5
80B5
102
{ACAD_REACTORS
330
80A9
102
}
330
80A9
100
AcDbVisualStyle
  2
Brighten
 70
    12
177
     3
291
     1
 70
    58
 90
        2
176
     1
 90
        2
176
     1
 90
        0
176
     1
 90
        0
176
     1
 40
0.6
176
     1
 40
30.0
176
     1
 62
     7
420
 16777215
176
     1
 90
        1
176
     1
 90
        4
176
     1
 62
     7
176
     1
 62
   257
176
     1
 90
        1
176
     1
 90
        1
176
     1
 40
1.0
176
     1
 90
        8
176
     1
 62
     7
176
     1
 40
1.0
176
     1
 90
        1
176
     1
 90
        6
176
     1
 90
        2
176
     1
 62
     7
176
     1
 90
        5
176
     1
 90
        0
176
     1
 90
        0
176
     1
290
     0
176
     1
 90
        1
176
     1
 40
50.0
176
     1
 90
        0
176
     1
290
     0
176
     1
290
     1
176
     1
290
     1
176
     1
290
     0
176
     1
290
     0
176
     1
290
     0
176
     1
290
     0
176
     1
290
     0
176
     1
290
     0
176
     1
 90
       50
176
     1
 40
0.0
176
     1
 40
1.0
176
     1
 90
        0
176
     1
 62
    18
420
        0
176
     1
 90
       50
176
     1
 90
        3
176
     1
 62
     5
420
      255
176
     1
290
     0
176
     1
 90
       50
176
     1
 90
       50
176
     1
 90
       50
176
     1
290
     0
176
     1
 90
       50
176
     1
 62
   256
176
     0
 40
1.0
176
     0
 90
        2
176
     1
  1
strokes_ogs.tif
176
     1
290
     0
176
     1
 40
1.0
176
     1
 40
1.0
176
     1
1001
ACAD
1000
AcDbSavedByObjectVersion
1070
     0
  0
VISUALSTYLE
  5
80B9
102
{ACAD_REACTORS
330
80A9
102
}
330
80A9
100
AcDbVisualStyle
  2
ColorChange
 70
    16
177
     3
291
     1
 70
    58
 90
        2
176
     1
 90
        2
176
     1
 90
        3
176
     1
 90
        0
176
     1
 40
0.6
176
     1
 40
30.0
176
     1
 62
     8
420
  8421504
176
     1
 90
        1
176
     1
 90
        4
176
     1
 62
     7
176
     1
 62
   257
176
     1
 90
        1
176
     1
 90
        1
176
     1
 40
1.0
176
     1
 90
        8
176
     1
 62
     8
420
  8421504
176
     1
 40
1.0
176
     1
 90
        1
176
     1
 90
        6
176
     1
 90
        2
176
     1
 62
     7
176
     1
 90
        5
176
     1
 90
        0
176
     1
 90
        0
176
     1
290
     0
176
     1
 90
        1
176
     1
 40
0.0
176
     1
 90
        0
176
     1
290
     0
176
     1
290
     1
176
     1
290
     1
176
     1
290
     0
176
     1
290
     0
176
     1
290
     0
176
     1
290
     0
176
     1
290
     0
176
     1
290
     0
176
     1
 90
       50
176
     1
 40
0.0
176
     1
 40
1.0
176
     1
 90
        0
176
     1
 62
    18
420
        0
176
     1
 90
       50
176
     1
 90
        3
176
     1
 62
     5
420
      255
176
     1
290
     0
176
     1
 90
       50
176
     1
 90
       50
176
     1
 90
       50
176
     1
290
     0
176
     1
 90
       50
176
     1
 62
   256
176
     0
 40
1.0
176
     0
 90
        2
176
     1
  1
strokes_ogs.tif
176
     1
290
     0
176
     1
 40
1.0
176
     1
 40
1.0
176
     1
1001
ACAD
1000
AcDbSavedByObjectVersion
1070
     0
  0
VISUALSTYLE
  5
80B2
102
{ACAD_REACTORS
330
80A9
102
}
330
80A9
100
AcDbVisualStyle
  2
Conceptual
 70
     9
177
     3
291
     0
 70
    58
 90
        3
176
     1
 90
        2
176
     1
 90
        0
176
     1
 90
        0
176
     1
 40
0.6
176
     1
 40
30.0
176
     1
 62
     7
420
 16777215
176
     1
 90
        2
176
     1
 90
        2
176
     1
 62
     7
176
     1
 62
   257
176
     1
 90
        1
176
     1
 90
        1
176
     1
 40
179.0
176
     1
 90
        8
176
     1
 62
     7
176
     1
 40
1.0
176
     1
 90
        1
176
     1
 90
        6
176
     1
 90
        2
176
     1
 62
     7
176
     1
 90
        3
176
     1
 90
        0
176
     1
 90
        0
176
     1
290
     0
176
     1
 90
        1
176
     1
 40
0.0
176
     1
 90
        0
176
     1
290
     0
176
     1
290
     1
176
     1
290
     1
176
     1
290
     0
176
     1
290
     0
176
     1
290
     0
176
     1
290
     0
176
     1
290
     0
176
     1
290
     0
176
     1
 90
       50
176
     1
 40
0.0
176
     1
 40
1.0
176
     1
 90
        0
176
     1
 62
    18
420
        0
176
     1
 90
       50
176
     1
 90
        3
176
     1
 62
     5
420
      255
176
     1
290
     0
176
     1
 90
       50
176
     1
 90
       50
176
     1
 90
       50
176
     1
290
     0
176
     1
 90
       50
176
     1
 62
   256
176
     0
 40
1.0
176
     0
 90
        2
176
     1
  1
strokes_ogs.tif
176
     1
290
     0
176
     1
 40
1.0
176
     1
 40
1.0
176
     1
1001
ACAD
1000
AcDbSavedByObjectVersion
1070
     0
  0
VISUALSTYLE
  5
80B4
102
{ACAD_REACTORS
330
80A9
102
}
330
80A9
100
AcDbVisualStyle
  2
Dim
 70
    11
177
     3
291
     1
 70
    58
 90
        2
176
     1
 90
        2
176
     1
 90
        0
176
     1
 90
        0
176
     1
 40
0.6
176
     1
 40
30.0
176
     1
 62
     7
420
 16777215
176
     1
 90
        1
176
     1
 90
        4
176
     1
 62
     7
176
     1
 62
   257
176
     1
 90
        1
176
     1
 90
        1
176
     1
 40
1.0
176
     1
 90
        8
176
     1
 62
     7
176
     1
 40
1.0
176
     1
 90
        1
176
     1
 90
        6
176
     1
 90
        2
176
     1
 62
     7
176
     1
 90
        5
176
     1
 90
        0
176
     1
 90
        0
176
     1
290
     0
176
     1
 90
        1
176
     1
 40
-50.0
176
     1
 90
        0
176
     1
290
     0
176
     1
290
     1
176
     1
290
     1
176
     1
290
     0
176
     1
290
     0
176
     1
290
     0
176
     1
290
     0
176
     1
290
     0
176
     1
290
     0
176
     1
 90
       50
176
     1
 40
0.0
176
     1
 40
1.0
176
     1
 90
        0
176
     1
 62
    18
420
        0
176
     1
 90
       50
176
     1
 90
        3
176
     1
 62
     5
420
      255
176
     1
290
     0
176
     1
 90
       50
176
     1
 90
       50
176
     1
 90
       50
176
     1
290
     0
176
     1
 90
       50
176
     1
 62
   256
176
     0
 40
1.0
176
     0
 90
        2
176
     1
  1
strokes_ogs.tif
176
     1
290
     0
176
     1
 40
1.0
176
     1
 40
1.0
176
     1
1001
ACAD
1000
AcDbSavedByObjectVersion
1070
     0
  0
VISUALSTYLE
  5
80C1
102
{ACAD_REACTORS
330
80A9
102
}
330
80A9
100
AcDbVisualStyle
  2
EdgeColorOff
 70
    22
177
     3
291
     1
 70
    58
 90
        2
176
     0
 90
        2
176
     0
 90
        0
176
     0
 90
        0
176
     0
 40
0.6
176
     0
 40
30.0
176
     0
 62
     7
420
 16777215
176
     0
 90
        1
176
     0
 90
        4
176
     0
 62
     7
176
     0
 62
   257
176
     0
 90
        1
176
     0
 90
        1
176
     0
 40
1.0
176
     0
 90
        8
176
     2
 62
     7
176
     0
 40
1.0
176
     0
 90
        1
176
     0
 90
        6
176
     0
 90
        2
176
     0
 62
     7
176
     0
 90
        5
176
     0
 90
        0
176
     0
 90
        0
176
     0
290
     0
176
     0
 90
        1
176
     0
 40
0.0
176
     0
 90
        0
176
     0
290
     0
176
     0
290
     1
176
     0
290
     1
176
     0
290
     0
176
     0
290
     0
176
     0
290
     0
176
     0
290
     0
176
     0
290
     0
176
     0
290
     0
176
     0
 90
       50
176
     0
 40
0.0
176
     0
 40
1.0
176
     0
 90
        0
176
     0
 62
    18
420
        0
176
     0
 90
       50
176
     0
 90
        3
176
     0
 62
     5
420
      255
176
     0
290
     0
176
     0
 90
       50
176
     0
 90
       50
176
     0
 90
       50
176
     0
290
     0
176
     0
 90
       50
176
     0
 62
   256
176
     0
 40
1.0
176
     0
 90
        2
176
     0
  1
strokes_ogs.tif
176
     0
290
     0
176
     0
 40
1.0
176
     0
 40
1.0
176
     0
1001
ACAD
1000
AcDbSavedByObjectVersion
1070
     0
  0
VISUALSTYLE
  5
80B8
102
{ACAD_REACTORS
330
80A9
102
}
330
80A9
100
AcDbVisualStyle
  2
Facepattern
 70
    15
177
     3
291
     1
 70
    58
 90
        2
176
     1
 90
        2
176
     1
 90
        0
176
     1
 90
        0
176
     1
 40
0.6
176
     1
 40
30.0
176
     1
 62
     7
420
 16777215
176
     1
 90
        1
176
     1
 90
        4
176
     1
 62
     7
176
     1
 62
   257
176
     1
 90
        1
176
     1
 90
        1
176
     1
 40
1.0
176
     1
 90
        8
176
     1
 62
     7
176
     1
 40
1.0
176
     1
 90
        1
176
     1
 90
        6
176
     1
 90
        2
176
     1
 62
     7
176
     1
 90
        5
176
     1
 90
        0
176
     1
 90
        0
176
     1
290
     0
176
     1
 90
        1
176
     1
 40
0.0
176
     1
 90
        0
176
     1
290
     0
176
     1
290
     1
176
     1
290
     1
176
     1
290
     0
176
     1
290
     0
176
     1
290
     0
176
     1
290
     0
176
     1
290
     0
176
     1
290
     0
176
     1
 90
       50
176
     1
 40
0.0
176
     1
 40
1.0
176
     1
 90
        0
176
     1
 62
    18
420
        0
176
     1
 90
       50
176
     1
 90
        3
176
     1
 62
     5
420
      255
176
     1
290
     0
176
     1
 90
       50
176
     1
 90
       50
176
     1
 90
       50
176
     1
290
     0
176
     1
 90
       50
176
     1
 62
   256
176
     0
 40
1.0
176
     0
 90
        2
176
     1
  1
strokes_ogs.tif
176
     1
290
     0
176
     1
 40
1.0
176
     1
 40
1.0
176
     1
1001
ACAD
1000
AcDbSavedByObjectVersion
1070
     0
  0
VISUALSTYLE
  5
80AA
102
{ACAD_REACTORS
330
80A9
102
}
330
80A9
100
AcDbVisualStyle
  2
Flat
 70
     0
177
     3
291
     1
 70
    58
 90
        2
176
     1
 90
        1
176
     1
 90
        1
176
     1
 90
        2
176
     1
 40
0.6
176
     1
 40
30.0
176
     1
 62
     7
420
 16777215
176
     1
 90
        0
176
     1
 90
        0
176
     1
 62
     7
176
     1
 62
   257
176
     1
 90
        1
176
     1
 90
        1
176
     1
 40
1.0
176
     1
 90
        8
176
     1
 62
     7
176
     1
 40
1.0
176
     1
 90
        1
176
     1
 90
        6
176
     1
 90
        2
176
     1
 62
     7
176
     1
 90
        5
176
     1
 90
        0
176
     1
 90
        0
176
     1
290
     0
176
     1
 90
       13
176
     1
 40
0.0
176
     1
 90
        0
176
     1
290
     0
176
     1
290
     1
176
     1
290
     1
176
     1
290
     0
176
     1
290
     0
176
     1
290
     0
176
     1
290
     0
176
     1
290
     0
176
     1
290
     0
176
     1
 90
       50
176
     1
 40
0.0
176
     1
 40
1.0
176
     1
 90
        0
176
     1
 62
    18
420
        0
176
     1
 90
       50
176
     1
 90
        3
176
     1
 62
     5
420
      255
176
     1
290
     0
176
     1
 90
       50
176
     1
 90
       50
176
     1
 90
       50
176
     1
290
     0
176
     1
 90
       50
176
     1
 62
   256
176
     0
 40
1.0
176
     0
 90
        2
176
     1
  1
strokes_ogs.tif
176
     1
290
     0
176
     1
 40
1.0
176
     1
 40
1.0
176
     1
1001
ACAD
1000
AcDbSavedByObjectVersion
1070
     0
  0
VISUALSTYLE
  5
80AB
102
{ACAD_REACTORS
330
80A9
102
}
330
80A9
100
AcDbVisualStyle
  2
FlatWithEdges
 70
     1
177
     3
291
     1
 70
    58
 90
        2
176
     1
 90
        1
176
     1
 90
        1
176
     1
 90
        2
176
     1
 40
0.6
176
     1
 40
30.0
176
     1
 62
     7
420
 16777215
176
     1
 90
        1
176
     1
 90
        0
176
     1
 62
     7
176
     1
 62
   257
176
     1
 90
        1
176
     1
 90
        1
176
     1
 40
1.0
176
     1
 90
        0
176
     1
 62
   257
176
     1
 40
1.0
176
     1
 90
        1
176
     1
 90
        6
176
     1
 90
        2
176
     1
 62
     7
176
     1
 90
        5
176
     1
 90
        0
176
     1
 90
        0
176
     1
290
     0
176
     1
 90
       13
176
     1
 40
0.0
176
     1
 90
        0
176
     1
290
     0
176
     1
290
     1
176
     1
290
     1
176
     1
290
     0
176
     1
290
     0
176
     1
290
     0
176
     1
290
     0
176
     1
290
     0
176
     1
290
     0
176
     1
 90
       50
176
     1
 40
0.0
176
     1
 40
1.0
176
     1
 90
        0
176
     1
 62
    18
420
        0
176
     1
 90
       50
176
     1
 90
        3
176
     1
 62
     5
420
      255
176
     1
290
     0
176
     1
 90
       50
176
     1
 90
       50
176
     1
 90
       50
176
     1
290
     0
176
     1
 90
       50
176
     1
 62
   256
176
     0
 40
1.0
176
     0
 90
        2
176
     1
  1
strokes_ogs.tif
176
     1
290
     0
176
     1
 40
1.0
176
     1
 40
1.0
176
     1
1001
ACAD
1000
AcDbSavedByObjectVersion
1070
     0
  0
VISUALSTYLE
  5
80AC
102
{ACAD_REACTORS
330
80A9
102
}
330
80A9
100
AcDbVisualStyle
  2
Gouraud
 70
     2
177
     3
291
     1
 70
    58
 90
        2
176
     1
 90
        2
176
     1
 90
        1
176
     1
 90
        2
176
     1
 40
0.6
176
     1
 40
30.0
176
     1
 62
     7
420
 16777215
176
     1
 90
        0
176
     1
 90
        0
176
     1
 62
     7
176
     1
 62
   257
176
     1
 90
        1
176
     1
 90
        1
176
     1
 40
1.0
176
     1
 90
        0
176
     1
 62
     7
176
     1
 40
1.0
176
     1
 90
        1
176
     1
 90
        6
176
     1
 90
        2
176
     1
 62
     7
176
     1
 90
        5
176
     1
 90
        0
176
     1
 90
        0
176
     1
290
     0
176
     1
 90
       13
176
     1
 40
0.0
176
     1
 90
        0
176
     1
290
     0
176
     1
290
     1
176
     1
290
     1
176
     1
290
     0
176
     1
290
     0
176
     1
290
     0
176
     1
290
     0
176
     1
290
     0
176
     1
290
     0
176
     1
 90
       50
176
     1
 40
0.0
176
     1
 40
1.0
176
     1
 90
        0
176
     1
 62
    18
420
        0
176
     1
 90
       50
176
     1
 90
        3
176
     1
 62
     5
420
      255
176
     1
290
     0
176
     1
 90
       50
176
     1
 90
       50
176
     1
 90
       50
176
     1
290
     0
176
     1
 90
       50
176
     1
 62
   256
176
     0
 40
1.0
176
     0
 90
        2
176
     1
  1
strokes_ogs.tif
176
     1
290
     0
176
     1
 40
1.0
176
     1
 40
1.0
176
     1
1001
ACAD
1000
AcDbSavedByObjectVersion
1070
     0
  0
VISUALSTYLE
  5
80AD
102
{ACAD_REACTORS
330
80A9
102
}
330
80A9
100
AcDbVisualStyle
  2
GouraudWithEdges
 70
     3
177
     3
291
     1
 70
    58
 90
        2
176
     1
 90
        2
176
     1
 90
        1
176
     1
 90
        2
176
     1
 40
0.6
176
     1
 40
30.0
176
     1
 62
     7
420
 16777215
176
     1
 90
        1
176
     1
 90
        0
176
     1
 62
     7
176
     1
 62
   257
176
     1
 90
        1
176
     1
 90
        1
176
     1
 40
1.0
176
     1
 90
        0
176
     1
 62
   257
176
     1
 40
1.0
176
     1
 90
        1
176
     1
 90
        6
176
     1
 90
        2
176
     1
 62
     7
176
     1
 90
        5
176
     1
 90
        0
176
     1
 90
        0
176
     1
290
     0
176
     1
 90
       13
176
     1
 40
0.0
176
     1
 90
        0
176
     1
290
     0
176
     1
290
     1
176
     1
290
     1
176
     1
290
     0
176
     1
290
     0
176
     1
290
     0
176
     1
290
     0
176
     1
290
     0
176
     1
290
     0
176
     1
 90
       50
176
     1
 40
0.0
176
     1
 40
1.0
176
     1
 90
        0
176
     1
 62
    18
420
        0
176
     1
 90
       50
176
     1
 90
        3
176
     1
 62
     5
420
      255
176
     1
290
     0
176
     1
 90
       50
176
     1
 90
       50
176
     1
 90
       50
176
     1
290
     0
176
     1
 90
       50
176
     1
 62
   256
176
     0
 40
1.0
176
     0
 90
        2
176
     1
  1
strokes_ogs.tif
176
     1
290
     0
176
     1
 40
1.0
176
     1
 40
1.0
176
     1
1001
ACAD
1000
AcDbSavedByObjectVersion
1070
     0
  0
VISUALSTYLE
  5
80B1
102
{ACAD_REACTORS
330
80A9
102
}
330
80A9
100
AcDbVisualStyle
  2
Hidden
 70
     6
177
     3
291
     0
 70
    58
 90
        1
176
     1
 90
        2
176
     1
 90
        2
176
     1
 90
        0
176
     1
 40
0.6
176
     1
 40
30.0
176
     1
 62
     7
420
 16777215
176
     1
 90
        2
176
     1
 90
        2
176
     1
 62
     7
176
     1
 62
   257
176
     1
 90
        2
176
     1
 90
        1
176
     1
 40
40.0
176
     1
 90
        0
176
     1
 62
   257
176
     1
 40
1.0
176
     1
 90
        1
176
     1
 90
        6
176
     1
 90
        2
176
     1
 62
     7
176
     1
 90
        3
176
     1
 90
        0
176
     1
 90
        0
176
     1
290
     0
176
     1
 90
        1
176
     1
 40
0.0
176
     1
 90
        0
176
     1
290
     0
176
     1
290
     1
176
     1
290
     1
176
     1
290
     0
176
     1
290
     0
176
     1
290
     0
176
     1
290
     0
176
     1
290
     0
176
     1
290
     0
176
     1
 90
       50
176
     1
 40
0.0
176
     1
 40
1.0
176
     1
 90
        0
176
     1
 62
    18
420
        0
176
     1
 90
       50
176
     1
 90
        3
176
     1
 62
     5
420
      255
176
     1
290
     0
176
     1
 90
       50
176
     1
 90
       50
176
     1
 90
       50
176
     1
290
     0
176
     1
 90
       50
176
     1
 62
   256
176
     0
 40
1.0
176
     0
 90
        2
176
     1
  1
strokes_ogs.tif
176
     1
290
     0
176
     1
 40
1.0
176
     1
 40
1.0
176
     1
1001
ACAD
1000
AcDbSavedByObjectVersion
1070
     0
  0
VISUALSTYLE
  5
80BF
102
{ACAD_REACTORS
330
80A9
102
}
330
80A9
100
AcDbVisualStyle
  2
JitterOff
 70
    20
177
     3
291
     1
 70
    58
 90
        2
176
     0
 90
        2
176
     0
 90
        0
176
     0
 90
        0
176
     0
 40
0.6
176
     0
 40
30.0
176
     0
 62
     7
420
 16777215
176
     0
 90
        1
176
     0
 90
        4
176
     0
 62
     7
176
     0
 62
   257
176
     0
 90
        1
176
     0
 90
        1
176
     0
 40
1.0
176
     0
 90
       10
176
     2
 62
     7
176
     0
 40
1.0
176
     0
 90
        1
176
     0
 90
        6
176
     0
 90
        2
176
     0
 62
     7
176
     0
 90
        5
176
     0
 90
        0
176
     0
 90
        0
176
     0
290
     0
176
     0
 90
        1
176
     0
 40
0.0
176
     0
 90
        0
176
     0
290
     0
176
     0
290
     1
176
     0
290
     1
176
     0
290
     0
176
     0
290
     0
176
     0
290
     0
176
     0
290
     0
176
     0
290
     0
176
     0
290
     0
176
     0
 90
       50
176
     0
 40
0.0
176
     0
 40
1.0
176
     0
 90
        0
176
     0
 62
    18
420
        0
176
     0
 90
       50
176
     0
 90
        3
176
     0
 62
     5
420
      255
176
     0
290
     0
176
     0
 90
       50
176
     0
 90
       50
176
     0
 90
       50
176
     0
290
     0
176
     0
 90
       50
176
     0
 62
   256
176
     0
 40
1.0
176
     0
 90
        2
176
     0
  1
strokes_ogs.tif
176
     0
290
     0
176
     0
 40
1.0
176
     0
 40
1.0
176
     0
1001
ACAD
1000
AcDbSavedByObjectVersion
1070
     0
  0
VISUALSTYLE
  5
80B7
102
{ACAD_REACTORS
330
80A9
102
}
330
80A9
100
AcDbVisualStyle
  2
Linepattern
 70
    14
177
     3
291
     1
 70
    58
 90
        2
176
     1
 90
        2
176
     1
 90
        0
176
     1
 90
        0
176
     1
 40
0.6
176
     1
 40
30.0
176
     1
 62
     7
420
 16777215
176
     1
 90
        1
176
     1
 90
        4
176
     1
 62
     7
176
     1
 62
   257
176
     1
 90
        7
176
     1
 90
        7
176
     1
 40
1.0
176
     1
 90
        8
176
     1
 62
     7
176
     1
 40
1.0
176
     1
 90
        1
176
     1
 90
        6
176
     1
 90
        2
176
     1
 62
     7
176
     1
 90
        5
176
     1
 90
        0
176
     1
 90
        0
176
     1
290
     0
176
     1
 90
        1
176
     1
 40
0.0
176
     1
 90
        0
176
     1
290
     0
176
     1
290
     1
176
     1
290
     1
176
     1
290
     0
176
     1
290
     0
176
     1
290
     0
176
     1
290
     0
176
     1
290
     0
176
     1
290
     0
176
     1
 90
       50
176
     1
 40
0.0
176
     1
 40
1.0
176
     1
 90
        0
176
     1
 62
    18
420
        0
176
     1
 90
       50
176
     1
 90
        3
176
     1
 62
     5
420
      255
176
     1
290
     0
176
     1
 90
       50
176
     1
 90
       50
176
     1
 90
       50
176
     1
290
     0
176
     1
 90
       50
176
     1
 62
   256
176
     0
 40
1.0
176
     0
 90
        2
176
     1
  1
strokes_ogs.tif
176
     1
290
     0
176
     1
 40
1.0
176
     1
 40
1.0
176
     1
1001
ACAD
1000
AcDbSavedByObjectVersion
1070
     0
  0
VISUALSTYLE
  5
80C0
102
{ACAD_REACTORS
330
80A9
102
}
330
80A9
100
AcDbVisualStyle
  2
OverhangOff
 70
    21
177
     3
291
     1
 70
    58
 90
        2
176
     0
 90
        2
176
     0
 90
        0
176
     0
 90
        0
176
     0
 40
0.6
176
     0
 40
30.0
176
     0
 62
     7
420
 16777215
176
     0
 90
        1
176
     0
 90
        4
176
     0
 62
     7
176
     0
 62
   257
176
     0
 90
        1
176
     0
 90
        1
176
     0
 40
1.0
176
     0
 90
        9
176
     2
 62
     7
176
     0
 40
1.0
176
     0
 90
        1
176
     0
 90
        6
176
     0
 90
        2
176
     0
 62
     7
176
     0
 90
        5
176
     0
 90
        0
176
     0
 90
        0
176
     0
290
     0
176
     0
 90
        1
176
     0
 40
0.0
176
     0
 90
        0
176
     0
290
     0
176
     0
290
     1
176
     0
290
     1
176
     0
290
     0
176
     0
290
     0
176
     0
290
     0
176
     0
290
     0
176
     0
290
     0
176
     0
290
     0
176
     0
 90
       50
176
     0
 40
0.0
176
     0
 40
1.0
176
     0
 90
        0
176
     0
 62
    18
420
        0
176
     0
 90
       50
176
     0
 90
        3
176
     0
 62
     5
420
      255
176
     0
290
     0
176
     0
 90
       50
176
     0
 90
       50
176
     0
 90
       50
176
     0
290
     0
176
     0
 90
       50
176
     0
 62
   256
176
     0
 40
1.0
176
     0
 90
        2
176
     0
  1
strokes_ogs.tif
176
     0
290
     0
176
     0
 40
1.0
176
     0
 40
1.0
176
     0
1001
ACAD
1000
AcDbSavedByObjectVersion
1070
     0
  0
VISUALSTYLE
  5
80B3
102
{ACAD_REACTORS
330
80A9
102
}
330
80A9
100
AcDbVisualStyle
  2
Realistic
 70
     8
177
     3
291
     0
 70
    58
 90
        2
176
     1
 90
        3
176
     1
 90
        0
176
     1
 90
        2
176
     1
 40
0.6
176
     1
 40
30.0
176
     1
 62
     7
420
 16777215
176
     1
 90
        0
176
     1
 90
        0
176
     1
 62
     7
176
     1
 62
   257
176
     1
 90
        1
176
     1
 90
        1
176
     1
 40
1.0
176
     1
 90
        8
176
     1
 62
   257
176
     1
 40
1.0
176
     1
 90
        1
176
     1
 90
        6
176
     1
 90
        2
176
     1
 62
     7
176
     1
 90
        3
176
     1
 90
        0
176
     1
 90
        0
176
     1
290
     0
176
     1
 90
       13
176
     1
 40
0.0
176
     1
 90
        0
176
     1
290
     0
176
     1
290
     1
176
     1
290
     1
176
     1
290
     0
176
     1
290
     0
176
     1
290
     0
176
     1
290
     0
176
     1
290
     0
176
     1
290
     0
176
     1
 90
       50
176
     1
 40
0.0
176
     1
 40
1.0
176
     1
 90
        0
176
     1
 62
    18
420
        0
176
     1
 90
       50
176
     1
 90
        3
176
     1
 62
     5
420
      255
176
     1
290
     0
176
     1
 90
       50
176
     1
 90
       50
176
     1
 90
       50
176
     1
290
     0
176
     1
 90
       50
176
     1
 62
   256
176
     0
 40
1.0
176
     0
 90
        2
176
     1
  1
strokes_ogs.tif
176
     1
290
     0
176
     1
 40
1.0
176
     1
 40
1.0
176
     1
1001
ACAD
1000
AcDbSavedByObjectVersion
1070
     0
  0
VISUALSTYLE
  5
80BE
102
{ACAD_REACTORS
330
80A9
102
}
330
80A9
100
AcDbVisualStyle
  2
Shaded
 70
    27
177
     3
291
     0
 70
    58
 90
        2
176
     1
 90
        2
176
     1
 90
        1
176
     1
 90
        2
176
     1
 40
0.6
176
     1
 40
30.0
176
     1
 62
     7
420
 16777215
176
     1
 90
        0
176
     1
 90
        4
176
     1
 62
     7
176
     1
 62
   257
176
     1
 90
        1
176
     1
 90
        1
176
     1
 40
1.0
176
     1
 90
        8
176
     1
 62
   257
176
     1
 40
1.0
176
     1
 90
        1
176
     1
 90
        6
176
     1
 90
        2
176
     1
 62
     8
420
  7895160
176
     1
 90
        3
176
     1
 90
        0
176
     1
 90
        0
176
     1
290
     0
176
     1
 90
        5
176
     1
 40
0.0
176
     1
 90
        0
176
     1
290
     0
176
     1
290
     1
176
     1
290
     1
176
     1
290
     0
176
     1
290
     0
176
     1
290
     0
176
     1
290
     0
176
     1
290
     0
176
     1
290
     0
176
     1
 90
       50
176
     1
 40
0.0
176
     1
 40
1.0
176
     1
 90
        0
176
     1
 62
    18
420
        0
176
     1
 90
       50
176
     1
 90
        3
176
     1
 62
     5
420
      255
176
     1
290
     0
176
     1
 90
       50
176
     1
 90
       50
176
     1
 90
       50
176
     1
290
     0
176
     1
 90
       50
176
     1
 62
   256
176
     0
 40
1.0
176
     0
 90
        2
176
     1
  1
strokes_ogs.tif
176
     1
290
     0
176
     1
 40
1.0
176
     1
 40
1.0
176
     1
1001
ACAD
1000
AcDbSavedByObjectVersion
1070
     0
  0
VISUALSTYLE
  5
80BD
102
{ACAD_REACTORS
330
80A9
102
}
330
80A9
100
AcDbVisualStyle
  2
Shaded with edges
 70
    26
177
     3
291
     0
 70
    58
 90
        2
176
     1
 90
        2
176
     1
 90
        1
176
     1
 90
        2
176
     1
 40
0.6
176
     1
 40
30.0
176
     1
 62
     7
420
 16777215
176
     1
 90
        1
176
     1
 90
        2
176
     1
 62
     7
176
     1
 62
   257
176
     1
 90
        2
176
     1
 90
        1
176
     1
 40
1.0
176
     1
 90
        8
176
     1
 62
   257
176
     1
 40
1.0
176
     1
 90
        1
176
     1
 90
        6
176
     1
 90
        2
176
     1
 62
     7
176
     1
 90
        3
176
     1
 90
        0
176
     1
 90
        0
176
     1
290
     0
176
     1
 90
        5
176
     1
 40
0.0
176
     1
 90
        0
176
     1
290
     0
176
     1
290
     1
176
     1
290
     1
176
     1
290
     0
176
     1
290
     0
176
     1
290
     0
176
     1
290
     0
176
     1
290
     0
176
     1
290
     0
176
     1
 90
       50
176
     1
 40
0.0
176
     1
 40
1.0
176
     1
 90
        0
176
     1
 62
    18
420
        0
176
     1
 90
       50
176
     1
 90
        3
176
     1
 62
     5
420
      255
176
     1
290
     0
176
     1
 90
       50
176
     1
 90
       50
176
     1
 90
       50
176
     1
290
     0
176
     1
 90
       50
176
     1
 62
   256
176
     0
 40
1.0
176
     0
 90
        2
176
     1
  1
strokes_ogs.tif
176
     1
290
     0
176
     1
 40
1.0
176
     1
 40
1.0
176
     1
1001
ACAD
1000
AcDbSavedByObjectVersion
1070
     0
  0
VISUALSTYLE
  5
80BA
102
{ACAD_REACTORS
330
80A9
102
}
330
80A9
100
AcDbVisualStyle
  2
Shades of Gray
 70
    23
177
     3
291
     0
 70
    58
 90
        2
176
     1
 90
        2
176
     1
 90
        3
176
     1
 90
        0
176
     1
 40
0.6
176
     1
 40
30.0
176
     1
 62
     7
420
 16777215
176
     1
 90
        2
176
     1
 90
        2
176
     1
 62
     7
176
     1
 62
     7
176
     1
 90
        1
176
     1
 90
        1
176
     1
 40
40.0
176
     1
 90
        8
176
     1
 62
     7
176
     1
 40
1.0
176
     1
 90
        1
176
     1
 90
        6
176
     1
 90
        2
176
     1
 62
     7
176
     1
 90
        3
176
     1
 90
        0
176
     1
 90
        0
176
     1
290
     0
176
     1
 90
        1
176
     1
 40
0.0
176
     1
 90
        0
176
     1
290
     0
176
     1
290
     1
176
     1
290
     1
176
     1
290
     0
176
     1
290
     0
176
     1
290
     0
176
     1
290
     0
176
     1
290
     0
176
     1
290
     0
176
     1
 90
       50
176
     1
 40
0.0
176
     1
 40
1.0
176
     1
 90
        0
176
     1
 62
    18
420
        0
176
     1
 90
       50
176
     1
 90
        3
176
     1
 62
     5
420
      255
176
     1
290
     0
176
     1
 90
       50
176
     1
 90
       50
176
     1
 90
       50
176
     1
290
     0
176
     1
 90
       50
176
     1
 62
   256
176
     0
 40
1.0
176
     0
 90
        2
176
     1
  1
strokes_ogs.tif
176
     1
290
     0
176
     1
 40
1.0
176
     1
 40
1.0
176
     1
1001
ACAD
1000
AcDbSavedByObjectVersion
1070
     0
  0
VISUALSTYLE
  5
80BB
102
{ACAD_REACTORS
330
80A9
102
}
330
80A9
100
AcDbVisualStyle
  2
Sketchy
 70
    24
177
     3
291
     0
 70
    58
 90
        1
176
     1
 90
        2
176
     1
 90
        2
176
     1
 90
        0
176
     1
 40
0.6
176
     1
 40
30.0
176
     1
 62
     7
420
 16777215
176
     1
 90
        2
176
     1
 90
        2
176
     1
 62
     7
176
     1
 62
     7
176
     1
 90
        1
176
     1
 90
        1
176
     1
 40
40.0
176
     1
 90
       11
176
     1
 62
     7
176
     1
 40
1.0
176
     1
 90
        1
176
     1
 90
        6
176
     1
 90
        2
176
     1
 62
     7
176
     1
 90
        6
176
     1
 90
        0
176
     1
 90
        0
176
     1
290
     0
176
     1
 90
        1
176
     1
 40
0.0
176
     1
 90
        0
176
     1
290
     0
176
     1
290
     1
176
     1
290
     1
176
     1
290
     0
176
     1
290
     0
176
     1
290
     0
176
     1
290
     0
176
     1
290
     0
176
     1
290
     0
176
     1
 90
       50
176
     1
 40
0.0
176
     1
 40
1.0
176
     1
 90
        0
176
     1
 62
    18
420
        0
176
     1
 90
       50
176
     1
 90
        3
176
     1
 62
     5
420
      255
176
     1
290
     0
176
     1
 90
       50
176
     1
 90
       50
176
     1
 90
       50
176
     1
290
     0
176
     1
 90
       50
176
     1
 62
   256
176
     0
 40
1.0
176
     0
 90
        2
176
     1
  1
strokes_ogs.tif
176
     1
290
     0
176
     1
 40
1.0
176
     1
 40
1.0
176
     1
1001
ACAD
1000
AcDbSavedByObjectVersion
1070
     0
  0
VISUALSTYLE
  5
80B6
102
{ACAD_REACTORS
330
80A9
102
}
330
80A9
100
AcDbVisualStyle
  2
Thicken
 70
    13
177
     3
291
     1
 70
    58
 90
        2
176
     1
 90
        2
176
     1
 90
        0
176
     1
 90
        0
176
     1
 40
0.6
176
     1
 40
30.0
176
     1
 62
     7
420
 16777215
176
     1
 90
        1
176
     1
 90
        4
176
     1
 62
     7
176
     1
 62
   257
176
     1
 90
        1
176
     1
 90
        1
176
     1
 40
1.0
176
     1
 90
       12
176
     1
 62
     7
176
     1
 40
1.0
176
     1
 90
        1
176
     1
 90
        6
176
     1
 90
        2
176
     1
 62
     7
176
     1
 90
        5
176
     1
 90
        0
176
     1
 90
        0
176
     1
290
     0
176
     1
 90
        1
176
     1
 40
0.0
176
     1
 90
        0
176
     1
290
     0
176
     1
290
     1
176
     1
290
     1
176
     1
290
     0
176
     1
290
     0
176
     1
290
     0
176
     1
290
     0
176
     1
290
     0
176
     1
290
     0
176
     1
 90
       50
176
     1
 40
0.0
176
     1
 40
1.0
176
     1
 90
        0
176
     1
 62
    18
420
        0
176
     1
 90
       50
176
     1
 90
        3
176
     1
 62
     5
420
      255
176
     1
290
     0
176
     1
 90
       50
176
     1
 90
       50
176
     1
 90
       50
176
     1
290
     0
176
     1
 90
       50
176
     1
 62
   256
176
     0
 40
1.0
176
     0
 90
        2
176
     1
  1
strokes_ogs.tif
176
     1
290
     0
176
     1
 40
1.0
176
     1
 40
1.0
176
     1
1001
ACAD
1000
AcDbSavedByObjectVersion
1070
     0
  0
VISUALSTYLE
  5
80B0
102
{ACAD_REACTORS
330
80A9
102
}
330
80A9
100
AcDbVisualStyle
  2
Wireframe
 70
     5
177
     3
291
     0
 70
    58
 90
        0
176
     1
 90
        2
176
     1
 90
        0
176
     1
 90
        0
176
     1
 40
0.6
176
     1
 40
30.0
176
     1
 62
     7
420
 16777215
176
     1
 90
        1
176
     1
 90
        4
176
     1
 62
     7
176
     1
 62
   257
176
     1
 90
        1
176
     1
 90
        1
176
     1
 40
1.0
176
     1
 90
        0
176
     1
 62
   257
176
     1
 40
1.0
176
     1
 90
        1
176
     1
 90
        6
176
     1
 90
        2
176
     1
 62
     7
176
     1
 90
        3
176
     1
 90
        0
176
     1
 90
        0
176
     1
290
     0
176
     1
 90
        1
176
     1
 40
0.0
176
     1
 90
        0
176
     1
290
     0
176
     1
290
     1
176
     1
290
     1
176
     1
290
     0
176
     1
290
     0
176
     1
290
     0
176
     1
290
     0
176
     1
290
     0
176
     1
290
     0
176
     1
 90
       50
176
     1
 40
0.0
176
     1
 40
1.0
176
     1
 90
        0
176
     1
 62
    18
420
        0
176
     1
 90
       50
176
     1
 90
        3
176
     1
 62
     5
420
      255
176
     1
290
     0
176
     1
 90
       50
176
     1
 90
       50
176
     1
 90
       50
176
     1
290
     0
176
     1
 90
       50
176
     1
 62
   256
176
     0
 40
1.0
176
     0
 90
        2
176
     1
  1
strokes_ogs.tif
176
     1
290
     0
176
     1
 40
1.0
176
     1
 40
1.0
176
     1
1001
ACAD
1000
AcDbSavedByObjectVersion
1070
     0
  0
VISUALSTYLE
  5
80BC
102
{ACAD_REACTORS
330
80A9
102
}
330
80A9
100
AcDbVisualStyle
  2
X-Ray
 70
    25
177
     3
291
     0
 70
    58
 90
        2
176
     1
 90
        2
176
     1
 90
        1
176
     1
 90
        1
176
     1
 40
0.5
176
     1
 40
30.0
176
     1
 62
     7
420
 16777215
176
     1
 90
        1
176
     1
 90
        0
176
     1
 62
     7
176
     1
 62
   257
176
     1
 90
        1
176
     1
 90
        1
176
     1
 40
1.0
176
     1
 90
        8
176
     1
 62
     7
176
     1
 40
1.0
176
     1
 90
        1
176
     1
 90
        6
176
     1
 90
        2
176
     1
 62
     7
176
     1
 90
        3
176
     1
 90
        0
176
     1
 90
        0
176
     1
290
     0
176
     1
 90
       13
176
     1
 40
0.0
176
     1
 90
        0
176
     1
290
     0
176
     1
290
     1
176
     1
290
     1
176
     1
290
     0
176
     1
290
     0
176
     1
290
     0
176
     1
290
     0
176
     1
290
     0
176
     1
290
     0
176
     1
 90
       50
176
     1
 40
0.0
176
     1
 40
1.0
176
     1
 90
        0
176
     1
 62
    18
420
        0
176
     1
 90
       50
176
     1
 90
        3
176
     1
 62
     5
420
      255
176
     1
290
     0
176
     1
 90
       50
176
     1
 90
       50
176
     1
 90
       50
176
     1
290
     0
176
     1
 90
       50
176
     1
 62
   256
176
     0
 40
1.0
176
     0
 90
        2
176
     1
  1
strokes_ogs.tif
176
     1
290
     0
176
     1
 40
1.0
176
     1
 40
1.0
176
     1
1001
ACAD
1000
AcDbSavedByObjectVersion
1070
     0
  0
DICTIONARYVAR
  5
8137
102
{ACAD_REACTORS
330
8087
102
}
330
8087
100
DictionaryVariables
280
     0
  1
1:1
  0
DICTIONARYVAR
  5
8133
102
{ACAD_REACTORS
330
8087
102
}
330
8087
100
DictionaryVariables
280
     0
  1
STANDARD
  0
DICTIONARYVAR
  5
8132
102
{ACAD_REACTORS
330
8087
102
}
330
8087
100
DictionaryVariables
280
     0
  1
STANDARD
  0
DICTIONARYVAR
  5
8134
102
{ACAD_REACTORS
330
8087
102
}
330
8087
100
DictionaryVariables
280
     0
  1
Metric50
  0
DICTIONARYVAR
  5
8135
102
{ACAD_REACTORS
330
8087
102
}
330
8087
100
DictionaryVariables
280
     0
  1
Metric50
  0
DICTIONARYVAR
  5
8088
102
{ACAD_REACTORS
330
8087
102
}
330
8087
100
DictionaryVariables
280
     0
  1
1
  0
DICTIONARYVAR
  5
8139
102
{ACAD_REACTORS
330
8087
102
}
330
8087
100
DictionaryVariables
280
     0
  1
1
  0
DICTIONARYVAR
  5
813A
102
{ACAD_REACTORS
330
8087
102
}
330
8087
100
DictionaryVariables
280
     0
  1
15
  0
DICTIONARYVAR
  5
8138
102
{ACAD_REACTORS
330
8087
102
}
330
8087
100
DictionaryVariables
280
     0
  1
0
  0
DICTIONARYVAR
  5
813F
102
{ACAD_REACTORS
330
8087
102
}
330
8087
100
DictionaryVariables
280
     0
  1
0
  0
DICTIONARYVAR
  5
8136
102
{ACAD_REACTORS
330
8087
102
}
330
8087
100
DictionaryVariables
280
     0
  1
0
  0
DICTIONARY
  5
814A
102
{ACAD_REACTORS
330
8148
102
}
330
8148
100
AcDbDictionary
281
     1
  0
DICTIONARY
  5
8149
102
{ACAD_REACTORS
330
8148
102
}
330
8148
100
AcDbDictionary
281
     1
  3
2046170958640
350
8143
  3
2046170958656
350
8144
  3
2046170958672
350
8145
  3
2046170958688
350
8146
  3
2046170958704
350
8147
  0
DICTIONARY
  5
814D
330
80DC
100
AcDbDictionary
280
     1
281
     1
  3
ACAD_XREC_ROUNDTRIP
360
814E
  0
DICTIONARY
  5
809A
330
8099
100
AcDbDictionary
280
     1
281
     1
  3
BUMPTILE
360
809C
  3
DIFFUSETILE
360
809B
  3
OPACITYTILE
360
809F
  3
REFLECTIONTILE
360
809E
  3
REFRACTIONTILE
360
80A0
  3
SPECULARTILE
360
809D
  0
DICTIONARY
  5
8092
330
8091
100
AcDbDictionary
280
     1
281
     1
  3
BUMPTILE
360
8094
  3
DIFFUSETILE
360
8093
  3
OPACITYTILE
360
8097
  3
REFLECTIONTILE
360
8096
  3
REFRACTIONTILE
360
8098
  3
SPECULARTILE
360
8095
  0
DICTIONARY
  5
80A2
330
80A1
100
AcDbDictionary
280
     1
281
     1
  3
BUMPTILE
360
80A4
  3
DIFFUSETILE
360
80A3
  3
OPACITYTILE
360
80A7
  3
REFLECTIONTILE
360
80A6
  3
REFRACTIONTILE
360
80A8
  3
SPECULARTILE
360
80A5
  0
DICTIONARY
  5
814B
330
80DA
100
AcDbDictionary
280
     1
281
     1
  3
ACAD_XREC_ROUNDTRIP
360
814C
  0
DICTIONARY
  5
8140
330
80C4
100
AcDbDictionary
280
     1
281
     1
  3
ACAD_ROUNDTRIP_2008_TABLESTYLE_CELLSTYLEMAP
360
8141
  0
XRECORD
  5
8143
102
{ACAD_REACTORS
330
8149
102
}
330
8149
100
AcDbXrecord
280
     1
  1
AcDb_Thumbnail_Schema
102
{ATTRRECORD
341
8144
  2
AcDbDs::TreatedAsObjectData
280
     1
291
     1
102
ATTRRECORD}
102
{ATTRRECORD
341
8145
  2
AcDbDs::Legacy
280
     1
291
     1
102
ATTRRECORD}
  2
AcDbDs::ID
280
    10
 91
        8
102
{ATTRRECORD
341
8146
  2
AcDs:Indexable
280
     1
291
     1
102
ATTRRECORD}
102
{ATTRRECORD
341
8147
  2
AcDbDs::HandleAttribute
280
     7
282
     1
102
ATTRRECORD}
  2
Thumbnail_Data
280
    15
 91
        0
  0
XRECORD
  5
8144
102
{ACAD_REACTORS
330
8149
102
}
330
8149
100
AcDbXrecord
280
     1
  1
AcDbDs::TreatedAsObjectDataSchema
  2
AcDbDs::TreatedAsObjectData
280
     1
 91
        0
  0
XRECORD
  5
8145
102
{ACAD_REACTORS
330
8149
102
}
330
8149
100
AcDbXrecord
280
     1
  1
AcDbDs::LegacySchema
  2
AcDbDs::Legacy
280
     1
 91
        0
  0
XRECORD
  5
8146
102
{ACAD_REACTORS
330
8149
102
}
330
8149
100
AcDbXrecord
280
     1
  1
AcDbDs::IndexedPropertySchema
  2
AcDs:Indexable
280
     1
 91
        0
  0
XRECORD
  5
8147
102
{ACAD_REACTORS
330
8149
102
}
330
8149
100
AcDbXrecord
280
     1
  1
AcDbDs::HandleAttributeSchema
  2
AcDbDs::HandleAttribute
280
     7
 91
        1
284
     1
  0
XRECORD
  5
814E
102
{ACAD_REACTORS
330
814D
102
}
330
814D
100
AcDbXrecord
280
     1
102
DISPLAYNAME
  1
Metric50
102
FLAGS
 90
        0
  0
XRECORD
  5
809C
102
{ACAD_REACTORS
330
809A
102
}
330
809A
100
AcDbXrecord
280
     1
270
     1
271
     1
  0
XRECORD
  5
809B
102
{ACAD_REACTORS
330
809A
102
}
330
809A
100
AcDbXrecord
280
     1
270
     1
271
     1
  0
XRECORD
  5
809F
102
{ACAD_REACTORS
330
809A
102
}
330
809A
100
AcDbXrecord
280
     1
270
     1
271
     1
  0
XRECORD
  5
809E
102
{ACAD_REACTORS
330
809A
102
}
330
809A
100
AcDbXrecord
280
     1
270
     1
271
     1
  0
XRECORD
  5
80A0
102
{ACAD_REACTORS
330
809A
102
}
330
809A
100
AcDbXrecord
280
     1
270
     1
271
     1
  0
XRECORD
  5
809D
102
{ACAD_REACTORS
330
809A
102
}
330
809A
100
AcDbXrecord
280
     1
270
     1
271
     1
  0
XRECORD
  5
8094
102
{ACAD_REACTORS
330
8092
102
}
330
8092
100
AcDbXrecord
280
     1
270
     1
271
     1
  0
XRECORD
  5
8093
102
{ACAD_REACTORS
330
8092
102
}
330
8092
100
AcDbXrecord
280
     1
270
     1
271
     1
  0
XRECORD
  5
8097
102
{ACAD_REACTORS
330
8092
102
}
330
8092
100
AcDbXrecord
280
     1
270
     1
271
     1
  0
XRECORD
  5
8096
102
{ACAD_REACTORS
330
8092
102
}
330
8092
100
AcDbXrecord
280
     1
270
     1
271
     1
  0
XRECORD
  5
8098
102
{ACAD_REACTORS
330
8092
102
}
330
8092
100
AcDbXrecord
280
     1
270
     1
271
     1
  0
XRECORD
  5
8095
102
{ACAD_REACTORS
330
8092
102
}
330
8092
100
AcDbXrecord
280
     1
270
     1
271
     1
  0
XRECORD
  5
80A4
102
{ACAD_REACTORS
330
80A2
102
}
330
80A2
100
AcDbXrecord
280
     1
270
     1
271
     1
  0
XRECORD
  5
80A3
102
{ACAD_REACTORS
330
80A2
102
}
330
80A2
100
AcDbXrecord
280
     1
270
     1
271
     1
  0
XRECORD
  5
80A7
102
{ACAD_REACTORS
330
80A2
102
}
330
80A2
100
AcDbXrecord
280
     1
270
     1
271
     1
  0
XRECORD
  5
80A6
102
{ACAD_REACTORS
330
80A2
102
}
330
80A2
100
AcDbXrecord
280
     1
270
     1
271
     1
  0
XRECORD
  5
80A8
102
{ACAD_REACTORS
330
80A2
102
}
330
80A2
100
AcDbXrecord
280
     1
270
     1
271
     1
  0
XRECORD
  5
80A5
102
{ACAD_REACTORS
330
80A2
102
}
330
80A2
100
AcDbXrecord
280
     1
270
     1
271
     1
  0
XRECORD
  5
814C
102
{ACAD_REACTORS
330
814B
102
}
330
814B
100
AcDbXrecord
280
     1
102
DISPLAYNAME
  1
Metric50
102
FLAGS
 90
        0
  0
CELLSTYLEMAP
  5
8141
102
{ACAD_REACTORS
330
8140
102
}
330
8140
100
AcDbCellStyleMap
 90
        3
300
CELLSTYLE
  1
TABLEFORMAT_BEGIN
 90
        5
170
     1
 91
        0
 92
    32768
 62
   257
 93
        1
300
CONTENTFORMAT
  1
CONTENTFORMAT_BEGIN
 90
        0
 91
        0
 92
      512
 93
        0
300

 40
0.0
140
1.0
 94
        5
 62
     0
340
10
144
6.0
309
CONTENTFORMAT_END
171
     1
301
MARGIN
  1
CELLMARGIN_BEGIN
 40
1.5
 40
1.5
 40
1.5
 40
1.5
 40
4.5
 40
4.5
309
CELLMARGIN_END
 94
        6
 95
        1
302
GRIDFORMAT
  1
GRIDFORMAT_BEGIN
 90
        0
 91
        1
 62
     0
 92
       -2
340
0
 93
        0
 40
1.125
309
GRIDFORMAT_END
 95
        2
302
GRIDFORMAT
  1
GRIDFORMAT_BEGIN
 90
        0
 91
        1
 62
     0
 92
       -2
340
0
 93
        0
 40
1.125
309
GRIDFORMAT_END
 95
        4
302
GRIDFORMAT
  1
GRIDFORMAT_BEGIN
 90
        0
 91
        1
 62
     0
 92
       -2
340
0
 93
        0
 40
1.125
309
GRIDFORMAT_END
 95
        8
302
GRIDFORMAT
  1
GRIDFORMAT_BEGIN
 90
        0
 91
        1
 62
     0
 92
       -2
340
0
 93
        0
 40
1.125
309
GRIDFORMAT_END
 95
       16
302
GRIDFORMAT
  1
GRIDFORMAT_BEGIN
 90
        0
 91
        1
 62
     0
 92
       -2
340
0
 93
        0
 40
1.125
309
GRIDFORMAT_END
 95
       32
302
GRIDFORMAT
  1
GRIDFORMAT_BEGIN
 90
        0
 91
        1
 62
     0
 92
       -2
340
0
 93
        0
 40
1.125
309
GRIDFORMAT_END
309
TABLEFORMAT_END
  1
CELLSTYLE_BEGIN
 90
        1
 91
        1
300
_TITLE
309
CELLSTYLE_END
300
CELLSTYLE
  1
TABLEFORMAT_BEGIN
 90
        5
170
     1
 91
        0
 92
        0
 62
   257
 93
        1
300
CONTENTFORMAT
  1
CONTENTFORMAT_BEGIN
 90
        0
 91
        0
 92
      512
 93
        0
300

 40
0.0
140
1.0
 94
        5
 62
     0
340
10
144
4.5
309
CONTENTFORMAT_END
171
     1
301
MARGIN
  1
CELLMARGIN_BEGIN
 40
1.5
 40
1.5
 40
1.5
 40
1.5
 40
4.5
 40
4.5
309
CELLMARGIN_END
 94
        6
 95
        1
302
GRIDFORMAT
  1
GRIDFORMAT_BEGIN
 90
        0
 91
        1
 62
     0
 92
       -2
340
0
 93
        0
 40
1.125
309
GRIDFORMAT_END
 95
        2
302
GRIDFORMAT
  1
GRIDFORMAT_BEGIN
 90
        0
 91
        1
 62
     0
 92
       -2
340
0
 93
        0
 40
1.125
309
GRIDFORMAT_END
 95
        4
302
GRIDFORMAT
  1
GRIDFORMAT_BEGIN
 90
        0
 91
        1
 62
     0
 92
       -2
340
0
 93
        0
 40
1.125
309
GRIDFORMAT_END
 95
        8
302
GRIDFORMAT
  1
GRIDFORMAT_BEGIN
 90
        0
 91
        1
 62
     0
 92
       -2
340
0
 93
        0
 40
1.125
309
GRIDFORMAT_END
 95
       16
302
GRIDFORMAT
  1
GRIDFORMAT_BEGIN
 90
        0
 91
        1
 62
     0
 92
       -2
340
0
 93
        0
 40
1.125
309
GRIDFORMAT_END
 95
       32
302
GRIDFORMAT
  1
GRIDFORMAT_BEGIN
 90
        0
 91
        1
 62
     0
 92
       -2
340
0
 93
        0
 40
1.125
309
GRIDFORMAT_END
309
TABLEFORMAT_END
  1
CELLSTYLE_BEGIN
 90
        2
 91
        1
300
_HEADER
309
CELLSTYLE_END
300
CELLSTYLE
  1
TABLEFORMAT_BEGIN
 90
        5
170
     1
 91
        0
 92
        0
 62
   257
 93
        1
300
CONTENTFORMAT
  1
CONTENTFORMAT_BEGIN
 90
        0
 91
        0
 92
      512
 93
        0
300

 40
0.0
140
1.0
 94
        2
 62
     0
340
10
144
4.5
309
CONTENTFORMAT_END
171
     1
301
MARGIN
  1
CELLMARGIN_BEGIN
 40
1.5
 40
1.5
 40
1.5
 40
1.5
 40
4.5
 40
4.5
309
CELLMARGIN_END
 94
        6
 95
        1
302
GRIDFORMAT
  1
GRIDFORMAT_BEGIN
 90
        0
 91
        1
 62
     0
 92
       -2
340
0
 93
        0
 40
1.125
309
GRIDFORMAT_END
 95
        2
302
GRIDFORMAT
  1
GRIDFORMAT_BEGIN
 90
        0
 91
        1
 62
     0
 92
       -2
340
0
 93
        0
 40
1.125
309
GRIDFORMAT_END
 95
        4
302
GRIDFORMAT
  1
GRIDFORMAT_BEGIN
 90
        0
 91
        1
 62
     0
 92
       -2
340
0
 93
        0
 40
1.125
309
GRIDFORMAT_END
 95
        8
302
GRIDFORMAT
  1
GRIDFORMAT_BEGIN
 90
        0
 91
        1
 62
     0
 92
       -2
340
0
 93
        0
 40
1.125
309
GRIDFORMAT_END
 95
       16
302
GRIDFORMAT
  1
GRIDFORMAT_BEGIN
 90
        0
 91
        1
 62
     0
 92
       -2
340
0
 93
        0
 40
1.125
309
GRIDFORMAT_END
 95
       32
302
GRIDFORMAT
  1
GRIDFORMAT_BEGIN
 90
        0
 91
        1
 62
     0
 92
       -2
340
0
 93
        0
 40
1.125
309
GRIDFORMAT_END
309
TABLEFORMAT_END
  1
CELLSTYLE_BEGIN
 90
        3
 91
        2
300
_DATA
309
CELLSTYLE_END
  0
ENDSEC
  0
SECTION
  2
ACDSDATA
 70
     2
 71
     8
  0
ACDSSCHEMA
 90
        0
  1
AcDb_Thumbnail_Schema
  2
AcDbDs::ID
280
    10
 91
        8
  2
Thumbnail_Data
280
    15
 91
        0
101
ACDSRECORD
 95
        0
 90
        1
  2
AcDbDs::TreatedAsObjectData
280
     1
291
     1
101
ACDSRECORD
 95
        0
 90
        2
  2
AcDbDs::Legacy
280
     1
291
     1
101
ACDSRECORD
  1
AcDbDs::ID
 90
        3
  2
AcDs:Indexable
280
     1
291
     1
101
ACDSRECORD
  1
AcDbDs::ID
 90
        4
  2
AcDbDs::HandleAttribute
280
     7
282
     1
  0
ACDSSCHEMA
 90
        1
  1
AcDbDs::TreatedAsObjectDataSchema
  2
AcDbDs::TreatedAsObjectData
280
     1
 91
        0
  0
ACDSSCHEMA
 90
        2
  1
AcDbDs::LegacySchema
  2
AcDbDs::Legacy
280
     1
 91
        0
  0
ACDSSCHEMA
 90
        3
  1
AcDbDs::IndexedPropertySchema
  2
AcDs:Indexable
280
     1
 91
        0
  0
ACDSSCHEMA
 90
        4
  1
AcDbDs::HandleAttributeSchema
  2
AcDbDs::HandleAttribute
280
     7
 91
        1
284
     1
  0
ACDSRECORD
 90
        0
  2
AcDbDs::ID
280
    10
320
8044
  2
Thumbnail_Data
280
    15
 94
     1932
310
89504E470D0A1A0A0000000D49484452000001000000009108030000001BE1960600000300504C5445000000000000C8C8C80000000000000000000000000000000000000000000000000000330000660000990000CC0000FF0033000033330033660033990033CC0033FF0066000066330066660066990066CC0066FF0099
310
000099330099660099990099CC0099FF00CC0000CC3300CC6600CC9900CCCC00CCFF00FF0000FF3300FF6600FF9900FFCC00FFFF3300003300333300663300993300CC3300FF3333003333333333663333993333CC3333FF3366003366333366663366993366CC3366FF3399003399333399663399993399CC3399FF33CC00
310
33CC3333CC6633CC9933CCCC33CCFF33FF0033FF3333FF6633FF9933FFCC33FFFF6600006600336600666600996600CC6600FF6633006633336633666633996633CC6633FF6666006666336666666666996666CC6666FF6699006699336699666699996699CC6699FF66CC0066CC3366CC6666CC9966CCCC66CCFF66FF0066
310
FF3366FF6666FF9966FFCC66FFFF9900009900339900669900999900CC9900FF9933009933339933669933999933CC9933FF9966009966339966669966999966CC9966FF9999009999339999669999999999CC9999FF99CC0099CC3399CC6699CC9999CCCC99CCFF99FF0099FF3399FF6699FF9999FFCC99FFFFCC0000CC00
310
33CC0066CC0099CC00CCCC00FFCC3300CC3333CC3366CC3399CC33CCCC33FFCC6600CC6633CC6666CC6699CC66CCCC66FFCC9900CC9933CC9966CC9999CC99CCCC99FFCCCC00CCCC33CCCC66CCCC99CCCCCCCCCCFFCCFF00CCFF33CCFF66CCFF99CCFFCCCCFFFFFF0000FF0033FF0066FF0099FF00CCFF00FFFF3300FF3333
310
FF3366FF3399FF33CCFF33FFFF6600FF6633FF6666FF6699FF66CCFF66FFFF9900FF9933FF9966FF9999FF99CCFF99FFFFCC00FFCC33FFCC66FFCC99FFCCCCFFCCFFFFFF00FFFF33FFFF66FFFF99FFFFCCFFFFFF0000000D0D0D1A1A1A2828283535354343435050505D5D5D6B6B6B787878868686939393A1A1A1AEAEAEBB
310
BBBBC9C9C9D6D6D6E4E4E4F1F1F1FFFFFF00000000000000000000000000000000000000000000000000000000000008F1915C000004474944415478DAED9D5992E3200C40751CFDE8FE97E11AFCCFD80621B1C44EAA370951D569DB90C43CB4819502E00B4BFEA1027FB564575F13000240000800012000FCC69DDDF97EFF
310
006EAE6D200130847B794315D85D0234811D25C0B811FCC619A01100663E3A007CDF5DE6E3354BC35E3C5C3D7EDE4BA3005A9F5BC70F2AACD817A2DCDEC3DA2E35BF83650A80E86BFD0349A400B8FADA6A0B15FE6F17401E0128D3CE7F830440AB38C1585681620E581DAE8EA95EE59BCF0C2F10002212343A17C8ECE094B5
310
13418168D7FC41E708EDAE084DC77236BA59864BED0C3C01000D0026FEB079882A25EE24007A0950FEBE280603B0AF02DFF159B12C1E000C014847192EA41D00A4FBE21C402F0BA374048000B025000C009B02A0BEA4441FF902830068553E92038B006405EAEB01200004800010000240000800BE01E0BC107A0D858F18BF
310
0B79E712E0168016FB001000760420D47F372F700EEBD1752C7D0F000120000480AD42E101C0768BA21D00553830A661CEE0320E588DFC360086F1DF03C0351BC49762401F660958590F209808809400EFCF066F6DC05E0F4727E21E009C03D83D49CAFCD704805FB9B35E3B66BA6213C043AD7704A037F9939EF449B41AC0
310
F95ACF64533F5E609645FCA0A9D12C31E825BB6F330B1CA6B506013C9300FD36599FEC0350301636E0052BF30064052EAEA7FE12CAAA00E00D80581129529ED6B3684700D48A0011B033A800C4120AB637790170F60E058DAB46016808905B7901409D6ACF01F0523ACA0B0E0010C1430092543DB70F8046E3BE04C0BAD216
310
D0CD0398D83638DC408D8C3480F33FCA13EB0008DE04F0FF00C5B11B00EA71D14B00D221DA0740B330E0B904E8A99361002D0EA0F76D800300D7C00BF7CE5E203DF102960148A5463E6100622EF0220EF005E08C703580D3362C2341DB36A0F55FA6076800E7D3E4F55CC00380AB20A78FF26C9001BC980D9A0750469E0EE3
310
5E65A12D805709583E4EB70C004BA248F98DC4718AD7AB5C11A900A63FAC20B209009BE8371B806D3944C6396C03603E6BB209A05BFF81A60A0A408996BBA42A54EB480601F4F9F2D50872A758006E0170337300804339EE1D0EFD1700600DC05C204487C113CE9FBA50780470DA45470080B0A54B120F3BD640F84D09306B
310
03E4AF66A81906E903E600DAA1CDE970972B2B95817412757583D2324C5400EC01B84995ED00F405173FBD3402403F0381C9C0760086D47A0498CA801500B71230A40A389380DB7207806C0358264BA72580B468783D1F3607A07362B242AE8189A649B74EC23C5804D011906E5FF975910A9424809626D725D3784B969600
310
1E25D4794B957D3B6DDC1D00D81CC05FFD9A00100002400008005F7B675BEE31A2EBE75DCAEF7DB447006A038AB2D504B40DB8BC01800900681BACC8E3BACD961700CBEB659B912CB6E8E3FDB91CA94018C1558F78F31900C879472358F71DDC19C0CC3C7A0630F50EE05C0276378231190A00012000048000100002805F00
310
3F54BEF29EFF01FDFD3D608A2517AC0000000049454E44AE426082
  0
ENDSEC
  0
EOF
