  0
SECTION
  2
HEADER
  9
$ACADVER
  1
AC1027
  9
$ACADMAINTVER
 70
   125
  9
$DWGCODEPAGE
  3
ANSI_932
  9
$LASTSAVEDBY
  1
yasukiyo.ogawa
  9
$REQUIREDVERSIONS
160
                 0
  9
$INSBASE
 10
0.0
 20
0.0
 30
0.0
  9
$EXTMIN
 10
0.0
 20
0.0
 30
0.0
  9
$EXTMAX
 10
7350.0
 20
10325.0
 30
0.0
  9
$LIMMIN
 10
0.0
 20
0.0
  9
$LIMMAX
 10
297.0
 20
210.0
  9
$ORTHOMODE
 70
     1
  9
$REGENMODE
 70
     1
  9
$FILLMODE
 70
     0
  9
$QTEXTMODE
 70
     0
  9
$MIRRTEXT
 70
     1
  9
$LTSCALE
 40
100.0
  9
$ATTMODE
 70
     1
  9
$TEXTSIZE
 40
180.0
  9
$TRACEWID
 40
0.05
  9
$TEXTSTYLE
  7
STANDARD
  9
$CLAYER
  8
3
  9
$CELTYPE
  6
BYLAYER
  9
$CECOLOR
 62
   256
  9
$CELTSCALE
 40
1.0
  9
$DISPSILH
 70
     0
  9
$DIMSCALE
 40
35.0
  9
$DIMASZ
 40
2.0
  9
$DIMEXO
 40
0.5
  9
$DIMDLI
 40
10.0
  9
$DIMRND
 40
0.0
  9
$DIMDLE
 40
0.0
  9
$DIMEXE
 40
1.0
  9
$DIMTP
 40
1.0
  9
$DIMTM
 40
1.0
  9
$DIMTXT
 40
3.0
  9
$DIMCEN
 40
0.0
  9
$DIMTSZ
 40
0.0
  9
$DIMTOL
 70
     0
  9
$DIMLIM
 70
     0
  9
$DIMTIH
 70
     0
  9
$DIMTOH
 70
     0
  9
$DIMSE1
 70
     0
  9
$DIMSE2
 70
     0
  9
$DIMTAD
 70
     1
  9
$DIMZIN
 70
     8
  9
$DIMBLK
  1

  9
$DIMASO
 70
     1
  9
$DIMSHO
 70
     1
  9
$DIMPOST
  1

  9
$DIMAPOST
  1

  9
$DIMALT
 70
     0
  9
$DIMALTD
 70
     2
  9
$DIMALTF
 40
0.039
  9
$DIMLFAC
 40
1.0
  9
$DIMTOFL
 70
     1
  9
$DIMTVP
 40
0.0
  9
$DIMTIX
 70
     0
  9
$DIMSOXD
 70
     0
  9
$DIMSAH
 70
     1
  9
$DIMBLK1
  1
OPEN
  9
$DIMBLK2
  1
OPEN
  9
$DIMSTYLE
  2
IGA
  9
$DIMCLRD
 70
     0
  9
$DIMCLRE
 70
     0
  9
$DIMCLRT
 70
     0
  9
$DIMTFAC
 40
10.0
  9
$DIMGAP
 40
1.0
  9
$DIMJUST
 70
     0
  9
$DIMSD1
 70
     0
  9
$DIMSD2
 70
     0
  9
$DIMTOLJ
 70
     1
  9
$DIMTZIN
 70
     8
  9
$DIMALTZ
 70
     0
  9
$DIMALTTZ
 70
     0
  9
$DIMUPT
 70
     0
  9
$DIMDEC
 70
     0
  9
$DIMTDEC
 70
     0
  9
$DIMALTU
 70
     2
  9
$DIMALTTD
 70
     2
  9
$DIMTXSTY
  7
STANDARD
  9
$DIMAUNIT
 70
     0
  9
$DIMADEC
 70
     0
  9
$DIMALTRND
 40
0.0
  9
$DIMAZIN
 70
     0
  9
$DIMDSEP
 70
    46
  9
$DIMATFIT
 70
     3
  9
$DIMFRAC
 70
     0
  9
$DIMLDRBLK
  1
OPEN
  9
$DIMLUNIT
 70
     2
  9
$DIMLWD
 70
    -2
  9
$DIMLWE
 70
    -2
  9
$DIMTMOVE
 70
     2
  9
$DIMFXL
 40
1.0
  9
$DIMFXLON
 70
     0
  9
$DIMJOGANG
 40
0.7853981633974483
  9
$DIMTFILL
 70
     0
  9
$DIMTFILLCLR
 70
     0
  9
$DIMARCSYM
 70
     0
  9
$DIMLTYPE
  6

  9
$DIMLTEX1
  6

  9
$DIMLTEX2
  6

  9
$DIMTXTDIRECTION
 70
     0
  9
$LUNITS
 70
     2
  9
$LUPREC
 70
     3
  9
$SKETCHINC
 40
0.1
  9
$FILLETRAD
 40
50.0
  9
$AUNITS
 70
     0
  9
$AUPREC
 70
     0
  9
$MENU
  1
acad
  9
$ELEVATION
 40
0.0
  9
$PELEVATION
 40
0.0
  9
$THICKNESS
 40
0.0
  9
$LIMCHECK
 70
     0
  9
$CHAMFERA
 40
0.5
  9
$CHAMFERB
 40
0.5
  9
$CHAMFERC
 40
20.0
  9
$CHAMFERD
 40
0.0
  9
$SKPOLY
 70
     0
  9
$TDCREATE
 40
2451382.670914352
  9
$TDUCREATE
 40
2451382.295923148
  9
$TDUPDATE
 40
2460241.741550926
  9
$TDUUPDATE
 40
2460241.366557674
  9
$TDINDWG
 40
0.0155710880
  9
$TDUSRTIMER
 40
0.0155710880
  9
$USRTIMER
 70
     1
  9
$ANGBASE
 50
0.0
  9
$ANGDIR
 70
     0
  9
$PDMODE
 70
     0
  9
$PDSIZE
 40
0.0
  9
$PLINEWID
 40
0.0
  9
$SPLFRAME
 70
     0
  9
$SPLINETYPE
 70
     6
  9
$SPLINESEGS
 70
     8
  9
$HANDSEED
  5
81FC
  9
$SURFTAB1
 70
     6
  9
$SURFTAB2
 70
     6
  9
$SURFTYPE
 70
     6
  9
$SURFU
 70
     6
  9
$SURFV
 70
     6
  9
$UCSBASE
  2

  9
$UCSNAME
  2

  9
$UCSORG
 10
0.0
 20
0.0
 30
0.0
  9
$UCSXDIR
 10
1.0
 20
0.0
 30
0.0
  9
$UCSYDIR
 10
0.0
 20
1.0
 30
0.0
  9
$UCSORTHOREF
  2

  9
$UCSORTHOVIEW
 70
     0
  9
$UCSORGTOP
 10
0.0
 20
0.0
 30
0.0
  9
$UCSORGBOTTOM
 10
0.0
 20
0.0
 30
0.0
  9
$UCSORGLEFT
 10
0.0
 20
0.0
 30
0.0
  9
$UCSORGRIGHT
 10
0.0
 20
0.0
 30
0.0
  9
$UCSORGFRONT
 10
0.0
 20
0.0
 30
0.0
  9
$UCSORGBACK
 10
0.0
 20
0.0
 30
0.0
  9
$PUCSBASE
  2

  9
$PUCSNAME
  2

  9
$PUCSORG
 10
0.0
 20
0.0
 30
0.0
  9
$PUCSXDIR
 10
1.0
 20
0.0
 30
0.0
  9
$PUCSYDIR
 10
0.0
 20
1.0
 30
0.0
  9
$PUCSORTHOREF
  2

  9
$PUCSORTHOVIEW
 70
     0
  9
$PUCSORGTOP
 10
0.0
 20
0.0
 30
0.0
  9
$PUCSORGBOTTOM
 10
0.0
 20
0.0
 30
0.0
  9
$PUCSORGLEFT
 10
0.0
 20
0.0
 30
0.0
  9
$PUCSORGRIGHT
 10
0.0
 20
0.0
 30
0.0
  9
$PUCSORGFRONT
 10
0.0
 20
0.0
 30
0.0
  9
$PUCSORGBACK
 10
0.0
 20
0.0
 30
0.0
  9
$USERI1
 70
     0
  9
$USERI2
 70
     0
  9
$USERI3
 70
     0
  9
$USERI4
 70
     0
  9
$USERI5
 70
     0
  9
$USERR1
 40
0.0
  9
$USERR2
 40
0.0
  9
$USERR3
 40
0.0
  9
$USERR4
 40
0.0
  9
$USERR5
 40
0.0
  9
$WORLDVIEW
 70
     1
  9
$SHADEDGE
 70
     3
  9
$SHADEDIF
 70
    70
  9
$TILEMODE
 70
     1
  9
$MAXACTVP
 70
    16
  9
$PINSBASE
 10
0.0
 20
0.0
 30
0.0
  9
$PLIMCHECK
 70
     0
  9
$PEXTMIN
 10
1.000000000000000E+20
 20
1.000000000000000E+20
 30
1.000000000000000E+20
  9
$PEXTMAX
 10
-1.000000000000000E+20
 20
-1.000000000000000E+20
 30
-1.000000000000000E+20
  9
$PLIMMIN
 10
0.0
 20
0.0
  9
$PLIMMAX
 10
12.0
 20
9.0
  9
$UNITMODE
 70
     0
  9
$VISRETAIN
 70
     0
  9
$PLINEGEN
 70
     0
  9
$PSLTSCALE
 70
     1
  9
$TREEDEPTH
 70
  3020
  9
$CMLSTYLE
  2
STANDARD
  9
$CMLJUST
 70
     0
  9
$CMLSCALE
 40
20.0
  9
$PROXYGRAPHICS
 70
     1
  9
$MEASUREMENT
 70
     1
  9
$CELWEIGHT
370
    -1
  9
$ENDCAPS
280
     0
  9
$JOINSTYLE
280
     0
  9
$LWDISPLAY
290
     0
  9
$INSUNITS
 70
     0
  9
$HYPERLINKBASE
  1

  9
$STYLESHEET
  1

  9
$XEDIT
290
     1
  9
$CEPSNTYPE
380
     0
  9
$PSTYLEMODE
290
     1
  9
$FINGERPRINTGUID
  2
{A1EAB116-7619-4F83-8596-7FC2699E995B}
  9
$VERSIONGUID
  2
{31849D3F-CF31-4BE5-AE1E-DA3AD0ACAB96}
  9
$EXTNAMES
290
     1
  9
$PSVPSCALE
 40
0.0
  9
$OLESTARTUP
290
     0
  9
$SORTENTS
280
   127
  9
$INDEXCTL
280
     0
  9
$HIDETEXT
280
     0
  9
$XCLIPFRAME
280
     2
  9
$HALOGAP
280
     0
  9
$OBSCOLOR
 70
   257
  9
$OBSLTYPE
280
     0
  9
$INTERSECTIONDISPLAY
280
     0
  9
$INTERSECTIONCOLOR
 70
   257
  9
$DIMASSOC
280
     1
  9
$PROJECTNAME
  1

  9
$CAMERADISPLAY
290
     0
  9
$LENSLENGTH
 40
50.0
  9
$CAMERAHEIGHT
 40
0.0
  9
$STEPSPERSEC
 40
2.0
  9
$STEPSIZE
 40
6.0
  9
$3DDWFPREC
 40
2.0
  9
$PSOLWIDTH
 40
0.25
  9
$PSOLHEIGHT
 40
4.0
  9
$LOFTANG1
 40
1.570796326794896
  9
$LOFTANG2
 40
1.570796326794896
  9
$LOFTMAG1
 40
0.0
  9
$LOFTMAG2
 40
0.0
  9
$LOFTPARAM
 70
     7
  9
$LOFTNORMALS
280
     1
  9
$LATITUDE
 40
37.795
  9
$LONGITUDE
 40
-122.394
  9
$NORTHDIRECTION
 40
0.0
  9
$TIMEZONE
 70
 -8000
  9
$LIGHTGLYPHDISPLAY
280
     1
  9
$TILEMODELIGHTSYNCH
280
     1
  9
$CMATERIAL
347
813E
  9
$SOLIDHIST
280
     0
  9
$SHOWHIST
280
     1
  9
$DWFFRAME
280
     2
  9
$DGNFRAME
280
     0
  9
$REALWORLDSCALE
290
     1
  9
$INTERFERECOLOR
 62
     1
  9
$INTERFEREOBJVS
345
8160
  9
$INTERFEREVPVS
346
815D
  9
$CSHADOW
280
     0
  9
$SHADOWPLANELOCATION
 40
0.0
  0
ENDSEC
  0
SECTION
  2
CLASSES
  0
CLASS
  1
ACDBDICTIONARYWDFLT
  2
AcDbDictionaryWithDefault
  3
ObjectDBX Classes
 90
        0
 91
        1
280
     0
281
     0
  0
CLASS
  1
DICTIONARYVAR
  2
AcDbDictionaryVar
  3
ObjectDBX Classes
 90
        0
 91
       11
280
     0
281
     0
  0
CLASS
  1
MATERIAL
  2
AcDbMaterial
  3
ObjectDBX Classes
 90
     1153
 91
        3
280
     0
281
     0
  0
CLASS
  1
VISUALSTYLE
  2
AcDbVisualStyle
  3
ObjectDBX Classes
 90
     4095
 91
       24
280
     0
281
     0
  0
CLASS
  1
TABLESTYLE
  2
AcDbTableStyle
  3
ObjectDBX Classes
 90
     4095
 91
        1
280
     0
281
     0
  0
CLASS
  1
SCALE
  2
AcDbScale
  3
ObjectDBX Classes
 90
     1153
 91
       17
280
     0
281
     0
  0
CLASS
  1
MLEADERSTYLE
  2
AcDbMLeaderStyle
  3
ACDB_MLEADERSTYLE_CLASS
 90
     4095
 91
        1
280
     0
281
     0
  0
CLASS
  1
ACDBSECTIONVIEWSTYLE
  2
AcDbSectionViewStyle
  3
ObjectDBX Classes
 90
     1025
 91
        1
280
     0
281
     0
  0
CLASS
  1
ACDBDETAILVIEWSTYLE
  2
AcDbDetailViewStyle
  3
ObjectDBX Classes
 90
     1025
 91
        1
280
     0
281
     0
  0
CLASS
  1
CELLSTYLEMAP
  2
AcDbCellStyleMap
  3
ObjectDBX Classes
 90
     1152
 91
        1
280
     0
281
     0
  0
ENDSEC
  0
SECTION
  2
TABLES
  0
TABLE
  2
VPORT
  5
8
330
0
100
AcDbSymbolTable
 70
     1
1001
ACAD
1000
DbSaveVer
1071
      278
  0
VPORT
  5
813B
330
8
100
AcDbSymbolTableRecord
100
AcDbViewportTableRecord
  2
*Active
 70
     0
 10
0.0
 20
0.0
 11
1.0
 21
1.0
 12
6224.610977130685
 22
5162.500024039763
 13
0.0
 23
0.0
 14
10.0
 24
10.0
 15
10.0
 25
10.0
 16
0.0
 26
0.0
 36
1.0
 17
0.0
 27
0.0
 37
0.0
 40
10391.74948481712
 41
2.250314465408805
 42
50.0
 43
0.0
 44
0.0
 50
0.0
 51
0.0
 71
     0
 72
   100
 73
     1
 74
     0
 75
     0
 76
     0
 77
     0
 78
     0
281
     0
 65
     1
110
0.0
120
0.0
130
0.0
111
1.0
121
0.0
131
0.0
112
0.0
122
1.0
132
0.0
 79
     0
146
0.0
348
815C
 60
     3
 61
     5
292
     1
282
     1
141
0.0
142
0.0
 63
   250
421
  3355443
1001
ACAD_NAV_VCDISPLAY
1070
     3
  0
ENDTAB
  0
TABLE
  2
LTYPE
  5
5
330
0
100
AcDbSymbolTable
 70
     2
  0
LTYPE
  5
13
330
5
100
AcDbSymbolTableRecord
100
AcDbLinetypeTableRecord
  2
BYBLOCK
 70
     0
  3

 72
    65
 73
     0
 40
0.0
  0
LTYPE
  5
14
330
5
100
AcDbSymbolTableRecord
100
AcDbLinetypeTableRecord
  2
BYLAYER
 70
     0
  3

 72
    65
 73
     0
 40
0.0
  0
LTYPE
  5
15
330
5
100
AcDbSymbolTableRecord
100
AcDbLinetypeTableRecord
  2
CONTINUOUS
 70
     0
  3
Solid line
 72
    65
 73
     0
 40
0.0
  0
LTYPE
  5
1F
330
5
100
AcDbSymbolTableRecord
100
AcDbLinetypeTableRecord
  2
CENTER
 70
     0
  3
____ _ ____ _ ____ _ ____ _ ____ _ ____ _ ____ 
 72
    65
 73
     4
 40
2.0
 49
1.25
 74
     0
 49
-0.25
 74
     0
 49
0.25
 74
     0
 49
-0.25
 74
     0
  0
ENDTAB
  0
TABLE
  2
LAYER
  5
2
102
{ACAD_XDICTIONARY
360
81D3
102
}
330
0
100
AcDbSymbolTable
 70
     6
  0
LAYER
  5
F
102
{ACAD_XDICTIONARY
360
81C6
102
}
330
2
100
AcDbSymbolTableRecord
100
AcDbLayerTableRecord
  2
0
 70
     0
 62
     7
  6
CONTINUOUS
370
    -3
390
80F9
347
814E
348
0
  0
LAYER
  5
31
102
{ACAD_XDICTIONARY
360
81C8
102
}
330
2
100
AcDbSymbolTableRecord
100
AcDbLayerTableRecord
  2
3
 70
     0
 62
     2
  6
CONTINUOUS
370
    -3
390
80F9
347
814E
348
0
  0
LAYER
  5
76D0
102
{ACAD_XDICTIONARY
360
81CA
102
}
330
2
100
AcDbSymbolTableRecord
100
AcDbLayerTableRecord
  2
2
 70
     0
 62
     3
  6
CENTER
370
    -3
390
80F9
347
814E
348
0
  0
LAYER
  5
76D1
102
{ACAD_XDICTIONARY
360
81CC
102
}
330
2
100
AcDbSymbolTableRecord
100
AcDbLayerTableRecord
  2
1
 70
     0
 62
     4
  6
CONTINUOUS
370
    -3
390
80F9
347
814E
348
0
  0
LAYER
  5
76D2
102
{ACAD_XDICTIONARY
360
81CE
102
}
330
2
100
AcDbSymbolTableRecord
100
AcDbLayerTableRecord
  2
4
 70
     0
 62
     7
  6
CONTINUOUS
370
    -3
390
80F9
347
814E
348
0
  0
LAYER
  5
7B46
330
2
100
AcDbSymbolTableRecord
100
AcDbLayerTableRecord
  2
DEFPOINTS
 70
     0
 62
     7
  6
CONTINUOUS
290
     0
370
    -3
390
80F9
347
814E
348
0
  0
ENDTAB
  0
TABLE
  2
STYLE
  5
3
330
0
100
AcDbSymbolTable
 70
     1
  0
STYLE
  5
10
330
3
100
AcDbSymbolTableRecord
100
AcDbTextStyleTableRecord
  2
STANDARD
 70
     0
 40
0.0
 41
1.0
 50
0.0
 71
     0
 42
180.0
  3
simplex.shx
  4
extfont.shx
  0
ENDTAB
  0
TABLE
  2
VIEW
  5
6
330
0
100
AcDbSymbolTable
 70
     0
  0
ENDTAB
  0
TABLE
  2
UCS
  5
7
330
0
100
AcDbSymbolTable
 70
     0
  0
ENDTAB
  0
TABLE
  2
APPID
  5
9
330
0
100
AcDbSymbolTable
 70
     4
  0
APPID
  5
11
330
9
100
AcDbSymbolTableRecord
100
AcDbRegAppTableRecord
  2
ACAD
 70
     0
  0
APPID
  5
818D
330
9
100
AcDbSymbolTableRecord
100
AcDbRegAppTableRecord
  2
AcadAnnoMonitorAlertIconDisabled
 70
     0
  0
APPID
  5
818E
330
9
100
AcDbSymbolTableRecord
100
AcDbRegAppTableRecord
  2
ACAD_EXEMPT_FROM_CAD_STANDARDS
 70
     0
  0
APPID
  5
81D9
330
9
100
AcDbSymbolTableRecord
100
AcDbRegAppTableRecord
  2
ACAD_NAV_VCDISPLAY
 70
     0
  0
ENDTAB
  0
TABLE
  2
DIMSTYLE
  5
A
330
0
100
AcDbSymbolTable
 70
     2
100
AcDbDimStyleTable
 71
     1
340
1D
  0
DIMSTYLE
105
1D
102
{ACAD_REACTORS
330
8087
330
80BD
330
80CA
330
80D7
330
80E4
330
80F1
102
}
330
A
100
AcDbSymbolTableRecord
100
AcDbDimStyleTableRecord
  2
IGA
 70
     0
 40
2.0
 41
2.0
 42
0.5
 43
10.0
 44
1.0
 47
1.0
 48
1.0
 73
     0
 74
     0
 77
     1
 78
     8
140
3.0
141
0.0
143
0.03937
146
10.0
147
1.0
173
     1
271
     1
272
     0
279
     2
284
     8
340
10
341
79FC
343
79FC
344
79FC
  0
DIMSTYLE
105
7B48
102
{ACAD_REACTORS
330
7C4E
330
7C4F
330
7C86
330
7C8C
330
7C8D
330
7CA3
330
7CA4
330
7CA5
330
7CB0
330
7CB1
330
7CB2
330
7CB3
330
7CB4
330
7CC0
330
7CE1
102
}
330
A
100
AcDbSymbolTableRecord
100
AcDbDimStyleTableRecord
  2
MATSU
 70
     0
 41
2.0
 42
1.0
 43
10.0
 44
1.0
 73
     0
 74
     0
 77
     1
 78
     8
140
3.0
141
0.0
143
0.03937
147
0.5
172
     1
173
     1
176
   256
177
   256
178
   256
284
     8
289
     0
340
10
341
79FC
343
79FC
344
79FC
  0
ENDTAB
  0
TABLE
  2
BLOCK_RECORD
  5
1
330
0
100
AcDbSymbolTable
 70
    25
  0
BLOCK_RECORD
  5
19
102
{ACAD_XDICTIONARY
360
8127
102
}
330
1
100
AcDbSymbolTableRecord
100
AcDbBlockTableRecord
  2
*MODEL_SPACE
340
80FC
 70
     0
280
     1
281
     0
  0
BLOCK_RECORD
  5
16
102
{ACAD_XDICTIONARY
360
8125
102
}
330
1
100
AcDbSymbolTableRecord
100
AcDbBlockTableRecord
  2
*PAPER_SPACE
340
80FD
 70
     0
280
     1
281
     0
  0
BLOCK_RECORD
  5
79FC
330
1
100
AcDbSymbolTableRecord
100
AcDbBlockTableRecord
  2
_OPEN
340
0
102
{BLKREFS
331
8047
331
8048
331
8080
331
8081
331
80B6
331
80B7
331
7EA9
331
7EAA
331
7EBF
331
7EC0
331
7ECA
331
7ECB
331
7EF6
331
7EF7
331
7F3A
331
7F3B
331
7F45
331
7F46
331
7F50
331
7F51
331
7E25
331
7E26
331
7E30
331
7E31
331
7E46
331
7E47
331
7E93
331
7E94
331
7E9E
331
7E9F
331
80C3
331
80C4
331
80D0
331
80D1
331
80DD
331
80DE
331
80EA
331
80EB
331
81B7
331
81B8
331
81C0
331
81C1
102
}
 70
     0
280
     1
281
     0
  0
BLOCK_RECORD
  5
7A0A
330
1
100
AcDbSymbolTableRecord
100
AcDbBlockTableRecord
  2
YA_N
340
0
102
{BLKREFS
331
7C42
331
7C4C
331
7C83
331
7C20
102
}
 70
     0
280
     1
281
     0
  0
BLOCK_RECORD
  5
7CF3
330
1
100
AcDbSymbolTableRecord
100
AcDbBlockTableRecord
  2
*D2
340
0
 70
     0
280
     1
281
     0
  0
BLOCK_RECORD
  5
7CFF
330
1
100
AcDbSymbolTableRecord
100
AcDbBlockTableRecord
  2
*D3
340
0
 70
     0
280
     1
281
     0
  0
BLOCK_RECORD
  5
7D17
330
1
100
AcDbSymbolTableRecord
100
AcDbBlockTableRecord
  2
*D4
340
0
 70
     0
280
     1
281
     0
  0
BLOCK_RECORD
  5
7D23
330
1
100
AcDbSymbolTableRecord
100
AcDbBlockTableRecord
  2
*D5
340
0
 70
     0
280
     1
281
     0
  0
BLOCK_RECORD
  5
7D2F
330
1
100
AcDbSymbolTableRecord
100
AcDbBlockTableRecord
  2
*D6
340
0
 70
     0
280
     1
281
     0
  0
BLOCK_RECORD
  5
7D53
330
1
100
AcDbSymbolTableRecord
100
AcDbBlockTableRecord
  2
*D7
340
0
 70
     0
280
     1
281
     0
  0
BLOCK_RECORD
  5
7D5F
330
1
100
AcDbSymbolTableRecord
100
AcDbBlockTableRecord
  2
*D8
340
0
 70
     0
280
     1
281
     0
  0
BLOCK_RECORD
  5
7D6B
330
1
100
AcDbSymbolTableRecord
100
AcDbBlockTableRecord
  2
*D9
340
0
 70
     0
280
     1
281
     0
  0
BLOCK_RECORD
  5
7D77
330
1
100
AcDbSymbolTableRecord
100
AcDbBlockTableRecord
  2
*D10
340
0
 70
     0
280
     1
281
     0
  0
BLOCK_RECORD
  5
7D83
330
1
100
AcDbSymbolTableRecord
100
AcDbBlockTableRecord
  2
*D11
340
0
 70
     0
280
     1
281
     0
  0
BLOCK_RECORD
  5
7D8F
330
1
100
AcDbSymbolTableRecord
100
AcDbBlockTableRecord
  2
*D12
340
0
 70
     0
280
     1
281
     0
  0
BLOCK_RECORD
  5
7D9B
330
1
100
AcDbSymbolTableRecord
100
AcDbBlockTableRecord
  2
*D13
340
0
 70
     0
280
     1
281
     0
  0
BLOCK_RECORD
  5
7DA7
330
1
100
AcDbSymbolTableRecord
100
AcDbBlockTableRecord
  2
*D14
340
0
 70
     0
280
     1
281
     0
  0
BLOCK_RECORD
  5
7DD7
330
1
100
AcDbSymbolTableRecord
100
AcDbBlockTableRecord
  2
*D15
340
0
 70
     0
280
     1
281
     0
  0
BLOCK_RECORD
  5
7DE3
330
1
100
AcDbSymbolTableRecord
100
AcDbBlockTableRecord
  2
*D16
340
0
 70
     0
280
     1
281
     0
  0
BLOCK_RECORD
  5
7FFE
330
1
100
AcDbSymbolTableRecord
100
AcDbBlockTableRecord
  2
_DOT
340
0
 70
     0
280
     1
281
     0
  0
BLOCK_RECORD
  5
807B
330
1
100
AcDbSymbolTableRecord
100
AcDbBlockTableRecord
  2
*D18
340
0
 70
     0
280
     1
281
     0
  0
BLOCK_RECORD
  5
8096
330
1
100
AcDbSymbolTableRecord
100
AcDbBlockTableRecord
  2
_NONE
340
0
 70
     0
280
     1
281
     0
  0
BLOCK_RECORD
  5
80B1
330
1
100
AcDbSymbolTableRecord
100
AcDbBlockTableRecord
  2
*D20
340
0
 70
     0
280
     1
281
     0
  0
BLOCK_RECORD
  5
80BE
330
1
100
AcDbSymbolTableRecord
100
AcDbBlockTableRecord
  2
*D21
340
0
 70
     0
280
     1
281
     0
  0
BLOCK_RECORD
  5
80CB
330
1
100
AcDbSymbolTableRecord
100
AcDbBlockTableRecord
  2
*D22
340
0
 70
     0
280
     1
281
     0
  0
BLOCK_RECORD
  5
80D8
330
1
100
AcDbSymbolTableRecord
100
AcDbBlockTableRecord
  2
*D23
340
0
 70
     0
280
     1
281
     0
  0
BLOCK_RECORD
  5
80E5
330
1
100
AcDbSymbolTableRecord
100
AcDbBlockTableRecord
  2
*D24
340
0
 70
     0
280
     1
281
     0
  0
ENDTAB
  0
ENDSEC
  0
SECTION
  2
BLOCKS
  0
BLOCK
  5
1A
330
19
100
AcDbEntity
  8
0
100
AcDbBlockBegin
  2
*MODEL_SPACE
 70
     0
 10
0.0
 20
0.0
 30
0.0
  3
*MODEL_SPACE
  1

  0
ENDBLK
  5
1B
330
19
100
AcDbEntity
  8
0
100
AcDbBlockEnd
  0
BLOCK
  5
17
330
16
100
AcDbEntity
 67
     1
  8
0
100
AcDbBlockBegin
  2
*PAPER_SPACE
 70
     0
 10
0.0
 20
0.0
 30
0.0
  3
*PAPER_SPACE
  1

  0
ENDBLK
  5
18
330
16
100
AcDbEntity
 67
     1
  8
0
100
AcDbBlockEnd
  0
BLOCK
  5
7A00
330
79FC
100
AcDbEntity
  8
0
100
AcDbBlockBegin
  2
_OPEN
 70
     0
 10
0.0
 20
0.0
 30
0.0
  3
_OPEN
  1

  0
LINE
  5
79FD
330
79FC
100
AcDbEntity
  8
0
  6
ByBlock
 62
     0
100
AcDbLine
 10
-1.0
 20
0.1666666666666666
 30
0.0
 11
0.0
 21
0.0
 31
0.0
  0
LINE
  5
79FE
330
79FC
100
AcDbEntity
  8
0
  6
ByBlock
 62
     0
100
AcDbLine
 10
0.0
 20
0.0
 30
0.0
 11
-1.0
 21
-0.1666666666666666
 31
0.0
  0
LINE
  5
79FF
330
79FC
100
AcDbEntity
  8
0
  6
ByBlock
 62
     0
100
AcDbLine
 10
0.0
 20
0.0
 30
0.0
 11
-1.0
 21
0.0
 31
0.0
  0
ENDBLK
  5
7A01
330
79FC
100
AcDbEntity
  8
0
100
AcDbBlockEnd
  0
BLOCK
  5
7A0B
330
7A0A
100
AcDbEntity
  8
0
100
AcDbBlockBegin
  2
YA_N
 70
     0
 10
0.0
 20
0.0
 30
0.0
  3
YA_N
  1

  0
ENDBLK
  5
7A0C
330
7A0A
100
AcDbEntity
  8
0
100
AcDbBlockEnd
  0
BLOCK
  5
7E21
330
7CF3
100
AcDbEntity
  8
0
100
AcDbBlockBegin
  2
*D2
 70
     1
 10
0.0
 20
0.0
 30
0.0
  3
*D2
  1

  0
LINE
  5
7E22
330
7CF3
100
AcDbEntity
  8
0
  6
ByBlock
440
 16777216
100
AcDbLine
 10
3182.027826002123
 20
-34.33282767426863
 30
0.0
 11
3382.13614228639
 21
-34.33282767426863
 31
0.0
  0
LINE
  5
7E23
330
7CF3
100
AcDbEntity
  8
0
  6
ByBlock
440
 16777216
100
AcDbLine
 10
3182.027826002123
 20
1115.667172325731
 30
0.0
 11
3382.13614228639
 21
1115.667172325731
 31
0.0
  0
LINE
  5
7E24
330
7CF3
100
AcDbEntity
  8
0
  6
ByBlock
440
 16777216
100
AcDbLine
 10
3347.13614228639
 20
35.66717232573137
 30
0.0
 11
3347.13614228639
 21
1045.667172325731
 31
0.0
  0
INSERT
  5
7E25
330
7CF3
100
AcDbEntity
  8
0
  6
ByBlock
440
 16777216
100
AcDbBlockReference
  2
_OPEN
 10
3347.13614228639
 20
-34.33282767426863
 30
0.0
 41
70.0
 42
70.0
 43
70.0
 50
270.0
  0
INSERT
  5
7E26
330
7CF3
100
AcDbEntity
  8
0
  6
ByBlock
440
 16777216
100
AcDbBlockReference
  2
_OPEN
 10
3347.13614228639
 20
1115.667172325731
 30
0.0
 41
70.0
 42
70.0
 43
70.0
 50
90.0
  0
MTEXT
  5
7E27
330
7CF3
100
AcDbEntity
  8
0
  6
ByBlock
440
 16777216
100
AcDbMText
 10
3277.136142286389
 20
540.6671723257313
 30
0.0
 40
105.0
 41
0.0
 46
0.0
 71
     5
 72
     5
  1
\A1;1150
 11
0.0
 21
1.0
 31
0.0
 73
     1
 44
1.0
  0
POINT
  5
7E28
330
7CF3
100
AcDbEntity
  8
DEFPOINTS
  6
ByBlock
 62
     0
440
 16777216
100
AcDbPoint
 10
3147.027826002123
 20
-34.33282767426863
 30
0.0
  0
POINT
  5
7E29
330
7CF3
100
AcDbEntity
  8
DEFPOINTS
  6
ByBlock
 62
     0
440
 16777216
100
AcDbPoint
 10
3147.027826002123
 20
1115.667172325731
 30
0.0
  0
POINT
  5
7E2A
330
7CF3
100
AcDbEntity
  8
DEFPOINTS
  6
ByBlock
 62
     0
440
 16777216
100
AcDbPoint
 10
3347.13614228639
 20
1115.667172325731
 30
0.0
  0
ENDBLK
  5
7E2B
330
7CF3
100
AcDbEntity
  8
0
100
AcDbBlockEnd
  0
BLOCK
  5
7E2C
330
7CFF
100
AcDbEntity
  8
0
100
AcDbBlockBegin
  2
*D3
 70
     1
 10
0.0
 20
0.0
 30
0.0
  3
*D3
  1

  0
LINE
  5
7E2D
330
7CFF
100
AcDbEntity
  8
0
  6
ByBlock
440
 16777216
100
AcDbLine
 10
3182.027826002123
 20
-34.33282767426863
 30
0.0
 11
3571.679332769849
 21
-34.33282767426863
 31
0.0
  0
LINE
  5
7E2E
330
7CFF
100
AcDbEntity
  8
0
  6
ByBlock
440
 16777216
100
AcDbLine
 10
3267.866826900857
 20
1163.667172325731
 30
0.0
 11
3571.679332769849
 21
1163.667172325731
 31
0.0
  0
LINE
  5
7E2F
330
7CFF
100
AcDbEntity
  8
0
  6
ByBlock
440
 16777216
100
AcDbLine
 10
3536.679332769848
 20
35.66717232573137
 30
0.0
 11
3536.679332769848
 21
1093.667172325731
 31
0.0
  0
INSERT
  5
7E30
330
7CFF
100
AcDbEntity
  8
0
  6
ByBlock
440
 16777216
100
AcDbBlockReference
  2
_OPEN
 10
3536.679332769848
 20
-34.33282767426863
 30
0.0
 41
70.0
 42
70.0
 43
70.0
 50
270.0
  0
INSERT
  5
7E31
330
7CFF
100
AcDbEntity
  8
0
  6
ByBlock
440
 16777216
100
AcDbBlockReference
  2
_OPEN
 10
3536.679332769848
 20
1163.667172325731
 30
0.0
 41
70.0
 42
70.0
 43
70.0
 50
90.0
  0
MTEXT
  5
7E32
330
7CFF
100
AcDbEntity
  8
0
  6
ByBlock
440
 16777216
100
AcDbMText
 10
3466.679332769848
 20
564.6671723257314
 30
0.0
 40
105.0
 41
0.0
 46
0.0
 71
     5
 72
     5
  1
\A1;1198
 11
0.0
 21
1.0
 31
0.0
 73
     1
 44
1.0
  0
POINT
  5
7E33
330
7CFF
100
AcDbEntity
  8
DEFPOINTS
  6
ByBlock
 62
     0
440
 16777216
100
AcDbPoint
 10
3147.027826002123
 20
-34.33282767426863
 30
0.0
  0
POINT
  5
7E34
330
7CFF
100
AcDbEntity
  8
DEFPOINTS
  6
ByBlock
 62
     0
440
 16777216
100
AcDbPoint
 10
3232.866826900857
 20
1163.667172325731
 30
0.0
  0
POINT
  5
7E35
330
7CFF
100
AcDbEntity
  8
DEFPOINTS
  6
ByBlock
 62
     0
440
 16777216
100
AcDbPoint
 10
3536.679332769848
 20
1163.667172325731
 30
0.0
  0
ENDBLK
  5
7E36
330
7CFF
100
AcDbEntity
  8
0
100
AcDbBlockEnd
  0
BLOCK
  5
7E42
330
7D17
100
AcDbEntity
  8
0
100
AcDbBlockBegin
  2
*D4
 70
     1
 10
0.0
 20
0.0
 30
0.0
  3
*D4
  1

  0
LINE
  5
7E43
330
7D17
100
AcDbEntity
  8
0
  6
ByBlock
440
 16777216
100
AcDbLine
 10
3267.866826900857
 20
1163.667172325731
 30
0.0
 11
3747.847695656049
 21
1163.667172325731
 31
0.0
  0
LINE
  5
7E44
330
7D17
100
AcDbEntity
  8
0
  6
ByBlock
440
 16777216
100
AcDbLine
 10
3082.027826002124
 20
-191.3328276742686
 30
0.0
 11
3747.847695656049
 21
-191.3328276742686
 31
0.0
  0
LINE
  5
7E45
330
7D17
100
AcDbEntity
  8
0
  6
ByBlock
440
 16777216
100
AcDbLine
 10
3712.847695656049
 20
1093.667172325731
 30
0.0
 11
3712.847695656049
 21
-121.3328276742686
 31
0.0
  0
INSERT
  5
7E46
330
7D17
100
AcDbEntity
  8
0
  6
ByBlock
440
 16777216
100
AcDbBlockReference
  2
_OPEN
 10
3712.847695656049
 20
1163.667172325731
 30
0.0
 41
70.0
 42
70.0
 43
70.0
 50
90.0
  0
INSERT
  5
7E47
330
7D17
100
AcDbEntity
  8
0
  6
ByBlock
440
 16777216
100
AcDbBlockReference
  2
_OPEN
 10
3712.847695656049
 20
-191.3328276742686
 30
0.0
 41
70.0
 42
70.0
 43
70.0
 50
270.0
  0
MTEXT
  5
7E48
330
7D17
100
AcDbEntity
  8
0
  6
ByBlock
440
 16777216
100
AcDbMText
 10
3642.847695656049
 20
486.1671723257313
 30
0.0
 40
105.0
 41
0.0
 46
0.0
 71
     5
 72
     5
  1
\A1;1355
 11
0.0
 21
1.0
 31
0.0
 73
     1
 44
1.0
  0
POINT
  5
7E49
330
7D17
100
AcDbEntity
  8
DEFPOINTS
  6
ByBlock
 62
     0
440
 16777216
100
AcDbPoint
 10
3232.866826900857
 20
1163.667172325731
 30
0.0
  0
POINT
  5
7E4A
330
7D17
100
AcDbEntity
  8
DEFPOINTS
  6
ByBlock
 62
     0
440
 16777216
100
AcDbPoint
 10
3047.027826002123
 20
-191.3328276742686
 30
0.0
  0
POINT
  5
7E4B
330
7D17
100
AcDbEntity
  8
DEFPOINTS
  6
ByBlock
 62
     0
440
 16777216
100
AcDbPoint
 10
3712.847695656049
 20
-191.3328276742686
 30
0.0
  0
ENDBLK
  5
7E4C
330
7D17
100
AcDbEntity
  8
0
100
AcDbBlockEnd
  0
BLOCK
  5
7F36
330
7D23
100
AcDbEntity
  8
0
100
AcDbBlockBegin
  2
*D5
 70
     1
 10
0.0
 20
0.0
 30
0.0
  3
*D5
  1

  0
LINE
  5
7F37
330
7D23
100
AcDbEntity
  8
0
  6
ByBlock
440
 16777216
100
AcDbLine
 10
3147.027826002123
 20
3778.665997150994
 30
0.0
 11
3147.027826002123
 21
4916.795511059274
 31
0.0
  0
LINE
  5
7F38
330
7D23
100
AcDbEntity
  8
0
  6
ByBlock
440
 16777216
100
AcDbLine
 10
2387.027826002122
 20
4869.644450298645
 30
0.0
 11
2387.027826002122
 21
4916.795511059274
 31
0.0
  0
LINE
  5
7F39
330
7D23
100
AcDbEntity
  8
0
  6
ByBlock
440
 16777216
100
AcDbLine
 10
3077.027826002123
 20
4881.795511059274
 30
0.0
 11
2457.027826002122
 21
4881.795511059274
 31
0.0
  0
INSERT
  5
7F3A
330
7D23
100
AcDbEntity
  8
0
  6
ByBlock
440
 16777216
100
AcDbBlockReference
  2
_OPEN
 10
3147.027826002123
 20
4881.795511059274
 30
0.0
 41
70.0
 42
70.0
 43
70.0
  0
INSERT
  5
7F3B
330
7D23
100
AcDbEntity
  8
0
  6
ByBlock
440
 16777216
100
AcDbBlockReference
  2
_OPEN
 10
2387.027826002122
 20
4881.795511059274
 30
0.0
 41
70.0
 42
70.0
 43
70.0
 50
180.0
  0
MTEXT
  5
7F3C
330
7D23
100
AcDbEntity
  8
0
  6
ByBlock
440
 16777216
100
AcDbMText
 10
2767.027826002122
 20
4951.795511059273
 30
0.0
 40
105.0
 41
0.0
 46
0.0
 71
     5
 72
     5
  1
\A1;760
 73
     1
 44
1.0
  0
POINT
  5
7F3D
330
7D23
100
AcDbEntity
  8
DEFPOINTS
  6
ByBlock
 62
     0
440
 16777216
100
AcDbPoint
 10
3147.027826002123
 20
3743.665997150995
 30
0.0
  0
POINT
  5
7F3E
330
7D23
100
AcDbEntity
  8
DEFPOINTS
  6
ByBlock
 62
     0
440
 16777216
100
AcDbPoint
 10
2387.027826002122
 20
4834.644450298645
 30
0.0
  0
POINT
  5
7F3F
330
7D23
100
AcDbEntity
  8
DEFPOINTS
  6
ByBlock
 62
     0
440
 16777216
100
AcDbPoint
 10
2387.027826002122
 20
4881.795511059274
 30
0.0
  0
ENDBLK
  5
7F40
330
7D23
100
AcDbEntity
  8
0
100
AcDbBlockEnd
  0
BLOCK
  5
7F41
330
7D2F
100
AcDbEntity
  8
0
100
AcDbBlockBegin
  2
*D6
 70
     1
 10
0.0
 20
0.0
 30
0.0
  3
*D6
  1

  0
LINE
  5
7F42
330
7D2F
100
AcDbEntity
  8
0
  6
ByBlock
440
 16777216
100
AcDbLine
 10
2387.027826002122
 20
4869.644450298645
 30
0.0
 11
2387.027826002122
 21
4916.795511059274
 31
0.0
  0
LINE
  5
7F43
330
7D2F
100
AcDbEntity
  8
0
  6
ByBlock
440
 16777216
100
AcDbLine
 10
1421.826263503506
 20
3813.401306867709
 30
0.0
 11
1421.826263503506
 21
4916.795511059274
 31
0.0
  0
LINE
  5
7F44
330
7D2F
100
AcDbEntity
  8
0
  6
ByBlock
440
 16777216
100
AcDbLine
 10
2317.027826002123
 20
4881.795511059274
 30
0.0
 11
1491.826263503506
 21
4881.795511059274
 31
0.0
  0
INSERT
  5
7F45
330
7D2F
100
AcDbEntity
  8
0
  6
ByBlock
440
 16777216
100
AcDbBlockReference
  2
_OPEN
 10
2387.027826002122
 20
4881.795511059274
 30
0.0
 41
70.0
 42
70.0
 43
70.0
  0
INSERT
  5
7F46
330
7D2F
100
AcDbEntity
  8
0
  6
ByBlock
440
 16777216
100
AcDbBlockReference
  2
_OPEN
 10
1421.826263503506
 20
4881.795511059274
 30
0.0
 41
70.0
 42
70.0
 43
70.0
 50
180.0
  0
MTEXT
  5
7F47
330
7D2F
100
AcDbEntity
  8
0
  6
ByBlock
440
 16777216
100
AcDbMText
 10
1904.427044752814
 20
4951.795511059273
 30
0.0
 40
105.0
 41
0.0
 46
0.0
 71
     5
 72
     5
  1
\A1;969
 73
     1
 44
1.0
  0
POINT
  5
7F48
330
7D2F
100
AcDbEntity
  8
DEFPOINTS
  6
ByBlock
 62
     0
440
 16777216
100
AcDbPoint
 10
2387.027826002122
 20
4834.644450298645
 30
0.0
  0
POINT
  5
7F49
330
7D2F
100
AcDbEntity
  8
DEFPOINTS
  6
ByBlock
 62
     0
440
 16777216
100
AcDbPoint
 10
1421.826263503506
 20
3778.401306867709
 30
0.0
  0
POINT
  5
7F4A
330
7D2F
100
AcDbEntity
  8
DEFPOINTS
  6
ByBlock
 62
     0
440
 16777216
100
AcDbPoint
 10
1421.826263503506
 20
4881.795511059274
 30
0.0
  0
ENDBLK
  5
7F4B
330
7D2F
100
AcDbEntity
  8
0
100
AcDbBlockEnd
  0
BLOCK
  5
8053
330
7D53
100
AcDbEntity
  8
0
100
AcDbBlockBegin
  2
*D7
 70
     1
 10
0.0
 20
0.0
 30
0.0
  3
*D7
  1

  0
LINE
  5
81B4
330
7D53
100
AcDbEntity
  8
3
440
 16777216
370
    -2
100
AcDbLine
 10
4443.752841307504
 20
4033.401306867708
 30
0.0
 11
4443.752841307504
 21
5070.197437604056
 31
0.0
  0
LINE
  5
81B5
330
7D53
100
AcDbEntity
  8
3
440
 16777216
370
    -2
100
AcDbLine
 10
5643.752841307504
 20
5038.318711740885
 30
0.0
 11
5643.752841307504
 21
5070.197437604056
 31
0.0
  0
LINE
  5
81B6
330
7D53
100
AcDbEntity
  8
3
440
 16777216
370
    -2
100
AcDbLine
 10
4513.752841307504
 20
5035.197437604057
 30
0.0
 11
5573.752841307504
 21
5035.197437604057
 31
0.0
  0
INSERT
  5
81B7
330
7D53
100
AcDbEntity
  8
3
440
 16777216
370
    -2
100
AcDbBlockReference
  2
_OPEN
 10
4443.752841307504
 20
5035.197437604057
 30
0.0
 41
70.0
 42
70.0
 43
70.0
 50
180.0
  0
INSERT
  5
81B8
330
7D53
100
AcDbEntity
  8
3
440
 16777216
370
    -2
100
AcDbBlockReference
  2
_OPEN
 10
5643.752841307504
 20
5035.197437604057
 30
0.0
 41
70.0
 42
70.0
 43
70.0
  0
MTEXT
  5
81B9
330
7D53
100
AcDbEntity
  8
3
440
 16777216
100
AcDbMText
 10
5043.752841307505
 20
5132.697437604056
 30
0.0
 40
105.0
 41
0.0
 46
0.0
 71
     5
 72
     1
  1
\A1;(1200)
 73
     1
 44
1.0
  0
POINT
  5
81BA
330
7D53
100
AcDbEntity
  8
DEFPOINTS
 62
     0
440
 16777216
100
AcDbPoint
 10
4443.752841307504
 20
3998.401306867709
 30
0.0
  0
POINT
  5
81BB
330
7D53
100
AcDbEntity
  8
DEFPOINTS
 62
     0
440
 16777216
100
AcDbPoint
 10
5643.752841307504
 20
5003.318711740885
 30
0.0
  0
POINT
  5
81BC
330
7D53
100
AcDbEntity
  8
DEFPOINTS
 62
     0
440
 16777216
100
AcDbPoint
 10
5643.752841307504
 20
5035.197437604057
 30
0.0
  0
ENDBLK
  5
805D
330
7D53
100
AcDbEntity
  8
0
100
AcDbBlockEnd
  0
BLOCK
  5
805F
330
7D5F
100
AcDbEntity
  8
0
100
AcDbBlockBegin
  2
*D8
 70
     1
 10
0.0
 20
0.0
 30
0.0
  3
*D8
  1

  0
LINE
  5
81BD
330
7D5F
100
AcDbEntity
  8
3
440
 16777216
370
    -2
100
AcDbLine
 10
5643.752841307504
 20
5038.318711740885
 30
0.0
 11
5643.752841307504
 21
5069.848306313081
 31
0.0
  0
LINE
  5
81BE
330
7D5F
100
AcDbEntity
  8
3
440
 16777216
370
    -2
100
AcDbLine
 10
6573.752841307502
 20
3723.890818206412
 30
0.0
 11
6573.752841307502
 21
5069.848306313081
 31
0.0
  0
LINE
  5
81BF
330
7D5F
100
AcDbEntity
  8
3
440
 16777216
370
    -2
100
AcDbLine
 10
5713.752841307504
 20
5034.84830631308
 30
0.0
 11
6503.752841307502
 21
5034.84830631308
 31
0.0
  0
INSERT
  5
81C0
330
7D5F
100
AcDbEntity
  8
3
440
 16777216
370
    -2
100
AcDbBlockReference
  2
_OPEN
 10
5643.752841307504
 20
5034.84830631308
 30
0.0
 41
70.0
 42
70.0
 43
70.0
 50
180.0
  0
INSERT
  5
81C1
330
7D5F
100
AcDbEntity
  8
3
440
 16777216
370
    -2
100
AcDbBlockReference
  2
_OPEN
 10
6573.752841307502
 20
5034.84830631308
 30
0.0
 41
70.0
 42
70.0
 43
70.0
  0
MTEXT
  5
81C2
330
7D5F
100
AcDbEntity
  8
3
440
 16777216
100
AcDbMText
 10
6108.752841307503
 20
5132.348306313081
 30
0.0
 40
105.0
 41
0.0
 46
0.0
 71
     5
 72
     1
  1
\A1;(930)
 73
     1
 44
1.0
  0
POINT
  5
81C3
330
7D5F
100
AcDbEntity
  8
DEFPOINTS
 62
     0
440
 16777216
100
AcDbPoint
 10
5643.752841307504
 20
5003.318711740885
 30
0.0
  0
POINT
  5
81C4
330
7D5F
100
AcDbEntity
  8
DEFPOINTS
 62
     0
440
 16777216
100
AcDbPoint
 10
6573.752841307502
 20
3688.890818206412
 30
0.0
  0
POINT
  5
81C5
330
7D5F
100
AcDbEntity
  8
DEFPOINTS
 62
     0
440
 16777216
100
AcDbPoint
 10
6573.752841307502
 20
5034.84830631308
 30
0.0
  0
ENDBLK
  5
8069
330
7D5F
100
AcDbEntity
  8
0
100
AcDbBlockEnd
  0
BLOCK
  5
7E8F
330
7D6B
100
AcDbEntity
  8
0
100
AcDbBlockBegin
  2
*D9
 70
     1
 10
0.0
 20
0.0
 30
0.0
  3
*D9
  1

  0
LINE
  5
7E90
330
7D6B
100
AcDbEntity
  8
0
  6
ByBlock
440
 16777216
100
AcDbLine
 10
6434.252841307508
 20
603.6671723257313
 30
0.0
 11
6796.53560766302
 21
603.6671723257313
 31
0.0
  0
LINE
  5
7E91
330
7D6B
100
AcDbEntity
  8
0
  6
ByBlock
440
 16777216
100
AcDbLine
 10
6434.252841307508
 20
1723.667172325731
 30
0.0
 11
6796.53560766302
 21
1723.667172325731
 31
0.0
  0
LINE
  5
7E92
330
7D6B
100
AcDbEntity
  8
0
  6
ByBlock
440
 16777216
100
AcDbLine
 10
6761.535607663019
 20
673.6671723257313
 30
0.0
 11
6761.535607663019
 21
1653.667172325731
 31
0.0
  0
INSERT
  5
7E93
330
7D6B
100
AcDbEntity
  8
0
  6
ByBlock
440
 16777216
100
AcDbBlockReference
  2
_OPEN
 10
6761.535607663019
 20
603.6671723257313
 30
0.0
 41
70.0
 42
70.0
 43
70.0
 50
270.0
  0
INSERT
  5
7E94
330
7D6B
100
AcDbEntity
  8
0
  6
ByBlock
440
 16777216
100
AcDbBlockReference
  2
_OPEN
 10
6761.535607663019
 20
1723.667172325731
 30
0.0
 41
70.0
 42
70.0
 43
70.0
 50
90.0
  0
MTEXT
  5
7E95
330
7D6B
100
AcDbEntity
  8
0
  6
ByBlock
440
 16777216
100
AcDbMText
 10
6691.53560766302
 20
1163.667172325731
 30
0.0
 40
105.0
 41
0.0
 46
0.0
 71
     5
 72
     5
  1
\A1;φ1120
 11
0.0
 21
1.0
 31
0.0
 73
     1
 44
1.0
  0
POINT
  5
7E96
330
7D6B
100
AcDbEntity
  8
DEFPOINTS
  6
ByBlock
 62
     0
440
 16777216
100
AcDbPoint
 10
6399.252841307507
 20
603.6671723257313
 30
0.0
  0
POINT
  5
7E97
330
7D6B
100
AcDbEntity
  8
DEFPOINTS
  6
ByBlock
 62
     0
440
 16777216
100
AcDbPoint
 10
6399.252841307507
 20
1723.667172325731
 30
0.0
  0
POINT
  5
7E98
330
7D6B
100
AcDbEntity
  8
DEFPOINTS
  6
ByBlock
 62
     0
440
 16777216
100
AcDbPoint
 10
6761.535607663019
 20
1723.667172325731
 30
0.0
  0
ENDBLK
  5
7E99
330
7D6B
100
AcDbEntity
  8
0
100
AcDbBlockEnd
  0
BLOCK
  5
7E9A
330
7D77
100
AcDbEntity
  8
0
100
AcDbBlockBegin
  2
*D10
 70
     1
 10
0.0
 20
0.0
 30
0.0
  3
*D10
  1

  0
LINE
  5
7E9B
330
7D77
100
AcDbEntity
  8
0
  6
ByBlock
440
 16777216
100
AcDbLine
 10
597.0278260021232
 20
3674.620183114897
 30
0.0
 11
597.0278260021232
 21
3342.895607084491
 31
0.0
  0
LINE
  5
7E9C
330
7D77
100
AcDbEntity
  8
0
  6
ByBlock
440
 16777216
100
AcDbLine
 10
3047.027826002123
 20
3674.620183114899
 30
0.0
 11
3047.027826002123
 21
3342.895607084491
 31
0.0
  0
LINE
  5
7E9D
330
7D77
100
AcDbEntity
  8
0
  6
ByBlock
440
 16777216
100
AcDbLine
 10
667.0278260021232
 20
3377.895607084491
 30
0.0
 11
2977.027826002123
 21
3377.895607084491
 31
0.0
  0
INSERT
  5
7E9E
330
7D77
100
AcDbEntity
  8
0
  6
ByBlock
440
 16777216
100
AcDbBlockReference
  2
_OPEN
 10
597.0278260021232
 20
3377.895607084491
 30
0.0
 41
70.0
 42
70.0
 43
70.0
 50
180.0
  0
INSERT
  5
7E9F
330
7D77
100
AcDbEntity
  8
0
  6
ByBlock
440
 16777216
100
AcDbBlockReference
  2
_OPEN
 10
3047.027826002123
 20
3377.895607084491
 30
0.0
 41
70.0
 42
70.0
 43
70.0
  0
MTEXT
  5
7EA0
330
7D77
100
AcDbEntity
  8
0
  6
ByBlock
440
 16777216
100
AcDbMText
 10
1822.027826002123
 20
3447.895607084491
 30
0.0
 40
105.0
 41
0.0
 46
0.0
 71
     5
 72
     5
  1
\A1;2450
 73
     1
 44
1.0
  0
POINT
  5
7EA1
330
7D77
100
AcDbEntity
  8
DEFPOINTS
  6
ByBlock
 62
     0
440
 16777216
100
AcDbPoint
 10
597.0278260021232
 20
3709.620183114898
 30
0.0
  0
POINT
  5
7EA2
330
7D77
100
AcDbEntity
  8
DEFPOINTS
  6
ByBlock
 62
     0
440
 16777216
100
AcDbPoint
 10
3047.027826002123
 20
3709.620183114898
 30
0.0
  0
POINT
  5
7EA3
330
7D77
100
AcDbEntity
  8
DEFPOINTS
  6
ByBlock
 62
     0
440
 16777216
100
AcDbPoint
 10
3047.027826002123
 20
3377.895607084491
 30
0.0
  0
ENDBLK
  5
7EA4
330
7D77
100
AcDbEntity
  8
0
100
AcDbBlockEnd
  0
BLOCK
  5
7EA5
330
7D83
100
AcDbEntity
  8
0
100
AcDbBlockBegin
  2
*D11
 70
     1
 10
0.0
 20
0.0
 30
0.0
  3
*D11
  1

  0
LINE
  5
7EA6
330
7D83
100
AcDbEntity
  8
0
  6
ByBlock
440
 16777216
100
AcDbLine
 10
3082.027826002124
 20
5609.620183114897
 30
0.0
 11
3481.01707652402
 21
5609.620183114897
 31
0.0
  0
LINE
  5
7EA7
330
7D83
100
AcDbEntity
  8
0
  6
ByBlock
440
 16777216
100
AcDbLine
 10
3082.027826002124
 20
3709.620183114898
 30
0.0
 11
3481.01707652402
 21
3709.620183114898
 31
0.0
  0
LINE
  5
7EA8
330
7D83
100
AcDbEntity
  8
0
  6
ByBlock
440
 16777216
100
AcDbLine
 10
3446.017076524019
 20
5539.620183114897
 30
0.0
 11
3446.017076524019
 21
3779.620183114899
 31
0.0
  0
INSERT
  5
7EA9
330
7D83
100
AcDbEntity
  8
0
  6
ByBlock
440
 16777216
100
AcDbBlockReference
  2
_OPEN
 10
3446.017076524019
 20
5609.620183114897
 30
0.0
 41
70.0
 42
70.0
 43
70.0
 50
90.0
  0
INSERT
  5
7EAA
330
7D83
100
AcDbEntity
  8
0
  6
ByBlock
440
 16777216
100
AcDbBlockReference
  2
_OPEN
 10
3446.017076524019
 20
3709.620183114898
 30
0.0
 41
70.0
 42
70.0
 43
70.0
 50
270.0
  0
MTEXT
  5
7EAB
330
7D83
100
AcDbEntity
  8
0
  6
ByBlock
440
 16777216
100
AcDbMText
 10
3376.017076524019
 20
4659.620183114897
 30
0.0
 40
105.0
 41
0.0
 46
0.0
 71
     5
 72
     5
  1
\A1;1900
 11
0.0
 21
1.0
 31
0.0
 73
     1
 44
1.0
  0
POINT
  5
7EAC
330
7D83
100
AcDbEntity
  8
DEFPOINTS
  6
ByBlock
 62
     0
440
 16777216
100
AcDbPoint
 10
3047.027826002123
 20
5609.620183114897
 30
0.0
  0
POINT
  5
7EAD
330
7D83
100
AcDbEntity
  8
DEFPOINTS
  6
ByBlock
 62
     0
440
 16777216
100
AcDbPoint
 10
3047.027826002123
 20
3709.620183114898
 30
0.0
  0
POINT
  5
7EAE
330
7D83
100
AcDbEntity
  8
DEFPOINTS
  6
ByBlock
 62
     0
440
 16777216
100
AcDbPoint
 10
3446.017076524019
 20
3709.620183114898
 30
0.0
  0
ENDBLK
  5
7EAF
330
7D83
100
AcDbEntity
  8
0
100
AcDbBlockEnd
  0
BLOCK
  5
8043
330
7D8F
100
AcDbEntity
  8
0
100
AcDbBlockBegin
  2
*D12
 70
     1
 10
0.0
 20
0.0
 30
0.0
  3
*D12
  1

  0
LINE
  5
8044
330
7D8F
100
AcDbEntity
  8
0
  6
ByBlock
440
 16777216
100
AcDbLine
 10
562.0278260021223
 20
6714.828360554794
 30
0.0
 11
327.7686230420368
 21
6714.828360554794
 31
0.0
  0
LINE
  5
8045
330
7D8F
100
AcDbEntity
  8
0
  6
ByBlock
440
 16777216
100
AcDbLine
 10
562.0278260021223
 20
5714.828360554795
 30
0.0
 11
327.7686230420368
 21
5714.828360554795
 31
0.0
  0
LINE
  5
8046
330
7D8F
100
AcDbEntity
  8
0
  6
ByBlock
440
 16777216
100
AcDbLine
 10
362.7686230420368
 20
6644.828360554794
 30
0.0
 11
362.7686230420368
 21
5784.828360554794
 31
0.0
  0
INSERT
  5
8047
330
7D8F
100
AcDbEntity
  8
0
  6
ByBlock
440
 16777216
100
AcDbBlockReference
  2
_OPEN
 10
362.7686230420368
 20
6714.828360554794
 30
0.0
 41
70.0
 42
70.0
 43
70.0
 50
90.0
  0
INSERT
  5
8048
330
7D8F
100
AcDbEntity
  8
0
  6
ByBlock
440
 16777216
100
AcDbBlockReference
  2
_OPEN
 10
362.7686230420368
 20
5714.828360554795
 30
0.0
 41
70.0
 42
70.0
 43
70.0
 50
270.0
  0
MTEXT
  5
8049
330
7D8F
100
AcDbEntity
  8
0
  6
ByBlock
440
 16777216
100
AcDbMText
 10
292.7686230420368
 20
6214.828360554795
 30
0.0
 40
105.0
 41
0.0
 46
0.0
 71
     5
 72
     5
  1
\A1;1000
 11
0.0
 21
1.0
 31
0.0
 73
     1
 44
1.0
  0
POINT
  5
804A
330
7D8F
100
AcDbEntity
  8
DEFPOINTS
  6
ByBlock
 62
     0
440
 16777216
100
AcDbPoint
 10
597.0278260021223
 20
6714.828360554794
 30
0.0
  0
POINT
  5
804B
330
7D8F
100
AcDbEntity
  8
DEFPOINTS
  6
ByBlock
 62
     0
440
 16777216
100
AcDbPoint
 10
597.0278260021223
 20
5714.828360554795
 30
0.0
  0
POINT
  5
804C
330
7D8F
100
AcDbEntity
  8
DEFPOINTS
  6
ByBlock
 62
     0
440
 16777216
100
AcDbPoint
 10
362.7686230420368
 20
5714.828360554795
 30
0.0
  0
ENDBLK
  5
804D
330
7D8F
100
AcDbEntity
  8
0
100
AcDbBlockEnd
  0
BLOCK
  5
7EBB
330
7D9B
100
AcDbEntity
  8
0
100
AcDbBlockBegin
  2
*D13
 70
     1
 10
0.0
 20
0.0
 30
0.0
  3
*D13
  1

  0
LINE
  5
7EBC
330
7D9B
100
AcDbEntity
  8
0
  6
ByBlock
440
 16777216
100
AcDbLine
 10
597.0278260021232
 20
4744.620183114896
 30
0.0
 11
597.0278260021232
 21
6041.477319164242
 31
0.0
  0
LINE
  5
7EBD
330
7D9B
100
AcDbEntity
  8
0
  6
ByBlock
440
 16777216
100
AcDbLine
 10
1727.027826002123
 20
5644.620183114898
 30
0.0
 11
1727.027826002123
 21
6041.477319164242
 31
0.0
  0
LINE
  5
7EBE
330
7D9B
100
AcDbEntity
  8
0
  6
ByBlock
440
 16777216
100
AcDbLine
 10
667.0278260021232
 20
6006.477319164241
 30
0.0
 11
1657.027826002123
 21
6006.477319164241
 31
0.0
  0
INSERT
  5
7EBF
330
7D9B
100
AcDbEntity
  8
0
  6
ByBlock
440
 16777216
100
AcDbBlockReference
  2
_OPEN
 10
597.0278260021232
 20
6006.477319164241
 30
0.0
 41
70.0
 42
70.0
 43
70.0
 50
180.0
  0
INSERT
  5
7EC0
330
7D9B
100
AcDbEntity
  8
0
  6
ByBlock
440
 16777216
100
AcDbBlockReference
  2
_OPEN
 10
1727.027826002123
 20
6006.477319164241
 30
0.0
 41
70.0
 42
70.0
 43
70.0
  0
MTEXT
  5
7EC1
330
7D9B
100
AcDbEntity
  8
0
  6
ByBlock
440
 16777216
100
AcDbMText
 10
1162.027826002123
 20
6076.477319164242
 30
0.0
 40
105.0
 41
0.0
 46
0.0
 71
     5
 72
     5
  1
\A1;1130
 73
     1
 44
1.0
  0
POINT
  5
7EC2
330
7D9B
100
AcDbEntity
  8
DEFPOINTS
  6
ByBlock
 62
     0
440
 16777216
100
AcDbPoint
 10
597.0278260021232
 20
4709.620183114896
 30
0.0
  0
POINT
  5
7EC3
330
7D9B
100
AcDbEntity
  8
DEFPOINTS
  6
ByBlock
 62
     0
440
 16777216
100
AcDbPoint
 10
1727.027826002123
 20
5609.620183114897
 30
0.0
  0
POINT
  5
7EC4
330
7D9B
100
AcDbEntity
  8
DEFPOINTS
  6
ByBlock
 62
     0
440
 16777216
100
AcDbPoint
 10
1727.027826002123
 20
6006.477319164241
 30
0.0
  0
ENDBLK
  5
7EC5
330
7D9B
100
AcDbEntity
  8
0
100
AcDbBlockEnd
  0
BLOCK
  5
7EC6
330
7DA7
100
AcDbEntity
  8
0
100
AcDbBlockBegin
  2
*D14
 70
     1
 10
0.0
 20
0.0
 30
0.0
  3
*D14
  1

  0
LINE
  5
7EC7
330
7DA7
100
AcDbEntity
  8
0
  6
ByBlock
440
 16777216
100
AcDbLine
 10
1727.027826002122
 20
5644.620183114898
 30
0.0
 11
1727.027826002122
 21
6041.477319164242
 31
0.0
  0
LINE
  5
7EC8
330
7DA7
100
AcDbEntity
  8
0
  6
ByBlock
440
 16777216
100
AcDbLine
 10
3047.027826002123
 20
5644.620183114898
 30
0.0
 11
3047.027826002123
 21
6041.477319164242
 31
0.0
  0
LINE
  5
7EC9
330
7DA7
100
AcDbEntity
  8
0
  6
ByBlock
440
 16777216
100
AcDbLine
 10
1797.027826002122
 20
6006.477319164241
 30
0.0
 11
2977.027826002123
 21
6006.477319164241
 31
0.0
  0
INSERT
  5
7ECA
330
7DA7
100
AcDbEntity
  8
0
  6
ByBlock
440
 16777216
100
AcDbBlockReference
  2
_OPEN
 10
1727.027826002122
 20
6006.477319164241
 30
0.0
 41
70.0
 42
70.0
 43
70.0
 50
180.0
  0
INSERT
  5
7ECB
330
7DA7
100
AcDbEntity
  8
0
  6
ByBlock
440
 16777216
100
AcDbBlockReference
  2
_OPEN
 10
3047.027826002123
 20
6006.477319164241
 30
0.0
 41
70.0
 42
70.0
 43
70.0
  0
MTEXT
  5
7ECC
330
7DA7
100
AcDbEntity
  8
0
  6
ByBlock
440
 16777216
100
AcDbMText
 10
2387.027826002123
 20
6076.477319164242
 30
0.0
 40
105.0
 41
0.0
 46
0.0
 71
     5
 72
     5
  1
\A1;1320
 73
     1
 44
1.0
  0
POINT
  5
7ECD
330
7DA7
100
AcDbEntity
  8
DEFPOINTS
  6
ByBlock
 62
     0
440
 16777216
100
AcDbPoint
 10
1727.027826002122
 20
5609.620183114898
 30
0.0
  0
POINT
  5
7ECE
330
7DA7
100
AcDbEntity
  8
DEFPOINTS
  6
ByBlock
 62
     0
440
 16777216
100
AcDbPoint
 10
3047.027826002123
 20
5609.620183114897
 30
0.0
  0
POINT
  5
7ECF
330
7DA7
100
AcDbEntity
  8
DEFPOINTS
  6
ByBlock
 62
     0
440
 16777216
100
AcDbPoint
 10
3047.027826002123
 20
6006.477319164241
 30
0.0
  0
ENDBLK
  5
7ED0
330
7DA7
100
AcDbEntity
  8
0
100
AcDbBlockEnd
  0
BLOCK
  5
7EF2
330
7DD7
100
AcDbEntity
  8
0
100
AcDbBlockBegin
  2
*D15
 70
     1
 10
0.0
 20
0.0
 30
0.0
  3
*D15
  1

  0
LINE
  5
7EF3
330
7DD7
100
AcDbEntity
  8
0
  6
ByBlock
440
 16777216
100
AcDbLine
 10
4893.752841307504
 20
2003.667172325731
 30
0.0
 11
4893.752841307504
 21
2230.925729314966
 31
0.0
  0
LINE
  5
7EF4
330
7DD7
100
AcDbEntity
  8
0
  6
ByBlock
440
 16777216
100
AcDbLine
 10
6393.752841307505
 20
2003.667172325732
 30
0.0
 11
6393.752841307505
 21
2230.925729314966
 31
0.0
  0
LINE
  5
7EF5
330
7DD7
100
AcDbEntity
  8
0
  6
ByBlock
440
 16777216
100
AcDbLine
 10
4963.752841307504
 20
2195.925729314966
 30
0.0
 11
6323.752841307506
 21
2195.925729314966
 31
0.0
  0
INSERT
  5
7EF6
330
7DD7
100
AcDbEntity
  8
0
  6
ByBlock
440
 16777216
100
AcDbBlockReference
  2
_OPEN
 10
4893.752841307504
 20
2195.925729314966
 30
0.0
 41
70.0
 42
70.0
 43
70.0
 50
180.0
  0
INSERT
  5
7EF7
330
7DD7
100
AcDbEntity
  8
0
  6
ByBlock
440
 16777216
100
AcDbBlockReference
  2
_OPEN
 10
6393.752841307505
 20
2195.925729314966
 30
0.0
 41
70.0
 42
70.0
 43
70.0
  0
MTEXT
  5
7EF8
330
7DD7
100
AcDbEntity
  8
0
  6
ByBlock
440
 16777216
100
AcDbMText
 10
5643.752841307505
 20
2265.925729314966
 30
0.0
 40
105.0
 41
0.0
 46
0.0
 71
     5
 72
     5
  1
\A1;1500
 73
     1
 44
1.0
  0
POINT
  5
7EF9
330
7DD7
100
AcDbEntity
  8
DEFPOINTS
  6
ByBlock
 62
     0
440
 16777216
100
AcDbPoint
 10
4893.752841307504
 20
1968.667172325731
 30
0.0
  0
POINT
  5
7EFA
330
7DD7
100
AcDbEntity
  8
DEFPOINTS
  6
ByBlock
 62
     0
440
 16777216
100
AcDbPoint
 10
6393.752841307505
 20
1968.667172325732
 30
0.0
  0
POINT
  5
7EFB
330
7DD7
100
AcDbEntity
  8
DEFPOINTS
  6
ByBlock
 62
     0
440
 16777216
100
AcDbPoint
 10
6393.752841307505
 20
2195.925729314966
 30
0.0
  0
ENDBLK
  5
7EFC
330
7DD7
100
AcDbEntity
  8
0
100
AcDbBlockEnd
  0
BLOCK
  5
7F4C
330
7DE3
100
AcDbEntity
  8
0
100
AcDbBlockBegin
  2
*D16
 70
     1
 10
0.0
 20
0.0
 30
0.0
  3
*D16
  1

  0
LINE
  5
7F4D
330
7DE3
100
AcDbEntity
  8
0
  6
ByBlock
440
 16777216
100
AcDbLine
 10
597.0278260021241
 20
2608.401306867709
 30
0.0
 11
597.0278260021241
 21
5121.241407786826
 31
0.0
  0
LINE
  5
7F4E
330
7DE3
100
AcDbEntity
  8
0
  6
ByBlock
440
 16777216
100
AcDbLine
 10
3147.027826002123
 20
3778.665997150994
 30
0.0
 11
3147.027826002123
 21
5121.241407786826
 31
0.0
  0
LINE
  5
7F4F
330
7DE3
100
AcDbEntity
  8
0
  6
ByBlock
440
 16777216
100
AcDbLine
 10
667.0278260021241
 20
5086.241407786825
 30
0.0
 11
3077.027826002123
 21
5086.241407786825
 31
0.0
  0
INSERT
  5
7F50
330
7DE3
100
AcDbEntity
  8
0
  6
ByBlock
440
 16777216
100
AcDbBlockReference
  2
_OPEN
 10
597.0278260021241
 20
5086.241407786825
 30
0.0
 41
70.0
 42
70.0
 43
70.0
 50
180.0
  0
INSERT
  5
7F51
330
7DE3
100
AcDbEntity
  8
0
  6
ByBlock
440
 16777216
100
AcDbBlockReference
  2
_OPEN
 10
3147.027826002123
 20
5086.241407786825
 30
0.0
 41
70.0
 42
70.0
 43
70.0
  0
MTEXT
  5
7F52
330
7DE3
100
AcDbEntity
  8
0
  6
ByBlock
440
 16777216
100
AcDbMText
 10
1872.027826002123
 20
5156.241407786826
 30
0.0
 40
105.0
 41
0.0
 46
0.0
 71
     5
 72
     5
  1
\A1;2550
 73
     1
 44
1.0
  0
POINT
  5
7F53
330
7DE3
100
AcDbEntity
  8
DEFPOINTS
  6
ByBlock
 62
     0
440
 16777216
100
AcDbPoint
 10
597.0278260021241
 20
2573.401306867709
 30
0.0
  0
POINT
  5
7F54
330
7DE3
100
AcDbEntity
  8
DEFPOINTS
  6
ByBlock
 62
     0
440
 16777216
100
AcDbPoint
 10
3147.027826002123
 20
3743.665997150995
 30
0.0
  0
POINT
  5
7F55
330
7DE3
100
AcDbEntity
  8
DEFPOINTS
  6
ByBlock
 62
     0
440
 16777216
100
AcDbPoint
 10
3147.027826002123
 20
5086.241407786825
 30
0.0
  0
ENDBLK
  5
7F56
330
7DE3
100
AcDbEntity
  8
0
100
AcDbBlockEnd
  0
BLOCK
  5
8004
330
7FFE
100
AcDbEntity
  8
0
100
AcDbBlockBegin
  2
_DOT
 70
     0
 10
0.0
 20
0.0
 30
0.0
  3
_DOT
  1

  0
LWPOLYLINE
  5
7FFF
330
7FFE
100
AcDbEntity
  8
0
  6
ByBlock
 62
     0
100
AcDbPolyline
 90
        2
 70
     1
 43
0.25
 10
-0.125
 20
0.0
 42
1.0
 10
0.125
 20
0.0
 42
1.0
  0
LINE
  5
8003
330
7FFE
100
AcDbEntity
  8
0
  6
ByBlock
 62
     0
100
AcDbLine
 10
-0.25
 20
0.0
 30
0.0
 11
-1.0
 21
0.0
 31
0.0
  0
ENDBLK
  5
8005
330
7FFE
100
AcDbEntity
  8
0
100
AcDbBlockEnd
  0
BLOCK
  5
807C
330
807B
100
AcDbEntity
  8
0
100
AcDbBlockBegin
  2
*D18
 70
     1
 10
0.0
 20
0.0
 30
0.0
  3
*D18
  1

  0
LINE
  5
807D
330
807B
100
AcDbEntity
  8
0
  6
ByBlock
 62
     0
440
 16777216
100
AcDbLine
 10
2581.26925404626
 20
4583.401306867709
 30
0.0
 11
4003.972430660462
 21
4583.401306867709
 31
0.0
  0
LINE
  5
807E
330
807B
100
AcDbEntity
  8
0
  6
ByBlock
 62
     0
440
 16777216
100
AcDbLine
 10
3544.108254944994
 20
3778.401306867709
 30
0.0
 11
4003.972430660462
 21
3778.401306867709
 31
0.0
  0
LINE
  5
807F
330
807B
100
AcDbEntity
  8
0
  6
ByBlock
 62
     0
440
 16777216
100
AcDbLine
 10
3968.972430660463
 20
4513.401306867709
 30
0.0
 11
3968.972430660463
 21
3848.401306867709
 31
0.0
  0
INSERT
  5
8080
330
807B
100
AcDbEntity
  8
0
  6
ByBlock
 62
     0
440
 16777216
100
AcDbBlockReference
  2
_OPEN
 10
3968.972430660463
 20
4583.401306867709
 30
0.0
 41
70.0
 42
70.0
 43
70.0
 50
90.0
  0
INSERT
  5
8081
330
807B
100
AcDbEntity
  8
0
  6
ByBlock
 62
     0
440
 16777216
100
AcDbBlockReference
  2
_OPEN
 10
3968.972430660463
 20
3778.401306867709
 30
0.0
 41
70.0
 42
70.0
 43
70.0
 50
270.0
  0
MTEXT
  5
8082
330
807B
100
AcDbEntity
  8
0
  6
ByBlock
 62
     0
440
 16777216
100
AcDbMText
 10
3881.472430660462
 20
4180.901306867709
 30
0.0
 40
105.0
 41
0.0
 46
0.0
 71
     5
 72
     5
  1
\A1;805
 11
0.0
 21
1.0
 31
0.0
 73
     1
 44
1.0
  0
POINT
  5
8083
330
807B
100
AcDbEntity
  8
DEFPOINTS
  6
ByBlock
 62
     0
440
 16777216
100
AcDbPoint
 10
2563.76925404626
 20
4583.401306867709
 30
0.0
  0
POINT
  5
8084
330
807B
100
AcDbEntity
  8
DEFPOINTS
  6
ByBlock
 62
     0
440
 16777216
100
AcDbPoint
 10
3526.608254944994
 20
3778.401306867709
 30
0.0
  0
POINT
  5
8085
330
807B
100
AcDbEntity
  8
DEFPOINTS
  6
ByBlock
 62
     0
440
 16777216
100
AcDbPoint
 10
3968.972430660463
 20
3778.401306867709
 30
0.0
  0
ENDBLK
  5
8086
330
807B
100
AcDbEntity
  8
0
100
AcDbBlockEnd
  0
BLOCK
  5
8097
330
8096
100
AcDbEntity
  8
0
100
AcDbBlockBegin
  2
_NONE
 70
     0
 10
0.0
 20
0.0
 30
0.0
  3
_NONE
  1

  0
CIRCLE
  5
8098
330
8096
100
AcDbEntity
  8
0
  6
ByBlock
 62
     0
100
AcDbCircle
 10
0.0
 20
0.0
 30
0.0
 40
0.25
  0
ENDBLK
  5
8099
330
8096
100
AcDbEntity
  8
0
100
AcDbBlockEnd
  0
BLOCK
  5
80B2
330
80B1
100
AcDbEntity
  8
0
100
AcDbBlockBegin
  2
*D20
 70
     1
 10
0.0
 20
0.0
 30
0.0
  3
*D20
  1

  0
LINE
  5
80B3
330
80B1
100
AcDbEntity
  8
0
  6
ByBlock
 62
     0
440
 16777216
100
AcDbLine
 10
855.7692540462612
 20
2405.901306867709
 30
0.0
 11
855.7692540462612
 21
2163.891467035403
 31
0.0
  0
LINE
  5
80B4
330
80B1
100
AcDbEntity
  8
0
  6
ByBlock
 62
     0
440
 16777216
100
AcDbLine
 10
2645.76925404626
 20
2405.901306867709
 30
0.0
 11
2645.76925404626
 21
2163.891467035403
 31
0.0
  0
LINE
  5
80B5
330
80B1
100
AcDbEntity
  8
0
  6
ByBlock
 62
     0
440
 16777216
100
AcDbLine
 10
925.7692540462612
 20
2198.891467035402
 30
0.0
 11
2575.76925404626
 21
2198.891467035402
 31
0.0
  0
INSERT
  5
80B6
330
80B1
100
AcDbEntity
  8
0
  6
ByBlock
 62
     0
440
 16777216
100
AcDbBlockReference
  2
_OPEN
 10
855.7692540462612
 20
2198.891467035402
 30
0.0
 41
70.0
 42
70.0
 43
70.0
 50
180.0
  0
INSERT
  5
80B7
330
80B1
100
AcDbEntity
  8
0
  6
ByBlock
 62
     0
440
 16777216
100
AcDbBlockReference
  2
_OPEN
 10
2645.76925404626
 20
2198.891467035402
 30
0.0
 41
70.0
 42
70.0
 43
70.0
  0
MTEXT
  5
80B8
330
80B1
100
AcDbEntity
  8
0
  6
ByBlock
 62
     0
440
 16777216
100
AcDbMText
 10
1750.76925404626
 20
2286.391467035402
 30
0.0
 40
105.0
 41
0.0
 46
0.0
 71
     5
 72
     5
  1
\A1;1790
 73
     1
 44
1.0
  0
POINT
  5
80B9
330
80B1
100
AcDbEntity
  8
DEFPOINTS
  6
ByBlock
 62
     0
440
 16777216
100
AcDbPoint
 10
855.7692540462612
 20
2423.401306867709
 30
0.0
  0
POINT
  5
80BA
330
80B1
100
AcDbEntity
  8
DEFPOINTS
  6
ByBlock
 62
     0
440
 16777216
100
AcDbPoint
 10
2645.76925404626
 20
2423.401306867709
 30
0.0
  0
POINT
  5
80BB
330
80B1
100
AcDbEntity
  8
DEFPOINTS
  6
ByBlock
 62
     0
440
 16777216
100
AcDbPoint
 10
2645.76925404626
 20
2198.891467035402
 30
0.0
  0
ENDBLK
  5
80BC
330
80B1
100
AcDbEntity
  8
0
100
AcDbBlockEnd
  0
BLOCK
  5
80BF
330
80BE
100
AcDbEntity
  8
0
100
AcDbBlockBegin
  2
*D21
 70
     1
 10
0.0
 20
0.0
 30
0.0
  3
*D21
  1

  0
LINE
  5
80C0
330
80BE
100
AcDbEntity
  8
0
  6
ByBlock
 62
     0
440
 16777216
100
AcDbLine
 10
2645.76925404626
 20
2405.901306867709
 30
0.0
 11
2645.76925404626
 21
2163.891467035403
 31
0.0
  0
LINE
  5
80C1
330
80BE
100
AcDbEntity
  8
0
  6
ByBlock
 62
     0
440
 16777216
100
AcDbLine
 10
3305.76925404626
 20
2405.901306867709
 30
0.0
 11
3305.76925404626
 21
2163.891467035403
 31
0.0
  0
LINE
  5
80C2
330
80BE
100
AcDbEntity
  8
0
  6
ByBlock
 62
     0
440
 16777216
100
AcDbLine
 10
2715.769254046259
 20
2198.891467035402
 30
0.0
 11
3235.769254046259
 21
2198.891467035402
 31
0.0
  0
INSERT
  5
80C3
330
80BE
100
AcDbEntity
  8
0
  6
ByBlock
 62
     0
440
 16777216
100
AcDbBlockReference
  2
_OPEN
 10
2645.76925404626
 20
2198.891467035402
 30
0.0
 41
70.0
 42
70.0
 43
70.0
 50
180.0
  0
INSERT
  5
80C4
330
80BE
100
AcDbEntity
  8
0
  6
ByBlock
 62
     0
440
 16777216
100
AcDbBlockReference
  2
_OPEN
 10
3305.76925404626
 20
2198.891467035402
 30
0.0
 41
70.0
 42
70.0
 43
70.0
  0
MTEXT
  5
80C5
330
80BE
100
AcDbEntity
  8
0
  6
ByBlock
 62
     0
440
 16777216
100
AcDbMText
 10
2975.76925404626
 20
2286.391467035402
 30
0.0
 40
105.0
 41
0.0
 46
0.0
 71
     5
 72
     5
  1
\A1;660
 73
     1
 44
1.0
  0
POINT
  5
80C6
330
80BE
100
AcDbEntity
  8
DEFPOINTS
  6
ByBlock
 62
     0
440
 16777216
100
AcDbPoint
 10
2645.76925404626
 20
2423.401306867709
 30
0.0
  0
POINT
  5
80C7
330
80BE
100
AcDbEntity
  8
DEFPOINTS
  6
ByBlock
 62
     0
440
 16777216
100
AcDbPoint
 10
3305.76925404626
 20
2423.401306867709
 30
0.0
  0
POINT
  5
80C8
330
80BE
100
AcDbEntity
  8
DEFPOINTS
  6
ByBlock
 62
     0
440
 16777216
100
AcDbPoint
 10
3305.76925404626
 20
2198.891467035402
 30
0.0
  0
ENDBLK
  5
80C9
330
80BE
100
AcDbEntity
  8
0
100
AcDbBlockEnd
  0
BLOCK
  5
80CC
330
80CB
100
AcDbEntity
  8
0
100
AcDbBlockBegin
  2
*D22
 70
     1
 10
0.0
 20
0.0
 30
0.0
  3
*D22
  1

  0
LINE
  5
80CD
330
80CB
100
AcDbEntity
  8
0
  6
ByBlock
 62
     0
440
 16777216
100
AcDbLine
 10
4571.752841307517
 20
2405.901306867708
 30
0.0
 11
4571.752841307517
 21
2163.891467035403
 31
0.0
  0
LINE
  5
80CE
330
80CB
100
AcDbEntity
  8
0
  6
ByBlock
 62
     0
440
 16777216
100
AcDbLine
 10
5643.752841307505
 20
2405.901306867709
 30
0.0
 11
5643.752841307505
 21
2163.891467035403
 31
0.0
  0
LINE
  5
80CF
330
80CB
100
AcDbEntity
  8
0
  6
ByBlock
 62
     0
440
 16777216
100
AcDbLine
 10
4641.752841307518
 20
2198.891467035402
 30
0.0
 11
5573.752841307506
 21
2198.891467035402
 31
0.0
  0
INSERT
  5
80D0
330
80CB
100
AcDbEntity
  8
0
  6
ByBlock
 62
     0
440
 16777216
100
AcDbBlockReference
  2
_OPEN
 10
4571.752841307517
 20
2198.891467035402
 30
0.0
 41
70.0
 42
70.0
 43
70.0
 50
180.0
  0
INSERT
  5
80D1
330
80CB
100
AcDbEntity
  8
0
  6
ByBlock
 62
     0
440
 16777216
100
AcDbBlockReference
  2
_OPEN
 10
5643.752841307505
 20
2198.891467035402
 30
0.0
 41
70.0
 42
70.0
 43
70.0
  0
MTEXT
  5
80D2
330
80CB
100
AcDbEntity
  8
0
  6
ByBlock
 62
     0
440
 16777216
100
AcDbMText
 10
5107.752841307512
 20
2286.391467035402
 30
0.0
 40
105.0
 41
0.0
 46
0.0
 71
     5
 72
     5
  1
\A1;1072
 73
     1
 44
1.0
  0
POINT
  5
80D3
330
80CB
100
AcDbEntity
  8
DEFPOINTS
  6
ByBlock
 62
     0
440
 16777216
100
AcDbPoint
 10
4571.752841307517
 20
2423.401306867708
 30
0.0
  0
POINT
  5
80D4
330
80CB
100
AcDbEntity
  8
DEFPOINTS
  6
ByBlock
 62
     0
440
 16777216
100
AcDbPoint
 10
5643.752841307505
 20
2423.401306867709
 30
0.0
  0
POINT
  5
80D5
330
80CB
100
AcDbEntity
  8
DEFPOINTS
  6
ByBlock
 62
     0
440
 16777216
100
AcDbPoint
 10
5643.752841307505
 20
2198.891467035402
 30
0.0
  0
ENDBLK
  5
80D6
330
80CB
100
AcDbEntity
  8
0
100
AcDbBlockEnd
  0
BLOCK
  5
80D9
330
80D8
100
AcDbEntity
  8
0
100
AcDbBlockBegin
  2
*D23
 70
     1
 10
0.0
 20
0.0
 30
0.0
  3
*D23
  1

  0
LINE
  5
80DA
330
80D8
100
AcDbEntity
  8
0
  6
ByBlock
 62
     0
440
 16777216
100
AcDbLine
 10
5643.752841307505
 20
2405.901306867709
 30
0.0
 11
5643.752841307505
 21
2163.891467035403
 31
0.0
  0
LINE
  5
80DB
330
80D8
100
AcDbEntity
  8
0
  6
ByBlock
 62
     0
440
 16777216
100
AcDbLine
 10
6471.752841307505
 20
2405.901306867709
 30
0.0
 11
6471.752841307505
 21
2163.891467035403
 31
0.0
  0
LINE
  5
80DC
330
80D8
100
AcDbEntity
  8
0
  6
ByBlock
 62
     0
440
 16777216
100
AcDbLine
 10
5713.752841307505
 20
2198.891467035402
 30
0.0
 11
6401.752841307505
 21
2198.891467035402
 31
0.0
  0
INSERT
  5
80DD
330
80D8
100
AcDbEntity
  8
0
  6
ByBlock
 62
     0
440
 16777216
100
AcDbBlockReference
  2
_OPEN
 10
5643.752841307505
 20
2198.891467035402
 30
0.0
 41
70.0
 42
70.0
 43
70.0
 50
180.0
  0
INSERT
  5
80DE
330
80D8
100
AcDbEntity
  8
0
  6
ByBlock
 62
     0
440
 16777216
100
AcDbBlockReference
  2
_OPEN
 10
6471.752841307505
 20
2198.891467035402
 30
0.0
 41
70.0
 42
70.0
 43
70.0
  0
MTEXT
  5
80DF
330
80D8
100
AcDbEntity
  8
0
  6
ByBlock
 62
     0
440
 16777216
100
AcDbMText
 10
6057.752841307505
 20
2286.391467035402
 30
0.0
 40
105.0
 41
0.0
 46
0.0
 71
     5
 72
     5
  1
\A1;828
 73
     1
 44
1.0
  0
POINT
  5
80E0
330
80D8
100
AcDbEntity
  8
DEFPOINTS
  6
ByBlock
 62
     0
440
 16777216
100
AcDbPoint
 10
5643.752841307505
 20
2423.401306867709
 30
0.0
  0
POINT
  5
80E1
330
80D8
100
AcDbEntity
  8
DEFPOINTS
  6
ByBlock
 62
     0
440
 16777216
100
AcDbPoint
 10
6471.752841307505
 20
2423.401306867709
 30
0.0
  0
POINT
  5
80E2
330
80D8
100
AcDbEntity
  8
DEFPOINTS
  6
ByBlock
 62
     0
440
 16777216
100
AcDbPoint
 10
6471.752841307505
 20
2198.891467035402
 30
0.0
  0
ENDBLK
  5
80E3
330
80D8
100
AcDbEntity
  8
0
100
AcDbBlockEnd
  0
BLOCK
  5
80E6
330
80E5
100
AcDbEntity
  8
0
100
AcDbBlockBegin
  2
*D24
 70
     1
 10
0.0
 20
0.0
 30
0.0
  3
*D24
  1

  0
LINE
  5
80E7
330
80E5
100
AcDbEntity
  8
0
  6
ByBlock
 62
     0
440
 16777216
100
AcDbLine
 10
2598.76925404626
 20
4583.401306867709
 30
0.0
 11
4209.735684361286
 21
4583.401306867709
 31
0.0
  0
LINE
  5
80E8
330
80E5
100
AcDbEntity
  8
0
  6
ByBlock
 62
     0
440
 16777216
100
AcDbLine
 10
3323.269254046259
 20
2423.401306867709
 30
0.0
 11
4209.735684361286
 21
2423.401306867709
 31
0.0
  0
LINE
  5
80E9
330
80E5
100
AcDbEntity
  8
0
  6
ByBlock
 62
     0
440
 16777216
100
AcDbLine
 10
4174.735684361286
 20
4513.401306867709
 30
0.0
 11
4174.735684361286
 21
2493.401306867708
 31
0.0
  0
INSERT
  5
80EA
330
80E5
100
AcDbEntity
  8
0
  6
ByBlock
 62
     0
440
 16777216
100
AcDbBlockReference
  2
_OPEN
 10
4174.735684361286
 20
4583.401306867709
 30
0.0
 41
70.0
 42
70.0
 43
70.0
 50
90.0
  0
INSERT
  5
80EB
330
80E5
100
AcDbEntity
  8
0
  6
ByBlock
 62
     0
440
 16777216
100
AcDbBlockReference
  2
_OPEN
 10
4174.735684361286
 20
2423.401306867709
 30
0.0
 41
70.0
 42
70.0
 43
70.0
 50
270.0
  0
MTEXT
  5
80EC
330
80E5
100
AcDbEntity
  8
0
  6
ByBlock
 62
     0
440
 16777216
100
AcDbMText
 10
4087.235684361287
 20
3503.401306867709
 30
0.0
 40
105.0
 41
0.0
 46
0.0
 71
     5
 72
     5
  1
\A1;2160
 11
0.0
 21
1.0
 31
0.0
 73
     1
 44
1.0
  0
POINT
  5
80ED
330
80E5
100
AcDbEntity
  8
DEFPOINTS
  6
ByBlock
 62
     0
440
 16777216
100
AcDbPoint
 10
2581.26925404626
 20
4583.401306867709
 30
0.0
  0
POINT
  5
80EE
330
80E5
100
AcDbEntity
  8
DEFPOINTS
  6
ByBlock
 62
     0
440
 16777216
100
AcDbPoint
 10
3305.76925404626
 20
2423.401306867709
 30
0.0
  0
POINT
  5
80EF
330
80E5
100
AcDbEntity
  8
DEFPOINTS
  6
ByBlock
 62
     0
440
 16777216
100
AcDbPoint
 10
4174.735684361286
 20
2423.401306867709
 30
0.0
  0
ENDBLK
  5
80F0
330
80E5
100
AcDbEntity
  8
0
100
AcDbBlockEnd
  0
ENDSEC
  0
SECTION
  2
ENTITIES
  0
INSERT
  5
7C20
330
19
100
AcDbEntity
  8
0
100
AcDbBlockReference
  2
YA_N
 10
6.0
 20
5.0
 30
0.0
  0
LINE
  5
7C22
330
19
100
AcDbEntity
  8
2
100
AcDbLine
 10
3552.549905499236
 20
3778.401306867709
 30
0.0
 11
1579.394912932588
 21
3778.401306867709
 31
0.0
  0
LINE
  5
7C23
330
19
100
AcDbEntity
  8
2
100
AcDbLine
 10
2645.76925404626
 20
2423.401306867709
 30
0.0
 11
2645.76925404626
 21
4834.644450298645
 31
0.0
  0
LINE
  5
7C24
330
19
100
AcDbEntity
  8
1
100
AcDbLine
 10
3405.76925404626
 20
3783.401306867709
 30
0.0
 11
3405.76925404626
 21
2527.401306867709
 31
0.0
  0
LINE
  5
7C25
330
19
100
AcDbEntity
  8
1
100
AcDbLine
 10
3405.76925404626
 20
2527.401306867709
 30
0.0
 11
3401.76925404626
 21
2527.401306867709
 31
0.0
  0
LINE
  5
7C26
330
19
100
AcDbEntity
  8
1
100
AcDbLine
 10
3405.76925404626
 20
3783.401306867709
 30
0.0
 11
3401.76925404626
 21
3783.401306867709
 31
0.0
  0
LINE
  5
7C27
330
19
100
AcDbEntity
  8
1
100
AcDbLine
 10
3355.76925404626
 20
3730.401306867709
 30
0.0
 11
3355.76925404626
 21
2584.888395103147
 31
0.0
  0
LINE
  5
7C28
330
19
100
AcDbEntity
  8
1
100
AcDbLine
 10
3401.76925404626
 20
3783.401306867709
 30
0.0
 11
3401.76925404626
 21
2527.401306867709
 31
0.0
  0
LINE
  5
7C29
330
19
100
AcDbEntity
  8
1
100
AcDbLine
 10
3305.76925404626
 20
2423.401306867709
 30
0.0
 11
855.7692540462612
 21
2423.401306867709
 31
0.0
1001
ACAD
1000
ASC_BOUNDS
1002
{
1070
    19
1002
}
  0
LINE
  5
7C2A
330
19
100
AcDbEntity
  8
1
100
AcDbLine
 10
3305.76925404626
 20
2573.401306867709
 30
0.0
 11
3305.76925404626
 21
2423.401306867709
 31
0.0
  0
LINE
  5
7C2B
330
19
100
AcDbEntity
  8
1
100
AcDbLine
 10
855.7692540462612
 20
2573.401306867709
 30
0.0
 11
855.7692540462612
 21
2423.401306867709
 31
0.0
  0
LINE
  5
7C2C
330
19
100
AcDbEntity
  8
1
100
AcDbLine
 10
3305.76925404626
 20
2573.401306867709
 30
0.0
 11
855.7692540462612
 21
2573.401306867709
 31
0.0
  0
ARC
  5
7C2D
330
19
100
AcDbEntity
  8
1
100
AcDbCircle
 10
2727.76925404626
 20
3696.401306867709
 30
0.0
 40
1051.0
100
AcDbArc
 50
175.5251821014661
 51
265.5251821014662
  0
ARC
  5
7C2E
330
19
100
AcDbEntity
  8
1
100
AcDbCircle
 10
2563.76925404626
 20
3696.401306867709
 30
0.0
 40
887.0
100
AcDbArc
 50
84.69563479220411
 51
174.6956347922042
  0
ARC
  5
7C2F
330
19
100
AcDbEntity
  8
1
100
AcDbCircle
 10
2577.26925404626
 20
3846.901306867709
 30
0.0
 40
736.5
100
AcDbArc
 50
354.6633516786166
 51
84.66335167861648
  0
LINE
  5
7C30
330
19
100
AcDbEntity
  8
1
100
AcDbLine
 10
3405.76925404626
 20
2580.401306867709
 30
0.0
 11
2645.76925404626
 21
2648.605048046367
 31
0.0
  0
LINE
  5
7C31
330
19
100
AcDbEntity
  8
1
100
AcDbLine
 10
3405.76925404626
 20
3730.401306867709
 30
0.0
 11
3302.340678279747
 21
3730.401306867709
 31
0.0
  0
LINE
  5
7C32
330
19
100
AcDbEntity
  8
2
100
AcDbLine
 10
1145.769254046259
 20
3122.259583023653
 30
0.0
 11
1145.769254046262
 21
2423.401306867709
 31
0.0
  0
LINE
  5
7C33
330
19
100
AcDbEntity
  8
2
100
AcDbLine
 10
1381.095548905239
 20
2833.401306867709
 30
0.0
 11
872.6224286479046
 21
2833.401306867709
 31
0.0
  0
LINE
  5
7C35
330
19
100
AcDbEntity
  8
1
100
AcDbLine
 10
4571.752841307517
 20
2573.401306867709
 30
0.0
 11
6471.752841307505
 21
2573.401306867709
 31
0.0
  0
LINE
  5
7C36
330
19
100
AcDbEntity
  8
1
100
AcDbLine
 10
4571.752841307517
 20
2573.401306867709
 30
0.0
 11
4571.752841307517
 21
2423.401306867709
 31
0.0
  0
LINE
  5
7C37
330
19
100
AcDbEntity
  8
1
100
AcDbLine
 10
4571.752841307517
 20
2423.401306867708
 30
0.0
 11
6471.752841307505
 21
2423.401306867709
 31
0.0
1001
ACAD
1000
ASC_BOUNDS
1002
{
1070
    19
1002
}
  0
LINE
  5
7C38
330
19
100
AcDbEntity
  8
2
100
AcDbLine
 10
4536.576091240408
 20
3778.401306867709
 30
0.0
 11
6568.740828384246
 21
3778.401306867709
 31
0.0
  0
LINE
  5
7C39
330
19
100
AcDbEntity
  8
1
100
AcDbLine
 10
4558.752841307505
 20
3935.901306867709
 30
0.0
 11
4558.752841307505
 21
2715.401306867709
 31
0.0
  0
LINE
  5
7C3A
330
19
100
AcDbEntity
  8
1
100
AcDbLine
 10
4669.252841307506
 20
3935.901306867709
 30
0.0
 11
4669.252841307504
 21
2715.401306867709
 31
0.0
  0
LINE
  5
7C3B
330
19
100
AcDbEntity
  8
2
100
AcDbLine
 10
4537.833902088375
 20
2833.401306867709
 30
0.0
 11
4893.752841307507
 21
2833.401306867709
 31
0.0
  0
LINE
  5
7C3C
330
19
100
AcDbEntity
  8
1
100
AcDbLine
 10
4443.752841307504
 20
3998.401306867709
 30
0.0
 11
4443.752841307504
 21
2613.401306867709
 31
0.0
  0
LINE
  5
7C3D
330
19
100
AcDbEntity
  8
1
100
AcDbLine
 10
4721.052841307505
 20
3998.401306867709
 30
0.0
 11
4721.052841307505
 21
3944.598595723835
 31
0.0
  0
LINE
  5
7C3E
330
19
100
AcDbEntity
  8
2
100
AcDbLine
 10
2645.76925404626
 20
7718.535020624297
 30
0.0
 11
2645.769254046259
 21
5586.828360554796
 31
0.0
  0
LINE
  5
7C3F
330
19
100
AcDbEntity
  8
2
100
AcDbLine
 10
3519.875522436327
 20
6786.828360554794
 30
0.0
 11
1676.769254046259
 21
6786.828360554796
 31
0.0
  0
LINE
  5
7C40
330
19
100
AcDbEntity
  8
2
100
AcDbLine
 10
5643.752841307505
 20
4792.583633033537
 30
0.0
 11
5643.752841307505
 21
2423.401306867709
 31
0.0
  0
POINT
  5
7C41
330
19
100
AcDbEntity
  8
1
100
AcDbPoint
 10
3446.97081654488
 20
3778.401306867709
 30
0.0
  0
INSERT
  5
7C42
330
19
100
AcDbEntity
  8
0
100
AcDbBlockReference
  2
YA_N
 10
-1074.779326041183
 20
-1311.669320613289
 30
0.0
 41
25.0
 42
25.0
 43
25.0
  0
INSERT
  5
7C4C
330
19
100
AcDbEntity
  8
0
100
AcDbBlockReference
  2
YA_N
 10
-346.941647642394
 20
-375.8074592043958
 30
0.0
 41
25.0
 42
25.0
 43
25.0
  0
DIMENSION
  5
7C4E
330
19
100
AcDbEntity
  8
3
100
AcDbDimension
280
     0
  2
*D2
 10
3605.877570330526
 20
3730.401306867709
 30
0.0
 11
3535.877570330526
 21
3155.401306867709
 31
0.0
 12
258.7414280441371
 22
2614.734134541977
 32
0.0
 70
    32
 71
     5
 42
-1.0
 73
     0
 74
     0
 75
     0
  3
MATSU
100
AcDbAlignedDimension
 13
3405.76925404626
 23
2580.401306867709
 33
0.0
 14
3405.76925404626
 24
3730.401306867709
 34
0.0
 50
270.0
100
AcDbRotatedDimension
1001
ACAD
1000
DSTYLE
1002
{
1070
    40
1040
35.0
1002
}
  0
DIMENSION
  5
7C4F
330
19
100
AcDbEntity
  8
3
100
AcDbDimension
280
     0
  2
*D3
 10
3795.420760813984
 20
3778.401306867709
 30
0.0
 11
3725.420760813984
 21
3179.401306867709
 31
0.0
 12
258.7414280441371
 22
2614.734134541977
 32
0.0
 70
    32
 71
     5
 42
-1.0
 73
     0
 74
     0
 75
     0
  3
MATSU
100
AcDbAlignedDimension
 13
3405.76925404626
 23
2580.401306867709
 33
0.0
 14
3491.608254944993
 24
3778.401306867709
 34
0.0
 50
270.0
100
AcDbRotatedDimension
1001
ACAD
1000
DSTYLE
1002
{
1070
    40
1040
35.0
1002
}
  0
ARC
  5
7C51
330
19
100
AcDbEntity
  8
1
100
AcDbCircle
 10
2714.269254046259
 20
3846.901306867709
 30
0.0
 40
599.5
100
AcDbArc
 50
348.7944946314464
 51
353.4389464571666
  0
ARC
  5
7C52
330
19
100
AcDbEntity
  8
1
100
AcDbCircle
 10
1145.769254046259
 20
2833.401306867709
 30
0.0
 40
203.5
100
AcDbArc
 50
285.6036990000001
 51
254.39624
  0
LINE
  5
7C53
330
19
100
AcDbEntity
  8
1
100
AcDbLine
 10
1091.03121704626
 20
2637.401306867709
 30
0.0
 11
1200.507291046262
 21
2637.401306867709
 31
0.0
  0
ARC
  5
7C54
330
19
100
AcDbEntity
  8
1
100
AcDbCircle
 10
1331.769254046259
 20
2650.401306867709
 30
0.0
 40
3.0
100
AcDbArc
 50
0.0
 51
90.0
  0
ARC
  5
7C55
330
19
100
AcDbEntity
  8
1
100
AcDbCircle
 10
1329.769254046259
 20
2707.727967867709
 30
0.0
 40
5.000066999999999
100
AcDbArc
 50
0.0
 51
55.056335
  0
LINE
  5
7C56
330
19
100
AcDbEntity
  8
1
100
AcDbLine
 10
1334.769254046259
 20
2707.727967867709
 30
0.0
 11
1334.769254046259
 21
2633.401306867709
 31
0.0
  0
LINE
  5
7C5A
330
19
100
AcDbEntity
  8
1
100
AcDbLine
 10
1249.871824046262
 20
2658.544495867709
 30
0.0
 11
1255.269254046259
 21
2638.401306867709
 31
0.0
  0
LINE
  5
7C5B
330
19
100
AcDbEntity
  8
1
100
AcDbLine
 10
1255.269254046259
 20
2650.401306867709
 30
0.0
 11
1255.269254046259
 21
2633.401306867709
 31
0.0
  0
LINE
  5
7C5C
330
19
100
AcDbEntity
  8
1
100
AcDbLine
 10
1258.269254046259
 20
2653.401306867709
 30
0.0
 11
1331.769254046259
 21
2653.401306867709
 31
0.0
  0
ARC
  5
7C5D
330
19
100
AcDbEntity
  8
1
100
AcDbCircle
 10
1258.269254046259
 20
2650.401306867709
 30
0.0
 40
3.0
100
AcDbArc
 50
90.0
 51
180.0
  0
LINE
  5
7C5E
330
19
100
AcDbEntity
  8
1
100
AcDbLine
 10
1332.633024046259
 20
2711.826599867709
 30
0.0
 11
1316.695158046261
 21
2722.963074867708
 31
0.0
  0
LINE
  5
7C5F
330
19
100
AcDbEntity
  8
1
100
AcDbLine
 10
956.7692540462594
 20
2707.727967867709
 30
0.0
 11
956.7692540462594
 21
2633.401306867709
 31
0.0
  0
LINE
  5
7C63
330
19
100
AcDbEntity
  8
1
100
AcDbLine
 10
1041.666471046261
 20
2658.544617867709
 30
0.0
 11
1036.269254046259
 21
2638.401306867709
 31
0.0
  0
LINE
  5
7C64
330
19
100
AcDbEntity
  8
1
100
AcDbLine
 10
1036.269254046259
 20
2650.401306867709
 30
0.0
 11
1036.269254046259
 21
2633.401306867709
 31
0.0
  0
LINE
  5
7C65
330
19
100
AcDbEntity
  8
1
100
AcDbLine
 10
1033.269254046259
 20
2653.401306867709
 30
0.0
 11
959.7692540462594
 21
2653.401306867709
 31
0.0
  0
ARC
  5
7C66
330
19
100
AcDbEntity
  8
1
100
AcDbCircle
 10
1033.269254046259
 20
2650.401306867709
 30
0.0
 40
3.0
100
AcDbArc
 50
0.0
 51
90.0
  0
ARC
  5
7C67
330
19
100
AcDbEntity
  8
1
100
AcDbCircle
 10
959.7692540462594
 20
2650.401306867709
 30
0.0
 40
3.0
100
AcDbArc
 50
90.0
 51
180.0
  0
LINE
  5
7C68
330
19
100
AcDbEntity
  8
1
100
AcDbLine
 10
958.9053630462622
 20
2711.826599867709
 30
0.0
 11
974.8432290462623
 21
2722.963074867708
 31
0.0
  0
ARC
  5
7C69
330
19
100
AcDbEntity
  8
1
100
AcDbCircle
 10
961.7692540462595
 20
2707.727967867709
 30
0.0
 40
5.0
100
AcDbArc
 50
124.943661
 51
180.0
  0
LINE
  5
7C6A
330
19
100
AcDbEntity
  8
1
100
AcDbLine
 10
1389.831510094351
 20
2633.401306867709
 30
0.0
 11
1215.769254046259
 21
2633.401306867709
 31
0.0
  0
LINE
  5
7C6B
330
19
100
AcDbEntity
  8
1
100
AcDbLine
 10
1405.769254046263
 20
2573.401306867709
 30
0.0
 11
1389.831510094351
 21
2633.401306867709
 31
0.0
  0
LINE
  5
7C6C
330
19
100
AcDbEntity
  8
1
100
AcDbLine
 10
885.7692540462631
 20
2573.401306867709
 30
0.0
 11
901.7542639526254
 21
2633.401306867709
 31
0.0
  0
LINE
  5
7C6E
330
19
100
AcDbEntity
  8
1
100
AcDbLine
 10
1215.769254046259
 20
2623.401306867709
 30
0.0
 11
1075.769254046261
 21
2623.401306867709
 31
0.0
  0
LINE
  5
7C6F
330
19
100
AcDbEntity
  8
1
100
AcDbLine
 10
1075.769254046261
 20
2633.401306867709
 30
0.0
 11
1075.769254046263
 21
2623.401306867709
 31
0.0
  0
LINE
  5
7C70
330
19
100
AcDbEntity
  8
1
100
AcDbLine
 10
1215.769254046261
 20
2633.401306867709
 30
0.0
 11
1215.769254046261
 21
2623.401306867709
 31
0.0
  0
LINE
  5
7C73
330
19
100
AcDbEntity
  8
1
100
AcDbLine
 10
1075.769254046261
 20
2633.401306867709
 30
0.0
 11
901.7542639526254
 21
2633.401306867709
 31
0.0
  0
CIRCLE
  5
7C76
330
19
100
AcDbEntity
  8
1
100
AcDbCircle
 10
1145.769254046259
 20
2833.401306867709
 30
0.0
 40
118.0
  0
CIRCLE
  5
7C77
330
19
100
AcDbEntity
  8
1
100
AcDbCircle
 10
2645.76925404626
 20
3778.401306867709
 30
0.0
 40
157.5
  0
LINE
  5
7C78
330
19
100
AcDbEntity
  8
1
100
AcDbLine
 10
4558.752841307505
 20
2951.401306867709
 30
0.0
 11
4669.252841307505
 21
2951.401306867709
 31
0.0
  0
LINE
  5
7C79
330
19
100
AcDbEntity
  8
1
100
AcDbLine
 10
4558.752841307505
 20
2715.401306867709
 30
0.0
 11
4669.252841307505
 21
2715.401306867709
 31
0.0
  0
LINE
  5
7C7A
330
19
100
AcDbEntity
  8
1
100
AcDbLine
 10
4558.752841307505
 20
3935.901306867709
 30
0.0
 11
4669.252841307506
 21
3935.901306867709
 31
0.0
  0
LINE
  5
7C7B
330
19
100
AcDbEntity
  8
1
100
AcDbLine
 10
4558.752841307505
 20
3620.901306867709
 30
0.0
 11
4669.252841307505
 21
3620.901306867709
 31
0.0
  0
LINE
  5
7C7C
330
19
100
AcDbEntity
  8
1
100
AcDbLine
 10
4443.752841307504
 20
3998.401306867709
 30
0.0
 11
4721.052841307505
 21
3998.401306867709
 31
0.0
  0
LINE
  5
7C7D
330
19
100
AcDbEntity
  8
1
100
AcDbLine
 10
4443.752841307504
 20
2613.401306867709
 30
0.0
 11
4721.052841307505
 21
2613.401306867709
 31
0.0
  0
POINT
  5
7C80
330
19
100
AcDbEntity
  8
1
100
AcDbPoint
 10
3305.76925404626
 20
2423.401306867709
 30
0.0
  0
INSERT
  5
7C83
330
19
100
AcDbEntity
  8
0
100
AcDbBlockReference
  2
YA_N
 10
-394.4722692372307
 20
-430.8984299984331
 30
0.0
 41
25.0
 42
25.0
 43
25.0
  0
LINE
  5
7C85
330
19
100
AcDbEntity
  8
1
100
AcDbLine
 10
2004.76925404626
 20
2928.401306867709
 30
0.0
 11
1995.769254046263
 21
2928.401306867709
 31
0.0
  0
DIMENSION
  5
7C86
330
19
100
AcDbEntity
  8
3
100
AcDbDimension
280
     0
  2
*D4
 10
3971.589123700186
 20
2423.401306867709
 30
0.0
 11
3901.589123700185
 21
3100.901306867709
 31
0.0
 12
258.7414280441371
 22
2614.734134541977
 32
0.0
 70
    32
 71
     5
 42
-1.0
 73
     0
 74
     0
 75
     0
  3
MATSU
100
AcDbAlignedDimension
 13
3491.608254944993
 23
3778.401306867709
 33
0.0
 14
3305.76925404626
 24
2423.401306867709
 34
0.0
 50
270.0
100
AcDbRotatedDimension
1001
ACAD
1000
DSTYLE
1002
{
1070
    40
1040
35.0
1002
}
  0
POINT
  5
7C8A
330
19
100
AcDbEntity
  8
1
100
AcDbPoint
 10
3305.76925404626
 20
2423.401306867709
 30
0.0
  0
LINE
  5
7C8B
330
19
100
AcDbEntity
  8
1
100
AcDbLine
 10
4893.752841307505
 20
4583.401306867709
 30
0.0
 11
6393.752841307505
 21
4583.401306867709
 31
0.0
  0
DIMENSION
  5
7C8C
330
19
100
AcDbEntity
  8
3
100
AcDbDimension
280
     0
  2
*D5
 10
2645.76925404626
 20
4881.795511059274
 30
0.0
 11
3025.76925404626
 21
4951.795511059273
 31
0.0
 12
258.7414280441371
 22
0.0
 32
0.0
 70
    32
 71
     5
 42
-1.0
 73
     0
 74
     0
 75
     0
  3
MATSU
100
AcDbAlignedDimension
 13
3405.76925404626
 23
3743.665997150995
 33
0.0
 14
2645.76925404626
 24
4834.644450298645
 34
0.0
100
AcDbRotatedDimension
1001
ACAD
1000
DSTYLE
1002
{
1070
    40
1040
35.0
1002
}
  0
DIMENSION
  5
7C8D
330
19
100
AcDbEntity
  8
3
100
AcDbDimension
280
     0
  2
*D6
 10
1680.567691547643
 20
4881.795511059274
 30
0.0
 11
2163.168472796952
 21
4951.795511059273
 31
0.0
 12
258.7414280441371
 22
0.0
 32
0.0
 70
    32
  1
969
 71
     5
 42
-1.0
 73
     0
 74
     0
 75
     0
  3
MATSU
100
AcDbAlignedDimension
 13
2645.76925404626
 23
4834.644450298645
 33
0.0
 14
1680.567691547643
 24
3778.401306867709
 34
0.0
100
AcDbRotatedDimension
1001
ACAD
1000
DSTYLE
1002
{
1070
    40
1040
35.0
1002
}
  0
LINE
  5
7C8E
330
19
100
AcDbEntity
  8
1
100
AcDbLine
 10
6393.752841307506
 20
2573.401306867709
 30
0.0
 11
6393.752841307504
 21
4583.401306867709
 31
0.0
  0
LINE
  5
7C91
330
19
100
AcDbEntity
  8
1
100
AcDbLine
 10
4736.252841307504
 20
3715.401306867708
 30
0.0
 11
4826.452841307505
 21
3715.401306867708
 31
0.0
  0
LINE
  5
7C92
330
19
100
AcDbEntity
  8
1
100
AcDbLine
 10
4726.252841307505
 20
3705.401306867709
 30
0.0
 11
4726.252841307505
 21
3575.401306867709
 31
0.0
  0
LINE
  5
7C93
330
19
100
AcDbEntity
  8
1
100
AcDbLine
 10
4866.252841307504
 20
3715.401306867708
 30
0.0
 11
4866.252841307503
 21
3565.401306867708
 31
0.0
  0
LINE
  5
7C94
330
19
100
AcDbEntity
  8
1
100
AcDbLine
 10
4736.252841307504
 20
3565.401306867708
 30
0.0
 11
4826.452841307505
 21
3565.401306867708
 31
0.0
  0
ARC
  5
7C95
330
19
100
AcDbEntity
  8
1
100
AcDbCircle
 10
4736.252841307504
 20
3705.401306867709
 30
0.0
 40
10.0
100
AcDbArc
 50
90.0
 51
180.0
  0
ARC
  5
7C96
330
19
100
AcDbEntity
  8
1
100
AcDbCircle
 10
4736.252841307504
 20
3575.401306867709
 30
0.0
 40
10.0
100
AcDbArc
 50
180.0
 51
270.0
  0
LINE
  5
7C97
330
19
100
AcDbEntity
  8
1
100
AcDbLine
 10
6436.252841307504
 20
3715.401306867708
 30
0.0
 11
6436.252841307505
 21
3565.401306867708
 31
0.0
  0
LINE
  5
7C98
330
19
100
AcDbEntity
  8
1
100
AcDbLine
 10
6576.252841307504
 20
3705.401306867709
 30
0.0
 11
6576.252841307504
 21
3575.401306867709
 31
0.0
  0
LINE
  5
7C99
330
19
100
AcDbEntity
  8
1
100
AcDbLine
 10
6566.252841307504
 20
3565.401306867708
 30
0.0
 11
6476.052841307508
 21
3565.401306867708
 31
0.0
  0
ARC
  5
7C9A
330
19
100
AcDbEntity
  8
1
100
AcDbCircle
 10
6566.252841307504
 20
3575.401306867709
 30
0.0
 40
10.0
100
AcDbArc
 50
270.0
 51
0.0
  0
LINE
  5
7C9B
330
19
100
AcDbEntity
  8
1
100
AcDbLine
 10
6566.252841307504
 20
3715.401306867708
 30
0.0
 11
6476.052841307508
 21
3715.401306867708
 31
0.0
  0
ARC
  5
7C9C
330
19
100
AcDbEntity
  8
1
100
AcDbCircle
 10
6566.252841307504
 20
3705.401306867709
 30
0.0
 40
10.0
100
AcDbArc
 50
0.0
 51
90.0
  0
LINE
  5
7C9D
330
19
100
AcDbEntity
  8
1
100
AcDbLine
 10
4698.752841307504
 20
3818.401306867709
 30
0.0
 11
4893.752841307505
 21
3818.401306867709
 31
0.0
  0
LINE
  5
7C9E
330
19
100
AcDbEntity
  8
1
100
AcDbLine
 10
4698.752841307505
 20
3738.401306867709
 30
0.0
 11
4893.752841307505
 21
3738.401306867709
 31
0.0
  0
LINE
  5
7C9F
330
19
100
AcDbEntity
  8
1
100
AcDbLine
 10
4698.752841307505
 20
3818.401306867709
 30
0.0
 11
4698.752841307505
 21
3738.401306867709
 31
0.0
  0
LINE
  5
7CA0
330
19
100
AcDbEntity
  8
1
100
AcDbLine
 10
4669.252841307506
 20
3810.901306867709
 30
0.0
 11
4698.752841307505
 21
3810.901306867709
 31
0.0
  0
LINE
  5
7CA1
330
19
100
AcDbEntity
  8
1
100
AcDbLine
 10
4669.252841307505
 20
3745.901306867709
 30
0.0
 11
4698.752841307505
 21
3745.901306867709
 31
0.0
  0
LINE
  5
7CA2
330
19
100
AcDbEntity
  8
1
100
AcDbLine
 10
5643.752841307504
 20
5003.318711740885
 30
0.0
 11
5643.752841307504
 21
4953.729588819896
 31
0.0
  0
DIMENSION
  5
7CA3
330
19
100
AcDbEntity
  8
3
100
AcDbDimension
280
     0
  2
*D7
 10
5643.752841307504
 20
5035.197437604057
 30
0.0
 11
5043.752841307505
 21
5132.697437604056
 31
0.0
 70
    32
  1
(<>)
 71
     5
 42
1200.0
 73
     0
 74
     0
 75
     0
  3
MATSU
100
AcDbAlignedDimension
 13
4443.752841307504
 23
3998.401306867709
 33
0.0
 14
5643.752841307504
 24
5003.318711740885
 34
0.0
100
AcDbRotatedDimension
1001
ACAD
1000
DSTYLE
1002
{
1070
    40
1040
35.0
1002
}
  0
DIMENSION
  5
7CA4
330
19
100
AcDbEntity
  8
3
100
AcDbDimension
280
     0
  2
*D8
 10
6573.752841307502
 20
5034.84830631308
 30
0.0
 11
6108.752841307503
 21
5132.348306313081
 31
0.0
 70
    32
  1
(<>)
 71
     5
 42
929.9999999999981
 73
     0
 74
     0
 75
     0
  3
MATSU
100
AcDbAlignedDimension
 13
5643.752841307504
 23
5003.318711740885
 33
0.0
 14
6573.752841307502
 24
3688.890818206412
 34
0.0
100
AcDbRotatedDimension
1001
ACAD
1000
DSTYLE
1002
{
1070
    40
1040
35.0
1002
}
  0
DIMENSION
  5
7CA5
330
19
100
AcDbEntity
  8
3
100
AcDbDimension
280
     0
  2
*D9
 10
6761.535607663019
 20
4338.401306867708
 30
0.0
 11
6691.53560766302
 21
3778.401306867709
 31
0.0
 12
0.0
 22
2614.734134541977
 32
0.0
 70
    32
  1
φ<>
 71
     5
 42
-1.0
 73
     0
 74
     0
 75
     0
  3
MATSU
100
AcDbAlignedDimension
 13
6399.252841307507
 23
3218.401306867709
 33
0.0
 14
6399.252841307507
 24
4338.401306867708
 34
0.0
 50
90.0
100
AcDbRotatedDimension
1001
ACAD
1000
DSTYLE
1002
{
1070
    40
1040
35.0
1002
}
  0
LINE
  5
7CA6
330
19
100
AcDbEntity
  8
1
100
AcDbLine
 10
6476.052841307506
 20
3715.401306867708
 30
0.0
 11
6436.252841307504
 21
3715.401306867708
 31
0.0
  0
LINE
  5
7CA7
330
19
100
AcDbEntity
  8
1
100
AcDbLine
 10
6476.052841307508
 20
3565.401306867708
 30
0.0
 11
6436.252841307504
 21
3565.401306867708
 31
0.0
  0
LINE
  5
7CA8
330
19
100
AcDbEntity
  8
1
100
AcDbLine
 10
4826.452841307505
 20
3715.401306867708
 30
0.0
 11
4866.252841307504
 21
3715.401306867708
 31
0.0
  0
LINE
  5
7CA9
330
19
100
AcDbEntity
  8
1
100
AcDbLine
 10
4826.452841307505
 20
3565.401306867708
 30
0.0
 11
4866.252841307504
 21
3565.401306867708
 31
0.0
  0
LINE
  5
7CAA
330
19
100
AcDbEntity
  8
1
100
AcDbLine
 10
3305.76925404626
 20
5714.828360554796
 30
0.0
 11
855.7692540462594
 21
5714.828360554795
 31
0.0
  0
LINE
  5
7CAB
330
19
100
AcDbEntity
  8
1
100
AcDbLine
 10
3305.76925404626
 20
7614.828360554795
 30
0.0
 11
1985.769254046259
 21
7614.828360554795
 31
0.0
  0
LINE
  5
7CAC
330
19
100
AcDbEntity
  8
1
100
AcDbLine
 10
3305.76925404626
 20
7614.828360554795
 30
0.0
 11
3305.76925404626
 21
7536.828360554796
 31
0.0
  0
LINE
  5
7CAD
330
19
100
AcDbEntity
  8
1
100
AcDbLine
 10
855.7692540462594
 20
6714.828360554794
 30
0.0
 11
855.7692540462594
 21
5714.828360554795
 31
0.0
  0
LINE
  5
7CAE
330
19
100
AcDbEntity
  8
1
100
AcDbLine
 10
1985.769254046259
 20
7614.828360554795
 30
0.0
 11
1985.769254046259
 21
7536.828360554794
 31
0.0
  0
LINE
  5
7CAF
330
19
100
AcDbEntity
  8
1
100
AcDbLine
 10
1676.769254046259
 20
6714.828360554794
 30
0.0
 11
855.7692540462594
 21
6714.828360554794
 31
0.0
  0
DIMENSION
  5
7CB0
330
19
100
AcDbEntity
  8
3
100
AcDbDimension
280
     0
  2
*D10
 10
3305.76925404626
 20
5383.103784524388
 30
0.0
 11
2080.769254046259
 21
5383.103784524388
 31
0.0
 12
258.7414280441371
 22
2005.208177439897
 32
0.0
 70
   160
 71
     5
 42
-1.0
 73
     0
 74
     0
 75
     0
  3
MATSU
100
AcDbAlignedDimension
 13
855.7692540462594
 23
5714.828360554795
 33
0.0
 14
3305.76925404626
 24
5714.828360554796
 34
0.0
100
AcDbRotatedDimension
1001
ACAD
1000
DSTYLE
1002
{
1070
    40
1040
35.0
1002
}
  0
DIMENSION
  5
7CB1
330
19
100
AcDbEntity
  8
3
100
AcDbDimension
280
     0
  2
*D11
 10
3704.758504568155
 20
5714.828360554796
 30
0.0
 11
3634.758504568156
 21
6664.828360554794
 31
0.0
 12
258.7414280441371
 22
2005.208177439897
 32
0.0
 70
    32
 71
     5
 42
-1.0
 73
     0
 74
     0
 75
     0
  3
MATSU
100
AcDbAlignedDimension
 13
3305.76925404626
 23
7614.828360554795
 33
0.0
 14
3305.76925404626
 24
5714.828360554796
 34
0.0
 50
90.0
100
AcDbRotatedDimension
1001
ACAD
1000
DSTYLE
1002
{
1070
    40
1040
35.0
1002
}
  0
DIMENSION
  5
7CB2
330
19
100
AcDbEntity
  8
3
100
AcDbDimension
280
     0
  2
*D12
 10
621.5100510861739
 20
5714.828360554795
 30
0.0
 11
551.5100510861739
 21
6214.828360554795
 31
0.0
 12
258.7414280441371
 22
0.0
 32
0.0
 70
    32
 71
     5
 42
-1.0
 73
     0
 74
     0
 75
     0
  3
MATSU
100
AcDbAlignedDimension
 13
855.7692540462594
 23
6714.828360554794
 33
0.0
 14
855.7692540462594
 24
5714.828360554795
 34
0.0
 50
90.0
100
AcDbRotatedDimension
1001
ACAD
1000
DSTYLE
1002
{
1070
    40
1040
35.0
1002
}
  0
DIMENSION
  5
7CB3
330
19
100
AcDbEntity
  8
3
100
AcDbDimension
280
     0
  2
*D13
 10
1985.769254046259
 20
8011.685496604139
 30
0.0
 11
1420.769254046259
 21
8081.685496604139
 31
0.0
 12
258.7414280441371
 22
2005.208177439897
 32
0.0
 70
    32
 71
     5
 42
-1.0
 73
     0
 74
     0
 75
     0
  3
MATSU
100
AcDbAlignedDimension
 13
855.7692540462594
 23
6714.828360554794
 33
0.0
 14
1985.769254046259
 24
7614.828360554795
 34
0.0
100
AcDbRotatedDimension
1001
ACAD
1000
DSTYLE
1002
{
1070
    40
1040
35.0
1002
}
  0
DIMENSION
  5
7CB4
330
19
100
AcDbEntity
  8
3
100
AcDbDimension
280
     0
  2
*D14
 10
3305.76925404626
 20
8011.685496604139
 30
0.0
 11
2645.76925404626
 21
8081.685496604139
 31
0.0
 12
258.7414280441371
 22
2005.208177439897
 32
0.0
 70
    32
 71
     5
 42
-1.0
 73
     0
 74
     0
 75
     0
  3
MATSU
100
AcDbAlignedDimension
 13
1985.769254046259
 23
7614.828360554795
 33
0.0
 14
3305.76925404626
 24
7614.828360554795
 34
0.0
100
AcDbRotatedDimension
1001
ACAD
1000
DSTYLE
1002
{
1070
    40
1040
35.0
1002
}
  0
ARC
  5
7CB5
330
19
100
AcDbEntity
  8
1
100
AcDbCircle
 10
2645.76925404626
 20
3778.401306867709
 30
0.0
 40
220.0
100
AcDbArc
 50
302.2109277236737
 51
122.2109277236737
  0
ARC
  5
7CB6
330
19
100
AcDbEntity
  8
1
100
AcDbCircle
 10
1145.769254046259
 20
2833.401306867709
 30
0.0
 40
220.0
100
AcDbArc
 50
122.2109277236737
 51
302.2109277236737
  0
LINE
  5
7CB9
330
19
100
AcDbEntity
  8
1
100
AcDbLine
 10
6471.752841307505
 20
2573.401306867709
 30
0.0
 11
6471.752841307505
 21
2423.401306867709
 31
0.0
  0
CIRCLE
  5
7CBD
330
19
100
AcDbEntity
  8
1
100
AcDbCircle
 10
2645.76925404626
 20
3778.401306867709
 30
0.0
 40
560.0
  0
CIRCLE
  5
7CBE
330
19
100
AcDbEntity
  8
1
100
AcDbCircle
 10
2645.76925404626
 20
3778.401306867709
 30
0.0
 40
610.0
  0
LINE
  5
7CBF
330
19
100
AcDbEntity
  8
2
100
AcDbLine
 10
1145.769254046259
 20
5586.828360554795
 30
0.0
 11
1145.76925404626
 21
6476.328360554795
 31
0.0
  0
DIMENSION
  5
7CC0
330
19
100
AcDbEntity
  8
3
100
AcDbDimension
280
     0
  2
*D15
 10
6393.752841307505
 20
4810.659863856943
 30
0.0
 11
5643.752841307505
 21
4880.659863856943
 31
0.0
 12
0.0
 22
2614.734134541977
 32
0.0
 70
    32
 71
     5
 42
-1.0
 73
     0
 74
     0
 75
     0
  3
MATSU
100
AcDbAlignedDimension
 13
4893.752841307504
 23
4583.401306867709
 33
0.0
 14
6393.752841307505
 24
4583.401306867709
 34
0.0
100
AcDbRotatedDimension
1001
ACAD
1000
DSTYLE
1002
{
1070
    40
1040
35.0
1002
}
  0
LINE
  5
7CC1
330
19
100
AcDbEntity
  8
1
100
AcDbLine
 10
2865.76925404626
 20
5586.828360554796
 30
0.0
 11
925.7692540462594
 21
5586.828360554795
 31
0.0
  0
LINE
  5
7CC2
330
19
100
AcDbEntity
  8
1
100
AcDbLine
 10
2865.76925404626
 20
5836.828360554796
 30
0.0
 11
925.7692540462594
 21
5836.828360554795
 31
0.0
  0
LINE
  5
7CC3
330
19
100
AcDbEntity
  8
1
100
AcDbLine
 10
2865.76925404626
 20
5586.828360554795
 30
0.0
 11
2865.76925404626
 21
5836.828360554795
 31
0.0
  0
LINE
  5
7CC4
330
19
100
AcDbEntity
  8
1
100
AcDbLine
 10
925.7692540462594
 20
5586.828360554795
 30
0.0
 11
925.7692540462594
 21
5836.828360554795
 31
0.0
  0
LINE
  5
7CC5
330
19
100
AcDbEntity
  8
1
100
AcDbLine
 10
3405.76925404626
 20
7586.828360554794
 30
0.0
 11
3405.76925404626
 21
5986.828360554795
 31
0.0
  0
LINE
  5
7CC6
330
19
100
AcDbEntity
  8
1
100
AcDbLine
 10
1676.769254046259
 20
7536.828360554794
 30
0.0
 11
1676.769254046259
 21
6036.828360554796
 31
0.0
  0
LINE
  5
7CC7
330
19
100
AcDbEntity
  8
1
100
AcDbLine
 10
3405.76925404626
 20
7536.828360554794
 30
0.0
 11
1676.769254046259
 21
7536.828360554794
 31
0.0
  0
LINE
  5
7CC8
330
19
100
AcDbEntity
  8
1
100
AcDbLine
 10
3405.76925404626
 20
6036.828360554794
 30
0.0
 11
1676.769254046259
 21
6036.828360554795
 31
0.0
  0
LINE
  5
7CC9
330
19
100
AcDbEntity
  8
1
100
AcDbLine
 10
3405.76925404626
 20
7586.828360554794
 30
0.0
 11
3401.76925404626
 21
7586.828360554794
 31
0.0
  0
LINE
  5
7CCA
330
19
100
AcDbEntity
  8
1
100
AcDbLine
 10
3405.76925404626
 20
5986.828360554794
 30
0.0
 11
3401.76925404626
 21
5986.828360554794
 31
0.0
  0
LINE
  5
7CCB
330
19
100
AcDbEntity
  8
1
100
AcDbLine
 10
3401.76925404626
 20
7586.828360554794
 30
0.0
 11
3401.76925404626
 21
5986.828360554795
 31
0.0
  0
LINE
  5
7CCC
330
19
100
AcDbEntity
  8
1
100
AcDbLine
 10
2803.26925404626
 20
5783.828360554797
 30
0.0
 11
2803.26925404626
 21
5673.828360554797
 31
0.0
  0
LINE
  5
7CCD
330
19
100
AcDbEntity
  8
1
100
AcDbLine
 10
2488.26925404626
 20
5783.828360554797
 30
0.0
 11
2488.26925404626
 21
5673.828360554797
 31
0.0
  0
LINE
  5
7CCE
330
19
100
AcDbEntity
  8
1
100
AcDbLine
 10
1263.769254046259
 20
5673.828360554795
 30
0.0
 11
1263.769254046259
 21
5783.828360554795
 31
0.0
  0
LINE
  5
7CCF
330
19
100
AcDbEntity
  8
1
100
AcDbLine
 10
1027.769254046259
 20
5673.828360554795
 30
0.0
 11
1027.769254046259
 21
5783.828360554795
 31
0.0
  0
LINE
  5
7CD0
330
19
100
AcDbEntity
  8
1
100
AcDbLine
 10
2803.26925404626
 20
5673.828360554795
 30
0.0
 11
2488.26925404626
 21
5673.828360554797
 31
0.0
  0
LINE
  5
7CD1
330
19
100
AcDbEntity
  8
1
100
AcDbLine
 10
2803.26925404626
 20
5783.828360554796
 30
0.0
 11
2488.26925404626
 21
5783.828360554797
 31
0.0
  0
LINE
  5
7CD2
330
19
100
AcDbEntity
  8
1
100
AcDbLine
 10
1263.769254046259
 20
5783.828360554795
 30
0.0
 11
1027.769254046259
 21
5783.828360554795
 31
0.0
  0
LINE
  5
7CD3
330
19
100
AcDbEntity
  8
1
100
AcDbLine
 10
1263.769254046259
 20
5673.828360554795
 30
0.0
 11
1027.769254046259
 21
5673.828360554795
 31
0.0
  0
LINE
  5
7CD4
330
19
100
AcDbEntity
  8
1
100
AcDbLine
 10
1349.269254046259
 20
5818.828360554795
 30
0.0
 11
1349.269254046259
 21
6476.328360554795
 31
0.0
  0
LINE
  5
7CD5
330
19
100
AcDbEntity
  8
1
100
AcDbLine
 10
942.2692540462595
 20
5818.828360554795
 30
0.0
 11
942.2692540462595
 21
6476.328360554795
 31
0.0
  0
LINE
  5
7CD6
330
19
100
AcDbEntity
  8
1
100
AcDbLine
 10
1349.269254046259
 20
6476.328360554795
 30
0.0
 11
942.2692540462595
 21
6476.328360554795
 31
0.0
  0
LINE
  5
7CD7
330
19
100
AcDbEntity
  8
1
100
AcDbLine
 10
1349.269254046259
 20
5818.828360554795
 30
0.0
 11
942.2692540462595
 21
5818.828360554795
 31
0.0
  0
LINE
  5
7CD8
330
19
100
AcDbEntity
  8
1
100
AcDbLine
 10
1173.269254046259
 20
5783.828360554795
 30
0.0
 11
1173.269254046259
 21
5818.828360554796
 31
0.0
  0
LINE
  5
7CD9
330
19
100
AcDbEntity
  8
1
100
AcDbLine
 10
1118.269254046259
 20
5783.828360554795
 30
0.0
 11
1118.269254046259
 21
5818.828360554795
 31
0.0
  0
LINE
  5
7CDA
330
19
100
AcDbEntity
  8
1
100
AcDbLine
 10
2683.26925404626
 20
6036.828360554795
 30
0.0
 11
2683.26925404626
 21
5783.828360554796
 31
0.0
  0
LINE
  5
7CDB
330
19
100
AcDbEntity
  8
1
100
AcDbLine
 10
2608.269254046259
 20
6036.828360554794
 30
0.0
 11
2608.269254046259
 21
5783.828360554797
 31
0.0
  0
LINE
  5
7CDC
330
19
100
AcDbEntity
  8
1
100
AcDbLine
 10
4704.252841307503
 20
2629.901306867709
 30
0.0
 11
4893.752841307507
 21
2629.901306867709
 31
0.0
  0
LINE
  5
7CDD
330
19
100
AcDbEntity
  8
1
100
AcDbLine
 10
4704.252841307503
 20
3036.901306867709
 30
0.0
 11
4893.752841307506
 21
3036.901306867709
 31
0.0
  0
LINE
  5
7CDE
330
19
100
AcDbEntity
  8
1
100
AcDbLine
 10
4669.252841307504
 20
2860.901306867709
 30
0.0
 11
4704.252841307503
 21
2860.901306867709
 31
0.0
  0
LINE
  5
7CDF
330
19
100
AcDbEntity
  8
1
100
AcDbLine
 10
4669.252841307504
 20
2805.901306867708
 30
0.0
 11
4704.252841307505
 21
2805.901306867708
 31
0.0
  0
LINE
  5
7CE0
330
19
100
AcDbEntity
  8
1
100
AcDbLine
 10
4704.252841307503
 20
2629.901306867709
 30
0.0
 11
4704.252841307503
 21
3036.901306867709
 31
0.0
  0
DIMENSION
  5
7CE1
330
19
100
AcDbEntity
  8
3
100
AcDbDimension
280
     0
  2
*D16
 10
3405.76925404626
 20
5086.241407786825
 30
0.0
 11
2130.76925404626
 21
5156.241407786826
 31
0.0
 12
258.7414280441371
 22
0.0
 32
0.0
 70
    32
 71
     5
 42
-1.0
 73
     0
 74
     0
 75
     0
  3
MATSU
100
AcDbAlignedDimension
 13
855.7692540462612
 23
2573.401306867709
 33
0.0
 14
3405.76925404626
 24
3743.665997150995
 34
0.0
100
AcDbRotatedDimension
1001
ACAD
1000
DSTYLE
1002
{
1070
    40
1040
35.0
1002
}
  0
LINE
  5
7CE8
330
19
100
AcDbEntity
  8
1
100
AcDbLine
 10
4721.052841307505
 20
2669.522290966388
 30
0.0
 11
4721.052841307505
 21
2613.401306867709
 31
0.0
  0
LINE
  5
7CEC
330
19
100
AcDbEntity
  8
1
100
AcDbLine
 10
2528.500969646066
 20
3964.541440836273
 30
0.0
 11
1028.500969646065
 21
3019.541440836273
 31
0.0
  0
LINE
  5
7CED
330
19
100
AcDbEntity
  8
1
100
AcDbLine
 10
2763.037538446455
 20
3592.261172899145
 30
0.0
 11
1263.037538446455
 21
2647.261172899145
 31
0.0
  0
LINE
  5
7CEE
330
19
100
AcDbEntity
  8
1
100
AcDbLine
 10
2558.867589317822
 20
3909.757123896975
 30
0.0
 11
1080.661975075112
 21
2931.813918991223
 31
0.0
  0
LINE
  5
7CEF
330
19
100
AcDbEntity
  8
1
100
AcDbLine
 10
2726.732770016734
 20
3643.304456120925
 30
0.0
 11
1206.427634265408
 21
2732.185888530436
 31
0.0
  0
LINE
  5
7CF0
330
19
100
AcDbEntity
  8
1
100
AcDbLine
 10
4893.752841307507
 20
2573.401306867709
 30
0.0
 11
4893.752841307504
 21
4583.401306867709
 31
0.0
  0
LINE
  5
7CF2
330
19
100
AcDbEntity
  8
1
100
AcDbLine
 10
3305.76925404626
 20
6036.828360554794
 30
0.0
 11
3305.76925404626
 21
5714.828360554796
 31
0.0
  0
LINE
  5
7F59
330
19
100
AcDbEntity
  8
4
100
AcDbLine
 10
6475.0
 20
1391.617266011068
 30
0.0
 11
6475.0
 21
691.6172660110678
 31
0.0
  0
LINE
  5
7F5A
330
19
100
AcDbEntity
  8
4
100
AcDbLine
 10
4025.0
 20
1391.617266011068
 30
0.0
 11
4025.0
 21
691.6172660110678
 31
0.0
  0
LINE
  5
7F5B
330
19
100
AcDbEntity
  8
4
100
AcDbLine
 10
2275.0
 20
1391.617266011068
 30
0.0
 11
2275.0
 21
691.6172660110678
 31
0.0
  0
LINE
  5
7F5E
330
19
100
AcDbEntity
  8
4
100
AcDbLine
 10
2275.0
 20
691.6172660110678
 30
0.0
 11
6475.0
 21
691.6172660110678
 31
0.0
  0
LINE
  5
7F5F
330
19
100
AcDbEntity
  8
4
100
AcDbLine
 10
2275.0
 20
1041.617266011068
 30
0.0
 11
6475.0
 21
1041.617266011068
 31
0.0
  0
TEXT
  5
7F60
330
19
100
AcDbEntity
  8
4
100
AcDbText
 10
2409.757282964156
 20
1152.017856544213
 30
0.0
 40
175.0
  1
機器名称
100
AcDbText
  0
TEXT
  5
7F61
330
19
100
AcDbEntity
  8
4
100
AcDbText
 10
2401.903371086792
 20
767.3753145731061
 30
0.0
 40
175.0
  1
機器型番
100
AcDbText
  0
TEXT
  5
7F62
330
19
100
AcDbEntity
  8
4
100
AcDbText
 10
4127.321178135882
 20
1118.498895209266
 30
0.0
 40
140.0
  1
ミツヤリミットロードファン
100
AcDbText
  0
TEXT
  5
7F63
330
19
100
AcDbEntity
  8
4
100
AcDbText
 10
4153.290734549182
 20
751.6758109908696
 30
0.0
 40
175.0
  1
LL#7-5
100
AcDbText
  0
TEXT
  5
7F65
330
19
100
AcDbEntity
  8
4
100
AcDbText
 10
2908.008787189596
 20
8342.000944663805
 30
0.0
 40
188.9999999999999
  1
床置ベット
100
AcDbText
  0
TEXT
  5
7F66
330
19
100
AcDbEntity
  8
4
100
AcDbText
 10
1106.586576653062
 20
8868.583416697545
 30
0.0
 40
252.0
  1
遠心式両吸込両持リミットロードファン
100
AcDbText
  0
LINE
  5
7F67
330
19
100
AcDbEntity
  8
4
100
AcDbLine
 10
875.0
 20
8642.930639926817
 30
0.0
 11
6475.0
 21
8642.930639926817
 31
0.0
  0
LINE
  5
7F68
330
19
100
AcDbEntity
  8
4
100
AcDbLine
 10
875.0
 20
9342.930639926818
 30
0.0
 11
6475.0
 21
9342.930639926818
 31
0.0
  0
LINE
  5
7F69
330
19
100
AcDbEntity
  8
4
100
AcDbLine
 10
2275.0
 20
1391.617266011068
 30
0.0
 11
6475.0
 21
1391.617266011068
 31
0.0
  0
LINE
  5
7F6A
330
19
100
AcDbEntity
  8
4
100
AcDbLine
 10
875.0
 20
9342.930639926818
 30
0.0
 11
875.0
 21
8642.930639926817
 31
0.0
  0
TEXT
  5
7F6B
330
19
100
AcDbEntity
  8
4
100
AcDbText
 10
1382.502874340138
 20
8338.118171412203
 30
0.0
 40
188.9999999999999
  1
左回転右横向
100
AcDbText
  0
TEXT
  5
7F6C
330
19
100
AcDbEntity
  8
4
100
AcDbText
 10
5141.393457372515
 20
9471.21378523358
 30
0.0
 40
196.0
  1
No.
100
AcDbText
  0
TEXT
  5
7F6D
330
19
100
AcDbEntity
  8
4
100
AcDbText
 10
4589.536219100046
 20
8342.000944663805
 30
0.0
 40
188.9999999999999
  1
縮尺：1/35
100
AcDbText
  0
LINE
  5
7F6E
330
19
100
AcDbEntity
  8
4
100
AcDbLine
 10
6475.0
 20
9342.930639926818
 30
0.0
 11
6475.0
 21
8642.930639926817
 31
0.0
  0
LINE
  5
7F6F
330
19
100
AcDbEntity
  8
4
100
AcDbLine
 10
7350.0
 20
10325.0
 30
0.0
 11
7350.0
 21
10325.0
 31
0.0
  0
LINE
  5
7F70
330
19
100
AcDbEntity
  8
4
100
AcDbLine
 10
5042.160978259526
 20
9384.422540938905
 30
0.0
 11
5042.160978259526
 21
9753.282915424135
 31
0.0
  0
LINE
  5
7F71
330
19
100
AcDbEntity
  8
4
100
AcDbLine
 10
5042.160978259526
 20
9753.282915424135
 30
0.0
 11
6475.0
 21
9753.282915424135
 31
0.0
  0
LINE
  5
7F72
330
19
100
AcDbEntity
  8
4
100
AcDbLine
 10
6475.0
 20
9753.282915424135
 30
0.0
 11
6475.0
 21
9384.422540938905
 31
0.0
  0
LINE
  5
7F73
330
19
100
AcDbEntity
  8
4
100
AcDbLine
 10
6475.0
 20
9384.422540938905
 30
0.0
 11
5042.160978259526
 21
9384.422540938905
 31
0.0
  0
LINE
  5
7F74
330
19
100
AcDbEntity
  8
4
100
AcDbLine
 10
0.0
 20
0.0
 30
0.0
 11
0.0
 21
10325.0
 31
0.0
  0
LINE
  5
7F75
330
19
100
AcDbEntity
  8
4
100
AcDbLine
 10
0.0
 20
10325.0
 30
0.0
 11
7350.0
 21
10325.0
 31
0.0
  0
LINE
  5
7F76
330
19
100
AcDbEntity
  8
4
100
AcDbLine
 10
7350.0
 20
10325.0
 30
0.0
 11
7350.0
 21
0.0
 31
0.0
  0
LINE
  5
7F77
330
19
100
AcDbEntity
  8
4
100
AcDbLine
 10
7350.0
 20
0.0
 30
0.0
 11
0.0
 21
0.0
 31
0.0
  0
LINE
  5
8076
330
19
100
AcDbEntity
  8
1
100
AcDbLine
 10
4893.752841307506
 20
3730.401306867709
 30
0.0
 11
6393.752841307506
 21
3730.401306867709
 31
0.0
  0
LINE
  5
8077
330
19
100
AcDbEntity
  8
1
100
AcDbLine
 10
4893.752841307507
 20
2580.401306867709
 30
0.0
 11
6393.752841307507
 21
2580.401306867709
 31
0.0
  0
LINE
  5
8078
330
19
100
AcDbEntity
  8
1
100
AcDbLine
 10
4893.752841307506
 20
3730.401306867709
 30
0.0
 11
6393.752841307507
 21
2580.401306867709
 31
0.0
  0
LINE
  5
8079
330
19
100
AcDbEntity
  8
1
100
AcDbLine
 10
6393.752841307506
 20
3730.401306867709
 30
0.0
 11
4893.752841307507
 21
2580.401306867709
 31
0.0
  0
DIMENSION
  5
8087
330
19
100
AcDbEntity
  8
3
100
AcDbDimension
280
     0
  2
*D18
 10
3968.972430660463
 20
3778.401306867709
 30
0.0
 11
3881.472430660462
 21
4180.901306867709
 31
0.0
 70
    32
 71
     5
 42
-1.0
 73
     0
 74
     0
 75
     0
  3
IGA
100
AcDbAlignedDimension
 13
2563.76925404626
 23
4583.401306867709
 33
0.0
 14
3526.608254944994
 24
3778.401306867709
 34
0.0
 50
90.0
100
AcDbRotatedDimension
1001
ACAD
1000
DSTYLE
1002
{
1070
   172
1070
     1
1070
    40
1040
35.0
1070
   271
1070
     0
1070
   143
1040
0.039
1002
}
  0
DIMENSION
  5
80BD
330
19
100
AcDbEntity
  8
3
100
AcDbDimension
280
     0
  2
*D20
 10
2645.76925404626
 20
2198.891467035402
 30
0.0
 11
1750.76925404626
 21
2286.391467035402
 31
0.0
 70
    32
 71
     5
 42
-1.0
 73
     0
 74
     0
 75
     0
  3
IGA
100
AcDbAlignedDimension
 13
855.7692540462612
 23
2423.401306867709
 33
0.0
 14
2645.76925404626
 24
2423.401306867709
 34
0.0
100
AcDbRotatedDimension
1001
ACAD
1000
DSTYLE
1002
{
1070
   172
1070
     1
1070
    40
1040
35.0
1070
   271
1070
     0
1070
   143
1040
0.039
1002
}
  0
DIMENSION
  5
80CA
330
19
100
AcDbEntity
  8
3
100
AcDbDimension
280
     0
  2
*D21
 10
3305.76925404626
 20
2198.891467035402
 30
0.0
 11
2975.76925404626
 21
2286.391467035402
 31
0.0
 70
    32
 71
     5
 42
-1.0
 73
     0
 74
     0
 75
     0
  3
IGA
100
AcDbAlignedDimension
 13
2645.76925404626
 23
2423.401306867709
 33
0.0
 14
3305.76925404626
 24
2423.401306867709
 34
0.0
100
AcDbRotatedDimension
1001
ACAD
1000
DSTYLE
1002
{
1070
   172
1070
     1
1070
    40
1040
35.0
1070
   271
1070
     0
1070
   143
1040
0.039
1002
}
  0
DIMENSION
  5
80D7
330
19
100
AcDbEntity
  8
3
100
AcDbDimension
280
     0
  2
*D22
 10
5643.752841307505
 20
2198.891467035402
 30
0.0
 11
5107.752841307512
 21
2286.391467035402
 31
0.0
 70
    32
 71
     5
 42
-1.0
 73
     0
 74
     0
 75
     0
  3
IGA
100
AcDbAlignedDimension
 13
4571.752841307517
 23
2423.401306867708
 33
0.0
 14
5643.752841307505
 24
2423.401306867709
 34
0.0
100
AcDbRotatedDimension
1001
ACAD
1000
DSTYLE
1002
{
1070
   172
1070
     1
1070
    40
1040
35.0
1070
   271
1070
     0
1070
   143
1040
0.039
1002
}
  0
DIMENSION
  5
80E4
330
19
100
AcDbEntity
  8
3
100
AcDbDimension
280
     0
  2
*D23
 10
6471.752841307505
 20
2198.891467035402
 30
0.0
 11
6057.752841307505
 21
2286.391467035402
 31
0.0
 70
    32
 71
     5
 42
-1.0
 73
     0
 74
     0
 75
     0
  3
IGA
100
AcDbAlignedDimension
 13
5643.752841307505
 23
2423.401306867709
 33
0.0
 14
6471.752841307505
 24
2423.401306867709
 34
0.0
100
AcDbRotatedDimension
1001
ACAD
1000
DSTYLE
1002
{
1070
   172
1070
     1
1070
    40
1040
35.0
1070
   271
1070
     0
1070
   143
1040
0.039
1002
}
  0
DIMENSION
  5
80F1
330
19
100
AcDbEntity
  8
3
100
AcDbDimension
280
     0
  2
*D24
 10
4174.735684361286
 20
2423.401306867709
 30
0.0
 11
4087.235684361287
 21
3503.401306867709
 31
0.0
 70
    32
 71
     5
 42
-1.0
 73
     0
 74
     0
 75
     0
  3
IGA
100
AcDbAlignedDimension
 13
2581.26925404626
 23
4583.401306867709
 33
0.0
 14
3305.76925404626
 24
2423.401306867709
 34
0.0
 50
90.0
100
AcDbRotatedDimension
1001
ACAD
1000
DSTYLE
1002
{
1070
   172
1070
     1
1070
    40
1040
35.0
1070
   271
1070
     0
1070
   143
1040
0.039
1002
}
  0
ENDSEC
  0
SECTION
  2
OBJECTS
  0
DICTIONARY
  5
C
330
0
100
AcDbDictionary
281
     1
  3
ACAD_CIP_PREVIOUS_PRODUCT_INFO
350
818C
  3
ACAD_COLOR
350
816F
  3
ACAD_DETAILVIEWSTYLE
350
8188
  3
ACAD_GROUP
350
D
  3
ACAD_LAYOUT
350
80FA
  3
ACAD_MATERIAL
350
813D
  3
ACAD_MLEADERSTYLE
350
8184
  3
ACAD_MLINESTYLE
350
E
  3
ACAD_PLOTSETTINGS
350
80FB
  3
ACAD_PLOTSTYLENAME
350
80F8
  3
ACAD_SCALELIST
350
8172
  3
ACAD_SECTIONVIEWSTYLE
350
8186
  3
ACAD_TABLESTYLE
350
8170
  3
ACAD_VISUALSTYLE
350
8156
  3
ACDB_RECOMPOSE_DATA
350
81EF
  3
AcDbVariableDictionary
350
8134
  3
AcDsDecomposeData
350
81F5
  0
DICTIONARY
  5
81D3
330
2
100
AcDbDictionary
280
     1
281
     1
  3
ACAD_LAYERSTATES
360
81D4
  0
DICTIONARY
  5
81C6
330
F
100
AcDbDictionary
280
     1
281
     1
  3
ADSK_XREC_LAYER_RECONCILED
360
81C7
  0
DICTIONARY
  5
81C8
330
31
100
AcDbDictionary
280
     1
281
     1
  3
ADSK_XREC_LAYER_RECONCILED
360
81C9
  0
DICTIONARY
  5
81CA
330
76D0
100
AcDbDictionary
280
     1
281
     1
  3
ADSK_XREC_LAYER_RECONCILED
360
81CB
  0
DICTIONARY
  5
81CC
330
76D1
100
AcDbDictionary
280
     1
281
     1
  3
ADSK_XREC_LAYER_RECONCILED
360
81CD
  0
DICTIONARY
  5
81CE
330
76D2
100
AcDbDictionary
280
     1
281
     1
  3
ADSK_XREC_LAYER_RECONCILED
360
81CF
  0
DICTIONARY
  5
8127
330
19
100
AcDbDictionary
280
     1
281
     1
  3
ACAD_LAYOUTSELFREF
360
8128
  0
DICTIONARY
  5
8125
330
16
100
AcDbDictionary
280
     1
281
     1
  3
ACAD_LAYOUTSELFREF
360
8126
  0
XRECORD
  5
818C
102
{ACAD_REACTORS
330
C
102
}
330
C
100
AcDbXrecord
280
     1
300
ACDLT
300
2023
300

  0
DICTIONARY
  5
816F
102
{ACAD_REACTORS
330
C
102
}
330
C
100
AcDbDictionary
281
     1
  0
DICTIONARY
  5
8188
102
{ACAD_REACTORS
330
C
102
}
330
C
100
AcDbDictionary
281
     1
  3
Metric50
350
8189
  0
DICTIONARY
  5
D
102
{ACAD_REACTORS
330
C
102
}
330
C
100
AcDbDictionary
281
     1
  0
DICTIONARY
  5
80FA
102
{ACAD_REACTORS
330
C
102
}
330
C
100
AcDbDictionary
281
     1
  3
Model
350
80FC
  3
ﾚｲｱｳﾄ1
350
80FD
  0
DICTIONARY
  5
813D
102
{ACAD_REACTORS
330
C
102
}
330
C
100
AcDbDictionary
281
     1
  3
ByBlock
350
8146
  3
ByLayer
350
813E
  3
Global
350
814E
  0
DICTIONARY
  5
8184
102
{ACAD_REACTORS
330
C
102
}
330
C
100
AcDbDictionary
281
     1
  3
Standard
350
8185
  0
DICTIONARY
  5
E
102
{ACAD_REACTORS
330
C
102
}
330
C
100
AcDbDictionary
281
     1
  3
STANDARD
350
1C
  0
DICTIONARY
  5
80FB
102
{ACAD_REACTORS
330
C
102
}
330
C
100
AcDbDictionary
281
     1
  0
ACDBDICTIONARYWDFLT
  5
80F8
102
{ACAD_REACTORS
330
C
102
}
330
C
100
AcDbDictionary
281
     1
  3
Normal
350
80F9
100
AcDbDictionaryWithDefault
340
80F9
  0
DICTIONARY
  5
8172
102
{ACAD_REACTORS
330
C
102
}
330
C
100
AcDbDictionary
281
     1
  3
A0
350
8173
  3
A1
350
8174
  3
A2
350
8175
  3
A3
350
8176
  3
A4
350
8177
  3
A5
350
8178
  3
A6
350
8179
  3
A7
350
817A
  3
A8
350
817B
  3
A9
350
817C
  3
B0
350
817D
  3
B1
350
817E
  3
B2
350
817F
  3
B3
350
8180
  3
B4
350
8181
  3
B5
350
8182
  3
B6
350
8183
  0
DICTIONARY
  5
8186
102
{ACAD_REACTORS
330
C
102
}
330
C
100
AcDbDictionary
281
     1
  3
Metric50
350
8187
  0
DICTIONARY
  5
8170
102
{ACAD_REACTORS
330
C
102
}
330
C
100
AcDbDictionary
281
     1
  3
Standard
350
8171
  0
DICTIONARY
  5
8156
102
{ACAD_REACTORS
330
C
102
}
330
C
100
AcDbDictionary
281
     1
  3
2dWireframe
350
815C
  3
Basic
350
815B
  3
Brighten
350
8162
  3
ColorChange
350
8166
  3
Conceptual
350
815F
  3
Dim
350
8161
  3
EdgeColorOff
350
816E
  3
Facepattern
350
8165
  3
Flat
350
8157
  3
FlatWithEdges
350
8158
  3
Gouraud
350
8159
  3
GouraudWithEdges
350
815A
  3
Hidden
350
815E
  3
JitterOff
350
816C
  3
Linepattern
350
8164
  3
OverhangOff
350
816D
  3
Realistic
350
8160
  3
Shaded
350
816B
  3
Shaded with edges
350
816A
  3
Shades of Gray
350
8167
  3
Sketchy
350
8168
  3
Thicken
350
8163
  3
Wireframe
350
815D
  3
X-Ray
350
8169
  0
XRECORD
  5
81EF
102
{ACAD_REACTORS
330
C
102
}
330
C
100
AcDbXrecord
280
     1
 90
        1
330
8171
  0
DICTIONARY
  5
8134
102
{ACAD_REACTORS
330
C
102
}
330
C
100
AcDbDictionary
281
     1
  3
CANNOSCALE
350
81E4
  3
CMLEADERSTYLE
350
81E0
  3
CTABLESTYLE
350
81DF
  3
CVIEWDETAILSTYLE
350
81E1
  3
CVIEWSECTIONSTYLE
350
81E2
  3
DIMASSOC
350
8135
  3
LAYEREVAL
350
81E6
  3
LAYERNOTIFY
350
81E7
  3
LIGHTINGUNITS
350
81E5
  3
MARKUPASSISTMODE
350
81EC
  3
MSLTSCALE
350
81E3
  0
DICTIONARY
  5
81F5
102
{ACAD_REACTORS
330
C
102
}
330
C
100
AcDbDictionary
281
     1
  3
AcDsRecords
350
81F7
  3
AcDsSchemas
350
81F6
1001
ACAD
1070
     2
  0
DICTIONARY
  5
81D4
102
{ACAD_REACTORS
330
81D3
102
}
330
81D3
100
AcDbDictionary
281
     1
  0
XRECORD
  5
81C7
102
{ACAD_REACTORS
330
81C6
102
}
330
81C6
100
AcDbXrecord
280
     1
290
     1
  0
XRECORD
  5
81C9
102
{ACAD_REACTORS
330
81C8
102
}
330
81C8
100
AcDbXrecord
280
     1
290
     1
  0
XRECORD
  5
81CB
102
{ACAD_REACTORS
330
81CA
102
}
330
81CA
100
AcDbXrecord
280
     1
290
     1
  0
XRECORD
  5
81CD
102
{ACAD_REACTORS
330
81CC
102
}
330
81CC
100
AcDbXrecord
280
     1
290
     1
  0
XRECORD
  5
81CF
102
{ACAD_REACTORS
330
81CE
102
}
330
81CE
100
AcDbXrecord
280
     1
290
     1
  0
XRECORD
  5
8128
102
{ACAD_REACTORS
330
8127
102
}
330
8127
100
AcDbXrecord
280
     1
340
19
  0
XRECORD
  5
8126
102
{ACAD_REACTORS
330
8125
102
}
330
8125
100
AcDbXrecord
280
     1
340
16
  0
ACDBDETAILVIEWSTYLE
  5
8189
102
{ACAD_XDICTIONARY
360
81FA
102
}
102
{ACAD_REACTORS
330
8188
102
}
330
8188
100
AcDbModelDocViewStyle
 70
     0
  3
Metric50
290
     0
100
AcDbDetailViewStyle
 70
     0
 71
     0
 90
        3
 71
     1
340
10
 62
   256
 40
5.0
340
0
 62
   256
 40
5.0
300

 40
0.0
280
     1
 71
     2
340
15
 90
       25
 62
   256
 71
     3
340
10
 62
   256
 40
5.0
 90
        0
 40
15.0
 90
        1
300
%<\AcVar ViewDetailId>% (%<\AcVar ViewScale \f "%sn">%)
 71
     4
340
15
 90
       25
 62
   256
340
15
 90
       25
 62
   256
280
     0
  0
LAYOUT
  5
80FC
102
{ACAD_REACTORS
330
80FA
102
}
330
80FA
100
AcDbPlotSettings
  1

  2
\\Txbo34x8944cqyd\EPSON LP-6100
  4

  6

 40
0.0
 41
0.0
 42
0.0
 43
0.0
 44
0.0
 45
0.0
 46
0.0
 47
0.0
 48
0.0
 49
0.0
140
0.0
141
0.0
142
1.0
143
1.0
 70
  1712
 72
     0
 73
     0
 74
     0
  7
GOD2000TABLE.ctb
 75
     0
147
1.0
 76
     0
 77
     2
 78
   300
148
0.0
149
0.0
100
AcDbLayout
  1
Model
 70
     1
 71
     0
 10
0.0
 20
0.0
 11
12.0
 21
9.0
 12
0.0
 22
0.0
 32
0.0
 14
0.0
 24
0.0
 34
0.0
 15
0.0
 25
0.0
 35
0.0
146
0.0
 13
0.0
 23
0.0
 33
0.0
 16
1.0
 26
0.0
 36
0.0
 17
0.0
 27
1.0
 37
0.0
 76
     0
330
19
331
813B
  0
LAYOUT
  5
80FD
102
{ACAD_REACTORS
330
80FA
102
}
330
80FA
100
AcDbPlotSettings
  1

  2
\\Txbo34x8944cqyd\EPSON LP-6100
  4

  6

 40
0.0
 41
0.0
 42
0.0
 43
0.0
 44
0.0
 45
0.0
 46
0.0
 47
0.0
 48
0.0
 49
0.0
140
0.0
141
0.0
142
1.0
143
1.0
 70
   688
 72
     0
 73
     0
 74
     5
  7
GOD2000TABLE.ctb
 75
    16
147
1.0
 76
     0
 77
     2
 78
   300
148
0.0
149
0.0
100
AcDbLayout
  1
ﾚｲｱｳﾄ1
 70
     1
 71
     1
 10
0.0
 20
0.0
 11
12.0
 21
9.0
 12
0.0
 22
0.0
 32
0.0
 14
1.000000000000000E+20
 24
1.000000000000000E+20
 34
1.000000000000000E+20
 15
-1.000000000000000E+20
 25
-1.000000000000000E+20
 35
-1.000000000000000E+20
146
0.0
 13
0.0
 23
0.0
 33
0.0
 16
1.0
 26
0.0
 36
0.0
 17
0.0
 27
1.0
 37
0.0
 76
     0
330
16
  0
MATERIAL
  5
8146
102
{ACAD_XDICTIONARY
360
8147
102
}
102
{ACAD_REACTORS
330
813D
102
}
330
813D
100
AcDbMaterial
  1
ByBlock
 72
     0
 43
0.0208333333333333
 43
0.0
 43
0.0
 43
0.0
 43
0.0
 43
0.0208333333333333
 43
0.0
 43
0.0
 43
0.0
 43
0.0
 43
1.0
 43
0.0
 43
0.0
 43
0.0
 43
0.0
 43
1.0
 77
     0
 47
0.0208333333333333
 47
0.0
 47
0.0
 47
0.0
 47
0.0
 47
0.0208333333333333
 47
0.0
 47
0.0
 47
0.0
 47
0.0
 47
1.0
 47
0.0
 47
0.0
 47
0.0
 47
0.0
 47
1.0
171
     0
 49
0.0208333333333333
 49
0.0
 49
0.0
 49
0.0
 49
0.0
 49
0.0208333333333333
 49
0.0
 49
0.0
 49
0.0
 49
0.0
 49
1.0
 49
0.0
 49
0.0
 49
0.0
 49
0.0
 49
1.0
175
     0
142
0.0208333333333333
142
0.0
142
0.0
142
0.0
142
0.0
142
0.0208333333333333
142
0.0
142
0.0
142
0.0
142
0.0
142
1.0
142
0.0
142
0.0
142
0.0
142
0.0
142
1.0
179
     0
144
0.0208333333333333
144
0.0
144
0.0
144
0.0
144
0.0
144
0.0208333333333333
144
0.0
144
0.0
144
0.0
144
0.0
144
1.0
144
0.0
144
0.0
144
0.0
144
0.0
144
1.0
147
0.0208333333333333
147
0.0
147
0.0
147
0.0
147
0.0
147
0.0208333333333333
147
0.0
147
0.0
147
0.0
147
0.0
147
1.0
147
0.0
147
0.0
147
0.0
147
0.0
147
1.0
  0
MATERIAL
  5
813E
102
{ACAD_XDICTIONARY
360
813F
102
}
102
{ACAD_REACTORS
330
813D
102
}
330
813D
100
AcDbMaterial
  1
ByLayer
 72
     0
 43
0.0208333333333333
 43
0.0
 43
0.0
 43
0.0
 43
0.0
 43
0.0208333333333333
 43
0.0
 43
0.0
 43
0.0
 43
0.0
 43
1.0
 43
0.0
 43
0.0
 43
0.0
 43
0.0
 43
1.0
 77
     0
 47
0.0208333333333333
 47
0.0
 47
0.0
 47
0.0
 47
0.0
 47
0.0208333333333333
 47
0.0
 47
0.0
 47
0.0
 47
0.0
 47
1.0
 47
0.0
 47
0.0
 47
0.0
 47
0.0
 47
1.0
171
     0
 49
0.0208333333333333
 49
0.0
 49
0.0
 49
0.0
 49
0.0
 49
0.0208333333333333
 49
0.0
 49
0.0
 49
0.0
 49
0.0
 49
1.0
 49
0.0
 49
0.0
 49
0.0
 49
0.0
 49
1.0
175
     0
142
0.0208333333333333
142
0.0
142
0.0
142
0.0
142
0.0
142
0.0208333333333333
142
0.0
142
0.0
142
0.0
142
0.0
142
1.0
142
0.0
142
0.0
142
0.0
142
0.0
142
1.0
179
     0
144
0.0208333333333333
144
0.0
144
0.0
144
0.0
144
0.0
144
0.0208333333333333
144
0.0
144
0.0
144
0.0
144
0.0
144
1.0
144
0.0
144
0.0
144
0.0
144
0.0
144
1.0
147
0.0208333333333333
147
0.0
147
0.0
147
0.0
147
0.0
147
0.0208333333333333
147
0.0
147
0.0
147
0.0
147
0.0
147
1.0
147
0.0
147
0.0
147
0.0
147
0.0
147
1.0
  0
MATERIAL
  5
814E
102
{ACAD_XDICTIONARY
360
814F
102
}
102
{ACAD_REACTORS
330
813D
102
}
330
813D
100
AcDbMaterial
  1
Global
 72
     0
 43
0.0208333333333333
 43
0.0
 43
0.0
 43
0.0
 43
0.0
 43
0.0208333333333333
 43
0.0
 43
0.0
 43
0.0
 43
0.0
 43
1.0
 43
0.0
 43
0.0
 43
0.0
 43
0.0
 43
1.0
 77
     0
 47
0.0208333333333333
 47
0.0
 47
0.0
 47
0.0
 47
0.0
 47
0.0208333333333333
 47
0.0
 47
0.0
 47
0.0
 47
0.0
 47
1.0
 47
0.0
 47
0.0
 47
0.0
 47
0.0
 47
1.0
171
     0
 49
0.0208333333333333
 49
0.0
 49
0.0
 49
0.0
 49
0.0
 49
0.0208333333333333
 49
0.0
 49
0.0
 49
0.0
 49
0.0
 49
1.0
 49
0.0
 49
0.0
 49
0.0
 49
0.0
 49
1.0
175
     0
142
0.0208333333333333
142
0.0
142
0.0
142
0.0
142
0.0
142
0.0208333333333333
142
0.0
142
0.0
142
0.0
142
0.0
142
1.0
142
0.0
142
0.0
142
0.0
142
0.0
142
1.0
179
     0
144
0.0208333333333333
144
0.0
144
0.0
144
0.0
144
0.0
144
0.0208333333333333
144
0.0
144
0.0
144
0.0
144
0.0
144
1.0
144
0.0
144
0.0
144
0.0
144
0.0
144
1.0
147
0.0208333333333333
147
0.0
147
0.0
147
0.0
147
0.0
147
0.0208333333333333
147
0.0
147
0.0
147
0.0
147
0.0
147
1.0
147
0.0
147
0.0
147
0.0
147
0.0
147
1.0
  0
MLEADERSTYLE
  5
8185
102
{ACAD_REACTORS
330
8184
102
}
330
8184
100
AcDbMLeaderStyle
179
     2
170
     2
171
     1
172
     0
 90
        2
 40
0.0
 41
0.0
173
     1
 91
-1056964608
340
13
 92
       -2
290
     1
 42
2.0
291
     1
 43
0.36
  3
Standard
 44
4.0
300

342
10
174
     1
178
     6
175
     1
176
     0
 93
-1056964608
 45
4.0
292
     0
297
     0
 46
4.0
 94
-1056964608
 47
1.0
 49
1.0
140
1.0
293
     1
141
0.0
294
     1
177
     0
142
1.0
295
     0
296
     0
143
0.125
271
     0
272
     9
273
     9
298
     1
  0
MLINESTYLE
  5
1C
102
{ACAD_REACTORS
330
E
102
}
330
E
100
AcDbMlineStyle
  2
STANDARD
 70
     0
  3

 62
     0
 51
90.0
 52
90.0
 71
     2
 49
0.5
 62
   256
  6
BYLAYER
 49
-0.5
 62
   256
  6
BYLAYER
  0
ACDBPLACEHOLDER
  5
80F9
102
{ACAD_REACTORS
330
80F8
102
}
330
80F8
  0
SCALE
  5
8173
102
{ACAD_REACTORS
330
8172
102
}
330
8172
100
AcDbScale
 70
     0
300
1:1
140
1.0
141
1.0
290
     1
  0
SCALE
  5
8174
102
{ACAD_REACTORS
330
8172
102
}
330
8172
100
AcDbScale
 70
     0
300
1:2
140
1.0
141
2.0
290
     0
  0
SCALE
  5
8175
102
{ACAD_REACTORS
330
8172
102
}
330
8172
100
AcDbScale
 70
     0
300
1:4
140
1.0
141
4.0
290
     0
  0
SCALE
  5
8176
102
{ACAD_REACTORS
330
8172
102
}
330
8172
100
AcDbScale
 70
     0
300
1:5
140
1.0
141
5.0
290
     0
  0
SCALE
  5
8177
102
{ACAD_REACTORS
330
8172
102
}
330
8172
100
AcDbScale
 70
     0
300
1:8
140
1.0
141
8.0
290
     0
  0
SCALE
  5
8178
102
{ACAD_REACTORS
330
8172
102
}
330
8172
100
AcDbScale
 70
     0
300
1:10
140
1.0
141
10.0
290
     0
  0
SCALE
  5
8179
102
{ACAD_REACTORS
330
8172
102
}
330
8172
100
AcDbScale
 70
     0
300
1:16
140
1.0
141
16.0
290
     0
  0
SCALE
  5
817A
102
{ACAD_REACTORS
330
8172
102
}
330
8172
100
AcDbScale
 70
     0
300
1:20
140
1.0
141
20.0
290
     0
  0
SCALE
  5
817B
102
{ACAD_REACTORS
330
8172
102
}
330
8172
100
AcDbScale
 70
     0
300
1:30
140
1.0
141
30.0
290
     0
  0
SCALE
  5
817C
102
{ACAD_REACTORS
330
8172
102
}
330
8172
100
AcDbScale
 70
     0
300
1:40
140
1.0
141
40.0
290
     0
  0
SCALE
  5
817D
102
{ACAD_REACTORS
330
8172
102
}
330
8172
100
AcDbScale
 70
     0
300
1:50
140
1.0
141
50.0
290
     0
  0
SCALE
  5
817E
102
{ACAD_REACTORS
330
8172
102
}
330
8172
100
AcDbScale
 70
     0
300
1:100
140
1.0
141
100.0
290
     0
  0
SCALE
  5
817F
102
{ACAD_REACTORS
330
8172
102
}
330
8172
100
AcDbScale
 70
     0
300
2:1
140
2.0
141
1.0
290
     0
  0
SCALE
  5
8180
102
{ACAD_REACTORS
330
8172
102
}
330
8172
100
AcDbScale
 70
     0
300
4:1
140
4.0
141
1.0
290
     0
  0
SCALE
  5
8181
102
{ACAD_REACTORS
330
8172
102
}
330
8172
100
AcDbScale
 70
     0
300
8:1
140
8.0
141
1.0
290
     0
  0
SCALE
  5
8182
102
{ACAD_REACTORS
330
8172
102
}
330
8172
100
AcDbScale
 70
     0
300
10:1
140
10.0
141
1.0
290
     0
  0
SCALE
  5
8183
102
{ACAD_REACTORS
330
8172
102
}
330
8172
100
AcDbScale
 70
     0
300
100:1
140
100.0
141
1.0
290
     0
  0
ACDBSECTIONVIEWSTYLE
  5
8187
102
{ACAD_XDICTIONARY
360
81F8
102
}
102
{ACAD_REACTORS
330
8186
102
}
330
8186
100
AcDbModelDocViewStyle
 70
     0
  3
Metric50
290
     0
100
AcDbSectionViewStyle
 70
     0
 71
     0
 90
      102
 71
     1
340
10
 62
   256
 40
5.0
340
0
340
0
 62
   256
 40
5.0
300
I, O, Q, S, X, Z
 40
10.0
 90
        0
 40
2.5
 90
        0
 71
     2
340
15
 90
       25
 62
   256
340
15
 90
       50
 62
   256
 40
5.0
 40
2.5
 40
5.0
 71
     3
340
10
 62
   256
 40
5.0
 90
        0
 40
15.0
 90
        1
300
%<\AcVar ViewSectionStartId>%-%<\AcVar ViewSectionEndId>% (%<\AcVar ViewScale \f "%sn">%)
 71
     4
 62
   256
 62
   257
300
ANSI31
 40
1.0
 90
        0
290
     0
290
     0
 90
        6
 40
0.0
 40
1.570796326794896
 40
0.2617993877991494
 40
1.308996938995747
 40
-0.2617993877991494
 40
1.832595714594046
  0
TABLESTYLE
  5
8171
102
{ACAD_XDICTIONARY
360
81ED
102
}
102
{ACAD_REACTORS
330
8170
102
}
330
8170
100
AcDbTableStyle
280
     0
  3
Standard
 70
     0
 71
     0
 40
1.5
 41
1.5
280
     0
281
     0
  7
STANDARD
140
4.5
170
     2
 62
     0
 63
     7
283
     0
 90
      512
 91
        0
  1

274
    -2
284
     1
 64
     0
275
    -2
285
     1
 65
     0
276
    -2
286
     1
 66
     0
277
    -2
287
     1
 67
     0
278
    -2
288
     1
 68
     0
279
    -2
289
     1
 69
     0
  7
STANDARD
140
6.0
170
     5
 62
     0
 63
     7
283
     0
 90
      512
 91
        0
  1

274
    -2
284
     1
 64
     0
275
    -2
285
     1
 65
     0
276
    -2
286
     1
 66
     0
277
    -2
287
     1
 67
     0
278
    -2
288
     1
 68
     0
279
    -2
289
     1
 69
     0
  7
STANDARD
140
4.5
170
     5
 62
     0
 63
     7
283
     0
 90
      512
 91
        0
  1

274
    -2
284
     1
 64
     0
275
    -2
285
     1
 65
     0
276
    -2
286
     1
 66
     0
277
    -2
287
     1
 67
     0
278
    -2
288
     1
 68
     0
279
    -2
289
     1
 69
     0
  0
VISUALSTYLE
  5
815C
102
{ACAD_REACTORS
330
8156
102
}
330
8156
100
AcDbVisualStyle
  2
2dWireframe
 70
     4
177
     3
291
     0
 70
    58
 90
        0
176
     1
 90
        2
176
     1
 90
        0
176
     1
 90
        0
176
     1
 40
0.6
176
     1
 40
30.0
176
     1
 62
     7
420
 16777215
176
     1
 90
        1
176
     1
 90
        4
176
     1
 62
     7
176
     1
 62
   257
176
     1
 90
        1
176
     1
 90
        1
176
     1
 40
1.0
176
     1
 90
        0
176
     1
 62
   257
176
     1
 40
1.0
176
     1
 90
        1
176
     1
 90
        6
176
     1
 90
        2
176
     1
 62
     7
176
     1
 90
        5
176
     1
 90
        0
176
     1
 90
        0
176
     1
290
     0
176
     1
 90
        1
176
     1
 40
0.0
176
     1
 90
        0
176
     1
290
     1
176
     1
290
     1
176
     1
290
     0
176
     1
290
     0
176
     1
290
     0
176
     1
290
     0
176
     1
290
     0
176
     1
290
     0
176
     1
290
     0
176
     1
 90
       50
176
     1
 40
0.0
176
     1
 40
1.0
176
     1
 90
        0
176
     1
 62
    18
420
        0
176
     1
 90
       50
176
     1
 90
        3
176
     1
 62
     5
420
      255
176
     1
290
     0
176
     1
 90
       50
176
     1
 90
       50
176
     1
 90
       50
176
     1
290
     0
176
     1
 90
       50
176
     1
 62
   256
176
     0
 40
1.0
176
     0
 90
        2
176
     1
  1
strokes_ogs.tif
176
     1
290
     0
176
     1
 40
1.0
176
     1
 40
1.0
176
     1
1001
ACAD
1000
AcDbSavedByObjectVersion
1070
     0
  0
VISUALSTYLE
  5
815B
102
{ACAD_REACTORS
330
8156
102
}
330
8156
100
AcDbVisualStyle
  2
Basic
 70
     7
177
     3
291
     1
 70
    58
 90
        1
176
     1
 90
        0
176
     1
 90
        1
176
     1
 90
        0
176
     1
 40
0.6
176
     1
 40
30.0
176
     1
 62
     7
420
 16777215
176
     1
 90
        0
176
     1
 90
        4
176
     1
 62
     7
176
     1
 62
   257
176
     1
 90
        1
176
     1
 90
        1
176
     1
 40
1.0
176
     1
 90
        8
176
     1
 62
     7
176
     1
 40
1.0
176
     1
 90
        1
176
     1
 90
        6
176
     1
 90
        2
176
     1
 62
     7
176
     1
 90
        5
176
     1
 90
        0
176
     1
 90
        0
176
     1
290
     0
176
     1
 90
        1
176
     1
 40
0.0
176
     1
 90
        0
176
     1
290
     0
176
     1
290
     1
176
     1
290
     1
176
     1
290
     0
176
     1
290
     0
176
     1
290
     0
176
     1
290
     0
176
     1
290
     0
176
     1
290
     0
176
     1
 90
       50
176
     1
 40
0.0
176
     1
 40
1.0
176
     1
 90
        0
176
     1
 62
    18
420
        0
176
     1
 90
       50
176
     1
 90
        3
176
     1
 62
     5
420
      255
176
     1
290
     0
176
     1
 90
       50
176
     1
 90
       50
176
     1
 90
       50
176
     1
290
     0
176
     1
 90
       50
176
     1
 62
   256
176
     0
 40
1.0
176
     0
 90
        2
176
     1
  1
strokes_ogs.tif
176
     1
290
     0
176
     1
 40
1.0
176
     1
 40
1.0
176
     1
1001
ACAD
1000
AcDbSavedByObjectVersion
1070
     0
  0
VISUALSTYLE
  5
8162
102
{ACAD_REACTORS
330
8156
102
}
330
8156
100
AcDbVisualStyle
  2
Brighten
 70
    12
177
     3
291
     1
 70
    58
 90
        2
176
     1
 90
        2
176
     1
 90
        0
176
     1
 90
        0
176
     1
 40
0.6
176
     1
 40
30.0
176
     1
 62
     7
420
 16777215
176
     1
 90
        1
176
     1
 90
        4
176
     1
 62
     7
176
     1
 62
   257
176
     1
 90
        1
176
     1
 90
        1
176
     1
 40
1.0
176
     1
 90
        8
176
     1
 62
     7
176
     1
 40
1.0
176
     1
 90
        1
176
     1
 90
        6
176
     1
 90
        2
176
     1
 62
     7
176
     1
 90
        5
176
     1
 90
        0
176
     1
 90
        0
176
     1
290
     0
176
     1
 90
        1
176
     1
 40
50.0
176
     1
 90
        0
176
     1
290
     0
176
     1
290
     1
176
     1
290
     1
176
     1
290
     0
176
     1
290
     0
176
     1
290
     0
176
     1
290
     0
176
     1
290
     0
176
     1
290
     0
176
     1
 90
       50
176
     1
 40
0.0
176
     1
 40
1.0
176
     1
 90
        0
176
     1
 62
    18
420
        0
176
     1
 90
       50
176
     1
 90
        3
176
     1
 62
     5
420
      255
176
     1
290
     0
176
     1
 90
       50
176
     1
 90
       50
176
     1
 90
       50
176
     1
290
     0
176
     1
 90
       50
176
     1
 62
   256
176
     0
 40
1.0
176
     0
 90
        2
176
     1
  1
strokes_ogs.tif
176
     1
290
     0
176
     1
 40
1.0
176
     1
 40
1.0
176
     1
1001
ACAD
1000
AcDbSavedByObjectVersion
1070
     0
  0
VISUALSTYLE
  5
8166
102
{ACAD_REACTORS
330
8156
102
}
330
8156
100
AcDbVisualStyle
  2
ColorChange
 70
    16
177
     3
291
     1
 70
    58
 90
        2
176
     1
 90
        2
176
     1
 90
        3
176
     1
 90
        0
176
     1
 40
0.6
176
     1
 40
30.0
176
     1
 62
     8
420
  8421504
176
     1
 90
        1
176
     1
 90
        4
176
     1
 62
     7
176
     1
 62
   257
176
     1
 90
        1
176
     1
 90
        1
176
     1
 40
1.0
176
     1
 90
        8
176
     1
 62
     8
420
  8421504
176
     1
 40
1.0
176
     1
 90
        1
176
     1
 90
        6
176
     1
 90
        2
176
     1
 62
     7
176
     1
 90
        5
176
     1
 90
        0
176
     1
 90
        0
176
     1
290
     0
176
     1
 90
        1
176
     1
 40
0.0
176
     1
 90
        0
176
     1
290
     0
176
     1
290
     1
176
     1
290
     1
176
     1
290
     0
176
     1
290
     0
176
     1
290
     0
176
     1
290
     0
176
     1
290
     0
176
     1
290
     0
176
     1
 90
       50
176
     1
 40
0.0
176
     1
 40
1.0
176
     1
 90
        0
176
     1
 62
    18
420
        0
176
     1
 90
       50
176
     1
 90
        3
176
     1
 62
     5
420
      255
176
     1
290
     0
176
     1
 90
       50
176
     1
 90
       50
176
     1
 90
       50
176
     1
290
     0
176
     1
 90
       50
176
     1
 62
   256
176
     0
 40
1.0
176
     0
 90
        2
176
     1
  1
strokes_ogs.tif
176
     1
290
     0
176
     1
 40
1.0
176
     1
 40
1.0
176
     1
1001
ACAD
1000
AcDbSavedByObjectVersion
1070
     0
  0
VISUALSTYLE
  5
815F
102
{ACAD_REACTORS
330
8156
102
}
330
8156
100
AcDbVisualStyle
  2
Conceptual
 70
     9
177
     3
291
     0
 70
    58
 90
        3
176
     1
 90
        2
176
     1
 90
        0
176
     1
 90
        0
176
     1
 40
0.6
176
     1
 40
30.0
176
     1
 62
     7
420
 16777215
176
     1
 90
        2
176
     1
 90
        2
176
     1
 62
     7
176
     1
 62
   257
176
     1
 90
        1
176
     1
 90
        1
176
     1
 40
179.0
176
     1
 90
        8
176
     1
 62
     7
176
     1
 40
1.0
176
     1
 90
        1
176
     1
 90
        6
176
     1
 90
        2
176
     1
 62
     7
176
     1
 90
        3
176
     1
 90
        0
176
     1
 90
        0
176
     1
290
     0
176
     1
 90
        1
176
     1
 40
0.0
176
     1
 90
        0
176
     1
290
     0
176
     1
290
     1
176
     1
290
     1
176
     1
290
     0
176
     1
290
     0
176
     1
290
     0
176
     1
290
     0
176
     1
290
     0
176
     1
290
     0
176
     1
 90
       50
176
     1
 40
0.0
176
     1
 40
1.0
176
     1
 90
        0
176
     1
 62
    18
420
        0
176
     1
 90
       50
176
     1
 90
        3
176
     1
 62
     5
420
      255
176
     1
290
     0
176
     1
 90
       50
176
     1
 90
       50
176
     1
 90
       50
176
     1
290
     0
176
     1
 90
       50
176
     1
 62
   256
176
     0
 40
1.0
176
     0
 90
        2
176
     1
  1
strokes_ogs.tif
176
     1
290
     0
176
     1
 40
1.0
176
     1
 40
1.0
176
     1
1001
ACAD
1000
AcDbSavedByObjectVersion
1070
     0
  0
VISUALSTYLE
  5
8161
102
{ACAD_REACTORS
330
8156
102
}
330
8156
100
AcDbVisualStyle
  2
Dim
 70
    11
177
     3
291
     1
 70
    58
 90
        2
176
     1
 90
        2
176
     1
 90
        0
176
     1
 90
        0
176
     1
 40
0.6
176
     1
 40
30.0
176
     1
 62
     7
420
 16777215
176
     1
 90
        1
176
     1
 90
        4
176
     1
 62
     7
176
     1
 62
   257
176
     1
 90
        1
176
     1
 90
        1
176
     1
 40
1.0
176
     1
 90
        8
176
     1
 62
     7
176
     1
 40
1.0
176
     1
 90
        1
176
     1
 90
        6
176
     1
 90
        2
176
     1
 62
     7
176
     1
 90
        5
176
     1
 90
        0
176
     1
 90
        0
176
     1
290
     0
176
     1
 90
        1
176
     1
 40
-50.0
176
     1
 90
        0
176
     1
290
     0
176
     1
290
     1
176
     1
290
     1
176
     1
290
     0
176
     1
290
     0
176
     1
290
     0
176
     1
290
     0
176
     1
290
     0
176
     1
290
     0
176
     1
 90
       50
176
     1
 40
0.0
176
     1
 40
1.0
176
     1
 90
        0
176
     1
 62
    18
420
        0
176
     1
 90
       50
176
     1
 90
        3
176
     1
 62
     5
420
      255
176
     1
290
     0
176
     1
 90
       50
176
     1
 90
       50
176
     1
 90
       50
176
     1
290
     0
176
     1
 90
       50
176
     1
 62
   256
176
     0
 40
1.0
176
     0
 90
        2
176
     1
  1
strokes_ogs.tif
176
     1
290
     0
176
     1
 40
1.0
176
     1
 40
1.0
176
     1
1001
ACAD
1000
AcDbSavedByObjectVersion
1070
     0
  0
VISUALSTYLE
  5
816E
102
{ACAD_REACTORS
330
8156
102
}
330
8156
100
AcDbVisualStyle
  2
EdgeColorOff
 70
    22
177
     3
291
     1
 70
    58
 90
        2
176
     0
 90
        2
176
     0
 90
        0
176
     0
 90
        0
176
     0
 40
0.6
176
     0
 40
30.0
176
     0
 62
     7
420
 16777215
176
     0
 90
        1
176
     0
 90
        4
176
     0
 62
     7
176
     0
 62
   257
176
     0
 90
        1
176
     0
 90
        1
176
     0
 40
1.0
176
     0
 90
        8
176
     2
 62
     7
176
     0
 40
1.0
176
     0
 90
        1
176
     0
 90
        6
176
     0
 90
        2
176
     0
 62
     7
176
     0
 90
        5
176
     0
 90
        0
176
     0
 90
        0
176
     0
290
     0
176
     0
 90
        1
176
     0
 40
0.0
176
     0
 90
        0
176
     0
290
     0
176
     0
290
     1
176
     0
290
     1
176
     0
290
     0
176
     0
290
     0
176
     0
290
     0
176
     0
290
     0
176
     0
290
     0
176
     0
290
     0
176
     0
 90
       50
176
     0
 40
0.0
176
     0
 40
1.0
176
     0
 90
        0
176
     0
 62
    18
420
        0
176
     0
 90
       50
176
     0
 90
        3
176
     0
 62
     5
420
      255
176
     0
290
     0
176
     0
 90
       50
176
     0
 90
       50
176
     0
 90
       50
176
     0
290
     0
176
     0
 90
       50
176
     0
 62
   256
176
     0
 40
1.0
176
     0
 90
        2
176
     0
  1
strokes_ogs.tif
176
     0
290
     0
176
     0
 40
1.0
176
     0
 40
1.0
176
     0
1001
ACAD
1000
AcDbSavedByObjectVersion
1070
     0
  0
VISUALSTYLE
  5
8165
102
{ACAD_REACTORS
330
8156
102
}
330
8156
100
AcDbVisualStyle
  2
Facepattern
 70
    15
177
     3
291
     1
 70
    58
 90
        2
176
     1
 90
        2
176
     1
 90
        0
176
     1
 90
        0
176
     1
 40
0.6
176
     1
 40
30.0
176
     1
 62
     7
420
 16777215
176
     1
 90
        1
176
     1
 90
        4
176
     1
 62
     7
176
     1
 62
   257
176
     1
 90
        1
176
     1
 90
        1
176
     1
 40
1.0
176
     1
 90
        8
176
     1
 62
     7
176
     1
 40
1.0
176
     1
 90
        1
176
     1
 90
        6
176
     1
 90
        2
176
     1
 62
     7
176
     1
 90
        5
176
     1
 90
        0
176
     1
 90
        0
176
     1
290
     0
176
     1
 90
        1
176
     1
 40
0.0
176
     1
 90
        0
176
     1
290
     0
176
     1
290
     1
176
     1
290
     1
176
     1
290
     0
176
     1
290
     0
176
     1
290
     0
176
     1
290
     0
176
     1
290
     0
176
     1
290
     0
176
     1
 90
       50
176
     1
 40
0.0
176
     1
 40
1.0
176
     1
 90
        0
176
     1
 62
    18
420
        0
176
     1
 90
       50
176
     1
 90
        3
176
     1
 62
     5
420
      255
176
     1
290
     0
176
     1
 90
       50
176
     1
 90
       50
176
     1
 90
       50
176
     1
290
     0
176
     1
 90
       50
176
     1
 62
   256
176
     0
 40
1.0
176
     0
 90
        2
176
     1
  1
strokes_ogs.tif
176
     1
290
     0
176
     1
 40
1.0
176
     1
 40
1.0
176
     1
1001
ACAD
1000
AcDbSavedByObjectVersion
1070
     0
  0
VISUALSTYLE
  5
8157
102
{ACAD_REACTORS
330
8156
102
}
330
8156
100
AcDbVisualStyle
  2
Flat
 70
     0
177
     3
291
     1
 70
    58
 90
        2
176
     1
 90
        1
176
     1
 90
        1
176
     1
 90
        2
176
     1
 40
0.6
176
     1
 40
30.0
176
     1
 62
     7
420
 16777215
176
     1
 90
        0
176
     1
 90
        0
176
     1
 62
     7
176
     1
 62
   257
176
     1
 90
        1
176
     1
 90
        1
176
     1
 40
1.0
176
     1
 90
        8
176
     1
 62
     7
176
     1
 40
1.0
176
     1
 90
        1
176
     1
 90
        6
176
     1
 90
        2
176
     1
 62
     7
176
     1
 90
        5
176
     1
 90
        0
176
     1
 90
        0
176
     1
290
     0
176
     1
 90
       13
176
     1
 40
0.0
176
     1
 90
        0
176
     1
290
     0
176
     1
290
     1
176
     1
290
     1
176
     1
290
     0
176
     1
290
     0
176
     1
290
     0
176
     1
290
     0
176
     1
290
     0
176
     1
290
     0
176
     1
 90
       50
176
     1
 40
0.0
176
     1
 40
1.0
176
     1
 90
        0
176
     1
 62
    18
420
        0
176
     1
 90
       50
176
     1
 90
        3
176
     1
 62
     5
420
      255
176
     1
290
     0
176
     1
 90
       50
176
     1
 90
       50
176
     1
 90
       50
176
     1
290
     0
176
     1
 90
       50
176
     1
 62
   256
176
     0
 40
1.0
176
     0
 90
        2
176
     1
  1
strokes_ogs.tif
176
     1
290
     0
176
     1
 40
1.0
176
     1
 40
1.0
176
     1
1001
ACAD
1000
AcDbSavedByObjectVersion
1070
     0
  0
VISUALSTYLE
  5
8158
102
{ACAD_REACTORS
330
8156
102
}
330
8156
100
AcDbVisualStyle
  2
FlatWithEdges
 70
     1
177
     3
291
     1
 70
    58
 90
        2
176
     1
 90
        1
176
     1
 90
        1
176
     1
 90
        2
176
     1
 40
0.6
176
     1
 40
30.0
176
     1
 62
     7
420
 16777215
176
     1
 90
        1
176
     1
 90
        0
176
     1
 62
     7
176
     1
 62
   257
176
     1
 90
        1
176
     1
 90
        1
176
     1
 40
1.0
176
     1
 90
        0
176
     1
 62
   257
176
     1
 40
1.0
176
     1
 90
        1
176
     1
 90
        6
176
     1
 90
        2
176
     1
 62
     7
176
     1
 90
        5
176
     1
 90
        0
176
     1
 90
        0
176
     1
290
     0
176
     1
 90
       13
176
     1
 40
0.0
176
     1
 90
        0
176
     1
290
     0
176
     1
290
     1
176
     1
290
     1
176
     1
290
     0
176
     1
290
     0
176
     1
290
     0
176
     1
290
     0
176
     1
290
     0
176
     1
290
     0
176
     1
 90
       50
176
     1
 40
0.0
176
     1
 40
1.0
176
     1
 90
        0
176
     1
 62
    18
420
        0
176
     1
 90
       50
176
     1
 90
        3
176
     1
 62
     5
420
      255
176
     1
290
     0
176
     1
 90
       50
176
     1
 90
       50
176
     1
 90
       50
176
     1
290
     0
176
     1
 90
       50
176
     1
 62
   256
176
     0
 40
1.0
176
     0
 90
        2
176
     1
  1
strokes_ogs.tif
176
     1
290
     0
176
     1
 40
1.0
176
     1
 40
1.0
176
     1
1001
ACAD
1000
AcDbSavedByObjectVersion
1070
     0
  0
VISUALSTYLE
  5
8159
102
{ACAD_REACTORS
330
8156
102
}
330
8156
100
AcDbVisualStyle
  2
Gouraud
 70
     2
177
     3
291
     1
 70
    58
 90
        2
176
     1
 90
        2
176
     1
 90
        1
176
     1
 90
        2
176
     1
 40
0.6
176
     1
 40
30.0
176
     1
 62
     7
420
 16777215
176
     1
 90
        0
176
     1
 90
        0
176
     1
 62
     7
176
     1
 62
   257
176
     1
 90
        1
176
     1
 90
        1
176
     1
 40
1.0
176
     1
 90
        0
176
     1
 62
     7
176
     1
 40
1.0
176
     1
 90
        1
176
     1
 90
        6
176
     1
 90
        2
176
     1
 62
     7
176
     1
 90
        5
176
     1
 90
        0
176
     1
 90
        0
176
     1
290
     0
176
     1
 90
       13
176
     1
 40
0.0
176
     1
 90
        0
176
     1
290
     0
176
     1
290
     1
176
     1
290
     1
176
     1
290
     0
176
     1
290
     0
176
     1
290
     0
176
     1
290
     0
176
     1
290
     0
176
     1
290
     0
176
     1
 90
       50
176
     1
 40
0.0
176
     1
 40
1.0
176
     1
 90
        0
176
     1
 62
    18
420
        0
176
     1
 90
       50
176
     1
 90
        3
176
     1
 62
     5
420
      255
176
     1
290
     0
176
     1
 90
       50
176
     1
 90
       50
176
     1
 90
       50
176
     1
290
     0
176
     1
 90
       50
176
     1
 62
   256
176
     0
 40
1.0
176
     0
 90
        2
176
     1
  1
strokes_ogs.tif
176
     1
290
     0
176
     1
 40
1.0
176
     1
 40
1.0
176
     1
1001
ACAD
1000
AcDbSavedByObjectVersion
1070
     0
  0
VISUALSTYLE
  5
815A
102
{ACAD_REACTORS
330
8156
102
}
330
8156
100
AcDbVisualStyle
  2
GouraudWithEdges
 70
     3
177
     3
291
     1
 70
    58
 90
        2
176
     1
 90
        2
176
     1
 90
        1
176
     1
 90
        2
176
     1
 40
0.6
176
     1
 40
30.0
176
     1
 62
     7
420
 16777215
176
     1
 90
        1
176
     1
 90
        0
176
     1
 62
     7
176
     1
 62
   257
176
     1
 90
        1
176
     1
 90
        1
176
     1
 40
1.0
176
     1
 90
        0
176
     1
 62
   257
176
     1
 40
1.0
176
     1
 90
        1
176
     1
 90
        6
176
     1
 90
        2
176
     1
 62
     7
176
     1
 90
        5
176
     1
 90
        0
176
     1
 90
        0
176
     1
290
     0
176
     1
 90
       13
176
     1
 40
0.0
176
     1
 90
        0
176
     1
290
     0
176
     1
290
     1
176
     1
290
     1
176
     1
290
     0
176
     1
290
     0
176
     1
290
     0
176
     1
290
     0
176
     1
290
     0
176
     1
290
     0
176
     1
 90
       50
176
     1
 40
0.0
176
     1
 40
1.0
176
     1
 90
        0
176
     1
 62
    18
420
        0
176
     1
 90
       50
176
     1
 90
        3
176
     1
 62
     5
420
      255
176
     1
290
     0
176
     1
 90
       50
176
     1
 90
       50
176
     1
 90
       50
176
     1
290
     0
176
     1
 90
       50
176
     1
 62
   256
176
     0
 40
1.0
176
     0
 90
        2
176
     1
  1
strokes_ogs.tif
176
     1
290
     0
176
     1
 40
1.0
176
     1
 40
1.0
176
     1
1001
ACAD
1000
AcDbSavedByObjectVersion
1070
     0
  0
VISUALSTYLE
  5
815E
102
{ACAD_REACTORS
330
8156
102
}
330
8156
100
AcDbVisualStyle
  2
Hidden
 70
     6
177
     3
291
     0
 70
    58
 90
        1
176
     1
 90
        2
176
     1
 90
        2
176
     1
 90
        0
176
     1
 40
0.6
176
     1
 40
30.0
176
     1
 62
     7
420
 16777215
176
     1
 90
        2
176
     1
 90
        2
176
     1
 62
     7
176
     1
 62
   257
176
     1
 90
        2
176
     1
 90
        1
176
     1
 40
40.0
176
     1
 90
        0
176
     1
 62
   257
176
     1
 40
1.0
176
     1
 90
        1
176
     1
 90
        6
176
     1
 90
        2
176
     1
 62
     7
176
     1
 90
        3
176
     1
 90
        0
176
     1
 90
        0
176
     1
290
     0
176
     1
 90
        1
176
     1
 40
0.0
176
     1
 90
        0
176
     1
290
     0
176
     1
290
     1
176
     1
290
     1
176
     1
290
     0
176
     1
290
     0
176
     1
290
     0
176
     1
290
     0
176
     1
290
     0
176
     1
290
     0
176
     1
 90
       50
176
     1
 40
0.0
176
     1
 40
1.0
176
     1
 90
        0
176
     1
 62
    18
420
        0
176
     1
 90
       50
176
     1
 90
        3
176
     1
 62
     5
420
      255
176
     1
290
     0
176
     1
 90
       50
176
     1
 90
       50
176
     1
 90
       50
176
     1
290
     0
176
     1
 90
       50
176
     1
 62
   256
176
     0
 40
1.0
176
     0
 90
        2
176
     1
  1
strokes_ogs.tif
176
     1
290
     0
176
     1
 40
1.0
176
     1
 40
1.0
176
     1
1001
ACAD
1000
AcDbSavedByObjectVersion
1070
     0
  0
VISUALSTYLE
  5
816C
102
{ACAD_REACTORS
330
8156
102
}
330
8156
100
AcDbVisualStyle
  2
JitterOff
 70
    20
177
     3
291
     1
 70
    58
 90
        2
176
     0
 90
        2
176
     0
 90
        0
176
     0
 90
        0
176
     0
 40
0.6
176
     0
 40
30.0
176
     0
 62
     7
420
 16777215
176
     0
 90
        1
176
     0
 90
        4
176
     0
 62
     7
176
     0
 62
   257
176
     0
 90
        1
176
     0
 90
        1
176
     0
 40
1.0
176
     0
 90
       10
176
     2
 62
     7
176
     0
 40
1.0
176
     0
 90
        1
176
     0
 90
        6
176
     0
 90
        2
176
     0
 62
     7
176
     0
 90
        5
176
     0
 90
        0
176
     0
 90
        0
176
     0
290
     0
176
     0
 90
        1
176
     0
 40
0.0
176
     0
 90
        0
176
     0
290
     0
176
     0
290
     1
176
     0
290
     1
176
     0
290
     0
176
     0
290
     0
176
     0
290
     0
176
     0
290
     0
176
     0
290
     0
176
     0
290
     0
176
     0
 90
       50
176
     0
 40
0.0
176
     0
 40
1.0
176
     0
 90
        0
176
     0
 62
    18
420
        0
176
     0
 90
       50
176
     0
 90
        3
176
     0
 62
     5
420
      255
176
     0
290
     0
176
     0
 90
       50
176
     0
 90
       50
176
     0
 90
       50
176
     0
290
     0
176
     0
 90
       50
176
     0
 62
   256
176
     0
 40
1.0
176
     0
 90
        2
176
     0
  1
strokes_ogs.tif
176
     0
290
     0
176
     0
 40
1.0
176
     0
 40
1.0
176
     0
1001
ACAD
1000
AcDbSavedByObjectVersion
1070
     0
  0
VISUALSTYLE
  5
8164
102
{ACAD_REACTORS
330
8156
102
}
330
8156
100
AcDbVisualStyle
  2
Linepattern
 70
    14
177
     3
291
     1
 70
    58
 90
        2
176
     1
 90
        2
176
     1
 90
        0
176
     1
 90
        0
176
     1
 40
0.6
176
     1
 40
30.0
176
     1
 62
     7
420
 16777215
176
     1
 90
        1
176
     1
 90
        4
176
     1
 62
     7
176
     1
 62
   257
176
     1
 90
        7
176
     1
 90
        7
176
     1
 40
1.0
176
     1
 90
        8
176
     1
 62
     7
176
     1
 40
1.0
176
     1
 90
        1
176
     1
 90
        6
176
     1
 90
        2
176
     1
 62
     7
176
     1
 90
        5
176
     1
 90
        0
176
     1
 90
        0
176
     1
290
     0
176
     1
 90
        1
176
     1
 40
0.0
176
     1
 90
        0
176
     1
290
     0
176
     1
290
     1
176
     1
290
     1
176
     1
290
     0
176
     1
290
     0
176
     1
290
     0
176
     1
290
     0
176
     1
290
     0
176
     1
290
     0
176
     1
 90
       50
176
     1
 40
0.0
176
     1
 40
1.0
176
     1
 90
        0
176
     1
 62
    18
420
        0
176
     1
 90
       50
176
     1
 90
        3
176
     1
 62
     5
420
      255
176
     1
290
     0
176
     1
 90
       50
176
     1
 90
       50
176
     1
 90
       50
176
     1
290
     0
176
     1
 90
       50
176
     1
 62
   256
176
     0
 40
1.0
176
     0
 90
        2
176
     1
  1
strokes_ogs.tif
176
     1
290
     0
176
     1
 40
1.0
176
     1
 40
1.0
176
     1
1001
ACAD
1000
AcDbSavedByObjectVersion
1070
     0
  0
VISUALSTYLE
  5
816D
102
{ACAD_REACTORS
330
8156
102
}
330
8156
100
AcDbVisualStyle
  2
OverhangOff
 70
    21
177
     3
291
     1
 70
    58
 90
        2
176
     0
 90
        2
176
     0
 90
        0
176
     0
 90
        0
176
     0
 40
0.6
176
     0
 40
30.0
176
     0
 62
     7
420
 16777215
176
     0
 90
        1
176
     0
 90
        4
176
     0
 62
     7
176
     0
 62
   257
176
     0
 90
        1
176
     0
 90
        1
176
     0
 40
1.0
176
     0
 90
        9
176
     2
 62
     7
176
     0
 40
1.0
176
     0
 90
        1
176
     0
 90
        6
176
     0
 90
        2
176
     0
 62
     7
176
     0
 90
        5
176
     0
 90
        0
176
     0
 90
        0
176
     0
290
     0
176
     0
 90
        1
176
     0
 40
0.0
176
     0
 90
        0
176
     0
290
     0
176
     0
290
     1
176
     0
290
     1
176
     0
290
     0
176
     0
290
     0
176
     0
290
     0
176
     0
290
     0
176
     0
290
     0
176
     0
290
     0
176
     0
 90
       50
176
     0
 40
0.0
176
     0
 40
1.0
176
     0
 90
        0
176
     0
 62
    18
420
        0
176
     0
 90
       50
176
     0
 90
        3
176
     0
 62
     5
420
      255
176
     0
290
     0
176
     0
 90
       50
176
     0
 90
       50
176
     0
 90
       50
176
     0
290
     0
176
     0
 90
       50
176
     0
 62
   256
176
     0
 40
1.0
176
     0
 90
        2
176
     0
  1
strokes_ogs.tif
176
     0
290
     0
176
     0
 40
1.0
176
     0
 40
1.0
176
     0
1001
ACAD
1000
AcDbSavedByObjectVersion
1070
     0
  0
VISUALSTYLE
  5
8160
102
{ACAD_REACTORS
330
8156
102
}
330
8156
100
AcDbVisualStyle
  2
Realistic
 70
     8
177
     3
291
     0
 70
    58
 90
        2
176
     1
 90
        3
176
     1
 90
        0
176
     1
 90
        2
176
     1
 40
0.6
176
     1
 40
30.0
176
     1
 62
     7
420
 16777215
176
     1
 90
        0
176
     1
 90
        0
176
     1
 62
     7
176
     1
 62
   257
176
     1
 90
        1
176
     1
 90
        1
176
     1
 40
1.0
176
     1
 90
        8
176
     1
 62
   257
176
     1
 40
1.0
176
     1
 90
        1
176
     1
 90
        6
176
     1
 90
        2
176
     1
 62
     7
176
     1
 90
        3
176
     1
 90
        0
176
     1
 90
        0
176
     1
290
     0
176
     1
 90
       13
176
     1
 40
0.0
176
     1
 90
        0
176
     1
290
     0
176
     1
290
     1
176
     1
290
     1
176
     1
290
     0
176
     1
290
     0
176
     1
290
     0
176
     1
290
     0
176
     1
290
     0
176
     1
290
     0
176
     1
 90
       50
176
     1
 40
0.0
176
     1
 40
1.0
176
     1
 90
        0
176
     1
 62
    18
420
        0
176
     1
 90
       50
176
     1
 90
        3
176
     1
 62
     5
420
      255
176
     1
290
     0
176
     1
 90
       50
176
     1
 90
       50
176
     1
 90
       50
176
     1
290
     0
176
     1
 90
       50
176
     1
 62
   256
176
     0
 40
1.0
176
     0
 90
        2
176
     1
  1
strokes_ogs.tif
176
     1
290
     0
176
     1
 40
1.0
176
     1
 40
1.0
176
     1
1001
ACAD
1000
AcDbSavedByObjectVersion
1070
     0
  0
VISUALSTYLE
  5
816B
102
{ACAD_REACTORS
330
8156
102
}
330
8156
100
AcDbVisualStyle
  2
Shaded
 70
    27
177
     3
291
     0
 70
    58
 90
        2
176
     1
 90
        2
176
     1
 90
        1
176
     1
 90
        2
176
     1
 40
0.6
176
     1
 40
30.0
176
     1
 62
     7
420
 16777215
176
     1
 90
        0
176
     1
 90
        4
176
     1
 62
     7
176
     1
 62
   257
176
     1
 90
        1
176
     1
 90
        1
176
     1
 40
1.0
176
     1
 90
        8
176
     1
 62
   257
176
     1
 40
1.0
176
     1
 90
        1
176
     1
 90
        6
176
     1
 90
        2
176
     1
 62
     8
420
  7895160
176
     1
 90
        3
176
     1
 90
        0
176
     1
 90
        0
176
     1
290
     0
176
     1
 90
        5
176
     1
 40
0.0
176
     1
 90
        0
176
     1
290
     0
176
     1
290
     1
176
     1
290
     1
176
     1
290
     0
176
     1
290
     0
176
     1
290
     0
176
     1
290
     0
176
     1
290
     0
176
     1
290
     0
176
     1
 90
       50
176
     1
 40
0.0
176
     1
 40
1.0
176
     1
 90
        0
176
     1
 62
    18
420
        0
176
     1
 90
       50
176
     1
 90
        3
176
     1
 62
     5
420
      255
176
     1
290
     0
176
     1
 90
       50
176
     1
 90
       50
176
     1
 90
       50
176
     1
290
     0
176
     1
 90
       50
176
     1
 62
   256
176
     0
 40
1.0
176
     0
 90
        2
176
     1
  1
strokes_ogs.tif
176
     1
290
     0
176
     1
 40
1.0
176
     1
 40
1.0
176
     1
1001
ACAD
1000
AcDbSavedByObjectVersion
1070
     0
  0
VISUALSTYLE
  5
816A
102
{ACAD_REACTORS
330
8156
102
}
330
8156
100
AcDbVisualStyle
  2
Shaded with edges
 70
    26
177
     3
291
     0
 70
    58
 90
        2
176
     1
 90
        2
176
     1
 90
        1
176
     1
 90
        2
176
     1
 40
0.6
176
     1
 40
30.0
176
     1
 62
     7
420
 16777215
176
     1
 90
        1
176
     1
 90
        2
176
     1
 62
     7
176
     1
 62
   257
176
     1
 90
        2
176
     1
 90
        1
176
     1
 40
1.0
176
     1
 90
        8
176
     1
 62
   257
176
     1
 40
1.0
176
     1
 90
        1
176
     1
 90
        6
176
     1
 90
        2
176
     1
 62
     7
176
     1
 90
        3
176
     1
 90
        0
176
     1
 90
        0
176
     1
290
     0
176
     1
 90
        5
176
     1
 40
0.0
176
     1
 90
        0
176
     1
290
     0
176
     1
290
     1
176
     1
290
     1
176
     1
290
     0
176
     1
290
     0
176
     1
290
     0
176
     1
290
     0
176
     1
290
     0
176
     1
290
     0
176
     1
 90
       50
176
     1
 40
0.0
176
     1
 40
1.0
176
     1
 90
        0
176
     1
 62
    18
420
        0
176
     1
 90
       50
176
     1
 90
        3
176
     1
 62
     5
420
      255
176
     1
290
     0
176
     1
 90
       50
176
     1
 90
       50
176
     1
 90
       50
176
     1
290
     0
176
     1
 90
       50
176
     1
 62
   256
176
     0
 40
1.0
176
     0
 90
        2
176
     1
  1
strokes_ogs.tif
176
     1
290
     0
176
     1
 40
1.0
176
     1
 40
1.0
176
     1
1001
ACAD
1000
AcDbSavedByObjectVersion
1070
     0
  0
VISUALSTYLE
  5
8167
102
{ACAD_REACTORS
330
8156
102
}
330
8156
100
AcDbVisualStyle
  2
Shades of Gray
 70
    23
177
     3
291
     0
 70
    58
 90
        2
176
     1
 90
        2
176
     1
 90
        3
176
     1
 90
        0
176
     1
 40
0.6
176
     1
 40
30.0
176
     1
 62
     7
420
 16777215
176
     1
 90
        2
176
     1
 90
        2
176
     1
 62
     7
176
     1
 62
     7
176
     1
 90
        1
176
     1
 90
        1
176
     1
 40
40.0
176
     1
 90
        8
176
     1
 62
     7
176
     1
 40
1.0
176
     1
 90
        1
176
     1
 90
        6
176
     1
 90
        2
176
     1
 62
     7
176
     1
 90
        3
176
     1
 90
        0
176
     1
 90
        0
176
     1
290
     0
176
     1
 90
        1
176
     1
 40
0.0
176
     1
 90
        0
176
     1
290
     0
176
     1
290
     1
176
     1
290
     1
176
     1
290
     0
176
     1
290
     0
176
     1
290
     0
176
     1
290
     0
176
     1
290
     0
176
     1
290
     0
176
     1
 90
       50
176
     1
 40
0.0
176
     1
 40
1.0
176
     1
 90
        0
176
     1
 62
    18
420
        0
176
     1
 90
       50
176
     1
 90
        3
176
     1
 62
     5
420
      255
176
     1
290
     0
176
     1
 90
       50
176
     1
 90
       50
176
     1
 90
       50
176
     1
290
     0
176
     1
 90
       50
176
     1
 62
   256
176
     0
 40
1.0
176
     0
 90
        2
176
     1
  1
strokes_ogs.tif
176
     1
290
     0
176
     1
 40
1.0
176
     1
 40
1.0
176
     1
1001
ACAD
1000
AcDbSavedByObjectVersion
1070
     0
  0
VISUALSTYLE
  5
8168
102
{ACAD_REACTORS
330
8156
102
}
330
8156
100
AcDbVisualStyle
  2
Sketchy
 70
    24
177
     3
291
     0
 70
    58
 90
        1
176
     1
 90
        2
176
     1
 90
        2
176
     1
 90
        0
176
     1
 40
0.6
176
     1
 40
30.0
176
     1
 62
     7
420
 16777215
176
     1
 90
        2
176
     1
 90
        2
176
     1
 62
     7
176
     1
 62
     7
176
     1
 90
        1
176
     1
 90
        1
176
     1
 40
40.0
176
     1
 90
       11
176
     1
 62
     7
176
     1
 40
1.0
176
     1
 90
        1
176
     1
 90
        6
176
     1
 90
        2
176
     1
 62
     7
176
     1
 90
        6
176
     1
 90
        0
176
     1
 90
        0
176
     1
290
     0
176
     1
 90
        1
176
     1
 40
0.0
176
     1
 90
        0
176
     1
290
     0
176
     1
290
     1
176
     1
290
     1
176
     1
290
     0
176
     1
290
     0
176
     1
290
     0
176
     1
290
     0
176
     1
290
     0
176
     1
290
     0
176
     1
 90
       50
176
     1
 40
0.0
176
     1
 40
1.0
176
     1
 90
        0
176
     1
 62
    18
420
        0
176
     1
 90
       50
176
     1
 90
        3
176
     1
 62
     5
420
      255
176
     1
290
     0
176
     1
 90
       50
176
     1
 90
       50
176
     1
 90
       50
176
     1
290
     0
176
     1
 90
       50
176
     1
 62
   256
176
     0
 40
1.0
176
     0
 90
        2
176
     1
  1
strokes_ogs.tif
176
     1
290
     0
176
     1
 40
1.0
176
     1
 40
1.0
176
     1
1001
ACAD
1000
AcDbSavedByObjectVersion
1070
     0
  0
VISUALSTYLE
  5
8163
102
{ACAD_REACTORS
330
8156
102
}
330
8156
100
AcDbVisualStyle
  2
Thicken
 70
    13
177
     3
291
     1
 70
    58
 90
        2
176
     1
 90
        2
176
     1
 90
        0
176
     1
 90
        0
176
     1
 40
0.6
176
     1
 40
30.0
176
     1
 62
     7
420
 16777215
176
     1
 90
        1
176
     1
 90
        4
176
     1
 62
     7
176
     1
 62
   257
176
     1
 90
        1
176
     1
 90
        1
176
     1
 40
1.0
176
     1
 90
       12
176
     1
 62
     7
176
     1
 40
1.0
176
     1
 90
        1
176
     1
 90
        6
176
     1
 90
        2
176
     1
 62
     7
176
     1
 90
        5
176
     1
 90
        0
176
     1
 90
        0
176
     1
290
     0
176
     1
 90
        1
176
     1
 40
0.0
176
     1
 90
        0
176
     1
290
     0
176
     1
290
     1
176
     1
290
     1
176
     1
290
     0
176
     1
290
     0
176
     1
290
     0
176
     1
290
     0
176
     1
290
     0
176
     1
290
     0
176
     1
 90
       50
176
     1
 40
0.0
176
     1
 40
1.0
176
     1
 90
        0
176
     1
 62
    18
420
        0
176
     1
 90
       50
176
     1
 90
        3
176
     1
 62
     5
420
      255
176
     1
290
     0
176
     1
 90
       50
176
     1
 90
       50
176
     1
 90
       50
176
     1
290
     0
176
     1
 90
       50
176
     1
 62
   256
176
     0
 40
1.0
176
     0
 90
        2
176
     1
  1
strokes_ogs.tif
176
     1
290
     0
176
     1
 40
1.0
176
     1
 40
1.0
176
     1
1001
ACAD
1000
AcDbSavedByObjectVersion
1070
     0
  0
VISUALSTYLE
  5
815D
102
{ACAD_REACTORS
330
8156
102
}
330
8156
100
AcDbVisualStyle
  2
Wireframe
 70
     5
177
     3
291
     0
 70
    58
 90
        0
176
     1
 90
        2
176
     1
 90
        0
176
     1
 90
        0
176
     1
 40
0.6
176
     1
 40
30.0
176
     1
 62
     7
420
 16777215
176
     1
 90
        1
176
     1
 90
        4
176
     1
 62
     7
176
     1
 62
   257
176
     1
 90
        1
176
     1
 90
        1
176
     1
 40
1.0
176
     1
 90
        0
176
     1
 62
   257
176
     1
 40
1.0
176
     1
 90
        1
176
     1
 90
        6
176
     1
 90
        2
176
     1
 62
     7
176
     1
 90
        3
176
     1
 90
        0
176
     1
 90
        0
176
     1
290
     0
176
     1
 90
        1
176
     1
 40
0.0
176
     1
 90
        0
176
     1
290
     0
176
     1
290
     1
176
     1
290
     1
176
     1
290
     0
176
     1
290
     0
176
     1
290
     0
176
     1
290
     0
176
     1
290
     0
176
     1
290
     0
176
     1
 90
       50
176
     1
 40
0.0
176
     1
 40
1.0
176
     1
 90
        0
176
     1
 62
    18
420
        0
176
     1
 90
       50
176
     1
 90
        3
176
     1
 62
     5
420
      255
176
     1
290
     0
176
     1
 90
       50
176
     1
 90
       50
176
     1
 90
       50
176
     1
290
     0
176
     1
 90
       50
176
     1
 62
   256
176
     0
 40
1.0
176
     0
 90
        2
176
     1
  1
strokes_ogs.tif
176
     1
290
     0
176
     1
 40
1.0
176
     1
 40
1.0
176
     1
1001
ACAD
1000
AcDbSavedByObjectVersion
1070
     0
  0
VISUALSTYLE
  5
8169
102
{ACAD_REACTORS
330
8156
102
}
330
8156
100
AcDbVisualStyle
  2
X-Ray
 70
    25
177
     3
291
     0
 70
    58
 90
        2
176
     1
 90
        2
176
     1
 90
        1
176
     1
 90
        1
176
     1
 40
0.5
176
     1
 40
30.0
176
     1
 62
     7
420
 16777215
176
     1
 90
        1
176
     1
 90
        0
176
     1
 62
     7
176
     1
 62
   257
176
     1
 90
        1
176
     1
 90
        1
176
     1
 40
1.0
176
     1
 90
        8
176
     1
 62
     7
176
     1
 40
1.0
176
     1
 90
        1
176
     1
 90
        6
176
     1
 90
        2
176
     1
 62
     7
176
     1
 90
        3
176
     1
 90
        0
176
     1
 90
        0
176
     1
290
     0
176
     1
 90
       13
176
     1
 40
0.0
176
     1
 90
        0
176
     1
290
     0
176
     1
290
     1
176
     1
290
     1
176
     1
290
     0
176
     1
290
     0
176
     1
290
     0
176
     1
290
     0
176
     1
290
     0
176
     1
290
     0
176
     1
 90
       50
176
     1
 40
0.0
176
     1
 40
1.0
176
     1
 90
        0
176
     1
 62
    18
420
        0
176
     1
 90
       50
176
     1
 90
        3
176
     1
 62
     5
420
      255
176
     1
290
     0
176
     1
 90
       50
176
     1
 90
       50
176
     1
 90
       50
176
     1
290
     0
176
     1
 90
       50
176
     1
 62
   256
176
     0
 40
1.0
176
     0
 90
        2
176
     1
  1
strokes_ogs.tif
176
     1
290
     0
176
     1
 40
1.0
176
     1
 40
1.0
176
     1
1001
ACAD
1000
AcDbSavedByObjectVersion
1070
     0
  0
DICTIONARYVAR
  5
81E4
102
{ACAD_REACTORS
330
8134
102
}
330
8134
100
DictionaryVariables
280
     0
  1
1:1
  0
DICTIONARYVAR
  5
81E0
102
{ACAD_REACTORS
330
8134
102
}
330
8134
100
DictionaryVariables
280
     0
  1
STANDARD
  0
DICTIONARYVAR
  5
81DF
102
{ACAD_REACTORS
330
8134
102
}
330
8134
100
DictionaryVariables
280
     0
  1
STANDARD
  0
DICTIONARYVAR
  5
81E1
102
{ACAD_REACTORS
330
8134
102
}
330
8134
100
DictionaryVariables
280
     0
  1
Metric50
  0
DICTIONARYVAR
  5
81E2
102
{ACAD_REACTORS
330
8134
102
}
330
8134
100
DictionaryVariables
280
     0
  1
Metric50
  0
DICTIONARYVAR
  5
8135
102
{ACAD_REACTORS
330
8134
102
}
330
8134
100
DictionaryVariables
280
     0
  1
1
  0
DICTIONARYVAR
  5
81E6
102
{ACAD_REACTORS
330
8134
102
}
330
8134
100
DictionaryVariables
280
     0
  1
1
  0
DICTIONARYVAR
  5
81E7
102
{ACAD_REACTORS
330
8134
102
}
330
8134
100
DictionaryVariables
280
     0
  1
15
  0
DICTIONARYVAR
  5
81E5
102
{ACAD_REACTORS
330
8134
102
}
330
8134
100
DictionaryVariables
280
     0
  1
0
  0
DICTIONARYVAR
  5
81EC
102
{ACAD_REACTORS
330
8134
102
}
330
8134
100
DictionaryVariables
280
     0
  1
0
  0
DICTIONARYVAR
  5
81E3
102
{ACAD_REACTORS
330
8134
102
}
330
8134
100
DictionaryVariables
280
     0
  1
0
  0
DICTIONARY
  5
81F7
102
{ACAD_REACTORS
330
81F5
102
}
330
81F5
100
AcDbDictionary
281
     1
  0
DICTIONARY
  5
81F6
102
{ACAD_REACTORS
330
81F5
102
}
330
81F5
100
AcDbDictionary
281
     1
  3
2047074424960
350
81F0
  3
2047074424976
350
81F1
  3
2047074424992
350
81F2
  3
2047074425008
350
81F3
  3
2047074425024
350
81F4
  0
DICTIONARY
  5
81FA
330
8189
100
AcDbDictionary
280
     1
281
     1
  3
ACAD_XREC_ROUNDTRIP
360
81FB
  0
DICTIONARY
  5
8147
330
8146
100
AcDbDictionary
280
     1
281
     1
  3
BUMPTILE
360
8149
  3
DIFFUSETILE
360
8148
  3
OPACITYTILE
360
814C
  3
REFLECTIONTILE
360
814B
  3
REFRACTIONTILE
360
814D
  3
SPECULARTILE
360
814A
  0
DICTIONARY
  5
813F
330
813E
100
AcDbDictionary
280
     1
281
     1
  3
BUMPTILE
360
8141
  3
DIFFUSETILE
360
8140
  3
OPACITYTILE
360
8144
  3
REFLECTIONTILE
360
8143
  3
REFRACTIONTILE
360
8145
  3
SPECULARTILE
360
8142
  0
DICTIONARY
  5
814F
330
814E
100
AcDbDictionary
280
     1
281
     1
  3
BUMPTILE
360
8151
  3
DIFFUSETILE
360
8150
  3
OPACITYTILE
360
8154
  3
REFLECTIONTILE
360
8153
  3
REFRACTIONTILE
360
8155
  3
SPECULARTILE
360
8152
  0
DICTIONARY
  5
81F8
330
8187
100
AcDbDictionary
280
     1
281
     1
  3
ACAD_XREC_ROUNDTRIP
360
81F9
  0
DICTIONARY
  5
81ED
330
8171
100
AcDbDictionary
280
     1
281
     1
  3
ACAD_ROUNDTRIP_2008_TABLESTYLE_CELLSTYLEMAP
360
81EE
  0
XRECORD
  5
81F0
102
{ACAD_REACTORS
330
81F6
102
}
330
81F6
100
AcDbXrecord
280
     1
  1
AcDb_Thumbnail_Schema
102
{ATTRRECORD
341
81F1
  2
AcDbDs::TreatedAsObjectData
280
     1
291
     1
102
ATTRRECORD}
102
{ATTRRECORD
341
81F2
  2
AcDbDs::Legacy
280
     1
291
     1
102
ATTRRECORD}
  2
AcDbDs::ID
280
    10
 91
        8
102
{ATTRRECORD
341
81F3
  2
AcDs:Indexable
280
     1
291
     1
102
ATTRRECORD}
102
{ATTRRECORD
341
81F4
  2
AcDbDs::HandleAttribute
280
     7
282
     1
102
ATTRRECORD}
  2
Thumbnail_Data
280
    15
 91
        0
  0
XRECORD
  5
81F1
102
{ACAD_REACTORS
330
81F6
102
}
330
81F6
100
AcDbXrecord
280
     1
  1
AcDbDs::TreatedAsObjectDataSchema
  2
AcDbDs::TreatedAsObjectData
280
     1
 91
        0
  0
XRECORD
  5
81F2
102
{ACAD_REACTORS
330
81F6
102
}
330
81F6
100
AcDbXrecord
280
     1
  1
AcDbDs::LegacySchema
  2
AcDbDs::Legacy
280
     1
 91
        0
  0
XRECORD
  5
81F3
102
{ACAD_REACTORS
330
81F6
102
}
330
81F6
100
AcDbXrecord
280
     1
  1
AcDbDs::IndexedPropertySchema
  2
AcDs:Indexable
280
     1
 91
        0
  0
XRECORD
  5
81F4
102
{ACAD_REACTORS
330
81F6
102
}
330
81F6
100
AcDbXrecord
280
     1
  1
AcDbDs::HandleAttributeSchema
  2
AcDbDs::HandleAttribute
280
     7
 91
        1
284
     1
  0
XRECORD
  5
81FB
102
{ACAD_REACTORS
330
81FA
102
}
330
81FA
100
AcDbXrecord
280
     1
102
DISPLAYNAME
  1
Metric50
102
FLAGS
 90
        0
  0
XRECORD
  5
8149
102
{ACAD_REACTORS
330
8147
102
}
330
8147
100
AcDbXrecord
280
     1
270
     1
271
     1
  0
XRECORD
  5
8148
102
{ACAD_REACTORS
330
8147
102
}
330
8147
100
AcDbXrecord
280
     1
270
     1
271
     1
  0
XRECORD
  5
814C
102
{ACAD_REACTORS
330
8147
102
}
330
8147
100
AcDbXrecord
280
     1
270
     1
271
     1
  0
XRECORD
  5
814B
102
{ACAD_REACTORS
330
8147
102
}
330
8147
100
AcDbXrecord
280
     1
270
     1
271
     1
  0
XRECORD
  5
814D
102
{ACAD_REACTORS
330
8147
102
}
330
8147
100
AcDbXrecord
280
     1
270
     1
271
     1
  0
XRECORD
  5
814A
102
{ACAD_REACTORS
330
8147
102
}
330
8147
100
AcDbXrecord
280
     1
270
     1
271
     1
  0
XRECORD
  5
8141
102
{ACAD_REACTORS
330
813F
102
}
330
813F
100
AcDbXrecord
280
     1
270
     1
271
     1
  0
XRECORD
  5
8140
102
{ACAD_REACTORS
330
813F
102
}
330
813F
100
AcDbXrecord
280
     1
270
     1
271
     1
  0
XRECORD
  5
8144
102
{ACAD_REACTORS
330
813F
102
}
330
813F
100
AcDbXrecord
280
     1
270
     1
271
     1
  0
XRECORD
  5
8143
102
{ACAD_REACTORS
330
813F
102
}
330
813F
100
AcDbXrecord
280
     1
270
     1
271
     1
  0
XRECORD
  5
8145
102
{ACAD_REACTORS
330
813F
102
}
330
813F
100
AcDbXrecord
280
     1
270
     1
271
     1
  0
XRECORD
  5
8142
102
{ACAD_REACTORS
330
813F
102
}
330
813F
100
AcDbXrecord
280
     1
270
     1
271
     1
  0
XRECORD
  5
8151
102
{ACAD_REACTORS
330
814F
102
}
330
814F
100
AcDbXrecord
280
     1
270
     1
271
     1
  0
XRECORD
  5
8150
102
{ACAD_REACTORS
330
814F
102
}
330
814F
100
AcDbXrecord
280
     1
270
     1
271
     1
  0
XRECORD
  5
8154
102
{ACAD_REACTORS
330
814F
102
}
330
814F
100
AcDbXrecord
280
     1
270
     1
271
     1
  0
XRECORD
  5
8153
102
{ACAD_REACTORS
330
814F
102
}
330
814F
100
AcDbXrecord
280
     1
270
     1
271
     1
  0
XRECORD
  5
8155
102
{ACAD_REACTORS
330
814F
102
}
330
814F
100
AcDbXrecord
280
     1
270
     1
271
     1
  0
XRECORD
  5
8152
102
{ACAD_REACTORS
330
814F
102
}
330
814F
100
AcDbXrecord
280
     1
270
     1
271
     1
  0
XRECORD
  5
81F9
102
{ACAD_REACTORS
330
81F8
102
}
330
81F8
100
AcDbXrecord
280
     1
102
DISPLAYNAME
  1
Metric50
102
FLAGS
 90
        0
  0
CELLSTYLEMAP
  5
81EE
102
{ACAD_REACTORS
330
81ED
102
}
330
81ED
100
AcDbCellStyleMap
 90
        3
300
CELLSTYLE
  1
TABLEFORMAT_BEGIN
 90
        5
170
     1
 91
        0
 92
    32768
 62
   257
 93
        1
300
CONTENTFORMAT
  1
CONTENTFORMAT_BEGIN
 90
        0
 91
        0
 92
      512
 93
        0
300

 40
0.0
140
1.0
 94
        5
 62
     0
340
10
144
6.0
309
CONTENTFORMAT_END
171
     1
301
MARGIN
  1
CELLMARGIN_BEGIN
 40
1.5
 40
1.5
 40
1.5
 40
1.5
 40
4.5
 40
4.5
309
CELLMARGIN_END
 94
        6
 95
        1
302
GRIDFORMAT
  1
GRIDFORMAT_BEGIN
 90
        0
 91
        1
 62
     0
 92
       -2
340
0
 93
        0
 40
1.125
309
GRIDFORMAT_END
 95
        2
302
GRIDFORMAT
  1
GRIDFORMAT_BEGIN
 90
        0
 91
        1
 62
     0
 92
       -2
340
0
 93
        0
 40
1.125
309
GRIDFORMAT_END
 95
        4
302
GRIDFORMAT
  1
GRIDFORMAT_BEGIN
 90
        0
 91
        1
 62
     0
 92
       -2
340
0
 93
        0
 40
1.125
309
GRIDFORMAT_END
 95
        8
302
GRIDFORMAT
  1
GRIDFORMAT_BEGIN
 90
        0
 91
        1
 62
     0
 92
       -2
340
0
 93
        0
 40
1.125
309
GRIDFORMAT_END
 95
       16
302
GRIDFORMAT
  1
GRIDFORMAT_BEGIN
 90
        0
 91
        1
 62
     0
 92
       -2
340
0
 93
        0
 40
1.125
309
GRIDFORMAT_END
 95
       32
302
GRIDFORMAT
  1
GRIDFORMAT_BEGIN
 90
        0
 91
        1
 62
     0
 92
       -2
340
0
 93
        0
 40
1.125
309
GRIDFORMAT_END
309
TABLEFORMAT_END
  1
CELLSTYLE_BEGIN
 90
        1
 91
        1
300
_TITLE
309
CELLSTYLE_END
300
CELLSTYLE
  1
TABLEFORMAT_BEGIN
 90
        5
170
     1
 91
        0
 92
        0
 62
   257
 93
        1
300
CONTENTFORMAT
  1
CONTENTFORMAT_BEGIN
 90
        0
 91
        0
 92
      512
 93
        0
300

 40
0.0
140
1.0
 94
        5
 62
     0
340
10
144
4.5
309
CONTENTFORMAT_END
171
     1
301
MARGIN
  1
CELLMARGIN_BEGIN
 40
1.5
 40
1.5
 40
1.5
 40
1.5
 40
4.5
 40
4.5
309
CELLMARGIN_END
 94
        6
 95
        1
302
GRIDFORMAT
  1
GRIDFORMAT_BEGIN
 90
        0
 91
        1
 62
     0
 92
       -2
340
0
 93
        0
 40
1.125
309
GRIDFORMAT_END
 95
        2
302
GRIDFORMAT
  1
GRIDFORMAT_BEGIN
 90
        0
 91
        1
 62
     0
 92
       -2
340
0
 93
        0
 40
1.125
309
GRIDFORMAT_END
 95
        4
302
GRIDFORMAT
  1
GRIDFORMAT_BEGIN
 90
        0
 91
        1
 62
     0
 92
       -2
340
0
 93
        0
 40
1.125
309
GRIDFORMAT_END
 95
        8
302
GRIDFORMAT
  1
GRIDFORMAT_BEGIN
 90
        0
 91
        1
 62
     0
 92
       -2
340
0
 93
        0
 40
1.125
309
GRIDFORMAT_END
 95
       16
302
GRIDFORMAT
  1
GRIDFORMAT_BEGIN
 90
        0
 91
        1
 62
     0
 92
       -2
340
0
 93
        0
 40
1.125
309
GRIDFORMAT_END
 95
       32
302
GRIDFORMAT
  1
GRIDFORMAT_BEGIN
 90
        0
 91
        1
 62
     0
 92
       -2
340
0
 93
        0
 40
1.125
309
GRIDFORMAT_END
309
TABLEFORMAT_END
  1
CELLSTYLE_BEGIN
 90
        2
 91
        1
300
_HEADER
309
CELLSTYLE_END
300
CELLSTYLE
  1
TABLEFORMAT_BEGIN
 90
        5
170
     1
 91
        0
 92
        0
 62
   257
 93
        1
300
CONTENTFORMAT
  1
CONTENTFORMAT_BEGIN
 90
        0
 91
        0
 92
      512
 93
        0
300

 40
0.0
140
1.0
 94
        2
 62
     0
340
10
144
4.5
309
CONTENTFORMAT_END
171
     1
301
MARGIN
  1
CELLMARGIN_BEGIN
 40
1.5
 40
1.5
 40
1.5
 40
1.5
 40
4.5
 40
4.5
309
CELLMARGIN_END
 94
        6
 95
        1
302
GRIDFORMAT
  1
GRIDFORMAT_BEGIN
 90
        0
 91
        1
 62
     0
 92
       -2
340
0
 93
        0
 40
1.125
309
GRIDFORMAT_END
 95
        2
302
GRIDFORMAT
  1
GRIDFORMAT_BEGIN
 90
        0
 91
        1
 62
     0
 92
       -2
340
0
 93
        0
 40
1.125
309
GRIDFORMAT_END
 95
        4
302
GRIDFORMAT
  1
GRIDFORMAT_BEGIN
 90
        0
 91
        1
 62
     0
 92
       -2
340
0
 93
        0
 40
1.125
309
GRIDFORMAT_END
 95
        8
302
GRIDFORMAT
  1
GRIDFORMAT_BEGIN
 90
        0
 91
        1
 62
     0
 92
       -2
340
0
 93
        0
 40
1.125
309
GRIDFORMAT_END
 95
       16
302
GRIDFORMAT
  1
GRIDFORMAT_BEGIN
 90
        0
 91
        1
 62
     0
 92
       -2
340
0
 93
        0
 40
1.125
309
GRIDFORMAT_END
 95
       32
302
GRIDFORMAT
  1
GRIDFORMAT_BEGIN
 90
        0
 91
        1
 62
     0
 92
       -2
340
0
 93
        0
 40
1.125
309
GRIDFORMAT_END
309
TABLEFORMAT_END
  1
CELLSTYLE_BEGIN
 90
        3
 91
        2
300
_DATA
309
CELLSTYLE_END
  0
ENDSEC
  0
SECTION
  2
ACDSDATA
 70
     2
 71
     8
  0
ACDSSCHEMA
 90
        0
  1
AcDb_Thumbnail_Schema
  2
AcDbDs::ID
280
    10
 91
        8
  2
Thumbnail_Data
280
    15
 91
        0
101
ACDSRECORD
 95
        0
 90
        1
  2
AcDbDs::TreatedAsObjectData
280
     1
291
     1
101
ACDSRECORD
 95
        0
 90
        2
  2
AcDbDs::Legacy
280
     1
291
     1
101
ACDSRECORD
  1
AcDbDs::ID
 90
        3
  2
AcDs:Indexable
280
     1
291
     1
101
ACDSRECORD
  1
AcDbDs::ID
 90
        4
  2
AcDbDs::HandleAttribute
280
     7
282
     1
  0
ACDSSCHEMA
 90
        1
  1
AcDbDs::TreatedAsObjectDataSchema
  2
AcDbDs::TreatedAsObjectData
280
     1
 91
        0
  0
ACDSSCHEMA
 90
        2
  1
AcDbDs::LegacySchema
  2
AcDbDs::Legacy
280
     1
 91
        0
  0
ACDSSCHEMA
 90
        3
  1
AcDbDs::IndexedPropertySchema
  2
AcDs:Indexable
280
     1
 91
        0
  0
ACDSSCHEMA
 90
        4
  1
AcDbDs::HandleAttributeSchema
  2
AcDbDs::HandleAttribute
280
     7
 91
        1
284
     1
  0
ACDSRECORD
 90
        0
  2
AcDbDs::ID
280
    10
320
80FC
  2
Thumbnail_Data
280
    15
 94
     1962
310
89504E470D0A1A0A0000000D49484452000001000000009108030000001BE1960600000300504C5445000000000000C8C8C80000000000000000000000000000000000000000000000000000330000660000990000CC0000FF0033000033330033660033990033CC0033FF0066000066330066660066990066CC0066FF0099
310
000099330099660099990099CC0099FF00CC0000CC3300CC6600CC9900CCCC00CCFF00FF0000FF3300FF6600FF9900FFCC00FFFF3300003300333300663300993300CC3300FF3333003333333333663333993333CC3333FF3366003366333366663366993366CC3366FF3399003399333399663399993399CC3399FF33CC00
310
33CC3333CC6633CC9933CCCC33CCFF33FF0033FF3333FF6633FF9933FFCC33FFFF6600006600336600666600996600CC6600FF6633006633336633666633996633CC6633FF6666006666336666666666996666CC6666FF6699006699336699666699996699CC6699FF66CC0066CC3366CC6666CC9966CCCC66CCFF66FF0066
310
FF3366FF6666FF9966FFCC66FFFF9900009900339900669900999900CC9900FF9933009933339933669933999933CC9933FF9966009966339966669966999966CC9966FF9999009999339999669999999999CC9999FF99CC0099CC3399CC6699CC9999CCCC99CCFF99FF0099FF3399FF6699FF9999FFCC99FFFFCC0000CC00
310
33CC0066CC0099CC00CCCC00FFCC3300CC3333CC3366CC3399CC33CCCC33FFCC6600CC6633CC6666CC6699CC66CCCC66FFCC9900CC9933CC9966CC9999CC99CCCC99FFCCCC00CCCC33CCCC66CCCC99CCCCCCCCCCFFCCFF00CCFF33CCFF66CCFF99CCFFCCCCFFFFFF0000FF0033FF0066FF0099FF00CCFF00FFFF3300FF3333
310
FF3366FF3399FF33CCFF33FFFF6600FF6633FF6666FF6699FF66CCFF66FFFF9900FF9933FF9966FF9999FF99CCFF99FFFFCC00FFCC33FFCC66FFCC99FFCCCCFFCCFFFFFF00FFFF33FFFF66FFFF99FFFFCCFFFFFF0000000D0D0D1A1A1A2828283535354343435050505D5D5D6B6B6B787878868686939393A1A1A1AEAEAEBB
310
BBBBC9C9C9D6D6D6E4E4E4F1F1F1FFFFFF00000000000000000000000000000000000000000000000000000000000008F1915C000004654944415478DAED9D5972E4200C40751C7E74FFCB700DFE67CCA205B071BA92CC084455D21D9B5EF4D08A7100F8C6967EA9C1FFDAD2561FE3001C800370000EC001FC8B6FB68AFDFB
310
03581C3B40036048F7D2812670BA066802276A807127F88315A0110066DEDA01FCDCB74CD7EF241D7B8D70EDF97B298D02609959F08B0A19764194F83564EDD2F23B58A6000859DB0F482215409195CF562AF46817401A0128D74E3F8306009FC8602C9B407507640E453025555ABCA7470107E099A0D15A2089AC80BD992A
310
78D35808A72E101A9E119A0E26A745EA652A3B80DB8B40A6018000D018740028834C5DF8330E00460D60DBE0BE40E911EC61023FF05E3E2D6E0840BCDA70209E00A04849E236A9A338B23B8065DB1C406F0CA379380007702480702A00EC5B8CF8992BB40700EFDA677A601080EC14F47107E0001C800370000EC0013880BD
310
018479C3B0692A9CA73BBA9477AE01BBD60251ABBD037000270210E6FF0060CB289087F5123D54D94F0B830EC0013880C301400FE0B849D10E806A9418231C0F00F606F0D07607D0AAC1F048013FBD486E643E00A12F84D91F7E3AF6B600AC4CE0AC8BA3137577009B03387D8D90FD8FF9E66FF676CC7337EE39D3159300DE
310
6A7D6F1E7601C4F8552F107B00510288C6A340D56DFD3C4E077F09CB1E8028018895B38F61B193DA3680F726007106205A077033D0530037A4F601101600663D1DC02E006812E05EC9E733077B00286570009A2688CDDD810030D300DC0140933AB098ECE439286E0B009582973F5F03D051D32400BA3E504C404E89E7EAE7
310
85069806502F10219900B25ABF0500860108F9AB5899C06900108E052014A005C1EBA17382EC1D67008C3B415200127200807000801A053480C80060470021C4B22C345C17CB427E28BF390F260D409C2F290DA635A005813CC0AC015865D7001E2E241A07D0FB806C0459F6225BF501389A403E6E1D005D14A7689065ED01
310
4804816AA8AA02860164EDC72A0C8B3500A8B024001C6A2793374EB64AE0AF93A3D2F816006057371A07C0DA5FD7CD704C2CB20F00CAF9C08EC33200E5F52A8016078630C87940EEA9961319F501C82E1F693EA09D7A0070054CB43E1F1094EF4749640D400644BCFD98FF1B008FB5904624B838CB04671A601300DF2E304F
310
6FA6001E7C804900D9EEB56A07A5E311A600A651C018002CE58F96690680CBE15C2DDDE701D600948592CAE92D00345A3799A0391380E19EC1322BBC0030AB058C6A004ED68ACA7BA9A81A6C3143BF204C02A23D13582F168E74EFD87271A92500A8CC1D26135DA4D9B42C0C6F7A76A78C6B40ECC65FAE8ABAE959AE0F1BCC
310
0465222F4F70F2A35BD4DD699558575D9B2B87BF0C00B600F0C15AE1979D8DAE131C4E2CFFBFDCDD2A1B5F2CED001C800370000EC001380007600EC0917B8CE8F31F4BB41B00BD7996D8848DF766A387B423803400101BAC300F20267B0180C10452DB56A46DBF96DA767D89B65D7327B89106C097B78FDBDE0748C54F8702
310
486233BE1300CCC3E3E61A70BA13F462C801380007E0001C80037000FB02F8A5F69DDFF90F945215BF8AFC0BFC0000000049454E44AE426082
  0
ENDSEC
  0
EOF
