  0
SECTION
  2
HEADER
  9
$ACADVER
  1
AC1009
  9
$INSBASE
 10
0.0
 20
0.0
 30
0.0
  9
$EXTMIN
 10
1250.0
 20
1500.0
 30
0.0
  9
$EXTMAX
 10
9250.0
 20
13933.261307999999
 30
0.0
  9
$LIMMIN
 10
0.0
 20
0.0
  9
$LIMMAX
 10
297.0
 20
210.0
  9
$ORTHOMODE
 70
     0
  9
$REGENMODE
 70
     1
  9
$FILLMODE
 70
     0
  9
$QTEXTMODE
 70
     0
  9
$MIRRTEXT
 70
     1
  9
$DRAGMODE
 70
     2
  9
$LTSCALE
 40
100.0
  9
$OSMODE
 70
    37
  9
$ATTMODE
 70
     1
  9
$TEXTSIZE
 40
180.0
  9
$TRACEWID
 40
0.05
  9
$TEXTSTYLE
  7
STANDARD
  9
$CLAYER
  8
3
  9
$CELTYPE
  6
BYLAYER
  9
$CECOLOR
 62
   256
  9
$DIMSCALE
 40
45.0
  9
$DIMASZ
 40
2.0
  9
$DIMEXO
 40
0.5
  9
$DIMDLI
 40
10.0
  9
$DIMRND
 40
0.0
  9
$DIMDLE
 40
0.0
  9
$DIMEXE
 40
1.0
  9
$DIMTP
 40
1.0
  9
$DIMTM
 40
1.0
  9
$DIMTXT
 40
3.0
  9
$DIMCEN
 40
0.0
  9
$DIMTSZ
 40
0.0
  9
$DIMTOL
 70
     0
  9
$DIMLIM
 70
     0
  9
$DIMTIH
 70
     0
  9
$DIMTOH
 70
     0
  9
$DIMSE1
 70
     0
  9
$DIMSE2
 70
     0
  9
$DIMTAD
 70
     1
  9
$DIMZIN
 70
     8
  9
$DIMBLK
  1

  9
$DIMASO
 70
     1
  9
$DIMSHO
 70
     1
  9
$DIMPOST
  1

  9
$DIMAPOST
  1

  9
$DIMALT
 70
     0
  9
$DIMALTD
 70
     2
  9
$DIMALTF
 40
0.039
  9
$DIMLFAC
 40
1.0
  9
$DIMTOFL
 70
     1
  9
$DIMTVP
 40
0.0
  9
$DIMTIX
 70
     0
  9
$DIMSOXD
 70
     0
  9
$DIMSAH
 70
     1
  9
$DIMBLK1
  1
OPEN
  9
$DIMBLK2
  1
OPEN
  9
$DIMSTYLE
  2
IGA
  9
$DIMCLRD
 70
     0
  9
$DIMCLRE
 70
     0
  9
$DIMCLRT
 70
     0
  9
$DIMTFAC
 40
10.0
  9
$DIMGAP
 40
1.0
  9
$LUNITS
 70
     2
  9
$LUPREC
 70
     3
  9
$SKETCHINC
 40
0.1
  9
$FILLETRAD
 40
50.0
  9
$AUNITS
 70
     0
  9
$AUPREC
 70
     0
  9
$MENU
  1
acad
  9
$ELEVATION
 40
0.0
  9
$PELEVATION
 40
0.0
  9
$THICKNESS
 40
0.0
  9
$LIMCHECK
 70
     0
  9
$BLIPMODE
 70
     0
  9
$CHAMFERA
 40
0.5
  9
$CHAMFERB
 40
0.5
  9
$SKPOLY
 70
     0
  9
$TDCREATE
 40
2450750.6451678229
  9
$TDUPDATE
 40
2454953.6605886458
  9
$TDINDWG
 40
0.0045028009
  9
$TDUSRTIMER
 40
0.0045028009
  9
$USRTIMER
 70
     1
  9
$ANGBASE
 50
0.0
  9
$ANGDIR
 70
     0
  9
$PDMODE
 70
     0
  9
$PDSIZE
 40
0.0
  9
$PLINEWID
 40
0.0
  9
$COORDS
 70
     1
  9
$SPLFRAME
 70
     0
  9
$SPLINETYPE
 70
     6
  9
$SPLINESEGS
 70
     8
  9
$ATTDIA
 70
     0
  9
$ATTREQ
 70
     1
  9
$HANDLING
 70
 10241
  9
$HANDSEED
  5
7D9A
  9
$SURFTAB1
 70
     6
  9
$SURFTAB2
 70
     6
  9
$SURFTYPE
 70
     6
  9
$SURFU
 70
     6
  9
$SURFV
 70
     6
  9
$UCSNAME
  2

  9
$UCSORG
 10
0.0
 20
0.0
 30
0.0
  9
$UCSXDIR
 10
1.0
 20
0.0
 30
0.0
  9
$UCSYDIR
 10
0.0
 20
1.0
 30
0.0
  9
$PUCSNAME
  2

  9
$PUCSORG
 10
0.0
 20
0.0
 30
0.0
  9
$PUCSXDIR
 10
1.0
 20
0.0
 30
0.0
  9
$PUCSYDIR
 10
0.0
 20
1.0
 30
0.0
  9
$USERI1
 70
     0
  9
$USERI2
 70
     0
  9
$USERI3
 70
     0
  9
$USERI4
 70
     0
  9
$USERI5
 70
     0
  9
$USERR1
 40
0.0
  9
$USERR2
 40
0.0
  9
$USERR3
 40
0.0
  9
$USERR4
 40
0.0
  9
$USERR5
 40
0.0
  9
$WORLDVIEW
 70
     1
  9
$SHADEDGE
 70
     3
  9
$SHADEDIF
 70
    70
  9
$TILEMODE
 70
     1
  9
$MAXACTVP
 70
    16
  9
$PLIMCHECK
 70
     0
  9
$PEXTMIN
 10
1.0000000000000000E+020
 20
1.0000000000000000E+020
 30
1.0000000000000000E+020
  9
$PEXTMAX
 10
-1.0000000000000000E+020
 20
-1.0000000000000000E+020
 30
-1.0000000000000000E+020
  9
$PLIMMIN
 10
0.0
 20
0.0
  9
$PLIMMAX
 10
12.0
 20
9.0
  9
$UNITMODE
 70
     0
  9
$VISRETAIN
 70
     0
  9
$PLINEGEN
 70
     0
  9
$PSLTSCALE
 70
     1
  0
ENDSEC
  0
SECTION
  2
TABLES
  0
TABLE
  2
VPORT
 70
     2
  0
VPORT
  2
*ACTIVE
 70
     0
 10
0.0
 20
0.0
 11
1.0
 21
1.0
 12
10034.94414998518
 22
1914.7851276442809
 13
0.0
 23
0.0
 14
10.0
 24
10.0
 15
10.0
 25
10.0
 16
0.0
 26
0.0
 36
1.0
 17
0.0
 27
0.0
 37
0.0
 40
4622.3029633204442
 41
3.1666666666666661
 42
50.0
 43
0.0
 44
0.0
 50
0.0
 51
0.0
 71
     0
 72
   100
 73
     1
 74
     0
 75
     0
 76
     0
 77
     0
 78
     0
  0
ENDTAB
  0
TABLE
  2
LTYPE
 70
     2
  0
LTYPE
  2
CONTINUOUS
 70
     0
  3
Solid line
 72
    65
 73
     0
 40
0.0
  0
LTYPE
  2
CENTER
 70
     0
  3
____ _ ____ _ ____ _ ____ _ ____ _ ____ _ ____ 
 72
    65
 73
     4
 40
2.0
 49
1.25
 49
-0.25
 49
0.25
 49
-0.25
  0
ENDTAB
  0
TABLE
  2
LAYER
 70
     6
  0
LAYER
  2
0
 70
     0
 62
     7
  6
CONTINUOUS
  0
LAYER
  2
3
 70
     0
 62
     2
  6
CONTINUOUS
  0
LAYER
  2
2
 70
     0
 62
     3
  6
CENTER
  0
LAYER
  2
1
 70
     0
 62
     4
  6
CONTINUOUS
  0
LAYER
  2
4
 70
     0
 62
     7
  6
CONTINUOUS
  0
LAYER
  2
DEFPOINTS
 70
     0
 62
     7
  6
CONTINUOUS
  0
ENDTAB
  0
TABLE
  2
STYLE
 70
     1
  0
STYLE
  2
STANDARD
 70
     0
 40
0.0
 41
1.0
 50
0.0
 71
     0
 42
180.0
  3
simplex.shx
  4
extfont.shx
  0
ENDTAB
  0
TABLE
  2
VIEW
 70
     0
  0
ENDTAB
  0
TABLE
  2
UCS
 70
     0
  0
ENDTAB
  0
TABLE
  2
APPID
 70
     1
  0
APPID
  2
ACAD
 70
     0
  0
ENDTAB
  0
TABLE
  2
DIMSTYLE
 70
     1
  0
DIMSTYLE
  2
IGA
 70
     0
  3

  4

  5

  6
OPEN
  7
OPEN
 40
2.0
 41
2.0
 42
0.5
 43
10.0
 44
1.0
 45
0.0
 46
0.0
 47
1.0
 48
1.0
140
3.0
141
0.0
142
0.0
143
0.03937
144
1.0
145
0.0
146
10.0
147
1.0
 71
     0
 72
     0
 73
     0
 74
     0
 75
     0
 76
     0
 77
     1
 78
     8
170
     0
171
     2
172
     0
173
     1
174
     0
175
     0
176
     0
177
     0
178
     0
  0
ENDTAB
  0
ENDSEC
  0
SECTION
  2
BLOCKS
  0
BLOCK
  8
0
  2
$MODEL_SPACE
 70
     0
 10
0.0
 20
0.0
 30
0.0
  3
$MODEL_SPACE
  1

  0
ENDBLK
  5
1B
  8
0
  0
BLOCK
 67
     1
  8
0
  2
$PAPER_SPACE
 70
     0
 10
0.0
 20
0.0
 30
0.0
  3
$PAPER_SPACE
  1

  0
ENDBLK
  5
18
 67
     1
  8
0
  0
BLOCK
  8
0
  2
_OPEN
 70
     0
 10
0.0
 20
0.0
 30
0.0
  3
_OPEN
  1

  0
LINE
  5
7AC8
  8
0
  6
BYBLOCK
 62
     0
 10
-1.0
 20
0.166667
 30
0.0
 11
0.0
 21
0.0
 31
0.0
  0
LINE
  5
7AC9
  8
0
  6
BYBLOCK
 62
     0
 10
0.0
 20
0.0
 30
0.0
 11
-1.0
 21
-0.166667
 31
0.0
  0
LINE
  5
7ACA
  8
0
  6
BYBLOCK
 62
     0
 10
0.0
 20
0.0
 30
0.0
 11
-1.0
 21
0.0
 31
0.0
  0
ENDBLK
  5
7ACB
  8
0
  0
BLOCK
  8
0
  2
*D1
 70
     1
 10
0.0
 20
0.0
 30
0.0
  3
*D1
  1

  0
LINE
  5
7CE8
  8
3
  6
CONTINUOUS
 62
     0
 10
2852.8915865350032
 20
3914.939601
 30
0.0
 11
2852.8915865350032
 21
3568.8402219999998
 31
0.0
  0
LINE
  5
7CE9
  8
3
  6
CONTINUOUS
 62
     0
 10
3512.8915865350041
 20
3815.3604059999989
 30
0.0
 11
3512.8915865350041
 21
3568.8402219999998
 31
0.0
  0
LINE
  5
7CEA
  8
3
  6
CONTINUOUS
 62
     0
 10
2942.8915865350032
 20
3613.8402219999989
 30
0.0
 11
3422.8915865350041
 21
3613.8402219999989
 31
0.0
  0
INSERT
  5
7CEB
  8
3
  6
CONTINUOUS
 62
     0
  2
_OPEN
 10
2852.8915865350032
 20
3613.8402219999989
 30
0.0
 41
90.0
 42
90.0
 43
90.0
 50
180.0
  0
INSERT
  5
7CEC
  8
3
  6
CONTINUOUS
 62
     0
  2
_OPEN
 10
3512.8915865350041
 20
3613.8402219999989
 30
0.0
 41
90.0
 42
90.0
 43
90.0
  0
TEXT
  8
3
  40
135
  5
7D87
  62
0
  72
0
  71
0
 10
2934.32
 20
3487.39
 30
0.000000
  1
660
  0
POINT
  5
7CEE
  8
DEFPOINTS
  6
CONTINUOUS
 62
     0
 10
2852.8915865350032
 20
3937.4396009999991
 30
0.0
  0
POINT
  5
7CEF
  8
DEFPOINTS
  6
CONTINUOUS
 62
     0
 10
3512.8915865350041
 20
3837.8604059999998
 30
0.0
  0
POINT
  5
7CF0
  8
DEFPOINTS
  6
CONTINUOUS
 62
     0
 10
3512.8915865350041
 20
3613.8402219999989
 30
0.0
  0
ENDBLK
  5
7AD8
  8
0
  0
BLOCK
  8
0
  2
*D2
 70
     1
 10
0.0
 20
0.0
 30
0.0
  3
*D2
  1

  0
LINE
  5
7CF1
  8
3
  6
CONTINUOUS
 62
     0
 10
5212.8915865350036
 20
3914.939601
 30
0.0
 11
5212.8915865350036
 21
3568.8402219999998
 31
0.0
  0
LINE
  5
7CF2
  8
3
  6
CONTINUOUS
 62
     0
 10
3602.8915865350041
 20
3613.8402219999989
 30
0.0
 11
5122.8915865350036
 21
3613.8402219999989
 31
0.0
  0
INSERT
  5
7CF3
  8
3
  6
CONTINUOUS
 62
     0
  2
_OPEN
 10
3512.8915865350041
 20
3613.8402219999989
 30
0.0
 41
90.0
 42
90.0
 43
90.0
 50
180.0
  0
INSERT
  5
7CF4
  8
3
  6
CONTINUOUS
 62
     0
  2
_OPEN
 10
5212.8915865350036
 20
3613.8402219999989
 30
0.0
 41
90.0
 42
90.0
 43
90.0
  0
TEXT
  8
3
  40
135
  5
7D88
  62
0
  72
0
  71
0
 10
4092.89
 20
3487.39
 30
0.000000
  1
1700
  0
POINT
  5
7CF6
  8
DEFPOINTS
  6
CONTINUOUS
 62
     0
 10
3512.8915865350041
 20
3837.8604059999998
 30
0.0
  0
POINT
  5
7CF7
  8
DEFPOINTS
  6
CONTINUOUS
 62
     0
 10
5212.8915865350036
 20
3937.4396009999991
 30
0.0
  0
POINT
  5
7CF8
  8
DEFPOINTS
  6
CONTINUOUS
 62
     0
 10
5212.8915865350036
 20
3613.8402219999989
 30
0.0
  0
ENDBLK
  5
7AE4
  8
0
  0
BLOCK
  8
0
  2
*D3
 70
     1
 10
0.0
 20
0.0
 30
0.0
  3
*D3
  1

  0
LINE
  5
7CF9
  8
3
  6
CONTINUOUS
 62
     0
 10
2730.3915865350018
 20
5244.4396009999991
 30
0.0
 11
2373.3224515350048
 21
5244.4396009999991
 31
0.0
  0
LINE
  5
7CFA
  8
3
  6
CONTINUOUS
 62
     0
 10
2730.3915865350018
 20
4094.439601
 30
0.0
 11
2373.3224515350048
 21
4094.439601
 31
0.0
  0
LINE
  5
7CFB
  8
3
  6
CONTINUOUS
 62
     0
 10
2418.3224515350062
 20
5154.4396009999991
 30
0.0
 11
2418.3224515350048
 21
4184.4396009999991
 31
0.0
  0
INSERT
  5
7CFC
  8
3
  6
CONTINUOUS
 62
     0
  2
_OPEN
 10
2418.3224515350062
 20
5244.4396009999991
 30
0.0
 41
90.0
 42
90.0
 43
90.0
 50
90.0
  0
INSERT
  5
7CFD
  8
3
  6
CONTINUOUS
 62
     0
  2
_OPEN
 10
2418.3224515350048
 20
4094.439601
 30
0.0
 41
90.0
 42
90.0
 43
90.0
 50
270.0
  0
TEXT
  8
3
  40
135
  5
7D89
  62
0
  72
0
  71
0
 10
2035.82
 20
4368.65
 30
0.000000
  1
1150
  0
POINT
  5
7CFF
  8
DEFPOINTS
  6
CONTINUOUS
 62
     0
 10
2752.8915865350032
 20
5244.4396009999991
 30
0.0
  0
POINT
  5
7D00
  8
DEFPOINTS
  6
CONTINUOUS
 62
     0
 10
2752.8915865350032
 20
4094.439601
 30
0.0
  0
POINT
  5
7D01
  8
DEFPOINTS
  6
CONTINUOUS
 62
     0
 10
2418.3224515350048
 20
4094.439601
 30
0.0
  0
ENDBLK
  5
7AF1
  8
0
  0
BLOCK
  8
0
  2
*D4
 70
     1
 10
0.0
 20
0.0
 30
0.0
  3
*D4
  1

  0
LINE
  5
7D02
  8
3
  6
CONTINUOUS
 62
     0
 10
3490.3915865350041
 20
6097.439601
 30
0.0
 11
1837.088122148306
 21
6097.4396010000009
 31
0.0
  0
LINE
  5
7D03
  8
3
  6
CONTINUOUS
 62
     0
 10
2823.700847535003
 20
5292.439601
 30
0.0
 11
1837.088122148305
 21
5292.4396010000009
 31
0.0
  0
LINE
  5
7D04
  8
3
  6
CONTINUOUS
 62
     0
 10
1882.088122148306
 20
6007.4396010000009
 30
0.0
 11
1882.088122148306
 21
5382.4396010000009
 31
0.0
  0
INSERT
  5
7D05
  8
3
  6
CONTINUOUS
 62
     0
  2
_OPEN
 10
1882.088122148306
 20
6097.4396010000009
 30
0.0
 41
90.0
 42
90.0
 43
90.0
 50
90.0
  0
INSERT
  5
7D06
  8
3
  6
CONTINUOUS
 62
     0
  2
_OPEN
 10
1882.088122148306
 20
5292.4396010000009
 30
0.0
 41
90.0
 42
90.0
 43
90.0
 50
270.0
  0
TEXT
  8
3
  40
135
  5
7D8A
  62
0
  72
0
  71
0
 10
1499.59
 20
5475.18
 30
0.000000
  1
805
  0
POINT
  5
7D08
  8
DEFPOINTS
  6
CONTINUOUS
 62
     0
 10
3512.8915865350041
 20
6097.439601
 30
0.0
  0
POINT
  5
7D09
  8
DEFPOINTS
  6
CONTINUOUS
 62
     0
 10
2846.200847535003
 20
5292.439601
 30
0.0
  0
POINT
  5
7D0A
  8
DEFPOINTS
  6
CONTINUOUS
 62
     0
 10
1882.088122148306
 20
5292.4396010000009
 30
0.0
  0
ENDBLK
  5
7CC4
  8
0
  0
BLOCK
  8
0
  2
*D5
 70
     1
 10
0.0
 20
0.0
 30
0.0
  3
*D5
  1

  0
LINE
  5
7D0B
  8
3
  6
CONTINUOUS
 62
     0
 10
2830.3915865350018
 20
3937.4396009999991
 30
0.0
 11
1837.088122148305
 21
3937.4396009999991
 31
0.0
  0
LINE
  5
7D0C
  8
3
  6
CONTINUOUS
 62
     0
 10
1882.088122148305
 20
5202.4396010000009
 30
0.0
 11
1882.088122148305
 21
4027.439601
 31
0.0
  0
INSERT
  5
7D0D
  8
3
  6
CONTINUOUS
 62
     0
  2
_OPEN
 10
1882.088122148305
 20
5292.4396010000009
 30
0.0
 41
90.0
 42
90.0
 43
90.0
 50
90.0
  0
INSERT
  5
7D0E
  8
3
  6
CONTINUOUS
 62
     0
  2
_OPEN
 10
1882.088122148305
 20
3937.4396009999991
 30
0.0
 41
90.0
 42
90.0
 43
90.0
 50
270.0
  0
TEXT
  8
3
  40
135
  5
7D8B
  62
0
  72
0
  71
0
 10
1499.59
 20
4375.99
 30
0.000000
  1
1355
  0
POINT
  5
7D10
  8
DEFPOINTS
  6
CONTINUOUS
 62
     0
 10
2846.200847535003
 20
5292.439601
 30
0.0
  0
POINT
  5
7D11
  8
DEFPOINTS
  6
CONTINUOUS
 62
     0
 10
2852.8915865350032
 20
3937.4396009999991
 30
0.0
  0
POINT
  5
7D12
  8
DEFPOINTS
  6
CONTINUOUS
 62
     0
 10
1882.088122148305
 20
3937.4396009999991
 30
0.0
  0
ENDBLK
  5
7C9E
  8
0
  0
BLOCK
  8
0
  2
*D6
 70
     1
 10
0.0
 20
0.0
 30
0.0
  3
*D6
  1

  0
LINE
  5
7D13
  8
3
  6
CONTINUOUS
 62
     0
 10
3490.3915865350041
 20
6097.439601
 30
0.0
 11
1525.938167148305
 21
6097.4396010000009
 31
0.0
  0
LINE
  5
7D14
  8
3
  6
CONTINUOUS
 62
     0
 10
2830.3915865350018
 20
3937.4396009999991
 30
0.0
 11
1525.938167148304
 21
3937.4396009999991
 31
0.0
  0
LINE
  5
7D15
  8
3
  6
CONTINUOUS
 62
     0
 10
1570.938167148305
 20
6007.4396010000009
 30
0.0
 11
1570.938167148304
 21
4027.439601
 31
0.0
  0
INSERT
  5
7D16
  8
3
  6
CONTINUOUS
 62
     0
  2
_OPEN
 10
1570.938167148305
 20
6097.4396010000009
 30
0.0
 41
90.0
 42
90.0
 43
90.0
 50
90.0
  0
INSERT
  5
7D17
  8
3
  6
CONTINUOUS
 62
     0
  2
_OPEN
 10
1570.938167148304
 20
3937.4396009999991
 30
0.0
 41
90.0
 42
90.0
 43
90.0
 50
270.0
  0
TEXT
  8
3
  40
135
  5
7D8C
  62
0
  72
0
  71
0
 10
1188.44
 20
4847.91
 30
0.000000
  1
2160
  0
POINT
  5
7D19
  8
DEFPOINTS
  6
CONTINUOUS
 62
     0
 10
3512.8915865350041
 20
6097.439601
 30
0.0
  0
POINT
  5
7D1A
  8
DEFPOINTS
  6
CONTINUOUS
 62
     0
 10
2852.8915865350032
 20
3937.4396009999991
 30
0.0
  0
POINT
  5
7D1B
  8
DEFPOINTS
  6
CONTINUOUS
 62
     0
 10
1570.938167148304
 20
3937.4396009999991
 30
0.0
  0
ENDBLK
  5
7CB9
  8
0
  0
BLOCK
  8
0
  2
*D7
 70
     1
 10
0.0
 20
0.0
 30
0.0
  3
*D7
  1

  0
LINE
  5
7D1C
  8
3
  6
CONTINUOUS
 62
     0
 10
2752.8915865350032
 20
5319.939601
 30
0.0
 11
2752.8915865350032
 21
6415.2929389999999
 31
0.0
  0
LINE
  5
7D1D
  8
3
  6
CONTINUOUS
 62
     0
 10
3512.8915865350041
 20
6119.3584549999996
 30
0.0
 11
3512.8915865350041
 21
6415.2929389999999
 31
0.0
  0
LINE
  5
7D1E
  8
3
  6
CONTINUOUS
 62
     0
 10
2842.8915865350032
 20
6370.2929389999999
 30
0.0
 11
3422.8915865350041
 21
6370.2929389999999
 31
0.0
  0
INSERT
  5
7D1F
  8
3
  6
CONTINUOUS
 62
     0
  2
_OPEN
 10
2752.8915865350032
 20
6370.2929389999999
 30
0.0
 41
90.0
 42
90.0
 43
90.0
 50
180.0
  0
INSERT
  5
7D20
  8
3
  6
CONTINUOUS
 62
     0
  2
_OPEN
 10
3512.8915865350041
 20
6370.2929389999999
 30
0.0
 41
90.0
 42
90.0
 43
90.0
  0
TEXT
  8
3
  40
135
  5
7D8D
  62
0
  72
0
  71
0
 10
2853.18
 20
6243.84
 30
0.000000
  1
760
  0
POINT
  5
7D22
  8
DEFPOINTS
  6
CONTINUOUS
 62
     0
 10
2752.8915865350032
 20
5297.439601
 30
0.0
  0
POINT
  5
7D23
  8
DEFPOINTS
  6
CONTINUOUS
 62
     0
 10
3512.8915865350041
 20
6096.8584549999987
 30
0.0
  0
POINT
  5
7D24
  8
DEFPOINTS
  6
CONTINUOUS
 62
     0
 10
3512.8915865350041
 20
6370.2929389999999
 30
0.0
  0
ENDBLK
  5
7B24
  8
0
  0
BLOCK
  8
0
  2
*D8
 70
     1
 10
0.0
 20
0.0
 30
0.0
  3
*D8
  1

  0
LINE
  5
7D25
  8
3
  6
CONTINUOUS
 62
     0
 10
4481.8915865350036
 20
5314.939601
 30
0.0
 11
4481.8915865350036
 21
6415.2929389999999
 31
0.0
  0
LINE
  5
7D26
  8
3
  6
CONTINUOUS
 62
     0
 10
3602.8915865350041
 20
6370.2929389999999
 30
0.0
 11
4391.8915865350036
 21
6370.2929389999999
 31
0.0
  0
INSERT
  5
7D27
  8
3
  6
CONTINUOUS
 62
     0
  2
_OPEN
 10
3512.8915865350041
 20
6370.2929389999999
 30
0.0
 41
90.0
 42
90.0
 43
90.0
 50
180.0
  0
INSERT
  5
7D28
  8
3
  6
CONTINUOUS
 62
     0
  2
_OPEN
 10
4481.8915865350036
 20
6370.2929389999999
 30
0.0
 41
90.0
 42
90.0
 43
90.0
  0
TEXT
  8
3
  40
135
  5
7D8E
  62
0
  72
0
  71
0
 10
3727.39
 20
6243.84
 30
0.000000
  1
969
  0
POINT
  5
7D2A
  8
DEFPOINTS
  6
CONTINUOUS
 62
     0
 10
3512.8915865350041
 20
6096.8584549999987
 30
0.0
  0
POINT
  5
7D2B
  8
DEFPOINTS
  6
CONTINUOUS
 62
     0
 10
4481.8915865350036
 20
5292.439601
 30
0.0
  0
POINT
  5
7D2C
  8
DEFPOINTS
  6
CONTINUOUS
 62
     0
 10
4481.8915865350036
 20
6370.2929389999999
 30
0.0
  0
ENDBLK
  5
7C71
  8
0
  0
BLOCK
  8
0
  2
*D9
 70
     1
 10
0.0
 20
0.0
 30
0.0
  3
*D9
  1

  0
LINE
  5
7D2D
  8
3
  6
CONTINUOUS
 62
     0
 10
2852.8915865350032
 20
8971.981914355707
 30
0.0
 11
2852.8915865350032
 21
8500.580975355706
 31
0.0
  0
LINE
  5
7D2E
  8
3
  6
CONTINUOUS
 62
     0
 10
5212.8915865350036
 20
8971.981914355707
 30
0.0
 11
5212.8915865350036
 21
8500.580975355706
 31
0.0
  0
LINE
  5
7D2F
  8
3
  6
CONTINUOUS
 62
     0
 10
2942.8915865350032
 20
8545.580975355706
 30
0.0
 11
5122.8915865350036
 21
8545.580975355706
 31
0.0
  0
INSERT
  5
7D30
  8
3
  6
CONTINUOUS
 62
     0
  2
_OPEN
 10
2852.8915865350032
 20
8545.580975355706
 30
0.0
 41
90.0
 42
90.0
 43
90.0
 50
180.0
  0
INSERT
  5
7D31
  8
3
  6
CONTINUOUS
 62
     0
  2
_OPEN
 10
5212.8915865350036
 20
8545.580975355706
 30
0.0
 41
90.0
 42
90.0
 43
90.0
  0
TEXT
  8
3
  40
135
  5
7D8F
  62
0
  72
0
  71
0
 10
3713.96
 20
8419.13
 30
0.000000
  1
2360
  0
POINT
  5
7D33
  8
DEFPOINTS
  6
CONTINUOUS
 62
     0
 10
2852.8915865350032
 20
8994.481914355707
 30
0.0
  0
POINT
  5
7D34
  8
DEFPOINTS
  6
CONTINUOUS
 62
     0
 10
5212.8915865350036
 20
8994.481914355707
 30
0.0
  0
POINT
  5
7D35
  8
DEFPOINTS
  6
CONTINUOUS
 62
     0
 10
5212.8915865350036
 20
8545.580975355706
 30
0.0
  0
ENDBLK
  5
7B3D
  8
0
  0
BLOCK
  8
0
  2
*D10
 70
     1
 10
0.0
 20
0.0
 30
0.0
  3
*D10
  1

  0
LINE
  5
7D36
  8
3
  6
CONTINUOUS
 62
     0
 10
5235.3915865350036
 20
10174.4819143557
 30
0.0
 11
5715.2387415350049
 21
10174.4819143557
 31
0.0
  0
LINE
  5
7D37
  8
3
  6
CONTINUOUS
 62
     0
 10
5235.3915865350036
 20
8994.481914355707
 30
0.0
 11
5715.2387415350049
 21
8994.481914355707
 31
0.0
  0
LINE
  5
7D38
  8
3
  6
CONTINUOUS
 62
     0
 10
5670.2387415350049
 20
10084.4819143557
 30
0.0
 11
5670.2387415350049
 21
9084.481914355707
 31
0.0
  0
INSERT
  5
7D39
  8
3
  6
CONTINUOUS
 62
     0
  2
_OPEN
 10
5670.2387415350049
 20
10174.4819143557
 30
0.0
 41
90.0
 42
90.0
 43
90.0
 50
90.0
  0
INSERT
  5
7D3A
  8
3
  6
CONTINUOUS
 62
     0
  2
_OPEN
 10
5670.2387415350049
 20
8994.481914355707
 30
0.0
 41
90.0
 42
90.0
 43
90.0
 50
270.0
  0
TEXT
  8
3
  40
135
  5
7D90
  62
0
  72
0
  71
0
 10
5287.74
 20
9414.56
 30
0.000000
  1
1180
  0
POINT
  5
7D3C
  8
DEFPOINTS
  6
CONTINUOUS
 62
     0
 10
5212.8915865350036
 20
10174.4819143557
 30
0.0
  0
POINT
  5
7D3D
  8
DEFPOINTS
  6
CONTINUOUS
 62
     0
 10
5212.8915865350036
 20
8994.481914355707
 30
0.0
  0
POINT
  5
7D3E
  8
DEFPOINTS
  6
CONTINUOUS
 62
     0
 10
5670.2387415350049
 20
8994.481914355707
 30
0.0
  0
ENDBLK
  5
7B4A
  8
0
  0
BLOCK
  8
0
  2
*D11
 70
     1
 10
0.0
 20
0.0
 30
0.0
  3
*D11
  1

  0
LINE
  5
7D3F
  8
3
  6
CONTINUOUS
 62
     0
 10
7217.7486418350854
 20
6123.1396009999999
 30
0.0
 11
7217.7486418350854
 21
6365.9753970000002
 31
0.0
  0
LINE
  5
7D40
  8
3
  6
CONTINUOUS
 62
     0
 10
8067.7486418350863
 20
6123.1396009999999
 30
0.0
 11
8067.7486418350863
 21
6365.9753970000002
 31
0.0
  0
LINE
  5
7D41
  8
3
  6
CONTINUOUS
 62
     0
 10
7307.7486418350863
 20
6320.9753970000002
 30
0.0
 11
7977.7486418350863
 21
6320.9753970000002
 31
0.0
  0
INSERT
  5
7D42
  8
3
  6
CONTINUOUS
 62
     0
  2
_OPEN
 10
7217.7486418350854
 20
6320.9753970000002
 30
0.0
 41
90.0
 42
90.0
 43
90.0
 50
180.0
  0
INSERT
  5
7D43
  8
3
  6
CONTINUOUS
 62
     0
  2
_OPEN
 10
8067.7486418350863
 20
6320.9753970000002
 30
0.0
 41
90.0
 42
90.0
 43
90.0
  0
TEXT
  8
3
  40
135
  5
7D91
  62
0
  72
0
  71
0
 10
7352.13
 20
6194.53
 30
0.000000
  1
850
  0
POINT
  5
7D45
  8
DEFPOINTS
  6
CONTINUOUS
 62
     0
 10
7217.7486418350854
 20
6100.6396010000008
 30
0.0
  0
POINT
  5
7D46
  8
DEFPOINTS
  6
CONTINUOUS
 62
     0
 10
8067.7486418350863
 20
6100.6396010000008
 30
0.0
  0
POINT
  5
7D47
  8
DEFPOINTS
  6
CONTINUOUS
 62
     0
 10
8067.7486418350863
 20
6320.9753970000002
 30
0.0
  0
ENDBLK
  5
7B5A
  8
0
  0
BLOCK
  8
0
  2
*D12
 70
     1
 10
0.0
 20
0.0
 30
0.0
  3
*D12
  1

  0
LINE
  5
7D48
  8
3
  6
CONTINUOUS
 62
     0
 10
6882.7486418350854
 20
5692.939601
 30
0.0
 11
6882.7486418350854
 21
6635.2002279999988
 31
0.0
  0
LINE
  5
7D49
  8
3
  6
CONTINUOUS
 62
     0
 10
7642.7486418350854
 20
6548.8468460000004
 30
0.0
 11
7642.7486418350854
 21
6635.2002279999988
 31
0.0
  0
LINE
  5
7D4A
  8
3
  6
CONTINUOUS
 62
     0
 10
6972.7486418350854
 20
6590.2002279999997
 30
0.0
 11
7552.7486418350863
 21
6590.2002279999997
 31
0.0
  0
INSERT
  5
7D4B
  8
3
  6
CONTINUOUS
 62
     0
  2
_OPEN
 10
6882.7486418350854
 20
6590.2002279999997
 30
0.0
 41
90.0
 42
90.0
 43
90.0
 50
180.0
  0
INSERT
  5
7D4C
  8
3
  6
CONTINUOUS
 62
     0
  2
_OPEN
 10
7642.7486418350854
 20
6590.2002279999997
 30
0.0
 41
90.0
 42
90.0
 43
90.0
  0
TEXT
  8
3
  40
135
  5
7D92
  62
0
  72
0
  71
0
 10
7044.89
 20
6576.25
 30
0.000000
  1
MAX
  0
TEXT
  8
3
  40
135
  5
7D93
  62
0
  72
0
  71
0
 10
7044.89
 20
6400.75
 30
0.000000
  1
850
  0
POINT
  5
7D4E
  8
DEFPOINTS
  6
CONTINUOUS
 62
     0
 10
6882.7486418350854
 20
5670.439601
 30
0.0
  0
POINT
  5
7D4F
  8
DEFPOINTS
  6
CONTINUOUS
 62
     0
 10
7642.7486418350854
 20
6526.3468460000004
 30
0.0
  0
POINT
  5
7D50
  8
DEFPOINTS
  6
CONTINUOUS
 62
     0
 10
7642.7486418350854
 20
6590.2002279999997
 30
0.0
  0
ENDBLK
  5
7C5B
  8
0
  0
BLOCK
  8
0
  2
*D13
 70
     1
 10
0.0
 20
0.0
 30
0.0
  3
*D13
  1

  0
LINE
  5
7D51
  8
3
  6
CONTINUOUS
 62
     0
 10
8170.7486418350863
 20
5924.939601
 30
0.0
 11
8170.7486418350863
 21
6635.2002279999988
 31
0.0
  0
LINE
  5
7D52
  8
3
  6
CONTINUOUS
 62
     0
 10
7732.7486418350863
 20
6590.2002279999997
 30
0.0
 11
8080.7486418350863
 21
6590.2002279999997
 31
0.0
  0
TEXT
  8
3
  40
135
  5
7D94
  62
0
  72
0
  71
0
 10
7620.25
 20
6463.75
 30
0.000000
  1
528
  0
INSERT
  5
7D54
  8
3
  6
CONTINUOUS
 62
     0
  2
_OPEN
 10
7642.7486418350854
 20
6590.2002279999997
 30
0.0
 41
90.0
 42
90.0
 43
90.0
 50
180.0
  0
INSERT
  5
7D55
  8
3
  6
CONTINUOUS
 62
     0
  2
_OPEN
 10
8170.7486418350863
 20
6590.2002279999997
 30
0.0
 41
90.0
 42
90.0
 43
90.0
  0
POINT
  5
7D56
  8
DEFPOINTS
  6
CONTINUOUS
 62
     0
 10
7642.7486418350854
 20
6526.3468460000004
 30
0.0
  0
POINT
  5
7D57
  8
DEFPOINTS
  6
CONTINUOUS
 62
     0
 10
8170.7486418350863
 20
5902.4396010000009
 30
0.0
  0
POINT
  5
7D58
  8
DEFPOINTS
  6
CONTINUOUS
 62
     0
 10
8170.7486418350863
 20
6590.2002279999997
 30
0.0
  0
ENDBLK
  5
7C36
  8
0
  0
BLOCK
  8
0
  2
*D14
 70
     1
 10
0.0
 20
0.0
 30
0.0
  3
*D14
  1

  0
LINE
  5
7D59
  8
3
  6
CONTINUOUS
 62
     0
 10
8193.2486418350873
 20
5852.439601
 30
0.0
 11
8563.1923708350878
 21
5852.439601
 31
0.0
  0
LINE
  5
7D5A
  8
3
  6
CONTINUOUS
 62
     0
 10
8193.2486418350873
 20
4732.439601
 30
0.0
 11
8563.1923708350878
 21
4732.439601
 31
0.0
  0
LINE
  5
7D5B
  8
3
  6
CONTINUOUS
 62
     0
 10
8518.192370835086
 20
5762.439601
 30
0.0
 11
8518.192370835086
 21
4822.439601
 31
0.0
  0
INSERT
  5
7D5C
  8
3
  6
CONTINUOUS
 62
     0
  2
_OPEN
 10
8518.192370835086
 20
5852.439601
 30
0.0
 41
90.0
 42
90.0
 43
90.0
 50
90.0
  0
INSERT
  5
7D5D
  8
3
  6
CONTINUOUS
 62
     0
  2
_OPEN
 10
8518.192370835086
 20
4732.439601
 30
0.0
 41
90.0
 42
90.0
 43
90.0
 50
270.0
  0
TEXT
  8
3
  40
135
  5
7D95
  62
0
  72
0
  71
0
 10
8135.69
 20
5139.00
 30
0.000000
  1
φ1120
  0
POINT
  5
7D5F
  8
DEFPOINTS
  6
CONTINUOUS
 62
     0
 10
8170.7486418350863
 20
5852.439601
 30
0.0
  0
POINT
  5
7D60
  8
DEFPOINTS
  6
CONTINUOUS
 62
     0
 10
8170.7486418350863
 20
4732.439601
 30
0.0
  0
POINT
  5
7D61
  8
DEFPOINTS
  6
CONTINUOUS
 62
     0
 10
8518.192370835086
 20
4732.439601
 30
0.0
  0
ENDBLK
  5
7C66
  8
0
  0
BLOCK
  8
0
  2
*D15
 70
     1
 10
0.0
 20
0.0
 30
0.0
  3
*D15
  1

  0
LINE
  5
7D62
  8
3
  6
CONTINUOUS
 62
     0
 10
6955.7486418350863
 20
3914.939601
 30
0.0
 11
6955.7486418350863
 21
3590.0023719999999
 31
0.0
  0
LINE
  5
7D63
  8
3
  6
CONTINUOUS
 62
     0
 10
7642.7486418350854
 20
3873.9779119999998
 30
0.0
 11
7642.7486418350854
 21
3590.0023719999999
 31
0.0
  0
LINE
  5
7D64
  8
3
  6
CONTINUOUS
 62
     0
 10
6865.7486418350863
 20
3635.0023719999999
 30
0.0
 11
6775.7486418350854
 21
3635.0023719999999
 31
0.0
  0
LINE
  5
7D65
  8
3
  6
CONTINUOUS
 62
     0
 10
7732.7486418350863
 20
3635.0023719999999
 30
0.0
 11
7822.7486418350854
 21
3635.0023719999999
 31
0.0
  0
LINE
  5
7D66
  8
3
  6
CONTINUOUS
 62
     0
 10
6955.7486418350863
 20
3635.0023719999999
 30
0.0
 11
7642.7486418350854
 21
3635.0023719999999
 31
0.0
  0
INSERT
  5
7D67
  8
3
  6
CONTINUOUS
 62
     0
  2
_OPEN
 10
6955.7486418350863
 20
3635.0023719999999
 30
0.0
 41
90.0
 42
90.0
 43
90.0
  0
INSERT
  5
7D68
  8
3
  6
CONTINUOUS
 62
     0
  2
_OPEN
 10
7642.7486418350854
 20
3635.0023719999999
 30
0.0
 41
90.0
 42
90.0
 43
90.0
 50
180.0
  0
TEXT
  8
3
  40
135
  5
7D96
  62
0
  72
0
  71
0
 10
7064.18
 20
3508.55
 30
0.000000
  1
687
  0
POINT
  5
7D6A
  8
DEFPOINTS
  6
CONTINUOUS
 62
     0
 10
6955.7486418350863
 20
3937.4396009999991
 30
0.0
  0
POINT
  5
7D6B
  8
DEFPOINTS
  6
CONTINUOUS
 62
     0
 10
7642.7486418350854
 20
3896.4779119999989
 30
0.0
  0
POINT
  5
7D6C
  8
DEFPOINTS
  6
CONTINUOUS
 62
     0
 10
7642.7486418350854
 20
3635.0023719999999
 30
0.0
  0
ENDBLK
  5
7BA5
  8
0
  0
BLOCK
  8
0
  2
*D16
 70
     1
 10
0.0
 20
0.0
 30
0.0
  3
*D16
  1

  0
LINE
  5
7D6D
  8
3
  6
CONTINUOUS
 62
     0
 10
8135.7486418350854
 20
3914.939601
 30
0.0
 11
8135.7486418350854
 21
3590.0023719999999
 31
0.0
  0
LINE
  5
7D6E
  8
3
  6
CONTINUOUS
 62
     0
 10
7732.7486418350863
 20
3635.0023719999999
 30
0.0
 11
8045.7486418350863
 21
3635.0023719999999
 31
0.0
  0
TEXT
  8
3
  40
135
  5
7D97
  62
0
  72
0
  71
0
 10
7606.13
 20
3507.15
 30
0.000000
  1
493
  0
INSERT
  5
7D70
  8
3
  6
CONTINUOUS
 62
     0
  2
_OPEN
 10
7642.7486418350854
 20
3635.0023719999999
 30
0.0
 41
90.0
 42
90.0
 43
90.0
 50
180.0
  0
INSERT
  5
7D71
  8
3
  6
CONTINUOUS
 62
     0
  2
_OPEN
 10
8135.7486418350854
 20
3635.0023719999999
 30
0.0
 41
90.0
 42
90.0
 43
90.0
  0
POINT
  5
7D72
  8
DEFPOINTS
  6
CONTINUOUS
 62
     0
 10
7642.7486418350854
 20
3896.4779119999989
 30
0.0
  0
POINT
  5
7D73
  8
DEFPOINTS
  6
CONTINUOUS
 62
     0
 10
8135.7486418350854
 20
3937.4396009999991
 30
0.0
  0
POINT
  5
7D74
  8
DEFPOINTS
  6
CONTINUOUS
 62
     0
 10
8135.7486418350854
 20
3635.0023719999999
 30
0.0
  0
ENDBLK
  5
7BCA
  8
0
  0
BLOCK
  8
0
  2
*D17
 70
     1
 10
0.0
 20
0.0
 30
0.0
  3
*D17
  1

  0
LINE
  5
7D75
  8
3
  6
CONTINUOUS
 62
     0
 10
2823.700847535003
 20
5292.439601
 30
0.0
 11
2105.837818535003
 21
5292.439601
 31
0.0
  0
LINE
  5
7D76
  8
3
  6
CONTINUOUS
 62
     0
 10
2730.3915865350018
 20
4094.439601
 30
0.0
 11
2105.837818535003
 21
4094.439601
 31
0.0
  0
LINE
  5
7D77
  8
3
  6
CONTINUOUS
 62
     0
 10
2150.837818535003
 20
5202.439601
 30
0.0
 11
2150.837818535003
 21
4184.4396009999991
 31
0.0
  0
INSERT
  5
7D78
  8
3
  6
CONTINUOUS
 62
     0
  2
_OPEN
 10
2150.837818535003
 20
5292.439601
 30
0.0
 41
90.0
 42
90.0
 43
90.0
 50
90.0
  0
INSERT
  5
7D79
  8
3
  6
CONTINUOUS
 62
     0
  2
_OPEN
 10
2150.837818535003
 20
4094.439601
 30
0.0
 41
90.0
 42
90.0
 43
90.0
 50
270.0
  0
TEXT
  8
3
  40
135
  5
7D98
  62
0
  72
0
  71
0
 10
1768.34
 20
4393.29
 30
0.000000
  1
1198
  0
POINT
  5
7D7B
  8
DEFPOINTS
  6
CONTINUOUS
 62
     0
 10
2846.200847535003
 20
5292.439601
 30
0.0
  0
POINT
  5
7D7C
  8
DEFPOINTS
  6
CONTINUOUS
 62
     0
 10
2752.8915865350032
 20
4094.439601
 30
0.0
  0
POINT
  5
7D7D
  8
DEFPOINTS
  6
CONTINUOUS
 62
     0
 10
2150.837818535003
 20
4094.439601
 30
0.0
  0
ENDBLK
  5
7C27
  8
0
  0
BLOCK
  8
0
  2
*D18
 70
     1
 10
0.0
 20
0.0
 30
0.0
  3
*D18
  1

  0
LINE
  5
7D7E
  8
3
 62
     0
 10
2752.8915865350032
 20
5319.939601
 30
0.0
 11
2752.8915865350032
 21
6680.9792670694987
 31
0.0
  0
LINE
  5
7D7F
  8
3
 62
     0
 10
5212.8915865350036
 20
4084.939601
 30
0.0
 11
5212.8915865350036
 21
6680.9792670694987
 31
0.0
  0
LINE
  5
7D80
  8
3
 62
     0
 10
2842.8915865350032
 20
6635.9792670694978
 30
0.0
 11
5122.8915865350036
 21
6635.9792670694978
 31
0.0
  0
INSERT
  5
7D81
  8
3
 62
     0
  2
_OPEN
 10
2752.8915865350032
 20
6635.9792670694978
 30
0.0
 41
90.0
 42
90.0
 43
90.0
 50
180.0
  0
INSERT
  5
7D82
  8
3
 62
     0
  2
_OPEN
 10
5212.8915865350036
 20
6635.9792670694978
 30
0.0
 41
90.0
 42
90.0
 43
90.0
  0
TEXT
  8
3
  40
135
  5
7D99
  62
0
  72
0
  71
0
 10
3688.50
 20
6509.53
 30
0.000000
  1
2460
  0
POINT
  5
7D84
  8
DEFPOINTS
 62
     0
 10
2752.8915865350032
 20
5297.439601
 30
0.0
  0
POINT
  5
7D85
  8
DEFPOINTS
 62
     0
 10
5212.8915865350036
 20
4062.439601
 30
0.0
  0
POINT
  5
7D86
  8
DEFPOINTS
 62
     0
 10
5212.8915865350036
 20
6635.9792670694978
 30
0.0
  0
ENDBLK
  5
7C89
  8
0
  0
ENDSEC
  0
SECTION
  2
ENTITIES
  0
CIRCLE
  5
7A64
  8
1
  6
CONTINUOUS
 10
3512.8915865350041
 20
5292.439601
 30
0.0
 40
610.0
  0
CIRCLE
  5
7A65
  8
1
  6
CONTINUOUS
 10
3512.8915865350041
 20
5292.439601
 30
0.0
 40
560.0
  0
LINE
  5
7A66
  8
1
  6
CONTINUOUS
 10
2852.8915865350032
 20
4062.439601
 30
0.0
 11
5212.8915865350036
 21
4062.439601
 31
0.0
  0
LINE
  5
7A67
  8
1
  6
CONTINUOUS
 10
2852.8915865350032
 20
3937.4396009999991
 30
0.0
 11
5212.8915865350036
 21
3937.4396009999991
 31
0.0
  0
ARC
  5
7A68
  8
1
  6
CONTINUOUS
 10
3581.391586535005
 20
5360.939601
 30
0.0
 40
739.10000000000002
 50
95.099999999999994
 51
180.0
  0
LINE
  5
7A69
  8
1
  6
CONTINUOUS
 10
2752.8915865350032
 20
4094.439601
 30
0.0
 11
3512.8915865350041
 21
4159.439601
 31
0.0
  0
ARC
  5
7A6A
  8
1
  6
CONTINUOUS
 10
3444.3915865350041
 20
5360.939601
 30
0.0
 40
602.10000000000002
 50
180.0
 51
191.1999999999999
  0
LINE
  5
7A6B
  8
1
  6
CONTINUOUS
 10
2792.8915865350018
 20
5244.4396009999991
 30
0.0
 11
2792.8915865350018
 21
4097.8396009999988
 31
0.0
  0
LINE
  5
7A6C
  8
1
  6
CONTINUOUS
 10
2752.8915865350032
 20
5297.439601
 30
0.0
 11
2752.8915865350032
 21
4041.439601
 31
0.0
  0
LINE
  5
7A6D
  8
1
  6
CONTINUOUS
 10
2852.8915865350032
 20
4062.439601
 30
0.0
 11
2852.8915865350032
 21
3937.4396009999991
 31
0.0
  0
LINE
  5
7A6E
  8
1
  6
CONTINUOUS
 10
2853.6915865350038
 20
5244.4396009999991
 30
0.0
 11
2752.8915865350032
 21
5244.4396009999991
 31
0.0
  0
LINE
  5
7A6F
  8
1
  6
CONTINUOUS
 10
4826.8915865350036
 20
4194.1396009999989
 30
0.0
 11
3371.591586535003
 21
5053.0396010000004
 31
0.0
  0
LINE
  5
7A70
  8
1
  6
CONTINUOUS
 10
4776.0915865350034
 20
4107.939601
 30
0.0
 11
3320.7915865350042
 21
4966.9396009999991
 31
0.0
  0
LINE
  5
7A71
  8
1
  6
CONTINUOUS
 10
5032.8915865350036
 20
4462.8396009999988
 30
0.0
 11
3761.9915865350031
 21
5576.7396010000002
 31
0.0
  0
LINE
  5
7A72
  8
1
  6
CONTINUOUS
 10
4966.991586535004
 20
4387.6396009999999
 30
0.0
 11
3696.0915865350039
 21
5501.5396010000004
 31
0.0
  0
ARC
  5
7A73
  8
1
  6
CONTINUOUS
 10
3594.8915865350041
 20
5210.439601
 30
0.0
 40
890.20000000000005
 50
0.0
 51
95.099999999999994
  0
ARC
  5
7A74
  8
1
  6
CONTINUOUS
 10
3430.8915865350041
 20
5210.439601
 30
0.0
 40
1054.2
 50
274.5
 51
0.0
  0
CIRCLE
  5
7A75
  8
1
  6
CONTINUOUS
 10
3512.8915865350041
 20
5292.439601
 30
0.0
 40
278.0
  0
ARC
  5
7A76
  8
1
  6
CONTINUOUS
 10
3512.8915865350041
 20
5292.439601
 30
0.0
 40
378.0
 50
48.79999999999999
 51
239.5
  0
LINE
  5
7A77
  8
2
  6
CENTER
 10
3512.8915865350041
 20
10346.6105103557
 30
0.0
 11
3512.8915865350041
 21
8827.4993363557041
 31
0.0
  0
LINE
  5
7A78
  8
2
  6
CENTER
 10
8230.9211058350847
 20
5292.439601
 30
0.0
 11
6760.6492558350847
 21
5292.439601
 31
0.0
  0
LINE
  5
7A79
  8
1
  6
CONTINUOUS
 10
5112.8915865350027
 20
4117.439601
 30
0.0
 11
4662.8915865350027
 21
4117.439601
 31
0.0
  0
ARC
  5
7A7A
  8
1
  6
CONTINUOUS
 10
4887.8915865350036
 20
4297.4396009999991
 30
0.0
 40
199.0
 50
320.10000000000002
 51
219.90000000000001
  0
LINE
  5
7A7B
  8
1
  6
CONTINUOUS
 10
5112.8915865350027
 20
4062.439601
 30
0.0
 11
4662.8915865350027
 21
4062.439601
 31
0.0
  0
CIRCLE
  5
7A7C
  8
1
  6
CONTINUOUS
 10
4887.8915865350036
 20
4297.4396009999991
 30
0.0
 40
120.0
  0
ARC
  5
7A7D
  8
1
  6
CONTINUOUS
 10
4887.8915865350036
 20
4297.4396009999991
 30
0.0
 40
220.0
 50
239.5
 51
48.79999999999999
  0
LINE
  5
7A7E
  8
2
  6
CENTER
 10
5007.8915865350036
 20
4297.4396009999991
 30
0.0
 11
4767.8915865350027
 21
4297.4396009999991
 31
0.0
  0
LINE
  5
7A7F
  8
1
  6
CONTINUOUS
 10
4725.8915865350036
 20
4117.439601
 30
0.0
 11
4725.8915865350036
 21
4159.939601
 31
0.0
  0
LINE
  5
7A80
  8
1
  6
CONTINUOUS
 10
4725.8915865350036
 20
4159.939601
 30
0.0
 11
4735.1915865350038
 21
4169.8396009999988
 31
0.0
  0
LINE
  5
7A81
  8
1
  6
CONTINUOUS
 10
4662.8915865350027
 20
4062.439601
 30
0.0
 11
4662.8915865350027
 21
4117.439601
 31
0.0
  0
LINE
  5
7A82
  8
2
  6
CENTER
 10
4887.8915865350036
 20
4177.439601
 30
0.0
 11
4887.8915865350036
 21
4417.439601
 31
0.0
  0
LINE
  5
7A83
  8
1
  6
CONTINUOUS
 10
5049.8915865350036
 20
4117.439601
 30
0.0
 11
5049.8915865350036
 21
4159.939601
 31
0.0
  0
LINE
  5
7A84
  8
1
  6
CONTINUOUS
 10
5049.8915865350036
 20
4159.939601
 30
0.0
 11
5040.5915865350044
 21
4169.8396009999988
 31
0.0
  0
LINE
  5
7A85
  8
1
  6
CONTINUOUS
 10
5112.8915865350027
 20
4062.439601
 30
0.0
 11
5112.8915865350027
 21
4117.439601
 31
0.0
  0
LINE
  5
7A86
  8
1
  6
CONTINUOUS
 10
5212.8915865350036
 20
4062.439601
 30
0.0
 11
5212.8915865350036
 21
3937.4396009999991
 31
0.0
  0
LINE
  5
7A87
  8
1
  6
CONTINUOUS
 10
5212.8915865350036
 20
8994.481914355707
 30
0.0
 11
2852.8915865350032
 21
8994.481914355707
 31
0.0
  0
LINE
  5
7A88
  8
1
  6
CONTINUOUS
 10
4485.0915865350034
 20
10106.4819143557
 30
0.0
 11
2752.8915865350032
 21
10106.4819143557
 31
0.0
  0
LINE
  5
7A89
  8
1
  6
CONTINUOUS
 10
4485.0915865350034
 20
9256.4819143557088
 30
0.0
 11
2752.8915865350032
 21
9256.4819143557088
 31
0.0
  0
LINE
  5
7A8A
  8
1
  6
CONTINUOUS
 10
4122.8915865350027
 20
10209.4819143557
 30
0.0
 11
2902.8915865350032
 21
10209.4819143557
 31
0.0
  0
LINE
  5
7A8B
  8
1
  6
CONTINUOUS
 10
2752.8915865350032
 20
9206.481914355707
 30
0.0
 11
2752.8915865350032
 21
10156.4819143557
 31
0.0
  0
LINE
  5
7A8C
  8
1
  6
CONTINUOUS
 10
2852.8915865350032
 20
9256.4819143557088
 30
0.0
 11
2852.8915865350032
 21
8994.481914355707
 31
0.0
  0
LINE
  5
7A8D
  8
1
  6
CONTINUOUS
 10
2952.8915865350018
 20
10174.4819143557
 30
0.0
 11
2852.8915865350032
 21
10174.4819143557
 31
0.0
  0
LINE
  5
7A8E
  8
1
  6
CONTINUOUS
 10
2852.8915865350032
 20
10174.4819143557
 30
0.0
 11
2852.8915865350032
 21
10106.4819143557
 31
0.0
  0
LINE
  5
7A8F
  8
1
  6
CONTINUOUS
 10
2952.8915865350018
 20
10209.4819143557
 30
0.0
 11
2952.8915865350018
 21
10106.4819143557
 31
0.0
  0
LINE
  5
7A90
  8
1
  6
CONTINUOUS
 10
5212.8915865350036
 20
10174.4819143557
 30
0.0
 11
4072.8915865350032
 21
10174.4819143557
 31
0.0
  0
LINE
  5
7A91
  8
1
  6
CONTINUOUS
 10
5107.8915865350036
 20
8941.481914355707
 30
0.0
 11
3134.8915865350032
 21
8941.481914355707
 31
0.0
  0
LINE
  5
7A92
  8
1
  6
CONTINUOUS
 10
5107.8915865350036
 20
9181.481914355707
 30
0.0
 11
3134.8915865350032
 21
9181.481914355707
 31
0.0
  0
LINE
  5
7A93
  8
1
  6
CONTINUOUS
 10
3234.8915865350032
 20
9011.481914355707
 30
0.0
 11
3790.8915865350041
 21
9011.481914355707
 31
0.0
  0
LINE
  5
7A94
  8
1
  6
CONTINUOUS
 10
3234.8915865350032
 20
9111.481914355707
 30
0.0
 11
3790.8915865350041
 21
9111.481914355707
 31
0.0
  0
LINE
  5
7A95
  8
1
  6
CONTINUOUS
 10
3485.3915865350041
 20
9256.4819143557088
 30
0.0
 11
3485.3915865350041
 21
9111.481914355707
 31
0.0
  0
LINE
  5
7A96
  8
1
  6
CONTINUOUS
 10
3540.3915865350041
 20
9256.4819143557088
 30
0.0
 11
3540.3915865350041
 21
9111.481914355707
 31
0.0
  0
LINE
  5
7A97
  8
1
  6
CONTINUOUS
 10
3234.8915865350032
 20
9011.481914355707
 30
0.0
 11
3234.8915865350032
 21
9111.481914355707
 31
0.0
  0
LINE
  5
7A98
  8
1
  6
CONTINUOUS
 10
3134.8915865350032
 20
8941.481914355707
 30
0.0
 11
3134.8915865350032
 21
9181.481914355707
 31
0.0
  0
LINE
  5
7A99
  8
1
  6
CONTINUOUS
 10
3790.8915865350041
 20
9011.481914355707
 30
0.0
 11
3790.8915865350041
 21
9111.481914355707
 31
0.0
  0
LINE
  5
7A9A
  8
1
  6
CONTINUOUS
 10
4072.8915865350032
 20
10209.4819143557
 30
0.0
 11
4072.8915865350032
 21
10106.4819143557
 31
0.0
  0
LINE
  5
7A9B
  8
1
  6
CONTINUOUS
 10
5212.8915865350036
 20
10174.4819143557
 30
0.0
 11
5212.8915865350036
 21
8994.481914355707
 31
0.0
  0
LINE
  5
7A9C
  8
1
  6
CONTINUOUS
 10
4485.0915865350034
 20
9256.4819143557088
 30
0.0
 11
4485.0915865350034
 21
10106.4819143557
 31
0.0
  0
LINE
  5
7A9D
  8
1
  6
CONTINUOUS
 10
5086.9915865350031
 20
9230.1819143557059
 30
0.0
 11
4688.7915865350042
 21
9230.1819143557059
 31
0.0
  0
LINE
  5
7A9E
  8
1
  6
CONTINUOUS
 10
5086.9915865350031
 20
9829.6819143557059
 30
0.0
 11
4688.7915865350042
 21
9829.6819143557059
 31
0.0
  0
LINE
  5
7A9F
  8
1
  6
CONTINUOUS
 10
4767.8915865350027
 20
9111.481914355707
 30
0.0
 11
5007.8915865350036
 21
9111.481914355707
 31
0.0
  0
LINE
  5
7AA0
  8
1
  6
CONTINUOUS
 10
4767.8915865350027
 20
9011.481914355707
 30
0.0
 11
5007.8915865350036
 21
9011.481914355707
 31
0.0
  0
LINE
  5
7AA1
  8
1
  6
CONTINUOUS
 10
4860.3915865350036
 20
9111.481914355707
 30
0.0
 11
4860.3915865350036
 21
9230.1819143557059
 31
0.0
  0
LINE
  5
7AA2
  8
1
  6
CONTINUOUS
 10
4767.8915865350027
 20
9011.481914355707
 30
0.0
 11
4767.8915865350027
 21
9111.481914355707
 31
0.0
  0
LINE
  5
7AA3
  8
1
  6
CONTINUOUS
 10
4688.7915865350042
 20
9230.1819143557059
 30
0.0
 11
4688.7915865350042
 21
9829.6819143557059
 31
0.0
  0
LINE
  5
7AA4
  8
1
  6
CONTINUOUS
 10
4915.3915865350036
 20
9111.481914355707
 30
0.0
 11
4915.3915865350036
 21
9230.1819143557059
 31
0.0
  0
LINE
  5
7AA5
  8
1
  6
CONTINUOUS
 10
5007.8915865350036
 20
9011.481914355707
 30
0.0
 11
5007.8915865350036
 21
9111.481914355707
 31
0.0
  0
LINE
  5
7AA6
  8
1
  6
CONTINUOUS
 10
5107.8915865350036
 20
8941.481914355707
 30
0.0
 11
5107.8915865350036
 21
9181.481914355707
 31
0.0
  0
LINE
  5
7AA7
  8
1
  6
CONTINUOUS
 10
5086.9915865350031
 20
9230.1819143557059
 30
0.0
 11
5086.9915865350031
 21
9829.6819143557059
 31
0.0
  0
LINE
  5
7AA8
  8
1
  6
CONTINUOUS
 10
8067.7486418350863
 20
5244.4396009999991
 30
0.0
 11
7217.7486418350854
 21
4094.439601
 31
0.0
  0
LINE
  5
7AA9
  8
1
  6
CONTINUOUS
 10
7217.7486418350854
 20
5244.4396009999991
 30
0.0
 11
8067.7486418350863
 21
4094.439601
 31
0.0
  0
LINE
  5
7AAA
  8
1
  6
CONTINUOUS
 10
7217.7486418350854
 20
4094.439601
 30
0.0
 11
8067.7486418350863
 21
4094.439601
 31
0.0
  0
LINE
  5
7AAB
  8
1
  6
CONTINUOUS
 10
7217.7486418350854
 20
6100.6396010000008
 30
0.0
 11
8067.7486418350863
 21
6100.6396010000008
 31
0.0
  0
LINE
  5
7AAC
  8
1
  6
CONTINUOUS
 10
8135.7486418350854
 20
3937.4396009999991
 30
0.0
 11
6955.7486418350863
 21
3937.4396009999991
 31
0.0
  0
LINE
  5
7AAD
  8
1
  6
CONTINUOUS
 10
8135.7486418350854
 20
4062.439601
 30
0.0
 11
6955.7486418350863
 21
4062.439601
 31
0.0
  0
LINE
  5
7AAE
  8
1
  6
CONTINUOUS
 10
7217.7486418350854
 20
5244.4396009999991
 30
0.0
 11
8067.7486418350863
 21
5244.4396009999991
 31
0.0
  0
LINE
  5
7AAF
  8
1
  6
CONTINUOUS
 10
7072.7486418350854
 20
5570.439601
 30
0.0
 11
7072.7486418350854
 21
5014.439601
 31
0.0
  0
LINE
  5
7AB0
  8
1
  6
CONTINUOUS
 10
6972.7486418350854
 20
5570.439601
 30
0.0
 11
6972.7486418350854
 21
5014.439601
 31
0.0
  0
LINE
  5
7AB1
  8
1
  6
CONTINUOUS
 10
7142.7486418350854
 20
4077.439601
 30
0.0
 11
7142.7486418350854
 21
5670.439601
 31
0.0
  0
LINE
  5
7AB2
  8
1
  6
CONTINUOUS
 10
6882.7486418350854
 20
4077.439601
 30
0.0
 11
6882.7486418350854
 21
5670.439601
 31
0.0
  0
LINE
  5
7AB3
  8
1
  6
CONTINUOUS
 10
7217.7486418350854
 20
4062.439601
 30
0.0
 11
7217.7486418350854
 21
6100.6396010000008
 31
0.0
  0
LINE
  5
7AB4
  8
1
  6
CONTINUOUS
 10
7072.7486418350854
 20
5264.939601
 30
0.0
 11
7217.7486418350854
 21
5264.939601
 31
0.0
  0
LINE
  5
7AB5
  8
1
  6
CONTINUOUS
 10
7072.7486418350854
 20
4269.9396009999991
 30
0.0
 11
7217.7486418350854
 21
4269.9396009999991
 31
0.0
  0
LINE
  5
7AB6
  8
1
  6
CONTINUOUS
 10
7072.7486418350854
 20
4324.9396009999991
 30
0.0
 11
7217.7486418350854
 21
4324.9396009999991
 31
0.0
  0
LINE
  5
7AB7
  8
1
  6
CONTINUOUS
 10
7072.7486418350854
 20
4417.439601
 30
0.0
 11
7072.7486418350854
 21
4177.439601
 31
0.0
  0
LINE
  5
7AB8
  8
1
  6
CONTINUOUS
 10
6972.7486418350854
 20
4417.439601
 30
0.0
 11
6972.7486418350854
 21
4177.439601
 31
0.0
  0
LINE
  5
7AB9
  8
1
  6
CONTINUOUS
 10
6882.7486418350854
 20
4077.439601
 30
0.0
 11
7142.7486418350854
 21
4077.439601
 31
0.0
  0
LINE
  5
7ABA
  8
1
  6
CONTINUOUS
 10
6972.7486418350854
 20
4177.439601
 30
0.0
 11
7072.7486418350854
 21
4177.439601
 31
0.0
  0
LINE
  5
7ABB
  8
1
  6
CONTINUOUS
 10
6972.7486418350854
 20
4417.439601
 30
0.0
 11
7072.7486418350854
 21
4417.439601
 31
0.0
  0
LINE
  5
7ABC
  8
1
  6
CONTINUOUS
 10
6955.7486418350863
 20
3937.4396009999991
 30
0.0
 11
6955.7486418350863
 21
4062.439601
 31
0.0
  0
LINE
  5
7ABD
  8
1
  6
CONTINUOUS
 10
6972.7486418350854
 20
5014.439601
 30
0.0
 11
7072.7486418350854
 21
5014.439601
 31
0.0
  0
LINE
  5
7ABE
  8
1
  6
CONTINUOUS
 10
7072.7486418350854
 20
5319.939601
 30
0.0
 11
7217.7486418350854
 21
5319.939601
 31
0.0
  0
LINE
  5
7ABF
  8
1
  6
CONTINUOUS
 10
6972.7486418350854
 20
5570.439601
 30
0.0
 11
7072.7486418350854
 21
5570.439601
 31
0.0
  0
LINE
  5
7AC0
  8
1
  6
CONTINUOUS
 10
6882.7486418350854
 20
5670.439601
 30
0.0
 11
7142.7486418350854
 21
5670.439601
 31
0.0
  0
LINE
  5
7AC1
  8
1
  6
CONTINUOUS
 10
8170.7486418350863
 20
4682.439601
 30
0.0
 11
8170.7486418350863
 21
5902.4396010000009
 31
0.0
  0
LINE
  5
7AC2
  8
1
  6
CONTINUOUS
 10
8067.7486418350863
 20
4062.439601
 30
0.0
 11
8067.7486418350863
 21
6100.6396010000008
 31
0.0
  0
LINE
  5
7AC3
  8
1
  6
CONTINUOUS
 10
8135.7486418350854
 20
3937.4396009999991
 30
0.0
 11
8135.7486418350854
 21
4062.439601
 31
0.0
  0
LINE
  5
7AC4
  8
1
  6
CONTINUOUS
 10
8067.7486418350863
 20
4732.439601
 30
0.0
 11
8170.7486418350863
 21
4732.439601
 31
0.0
  0
LINE
  5
7AC5
  8
1
  6
CONTINUOUS
 10
8067.7486418350863
 20
5852.439601
 30
0.0
 11
8170.7486418350863
 21
5852.439601
 31
0.0
  0
DIMENSION
  5
7AD9
  8
3
  6
CONTINUOUS
  2
*D1
 10
3512.8915865350041
 20
3613.8402219999989
 30
0.0
 11
3204.3201575350031
 21
3613.8402219999989
 31
0.0
 70
   128
 13
2852.8915865350032
 23
3937.4396009999991
 33
0.0
 14
3512.8915865350041
 24
3837.8604059999998
 34
0.0
1001
ACAD
1000
DSTYLE
1002
{
1070
   287
1070
     3
1070
    40
1040
45.0
1070
   143
1040
0.039
1070
   172
1070
     1
1070
   271
1070
     0
1070
   279
1070
     0
1070
   288
1070
     1
1002
}
  0
DIMENSION
  5
7AE5
  8
3
  6
CONTINUOUS
  2
*D2
 10
5212.8915865350036
 20
3613.8402219999989
 30
0.0
 11
4362.8915865350036
 21
3726.3402219999989
 31
0.0
 70
     0
 13
3512.8915865350041
 23
3837.8604059999998
 33
0.0
 14
5212.8915865350036
 24
3937.4396009999991
 34
0.0
1001
ACAD
1000
DSTYLE
1002
{
1070
   287
1070
     4
1070
    40
1040
45.0
1070
    75
1070
     1
1070
   143
1040
0.039
1070
   172
1070
     1
1070
   271
1070
     0
1070
   279
1070
     1
1070
   288
1070
     1
1002
}
  0
DIMENSION
  5
7AF2
  8
3
  6
CONTINUOUS
  2
*D3
 10
2418.3224515350048
 20
4094.439601
 30
0.0
 11
2418.3224515350039
 21
4607.6022669999993
 31
0.0
 70
   128
 13
2752.8915865350032
 23
5244.4396009999991
 33
0.0
 14
2752.8915865350032
 24
4094.439601
 34
0.0
 50
90.0
1001
ACAD
1000
DSTYLE
1002
{
1070
   287
1070
     3
1070
    40
1040
45.0
1070
   143
1040
0.039
1070
   172
1070
     1
1070
   271
1070
     0
1070
   279
1070
     0
1070
   288
1070
     1
1002
}
  0
DIMENSION
  5
7AFF
  8
3
  6
CONTINUOUS
  2
*D4
 10
1882.088122148306
 20
5292.4396010000009
 30
0.0
 11
1882.088122148305
 21
5714.1316130000014
 31
0.0
 70
   128
 13
3512.8915865350041
 23
6097.439601
 33
0.0
 14
2846.200847535003
 24
5292.439601
 34
0.0
 50
90.0
1001
ACAD
1000
DSTYLE
1002
{
1070
   287
1070
     3
1070
    40
1040
45.0
1070
   143
1040
0.039
1070
   172
1070
     1
1070
   271
1070
     0
1070
   279
1070
     0
1070
   288
1070
     1
1002
}
  0
DIMENSION
  5
7B0B
  8
3
  6
CONTINUOUS
  2
*D5
 10
1882.088122148305
 20
3937.4396009999991
 30
0.0
 11
1769.5881221483039
 21
4614.9396010000009
 31
0.0
 70
     0
 13
2846.200847535003
 23
5292.439601
 33
0.0
 14
2852.8915865350032
 24
3937.4396009999991
 34
0.0
 50
90.0
1001
ACAD
1000
DSTYLE
1002
{
1070
   287
1070
     4
1070
    40
1040
45.0
1070
    75
1070
     1
1070
   143
1040
0.039
1070
   172
1070
     1
1070
   271
1070
     0
1070
   279
1070
     1
1070
   288
1070
     1
1002
}
  0
DIMENSION
  5
7B18
  8
3
  6
CONTINUOUS
  2
*D6
 10
1570.938167148304
 20
3937.4396009999991
 30
0.0
 11
1570.938167148304
 21
5086.8633980000004
 31
0.0
 70
   128
 13
3512.8915865350041
 23
6097.439601
 33
0.0
 14
2852.8915865350032
 24
3937.4396009999991
 34
0.0
 50
90.0
1001
ACAD
1000
DSTYLE
1002
{
1070
   287
1070
     3
1070
    40
1040
45.0
1070
   143
1040
0.039
1070
   172
1070
     1
1070
   271
1070
     0
1070
   279
1070
     0
1070
   288
1070
     1
1002
}
  0
DIMENSION
  5
7B25
  8
3
  6
CONTINUOUS
  2
*D7
 10
3512.8915865350041
 20
6370.2929389999999
 30
0.0
 11
3123.1755585350038
 21
6370.2929389999999
 31
0.0
 70
   128
 13
2752.8915865350032
 23
5297.439601
 33
0.0
 14
3512.8915865350041
 24
6096.8584549999987
 34
0.0
1001
ACAD
1000
DSTYLE
1002
{
1070
   287
1070
     3
1070
    40
1040
45.0
1070
   143
1040
0.039
1070
   172
1070
     1
1070
   271
1070
     0
1070
   279
1070
     0
1070
   288
1070
     1
1002
}
  0
DIMENSION
  5
7B31
  8
3
  6
CONTINUOUS
  2
*D8
 10
4481.8915865350036
 20
6370.2929389999999
 30
0.0
 11
3997.3915865350041
 21
6482.792938999999
 31
0.0
 70
     0
 13
3512.8915865350041
 23
6096.8584549999987
 33
0.0
 14
4481.8915865350036
 24
5292.439601
 34
0.0
1001
ACAD
1000
DSTYLE
1002
{
1070
   287
1070
     4
1070
    40
1040
45.0
1070
    75
1070
     1
1070
   143
1040
0.039
1070
   172
1070
     1
1070
   271
1070
     0
1070
   279
1070
     1
1070
   288
1070
     1
1002
}
  0
DIMENSION
  5
7B3E
  8
3
  6
CONTINUOUS
  2
*D9
 10
5212.8915865350036
 20
8545.580975355706
 30
0.0
 11
3983.9559115350039
 21
8545.580975355706
 31
0.0
 70
   128
 13
2852.8915865350032
 23
8994.481914355707
 33
0.0
 14
5212.8915865350036
 24
8994.481914355707
 34
0.0
1001
ACAD
1000
DSTYLE
1002
{
1070
   287
1070
     3
1070
    40
1040
45.0
1070
   143
1040
0.039
1070
   172
1070
     1
1070
   271
1070
     0
1070
   279
1070
     0
1070
   288
1070
     1
1002
}
  0
DIMENSION
  5
7B4B
  8
3
  6
CONTINUOUS
  2
*D10
 10
5670.2387415350049
 20
8994.481914355707
 30
0.0
 11
5670.238741535004
 21
9653.5127533557043
 31
0.0
 70
   128
 13
5212.8915865350036
 23
10174.4819143557
 33
0.0
 14
5212.8915865350036
 24
8994.481914355707
 34
0.0
 50
90.0
1001
ACAD
1000
DSTYLE
1002
{
1070
   287
1070
     3
1070
    40
1040
45.0
1070
   143
1040
0.039
1070
   172
1070
     1
1070
   271
1070
     0
1070
   279
1070
     0
1070
   288
1070
     1
1002
}
  0
LINE
  5
7B4C
  8
2
  6
CENTER
 10
4668.5365635350036
 20
9681.481914355707
 30
0.0
 11
2622.2296075350041
 21
9681.481914355707
 31
0.0
  0
LINE
  5
7B4D
  8
2
  6
CENTER
 10
3512.8915865350041
 20
6185.6256810000014
 30
0.0
 11
3512.8915865350041
 21
3837.8604059999998
 31
0.0
  0
LINE
  5
7B4E
  8
2
  6
CENTER
 10
7642.7486418350854
 20
6336.1182060000001
 30
0.0
 11
7642.7486418350854
 21
3896.4779119999989
 31
0.0
  0
DIMENSION
  5
7B5B
  8
3
  6
CONTINUOUS
  2
*D11
 10
8067.7486418350863
 20
6320.9753970000002
 30
0.0
 11
7622.1340898350863
 21
6320.9753970000002
 31
0.0
 70
   128
 13
7217.7486418350854
 23
6100.6396010000008
 33
0.0
 14
8067.7486418350863
 24
6100.6396010000008
 34
0.0
1001
ACAD
1000
DSTYLE
1002
{
1070
   287
1070
     3
1070
    40
1040
45.0
1070
   143
1040
0.039
1070
   172
1070
     1
1070
   271
1070
     0
1070
   279
1070
     0
1070
   288
1070
     1
1002
}
  0
DIMENSION
  5
7B68
  8
3
  6
CONTINUOUS
  2
*D12
 10
7642.7486418350854
 20
6590.2002279999997
 30
0.0
 11
7314.8914989779423
 21
6590.2002279999997
 31
0.0
 70
   128
  1
MAX\P850
 13
6882.7486418350854
 23
5670.439601
 33
0.0
 14
7642.7486418350854
 24
6526.3468460000004
 34
0.0
1001
ACAD
1000
DSTYLE
1002
{
1070
   287
1070
     3
1070
    40
1040
45.0
1070
   143
1040
0.039
1070
   172
1070
     1
1070
   271
1070
     0
1070
   279
1070
     0
1070
   288
1070
     1
1002
}
  0
DIMENSION
  5
7B76
  8
3
  6
CONTINUOUS
  2
*D13
 10
8170.7486418350863
 20
6590.2002279999997
 30
0.0
 11
7890.2460298350861
 21
6590.2002279999997
 31
0.0
 70
   128
 13
7642.7486418350854
 23
6526.3468460000004
 33
0.0
 14
8170.7486418350863
 24
5902.4396010000009
 34
0.0
1001
ACAD
1000
DSTYLE
1002
{
1070
   287
1070
     4
1070
    40
1040
45.0
1070
    75
1070
     1
1070
   143
1040
0.039
1070
   172
1070
     1
1070
   271
1070
     0
1070
   279
1070
     1
1070
   288
1070
     1
1002
}
  0
DIMENSION
  5
7B99
  8
3
  6
CONTINUOUS
  2
*D14
 10
8518.192370835086
 20
4732.439601
 30
0.0
 11
8518.1923708350841
 21
5377.9514689999996
 31
0.0
 70
   128
 13
8170.7486418350863
 23
5852.439601
 33
0.0
 14
8170.7486418350863
 24
4732.439601
 34
0.0
 50
90.0
1001
ACAD
1000
DSTYLE
1002
{
1070
   287
1070
     3
1070
     3
1000
φ<>
1070
    40
1040
45.0
1070
   143
1040
0.039
1070
   172
1070
     1
1070
   271
1070
     0
1070
   279
1070
     0
1070
   288
1070
     1
1002
}
  0
DIMENSION
  5
7BA6
  8
3
  6
CONTINUOUS
  2
*D15
 10
7642.7486418350854
 20
3635.0023719999999
 30
0.0
 11
7334.1772138350852
 21
3635.0023719999999
 31
0.0
 70
   128
 13
6955.7486418350863
 23
3937.4396009999991
 33
0.0
 14
7642.7486418350854
 24
3896.4779119999989
 34
0.0
1001
ACAD
1000
DSTYLE
1002
{
1070
   287
1070
     3
1070
    40
1040
45.0
1070
   143
1040
0.039
1070
   172
1070
     1
1070
   271
1070
     0
1070
   279
1070
     0
1070
   288
1070
     1
1002
}
  0
DIMENSION
  5
7BB4
  8
3
  6
CONTINUOUS
  2
*D16
 10
8135.7486418350854
 20
3635.0023719999999
 30
0.0
 11
7876.1348688350854
 21
3633.6000020000001
 31
0.0
 70
   128
 13
7642.7486418350854
 23
3896.4779119999989
 33
0.0
 14
8135.7486418350854
 24
3937.4396009999991
 34
0.0
1001
ACAD
1000
DSTYLE
1002
{
1070
   287
1070
     4
1070
    40
1040
45.0
1070
    75
1070
     1
1070
   143
1040
0.039
1070
   172
1070
     1
1070
   271
1070
     0
1070
   279
1070
     1
1070
   288
1070
     1
1002
}
  0
LINE
  5
7BCB
  8
2
  6
CENTER
 10
4644.3515685350039
 20
5292.439601
 30
0.0
 11
2705.207088535004
 21
5292.439601
 31
0.0
  0
LINE
  5
7BCC
  8
4
  6
CONTINUOUS
 10
9250.0
 20
2500.0
 30
0.0
 11
9250.0
 21
1500.0
 31
0.0
  0
LINE
  5
7BCD
  8
4
  6
CONTINUOUS
 10
5750.0
 20
2500.0
 30
0.0
 11
5750.0
 21
1500.0
 31
0.0
  0
LINE
  5
7BCE
  8
4
  6
CONTINUOUS
 10
3250.0
 20
2500.0
 30
0.0
 11
3250.0
 21
1500.0
 31
0.0
  0
LINE
  5
7BD1
  8
4
  6
CONTINUOUS
 10
3250.0
 20
1500.0
 30
0.0
 11
9250.0
 21
1500.0
 31
0.0
  0
LINE
  5
7BD2
  8
4
  6
CONTINUOUS
 10
3250.0
 20
2000.0
 30
0.0
 11
9250.0
 21
2000.0
 31
0.0
  0
TEXT
  5
7BD3
  8
4
  6
CONTINUOUS
 10
3442.5104040000001
 20
2157.7151289999988
 30
0.0
 40
250.0
  1
機器名称
  0
TEXT
  5
7BD4
  8
4
  6
CONTINUOUS
 10
3431.2905300000002
 20
1608.225782999999
 30
0.0
 40
250.0
  1
機器型番
  0
TEXT
  5
7BD5
  8
4
  6
CONTINUOUS
 10
5888.393728
 20
2112.8588439999999
 30
0.0
 40
211.11111099999991
  1
ミツヤリミットロードファン
  0
TEXT
  5
7BD6
  8
4
  6
CONTINUOUS
 10
5933.2724779999999
 20
1585.7979210000001
 30
0.0
 40
250.0
  1
LL#7-4
  0
TEXT
  5
7BD8
  8
4
  6
CONTINUOUS
 10
4523.9288280000001
 20
11917.14420699999
 30
0.0
 40
270.0
  1
床置ベット
  0
TEXT
  5
7BD9
  8
4
  6
CONTINUOUS
 10
1580.837966999999
 20
12669.404881
 30
0.0
 40
300.0
  1
ベルト駆動式片吸込両持リミットロードファン
  0
LINE
  5
7BDA
  8
4
  6
CONTINUOUS
 10
1250.0
 20
12347.04377099999
 30
0.0
 11
9250.0
 21
12347.04377099999
 31
0.0
  0
LINE
  5
7BDB
  8
4
  6
CONTINUOUS
 10
1250.0
 20
13347.043771000001
 30
0.0
 11
9250.0
 21
13347.043771000001
 31
0.0
  0
LINE
  5
7BDC
  8
4
  6
CONTINUOUS
 10
3250.0
 20
2500.0
 30
0.0
 11
9250.0
 21
2500.0
 31
0.0
  0
LINE
  5
7BDD
  8
4
  6
CONTINUOUS
 10
1250.0
 20
13347.043771000001
 30
0.0
 11
1250.0
 21
12347.04377099999
 31
0.0
  0
TEXT
  5
7BDE
  8
4
  6
CONTINUOUS
 10
2344.6346669999998
 20
11911.597388
 30
0.0
 40
270.0
  1
右回転左横向
  0
TEXT
  5
7BDF
  8
4
  6
CONTINUOUS
 10
7344.8477969999994
 20
13530.305408
 30
0.0
 40
280.0
  1
No.
  0
TEXT
  5
7BE0
  8
4
  6
CONTINUOUS
 10
6556.480313
 20
11917.14420699999
 30
0.0
 40
270.0
  1
縮尺：1/50
  0
LINE
  5
7BE1
  8
4
  6
CONTINUOUS
 10
9250.0
 20
13347.043771000001
 30
0.0
 11
9250.0
 21
12347.04377099999
 31
0.0
  0
LINE
  5
7BE3
  8
4
  6
CONTINUOUS
 10
7203.0871120000002
 20
13406.317916
 30
0.0
 11
7203.0871120000002
 21
13933.261307999999
 31
0.0
  0
LINE
  5
7BE4
  8
4
  6
CONTINUOUS
 10
7203.0871120000002
 20
13933.261307999999
 30
0.0
 11
9250.0
 21
13933.261307999999
 31
0.0
  0
LINE
  5
7BE5
  8
4
  6
CONTINUOUS
 10
9250.0
 20
13933.261307999999
 30
0.0
 11
9250.0
 21
13406.317916
 31
0.0
  0
LINE
  5
7BE6
  8
4
  6
CONTINUOUS
 10
9250.0
 20
13406.317916
 30
0.0
 11
7203.0871120000002
 21
13406.317916
 31
0.0
  0
DIMENSION
  5
7C1C
  8
3
  6
CONTINUOUS
  2
*D17
 10
2150.837818535003
 20
4094.439601
 30
0.0
 11
2150.837818535002
 21
4632.2409689999986
 31
0.0
 70
   128
 13
2846.200847535003
 23
5292.439601
 33
0.0
 14
2752.8915865350032
 24
4094.439601
 34
0.0
 50
90.0
1001
ACAD
1000
DSTYLE
1002
{
1070
   287
1070
     3
1070
    40
1040
45.0
1070
   143
1040
0.039
1070
   172
1070
     1
1070
   271
1070
     0
1070
   279
1070
     0
1070
   288
1070
     1
1002
}
  0
DIMENSION
  5
7C7E
  8
3
  2
*D18
 10
5212.8915865350036
 20
6635.9792670694978
 30
0.0
 11
3958.5003463327812
 21
6635.9792670694978
 31
0.0
 70
   128
 13
2752.8915865350032
 23
5297.439601
 33
0.0
 14
5212.8915865350036
 24
4062.439601
 34
0.0
1001
ACAD
1000
DSTYLE
1002
{
1070
   287
1070
     3
1070
    40
1040
45.0
1070
   143
1040
0.039
1070
   172
1070
     1
1070
   271
1070
     0
1070
   279
1070
     0
1070
   288
1070
     1
1002
}
  0
ENDSEC
  0
EOF
