  0
SECTION
  2
HEADER
  9
$ACADVER
  1
AC1009
  9
$INSBASE
 10
0.0
 20
0.0
 30
0.0
  9
$EXTMIN
 10
1250.0
 20
1500.0
 30
0.0
  9
$EXTMAX
 10
9250.0
 20
13933.261307999999
 30
0.0
  9
$LIMMIN
 10
0.0
 20
0.0
  9
$LIMMAX
 10
297.0
 20
210.0
  9
$ORTHOMODE
 70
     0
  9
$REGENMODE
 70
     1
  9
$FILLMODE
 70
     0
  9
$QTEXTMODE
 70
     0
  9
$MIRRTEXT
 70
     1
  9
$DRAGMODE
 70
     2
  9
$LTSCALE
 40
100.0
  9
$OSMODE
 70
    37
  9
$ATTMODE
 70
     1
  9
$TEXTSIZE
 40
180.0
  9
$TRACEWID
 40
0.05
  9
$TEXTSTYLE
  7
STANDARD
  9
$CLAYER
  8
3
  9
$CELTYPE
  6
BYLAYER
  9
$CECOLOR
 62
   256
  9
$DIMSCALE
 40
50.0
  9
$DIMASZ
 40
2.0
  9
$DIMEXO
 40
0.5
  9
$DIMDLI
 40
10.0
  9
$DIMRND
 40
0.0
  9
$DIMDLE
 40
0.0
  9
$DIMEXE
 40
1.0
  9
$DIMTP
 40
1.0
  9
$DIMTM
 40
1.0
  9
$DIMTXT
 40
3.0
  9
$DIMCEN
 40
0.0
  9
$DIMTSZ
 40
0.0
  9
$DIMTOL
 70
     0
  9
$DIMLIM
 70
     0
  9
$DIMTIH
 70
     0
  9
$DIMTOH
 70
     0
  9
$DIMSE1
 70
     0
  9
$DIMSE2
 70
     0
  9
$DIMTAD
 70
     1
  9
$DIMZIN
 70
     8
  9
$DIMBLK
  1

  9
$DIMASO
 70
     1
  9
$DIMSHO
 70
     1
  9
$DIMPOST
  1

  9
$DIMAPOST
  1

  9
$DIMALT
 70
     0
  9
$DIMALTD
 70
     2
  9
$DIMALTF
 40
0.039
  9
$DIMLFAC
 40
1.0
  9
$DIMTOFL
 70
     1
  9
$DIMTVP
 40
0.0
  9
$DIMTIX
 70
     0
  9
$DIMSOXD
 70
     0
  9
$DIMSAH
 70
     1
  9
$DIMBLK1
  1
OPEN
  9
$DIMBLK2
  1
OPEN
  9
$DIMSTYLE
  2
IGA
  9
$DIMCLRD
 70
     0
  9
$DIMCLRE
 70
     0
  9
$DIMCLRT
 70
     0
  9
$DIMTFAC
 40
10.0
  9
$DIMGAP
 40
1.0
  9
$LUNITS
 70
     2
  9
$LUPREC
 70
     3
  9
$SKETCHINC
 40
0.1
  9
$FILLETRAD
 40
50.0
  9
$AUNITS
 70
     0
  9
$AUPREC
 70
     0
  9
$MENU
  1
acad
  9
$ELEVATION
 40
0.0
  9
$PELEVATION
 40
0.0
  9
$THICKNESS
 40
0.0
  9
$LIMCHECK
 70
     0
  9
$BLIPMODE
 70
     0
  9
$CHAMFERA
 40
0.5
  9
$CHAMFERB
 40
0.5
  9
$SKPOLY
 70
     0
  9
$TDCREATE
 40
2450766.4485027771
  9
$TDUPDATE
 40
2454953.6604812262
  9
$TDINDWG
 40
0.003603912
  9
$TDUSRTIMER
 40
0.003603912
  9
$USRTIMER
 70
     1
  9
$ANGBASE
 50
0.0
  9
$ANGDIR
 70
     0
  9
$PDMODE
 70
     0
  9
$PDSIZE
 40
0.0
  9
$PLINEWID
 40
0.0
  9
$COORDS
 70
     1
  9
$SPLFRAME
 70
     0
  9
$SPLINETYPE
 70
     6
  9
$SPLINESEGS
 70
     8
  9
$ATTDIA
 70
     0
  9
$ATTREQ
 70
     1
  9
$HANDLING
 70
 10241
  9
$HANDSEED
  5
7D6F
  9
$SURFTAB1
 70
     6
  9
$SURFTAB2
 70
     6
  9
$SURFTYPE
 70
     6
  9
$SURFU
 70
     6
  9
$SURFV
 70
     6
  9
$UCSNAME
  2

  9
$UCSORG
 10
0.0
 20
0.0
 30
0.0
  9
$UCSXDIR
 10
1.0
 20
0.0
 30
0.0
  9
$UCSYDIR
 10
0.0
 20
1.0
 30
0.0
  9
$PUCSNAME
  2

  9
$PUCSORG
 10
0.0
 20
0.0
 30
0.0
  9
$PUCSXDIR
 10
1.0
 20
0.0
 30
0.0
  9
$PUCSYDIR
 10
0.0
 20
1.0
 30
0.0
  9
$USERI1
 70
     0
  9
$USERI2
 70
     0
  9
$USERI3
 70
     0
  9
$USERI4
 70
     0
  9
$USERI5
 70
     0
  9
$USERR1
 40
0.0
  9
$USERR2
 40
0.0
  9
$USERR3
 40
0.0
  9
$USERR4
 40
0.0
  9
$USERR5
 40
0.0
  9
$WORLDVIEW
 70
     1
  9
$SHADEDGE
 70
     3
  9
$SHADEDIF
 70
    70
  9
$TILEMODE
 70
     1
  9
$MAXACTVP
 70
    16
  9
$PLIMCHECK
 70
     0
  9
$PEXTMIN
 10
1.0000000000000000E+020
 20
1.0000000000000000E+020
 30
1.0000000000000000E+020
  9
$PEXTMAX
 10
-1.0000000000000000E+020
 20
-1.0000000000000000E+020
 30
-1.0000000000000000E+020
  9
$PLIMMIN
 10
0.0
 20
0.0
  9
$PLIMMAX
 10
12.0
 20
9.0
  9
$UNITMODE
 70
     0
  9
$VISRETAIN
 70
     0
  9
$PLINEGEN
 70
     0
  9
$PSLTSCALE
 70
     1
  0
ENDSEC
  0
SECTION
  2
TABLES
  0
TABLE
  2
VPORT
 70
     2
  0
VPORT
  2
*ACTIVE
 70
     0
 10
0.0
 20
0.0
 11
1.0
 21
1.0
 12
10282.39600302416
 22
2052.4947229002441
 13
0.0
 23
0.0
 14
10.0
 24
10.0
 15
10.0
 25
10.0
 16
0.0
 26
0.0
 36
1.0
 17
0.0
 27
0.0
 37
0.0
 40
4828.3109170929429
 41
3.1666666666666661
 42
50.0
 43
0.0
 44
0.0
 50
0.0
 51
0.0
 71
     0
 72
   100
 73
     1
 74
     0
 75
     0
 76
     0
 77
     0
 78
     0
  0
ENDTAB
  0
TABLE
  2
LTYPE
 70
     2
  0
LTYPE
  2
CONTINUOUS
 70
     0
  3
Solid line
 72
    65
 73
     0
 40
0.0
  0
LTYPE
  2
CENTER
 70
     0
  3
____ _ ____ _ ____ _ ____ _ ____ _ ____ _ ____ 
 72
    65
 73
     4
 40
2.0
 49
1.25
 49
-0.25
 49
0.25
 49
-0.25
  0
ENDTAB
  0
TABLE
  2
LAYER
 70
     6
  0
LAYER
  2
0
 70
     0
 62
     7
  6
CONTINUOUS
  0
LAYER
  2
3
 70
     0
 62
     2
  6
CONTINUOUS
  0
LAYER
  2
2
 70
     0
 62
     3
  6
CENTER
  0
LAYER
  2
1
 70
     0
 62
     4
  6
CONTINUOUS
  0
LAYER
  2
4
 70
     0
 62
     7
  6
CONTINUOUS
  0
LAYER
  2
DEFPOINTS
 70
     0
 62
     7
  6
CONTINUOUS
  0
ENDTAB
  0
TABLE
  2
STYLE
 70
     1
  0
STYLE
  2
STANDARD
 70
     0
 40
0.0
 41
1.0
 50
0.0
 71
     0
 42
180.0
  3
simplex.shx
  4
extfont.shx
  0
ENDTAB
  0
TABLE
  2
VIEW
 70
     0
  0
ENDTAB
  0
TABLE
  2
UCS
 70
     0
  0
ENDTAB
  0
TABLE
  2
APPID
 70
     1
  0
APPID
  2
ACAD
 70
     0
  0
ENDTAB
  0
TABLE
  2
DIMSTYLE
 70
     1
  0
DIMSTYLE
  2
IGA
 70
     0
  3

  4

  5

  6
OPEN
  7
OPEN
 40
2.0
 41
2.0
 42
0.5
 43
10.0
 44
1.0
 45
0.0
 46
0.0
 47
1.0
 48
1.0
140
3.0
141
0.0
142
0.0
143
0.03937
144
1.0
145
0.0
146
10.0
147
1.0
 71
     0
 72
     0
 73
     0
 74
     0
 75
     0
 76
     0
 77
     1
 78
     8
170
     0
171
     2
172
     0
173
     1
174
     0
175
     0
176
     0
177
     0
178
     0
  0
ENDTAB
  0
ENDSEC
  0
SECTION
  2
BLOCKS
  0
BLOCK
  8
0
  2
$MODEL_SPACE
 70
     0
 10
0.0
 20
0.0
 30
0.0
  3
$MODEL_SPACE
  1

  0
ENDBLK
  5
1B
  8
0
  0
BLOCK
 67
     1
  8
0
  2
$PAPER_SPACE
 70
     0
 10
0.0
 20
0.0
 30
0.0
  3
$PAPER_SPACE
  1

  0
ENDBLK
  5
18
 67
     1
  8
0
  0
BLOCK
  8
0
  2
_OPEN
 70
     0
 10
0.0
 20
0.0
 30
0.0
  3
_OPEN
  1

  0
LINE
  5
7AE9
  8
0
  6
BYBLOCK
 62
     0
 10
-1.0
 20
0.166667
 30
0.0
 11
0.0
 21
0.0
 31
0.0
  0
LINE
  5
7AEA
  8
0
  6
BYBLOCK
 62
     0
 10
0.0
 20
0.0
 30
0.0
 11
-1.0
 21
-0.166667
 31
0.0
  0
LINE
  5
7AEB
  8
0
  6
BYBLOCK
 62
     0
 10
0.0
 20
0.0
 30
0.0
 11
-1.0
 21
0.0
 31
0.0
  0
ENDBLK
  5
7AEC
  8
0
  0
BLOCK
  8
0
  2
*D1
 70
     1
 10
0.0
 20
0.0
 30
0.0
  3
*D1
  1

  0
LINE
  5
7CD1
  8
3
  6
CONTINUOUS
 62
     0
 10
4854.1658029999999
 20
6390.1719190000003
 30
0.0
 11
5262.3760010000015
 21
6390.1719190000003
 31
0.0
  0
LINE
  5
7CD2
  8
3
  6
CONTINUOUS
 62
     0
 10
4854.1658029999999
 20
5240.1719189999994
 30
0.0
 11
5262.3760009999996
 21
5240.1719189999994
 31
0.0
  0
LINE
  5
7CD3
  8
3
  6
CONTINUOUS
 62
     0
 10
5212.3760010000015
 20
6290.1719189999994
 30
0.0
 11
5212.3760009999996
 21
5340.1719189999994
 31
0.0
  0
INSERT
  5
7CD4
  8
3
  6
CONTINUOUS
 62
     0
  2
_OPEN
 10
5212.3760010000015
 20
6390.1719190000003
 30
0.0
 41
100.0
 42
100.0
 43
100.0
 50
90.0
  0
INSERT
  5
7CD5
  8
3
  6
CONTINUOUS
 62
     0
  2
_OPEN
 10
5212.3760009999996
 20
5240.1719189999994
 30
0.0
 41
100.0
 42
100.0
 43
100.0
 50
270.0
  0
TEXT
  8
3
  40
150
  5
7D5E
  62
0
  72
0
  71
0
 10
4787.38
 20
5516.96
 30
0.000000
  1
1150
  0
POINT
  5
7CD7
  8
DEFPOINTS
  6
CONTINUOUS
 62
     0
 10
4829.1658029999999
 20
6390.1719190000003
 30
0.0
  0
POINT
  5
7CD8
  8
DEFPOINTS
  6
CONTINUOUS
 62
     0
 10
4829.1658029999999
 20
5240.1719189999994
 30
0.0
  0
POINT
  5
7CD9
  8
DEFPOINTS
  6
CONTINUOUS
 62
     0
 10
5212.3760009999996
 20
5240.1719189999994
 30
0.0
  0
ENDBLK
  5
7AF9
  8
0
  0
BLOCK
  8
0
  2
*D2
 70
     1
 10
0.0
 20
0.0
 30
0.0
  3
*D2
  1

  0
LINE
  5
7CDA
  8
3
  6
CONTINUOUS
 62
     0
 10
4854.1658029999999
 20
6390.1719190000003
 30
0.0
 11
5585.8011490000008
 21
6390.1719190000003
 31
0.0
  0
LINE
  5
7CDB
  8
3
  6
CONTINUOUS
 62
     0
 10
5016.4047629999995
 20
5192.1719189999994
 30
0.0
 11
5585.8011490000008
 21
5192.1719189999994
 31
0.0
  0
LINE
  5
7CDC
  8
3
  6
CONTINUOUS
 62
     0
 10
5535.8011490000008
 20
6290.1719189999994
 30
0.0
 11
5535.8011489999999
 21
5292.1719190000003
 31
0.0
  0
INSERT
  5
7CDD
  8
3
  6
CONTINUOUS
 62
     0
  2
_OPEN
 10
5535.8011490000008
 20
6390.1719190000003
 30
0.0
 41
100.0
 42
100.0
 43
100.0
 50
90.0
  0
INSERT
  5
7CDE
  8
3
  6
CONTINUOUS
 62
     0
  2
_OPEN
 10
5535.8011489999999
 20
5192.1719189999994
 30
0.0
 41
100.0
 42
100.0
 43
100.0
 50
270.0
  0
TEXT
  8
3
  40
150
  5
7D5F
  62
0
  72
0
  71
0
 10
5110.80
 20
5516.96
 30
0.000000
  1
1198
  0
POINT
  5
7CE0
  8
DEFPOINTS
  6
CONTINUOUS
 62
     0
 10
4829.1658029999999
 20
6390.1719190000003
 30
0.0
  0
POINT
  5
7CE1
  8
DEFPOINTS
  6
CONTINUOUS
 62
     0
 10
4991.4047630000014
 20
5192.1719189999994
 30
0.0
  0
POINT
  5
7CE2
  8
DEFPOINTS
  6
CONTINUOUS
 62
     0
 10
5535.8011489999999
 20
5192.1719189999994
 30
0.0
  0
ENDBLK
  5
7B07
  8
0
  0
BLOCK
  8
0
  2
*D3
 70
     1
 10
0.0
 20
0.0
 30
0.0
  3
*D3
  1

  0
LINE
  5
7CE3
  8
3
  6
CONTINUOUS
 62
     0
 10
4754.1658029999999
 20
4352.1719189999994
 30
0.0
 11
5585.8011489999999
 21
4352.1719189999994
 31
0.0
  0
LINE
  5
7CE4
  8
3
  6
CONTINUOUS
 62
     0
 10
5535.8011489999999
 20
5092.1719190000003
 30
0.0
 11
5535.8011489999999
 21
4452.1719189999994
 31
0.0
  0
INSERT
  5
7CE5
  8
3
  6
CONTINUOUS
 62
     0
  2
_OPEN
 10
5535.8011489999999
 20
5192.1719189999994
 30
0.0
 41
100.0
 42
100.0
 43
100.0
 50
90.0
  0
INSERT
  5
7CE6
  8
3
  6
CONTINUOUS
 62
     0
  2
_OPEN
 10
5535.8011489999999
 20
4352.1719189999994
 30
0.0
 41
100.0
 42
100.0
 43
100.0
 50
270.0
  0
TEXT
  8
3
  40
150
  5
7D60
  62
0
  72
0
  71
0
 10
5110.80
 20
4506.67
 30
0.000000
  1
840
  0
POINT
  5
7CE8
  8
DEFPOINTS
  6
CONTINUOUS
 62
     0
 10
4991.4047630000014
 20
5192.1719189999994
 30
0.0
  0
POINT
  5
7CE9
  8
DEFPOINTS
  6
CONTINUOUS
 62
     0
 10
4729.165802999999
 20
4352.1719189999994
 30
0.0
  0
POINT
  5
7CEA
  8
DEFPOINTS
  6
CONTINUOUS
 62
     0
 10
5535.8011489999999
 20
4352.1719189999994
 30
0.0
  0
ENDBLK
  5
7B13
  8
0
  0
BLOCK
  8
0
  2
*D4
 70
     1
 10
0.0
 20
0.0
 30
0.0
  3
*D4
  1

  0
LINE
  5
7CEB
  8
3
  6
CONTINUOUS
 62
     0
 10
4854.1658029999999
 20
6443.1719190000003
 30
0.0
 11
5934.7769050000024
 21
6443.1719190000003
 31
0.0
  0
LINE
  5
7CEC
  8
3
  6
CONTINUOUS
 62
     0
 10
4754.1658029999999
 20
4352.1719189999994
 30
0.0
 11
5934.7769050000006
 21
4352.1719189999994
 31
0.0
  0
LINE
  5
7CED
  8
3
  6
CONTINUOUS
 62
     0
 10
5884.7769050000024
 20
6343.1719189999994
 30
0.0
 11
5884.7769050000006
 21
4452.1719189999994
 31
0.0
  0
INSERT
  5
7CEE
  8
3
  6
CONTINUOUS
 62
     0
  2
_OPEN
 10
5884.7769050000024
 20
6443.1719190000003
 30
0.0
 41
100.0
 42
100.0
 43
100.0
 50
90.0
  0
INSERT
  5
7CEF
  8
3
  6
CONTINUOUS
 62
     0
  2
_OPEN
 10
5884.7769050000006
 20
4352.1719189999994
 30
0.0
 41
100.0
 42
100.0
 43
100.0
 50
270.0
  0
TEXT
  8
3
  40
150
  5
7D61
  62
0
  72
0
  71
0
 10
5459.78
 20
5093.77
 30
0.000000
  1
2091
  0
POINT
  5
7CF1
  8
DEFPOINTS
  6
CONTINUOUS
 62
     0
 10
4829.1658029999999
 20
6443.1719190000003
 30
0.0
  0
POINT
  5
7CF2
  8
DEFPOINTS
  6
CONTINUOUS
 62
     0
 10
4729.165802999999
 20
4352.1719189999994
 30
0.0
  0
POINT
  5
7CF3
  8
DEFPOINTS
  6
CONTINUOUS
 62
     0
 10
5884.7769050000006
 20
4352.1719189999994
 30
0.0
  0
ENDBLK
  5
7B20
  8
0
  0
BLOCK
  8
0
  2
*D5
 70
     1
 10
0.0
 20
0.0
 30
0.0
  3
*D5
  1

  0
LINE
  5
7CF4
  8
3
  6
CONTINUOUS
 62
     0
 10
4829.1658029999999
 20
6468.1719189999994
 30
0.0
 11
4829.1658029999999
 21
6665.0445759999993
 31
0.0
  0
LINE
  5
7CF5
  8
3
  6
CONTINUOUS
 62
     0
 10
4069.1658029999999
 20
6464.4045589999996
 30
0.0
 11
4069.1658029999999
 21
6665.0445759999993
 31
0.0
  0
LINE
  5
7CF6
  8
3
  6
CONTINUOUS
 62
     0
 10
4929.1658029999999
 20
6615.0445759999993
 30
0.0
 11
5029.1658029999999
 21
6615.0445759999993
 31
0.0
  0
LINE
  5
7CF7
  8
3
  6
CONTINUOUS
 62
     0
 10
3969.1658029999999
 20
6615.0445759999993
 30
0.0
 11
3869.1658029999999
 21
6615.0445759999993
 31
0.0
  0
LINE
  5
7CF8
  8
3
  6
CONTINUOUS
 62
     0
 10
4829.1658029999999
 20
6615.0445759999993
 30
0.0
 11
4069.1658029999999
 21
6615.0445759999993
 31
0.0
  0
INSERT
  5
7CF9
  8
3
  6
CONTINUOUS
 62
     0
  2
_OPEN
 10
4829.1658029999999
 20
6615.0445759999993
 30
0.0
 41
100.0
 42
100.0
 43
100.0
 50
180.0
  0
INSERT
  5
7CFA
  8
3
  6
CONTINUOUS
 62
     0
  2
_OPEN
 10
4069.1658029999999
 20
6615.0445759999993
 30
0.0
 41
100.0
 42
100.0
 43
100.0
  0
TEXT
  8
3
  40
150
  5
7D62
  62
0
  72
0
  71
0
 10
4112.02
 20
6474.54
 30
0.000000
  1
760
  0
POINT
  5
7CFC
  8
DEFPOINTS
  6
CONTINUOUS
 62
     0
 10
4829.1658029999999
 20
6443.1719190000003
 30
0.0
  0
POINT
  5
7CFD
  8
DEFPOINTS
  6
CONTINUOUS
 62
     0
 10
4069.1658029999999
 20
6439.4045589999996
 30
0.0
  0
POINT
  5
7CFE
  8
DEFPOINTS
  6
CONTINUOUS
 62
     0
 10
4069.1658029999999
 20
6615.0445759999993
 30
0.0
  0
ENDBLK
  5
7B2D
  8
0
  0
BLOCK
  8
0
  2
*D6
 70
     1
 10
0.0
 20
0.0
 30
0.0
  3
*D6
  1

  0
LINE
  5
7CFF
  8
3
  6
CONTINUOUS
 62
     0
 10
3100.1658029999999
 20
5217.0493232963972
 30
0.0
 11
3100.1658029999999
 21
6665.0445759999993
 31
0.0
  0
LINE
  5
7D00
  8
3
  6
CONTINUOUS
 62
     0
 10
3969.1658029999999
 20
6615.0445759999993
 30
0.0
 11
3200.1658029999999
 21
6615.0445759999993
 31
0.0
  0
INSERT
  5
7D01
  8
3
  6
CONTINUOUS
 62
     0
  2
_OPEN
 10
4069.1658029999999
 20
6615.0445759999993
 30
0.0
 41
100.0
 42
100.0
 43
100.0
  0
INSERT
  5
7D02
  8
3
  6
CONTINUOUS
 62
     0
  2
_OPEN
 10
3100.1658029999999
 20
6615.0445759999993
 30
0.0
 41
100.0
 42
100.0
 43
100.0
 50
180.0
  0
TEXT
  8
3
  40
150
  5
7D63
  62
0
  72
0
  71
0
 10
3284.67
 20
6474.54
 30
0.000000
  1
969
  0
POINT
  5
7D04
  8
DEFPOINTS
  6
CONTINUOUS
 62
     0
 10
4069.1658029999999
 20
6439.4045589999996
 30
0.0
  0
POINT
  5
7D05
  8
DEFPOINTS
  6
CONTINUOUS
 62
     0
 10
3100.1658029999999
 20
5192.0493232963963
 30
0.0
  0
POINT
  5
7D06
  8
DEFPOINTS
  6
CONTINUOUS
 62
     0
 10
3100.1658029999999
 20
6615.0445759999993
 30
0.0
  0
ENDBLK
  5
7C96
  8
0
  0
BLOCK
  8
0
  2
*D7
 70
     1
 10
0.0
 20
0.0
 30
0.0
  3
*D7
  1

  0
LINE
  5
7D07
  8
3
  6
CONTINUOUS
 62
     0
 10
2369.1658029999999
 20
4327.1719189999994
 30
0.0
 11
2369.1658029999999
 21
3953.838499
 31
0.0
  0
LINE
  5
7D08
  8
3
  6
CONTINUOUS
 62
     0
 10
4069.1658029999999
 20
4148.0203289999999
 30
0.0
 11
4069.1658029999999
 21
3953.838499
 31
0.0
  0
LINE
  5
7D09
  8
3
  6
CONTINUOUS
 62
     0
 10
2469.1658029999999
 20
4003.838499
 30
0.0
 11
3969.1658029999999
 21
4003.838499
 31
0.0
  0
INSERT
  5
7D0A
  8
3
  6
CONTINUOUS
 62
     0
  2
_OPEN
 10
2369.1658029999999
 20
4003.838499
 30
0.0
 41
100.0
 42
100.0
 43
100.0
 50
180.0
  0
INSERT
  5
7D0B
  8
3
  6
CONTINUOUS
 62
     0
  2
_OPEN
 10
4069.1658029999999
 20
4003.838499
 30
0.0
 41
100.0
 42
100.0
 43
100.0
  0
TEXT
  8
3
  40
150
  5
7D64
  62
0
  72
0
  71
0
 10
3011.89
 20
3863.34
 30
0.000000
  1
1700
  0
POINT
  5
7D0D
  8
DEFPOINTS
  6
CONTINUOUS
 62
     0
 10
2369.1658029999999
 20
4352.1719189999994
 30
0.0
  0
POINT
  5
7D0E
  8
DEFPOINTS
  6
CONTINUOUS
 62
     0
 10
4069.1658029999999
 20
4173.020328999999
 30
0.0
  0
POINT
  5
7D0F
  8
DEFPOINTS
  6
CONTINUOUS
 62
     0
 10
4069.1658029999999
 20
4003.838499
 30
0.0
  0
ENDBLK
  5
7B46
  8
0
  0
BLOCK
  8
0
  2
*D8
 70
     1
 10
0.0
 20
0.0
 30
0.0
  3
*D8
  1

  0
LINE
  5
7D10
  8
3
  6
CONTINUOUS
 62
     0
 10
4729.165802999999
 20
4327.1719189999994
 30
0.0
 11
4729.165802999999
 21
3953.838499
 31
0.0
  0
LINE
  5
7D11
  8
3
  6
CONTINUOUS
 62
     0
 10
4629.1658029999999
 20
4003.838499
 30
0.0
 11
4169.1658029999999
 21
4003.838499
 31
0.0
  0
TEXT
  8
3
  40
150
  5
7D65
  62
0
  72
0
  71
0
 10
4108.86
 20
3863.34
 30
0.000000
  1
660
  0
INSERT
  5
7D13
  8
3
  6
CONTINUOUS
 62
     0
  2
_OPEN
 10
4729.165802999999
 20
4003.838499
 30
0.0
 41
100.0
 42
100.0
 43
100.0
  0
INSERT
  5
7D14
  8
3
  6
CONTINUOUS
 62
     0
  2
_OPEN
 10
4069.1658029999999
 20
4003.838499
 30
0.0
 41
100.0
 42
100.0
 43
100.0
 50
180.0
  0
POINT
  5
7D15
  8
DEFPOINTS
  6
CONTINUOUS
 62
     0
 10
4069.1658029999999
 20
4173.020328999999
 30
0.0
  0
POINT
  5
7D16
  8
DEFPOINTS
  6
CONTINUOUS
 62
     0
 10
4729.165802999999
 20
4352.1719189999994
 30
0.0
  0
POINT
  5
7D17
  8
DEFPOINTS
  6
CONTINUOUS
 62
     0
 10
4729.165802999999
 20
4003.838499
 30
0.0
  0
ENDBLK
  5
7C40
  8
0
  0
BLOCK
  8
0
  2
*D9
 70
     1
 10
0.0
 20
0.0
 30
0.0
  3
*D9
  1

  0
LINE
  5
7D18
  8
3
  6
CONTINUOUS
 62
     0
 10
8450.3760123939901
 20
6415.1719189999994
 30
0.0
 11
8450.3760123939901
 21
6635.1452820000004
 31
0.0
  0
LINE
  5
7D19
  8
3
  6
CONTINUOUS
 62
     0
 10
7600.3760123939901
 20
6415.1719189999994
 30
0.0
 11
7600.3760123939901
 21
6635.1452820000004
 31
0.0
  0
LINE
  5
7D1A
  8
3
  6
CONTINUOUS
 62
     0
 10
8350.3760123939901
 20
6585.1452820000004
 30
0.0
 11
7700.3760123939901
 21
6585.1452820000004
 31
0.0
  0
INSERT
  5
7D1B
  8
3
  6
CONTINUOUS
 62
     0
  2
_OPEN
 10
8450.3760123939901
 20
6585.1452820000004
 30
0.0
 41
100.0
 42
100.0
 43
100.0
  0
INSERT
  5
7D1C
  8
3
  6
CONTINUOUS
 62
     0
  2
_OPEN
 10
7600.3760123939901
 20
6585.1452820000004
 30
0.0
 41
100.0
 42
100.0
 43
100.0
 50
180.0
  0
TEXT
  8
3
  40
150
  5
7D66
  62
0
  72
0
  71
0
 10
7722.16
 20
6444.65
 30
0.000000
  1
850
  0
POINT
  5
7D1E
  8
DEFPOINTS
  6
CONTINUOUS
 62
     0
 10
8450.3760123939901
 20
6390.1719190000003
 30
0.0
  0
POINT
  5
7D1F
  8
DEFPOINTS
  6
CONTINUOUS
 62
     0
 10
7600.3760123939901
 20
6390.1719190000003
 30
0.0
  0
POINT
  5
7D20
  8
DEFPOINTS
  6
CONTINUOUS
 62
     0
 10
7600.3760123939901
 20
6585.1452820000004
 30
0.0
  0
ENDBLK
  5
7B61
  8
0
  0
BLOCK
  8
0
  2
*D10
 70
     1
 10
0.0
 20
0.0
 30
0.0
  3
*D10
  1

  0
LINE
  5
7D21
  8
3
  6
CONTINUOUS
 62
     0
 10
8578.3760123939901
 20
5752.1719190000003
 30
0.0
 11
9029.5123813939917
 21
5752.1719190000003
 31
0.0
  0
LINE
  5
7D22
  8
3
  6
CONTINUOUS
 62
     0
 10
8578.3760123939901
 20
4632.1719190000003
 30
0.0
 11
9029.5123813939917
 21
4632.1719190000003
 31
0.0
  0
LINE
  5
7D23
  8
3
  6
CONTINUOUS
 62
     0
 10
8979.5123813939936
 20
5652.1719190000003
 30
0.0
 11
8979.5123813939936
 21
4732.1719189999994
 31
0.0
  0
INSERT
  5
7D24
  8
3
  6
CONTINUOUS
 62
     0
  2
_OPEN
 10
8979.5123813939936
 20
5752.1719190000003
 30
0.0
 41
100.0
 42
100.0
 43
100.0
 50
90.0
  0
INSERT
  5
7D25
  8
3
  6
CONTINUOUS
 62
     0
  2
_OPEN
 10
8979.5123813939936
 20
4632.1719190000003
 30
0.0
 41
100.0
 42
100.0
 43
100.0
 50
270.0
  0
TEXT
  8
3
  40
150
  5
7D67
  62
0
  72
0
  71
0
 10
8554.51
 20
4924.34
 30
0.000000
  1
φ1120
  0
POINT
  5
7D27
  8
DEFPOINTS
  6
CONTINUOUS
 62
     0
 10
8553.3760123939883
 20
5752.1719190000003
 30
0.0
  0
POINT
  5
7D28
  8
DEFPOINTS
  6
CONTINUOUS
 62
     0
 10
8553.3760123939883
 20
4632.1719190000003
 30
0.0
  0
POINT
  5
7D29
  8
DEFPOINTS
  6
CONTINUOUS
 62
     0
 10
8979.5123813939936
 20
4632.1719190000003
 30
0.0
  0
ENDBLK
  5
7CA1
  8
0
  0
BLOCK
  8
0
  2
*D11
 70
     1
 10
0.0
 20
0.0
 30
0.0
  3
*D11
  1

  0
LINE
  5
7C78
  8
0
  6
BYBLOCK
 62
     0
 10
8553.3760123939883
 20
5827.1719190000003
 30
0.0
 11
8553.3760123939883
 21
6944.1047639999988
 31
0.0
  0
LINE
  5
7C79
  8
0
  6
BYBLOCK
 62
     0
 10
8025.3760123939892
 20
6839.9730909999998
 30
0.0
 11
8025.3760123939892
 21
6944.1047639999988
 31
0.0
  0
LINE
  5
7C7A
  8
0
  6
BYBLOCK
 62
     0
 10
8453.3760123939901
 20
6894.1047639999988
 30
0.0
 11
8125.3760123939901
 21
6894.1047639999988
 31
0.0
  0
TEXT
  5
7C7B
  8
3
 62
     0
 10
8096.518869536847
 20
6955.8326640028818
 30
0.0
 40
150.0
  1
528
  0
INSERT
  5
7C7C
  8
0
  6
BYBLOCK
 62
     0
  2
_OPEN
 10
8553.3760123939883
 20
6894.1047639999988
 30
0.0
 41
100.0
 42
100.0
 43
100.0
  0
INSERT
  5
7C7D
  8
0
  6
BYBLOCK
 62
     0
  2
_OPEN
 10
8025.3760123939892
 20
6894.1047639999988
 30
0.0
 41
100.0
 42
100.0
 43
100.0
 50
180.0
  0
POINT
  5
7C7E
  8
DEFPOINTS
  6
BYBLOCK
 62
     0
 10
8553.3760123939883
 20
5802.1719190000003
 30
0.0
  0
POINT
  5
7C7F
  8
DEFPOINTS
  6
BYBLOCK
 62
     0
 10
8025.3760123939892
 20
6814.9730909999998
 30
0.0
  0
POINT
  5
7C80
  8
DEFPOINTS
  6
BYBLOCK
 62
     0
 10
8025.3760123939892
 20
6894.1047639999988
 30
0.0
  0
ENDBLK
  5
7C81
  8
0
  0
BLOCK
  8
0
  2
*D12
 70
     1
 10
0.0
 20
0.0
 30
0.0
  3
*D12
  1

  0
LINE
  5
7D2A
  8
3
  6
CONTINUOUS
 62
     0
 10
7285.376012393991
 20
5595.1719190000003
 30
0.0
 11
7285.376012393991
 21
6944.1047639999988
 31
0.0
  0
LINE
  5
7D2B
  8
3
  6
CONTINUOUS
 62
     0
 10
7925.3760123939892
 20
6894.1047639999988
 30
0.0
 11
7385.3760123939901
 21
6894.1047639999988
 31
0.0
  0
INSERT
  5
7D2C
  8
3
  6
CONTINUOUS
 62
     0
  2
_OPEN
 10
8025.3760123939892
 20
6894.1047639999988
 30
0.0
 41
100.0
 42
100.0
 43
100.0
  0
INSERT
  5
7D2D
  8
3
  6
CONTINUOUS
 62
     0
  2
_OPEN
 10
7285.376012393991
 20
6894.1047639999988
 30
0.0
 41
100.0
 42
100.0
 43
100.0
 50
180.0
  0
TEXT
  8
3
  40
150
  5
7D68
  62
0
  72
0
  71
0
 10
7355.38
 20
6878.60
 30
0.000000
  1
MAX
  0
TEXT
  8
3
  40
150
  5
7D69
  62
0
  72
0
  71
0
 10
7355.38
 20
6683.60
 30
0.000000
  1
850
  0
POINT
  5
7D2F
  8
DEFPOINTS
  6
CONTINUOUS
 62
     0
 10
8025.3760123939892
 20
6814.9730909999998
 30
0.0
  0
POINT
  5
7D30
  8
DEFPOINTS
  6
CONTINUOUS
 62
     0
 10
7285.376012393991
 20
5570.1719189999994
 30
0.0
  0
POINT
  5
7D31
  8
DEFPOINTS
  6
CONTINUOUS
 62
     0
 10
7285.376012393991
 20
6894.1047639999988
 30
0.0
  0
ENDBLK
  5
7C8B
  8
0
  0
BLOCK
  8
0
  2
*D13
 70
     1
 10
0.0
 20
0.0
 30
0.0
  3
*D13
  1

  0
LINE
  5
7D32
  8
3
  6
CONTINUOUS
 62
     0
 10
7338.3760123939901
 20
4327.1719189999994
 30
0.0
 11
7338.3760123939901
 21
3993.7042240000001
 31
0.0
  0
LINE
  5
7D33
  8
3
  6
CONTINUOUS
 62
     0
 10
8025.3760123939892
 20
4172.420975
 30
0.0
 11
8025.3760123939892
 21
3993.7042240000001
 31
0.0
  0
LINE
  5
7D34
  8
3
  6
CONTINUOUS
 62
     0
 10
7438.376012393991
 20
4043.7042240000001
 30
0.0
 11
7925.3760123939892
 21
4043.7042240000001
 31
0.0
  0
INSERT
  5
7D35
  8
3
  6
CONTINUOUS
 62
     0
  2
_OPEN
 10
7338.3760123939901
 20
4043.7042240000001
 30
0.0
 41
100.0
 42
100.0
 43
100.0
 50
180.0
  0
INSERT
  5
7D36
  8
3
  6
CONTINUOUS
 62
     0
  2
_OPEN
 10
8025.3760123939892
 20
4043.7042240000001
 30
0.0
 41
100.0
 42
100.0
 43
100.0
  0
TEXT
  8
3
  40
150
  5
7D6A
  62
0
  72
0
  71
0
 10
7382.52
 20
3903.20
 30
0.000000
  1
687
  0
POINT
  5
7D38
  8
DEFPOINTS
  6
CONTINUOUS
 62
     0
 10
7338.3760123939901
 20
4352.1719189999994
 30
0.0
  0
POINT
  5
7D39
  8
DEFPOINTS
  6
CONTINUOUS
 62
     0
 10
8025.3760123939892
 20
4197.4209749999991
 30
0.0
  0
POINT
  5
7D3A
  8
DEFPOINTS
  6
CONTINUOUS
 62
     0
 10
8025.3760123939892
 20
4043.7042240000001
 30
0.0
  0
ENDBLK
  5
7B96
  8
0
  0
BLOCK
  8
0
  2
*D14
 70
     1
 10
0.0
 20
0.0
 30
0.0
  3
*D14
  1

  0
LINE
  5
7D3B
  8
3
  6
CONTINUOUS
 62
     0
 10
8518.3760123939901
 20
4327.1719189999994
 30
0.0
 11
8518.3760123939901
 21
3993.7042240000001
 31
0.0
  0
LINE
  5
7D3C
  8
3
  6
CONTINUOUS
 62
     0
 10
8125.3760123939901
 20
4043.7042240000001
 30
0.0
 11
8418.3760123939901
 21
4043.7042240000001
 31
0.0
  0
TEXT
  8
3
  40
150
  5
7D6B
  62
0
  72
0
  71
0
 10
7961.50
 20
3903.20
 30
0.000000
  1
493
  0
INSERT
  5
7D3E
  8
3
  6
CONTINUOUS
 62
     0
  2
_OPEN
 10
8025.3760123939892
 20
4043.7042240000001
 30
0.0
 41
100.0
 42
100.0
 43
100.0
 50
180.0
  0
INSERT
  5
7D3F
  8
3
  6
CONTINUOUS
 62
     0
  2
_OPEN
 10
8518.3760123939901
 20
4043.7042240000001
 30
0.0
 41
100.0
 42
100.0
 43
100.0
  0
POINT
  5
7D40
  8
DEFPOINTS
  6
CONTINUOUS
 62
     0
 10
8025.3760123939892
 20
4197.4209749999991
 30
0.0
  0
POINT
  5
7D41
  8
DEFPOINTS
  6
CONTINUOUS
 62
     0
 10
8518.3760123939901
 20
4352.1719189999994
 30
0.0
  0
POINT
  5
7D42
  8
DEFPOINTS
  6
CONTINUOUS
 62
     0
 10
8518.3760123939901
 20
4043.7042240000001
 30
0.0
  0
ENDBLK
  5
7BD0
  8
0
  0
BLOCK
  8
0
  2
*D15
 70
     1
 10
0.0
 20
0.0
 30
0.0
  3
*D15
  1

  0
LINE
  5
7D43
  8
3
  6
CONTINUOUS
 62
     0
 10
2369.1658029999999
 20
8873.0266943671159
 30
0.0
 11
2369.1658029999999
 21
8440.8778393671164
 31
0.0
  0
LINE
  5
7D44
  8
3
  6
CONTINUOUS
 62
     0
 10
4729.165802999999
 20
8873.0266943671159
 30
0.0
 11
4729.165802999999
 21
8440.8778393671164
 31
0.0
  0
LINE
  5
7D45
  8
3
  6
CONTINUOUS
 62
     0
 10
2469.1658029999999
 20
8490.8778393671164
 30
0.0
 11
4629.1658029999999
 21
8490.8778393671164
 31
0.0
  0
INSERT
  5
7D46
  8
3
  6
CONTINUOUS
 62
     0
  2
_OPEN
 10
2369.1658029999999
 20
8490.8778393671164
 30
0.0
 41
100.0
 42
100.0
 43
100.0
 50
180.0
  0
INSERT
  5
7D47
  8
3
  6
CONTINUOUS
 62
     0
  2
_OPEN
 10
4729.165802999999
 20
8490.8778393671164
 30
0.0
 41
100.0
 42
100.0
 43
100.0
  0
TEXT
  8
3
  40
150
  5
7D6C
  62
0
  72
0
  71
0
 10
3211.34
 20
8350.38
 30
0.000000
  1
2360
  0
POINT
  5
7D49
  8
DEFPOINTS
  6
CONTINUOUS
 62
     0
 10
2369.1658029999999
 20
8898.0266943671159
 30
0.0
  0
POINT
  5
7D4A
  8
DEFPOINTS
  6
CONTINUOUS
 62
     0
 10
4729.165802999999
 20
8898.0266943671159
 30
0.0
  0
POINT
  5
7D4B
  8
DEFPOINTS
  6
CONTINUOUS
 62
     0
 10
4729.165802999999
 20
8490.8778393671164
 30
0.0
  0
ENDBLK
  5
7C4C
  8
0
  0
BLOCK
  8
0
  2
*D16
 70
     1
 10
0.0
 20
0.0
 30
0.0
  3
*D16
  1

  0
LINE
  5
7D4C
  8
3
  6
CONTINUOUS
 62
     0
 10
4754.1658029999999
 20
10078.02669436711
 30
0.0
 11
5246.6797030000007
 21
10078.02669436711
 31
0.0
  0
LINE
  5
7D4D
  8
3
  6
CONTINUOUS
 62
     0
 10
4754.1658029999999
 20
8898.0266943671159
 30
0.0
 11
5246.6797030000007
 21
8898.0266943671159
 31
0.0
  0
LINE
  5
7D4E
  8
3
  6
CONTINUOUS
 62
     0
 10
5196.6797029999998
 20
9978.0266943671159
 30
0.0
 11
5196.6797029999998
 21
8998.0266943671159
 31
0.0
  0
INSERT
  5
7D4F
  8
3
  6
CONTINUOUS
 62
     0
  2
_OPEN
 10
5196.6797029999998
 20
10078.02669436711
 30
0.0
 41
100.0
 42
100.0
 43
100.0
 50
90.0
  0
INSERT
  5
7D50
  8
3
  6
CONTINUOUS
 62
     0
  2
_OPEN
 10
5196.6797029999998
 20
8898.0266943671159
 30
0.0
 41
100.0
 42
100.0
 43
100.0
 50
270.0
  0
TEXT
  8
3
  40
150
  5
7D6D
  62
0
  72
0
  71
0
 10
4771.68
 20
9182.16
 30
0.000000
  1
1180
  0
POINT
  5
7D52
  8
DEFPOINTS
  6
CONTINUOUS
 62
     0
 10
4729.165802999999
 20
10078.02669436711
 30
0.0
  0
POINT
  5
7D53
  8
DEFPOINTS
  6
CONTINUOUS
 62
     0
 10
4729.165802999999
 20
8898.0266943671159
 30
0.0
  0
POINT
  5
7D54
  8
DEFPOINTS
  6
CONTINUOUS
 62
     0
 10
5196.6797029999998
 20
8898.0266943671159
 30
0.0
  0
ENDBLK
  5
7C59
  8
0
  0
BLOCK
  8
0
  2
*D17
 70
     1
 10
0.0
 20
0.0
 30
0.0
  3
*D17
  1

  0
LINE
  5
7D55
  8
3
 62
     0
 10
4829.1658029999999
 20
6468.1719189999994
 30
0.0
 11
4829.1658029999999
 21
6967.3737337985467
 31
0.0
  0
LINE
  5
7D56
  8
3
 62
     0
 10
2369.1658029999999
 20
4502.1719189999994
 30
0.0
 11
2369.1658029999999
 21
6967.3737337985467
 31
0.0
  0
LINE
  5
7D57
  8
3
 62
     0
 10
4729.165802999999
 20
6917.3737337985467
 30
0.0
 11
2469.1658029999999
 21
6917.3737337985467
 31
0.0
  0
INSERT
  5
7D58
  8
3
 62
     0
  2
_OPEN
 10
4829.1658029999999
 20
6917.3737337985467
 30
0.0
 41
100.0
 42
100.0
 43
100.0
  0
INSERT
  5
7D59
  8
3
 62
     0
  2
_OPEN
 10
2369.1658029999999
 20
6917.3737337985467
 30
0.0
 41
100.0
 42
100.0
 43
100.0
 50
180.0
  0
TEXT
  8
3
  40
150
  5
7D6E
  62
0
  72
0
  71
0
 10
3442.67
 20
6776.87
 30
0.000000
  1
2460
  0
POINT
  5
7D5B
  8
DEFPOINTS
 62
     0
 10
4829.1658029999999
 20
6443.1719190000003
 30
0.0
  0
POINT
  5
7D5C
  8
DEFPOINTS
 62
     0
 10
2369.1658029999999
 20
4477.1719189999994
 30
0.0
  0
POINT
  5
7D5D
  8
DEFPOINTS
 62
     0
 10
2369.1658029999999
 20
6917.3737337985467
 30
0.0
  0
ENDBLK
  5
7CAD
  8
0
  0
ENDSEC
  0
SECTION
  2
ENTITIES
  0
LINE
  5
7A63
  8
1
  6
CONTINUOUS
 10
2469.1658029999999
 20
4532.1719189999994
 30
0.0
 11
2919.1658029999999
 21
4532.1719189999994
 31
0.0
  0
LINE
  5
7A64
  8
1
  6
CONTINUOUS
 10
4729.165802999999
 20
4477.1719189999994
 30
0.0
 11
2369.1658029999999
 21
4477.1719189999994
 31
0.0
  0
LINE
  5
7A65
  8
1
  6
CONTINUOUS
 10
4729.165802999999
 20
4352.1719189999994
 30
0.0
 11
2369.1658029999999
 21
4352.1719189999994
 31
0.0
  0
ARC
  5
7A66
  8
1
  6
CONTINUOUS
 10
3987.1658029999999
 20
5274.1719190000003
 30
0.0
 40
890.20000000000005
 50
180.0
 51
275.10000000000002
  0
ARC
  5
7A67
  8
1
  6
CONTINUOUS
 10
4151.1658029999999
 20
5274.1719190000003
 30
0.0
 40
1054.2
 50
94.500000000000014
 51
180.0
  0
LINE
  5
7A68
  8
1
  6
CONTINUOUS
 10
2469.1658029999999
 20
4477.1719189999994
 30
0.0
 11
2919.1658029999999
 21
4477.1719189999994
 31
0.0
  0
LINE
  5
7A69
  8
1
  6
CONTINUOUS
 10
2642.565803
 20
4820.4719189999996
 30
0.0
 11
3949.565803
 21
5443.1719190000003
 31
0.0
  0
LINE
  5
7A6A
  8
1
  6
CONTINUOUS
 10
2599.565803
 20
4910.7719189999998
 30
0.0
 11
3906.565803
 21
5533.4719189999996
 31
0.0
  0
LINE
  5
7A6B
  8
1
  6
CONTINUOUS
 10
2721.1658029999999
 20
4595.2719189999989
 30
0.0
 11
4131.7658030000002
 21
4921.2719189999998
 31
0.0
  0
LINE
  5
7A6C
  8
1
  6
CONTINUOUS
 10
2743.6658029999999
 20
4497.8719190000002
 30
0.0
 11
4154.2658030000002
 21
4823.8719190000011
 31
0.0
  0
ARC
  5
7A6D
  8
1
  6
CONTINUOUS
 10
2694.1658029999999
 20
4712.1719189999994
 30
0.0
 40
199.0
 50
320.10000000000002
 51
219.90000000000001
  0
ARC
  5
7A6E
  8
1
  6
CONTINUOUS
 10
2694.1658029999999
 20
4712.1719189999994
 30
0.0
 40
220.0
 50
115.4999999999999
 51
283.0
  0
CIRCLE
  5
7A6F
  8
1
  6
CONTINUOUS
 10
2694.1658029999999
 20
4712.1719189999994
 30
0.0
 40
120.0
  0
LINE
  5
7A70
  8
2
  6
CENTER
 10
2574.1658029999999
 20
4712.1719189999994
 30
0.0
 11
2814.1658029999999
 21
4712.1719189999994
 31
0.0
  0
LINE
  5
7A71
  8
1
  6
CONTINUOUS
 10
2532.1658029999999
 20
4532.1719189999994
 30
0.0
 11
2532.1658029999999
 21
4574.6719189999994
 31
0.0
  0
LINE
  5
7A72
  8
1
  6
CONTINUOUS
 10
2532.1658029999999
 20
4574.6719189999994
 30
0.0
 11
2541.4658030000001
 21
4584.571919
 31
0.0
  0
LINE
  5
7A73
  8
1
  6
CONTINUOUS
 10
2369.1658029999999
 20
4477.1719189999994
 30
0.0
 11
2369.1658029999999
 21
4352.1719189999994
 31
0.0
  0
LINE
  5
7A74
  8
1
  6
CONTINUOUS
 10
2469.1658029999999
 20
4477.1719189999994
 30
0.0
 11
2469.1658029999999
 21
4532.1719189999994
 31
0.0
  0
LINE
  5
7A75
  8
1
  6
CONTINUOUS
 10
2856.1658029999999
 20
4532.1719189999994
 30
0.0
 11
2856.1658029999999
 21
4574.6719189999994
 31
0.0
  0
LINE
  5
7A76
  8
1
  6
CONTINUOUS
 10
2856.1658029999999
 20
4574.6719189999994
 30
0.0
 11
2846.8658030000001
 21
4584.571919
 31
0.0
  0
LINE
  5
7A77
  8
2
  6
CENTER
 10
2694.1658029999999
 20
4592.1719190000003
 30
0.0
 11
2694.1658029999999
 21
4832.1719190000003
 31
0.0
  0
CIRCLE
  5
7A78
  8
1
  6
CONTINUOUS
 10
4069.1658029999999
 20
5192.1719189999994
 30
0.0
 40
278.0
  0
CIRCLE
  5
7A79
  8
1
  6
CONTINUOUS
 10
4069.1658029999999
 20
5192.1719189999994
 30
0.0
 40
610.0
  0
CIRCLE
  5
7A7A
  8
1
  6
CONTINUOUS
 10
4069.1658029999999
 20
5192.1719189999994
 30
0.0
 40
560.0
  0
ARC
  5
7A7B
  8
1
  6
CONTINUOUS
 10
4000.6658029999999
 20
5123.6719189999994
 30
0.0
 40
739.10000000000002
 50
275.10000000000002
 51
0.0
  0
LINE
  5
7A7C
  8
1
  6
CONTINUOUS
 10
4829.1658029999999
 20
6390.1719190000003
 30
0.0
 11
4069.1658029999999
 21
6325.1719189999994
 31
0.0
  0
ARC
  5
7A7D
  8
1
  6
CONTINUOUS
 10
4069.1658029999999
 20
5192.1719189999994
 30
0.0
 40
378.0
 50
283.0
 51
115.4999999999999
  0
LINE
  5
7A7E
  8
2
  6
CENTER
 10
2766.6141729999999
 20
5192.1719189999994
 30
0.0
 11
4991.4047630000014
 21
5192.1719189999994
 31
0.0
  0
LINE
  5
7A7F
  8
1
  6
CONTINUOUS
 10
2919.1658029999999
 20
4477.1719189999994
 30
0.0
 11
2919.1658029999999
 21
4532.1719189999994
 31
0.0
  0
LINE
  5
7A80
  8
2
  6
CENTER
 10
4069.1658029999999
 20
4173.020328999999
 30
0.0
 11
4069.1658029999999
 21
6439.4045589999996
 31
0.0
  0
LINE
  5
7A81
  8
1
  6
CONTINUOUS
 10
4789.1658029999999
 20
5240.1719189999994
 30
0.0
 11
4789.1658029999999
 21
6386.7719189999998
 31
0.0
  0
LINE
  5
7A82
  8
1
  6
CONTINUOUS
 10
4829.1658029999999
 20
5187.1719189999994
 30
0.0
 11
4829.1658029999999
 21
6443.1719190000003
 31
0.0
  0
LINE
  5
7A83
  8
1
  6
CONTINUOUS
 10
4729.165802999999
 20
4477.1719189999994
 30
0.0
 11
4729.165802999999
 21
4352.1719189999994
 31
0.0
  0
ARC
  5
7A84
  8
1
  6
CONTINUOUS
 10
4137.665802999999
 20
5123.6719189999994
 30
0.0
 40
602.10000000000002
 50
0.0
 51
11.19999999999999
  0
LINE
  5
7A85
  8
1
  6
CONTINUOUS
 10
4728.3658029999988
 20
5240.1719189999994
 30
0.0
 11
4829.1658029999999
 21
5240.1719189999994
 31
0.0
  0
LINE
  5
7A86
  8
1
  6
CONTINUOUS
 10
8518.3760123939901
 20
4477.1719189999994
 30
0.0
 11
7338.3760123939901
 21
4477.1719189999994
 31
0.0
  0
LINE
  5
7A87
  8
1
  6
CONTINUOUS
 10
8518.3760123939901
 20
4352.1719189999994
 30
0.0
 11
7338.3760123939901
 21
4352.1719189999994
 31
0.0
  0
LINE
  5
7A88
  8
1
  6
CONTINUOUS
 10
7600.3760123939901
 20
6390.1719190000003
 30
0.0
 11
8450.3760123939901
 21
6390.1719190000003
 31
0.0
  0
LINE
  5
7A89
  8
1
  6
CONTINUOUS
 10
7600.3760123939901
 20
5240.1719189999994
 30
0.0
 11
8450.3760123939901
 21
5240.1719189999994
 31
0.0
  0
LINE
  5
7A8A
  8
1
  6
CONTINUOUS
 10
7600.3760123939901
 20
6390.1719190000003
 30
0.0
 11
8450.3760123939901
 21
5240.1719189999994
 31
0.0
  0
LINE
  5
7A8B
  8
1
  6
CONTINUOUS
 10
8450.3760123939901
 20
6390.1719190000003
 30
0.0
 11
7600.3760123939901
 21
5240.1719189999994
 31
0.0
  0
LINE
  5
7A8C
  8
1
  6
CONTINUOUS
 10
7600.3760123939901
 20
4477.1719189999994
 30
0.0
 11
7600.3760123939901
 21
6390.1719190000003
 31
0.0
  0
LINE
  5
7A8D
  8
1
  6
CONTINUOUS
 10
7285.376012393991
 20
5570.1719189999994
 30
0.0
 11
7525.3760123939901
 21
5570.1719189999994
 31
0.0
  0
LINE
  5
7A8E
  8
1
  6
CONTINUOUS
 10
7355.376012393991
 20
5470.1719190000003
 30
0.0
 11
7455.3760123939901
 21
5470.1719190000003
 31
0.0
  0
LINE
  5
7A8F
  8
1
  6
CONTINUOUS
 10
7355.376012393991
 20
4832.1719190000003
 30
0.0
 11
7455.3760123939901
 21
4832.1719190000003
 31
0.0
  0
LINE
  5
7A90
  8
1
  6
CONTINUOUS
 10
7355.376012393991
 20
4592.1719190000003
 30
0.0
 11
7455.3760123939901
 21
4592.1719190000003
 31
0.0
  0
LINE
  5
7A91
  8
1
  6
CONTINUOUS
 10
7355.376012393991
 20
4914.1719190000003
 30
0.0
 11
7455.3760123939901
 21
4914.1719190000003
 31
0.0
  0
LINE
  5
7A92
  8
1
  6
CONTINUOUS
 10
7285.376012393991
 20
4492.1719189999994
 30
0.0
 11
7525.3760123939901
 21
4492.1719189999994
 31
0.0
  0
LINE
  5
7A93
  8
1
  6
CONTINUOUS
 10
7285.376012393991
 20
4492.1719189999994
 30
0.0
 11
7285.376012393991
 21
5570.1719189999994
 31
0.0
  0
LINE
  5
7A94
  8
1
  6
CONTINUOUS
 10
7338.3760123939901
 20
4352.1719189999994
 30
0.0
 11
7338.3760123939901
 21
4477.1719189999994
 31
0.0
  0
LINE
  5
7A95
  8
1
  6
CONTINUOUS
 10
7355.376012393991
 20
4832.1719190000003
 30
0.0
 11
7355.376012393991
 21
4592.1719190000003
 31
0.0
  0
LINE
  5
7A96
  8
1
  6
CONTINUOUS
 10
7355.376012393991
 20
5470.1719190000003
 30
0.0
 11
7355.376012393991
 21
4914.1719190000003
 31
0.0
  0
LINE
  5
7A97
  8
1
  6
CONTINUOUS
 10
7525.3760123939901
 20
4492.1719189999994
 30
0.0
 11
7525.3760123939901
 21
5570.1719189999994
 31
0.0
  0
LINE
  5
7A98
  8
1
  6
CONTINUOUS
 10
7455.3760123939901
 20
4832.1719190000003
 30
0.0
 11
7455.3760123939901
 21
4592.1719190000003
 31
0.0
  0
LINE
  5
7A99
  8
1
  6
CONTINUOUS
 10
7455.3760123939901
 20
4739.6719189999994
 30
0.0
 11
7600.3760123939901
 21
4739.6719189999994
 31
0.0
  0
LINE
  5
7A9A
  8
1
  6
CONTINUOUS
 10
7455.3760123939901
 20
4684.6719189999994
 30
0.0
 11
7600.3760123939901
 21
4684.6719189999994
 31
0.0
  0
LINE
  5
7A9B
  8
1
  6
CONTINUOUS
 10
7455.3760123939901
 20
5470.1719190000003
 30
0.0
 11
7455.3760123939901
 21
4914.1719190000003
 31
0.0
  0
LINE
  5
7A9C
  8
1
  6
CONTINUOUS
 10
7455.3760123939901
 20
5219.6719189999994
 30
0.0
 11
7600.3760123939901
 21
5219.6719189999994
 31
0.0
  0
LINE
  5
7A9D
  8
1
  6
CONTINUOUS
 10
7455.3760123939901
 20
5164.6719189999994
 30
0.0
 11
7600.3760123939901
 21
5164.6719189999994
 31
0.0
  0
LINE
  5
7A9E
  8
1
  6
CONTINUOUS
 10
8450.3760123939901
 20
4477.1719189999994
 30
0.0
 11
8450.3760123939901
 21
6390.1719190000003
 31
0.0
  0
LINE
  5
7A9F
  8
1
  6
CONTINUOUS
 10
8553.3760123939883
 20
4582.1719189999994
 30
0.0
 11
8553.3760123939883
 21
5802.1719190000003
 31
0.0
  0
LINE
  5
7AA0
  8
1
  6
CONTINUOUS
 10
8518.3760123939901
 20
4352.1719189999994
 30
0.0
 11
8518.3760123939901
 21
4477.1719189999994
 31
0.0
  0
LINE
  5
7AA1
  8
1
  6
CONTINUOUS
 10
8450.3760123939901
 20
4632.1719190000003
 30
0.0
 11
8553.3760123939883
 21
4632.1719190000003
 31
0.0
  0
LINE
  5
7AA2
  8
1
  6
CONTINUOUS
 10
8450.3760123939901
 20
5752.1719190000003
 30
0.0
 11
8553.3760123939883
 21
5752.1719190000003
 31
0.0
  0
LINE
  5
7AA3
  8
1
  6
CONTINUOUS
 10
2369.1658029999999
 20
10078.02669436711
 30
0.0
 11
3509.1658029999999
 21
10078.02669436711
 31
0.0
  0
LINE
  5
7AA4
  8
1
  6
CONTINUOUS
 10
2369.1658029999999
 20
8898.0266943671159
 30
0.0
 11
4729.165802999999
 21
8898.0266943671159
 31
0.0
  0
LINE
  5
7AA5
  8
1
  6
CONTINUOUS
 10
2474.1658029999999
 20
8845.0266943671177
 30
0.0
 11
4447.165802999999
 21
8845.0266943671177
 31
0.0
  0
LINE
  5
7AA6
  8
1
  6
CONTINUOUS
 10
2474.1658029999999
 20
9085.0266943671159
 30
0.0
 11
4447.165802999999
 21
9085.0266943671159
 31
0.0
  0
LINE
  5
7AA7
  8
1
  6
CONTINUOUS
 10
2369.1658029999999
 20
10078.02669436711
 30
0.0
 11
2369.1658029999999
 21
8898.0266943671159
 31
0.0
  0
LINE
  5
7AA8
  8
1
  6
CONTINUOUS
 10
2666.6658029999999
 20
9015.0266943671159
 30
0.0
 11
2666.6658029999999
 21
9133.7266943671166
 31
0.0
  0
LINE
  5
7AA9
  8
1
  6
CONTINUOUS
 10
2721.6658029999999
 20
9015.0266943671159
 30
0.0
 11
2721.6658029999999
 21
9133.7266943671166
 31
0.0
  0
LINE
  5
7AAA
  8
1
  6
CONTINUOUS
 10
2814.1658029999999
 20
9015.0266943671159
 30
0.0
 11
2574.1658029999999
 21
9015.0266943671159
 31
0.0
  0
LINE
  5
7AAB
  8
1
  6
CONTINUOUS
 10
2814.1658029999999
 20
8915.0266943671159
 30
0.0
 11
2574.1658029999999
 21
8915.0266943671159
 31
0.0
  0
LINE
  5
7AAC
  8
1
  6
CONTINUOUS
 10
2574.1658029999999
 20
8915.0266943671159
 30
0.0
 11
2574.1658029999999
 21
9015.0266943671159
 31
0.0
  0
LINE
  5
7AAD
  8
1
  6
CONTINUOUS
 10
2474.1658029999999
 20
8845.0266943671177
 30
0.0
 11
2474.1658029999999
 21
9085.0266943671159
 31
0.0
  0
LINE
  5
7AAE
  8
1
  6
CONTINUOUS
 10
2814.1658029999999
 20
8915.0266943671159
 30
0.0
 11
2814.1658029999999
 21
9015.0266943671159
 31
0.0
  0
LINE
  5
7AAF
  8
1
  6
CONTINUOUS
 10
2495.065803
 20
9133.7266943671166
 30
0.0
 11
2893.2658029999998
 21
9133.7266943671166
 31
0.0
  0
LINE
  5
7AB0
  8
1
  6
CONTINUOUS
 10
2495.065803
 20
9733.2266943671148
 30
0.0
 11
2893.2658029999998
 21
9733.2266943671148
 31
0.0
  0
LINE
  5
7AB1
  8
1
  6
CONTINUOUS
 10
2495.065803
 20
9133.7266943671166
 30
0.0
 11
2495.065803
 21
9733.2266943671148
 31
0.0
  0
LINE
  5
7AB2
  8
1
  6
CONTINUOUS
 10
2893.2658029999998
 20
9133.7266943671166
 30
0.0
 11
2893.2658029999998
 21
9733.2266943671148
 31
0.0
  0
LINE
  5
7AB3
  8
1
  6
CONTINUOUS
 10
3096.9658030000001
 20
10010.02669436711
 30
0.0
 11
4829.1658029999999
 21
10010.02669436711
 31
0.0
  0
LINE
  5
7AB4
  8
1
  6
CONTINUOUS
 10
3096.9658030000001
 20
9160.0266943671159
 30
0.0
 11
4829.1658029999999
 21
9160.0266943671159
 31
0.0
  0
LINE
  5
7AB5
  8
1
  6
CONTINUOUS
 10
3459.1658029999999
 20
10113.02669436711
 30
0.0
 11
4679.1658029999999
 21
10113.02669436711
 31
0.0
  0
LINE
  5
7AB6
  8
1
  6
CONTINUOUS
 10
4347.1658029999999
 20
8915.0266943671159
 30
0.0
 11
3791.1658029999999
 21
8915.0266943671159
 31
0.0
  0
LINE
  5
7AB7
  8
1
  6
CONTINUOUS
 10
4347.1658029999999
 20
9015.0266943671159
 30
0.0
 11
3791.1658029999999
 21
9015.0266943671159
 31
0.0
  0
LINE
  5
7AB8
  8
1
  6
CONTINUOUS
 10
3096.9658030000001
 20
9160.0266943671159
 30
0.0
 11
3096.9658030000001
 21
10010.02669436711
 31
0.0
  0
LINE
  5
7AB9
  8
1
  6
CONTINUOUS
 10
4096.665802999999
 20
9160.0266943671159
 30
0.0
 11
4096.665802999999
 21
9015.0266943671159
 31
0.0
  0
LINE
  5
7ABA
  8
1
  6
CONTINUOUS
 10
4041.665802999999
 20
9160.0266943671159
 30
0.0
 11
4041.665802999999
 21
9015.0266943671159
 31
0.0
  0
LINE
  5
7ABB
  8
1
  6
CONTINUOUS
 10
3791.1658029999999
 20
8915.0266943671159
 30
0.0
 11
3791.1658029999999
 21
9015.0266943671159
 31
0.0
  0
LINE
  5
7ABC
  8
1
  6
CONTINUOUS
 10
3509.1658029999999
 20
10113.02669436711
 30
0.0
 11
3509.1658029999999
 21
10010.02669436711
 31
0.0
  0
LINE
  5
7ABD
  8
1
  6
CONTINUOUS
 10
4829.1658029999999
 20
9110.0266943671159
 30
0.0
 11
4829.1658029999999
 21
10060.02669436711
 31
0.0
  0
LINE
  5
7ABE
  8
1
  6
CONTINUOUS
 10
4347.1658029999999
 20
8915.0266943671159
 30
0.0
 11
4347.1658029999999
 21
9015.0266943671159
 31
0.0
  0
LINE
  5
7ABF
  8
1
  6
CONTINUOUS
 10
4447.165802999999
 20
8845.0266943671177
 30
0.0
 11
4447.165802999999
 21
9085.0266943671159
 31
0.0
  0
LINE
  5
7AC0
  8
1
  6
CONTINUOUS
 10
4729.165802999999
 20
9160.0266943671159
 30
0.0
 11
4729.165802999999
 21
8898.0266943671159
 31
0.0
  0
LINE
  5
7AC1
  8
1
  6
CONTINUOUS
 10
4629.1658029999999
 20
10078.02669436711
 30
0.0
 11
4729.165802999999
 21
10078.02669436711
 31
0.0
  0
LINE
  5
7AC2
  8
1
  6
CONTINUOUS
 10
4629.1658029999999
 20
10113.02669436711
 30
0.0
 11
4629.1658029999999
 21
10010.02669436711
 31
0.0
  0
LINE
  5
7AC3
  8
1
  6
CONTINUOUS
 10
4729.165802999999
 20
10078.02669436711
 30
0.0
 11
4729.165802999999
 21
10010.02669436711
 31
0.0
  0
LINE
  5
7AC4
  8
2
  6
CENTER
 10
4940.4053290000002
 20
9585.0266943671159
 30
0.0
 11
2247.496368999999
 21
9585.0266943671159
 31
0.0
  0
LINE
  5
7AC5
  8
2
  6
CENTER
 10
8025.3760123939892
 20
6594.120273999999
 30
0.0
 11
8025.3760123939892
 21
4197.4209749999991
 31
0.0
  0
LINE
  5
7AC6
  8
2
  6
CENTER
 10
7225.5517543939904
 20
5192.1719189999994
 30
0.0
 11
8640.4500023939927
 21
5192.1719189999994
 31
0.0
  0
LINE
  5
7AC7
  8
2
  6
CENTER
 10
4069.1658029999999
 20
8700.2064763671151
 30
0.0
 11
4069.1658029999999
 21
10256.62481636711
 31
0.0
  0
LINE
  5
7AC8
  8
4
  6
CONTINUOUS
 10
9250.0
 20
2500.0
 30
0.0
 11
9250.0
 21
1500.0
 31
0.0
  0
LINE
  5
7AC9
  8
4
  6
CONTINUOUS
 10
5750.0
 20
2500.0
 30
0.0
 11
5750.0
 21
1500.0
 31
0.0
  0
LINE
  5
7ACA
  8
4
  6
CONTINUOUS
 10
3250.0
 20
2500.0
 30
0.0
 11
3250.0
 21
1500.0
 31
0.0
  0
LINE
  5
7ACD
  8
4
  6
CONTINUOUS
 10
3250.0
 20
1500.0
 30
0.0
 11
9250.0
 21
1500.0
 31
0.0
  0
LINE
  5
7ACE
  8
4
  6
CONTINUOUS
 10
3250.0
 20
2000.0
 30
0.0
 11
9250.0
 21
2000.0
 31
0.0
  0
TEXT
  5
7ACF
  8
4
  6
CONTINUOUS
 10
3442.5104040000001
 20
2157.7151289999988
 30
0.0
 40
250.0
  1
機器名称
  0
TEXT
  5
7AD0
  8
4
  6
CONTINUOUS
 10
3431.2905300000002
 20
1608.225784
 30
0.0
 40
250.0
  1
機器型番
  0
TEXT
  5
7AD1
  8
4
  6
CONTINUOUS
 10
5894.740002999999
 20
2108.6553059999992
 30
0.0
 40
200.0
  1
ミツヤリミットロードファン
  0
TEXT
  5
7AD2
  8
4
  6
CONTINUOUS
 10
5933.2724779999999
 20
1585.7979210000001
 30
0.0
 40
250.0
  1
LL#7-4
  0
TEXT
  5
7AD4
  8
4
  6
CONTINUOUS
 10
4523.9288270000006
 20
11917.14420699999
 30
0.0
 40
270.0
  1
床置ベット
  0
TEXT
  5
7AD5
  8
4
  6
CONTINUOUS
 10
1574.6976770000001
 20
12655.986387999999
 30
0.0
 40
288.0
  1
ベルト駆動式片吸込両持リミットロードファン
  0
LINE
  5
7AD6
  8
4
  6
CONTINUOUS
 10
1250.0
 20
12347.04377099999
 30
0.0
 11
9250.0
 21
12347.04377099999
 31
0.0
  0
LINE
  5
7AD7
  8
4
  6
CONTINUOUS
 10
1250.0
 20
13347.043771000001
 30
0.0
 11
9250.0
 21
13347.043771000001
 31
0.0
  0
LINE
  5
7AD8
  8
4
  6
CONTINUOUS
 10
3250.0
 20
2500.0
 30
0.0
 11
9250.0
 21
2500.0
 31
0.0
  0
LINE
  5
7AD9
  8
4
  6
CONTINUOUS
 10
1250.0
 20
13347.043771000001
 30
0.0
 11
1250.0
 21
12347.04377099999
 31
0.0
  0
TEXT
  5
7ADA
  8
4
  6
CONTINUOUS
 10
2080.5145000000002
 20
11911.597388
 30
0.0
 40
270.0
  1
右回転右横向
  0
TEXT
  5
7ADB
  8
4
  6
CONTINUOUS
 10
7344.8477959999991
 20
13530.305407
 30
0.0
 40
280.0
  1
No.
  0
TEXT
  5
7ADC
  8
4
  6
CONTINUOUS
 10
6556.480313
 20
11917.14420699999
 30
0.0
 40
270.0
  1
縮尺：1/50
  0
LINE
  5
7ADD
  8
4
  6
CONTINUOUS
 10
9250.0
 20
13347.043771000001
 30
0.0
 11
9250.0
 21
12347.04377099999
 31
0.0
  0
LINE
  5
7ADF
  8
4
  6
CONTINUOUS
 10
7203.0871120000002
 20
13406.317916
 30
0.0
 11
7203.0871120000002
 21
13933.261307999999
 31
0.0
  0
LINE
  5
7AE0
  8
4
  6
CONTINUOUS
 10
7203.0871120000002
 20
13933.261307999999
 30
0.0
 11
9250.0
 21
13933.261307999999
 31
0.0
  0
LINE
  5
7AE1
  8
4
  6
CONTINUOUS
 10
9250.0
 20
13933.261307999999
 30
0.0
 11
9250.0
 21
13406.317916
 31
0.0
  0
LINE
  5
7AE2
  8
4
  6
CONTINUOUS
 10
9250.0
 20
13406.317916
 30
0.0
 11
7203.0871120000002
 21
13406.317916
 31
0.0
  0
DIMENSION
  5
7AFA
  8
3
  6
CONTINUOUS
  2
*D1
 10
5212.3760009999996
 20
5240.1719189999994
 30
0.0
 11
5212.3760009999987
 21
5782.4638780000014
 31
0.0
 70
   128
 13
4829.1658029999999
 23
6390.1719190000003
 33
0.0
 14
4829.1658029999999
 24
5240.1719189999994
 34
0.0
 50
90.0
1001
ACAD
1000
DSTYLE
1002
{
1070
   287
1070
     3
1070
    40
1040
50.0
1070
   143
1040
0.039
1070
   172
1070
     1
1070
   271
1070
     0
1070
   279
1070
     0
1070
   288
1070
     1
1002
}
  0
DIMENSION
  5
7B08
  8
3
  6
CONTINUOUS
  2
*D2
 10
5535.8011489999999
 20
5192.1719189999994
 30
0.0
 11
5535.8011489999999
 21
5782.4638780000014
 31
0.0
 70
   128
 13
4829.1658029999999
 23
6390.1719190000003
 33
0.0
 14
4991.4047630000014
 24
5192.1719189999994
 34
0.0
 50
90.0
1001
ACAD
1000
DSTYLE
1002
{
1070
   287
1070
     3
1070
    40
1040
50.0
1070
   143
1040
0.039
1070
   172
1070
     1
1070
   271
1070
     0
1070
   279
1070
     0
1070
   288
1070
     1
1002
}
  0
DIMENSION
  5
7B14
  8
3
  6
CONTINUOUS
  2
*D3
 10
5535.8011489999999
 20
4352.1719189999994
 30
0.0
 11
5410.801148999999
 21
4772.1719190000003
 31
0.0
 70
     0
 13
4991.4047630000014
 23
5192.1719189999994
 33
0.0
 14
4729.165802999999
 24
4352.1719189999994
 34
0.0
 50
90.0
1001
ACAD
1000
DSTYLE
1002
{
1070
   287
1070
     4
1070
    40
1040
50.0
1070
    75
1070
     1
1070
   143
1040
0.039
1070
   172
1070
     1
1070
   271
1070
     0
1070
   279
1070
     1
1070
   288
1070
     1
1002
}
  0
DIMENSION
  5
7B21
  8
3
  6
CONTINUOUS
  2
*D4
 10
5884.7769050000006
 20
4352.1719189999994
 30
0.0
 11
5884.7769049999988
 21
5359.2737120000002
 31
0.0
 70
   128
 13
4829.1658029999999
 23
6443.1719190000003
 33
0.0
 14
4729.165802999999
 24
4352.1719189999994
 34
0.0
 50
90.0
1001
ACAD
1000
DSTYLE
1002
{
1070
   287
1070
     3
1070
    40
1040
50.0
1070
   143
1040
0.039
1070
   172
1070
     1
1070
   271
1070
     0
1070
   279
1070
     0
1070
   288
1070
     1
1002
}
  0
DIMENSION
  5
7B2E
  8
3
  6
CONTINUOUS
  2
*D5
 10
4069.1658029999999
 20
6615.0445759999993
 30
0.0
 11
4412.0229449999997
 21
6615.0445759999993
 31
0.0
 70
   128
 13
4829.1658029999999
 23
6443.1719190000003
 33
0.0
 14
4069.1658029999999
 24
6439.4045589999996
 34
0.0
1001
ACAD
1000
DSTYLE
1002
{
1070
   287
1070
     3
1070
    40
1040
50.0
1070
   143
1040
0.039
1070
   172
1070
     1
1070
   271
1070
     0
1070
   279
1070
     0
1070
   288
1070
     1
1002
}
  0
DIMENSION
  5
7B3A
  8
3
  6
CONTINUOUS
  2
*D6
 10
3100.1658029999999
 20
6615.0445759999993
 30
0.0
 11
3584.6658029999999
 21
6740.0445759999993
 31
0.0
 70
     0
 13
4069.1658029999999
 23
6439.4045589999996
 33
0.0
 14
3100.1658029999999
 24
5192.0493232963963
 34
0.0
1001
ACAD
1000
DSTYLE
1002
{
1070
   287
1070
     4
1070
    40
1040
50.0
1070
    75
1070
     1
1070
   143
1040
0.039
1070
   172
1070
     1
1070
   271
1070
     0
1070
   279
1070
     1
1070
   288
1070
     1
1002
}
  0
DIMENSION
  5
7B47
  8
3
  6
CONTINUOUS
  2
*D7
 10
4069.1658029999999
 20
4003.838499
 30
0.0
 11
3311.8917590000001
 21
4003.838499
 31
0.0
 70
   128
 13
2369.1658029999999
 23
4352.1719189999994
 33
0.0
 14
4069.1658029999999
 24
4173.020328999999
 34
0.0
1001
ACAD
1000
DSTYLE
1002
{
1070
   287
1070
     3
1070
    40
1040
50.0
1070
   143
1040
0.039
1070
   172
1070
     1
1070
   271
1070
     0
1070
   279
1070
     0
1070
   288
1070
     1
1002
}
  0
DIMENSION
  5
7B55
  8
3
  6
CONTINUOUS
  2
*D8
 10
4729.165802999999
 20
4003.838499
 30
0.0
 11
4408.8582819999992
 21
4003.838499
 31
0.0
 70
   128
 13
4069.1658029999999
 23
4173.020328999999
 33
0.0
 14
4729.165802999999
 24
4352.1719189999994
 34
0.0
1001
ACAD
1000
DSTYLE
1002
{
1070
   287
1070
     4
1070
    40
1040
50.0
1070
    75
1070
     1
1070
   143
1040
0.039
1070
   172
1070
     1
1070
   271
1070
     0
1070
   279
1070
     1
1070
   280
1070
     1
1070
   288
1070
     1
1002
}
  0
DIMENSION
  5
7B62
  8
3
  6
CONTINUOUS
  2
*D9
 10
7600.3760123939901
 20
6585.1452820000004
 30
0.0
 11
8022.1597423939902
 21
6585.1452820000004
 31
0.0
 70
   128
 13
8450.3760123939901
 23
6390.1719190000003
 33
0.0
 14
7600.3760123939901
 24
6390.1719190000003
 34
0.0
1001
ACAD
1000
DSTYLE
1002
{
1070
   287
1070
     3
1070
    40
1040
50.0
1070
   143
1040
0.039
1070
   172
1070
     1
1070
   271
1070
     0
1070
   279
1070
     0
1070
   288
1070
     1
1002
}
  0
DIMENSION
  5
7B6F
  8
3
  6
CONTINUOUS
  2
*D10
 10
8979.5123813939936
 20
4632.1719190000003
 30
0.0
 11
8979.5123813939881
 21
5189.844306
 31
0.0
 70
   128
 13
8553.3760123939883
 23
5752.1719190000003
 33
0.0
 14
8553.3760123939883
 24
4632.1719190000003
 34
0.0
 50
90.0
1001
ACAD
1000
DSTYLE
1002
{
1070
   287
1070
     3
1070
     3
1000
φ<>
1070
    40
1040
50.0
1070
   143
1040
0.039
1070
   172
1070
     1
1070
   271
1070
     0
1070
   279
1070
     0
1070
   288
1070
     1
1002
}
  0
DIMENSION
  5
7B7E
  8
3
  6
CONTINUOUS
  2
*D11
 10
8025.3760123939892
 20
6894.1047639999988
 30
0.0
 11
8289.3760123939901
 21
7030.8326640028827
 31
0.0
 70
   128
 13
8553.3760123939883
 23
5802.1719190000003
 33
0.0
 14
8025.3760123939892
 24
6814.9730909999998
 34
0.0
1001
ACAD
1000
DSTYLE
1002
{
1070
   288
1070
     1
1070
   172
1070
     1
1070
    40
1040
50.0
1070
   271
1070
     0
1070
   143
1040
0.039
1002
}
  0
DIMENSION
  5
7B8A
  8
3
  6
CONTINUOUS
  2
*D12
 10
7285.376012393991
 20
6894.1047639999988
 30
0.0
 11
7655.376012393991
 21
7144.1047639999988
 31
0.0
 70
     0
  1
MAX\P850
 13
8025.3760123939892
 23
6814.9730909999998
 33
0.0
 14
7285.376012393991
 24
5570.1719189999994
 34
0.0
1001
ACAD
1000
DSTYLE
1002
{
1070
   287
1070
     4
1070
    40
1040
50.0
1070
    75
1070
     1
1070
   143
1040
0.039
1070
   172
1070
     1
1070
   271
1070
     0
1070
   279
1070
     1
1070
   288
1070
     1
1002
}
  0
DIMENSION
  5
7B97
  8
3
  6
CONTINUOUS
  2
*D13
 10
8025.3760123939892
 20
4043.7042240000001
 30
0.0
 11
7682.5188693939908
 21
4043.7042240000001
 31
0.0
 70
   128
 13
7338.3760123939901
 23
4352.1719189999994
 33
0.0
 14
8025.3760123939892
 24
4197.4209749999991
 34
0.0
1001
ACAD
1000
DSTYLE
1002
{
1070
   287
1070
     3
1070
    40
1040
50.0
1070
   143
1040
0.039
1070
   172
1070
     1
1070
   271
1070
     0
1070
   279
1070
     0
1070
   288
1070
     1
1002
}
  0
DIMENSION
  5
7BA5
  8
3
  6
CONTINUOUS
  2
*D14
 10
8518.3760123939901
 20
4043.7042240000001
 30
0.0
 11
8261.4979023939923
 21
4043.7042240000001
 31
0.0
 70
   128
 13
8025.3760123939892
 23
4197.4209749999991
 33
0.0
 14
8518.3760123939901
 24
4352.1719189999994
 34
0.0
1001
ACAD
1000
DSTYLE
1002
{
1070
   287
1070
     4
1070
    40
1040
50.0
1070
    75
1070
     1
1070
   143
1040
0.039
1070
   172
1070
     1
1070
   271
1070
     0
1070
   279
1070
     1
1070
   288
1070
     1
1002
}
  0
DIMENSION
  5
7C4D
  8
3
  6
CONTINUOUS
  2
*D15
 10
4729.165802999999
 20
8490.8778393671164
 30
0.0
 11
3511.3401969999991
 21
8490.8778393671164
 31
0.0
 70
   128
 13
2369.1658029999999
 23
8898.0266943671159
 33
0.0
 14
4729.165802999999
 24
8898.0266943671159
 34
0.0
1001
ACAD
1000
DSTYLE
1002
{
1070
   287
1070
     3
1070
    40
1040
50.0
1070
   143
1040
0.039
1070
   172
1070
     1
1070
   271
1070
     0
1070
   279
1070
     0
1070
   288
1070
     1
1002
}
  0
DIMENSION
  5
7C5A
  8
3
  6
CONTINUOUS
  2
*D16
 10
5196.6797029999998
 20
8898.0266943671159
 30
0.0
 11
5196.6797029999998
 21
9447.6556153671154
 31
0.0
 70
   128
 13
4729.165802999999
 23
10078.02669436711
 33
0.0
 14
4729.165802999999
 24
8898.0266943671159
 34
0.0
 50
90.0
1001
ACAD
1000
DSTYLE
1002
{
1070
   287
1070
     3
1070
    40
1040
50.0
1070
   143
1040
0.039
1070
   172
1070
     1
1070
   271
1070
     0
1070
   279
1070
     0
1070
   288
1070
     1
1002
}
  0
DIMENSION
  5
7CAE
  8
3
  2
*D17
 10
2369.1658029999999
 20
6917.3737337985467
 30
0.0
 11
3742.6691411684078
 21
6917.3737337985467
 31
0.0
 70
   128
 13
4829.1658029999999
 23
6443.1719190000003
 33
0.0
 14
2369.1658029999999
 24
4477.1719189999994
 34
0.0
1001
ACAD
1000
DSTYLE
1002
{
1070
   287
1070
     3
1070
    40
1040
50.0
1070
   143
1040
0.039
1070
   172
1070
     1
1070
   271
1070
     0
1070
   279
1070
     0
1070
   288
1070
     1
1002
}
  0
ENDSEC
  0
EOF
