  0
SECTION
  2
HEADER
  9
$ACADVER
  1
AC1009
  9
$INSBASE
 10
0.0
 20
0.0
 30
0.0
  9
$EXTMIN
 10
1250.0
 20
1500.0
 30
0.0
  9
$EXTMAX
 10
9250.0
 20
13933.261307999999
 30
0.0
  9
$LIMMIN
 10
0.0
 20
0.0
  9
$LIMMAX
 10
297.0
 20
210.0
  9
$ORTHOMODE
 70
     0
  9
$REGENMODE
 70
     1
  9
$FILLMODE
 70
     0
  9
$QTEXTMODE
 70
     0
  9
$MIRRTEXT
 70
     1
  9
$DRAGMODE
 70
     2
  9
$LTSCALE
 40
100.0
  9
$OSMODE
 70
    37
  9
$ATTMODE
 70
     1
  9
$TEXTSIZE
 40
180.0
  9
$TRACEWID
 40
0.05
  9
$TEXTSTYLE
  7
STANDARD
  9
$CLAYER
  8
3
  9
$CELTYPE
  6
BYLAYER
  9
$CECOLOR
 62
   256
  9
$DIMSCALE
 40
45.0
  9
$DIMASZ
 40
2.0
  9
$DIMEXO
 40
0.5
  9
$DIMDLI
 40
10.0
  9
$DIMRND
 40
0.0
  9
$DIMDLE
 40
0.0
  9
$DIMEXE
 40
1.0
  9
$DIMTP
 40
1.0
  9
$DIMTM
 40
1.0
  9
$DIMTXT
 40
3.0
  9
$DIMCEN
 40
0.0
  9
$DIMTSZ
 40
0.0
  9
$DIMTOL
 70
     0
  9
$DIMLIM
 70
     0
  9
$DIMTIH
 70
     0
  9
$DIMTOH
 70
     0
  9
$DIMSE1
 70
     0
  9
$DIMSE2
 70
     0
  9
$DIMTAD
 70
     1
  9
$DIMZIN
 70
     8
  9
$DIMBLK
  1

  9
$DIMASO
 70
     1
  9
$DIMSHO
 70
     1
  9
$DIMPOST
  1

  9
$DIMAPOST
  1

  9
$DIMALT
 70
     0
  9
$DIMALTD
 70
     2
  9
$DIMALTF
 40
0.039
  9
$DIMLFAC
 40
1.0
  9
$DIMTOFL
 70
     1
  9
$DIMTVP
 40
0.0
  9
$DIMTIX
 70
     0
  9
$DIMSOXD
 70
     0
  9
$DIMSAH
 70
     1
  9
$DIMBLK1
  1
OPEN
  9
$DIMBLK2
  1
OPEN
  9
$DIMSTYLE
  2
IGA
  9
$DIMCLRD
 70
     0
  9
$DIMCLRE
 70
     0
  9
$DIMCLRT
 70
     0
  9
$DIMTFAC
 40
10.0
  9
$DIMGAP
 40
1.0
  9
$LUNITS
 70
     2
  9
$LUPREC
 70
     3
  9
$SKETCHINC
 40
0.1
  9
$FILLETRAD
 40
50.0
  9
$AUNITS
 70
     0
  9
$AUPREC
 70
     0
  9
$MENU
  1
acad
  9
$ELEVATION
 40
0.0
  9
$PELEVATION
 40
0.0
  9
$THICKNESS
 40
0.0
  9
$LIMCHECK
 70
     0
  9
$BLIPMODE
 70
     0
  9
$CHAMFERA
 40
0.5
  9
$CHAMFERB
 40
0.5
  9
$SKPOLY
 70
     0
  9
$TDCREATE
 40
2450750.6564282398
  9
$TDUPDATE
 40
2454953.6604307638
  9
$TDINDWG
 40
0.0380018287
  9
$TDUSRTIMER
 40
0.0380018287
  9
$USRTIMER
 70
     1
  9
$ANGBASE
 50
0.0
  9
$ANGDIR
 70
     0
  9
$PDMODE
 70
     0
  9
$PDSIZE
 40
0.0
  9
$PLINEWID
 40
0.0
  9
$COORDS
 70
     1
  9
$SPLFRAME
 70
     0
  9
$SPLINETYPE
 70
     6
  9
$SPLINESEGS
 70
     8
  9
$ATTDIA
 70
     0
  9
$ATTREQ
 70
     1
  9
$HANDLING
 70
 10241
  9
$HANDSEED
  5
7E00
  9
$SURFTAB1
 70
     6
  9
$SURFTAB2
 70
     6
  9
$SURFTYPE
 70
     6
  9
$SURFU
 70
     6
  9
$SURFV
 70
     6
  9
$UCSNAME
  2

  9
$UCSORG
 10
0.0
 20
0.0
 30
0.0
  9
$UCSXDIR
 10
1.0
 20
0.0
 30
0.0
  9
$UCSYDIR
 10
0.0
 20
1.0
 30
0.0
  9
$PUCSNAME
  2

  9
$PUCSORG
 10
0.0
 20
0.0
 30
0.0
  9
$PUCSXDIR
 10
1.0
 20
0.0
 30
0.0
  9
$PUCSYDIR
 10
0.0
 20
1.0
 30
0.0
  9
$USERI1
 70
     0
  9
$USERI2
 70
     0
  9
$USERI3
 70
     0
  9
$USERI4
 70
     0
  9
$USERI5
 70
     0
  9
$USERR1
 40
0.0
  9
$USERR2
 40
0.0
  9
$USERR3
 40
0.0
  9
$USERR4
 40
0.0
  9
$USERR5
 40
0.0
  9
$WORLDVIEW
 70
     1
  9
$SHADEDGE
 70
     3
  9
$SHADEDIF
 70
    70
  9
$TILEMODE
 70
     1
  9
$MAXACTVP
 70
    16
  9
$PLIMCHECK
 70
     0
  9
$PEXTMIN
 10
1.0000000000000000E+020
 20
1.0000000000000000E+020
 30
1.0000000000000000E+020
  9
$PEXTMAX
 10
-1.0000000000000000E+020
 20
-1.0000000000000000E+020
 30
-1.0000000000000000E+020
  9
$PLIMMIN
 10
0.0
 20
0.0
  9
$PLIMMAX
 10
12.0
 20
9.0
  9
$UNITMODE
 70
     0
  9
$VISRETAIN
 70
     0
  9
$PLINEGEN
 70
     0
  9
$PSLTSCALE
 70
     1
  0
ENDSEC
  0
SECTION
  2
TABLES
  0
TABLE
  2
VPORT
 70
     2
  0
VPORT
  2
*ACTIVE
 70
     0
 10
0.0
 20
0.0
 11
1.0
 21
1.0
 12
9880.9711210905898
 22
1963.9671185689469
 13
0.0
 23
0.0
 14
10.0
 24
10.0
 15
10.0
 25
10.0
 16
0.0
 26
0.0
 36
1.0
 17
0.0
 27
0.0
 37
0.0
 40
4326.1665814397202
 41
3.1666666666666661
 42
50.0
 43
0.0
 44
0.0
 50
0.0
 51
0.0
 71
     0
 72
   100
 73
     1
 74
     0
 75
     0
 76
     0
 77
     0
 78
     0
  0
ENDTAB
  0
TABLE
  2
LTYPE
 70
     2
  0
LTYPE
  2
CONTINUOUS
 70
     0
  3
Solid line
 72
    65
 73
     0
 40
0.0
  0
LTYPE
  2
CENTER
 70
     0
  3
____ _ ____ _ ____ _ ____ _ ____ _ ____ _ ____ 
 72
    65
 73
     4
 40
2.0
 49
1.25
 49
-0.25
 49
0.25
 49
-0.25
  0
ENDTAB
  0
TABLE
  2
LAYER
 70
     6
  0
LAYER
  2
0
 70
     0
 62
     7
  6
CONTINUOUS
  0
LAYER
  2
3
 70
     0
 62
     2
  6
CONTINUOUS
  0
LAYER
  2
2
 70
     0
 62
     3
  6
CENTER
  0
LAYER
  2
1
 70
     0
 62
     4
  6
CONTINUOUS
  0
LAYER
  2
4
 70
     0
 62
     7
  6
CONTINUOUS
  0
LAYER
  2
DEFPOINTS
 70
     0
 62
     7
  6
CONTINUOUS
  0
ENDTAB
  0
TABLE
  2
STYLE
 70
     1
  0
STYLE
  2
STANDARD
 70
     0
 40
0.0
 41
1.0
 50
0.0
 71
     0
 42
180.0
  3
simplex.shx
  4
extfont.shx
  0
ENDTAB
  0
TABLE
  2
VIEW
 70
     0
  0
ENDTAB
  0
TABLE
  2
UCS
 70
     0
  0
ENDTAB
  0
TABLE
  2
APPID
 70
     1
  0
APPID
  2
ACAD
 70
     0
  0
ENDTAB
  0
TABLE
  2
DIMSTYLE
 70
     1
  0
DIMSTYLE
  2
IGA
 70
     0
  3

  4

  5

  6
OPEN
  7
OPEN
 40
2.0
 41
2.0
 42
0.5
 43
10.0
 44
1.0
 45
0.0
 46
0.0
 47
1.0
 48
1.0
140
3.0
141
0.0
142
0.0
143
0.03937
144
1.0
145
0.0
146
10.0
147
1.0
 71
     0
 72
     0
 73
     0
 74
     0
 75
     0
 76
     0
 77
     1
 78
     8
170
     0
171
     2
172
     0
173
     1
174
     0
175
     0
176
     0
177
     0
178
     0
  0
ENDTAB
  0
ENDSEC
  0
SECTION
  2
BLOCKS
  0
BLOCK
  8
0
  2
$MODEL_SPACE
 70
     0
 10
0.0
 20
0.0
 30
0.0
  3
$MODEL_SPACE
  1

  0
ENDBLK
  5
1B
  8
0
  0
BLOCK
 67
     1
  8
0
  2
$PAPER_SPACE
 70
     0
 10
0.0
 20
0.0
 30
0.0
  3
$PAPER_SPACE
  1

  0
ENDBLK
  5
18
 67
     1
  8
0
  0
BLOCK
  8
0
  2
_OPEN
 70
     0
 10
0.0
 20
0.0
 30
0.0
  3
_OPEN
  1

  0
LINE
  5
7AC8
  8
0
  6
BYBLOCK
 62
     0
 10
-1.0
 20
0.166667
 30
0.0
 11
0.0
 21
0.0
 31
0.0
  0
LINE
  5
7AC9
  8
0
  6
BYBLOCK
 62
     0
 10
0.0
 20
0.0
 30
0.0
 11
-1.0
 21
-0.166667
 31
0.0
  0
LINE
  5
7ACA
  8
0
  6
BYBLOCK
 62
     0
 10
0.0
 20
0.0
 30
0.0
 11
-1.0
 21
0.0
 31
0.0
  0
ENDBLK
  5
7ACB
  8
0
  0
BLOCK
  8
0
  2
*D1
 70
     1
 10
0.0
 20
0.0
 30
0.0
  3
*D1
  1

  0
LINE
  5
7D50
  8
3
  6
CONTINUOUS
 62
     0
 10
2218.043381
 20
4117.6113569999998
 30
0.0
 11
2218.043381
 21
3727.4886185502328
 31
0.0
  0
LINE
  5
7D51
  8
3
  6
CONTINUOUS
 62
     0
 10
3918.043381
 20
3922.5409450000002
 30
0.0
 11
3918.043381
 21
3727.4886185502328
 31
0.0
  0
LINE
  5
7D52
  8
3
  6
CONTINUOUS
 62
     0
 10
2308.043381
 20
3772.4886185502319
 30
0.0
 11
3828.043381
 21
3772.4886185502319
 31
0.0
  0
INSERT
  5
7D53
  8
3
  6
CONTINUOUS
 62
     0
  2
_OPEN
 10
2218.043381
 20
3772.4886185502319
 30
0.0
 41
90.0
 42
90.0
 43
90.0
 50
180.0
  0
INSERT
  5
7D54
  8
3
  6
CONTINUOUS
 62
     0
  2
_OPEN
 10
3918.043381
 20
3772.4886185502319
 30
0.0
 41
90.0
 42
90.0
 43
90.0
  0
TEXT
  8
3
  40
135
  5
7DED
  62
0
  72
0
  71
0
 10
2846.56
 20
3646.04
 30
0.000000
  1
1700
  0
POINT
  5
7D56
  8
DEFPOINTS
  6
CONTINUOUS
 62
     0
 10
2218.043381
 20
4140.1113569999998
 30
0.0
  0
POINT
  5
7D57
  8
DEFPOINTS
  6
CONTINUOUS
 62
     0
 10
3918.043381
 20
3945.0409450000002
 30
0.0
  0
POINT
  5
7D58
  8
DEFPOINTS
  6
CONTINUOUS
 62
     0
 10
3918.043381
 20
3772.4886185502319
 30
0.0
  0
ENDBLK
  5
7C72
  8
0
  0
BLOCK
  8
0
  2
*D2
 70
     1
 10
0.0
 20
0.0
 30
0.0
  3
*D2
  1

  0
LINE
  5
7D59
  8
3
  6
CONTINUOUS
 62
     0
 10
4578.0433810000004
 20
4117.6113569999998
 30
0.0
 11
4578.0433810000004
 21
3727.4886185502328
 31
0.0
  0
LINE
  5
7D5A
  8
3
  6
CONTINUOUS
 62
     0
 10
4008.043381
 20
3772.4886185502319
 30
0.0
 11
4488.0433810000004
 21
3772.4886185502319
 31
0.0
  0
INSERT
  5
7D5B
  8
3
  6
CONTINUOUS
 62
     0
  2
_OPEN
 10
3918.043381
 20
3772.4886185502319
 30
0.0
 41
90.0
 42
90.0
 43
90.0
 50
180.0
  0
INSERT
  5
7D5C
  8
3
  6
CONTINUOUS
 62
     0
  2
_OPEN
 10
4578.0433810000004
 20
3772.4886185502319
 30
0.0
 41
90.0
 42
90.0
 43
90.0
  0
TEXT
  8
3
  40
135
  5
7DEE
  62
0
  72
0
  71
0
 10
3978.04
 20
3646.04
 30
0.000000
  1
660
  0
POINT
  5
7D5E
  8
DEFPOINTS
  6
CONTINUOUS
 62
     0
 10
3918.043381
 20
3945.0409450000002
 30
0.0
  0
POINT
  5
7D5F
  8
DEFPOINTS
  6
CONTINUOUS
 62
     0
 10
4578.0433810000004
 20
4140.1113569999998
 30
0.0
  0
POINT
  5
7D60
  8
DEFPOINTS
  6
CONTINUOUS
 62
     0
 10
4578.0433810000004
 20
3772.4886185502319
 30
0.0
  0
ENDBLK
  5
7C7C
  8
0
  0
BLOCK
  8
0
  2
*D3
 70
     1
 10
0.0
 20
0.0
 30
0.0
  3
*D3
  1

  0
LINE
  5
7D61
  8
3
  6
CONTINUOUS
 62
     0
 10
4700.5433810000013
 20
5447.1113569999998
 30
0.0
 11
5121.290320000001
 21
5447.1113569999998
 31
0.0
  0
LINE
  5
7D62
  8
3
  6
CONTINUOUS
 62
     0
 10
4700.5433810000013
 20
4297.1113569999998
 30
0.0
 11
5121.290320000001
 21
4297.1113569999998
 31
0.0
  0
LINE
  5
7D63
  8
3
  6
CONTINUOUS
 62
     0
 10
5076.290320000001
 20
5357.1113569999998
 30
0.0
 11
5076.290320000001
 21
4387.1113569999998
 31
0.0
  0
INSERT
  5
7D64
  8
3
  6
CONTINUOUS
 62
     0
  2
_OPEN
 10
5076.290320000001
 20
5447.1113569999998
 30
0.0
 41
90.0
 42
90.0
 43
90.0
 50
90.0
  0
INSERT
  5
7D65
  8
3
  6
CONTINUOUS
 62
     0
  2
_OPEN
 10
5076.290320000001
 20
4297.1113569999998
 30
0.0
 41
90.0
 42
90.0
 43
90.0
 50
270.0
  0
TEXT
  8
3
  40
135
  5
7DEF
  62
0
  72
0
  71
0
 10
4693.79
 20
4657.62
 30
0.000000
  1
1150
  0
POINT
  5
7D67
  8
DEFPOINTS
  6
CONTINUOUS
 62
     0
 10
4678.0433810000013
 20
5447.1113569999998
 30
0.0
  0
POINT
  5
7D68
  8
DEFPOINTS
  6
CONTINUOUS
 62
     0
 10
4678.0433810000013
 20
4297.1113569999998
 30
0.0
  0
POINT
  5
7D69
  8
DEFPOINTS
  6
CONTINUOUS
 62
     0
 10
5076.290320000001
 20
4297.1113569999998
 30
0.0
  0
ENDBLK
  5
7AF1
  8
0
  0
BLOCK
  8
0
  2
*D4
 70
     1
 10
0.0
 20
0.0
 30
0.0
  3
*D4
  1

  0
LINE
  5
7D6A
  8
3
  6
CONTINUOUS
 62
     0
 10
3940.543381
 20
6300.1113569999998
 30
0.0
 11
5663.8023516302528
 21
6300.1113569999998
 31
0.0
  0
LINE
  5
7D6B
  8
3
  6
CONTINUOUS
 62
     0
 10
4607.2341200000001
 20
5495.1113569999989
 30
0.0
 11
5663.8023516302519
 21
5495.1113569999989
 31
0.0
  0
LINE
  5
7D6C
  8
3
  6
CONTINUOUS
 62
     0
 10
5618.8023516302528
 20
6210.1113569999998
 30
0.0
 11
5618.8023516302519
 21
5585.1113569999989
 31
0.0
  0
INSERT
  5
7D6D
  8
3
  6
CONTINUOUS
 62
     0
  2
_OPEN
 10
5618.8023516302528
 20
6300.1113569999998
 30
0.0
 41
90.0
 42
90.0
 43
90.0
 50
90.0
  0
INSERT
  5
7D6E
  8
3
  6
CONTINUOUS
 62
     0
  2
_OPEN
 10
5618.8023516302519
 20
5495.1113569999989
 30
0.0
 41
90.0
 42
90.0
 43
90.0
 50
270.0
  0
TEXT
  8
3
  40
135
  5
7DF0
  62
0
  72
0
  71
0
 10
5236.30
 20
5639.02
 30
0.000000
  1
805
  0
POINT
  5
7D70
  8
DEFPOINTS
  6
CONTINUOUS
 62
     0
 10
3918.043381
 20
6300.1113569999998
 30
0.0
  0
POINT
  5
7D71
  8
DEFPOINTS
  6
CONTINUOUS
 62
     0
 10
4584.7341200000001
 20
5495.1113569999989
 30
0.0
  0
POINT
  5
7D72
  8
DEFPOINTS
  6
CONTINUOUS
 62
     0
 10
5618.8023516302519
 20
5495.1113569999989
 30
0.0
  0
ENDBLK
  5
7D17
  8
0
  0
BLOCK
  8
0
  2
*D5
 70
     1
 10
0.0
 20
0.0
 30
0.0
  3
*D5
  1

  0
LINE
  5
7D73
  8
3
  6
CONTINUOUS
 62
     0
 10
4600.5433810000004
 20
4140.1113569999998
 30
0.0
 11
5663.802351630251
 21
4140.1113569999998
 31
0.0
  0
LINE
  5
7D74
  8
3
  6
CONTINUOUS
 62
     0
 10
5618.8023516302501
 20
5405.1113569999998
 30
0.0
 11
5618.8023516302501
 21
4230.1113569999998
 31
0.0
  0
INSERT
  5
7D75
  8
3
  6
CONTINUOUS
 62
     0
  2
_OPEN
 10
5618.8023516302501
 20
5495.1113569999989
 30
0.0
 41
90.0
 42
90.0
 43
90.0
 50
90.0
  0
INSERT
  5
7D76
  8
3
  6
CONTINUOUS
 62
     0
  2
_OPEN
 10
5618.8023516302501
 20
4140.1113569999998
 30
0.0
 41
90.0
 42
90.0
 43
90.0
 50
270.0
  0
TEXT
  8
3
  40
135
  5
7DF1
  62
0
  72
0
  71
0
 10
5236.30
 20
4578.66
 30
0.000000
  1
1355
  0
POINT
  5
7D78
  8
DEFPOINTS
  6
CONTINUOUS
 62
     0
 10
4584.7341200000001
 20
5495.1113569999989
 30
0.0
  0
POINT
  5
7D79
  8
DEFPOINTS
  6
CONTINUOUS
 62
     0
 10
4578.0433810000004
 20
4140.1113569999998
 30
0.0
  0
POINT
  5
7D7A
  8
DEFPOINTS
  6
CONTINUOUS
 62
     0
 10
5618.8023516302501
 20
4140.1113569999998
 30
0.0
  0
ENDBLK
  5
7CD1
  8
0
  0
BLOCK
  8
0
  2
*D6
 70
     1
 10
0.0
 20
0.0
 30
0.0
  3
*D6
  1

  0
LINE
  5
7D7B
  8
3
  6
CONTINUOUS
 62
     0
 10
3940.543381
 20
6300.1113569999998
 30
0.0
 11
5942.5400051737461
 21
6300.1113569999998
 31
0.0
  0
LINE
  5
7D7C
  8
3
  6
CONTINUOUS
 62
     0
 10
4600.5433810000004
 20
4140.1113569999998
 30
0.0
 11
5942.5400051737461
 21
4140.1113569999998
 31
0.0
  0
LINE
  5
7D7D
  8
3
  6
CONTINUOUS
 62
     0
 10
5897.5400051737461
 20
6210.1113569999998
 30
0.0
 11
5897.5400051737452
 21
4230.1113569999998
 31
0.0
  0
INSERT
  5
7D7E
  8
3
  6
CONTINUOUS
 62
     0
  2
_OPEN
 10
5897.5400051737461
 20
6300.1113569999998
 30
0.0
 41
90.0
 42
90.0
 43
90.0
 50
90.0
  0
INSERT
  5
7D7F
  8
3
  6
CONTINUOUS
 62
     0
  2
_OPEN
 10
5897.5400051737452
 20
4140.1113569999998
 30
0.0
 41
90.0
 42
90.0
 43
90.0
 50
270.0
  0
TEXT
  8
3
  40
135
  5
7DF2
  62
0
  72
0
  71
0
 10
5515.04
 20
4918.09
 30
0.000000
  1
2160
  0
POINT
  5
7D81
  8
DEFPOINTS
  6
CONTINUOUS
 62
     0
 10
3918.043381
 20
6300.1113569999998
 30
0.0
  0
POINT
  5
7D82
  8
DEFPOINTS
  6
CONTINUOUS
 62
     0
 10
4578.0433810000004
 20
4140.1113569999998
 30
0.0
  0
POINT
  5
7D83
  8
DEFPOINTS
  6
CONTINUOUS
 62
     0
 10
5897.5400051737452
 20
4140.1113569999998
 30
0.0
  0
ENDBLK
  5
7D0C
  8
0
  0
BLOCK
  8
0
  2
*D7
 70
     1
 10
0.0
 20
0.0
 30
0.0
  3
*D7
  1

  0
LINE
  5
7D84
  8
3
  6
CONTINUOUS
 62
     0
 10
2949.043381
 20
5517.6113569999989
 30
0.0
 11
2949.043381
 21
6524.5881909999989
 31
0.0
  0
LINE
  5
7D85
  8
3
  6
CONTINUOUS
 62
     0
 10
3918.043381
 20
6322.0302119999997
 30
0.0
 11
3918.043381
 21
6524.5881909999989
 31
0.0
  0
LINE
  5
7D86
  8
3
  6
CONTINUOUS
 62
     0
 10
3039.043381
 20
6479.5881910000007
 30
0.0
 11
3828.043381
 21
6479.5881910000007
 31
0.0
  0
INSERT
  5
7D87
  8
3
  6
CONTINUOUS
 62
     0
  2
_OPEN
 10
2949.043381
 20
6479.5881910000007
 30
0.0
 41
90.0
 42
90.0
 43
90.0
 50
180.0
  0
INSERT
  5
7D88
  8
3
  6
CONTINUOUS
 62
     0
  2
_OPEN
 10
3918.043381
 20
6479.5881910000007
 30
0.0
 41
90.0
 42
90.0
 43
90.0
  0
TEXT
  8
3
  40
135
  5
7DF3
  62
0
  72
0
  71
0
 10
3135.50
 20
6353.14
 30
0.000000
  1
969
  0
POINT
  5
7D8A
  8
DEFPOINTS
  6
CONTINUOUS
 62
     0
 10
2949.043381
 20
5495.1113569999989
 30
0.0
  0
POINT
  5
7D8B
  8
DEFPOINTS
  6
CONTINUOUS
 62
     0
 10
3918.043381
 20
6299.5302119999997
 30
0.0
  0
POINT
  5
7D8C
  8
DEFPOINTS
  6
CONTINUOUS
 62
     0
 10
3918.043381
 20
6479.5881910000007
 30
0.0
  0
ENDBLK
  5
7CF3
  8
0
  0
BLOCK
  8
0
  2
*D8
 70
     1
 10
0.0
 20
0.0
 30
0.0
  3
*D8
  1

  0
LINE
  5
7D8D
  8
3
  6
CONTINUOUS
 62
     0
 10
4678.0433810000013
 20
5522.6113569999989
 30
0.0
 11
4678.0433810000013
 21
6524.5881909999989
 31
0.0
  0
LINE
  5
7D8E
  8
3
  6
CONTINUOUS
 62
     0
 10
4008.043381
 20
6479.5881910000007
 30
0.0
 11
4588.0433810000013
 21
6479.5881910000007
 31
0.0
  0
INSERT
  5
7D8F
  8
3
  6
CONTINUOUS
 62
     0
  2
_OPEN
 10
3918.043381
 20
6479.5881910000007
 30
0.0
 41
90.0
 42
90.0
 43
90.0
 50
180.0
  0
INSERT
  5
7D90
  8
3
  6
CONTINUOUS
 62
     0
  2
_OPEN
 10
4678.0433810000013
 20
6479.5881910000007
 30
0.0
 41
90.0
 42
90.0
 43
90.0
  0
TEXT
  8
3
  40
135
  5
7DF4
  62
0
  72
0
  71
0
 10
4028.04
 20
6353.14
 30
0.000000
  1
760
  0
POINT
  5
7D92
  8
DEFPOINTS
  6
CONTINUOUS
 62
     0
 10
3918.043381
 20
6299.5302119999997
 30
0.0
  0
POINT
  5
7D93
  8
DEFPOINTS
  6
CONTINUOUS
 62
     0
 10
4678.0433810000013
 20
5500.1113569999998
 30
0.0
  0
POINT
  5
7D94
  8
DEFPOINTS
  6
CONTINUOUS
 62
     0
 10
4678.0433810000013
 20
6479.5881910000007
 30
0.0
  0
ENDBLK
  5
7B30
  8
0
  0
BLOCK
  8
0
  2
*D9
 70
     1
 10
0.0
 20
0.0
 30
0.0
  3
*D9
  1

  0
LINE
  5
7D95
  8
3
  6
CONTINUOUS
 62
     0
 10
2218.043381
 20
8758.2910869999996
 30
0.0
 11
2218.043381
 21
8186.5356389999997
 31
0.0
  0
LINE
  5
7D96
  8
3
  6
CONTINUOUS
 62
     0
 10
4578.0433810000004
 20
8758.2910869999996
 30
0.0
 11
4578.0433810000004
 21
8186.5356389999997
 31
0.0
  0
LINE
  5
7D97
  8
3
  6
CONTINUOUS
 62
     0
 10
2308.043381
 20
8231.5356389999997
 30
0.0
 11
4488.0433810000004
 21
8231.5356389999997
 31
0.0
  0
INSERT
  5
7D98
  8
3
  6
CONTINUOUS
 62
     0
  2
_OPEN
 10
2218.043381
 20
8231.5356389999997
 30
0.0
 41
90.0
 42
90.0
 43
90.0
 50
180.0
  0
INSERT
  5
7D99
  8
3
  6
CONTINUOUS
 62
     0
  2
_OPEN
 10
4578.0433810000004
 20
8231.5356389999997
 30
0.0
 41
90.0
 42
90.0
 43
90.0
  0
TEXT
  8
3
  40
135
  5
7DF5
  62
0
  72
0
  71
0
 10
3154.34
 20
8105.09
 30
0.000000
  1
2360
  0
POINT
  5
7D9B
  8
DEFPOINTS
  6
CONTINUOUS
 62
     0
 10
2218.043381
 20
8780.7910869999996
 30
0.0
  0
POINT
  5
7D9C
  8
DEFPOINTS
  6
CONTINUOUS
 62
     0
 10
4578.0433810000004
 20
8780.7910869999996
 30
0.0
  0
POINT
  5
7D9D
  8
DEFPOINTS
  6
CONTINUOUS
 62
     0
 10
4578.0433810000004
 20
8231.5356389999997
 30
0.0
  0
ENDBLK
  5
7B3D
  8
0
  0
BLOCK
  8
0
  2
*D10
 70
     1
 10
0.0
 20
0.0
 30
0.0
  3
*D10
  1

  0
LINE
  5
7D9E
  8
3
  6
CONTINUOUS
 62
     0
 10
4600.5433810000004
 20
9960.7910869999996
 30
0.0
 11
5077.3220340000007
 21
9960.7910869999996
 31
0.0
  0
LINE
  5
7D9F
  8
3
  6
CONTINUOUS
 62
     0
 10
4600.5433810000004
 20
8780.7910869999996
 30
0.0
 11
5077.3220340000007
 21
8780.7910869999996
 31
0.0
  0
LINE
  5
7DA0
  8
3
  6
CONTINUOUS
 62
     0
 10
5032.3220340000016
 20
9870.7910869999996
 30
0.0
 11
5032.3220340000016
 21
8870.7910869999978
 31
0.0
  0
INSERT
  5
7DA1
  8
3
  6
CONTINUOUS
 62
     0
  2
_OPEN
 10
5032.3220340000016
 20
9960.7910869999996
 30
0.0
 41
90.0
 42
90.0
 43
90.0
 50
90.0
  0
INSERT
  5
7DA2
  8
3
  6
CONTINUOUS
 62
     0
  2
_OPEN
 10
5032.3220340000016
 20
8780.7910869999996
 30
0.0
 41
90.0
 42
90.0
 43
90.0
 50
270.0
  0
TEXT
  8
3
  40
135
  5
7DF6
  62
0
  72
0
  71
0
 10
4649.82
 20
9185.97
 30
0.000000
  1
1180
  0
POINT
  5
7DA4
  8
DEFPOINTS
  6
CONTINUOUS
 62
     0
 10
4578.0433810000004
 20
9960.7910869999996
 30
0.0
  0
POINT
  5
7DA5
  8
DEFPOINTS
  6
CONTINUOUS
 62
     0
 10
4578.0433810000004
 20
8780.7910869999996
 30
0.0
  0
POINT
  5
7DA6
  8
DEFPOINTS
  6
CONTINUOUS
 62
     0
 10
5032.3220340000016
 20
8780.7910869999996
 30
0.0
  0
ENDBLK
  5
7B4A
  8
0
  0
BLOCK
  8
0
  2
*D11
 70
     1
 10
0.0
 20
0.0
 30
0.0
  3
*D11
  1

  0
LINE
  5
7DA7
  8
3
  6
CONTINUOUS
 62
     0
 10
7575.2349190000004
 20
6325.8113569999996
 30
0.0
 11
7575.2349190000004
 21
6511.6693070000001
 31
0.0
  0
LINE
  5
7DA8
  8
3
  6
CONTINUOUS
 62
     0
 10
8425.2349190000004
 20
6325.8113569999996
 30
0.0
 11
8425.2349190000004
 21
6511.6693070000001
 31
0.0
  0
LINE
  5
7DA9
  8
3
  6
CONTINUOUS
 62
     0
 10
7665.2349189999986
 20
6466.6693070000001
 30
0.0
 11
8335.2349190000004
 21
6466.6693070000001
 31
0.0
  0
INSERT
  5
7DAA
  8
3
  6
CONTINUOUS
 62
     0
  2
_OPEN
 10
7575.2349190000004
 20
6466.6693070000001
 30
0.0
 41
90.0
 42
90.0
 43
90.0
 50
180.0
  0
INSERT
  5
7DAB
  8
3
  6
CONTINUOUS
 62
     0
  2
_OPEN
 10
8425.2349190000004
 20
6466.6693070000001
 30
0.0
 41
90.0
 42
90.0
 43
90.0
  0
TEXT
  8
3
  40
135
  5
7DF7
  62
0
  72
0
  71
0
 10
7677.33
 20
6340.22
 30
0.000000
  1
850
  0
POINT
  5
7DAD
  8
DEFPOINTS
  6
CONTINUOUS
 62
     0
 10
7575.2349190000004
 20
6303.3113569999996
 30
0.0
  0
POINT
  5
7DAE
  8
DEFPOINTS
  6
CONTINUOUS
 62
     0
 10
8425.2349190000004
 20
6303.3113569999996
 30
0.0
  0
POINT
  5
7DAF
  8
DEFPOINTS
  6
CONTINUOUS
 62
     0
 10
8425.2349190000004
 20
6466.6693070000001
 30
0.0
  0
ENDBLK
  5
7B5A
  8
0
  0
BLOCK
  8
0
  2
*D12
 70
     1
 10
0.0
 20
0.0
 30
0.0
  3
*D12
  1

  0
LINE
  5
7DB0
  8
3
  6
CONTINUOUS
 62
     0
 10
7240.2349189999986
 20
5895.6113569999989
 30
0.0
 11
7240.2349189999986
 21
6782.6997060000012
 31
0.0
  0
LINE
  5
7DB1
  8
3
  6
CONTINUOUS
 62
     0
 10
8000.2349190000004
 20
6688.3735930000003
 30
0.0
 11
8000.2349190000004
 21
6782.6997060000012
 31
0.0
  0
LINE
  5
7DB2
  8
3
  6
CONTINUOUS
 62
     0
 10
7330.2349190000004
 20
6737.6997060000003
 30
0.0
 11
7910.2349190000004
 21
6737.6997060000003
 31
0.0
  0
INSERT
  5
7DB3
  8
3
  6
CONTINUOUS
 62
     0
  2
_OPEN
 10
7240.2349189999986
 20
6737.6997060000003
 30
0.0
 41
90.0
 42
90.0
 43
90.0
 50
180.0
  0
INSERT
  5
7DB4
  8
3
  6
CONTINUOUS
 62
     0
  2
_OPEN
 10
8000.2349190000004
 20
6737.6997060000003
 30
0.0
 41
90.0
 42
90.0
 43
90.0
  0
TEXT
  8
3
  40
135
  5
7DF8
  62
0
  72
0
  71
0
 10
7402.38
 20
6723.75
 30
0.000000
  1
MAX
  0
TEXT
  8
3
  40
135
  5
7DF9
  62
0
  72
0
  71
0
 10
7402.38
 20
6548.25
 30
0.000000
  1
850
  0
POINT
  5
7DB6
  8
DEFPOINTS
  6
CONTINUOUS
 62
     0
 10
7240.2349189999986
 20
5873.1113569999989
 30
0.0
  0
POINT
  5
7DB7
  8
DEFPOINTS
  6
CONTINUOUS
 62
     0
 10
8000.2349190000004
 20
6665.8735930000003
 30
0.0
  0
POINT
  5
7DB8
  8
DEFPOINTS
  6
CONTINUOUS
 62
     0
 10
8000.2349190000004
 20
6737.6997060000003
 30
0.0
  0
ENDBLK
  5
7C67
  8
0
  0
BLOCK
  8
0
  2
*D13
 70
     1
 10
0.0
 20
0.0
 30
0.0
  3
*D13
  1

  0
LINE
  5
7DB9
  8
3
  6
CONTINUOUS
 62
     0
 10
8528.2349190000004
 20
6127.6113569999998
 30
0.0
 11
8528.2349190000004
 21
6782.6997060000012
 31
0.0
  0
LINE
  5
7DBA
  8
3
  6
CONTINUOUS
 62
     0
 10
8090.2349190000004
 20
6737.6997060000003
 30
0.0
 11
8438.2349190000004
 21
6737.6997060000003
 31
0.0
  0
TEXT
  8
3
  40
135
  5
7DFA
  62
0
  72
0
  71
0
 10
7998.81
 20
6611.25
 30
0.000000
  1
528
  0
INSERT
  5
7DBC
  8
3
  6
CONTINUOUS
 62
     0
  2
_OPEN
 10
8000.2349190000004
 20
6737.6997060000003
 30
0.0
 41
90.0
 42
90.0
 43
90.0
 50
180.0
  0
INSERT
  5
7DBD
  8
3
  6
CONTINUOUS
 62
     0
  2
_OPEN
 10
8528.2349190000004
 20
6737.6997060000003
 30
0.0
 41
90.0
 42
90.0
 43
90.0
  0
POINT
  5
7DBE
  8
DEFPOINTS
  6
CONTINUOUS
 62
     0
 10
8000.2349190000004
 20
6665.8735930000003
 30
0.0
  0
POINT
  5
7DBF
  8
DEFPOINTS
  6
CONTINUOUS
 62
     0
 10
8528.2349190000004
 20
6105.1113569999998
 30
0.0
  0
POINT
  5
7DC0
  8
DEFPOINTS
  6
CONTINUOUS
 62
     0
 10
8528.2349190000004
 20
6737.6997060000003
 30
0.0
  0
ENDBLK
  5
7D2D
  8
0
  0
BLOCK
  8
0
  2
*D14
 70
     1
 10
0.0
 20
0.0
 30
0.0
  3
*D14
  1

  0
LINE
  5
7DC1
  8
3
  6
CONTINUOUS
 62
     0
 10
8550.7349189999986
 20
6055.1113569999998
 30
0.0
 11
8957.4540880796067
 21
6055.1113569999998
 31
0.0
  0
LINE
  5
7DC2
  8
3
  6
CONTINUOUS
 62
     0
 10
8550.7349189999986
 20
4935.1113569999998
 30
0.0
 11
8957.4540880796067
 21
4935.1113569999998
 31
0.0
  0
LINE
  5
7DC3
  8
3
  6
CONTINUOUS
 62
     0
 10
8912.4540880796067
 20
5965.1113569999998
 30
0.0
 11
8912.4540880796067
 21
5025.1113569999998
 31
0.0
  0
INSERT
  5
7DC4
  8
3
  6
CONTINUOUS
 62
     0
  2
_OPEN
 10
8912.4540880796067
 20
6055.1113569999998
 30
0.0
 41
90.0
 42
90.0
 43
90.0
 50
90.0
  0
INSERT
  5
7DC5
  8
3
  6
CONTINUOUS
 62
     0
  2
_OPEN
 10
8912.4540880796067
 20
4935.1113569999998
 30
0.0
 41
90.0
 42
90.0
 43
90.0
 50
270.0
  0
TEXT
  8
3
  40
135
  5
7DFB
  62
0
  72
0
  71
0
 10
8529.95
 20
5238.12
 30
0.000000
  1
φ1120
  0
POINT
  5
7DC7
  8
DEFPOINTS
  6
CONTINUOUS
 62
     0
 10
8528.2349190000004
 20
6055.1113569999998
 30
0.0
  0
POINT
  5
7DC8
  8
DEFPOINTS
  6
CONTINUOUS
 62
     0
 10
8528.2349190000004
 20
4935.1113569999998
 30
0.0
  0
POINT
  5
7DC9
  8
DEFPOINTS
  6
CONTINUOUS
 62
     0
 10
8912.4540880796067
 20
4935.1113569999998
 30
0.0
  0
ENDBLK
  5
7D23
  8
0
  0
BLOCK
  8
0
  2
*D15
 70
     1
 10
0.0
 20
0.0
 30
0.0
  3
*D15
  1

  0
LINE
  5
7DCA
  8
3
  6
CONTINUOUS
 62
     0
 10
7313.2349190000004
 20
4117.6113569999998
 30
0.0
 11
7313.2349190000004
 21
3742.0822509540681
 31
0.0
  0
LINE
  5
7DCB
  8
3
  6
CONTINUOUS
 62
     0
 10
8000.2349190000004
 20
4015.1137180000001
 30
0.0
 11
8000.2349190000004
 21
3742.0822509540681
 31
0.0
  0
LINE
  5
7DCC
  8
3
  6
CONTINUOUS
 62
     0
 10
7403.2349189999986
 20
3787.0822509540681
 30
0.0
 11
7910.2349190000004
 21
3787.0822509540681
 31
0.0
  0
INSERT
  5
7DCD
  8
3
  6
CONTINUOUS
 62
     0
  2
_OPEN
 10
7313.2349190000004
 20
3787.0822509540681
 30
0.0
 41
90.0
 42
90.0
 43
90.0
 50
180.0
  0
INSERT
  5
7DCE
  8
3
  6
CONTINUOUS
 62
     0
  2
_OPEN
 10
8000.2349190000004
 20
3787.0822509540681
 30
0.0
 41
90.0
 42
90.0
 43
90.0
  0
TEXT
  8
3
  40
135
  5
7DFC
  62
0
  72
0
  71
0
 10
7421.66
 20
3660.63
 30
0.000000
  1
687
  0
POINT
  5
7DD0
  8
DEFPOINTS
  6
CONTINUOUS
 62
     0
 10
7313.2349190000004
 20
4140.1113569999998
 30
0.0
  0
POINT
  5
7DD1
  8
DEFPOINTS
  6
CONTINUOUS
 62
     0
 10
8000.2349190000004
 20
4037.6137180000001
 30
0.0
  0
POINT
  5
7DD2
  8
DEFPOINTS
  6
CONTINUOUS
 62
     0
 10
8000.2349190000004
 20
3787.0822509540681
 30
0.0
  0
ENDBLK
  5
7C87
  8
0
  0
BLOCK
  8
0
  2
*D16
 70
     1
 10
0.0
 20
0.0
 30
0.0
  3
*D16
  1

  0
LINE
  5
7DD3
  8
3
  6
CONTINUOUS
 62
     0
 10
8493.2349190000004
 20
4117.6113569999998
 30
0.0
 11
8493.2349190000004
 21
3742.0822509540681
 31
0.0
  0
LINE
  5
7DD4
  8
3
  6
CONTINUOUS
 62
     0
 10
8090.2349190000004
 20
3787.0822509540681
 30
0.0
 11
8403.2349190000004
 21
3787.0822509540681
 31
0.0
  0
TEXT
  8
3
  40
135
  5
7DFD
  62
0
  72
0
  71
0
 10
8001.84
 20
3659.74
 30
0.000000
  1
493
  0
INSERT
  5
7DD6
  8
3
  6
CONTINUOUS
 62
     0
  2
_OPEN
 10
8000.2349190000004
 20
3787.0822509540681
 30
0.0
 41
90.0
 42
90.0
 43
90.0
 50
180.0
  0
INSERT
  5
7DD7
  8
3
  6
CONTINUOUS
 62
     0
  2
_OPEN
 10
8493.2349190000004
 20
3787.0822509540681
 30
0.0
 41
90.0
 42
90.0
 43
90.0
  0
POINT
  5
7DD8
  8
DEFPOINTS
  6
CONTINUOUS
 62
     0
 10
8000.2349190000004
 20
4037.6137180000001
 30
0.0
  0
POINT
  5
7DD9
  8
DEFPOINTS
  6
CONTINUOUS
 62
     0
 10
8493.2349190000004
 20
4140.1113569999998
 30
0.0
  0
POINT
  5
7DDA
  8
DEFPOINTS
  6
CONTINUOUS
 62
     0
 10
8493.2349190000004
 20
3787.0822509540681
 30
0.0
  0
ENDBLK
  5
7C91
  8
0
  0
BLOCK
  8
0
  2
*D17
 70
     1
 10
0.0
 20
0.0
 30
0.0
  3
*D17
  1

  0
LINE
  5
7DDB
  8
3
  6
CONTINUOUS
 62
     0
 10
4607.2341200000001
 20
5495.1113569999989
 30
0.0
 11
5388.1475115145731
 21
5495.1113569999989
 31
0.0
  0
LINE
  5
7DDC
  8
3
  6
CONTINUOUS
 62
     0
 10
4700.5433810000013
 20
4297.1113569999998
 30
0.0
 11
5388.1475115145731
 21
4297.1113569999998
 31
0.0
  0
LINE
  5
7DDD
  8
3
  6
CONTINUOUS
 62
     0
 10
5343.1475115145731
 20
5405.1113569999998
 30
0.0
 11
5343.1475115145731
 21
4387.1113569999998
 31
0.0
  0
INSERT
  5
7DDE
  8
3
  6
CONTINUOUS
 62
     0
  2
_OPEN
 10
5343.1475115145731
 20
5495.1113569999989
 30
0.0
 41
90.0
 42
90.0
 43
90.0
 50
90.0
  0
INSERT
  5
7DDF
  8
3
  6
CONTINUOUS
 62
     0
  2
_OPEN
 10
5343.1475115145731
 20
4297.1113569999998
 30
0.0
 41
90.0
 42
90.0
 43
90.0
 50
270.0
  0
TEXT
  8
3
  40
135
  5
7DFE
  62
0
  72
0
  71
0
 10
4960.65
 20
4696.81
 30
0.000000
  1
1198
  0
POINT
  5
7DE1
  8
DEFPOINTS
  6
CONTINUOUS
 62
     0
 10
4584.7341200000001
 20
5495.1113569999989
 30
0.0
  0
POINT
  5
7DE2
  8
DEFPOINTS
  6
CONTINUOUS
 62
     0
 10
4678.0433810000013
 20
4297.1113569999998
 30
0.0
  0
POINT
  5
7DE3
  8
DEFPOINTS
  6
CONTINUOUS
 62
     0
 10
5343.1475115145731
 20
4297.1113569999998
 30
0.0
  0
ENDBLK
  5
7CE7
  8
0
  0
BLOCK
  8
0
  2
*D18
 70
     1
 10
0.0
 20
0.0
 30
0.0
  3
*D18
  1

  0
LINE
  5
7DE4
  8
3
 62
     0
 10
4678.0433810000013
 20
5522.6113569999989
 30
0.0
 11
4678.0433810000013
 21
6768.5042362473541
 31
0.0
  0
LINE
  5
7DE5
  8
3
 62
     0
 10
2218.043381
 20
4287.6113569999998
 30
0.0
 11
2218.043381
 21
6768.5042362473541
 31
0.0
  0
LINE
  5
7DE6
  8
3
 62
     0
 10
4588.0433810000013
 20
6723.5042362473541
 30
0.0
 11
2308.043381
 21
6723.5042362473541
 31
0.0
  0
INSERT
  5
7DE7
  8
3
 62
     0
  2
_OPEN
 10
4678.0433810000013
 20
6723.5042362473541
 30
0.0
 41
90.0
 42
90.0
 43
90.0
  0
INSERT
  5
7DE8
  8
3
 62
     0
  2
_OPEN
 10
2218.043381
 20
6723.5042362473541
 30
0.0
 41
90.0
 42
90.0
 43
90.0
 50
180.0
  0
TEXT
  8
3
  40
135
  5
7DFF
  62
0
  72
0
  71
0
 10
3322.13
 20
6597.05
 30
0.000000
  1
2460
  0
POINT
  5
7DEA
  8
DEFPOINTS
 62
     0
 10
4678.0433810000013
 20
5500.1113569999998
 30
0.0
  0
POINT
  5
7DEB
  8
DEFPOINTS
 62
     0
 10
2218.043381
 20
4265.1113569999998
 30
0.0
  0
POINT
  5
7DEC
  8
DEFPOINTS
 62
     0
 10
2218.043381
 20
6723.5042362473541
 30
0.0
  0
ENDBLK
  5
7CFF
  8
0
  0
ENDSEC
  0
SECTION
  2
ENTITIES
  0
LINE
  5
7A64
  8
1
  6
CONTINUOUS
 10
8425.2349190000004
 20
5447.1113569999998
 30
0.0
 11
7575.2349190000004
 21
4297.1113569999998
 31
0.0
  0
LINE
  5
7A65
  8
1
  6
CONTINUOUS
 10
7575.2349190000004
 20
5447.1113569999998
 30
0.0
 11
8425.2349190000004
 21
4297.1113569999998
 31
0.0
  0
LINE
  5
7A66
  8
1
  6
CONTINUOUS
 10
7575.2349190000004
 20
4297.1113569999998
 30
0.0
 11
8425.2349190000004
 21
4297.1113569999998
 31
0.0
  0
LINE
  5
7A67
  8
1
  6
CONTINUOUS
 10
7575.2349190000004
 20
6303.3113569999996
 30
0.0
 11
8425.2349190000004
 21
6303.3113569999996
 31
0.0
  0
LINE
  5
7A68
  8
1
  6
CONTINUOUS
 10
8493.2349190000004
 20
4140.1113569999998
 30
0.0
 11
7313.2349190000004
 21
4140.1113569999998
 31
0.0
  0
LINE
  5
7A69
  8
1
  6
CONTINUOUS
 10
8493.2349190000004
 20
4265.1113569999998
 30
0.0
 11
7313.2349190000004
 21
4265.1113569999998
 31
0.0
  0
LINE
  5
7A6A
  8
1
  6
CONTINUOUS
 10
7575.2349190000004
 20
5447.1113569999998
 30
0.0
 11
8425.2349190000004
 21
5447.1113569999998
 31
0.0
  0
LINE
  5
7A6B
  8
2
  6
CENTER
 10
2793.3741890000001
 20
5495.1113569999989
 30
0.0
 11
4758.8793389999992
 21
5495.1113569999989
 31
0.0
  0
ARC
  5
7A6C
  8
1
  6
CONTINUOUS
 10
3918.043381
 20
5495.1113569999989
 30
0.0
 40
378.0
 50
300.49999999999989
 51
131.1999999999999
  0
LINE
  5
7A6D
  8
1
  6
CONTINUOUS
 10
4678.0433810000013
 20
4297.1113569999998
 30
0.0
 11
3918.043381
 21
4362.1113569999989
 31
0.0
  0
ARC
  5
7A6E
  8
1
  6
CONTINUOUS
 10
3849.543381
 20
5563.6113569999998
 30
0.0
 40
739.10000000000002
 50
0.0
 51
84.900000000000006
  0
LINE
  5
7A6F
  8
1
  6
CONTINUOUS
 10
4578.0433810000004
 20
4140.1113569999998
 30
0.0
 11
2218.043381
 21
4140.1113569999998
 31
0.0
  0
LINE
  5
7A70
  8
1
  6
CONTINUOUS
 10
4578.0433810000004
 20
4265.1113569999998
 30
0.0
 11
2218.043381
 21
4265.1113569999998
 31
0.0
  0
CIRCLE
  5
7A71
  8
1
  6
CONTINUOUS
 10
3918.043381
 20
5495.1113569999989
 30
0.0
 40
560.0
  0
CIRCLE
  5
7A72
  8
1
  6
CONTINUOUS
 10
3918.043381
 20
5495.1113569999989
 30
0.0
 40
610.0
  0
CIRCLE
  5
7A73
  8
1
  6
CONTINUOUS
 10
3918.043381
 20
5495.1113569999989
 30
0.0
 40
278.0
  0
ARC
  5
7A74
  8
1
  6
CONTINUOUS
 10
4000.043381
 20
5413.1113569999998
 30
0.0
 40
1054.2
 50
180.0
 51
265.5
  0
ARC
  5
7A75
  8
1
  6
CONTINUOUS
 10
3836.043381
 20
5413.1113569999998
 30
0.0
 40
890.20000000000005
 50
84.900000000000006
 51
180.0
  0
LINE
  5
7A76
  8
1
  6
CONTINUOUS
 10
2463.9433809999991
 20
4590.3113569999996
 30
0.0
 11
3734.8433810000001
 21
5704.211357000001
 31
0.0
  0
LINE
  5
7A77
  8
1
  6
CONTINUOUS
 10
2398.043381
 20
4665.5113570000003
 30
0.0
 11
3668.943381
 21
5779.411357
 31
0.0
  0
LINE
  5
7A78
  8
1
  6
CONTINUOUS
 10
2654.8433810000001
 20
4310.6113569999989
 30
0.0
 11
4110.143380999999
 21
5169.6113569999998
 31
0.0
  0
LINE
  5
7A79
  8
1
  6
CONTINUOUS
 10
2604.043381
 20
4396.8113569999987
 30
0.0
 11
4059.3433810000001
 21
5255.7113570000001
 31
0.0
  0
ARC
  5
7A7A
  8
1
  6
CONTINUOUS
 10
2543.043381
 20
4500.1113569999998
 30
0.0
 40
220.0
 50
131.1999999999999
 51
300.49999999999989
  0
LINE
  5
7A7B
  8
1
  6
CONTINUOUS
 10
2218.043381
 20
4265.1113569999998
 30
0.0
 11
2218.043381
 21
4140.1113569999998
 31
0.0
  0
ARC
  5
7A7C
  8
1
  6
CONTINUOUS
 10
2543.043381
 20
4500.1113569999998
 30
0.0
 40
199.0
 50
320.10000000000002
 51
219.90000000000001
  0
LINE
  5
7A7D
  8
2
  6
CENTER
 10
2423.043381
 20
4500.1113569999998
 30
0.0
 11
2663.043381
 21
4500.1113569999998
 31
0.0
  0
CIRCLE
  5
7A7E
  8
1
  6
CONTINUOUS
 10
2543.043381
 20
4500.1113569999998
 30
0.0
 40
120.0
  0
LINE
  5
7A7F
  8
1
  6
CONTINUOUS
 10
2318.043381
 20
4265.1113569999998
 30
0.0
 11
2768.043381
 21
4265.1113569999998
 31
0.0
  0
LINE
  5
7A80
  8
1
  6
CONTINUOUS
 10
2318.043381
 20
4320.1113569999998
 30
0.0
 11
2768.043381
 21
4320.1113569999998
 31
0.0
  0
LINE
  5
7A81
  8
2
  6
CENTER
 10
2543.043381
 20
4380.1113569999989
 30
0.0
 11
2543.043381
 21
4620.1113569999989
 31
0.0
  0
LINE
  5
7A82
  8
1
  6
CONTINUOUS
 10
2318.043381
 20
4265.1113569999998
 30
0.0
 11
2318.043381
 21
4320.1113569999998
 31
0.0
  0
LINE
  5
7A83
  8
1
  6
CONTINUOUS
 10
2381.043381
 20
4362.6113569999998
 30
0.0
 11
2390.3433809999992
 21
4372.5113570000003
 31
0.0
  0
LINE
  5
7A84
  8
1
  6
CONTINUOUS
 10
2381.043381
 20
4320.1113569999998
 30
0.0
 11
2381.043381
 21
4362.6113569999998
 31
0.0
  0
LINE
  5
7A85
  8
1
  6
CONTINUOUS
 10
2768.043381
 20
4265.1113569999998
 30
0.0
 11
2768.043381
 21
4320.1113569999998
 31
0.0
  0
LINE
  5
7A86
  8
1
  6
CONTINUOUS
 10
2705.043381
 20
4362.6113569999998
 30
0.0
 11
2695.7433809999989
 21
4372.5113570000003
 31
0.0
  0
LINE
  5
7A87
  8
1
  6
CONTINUOUS
 10
2705.043381
 20
4320.1113569999998
 30
0.0
 11
2705.043381
 21
4362.6113569999998
 31
0.0
  0
LINE
  5
7A88
  8
2
  6
CENTER
 10
3918.043381
 20
10046.126052999991
 30
0.0
 11
3918.043381
 21
8651.2962829999979
 31
0.0
  0
ARC
  5
7A89
  8
1
  6
CONTINUOUS
 10
3986.543381
 20
5563.6113569999998
 30
0.0
 40
602.10000000000002
 50
348.7999999999999
 51
0.0
  0
LINE
  5
7A8A
  8
1
  6
CONTINUOUS
 10
4678.0433810000013
 20
5500.1113569999998
 30
0.0
 11
4678.0433810000013
 21
4244.1113569999998
 31
0.0
  0
LINE
  5
7A8B
  8
1
  6
CONTINUOUS
 10
4638.0433810000013
 20
5447.1113569999998
 30
0.0
 11
4638.0433810000013
 21
4300.5113570000003
 31
0.0
  0
LINE
  5
7A8C
  8
1
  6
CONTINUOUS
 10
4578.0433810000004
 20
4265.1113569999998
 30
0.0
 11
4578.0433810000004
 21
4140.1113569999998
 31
0.0
  0
LINE
  5
7A8D
  8
1
  6
CONTINUOUS
 10
4577.2433810000002
 20
5447.1113569999998
 30
0.0
 11
4678.0433810000013
 21
5447.1113569999998
 31
0.0
  0
LINE
  5
7A8E
  8
1
  6
CONTINUOUS
 10
7430.2349190000004
 20
5773.1113569999998
 30
0.0
 11
7430.2349190000004
 21
5217.1113569999998
 31
0.0
  0
LINE
  5
7A8F
  8
1
  6
CONTINUOUS
 10
7330.2349190000004
 20
5773.1113569999998
 30
0.0
 11
7330.2349190000004
 21
5217.1113569999998
 31
0.0
  0
LINE
  5
7A90
  8
1
  6
CONTINUOUS
 10
7500.2349190000004
 20
4280.1113569999998
 30
0.0
 11
7500.2349190000004
 21
5873.1113569999989
 31
0.0
  0
LINE
  5
7A91
  8
1
  6
CONTINUOUS
 10
7240.2349189999986
 20
4280.1113569999998
 30
0.0
 11
7240.2349189999986
 21
5873.1113569999989
 31
0.0
  0
LINE
  5
7A92
  8
1
  6
CONTINUOUS
 10
7575.2349190000004
 20
4265.1113569999998
 30
0.0
 11
7575.2349190000004
 21
6303.3113569999996
 31
0.0
  0
LINE
  5
7A93
  8
1
  6
CONTINUOUS
 10
7430.2349190000004
 20
5467.6113569999998
 30
0.0
 11
7575.2349190000004
 21
5467.6113569999998
 31
0.0
  0
LINE
  5
7A94
  8
1
  6
CONTINUOUS
 10
7430.2349190000004
 20
4472.6113569999989
 30
0.0
 11
7575.2349190000004
 21
4472.6113569999989
 31
0.0
  0
LINE
  5
7A95
  8
1
  6
CONTINUOUS
 10
7430.2349190000004
 20
4527.6113569999998
 30
0.0
 11
7575.2349190000004
 21
4527.6113569999998
 31
0.0
  0
LINE
  5
7A96
  8
1
  6
CONTINUOUS
 10
7430.2349190000004
 20
4620.1113569999989
 30
0.0
 11
7430.2349190000004
 21
4380.1113569999989
 31
0.0
  0
LINE
  5
7A97
  8
1
  6
CONTINUOUS
 10
7330.2349190000004
 20
4620.1113569999989
 30
0.0
 11
7330.2349190000004
 21
4380.1113569999989
 31
0.0
  0
LINE
  5
7A98
  8
1
  6
CONTINUOUS
 10
7240.2349189999986
 20
4280.1113569999998
 30
0.0
 11
7500.2349190000004
 21
4280.1113569999998
 31
0.0
  0
LINE
  5
7A99
  8
1
  6
CONTINUOUS
 10
7330.2349190000004
 20
4380.1113569999989
 30
0.0
 11
7430.2349190000004
 21
4380.1113569999989
 31
0.0
  0
LINE
  5
7A9A
  8
1
  6
CONTINUOUS
 10
7330.2349190000004
 20
4620.1113569999989
 30
0.0
 11
7430.2349190000004
 21
4620.1113569999989
 31
0.0
  0
LINE
  5
7A9B
  8
1
  6
CONTINUOUS
 10
7313.2349190000004
 20
4140.1113569999998
 30
0.0
 11
7313.2349190000004
 21
4265.1113569999998
 31
0.0
  0
LINE
  5
7A9C
  8
1
  6
CONTINUOUS
 10
7330.2349190000004
 20
5217.1113569999998
 30
0.0
 11
7430.2349190000004
 21
5217.1113569999998
 31
0.0
  0
LINE
  5
7A9D
  8
1
  6
CONTINUOUS
 10
7430.2349190000004
 20
5522.6113569999989
 30
0.0
 11
7575.2349190000004
 21
5522.6113569999989
 31
0.0
  0
LINE
  5
7A9E
  8
1
  6
CONTINUOUS
 10
7330.2349190000004
 20
5773.1113569999998
 30
0.0
 11
7430.2349190000004
 21
5773.1113569999998
 31
0.0
  0
LINE
  5
7A9F
  8
1
  6
CONTINUOUS
 10
7240.2349189999986
 20
5873.1113569999989
 30
0.0
 11
7500.2349190000004
 21
5873.1113569999989
 31
0.0
  0
LINE
  5
7AA0
  8
1
  6
CONTINUOUS
 10
8528.2349190000004
 20
4885.1113569999989
 30
0.0
 11
8528.2349190000004
 21
6105.1113569999998
 31
0.0
  0
LINE
  5
7AA1
  8
1
  6
CONTINUOUS
 10
8425.2349190000004
 20
4265.1113569999998
 30
0.0
 11
8425.2349190000004
 21
6303.3113569999996
 31
0.0
  0
LINE
  5
7AA2
  8
1
  6
CONTINUOUS
 10
8493.2349190000004
 20
4140.1113569999998
 30
0.0
 11
8493.2349190000004
 21
4265.1113569999998
 31
0.0
  0
LINE
  5
7AA3
  8
1
  6
CONTINUOUS
 10
8425.2349190000004
 20
4935.1113569999998
 30
0.0
 11
8528.2349190000004
 21
4935.1113569999998
 31
0.0
  0
LINE
  5
7AA4
  8
1
  6
CONTINUOUS
 10
8425.2349190000004
 20
6055.1113569999998
 30
0.0
 11
8528.2349190000004
 21
6055.1113569999998
 31
0.0
  0
LINE
  5
7AA5
  8
1
  6
CONTINUOUS
 10
4196.0433810000004
 20
8897.7910869999996
 30
0.0
 11
3640.043381
 21
8897.7910869999996
 31
0.0
  0
LINE
  5
7AA6
  8
1
  6
CONTINUOUS
 10
4196.0433810000004
 20
8797.7910869999996
 30
0.0
 11
3640.043381
 21
8797.7910869999996
 31
0.0
  0
LINE
  5
7AA7
  8
1
  6
CONTINUOUS
 10
2323.043381
 20
8967.7910869999996
 30
0.0
 11
4296.0433810000004
 21
8967.7910869999996
 31
0.0
  0
LINE
  5
7AA8
  8
1
  6
CONTINUOUS
 10
3308.043381
 20
9995.7910869999996
 30
0.0
 11
4528.0433810000004
 21
9995.7910869999996
 31
0.0
  0
LINE
  5
7AA9
  8
1
  6
CONTINUOUS
 10
2323.043381
 20
8727.7910869999996
 30
0.0
 11
4296.0433810000004
 21
8727.7910869999996
 31
0.0
  0
LINE
  5
7AAA
  8
1
  6
CONTINUOUS
 10
2945.8433809999992
 20
9042.7910869999996
 30
0.0
 11
4678.0433810000013
 21
9042.7910869999996
 31
0.0
  0
LINE
  5
7AAB
  8
1
  6
CONTINUOUS
 10
2945.8433809999992
 20
9892.7910869999996
 30
0.0
 11
4678.0433810000013
 21
9892.7910869999996
 31
0.0
  0
LINE
  5
7AAC
  8
1
  6
CONTINUOUS
 10
2218.043381
 20
8780.7910869999996
 30
0.0
 11
4578.0433810000004
 21
8780.7910869999996
 31
0.0
  0
LINE
  5
7AAD
  8
1
  6
CONTINUOUS
 10
2218.043381
 20
9960.7910869999996
 30
0.0
 11
3358.043381
 21
9960.7910869999996
 31
0.0
  0
LINE
  5
7AAE
  8
1
  6
CONTINUOUS
 10
2218.043381
 20
9960.7910869999996
 30
0.0
 11
2218.043381
 21
8780.7910869999996
 31
0.0
  0
LINE
  5
7AAF
  8
1
  6
CONTINUOUS
 10
2570.543381
 20
8897.7910869999996
 30
0.0
 11
2570.543381
 21
9016.4910870000003
 31
0.0
  0
LINE
  5
7AB0
  8
1
  6
CONTINUOUS
 10
2515.543381
 20
8897.7910869999996
 30
0.0
 11
2515.543381
 21
9016.4910870000003
 31
0.0
  0
LINE
  5
7AB1
  8
1
  6
CONTINUOUS
 10
2663.043381
 20
8797.7910869999996
 30
0.0
 11
2423.043381
 21
8797.7910869999996
 31
0.0
  0
LINE
  5
7AB2
  8
1
  6
CONTINUOUS
 10
2663.043381
 20
8897.7910869999996
 30
0.0
 11
2423.043381
 21
8897.7910869999996
 31
0.0
  0
LINE
  5
7AB3
  8
1
  6
CONTINUOUS
 10
2323.043381
 20
8727.7910869999996
 30
0.0
 11
2323.043381
 21
8967.7910869999996
 31
0.0
  0
LINE
  5
7AB4
  8
1
  6
CONTINUOUS
 10
2423.043381
 20
8797.7910869999996
 30
0.0
 11
2423.043381
 21
8897.7910869999996
 31
0.0
  0
LINE
  5
7AB5
  8
1
  6
CONTINUOUS
 10
2663.043381
 20
8797.7910869999996
 30
0.0
 11
2663.043381
 21
8897.7910869999996
 31
0.0
  0
LINE
  5
7AB6
  8
1
  6
CONTINUOUS
 10
2343.943381
 20
9615.9910870000003
 30
0.0
 11
2742.143380999999
 21
9615.9910870000003
 31
0.0
  0
LINE
  5
7AB7
  8
1
  6
CONTINUOUS
 10
2343.943381
 20
9016.4910870000003
 30
0.0
 11
2742.143380999999
 21
9016.4910870000003
 31
0.0
  0
LINE
  5
7AB8
  8
1
  6
CONTINUOUS
 10
2343.943381
 20
9016.4910870000003
 30
0.0
 11
2343.943381
 21
9615.9910870000003
 31
0.0
  0
LINE
  5
7AB9
  8
1
  6
CONTINUOUS
 10
2742.143380999999
 20
9016.4910870000003
 30
0.0
 11
2742.143380999999
 21
9615.9910870000003
 31
0.0
  0
LINE
  5
7ABA
  8
1
  6
CONTINUOUS
 10
2945.8433809999992
 20
9042.7910869999996
 30
0.0
 11
2945.8433809999992
 21
9892.7910869999996
 31
0.0
  0
LINE
  5
7ABB
  8
1
  6
CONTINUOUS
 10
3890.543381
 20
9042.7910869999996
 30
0.0
 11
3890.543381
 21
8897.7910869999996
 31
0.0
  0
LINE
  5
7ABC
  8
1
  6
CONTINUOUS
 10
3945.543381
 20
9042.7910869999996
 30
0.0
 11
3945.543381
 21
8897.7910869999996
 31
0.0
  0
LINE
  5
7ABD
  8
1
  6
CONTINUOUS
 10
3640.043381
 20
8797.7910869999996
 30
0.0
 11
3640.043381
 21
8897.7910869999996
 31
0.0
  0
LINE
  5
7ABE
  8
1
  6
CONTINUOUS
 10
3358.043381
 20
9995.7910869999996
 30
0.0
 11
3358.043381
 21
9892.7910869999996
 31
0.0
  0
LINE
  5
7ABF
  8
1
  6
CONTINUOUS
 10
4678.0433810000013
 20
8992.7910869999978
 30
0.0
 11
4678.0433810000013
 21
9942.7910870000014
 31
0.0
  0
LINE
  5
7AC0
  8
1
  6
CONTINUOUS
 10
4578.0433810000004
 20
9042.7910869999996
 30
0.0
 11
4578.0433810000004
 21
8780.7910869999996
 31
0.0
  0
LINE
  5
7AC1
  8
1
  6
CONTINUOUS
 10
4296.0433810000004
 20
8727.7910869999996
 30
0.0
 11
4296.0433810000004
 21
8967.7910869999996
 31
0.0
  0
LINE
  5
7AC2
  8
1
  6
CONTINUOUS
 10
4196.0433810000004
 20
8797.7910869999996
 30
0.0
 11
4196.0433810000004
 21
8897.7910869999996
 31
0.0
  0
LINE
  5
7AC3
  8
1
  6
CONTINUOUS
 10
4478.0433810000004
 20
9995.7910869999996
 30
0.0
 11
4478.0433810000004
 21
9892.7910869999996
 31
0.0
  0
LINE
  5
7AC4
  8
1
  6
CONTINUOUS
 10
4578.0433810000004
 20
9960.7910869999996
 30
0.0
 11
4578.0433810000004
 21
9892.7910869999996
 31
0.0
  0
LINE
  5
7AC5
  8
1
  6
CONTINUOUS
 10
4478.0433810000004
 20
9960.7910869999996
 30
0.0
 11
4578.0433810000004
 21
9960.7910869999996
 31
0.0
  0
DIMENSION
  5
7AD9
  8
3
  6
CONTINUOUS
  2
*D1
 10
3918.043381
 20
3772.4886185502319
 30
0.0
 11
3116.5608739999998
 21
3772.4886185502319
 31
0.0
 70
   128
 13
2218.043381
 23
4140.1113569999998
 33
0.0
 14
3918.043381
 24
3945.0409450000002
 34
0.0
1001
ACAD
1000
DSTYLE
1002
{
1070
   287
1070
     3
1070
    40
1040
45.0
1070
   143
1040
0.039
1070
   172
1070
     1
1070
   271
1070
     0
1070
   279
1070
     0
1070
   288
1070
     1
1002
}
  0
DIMENSION
  5
7AE5
  8
3
  6
CONTINUOUS
  2
*D2
 10
4578.0433810000004
 20
3772.4886185502319
 30
0.0
 11
4248.0433810000013
 21
3884.9886185502328
 31
0.0
 70
     0
 13
3918.043381
 23
3945.0409450000002
 33
0.0
 14
4578.0433810000004
 24
4140.1113569999998
 34
0.0
1001
ACAD
1000
DSTYLE
1002
{
1070
   287
1070
     4
1070
    40
1040
45.0
1070
    75
1070
     1
1070
   143
1040
0.039
1070
   172
1070
     1
1070
   271
1070
     0
1070
   279
1070
     1
1070
   288
1070
     1
1002
}
  0
DIMENSION
  5
7AF2
  8
3
  6
CONTINUOUS
  2
*D3
 10
5076.290320000001
 20
4297.1113569999998
 30
0.0
 11
5076.2903200000001
 21
4896.5663530000002
 31
0.0
 70
   128
 13
4678.0433810000013
 23
5447.1113569999998
 33
0.0
 14
4678.0433810000013
 24
4297.1113569999998
 34
0.0
 50
90.0
1001
ACAD
1000
DSTYLE
1002
{
1070
   287
1070
     3
1070
    40
1040
45.0
1070
   143
1040
0.039
1070
   172
1070
     1
1070
   271
1070
     0
1070
   279
1070
     0
1070
   288
1070
     1
1002
}
  0
DIMENSION
  5
7AFF
  8
3
  6
CONTINUOUS
  2
*D4
 10
5618.8023516302519
 20
5495.1113569999989
 30
0.0
 11
5618.8023516302501
 21
5877.9740860000002
 31
0.0
 70
   128
 13
3918.043381
 23
6300.1113569999998
 33
0.0
 14
4584.7341200000001
 24
5495.1113569999989
 34
0.0
 50
90.0
1001
ACAD
1000
DSTYLE
1002
{
1070
   287
1070
     3
1070
    40
1040
45.0
1070
   143
1040
0.039
1070
   172
1070
     1
1070
   271
1070
     0
1070
   279
1070
     0
1070
   288
1070
     1
1002
}
  0
DIMENSION
  5
7B0B
  8
3
  6
CONTINUOUS
  2
*D5
 10
5618.8023516302501
 20
4140.1113569999998
 30
0.0
 11
5506.3023516302501
 21
4817.6113569999998
 31
0.0
 70
     0
 13
4584.7341200000001
 23
5495.1113569999989
 33
0.0
 14
4578.0433810000004
 24
4140.1113569999998
 34
0.0
 50
90.0
1001
ACAD
1000
DSTYLE
1002
{
1070
   287
1070
     4
1070
    40
1040
45.0
1070
    75
1070
     1
1070
   143
1040
0.039
1070
   172
1070
     1
1070
   271
1070
     0
1070
   279
1070
     1
1070
   288
1070
     1
1002
}
  0
DIMENSION
  5
7B18
  8
3
  6
CONTINUOUS
  2
*D6
 10
5897.5400051737452
 20
4140.1113569999998
 30
0.0
 11
5897.5400051737452
 21
5157.0421350000006
 31
0.0
 70
   128
 13
3918.043381
 23
6300.1113569999998
 33
0.0
 14
4578.0433810000004
 24
4140.1113569999998
 34
0.0
 50
90.0
1001
ACAD
1000
DSTYLE
1002
{
1070
   287
1070
     3
1070
    40
1040
45.0
1070
   143
1040
0.039
1070
   172
1070
     1
1070
   271
1070
     0
1070
   279
1070
     0
1070
   288
1070
     1
1002
}
  0
DIMENSION
  5
7B25
  8
3
  6
CONTINUOUS
  2
*D7
 10
3918.043381
 20
6479.5881910000007
 30
0.0
 11
3405.4953409999989
 21
6479.5881910000007
 31
0.0
 70
   128
 13
2949.043381
 23
5495.1113569999989
 33
0.0
 14
3918.043381
 24
6299.5302119999997
 34
0.0
1001
ACAD
1000
DSTYLE
1002
{
1070
   287
1070
     3
1070
    40
1040
45.0
1070
   143
1040
0.039
1070
   172
1070
     1
1070
   271
1070
     0
1070
   279
1070
     0
1070
   288
1070
     1
1002
}
  0
DIMENSION
  5
7B31
  8
3
  6
CONTINUOUS
  2
*D8
 10
4678.0433810000013
 20
6479.5881910000007
 30
0.0
 11
4298.0433810000013
 21
6592.0881910000007
 31
0.0
 70
     0
 13
3918.043381
 23
6299.5302119999997
 33
0.0
 14
4678.0433810000013
 24
5500.1113569999998
 34
0.0
1001
ACAD
1000
DSTYLE
1002
{
1070
   287
1070
     4
1070
    40
1040
45.0
1070
    75
1070
     1
1070
   143
1040
0.039
1070
   172
1070
     1
1070
   271
1070
     0
1070
   279
1070
     1
1070
   288
1070
     1
1002
}
  0
DIMENSION
  5
7B3E
  8
3
  6
CONTINUOUS
  2
*D9
 10
4578.0433810000004
 20
8231.5356389999997
 30
0.0
 11
3424.3389309999998
 21
8231.5356389999997
 31
0.0
 70
   128
 13
2218.043381
 23
8780.7910869999996
 33
0.0
 14
4578.0433810000004
 24
8780.7910869999996
 34
0.0
1001
ACAD
1000
DSTYLE
1002
{
1070
   287
1070
     3
1070
    40
1040
45.0
1070
   143
1040
0.039
1070
   172
1070
     1
1070
   271
1070
     0
1070
   279
1070
     0
1070
   288
1070
     1
1002
}
  0
DIMENSION
  5
7B4B
  8
3
  6
CONTINUOUS
  2
*D10
 10
5032.3220340000016
 20
8780.7910869999996
 30
0.0
 11
5032.3220339999998
 21
9424.9203390000002
 31
0.0
 70
   128
 13
4578.0433810000004
 23
9960.7910869999996
 33
0.0
 14
4578.0433810000004
 24
8780.7910869999996
 34
0.0
 50
90.0
1001
ACAD
1000
DSTYLE
1002
{
1070
   287
1070
     3
1070
    40
1040
45.0
1070
   143
1040
0.039
1070
   172
1070
     1
1070
   271
1070
     0
1070
   279
1070
     0
1070
   288
1070
     1
1002
}
  0
LINE
  5
7B4C
  8
2
  6
CENTER
 10
2776.251397
 20
9467.7910869999996
 30
0.0
 11
4749.9484219999986
 21
9467.7910869999996
 31
0.0
  0
LINE
  5
7B4D
  8
2
  6
CENTER
 10
3918.043381
 20
6364.760174
 30
0.0
 11
3918.043381
 21
3945.0409450000002
 31
0.0
  0
LINE
  5
7B4E
  8
2
  6
CENTER
 10
8000.2349190000004
 20
6479.3097690000004
 30
0.0
 11
8000.2349190000004
 21
4037.6137180000001
 31
0.0
  0
DIMENSION
  5
7B5B
  8
3
  6
CONTINUOUS
  2
*D11
 10
8425.2349190000004
 20
6466.6693070000001
 30
0.0
 11
7947.3314140000002
 21
6466.6693070000001
 31
0.0
 70
   128
 13
7575.2349190000004
 23
6303.3113569999996
 33
0.0
 14
8425.2349190000004
 24
6303.3113569999996
 34
0.0
1001
ACAD
1000
DSTYLE
1002
{
1070
   287
1070
     3
1070
    40
1040
45.0
1070
   143
1040
0.039
1070
   172
1070
     1
1070
   271
1070
     0
1070
   279
1070
     0
1070
   288
1070
     1
1002
}
  0
DIMENSION
  5
7B68
  8
3
  6
CONTINUOUS
  2
*D12
 10
8000.2349190000004
 20
6737.6997060000003
 30
0.0
 11
7672.3777761428564
 21
6737.6997060000003
 31
0.0
 70
   128
  1
MAX\P850
 13
7240.2349189999986
 23
5873.1113569999989
 33
0.0
 14
8000.2349190000004
 24
6665.8735930000003
 34
0.0
1001
ACAD
1000
DSTYLE
1002
{
1070
   287
1070
     3
1070
    40
1040
45.0
1070
   143
1040
0.039
1070
   172
1070
     1
1070
   271
1070
     0
1070
   279
1070
     0
1070
   288
1070
     1
1002
}
  0
DIMENSION
  5
7B76
  8
3
  6
CONTINUOUS
  2
*D13
 10
8528.2349190000004
 20
6737.6997060000003
 30
0.0
 11
8268.8117771979232
 21
6737.6997060000003
 31
0.0
 70
   128
 13
8000.2349190000004
 23
6665.8735930000003
 33
0.0
 14
8528.2349190000004
 24
6105.1113569999998
 34
0.0
1001
ACAD
1000
DSTYLE
1002
{
1070
   287
1070
     4
1070
    40
1040
45.0
1070
    75
1070
     1
1070
   143
1040
0.039
1070
   172
1070
     1
1070
   271
1070
     0
1070
   279
1070
     1
1070
   288
1070
     1
1002
}
  0
DIMENSION
  5
7B99
  8
3
  6
CONTINUOUS
  2
*D14
 10
8912.4540880796067
 20
4935.1113569999998
 30
0.0
 11
8912.4540880796048
 21
5477.071812000001
 31
0.0
 70
   128
 13
8528.2349190000004
 23
6055.1113569999998
 33
0.0
 14
8528.2349190000004
 24
4935.1113569999998
 34
0.0
 50
90.0
1001
ACAD
1000
DSTYLE
1002
{
1070
   287
1070
     3
1070
     3
1000
φ<>
1070
    40
1040
45.0
1070
   143
1040
0.039
1070
   172
1070
     1
1070
   271
1070
     0
1070
   279
1070
     0
1070
   288
1070
     1
1002
}
  0
DIMENSION
  5
7BA6
  8
3
  6
CONTINUOUS
  2
*D15
 10
8000.2349190000004
 20
3787.0822509540681
 30
0.0
 11
7691.6634904285711
 21
3787.0822509540681
 31
0.0
 70
   128
 13
7313.2349190000004
 23
4140.1113569999998
 33
0.0
 14
8000.2349190000004
 24
4037.6137180000001
 34
0.0
1001
ACAD
1000
DSTYLE
1002
{
1070
   287
1070
     3
1070
    40
1040
45.0
1070
   143
1040
0.039
1070
   172
1070
     1
1070
   271
1070
     0
1070
   279
1070
     0
1070
   288
1070
     1
1002
}
  0
DIMENSION
  5
7BB4
  8
3
  6
CONTINUOUS
  2
*D16
 10
8493.2349190000004
 20
3787.0822509540681
 30
0.0
 11
8271.8433199999999
 21
3786.1864369540681
 31
0.0
 70
   128
 13
8000.2349190000004
 23
4037.6137180000001
 33
0.0
 14
8493.2349190000004
 24
4140.1113569999998
 34
0.0
1001
ACAD
1000
DSTYLE
1002
{
1070
   287
1070
     4
1070
    40
1040
45.0
1070
    75
1070
     1
1070
   143
1040
0.039
1070
   172
1070
     1
1070
   271
1070
     0
1070
   279
1070
     1
1070
   288
1070
     1
1002
}
  0
LINE
  5
7BCB
  8
2
  6
CENTER
 10
7126.1549037438881
 20
5495.1113569999989
 30
0.0
 11
8589.6056712187128
 21
5495.1113569999989
 31
0.0
  0
LINE
  5
7BCC
  8
4
  6
CONTINUOUS
 10
9250.0
 20
2500.0
 30
0.0
 11
9250.0
 21
1500.0
 31
0.0
  0
LINE
  5
7BCD
  8
4
  6
CONTINUOUS
 10
5750.0
 20
2500.0
 30
0.0
 11
5750.0
 21
1500.0
 31
0.0
  0
LINE
  5
7BCE
  8
4
  6
CONTINUOUS
 10
3250.0
 20
2500.0
 30
0.0
 11
3250.0
 21
1500.0
 31
0.0
  0
LINE
  5
7BD1
  8
4
  6
CONTINUOUS
 10
3250.0
 20
1500.0
 30
0.0
 11
9250.0
 21
1500.0
 31
0.0
  0
LINE
  5
7BD2
  8
4
  6
CONTINUOUS
 10
3250.0
 20
2000.0
 30
0.0
 11
9250.0
 21
2000.0
 31
0.0
  0
TEXT
  5
7BD3
  8
4
  6
CONTINUOUS
 10
3442.5104040000001
 20
2157.7151289999988
 30
0.0
 40
250.0
  1
機器名称
  0
TEXT
  5
7BD4
  8
4
  6
CONTINUOUS
 10
3431.2905300000002
 20
1608.225782999999
 30
0.0
 40
250.0
  1
機器型番
  0
TEXT
  5
7BD5
  8
4
  6
CONTINUOUS
 10
5888.393728
 20
2112.8588439999999
 30
0.0
 40
211.11111099999991
  1
ミツヤリミットロードファン
  0
TEXT
  5
7BD6
  8
4
  6
CONTINUOUS
 10
5933.2724779999999
 20
1585.7979210000001
 30
0.0
 40
250.0
  1
LL#7-4
  0
TEXT
  5
7BD8
  8
4
  6
CONTINUOUS
 10
4523.9288280000001
 20
11917.14420699999
 30
0.0
 40
270.0
  1
床置ベット
  0
TEXT
  5
7BD9
  8
4
  6
CONTINUOUS
 10
1580.837966999999
 20
12669.404881
 30
0.0
 40
300.0
  1
ベルト駆動式片吸込両持リミットロードファン
  0
LINE
  5
7BDA
  8
4
  6
CONTINUOUS
 10
1250.0
 20
12347.04377099999
 30
0.0
 11
9250.0
 21
12347.04377099999
 31
0.0
  0
LINE
  5
7BDB
  8
4
  6
CONTINUOUS
 10
1250.0
 20
13347.043771000001
 30
0.0
 11
9250.0
 21
13347.043771000001
 31
0.0
  0
LINE
  5
7BDC
  8
4
  6
CONTINUOUS
 10
3250.0
 20
2500.0
 30
0.0
 11
9250.0
 21
2500.0
 31
0.0
  0
LINE
  5
7BDD
  8
4
  6
CONTINUOUS
 10
1250.0
 20
13347.043771000001
 30
0.0
 11
1250.0
 21
12347.04377099999
 31
0.0
  0
TEXT
  5
7BDE
  8
4
  6
CONTINUOUS
 10
2344.6346669999998
 20
11911.597388
 30
0.0
 40
270.0
  1
左回転右横向
  0
TEXT
  5
7BDF
  8
4
  6
CONTINUOUS
 10
7344.8477969999994
 20
13530.305408
 30
0.0
 40
280.0
  1
No.
  0
TEXT
  5
7BE0
  8
4
  6
CONTINUOUS
 10
6556.480313
 20
11917.14420699999
 30
0.0
 40
270.0
  1
縮尺：1/50
  0
LINE
  5
7BE1
  8
4
  6
CONTINUOUS
 10
9250.0
 20
13347.043771000001
 30
0.0
 11
9250.0
 21
12347.04377099999
 31
0.0
  0
LINE
  5
7BE3
  8
4
  6
CONTINUOUS
 10
7203.0871120000002
 20
13406.317916
 30
0.0
 11
7203.0871120000002
 21
13933.261307999999
 31
0.0
  0
LINE
  5
7BE4
  8
4
  6
CONTINUOUS
 10
7203.0871120000002
 20
13933.261307999999
 30
0.0
 11
9250.0
 21
13933.261307999999
 31
0.0
  0
LINE
  5
7BE5
  8
4
  6
CONTINUOUS
 10
9250.0
 20
13933.261307999999
 30
0.0
 11
9250.0
 21
13406.317916
 31
0.0
  0
LINE
  5
7BE6
  8
4
  6
CONTINUOUS
 10
9250.0
 20
13406.317916
 30
0.0
 11
7203.0871120000002
 21
13406.317916
 31
0.0
  0
DIMENSION
  5
7C1D
  8
3
  6
CONTINUOUS
  2
*D17
 10
5343.1475115145731
 20
4297.1113569999998
 30
0.0
 11
5343.1475115145731
 21
4935.7620550000001
 31
0.0
 70
   128
 13
4584.7341200000001
 23
5495.1113569999989
 33
0.0
 14
4678.0433810000013
 24
4297.1113569999998
 34
0.0
 50
90.0
1001
ACAD
1000
DSTYLE
1002
{
1070
   287
1070
     3
1070
    40
1040
45.0
1070
   143
1040
0.039
1070
   172
1070
     1
1070
   271
1070
     0
1070
   279
1070
     0
1070
   288
1070
     1
1002
}
  0
DIMENSION
  5
7D00
  8
3
  2
*D18
 10
2218.043381
 20
6723.5042362473541
 30
0.0
 11
3592.131583432536
 21
6723.5042362473541
 31
0.0
 70
   128
 13
4678.0433810000013
 23
5500.1113569999998
 33
0.0
 14
2218.043381
 24
4265.1113569999998
 34
0.0
1001
ACAD
1000
DSTYLE
1002
{
1070
   287
1070
     3
1070
    40
1040
45.0
1070
   143
1040
0.039
1070
   172
1070
     1
1070
   271
1070
     0
1070
   279
1070
     0
1070
   288
1070
     1
1002
}
  0
ENDSEC
  0
EOF
