  0
SECTION
  2
HEADER
  9
$ACADVER
  1
AC1009
  9
$INSBASE
 10
0.0
 20
0.0
 30
0.0
  9
$EXTMIN
 10
1250.0
 20
1500.0
 30
0.0
  9
$EXTMAX
 10
9250.0
 20
13933.261307999999
 30
0.0
  9
$LIMMIN
 10
0.0
 20
0.0
  9
$LIMMAX
 10
297.0
 20
210.0
  9
$ORTHOMODE
 70
     0
  9
$REGENMODE
 70
     1
  9
$FILLMODE
 70
     0
  9
$QTEXTMODE
 70
     0
  9
$MIRRTEXT
 70
     1
  9
$DRAGMODE
 70
     2
  9
$LTSCALE
 40
100.0
  9
$OSMODE
 70
    37
  9
$ATTMODE
 70
     1
  9
$TEXTSIZE
 40
180.0
  9
$TRACEWID
 40
0.05
  9
$TEXTSTYLE
  7
STANDARD
  9
$CLAYER
  8
3
  9
$CELTYPE
  6
BYLAYER
  9
$CECOLOR
 62
   256
  9
$DIMSCALE
 40
45.0
  9
$DIMASZ
 40
2.0
  9
$DIMEXO
 40
0.5
  9
$DIMDLI
 40
10.0
  9
$DIMRND
 40
0.0
  9
$DIMDLE
 40
0.0
  9
$DIMEXE
 40
1.0
  9
$DIMTP
 40
1.0
  9
$DIMTM
 40
1.0
  9
$DIMTXT
 40
3.0
  9
$DIMCEN
 40
0.0
  9
$DIMTSZ
 40
0.0
  9
$DIMTOL
 70
     0
  9
$DIMLIM
 70
     0
  9
$DIMTIH
 70
     0
  9
$DIMTOH
 70
     0
  9
$DIMSE1
 70
     0
  9
$DIMSE2
 70
     0
  9
$DIMTAD
 70
     1
  9
$DIMZIN
 70
     8
  9
$DIMBLK
  1

  9
$DIMASO
 70
     1
  9
$DIMSHO
 70
     1
  9
$DIMPOST
  1

  9
$DIMAPOST
  1

  9
$DIMALT
 70
     0
  9
$DIMALTD
 70
     2
  9
$DIMALTF
 40
0.039
  9
$DIMLFAC
 40
1.0
  9
$DIMTOFL
 70
     1
  9
$DIMTVP
 40
0.0
  9
$DIMTIX
 70
     0
  9
$DIMSOXD
 70
     0
  9
$DIMSAH
 70
     1
  9
$DIMBLK1
  1
OPEN
  9
$DIMBLK2
  1
OPEN
  9
$DIMSTYLE
  2
IGA
  9
$DIMCLRD
 70
     0
  9
$DIMCLRE
 70
     0
  9
$DIMCLRT
 70
     0
  9
$DIMTFAC
 40
10.0
  9
$DIMGAP
 40
1.0
  9
$LUNITS
 70
     2
  9
$LUPREC
 70
     3
  9
$SKETCHINC
 40
0.1
  9
$FILLETRAD
 40
50.0
  9
$AUNITS
 70
     0
  9
$AUPREC
 70
     0
  9
$MENU
  1
acad
  9
$ELEVATION
 40
0.0
  9
$PELEVATION
 40
0.0
  9
$THICKNESS
 40
0.0
  9
$LIMCHECK
 70
     0
  9
$BLIPMODE
 70
     0
  9
$CHAMFERA
 40
0.5
  9
$CHAMFERB
 40
0.5
  9
$SKPOLY
 70
     0
  9
$TDCREATE
 40
2450750.622659259
  9
$TDUPDATE
 40
2454953.6603770601
  9
$TDINDWG
 40
0.0097808218
  9
$TDUSRTIMER
 40
0.0097808218
  9
$USRTIMER
 70
     1
  9
$ANGBASE
 50
0.0
  9
$ANGDIR
 70
     0
  9
$PDMODE
 70
     0
  9
$PDSIZE
 40
0.0
  9
$PLINEWID
 40
0.0
  9
$COORDS
 70
     1
  9
$SPLFRAME
 70
     0
  9
$SPLINETYPE
 70
     6
  9
$SPLINESEGS
 70
     8
  9
$ATTDIA
 70
     0
  9
$ATTREQ
 70
     1
  9
$HANDLING
 70
 10241
  9
$HANDSEED
  5
7D2D
  9
$SURFTAB1
 70
     6
  9
$SURFTAB2
 70
     6
  9
$SURFTYPE
 70
     6
  9
$SURFU
 70
     6
  9
$SURFV
 70
     6
  9
$UCSNAME
  2

  9
$UCSORG
 10
0.0
 20
0.0
 30
0.0
  9
$UCSXDIR
 10
1.0
 20
0.0
 30
0.0
  9
$UCSYDIR
 10
0.0
 20
1.0
 30
0.0
  9
$PUCSNAME
  2

  9
$PUCSORG
 10
0.0
 20
0.0
 30
0.0
  9
$PUCSXDIR
 10
1.0
 20
0.0
 30
0.0
  9
$PUCSYDIR
 10
0.0
 20
1.0
 30
0.0
  9
$USERI1
 70
     0
  9
$USERI2
 70
     0
  9
$USERI3
 70
     0
  9
$USERI4
 70
     0
  9
$USERI5
 70
     0
  9
$USERR1
 40
0.0
  9
$USERR2
 40
0.0
  9
$USERR3
 40
0.0
  9
$USERR4
 40
0.0
  9
$USERR5
 40
0.0
  9
$WORLDVIEW
 70
     1
  9
$SHADEDGE
 70
     3
  9
$SHADEDIF
 70
    70
  9
$TILEMODE
 70
     1
  9
$MAXACTVP
 70
    16
  9
$PLIMCHECK
 70
     0
  9
$PEXTMIN
 10
1.0000000000000000E+020
 20
1.0000000000000000E+020
 30
1.0000000000000000E+020
  9
$PEXTMAX
 10
-1.0000000000000000E+020
 20
-1.0000000000000000E+020
 30
-1.0000000000000000E+020
  9
$PLIMMIN
 10
0.0
 20
0.0
  9
$PLIMMAX
 10
12.0
 20
9.0
  9
$UNITMODE
 70
     0
  9
$VISRETAIN
 70
     0
  9
$PLINEGEN
 70
     0
  9
$PSLTSCALE
 70
     1
  0
ENDSEC
  0
SECTION
  2
TABLES
  0
TABLE
  2
VPORT
 70
     2
  0
VPORT
  2
*ACTIVE
 70
     0
 10
0.0
 20
0.0
 11
1.0
 21
1.0
 12
9808.5828808994393
 22
2052.494722900246
 13
0.0
 23
0.0
 14
10.0
 24
10.0
 15
10.0
 25
10.0
 16
0.0
 26
0.0
 36
1.0
 17
0.0
 27
0.0
 37
0.0
 40
4442.0460382143383
 41
3.1666666666666661
 42
50.0
 43
0.0
 44
0.0
 50
0.0
 51
0.0
 71
     0
 72
   100
 73
     1
 74
     0
 75
     0
 76
     0
 77
     0
 78
     0
  0
ENDTAB
  0
TABLE
  2
LTYPE
 70
     2
  0
LTYPE
  2
CONTINUOUS
 70
     0
  3
Solid line
 72
    65
 73
     0
 40
0.0
  0
LTYPE
  2
CENTER
 70
     0
  3
____ _ ____ _ ____ _ ____ _ ____ _ ____ _ ____ 
 72
    65
 73
     4
 40
2.0
 49
1.25
 49
-0.25
 49
0.25
 49
-0.25
  0
ENDTAB
  0
TABLE
  2
LAYER
 70
     6
  0
LAYER
  2
0
 70
     0
 62
     7
  6
CONTINUOUS
  0
LAYER
  2
3
 70
     0
 62
     2
  6
CONTINUOUS
  0
LAYER
  2
2
 70
     0
 62
     3
  6
CENTER
  0
LAYER
  2
1
 70
     0
 62
     4
  6
CONTINUOUS
  0
LAYER
  2
4
 70
     0
 62
     7
  6
CONTINUOUS
  0
LAYER
  2
DEFPOINTS
 70
     0
 62
     7
  6
CONTINUOUS
  0
ENDTAB
  0
TABLE
  2
STYLE
 70
     1
  0
STYLE
  2
STANDARD
 70
     0
 40
0.0
 41
1.0
 50
0.0
 71
     0
 42
180.0
  3
simplex.shx
  4
extfont.shx
  0
ENDTAB
  0
TABLE
  2
VIEW
 70
     0
  0
ENDTAB
  0
TABLE
  2
UCS
 70
     0
  0
ENDTAB
  0
TABLE
  2
APPID
 70
     1
  0
APPID
  2
ACAD
 70
     0
  0
ENDTAB
  0
TABLE
  2
DIMSTYLE
 70
     1
  0
DIMSTYLE
  2
IGA
 70
     0
  3

  4

  5

  6
OPEN
  7
OPEN
 40
2.0
 41
2.0
 42
0.5
 43
10.0
 44
1.0
 45
0.0
 46
0.0
 47
1.0
 48
1.0
140
3.0
141
0.0
142
0.0
143
0.03937
144
1.0
145
0.0
146
10.0
147
1.0
 71
     0
 72
     0
 73
     0
 74
     0
 75
     0
 76
     0
 77
     1
 78
     8
170
     0
171
     2
172
     0
173
     1
174
     0
175
     0
176
     0
177
     0
178
     0
  0
ENDTAB
  0
ENDSEC
  0
SECTION
  2
BLOCKS
  0
BLOCK
  8
0
  2
$MODEL_SPACE
 70
     0
 10
0.0
 20
0.0
 30
0.0
  3
$MODEL_SPACE
  1

  0
ENDBLK
  5
1B
  8
0
  0
BLOCK
 67
     1
  8
0
  2
$PAPER_SPACE
 70
     0
 10
0.0
 20
0.0
 30
0.0
  3
$PAPER_SPACE
  1

  0
ENDBLK
  5
18
 67
     1
  8
0
  0
BLOCK
  8
0
  2
_OPEN
 70
     0
 10
0.0
 20
0.0
 30
0.0
  3
_OPEN
  1

  0
LINE
  5
7AC8
  8
0
  6
BYBLOCK
 62
     0
 10
-1.0
 20
0.166667
 30
0.0
 11
0.0
 21
0.0
 31
0.0
  0
LINE
  5
7AC9
  8
0
  6
BYBLOCK
 62
     0
 10
0.0
 20
0.0
 30
0.0
 11
-1.0
 21
-0.166667
 31
0.0
  0
LINE
  5
7ACA
  8
0
  6
BYBLOCK
 62
     0
 10
0.0
 20
0.0
 30
0.0
 11
-1.0
 21
0.0
 31
0.0
  0
ENDBLK
  5
7ACB
  8
0
  0
BLOCK
  8
0
  2
*D1
 70
     1
 10
0.0
 20
0.0
 30
0.0
  3
*D1
  1

  0
LINE
  5
7C85
  8
3
  6
CONTINUOUS
 62
     0
 10
2536.6934919999999
 20
4186.1371979999994
 30
0.0
 11
2536.6934919999999
 21
3825.098539999999
 31
0.0
  0
LINE
  5
7C86
  8
3
  6
CONTINUOUS
 62
     0
 10
3196.6934919999999
 20
4040.5674309999999
 30
0.0
 11
3196.6934919999999
 21
3825.098539999999
 31
0.0
  0
LINE
  5
7C87
  8
3
  6
CONTINUOUS
 62
     0
 10
2626.6934919999999
 20
3870.09854
 30
0.0
 11
3106.6934919999999
 21
3870.09854
 31
0.0
  0
INSERT
  5
7C88
  8
3
  6
CONTINUOUS
 62
     0
  2
_OPEN
 10
2536.6934919999999
 20
3870.09854
 30
0.0
 41
90.0
 42
90.0
 43
90.0
 50
180.0
  0
INSERT
  5
7C89
  8
3
  6
CONTINUOUS
 62
     0
  2
_OPEN
 10
3196.6934919999999
 20
3870.09854
 30
0.0
 41
90.0
 42
90.0
 43
90.0
  0
TEXT
  8
3
  40
135
  5
7D1B
  62
0
  72
0
  71
0
 10
2618.12
 20
3743.65
 30
0.000000
  1
660
  0
POINT
  5
7C8B
  8
DEFPOINTS
  6
CONTINUOUS
 62
     0
 10
2536.6934919999999
 20
4208.6371979999994
 30
0.0
  0
POINT
  5
7C8C
  8
DEFPOINTS
  6
CONTINUOUS
 62
     0
 10
3196.6934919999999
 20
4063.0674309999999
 30
0.0
  0
POINT
  5
7C8D
  8
DEFPOINTS
  6
CONTINUOUS
 62
     0
 10
3196.6934919999999
 20
3870.09854
 30
0.0
  0
ENDBLK
  5
7AD8
  8
0
  0
BLOCK
  8
0
  2
*D2
 70
     1
 10
0.0
 20
0.0
 30
0.0
  3
*D2
  1

  0
LINE
  5
7C8E
  8
3
  6
CONTINUOUS
 62
     0
 10
4896.6934920000003
 20
4186.1371979999994
 30
0.0
 11
4896.6934920000003
 21
3825.098539999999
 31
0.0
  0
LINE
  5
7C8F
  8
3
  6
CONTINUOUS
 62
     0
 10
3286.6934919999999
 20
3870.09854
 30
0.0
 11
4806.6934920000003
 21
3870.09854
 31
0.0
  0
INSERT
  5
7C90
  8
3
  6
CONTINUOUS
 62
     0
  2
_OPEN
 10
3196.6934919999999
 20
3870.09854
 30
0.0
 41
90.0
 42
90.0
 43
90.0
 50
180.0
  0
INSERT
  5
7C91
  8
3
  6
CONTINUOUS
 62
     0
  2
_OPEN
 10
4896.6934920000003
 20
3870.09854
 30
0.0
 41
90.0
 42
90.0
 43
90.0
  0
TEXT
  8
3
  40
135
  5
7D1C
  62
0
  72
0
  71
0
 10
3776.69
 20
3743.65
 30
0.000000
  1
1700
  0
POINT
  5
7C93
  8
DEFPOINTS
  6
CONTINUOUS
 62
     0
 10
3196.6934919999999
 20
4063.0674309999999
 30
0.0
  0
POINT
  5
7C94
  8
DEFPOINTS
  6
CONTINUOUS
 62
     0
 10
4896.6934920000003
 20
4208.6371979999994
 30
0.0
  0
POINT
  5
7C95
  8
DEFPOINTS
  6
CONTINUOUS
 62
     0
 10
4896.6934920000003
 20
3870.09854
 30
0.0
  0
ENDBLK
  5
7AE4
  8
0
  0
BLOCK
  8
0
  2
*D3
 70
     1
 10
0.0
 20
0.0
 30
0.0
  3
*D3
  1

  0
LINE
  5
7C96
  8
3
  6
CONTINUOUS
 62
     0
 10
3244.6934919999999
 20
6001.1371979999994
 30
0.0
 11
3244.6934919999999
 21
6298.1544979999999
 31
0.0
  0
LINE
  5
7C97
  8
3
  6
CONTINUOUS
 62
     0
 10
4394.6934920000003
 20
6001.1371979999994
 30
0.0
 11
4394.6934920000003
 21
6298.1544979999999
 31
0.0
  0
LINE
  5
7C98
  8
3
  6
CONTINUOUS
 62
     0
 10
3334.6934919999999
 20
6253.1544979999999
 30
0.0
 11
4304.6934920000012
 21
6253.1544979999999
 31
0.0
  0
INSERT
  5
7C99
  8
3
  6
CONTINUOUS
 62
     0
  2
_OPEN
 10
3244.6934919999999
 20
6253.1544979999999
 30
0.0
 41
90.0
 42
90.0
 43
90.0
 50
180.0
  0
INSERT
  5
7C9A
  8
3
  6
CONTINUOUS
 62
     0
  2
_OPEN
 10
4394.6934920000003
 20
6253.1544979999999
 30
0.0
 41
90.0
 42
90.0
 43
90.0
  0
TEXT
  8
3
  40
135
  5
7D1D
  62
0
  72
0
  71
0
 10
3519.51
 20
6126.70
 30
0.000000
  1
1150
  0
POINT
  5
7C9C
  8
DEFPOINTS
  6
CONTINUOUS
 62
     0
 10
3244.6934919999999
 20
5978.6371980000004
 30
0.0
  0
POINT
  5
7C9D
  8
DEFPOINTS
  6
CONTINUOUS
 62
     0
 10
4394.6934920000003
 20
5978.6371980000004
 30
0.0
  0
POINT
  5
7C9E
  8
DEFPOINTS
  6
CONTINUOUS
 62
     0
 10
4394.6934920000003
 20
6253.1544979999999
 30
0.0
  0
ENDBLK
  5
7AF1
  8
0
  0
BLOCK
  8
0
  2
*D4
 70
     1
 10
0.0
 20
0.0
 30
0.0
  3
*D4
  1

  0
LINE
  5
7C9F
  8
3
  6
CONTINUOUS
 62
     0
 10
2391.6934919999999
 20
5241.1371980000004
 30
0.0
 11
2391.6934919999999
 21
6594.7048329999998
 31
0.0
  0
LINE
  5
7CA0
  8
3
  6
CONTINUOUS
 62
     0
 10
3196.6934919999999
 20
5907.827937
 30
0.0
 11
3196.6934919999999
 21
6594.7048329999998
 31
0.0
  0
LINE
  5
7CA1
  8
3
  6
CONTINUOUS
 62
     0
 10
2481.6934919999999
 20
6549.7048329999989
 30
0.0
 11
3106.6934919999999
 21
6549.7048329999989
 31
0.0
  0
INSERT
  5
7CA2
  8
3
  6
CONTINUOUS
 62
     0
  2
_OPEN
 10
2391.6934919999999
 20
6549.7048329999989
 30
0.0
 41
90.0
 42
90.0
 43
90.0
 50
180.0
  0
INSERT
  5
7CA3
  8
3
  6
CONTINUOUS
 62
     0
  2
_OPEN
 10
3196.6934919999999
 20
6549.7048329999989
 30
0.0
 41
90.0
 42
90.0
 43
90.0
  0
TEXT
  8
3
  40
135
  5
7D1E
  62
0
  72
0
  71
0
 10
2557.68
 20
6423.25
 30
0.000000
  1
805
  0
POINT
  5
7CA5
  8
DEFPOINTS
  6
CONTINUOUS
 62
     0
 10
2391.6934919999999
 20
5218.6371979999994
 30
0.0
  0
POINT
  5
7CA6
  8
DEFPOINTS
  6
CONTINUOUS
 62
     0
 10
3196.6934919999999
 20
5885.327937
 30
0.0
  0
POINT
  5
7CA7
  8
DEFPOINTS
  6
CONTINUOUS
 62
     0
 10
3196.6934919999999
 20
6549.7048329999989
 30
0.0
  0
ENDBLK
  5
7C17
  8
0
  0
BLOCK
  8
0
  2
*D5
 70
     1
 10
0.0
 20
0.0
 30
0.0
  3
*D5
  1

  0
LINE
  5
7CA8
  8
3
  6
CONTINUOUS
 62
     0
 10
4394.6934920000003
 20
6001.1371979999994
 30
0.0
 11
4394.6934920000003
 21
6594.7048329999998
 31
0.0
  0
LINE
  5
7CA9
  8
3
  6
CONTINUOUS
 62
     0
 10
3286.6934919999999
 20
6549.7048329999989
 30
0.0
 11
4304.6934920000012
 21
6549.7048329999989
 31
0.0
  0
INSERT
  5
7CAA
  8
3
  6
CONTINUOUS
 62
     0
  2
_OPEN
 10
3196.6934919999999
 20
6549.7048329999989
 30
0.0
 41
90.0
 42
90.0
 43
90.0
 50
180.0
  0
INSERT
  5
7CAB
  8
3
  6
CONTINUOUS
 62
     0
  2
_OPEN
 10
4394.6934920000003
 20
6549.7048329999989
 30
0.0
 41
90.0
 42
90.0
 43
90.0
  0
TEXT
  8
3
  40
135
  5
7D1F
  62
0
  72
0
  71
0
 10
3525.69
 20
6423.25
 30
0.000000
  1
1198
  0
POINT
  5
7CAD
  8
DEFPOINTS
  6
CONTINUOUS
 62
     0
 10
3196.6934919999999
 20
5885.327937
 30
0.0
  0
POINT
  5
7CAE
  8
DEFPOINTS
  6
CONTINUOUS
 62
     0
 10
4394.6934920000003
 20
5978.6371980000004
 30
0.0
  0
POINT
  5
7CAF
  8
DEFPOINTS
  6
CONTINUOUS
 62
     0
 10
4394.6934920000003
 20
6549.7048329999989
 30
0.0
  0
ENDBLK
  5
7B0A
  8
0
  0
BLOCK
  8
0
  2
*D6
 70
     1
 10
0.0
 20
0.0
 30
0.0
  3
*D6
  1

  0
LINE
  5
7CB0
  8
3
  6
CONTINUOUS
 62
     0
 10
2536.6934919999999
 20
8540.5677090000008
 30
0.0
 11
2536.6934919999999
 21
8048.4287590000013
 31
0.0
  0
LINE
  5
7CB1
  8
3
  6
CONTINUOUS
 62
     0
 10
4896.6934920000003
 20
8540.5677090000008
 30
0.0
 11
4896.6934920000003
 21
8048.4287590000013
 31
0.0
  0
LINE
  5
7CB2
  8
3
  6
CONTINUOUS
 62
     0
 10
2626.6934919999999
 20
8093.4287590000013
 30
0.0
 11
4806.6934920000003
 21
8093.4287590000013
 31
0.0
  0
INSERT
  5
7CB3
  8
3
  6
CONTINUOUS
 62
     0
  2
_OPEN
 10
2536.6934919999999
 20
8093.4287590000013
 30
0.0
 41
90.0
 42
90.0
 43
90.0
 50
180.0
  0
INSERT
  5
7CB4
  8
3
  6
CONTINUOUS
 62
     0
  2
_OPEN
 10
4896.6934920000003
 20
8093.4287590000013
 30
0.0
 41
90.0
 42
90.0
 43
90.0
  0
TEXT
  8
3
  40
135
  5
7D20
  62
0
  72
0
  71
0
 10
3459.68
 20
7966.98
 30
0.000000
  1
2360
  0
POINT
  5
7CB6
  8
DEFPOINTS
  6
CONTINUOUS
 62
     0
 10
2536.6934919999999
 20
8563.0677090000008
 30
0.0
  0
POINT
  5
7CB7
  8
DEFPOINTS
  6
CONTINUOUS
 62
     0
 10
4896.6934920000003
 20
8563.0677090000008
 30
0.0
  0
POINT
  5
7CB8
  8
DEFPOINTS
  6
CONTINUOUS
 62
     0
 10
4896.6934920000003
 20
8093.4287590000013
 30
0.0
  0
ENDBLK
  5
7B30
  8
0
  0
BLOCK
  8
0
  2
*D7
 70
     1
 10
0.0
 20
0.0
 30
0.0
  3
*D7
  1

  0
LINE
  5
7CB9
  8
3
  6
CONTINUOUS
 62
     0
 10
4919.1934920000003
 20
9743.0677090000008
 30
0.0
 11
5334.8045780000011
 21
9743.0677090000008
 31
0.0
  0
LINE
  5
7CBA
  8
3
  6
CONTINUOUS
 62
     0
 10
4919.1934920000003
 20
8563.0677090000008
 30
0.0
 11
5334.8045780000011
 21
8563.0677090000008
 31
0.0
  0
LINE
  5
7CBB
  8
3
  6
CONTINUOUS
 62
     0
 10
5289.8045780000011
 20
9653.0677090000008
 30
0.0
 11
5289.8045780000011
 21
8653.0677090000008
 31
0.0
  0
INSERT
  5
7CBC
  8
3
  6
CONTINUOUS
 62
     0
  2
_OPEN
 10
5289.8045780000011
 20
9743.0677090000008
 30
0.0
 41
90.0
 42
90.0
 43
90.0
 50
90.0
  0
INSERT
  5
7CBD
  8
3
  6
CONTINUOUS
 62
     0
  2
_OPEN
 10
5289.8045780000011
 20
8563.0677090000008
 30
0.0
 41
90.0
 42
90.0
 43
90.0
 50
270.0
  0
TEXT
  8
3
  40
135
  5
7D21
  62
0
  72
0
  71
0
 10
4907.30
 20
8982.45
 30
0.000000
  1
1180
  0
POINT
  5
7CBF
  8
DEFPOINTS
  6
CONTINUOUS
 62
     0
 10
4896.6934920000003
 20
9743.0677090000008
 30
0.0
  0
POINT
  5
7CC0
  8
DEFPOINTS
  6
CONTINUOUS
 62
     0
 10
4896.6934920000003
 20
8563.0677090000008
 30
0.0
  0
POINT
  5
7CC1
  8
DEFPOINTS
  6
CONTINUOUS
 62
     0
 10
5289.8045780000011
 20
8563.0677090000008
 30
0.0
  0
ENDBLK
  5
7B3D
  8
0
  0
BLOCK
  8
0
  2
*D8
 70
     1
 10
0.0
 20
0.0
 30
0.0
  3
*D8
  1

  0
LINE
  5
7CC2
  8
3
  6
CONTINUOUS
 62
     0
 10
7221.6235390000011
 20
6001.1371979999994
 30
0.0
 11
7221.6235390000011
 21
6185.4283660000001
 31
0.0
  0
LINE
  5
7CC3
  8
3
  6
CONTINUOUS
 62
     0
 10
8071.6235390000002
 20
6001.1371979999994
 30
0.0
 11
8071.6235390000002
 21
6185.4283660000001
 31
0.0
  0
LINE
  5
7CC4
  8
3
  6
CONTINUOUS
 62
     0
 10
7311.6235390000002
 20
6140.4283660000001
 30
0.0
 11
7981.6235390000002
 21
6140.4283660000001
 31
0.0
  0
INSERT
  5
7CC5
  8
3
  6
CONTINUOUS
 62
     0
  2
_OPEN
 10
7221.6235390000011
 20
6140.4283660000001
 30
0.0
 41
90.0
 42
90.0
 43
90.0
 50
180.0
  0
INSERT
  5
7CC6
  8
3
  6
CONTINUOUS
 62
     0
  2
_OPEN
 10
8071.6235390000002
 20
6140.4283660000001
 30
0.0
 41
90.0
 42
90.0
 43
90.0
  0
TEXT
  8
3
  40
135
  5
7D22
  62
0
  72
0
  71
0
 10
7320.61
 20
6013.98
 30
0.000000
  1
850
  0
POINT
  5
7CC8
  8
DEFPOINTS
  6
CONTINUOUS
 62
     0
 10
7221.6235390000011
 20
5978.6371980000004
 30
0.0
  0
POINT
  5
7CC9
  8
DEFPOINTS
  6
CONTINUOUS
 62
     0
 10
8071.6235390000002
 20
5978.6371980000004
 30
0.0
  0
POINT
  5
7CCA
  8
DEFPOINTS
  6
CONTINUOUS
 62
     0
 10
8071.6235390000002
 20
6140.4283660000001
 30
0.0
  0
ENDBLK
  5
7B4D
  8
0
  0
BLOCK
  8
0
  2
*D9
 70
     1
 10
0.0
 20
0.0
 30
0.0
  3
*D9
  1

  0
LINE
  5
7CCB
  8
3
  6
CONTINUOUS
 62
     0
 10
6886.6235390000002
 20
5619.1371979999994
 30
0.0
 11
6886.6235390000002
 21
6465.3428519999998
 31
0.0
  0
LINE
  5
7CCC
  8
3
  6
CONTINUOUS
 62
     0
 10
7646.6235390000011
 20
6369.4455590000007
 30
0.0
 11
7646.6235390000011
 21
6465.3428519999998
 31
0.0
  0
LINE
  5
7CCD
  8
3
  6
CONTINUOUS
 62
     0
 10
6976.6235390000011
 20
6420.3428519999998
 30
0.0
 11
7556.6235390000002
 21
6420.3428519999998
 31
0.0
  0
INSERT
  5
7CCE
  8
3
  6
CONTINUOUS
 62
     0
  2
_OPEN
 10
6886.6235390000002
 20
6420.3428519999998
 30
0.0
 41
90.0
 42
90.0
 43
90.0
 50
180.0
  0
INSERT
  5
7CCF
  8
3
  6
CONTINUOUS
 62
     0
  2
_OPEN
 10
7646.6235390000011
 20
6420.3428519999998
 30
0.0
 41
90.0
 42
90.0
 43
90.0
  0
TEXT
  8
3
  40
135
  5
7D23
  62
0
  72
0
  71
0
 10
6994.95
 20
6406.39
 30
0.000000
  1
MAX
  0
TEXT
  8
3
  40
135
  5
7D24
  62
0
  72
0
  71
0
 10
6994.95
 20
6230.89
 30
0.000000
  1
850
  0
POINT
  5
7CD1
  8
DEFPOINTS
  6
CONTINUOUS
 62
     0
 10
6886.6235390000002
 20
5596.6371979999994
 30
0.0
  0
POINT
  5
7CD2
  8
DEFPOINTS
  6
CONTINUOUS
 62
     0
 10
7646.6235390000011
 20
6346.9455590000007
 30
0.0
  0
POINT
  5
7CD3
  8
DEFPOINTS
  6
CONTINUOUS
 62
     0
 10
7646.6235390000011
 20
6420.3428519999998
 30
0.0
  0
ENDBLK
  5
7C2F
  8
0
  0
BLOCK
  8
0
  2
*D10
 70
     1
 10
0.0
 20
0.0
 30
0.0
  3
*D10
  1

  0
LINE
  5
7CD4
  8
3
  6
CONTINUOUS
 62
     0
 10
8174.6235390000002
 20
5851.1371979999994
 30
0.0
 11
8174.6235390000002
 21
6465.3428519999998
 31
0.0
  0
LINE
  5
7CD5
  8
3
  6
CONTINUOUS
 62
     0
 10
7736.6235389999993
 20
6420.3428519999998
 30
0.0
 11
8084.6235390000002
 21
6420.3428519999998
 31
0.0
  0
TEXT
  8
3
  40
135
  5
7D25
  62
0
  72
0
  71
0
 10
7600.82
 20
6286.33
 30
0.000000
  1
528
  0
INSERT
  5
7CD7
  8
3
  6
CONTINUOUS
 62
     0
  2
_OPEN
 10
7646.6235390000011
 20
6420.3428519999998
 30
0.0
 41
90.0
 42
90.0
 43
90.0
 50
180.0
  0
INSERT
  5
7CD8
  8
3
  6
CONTINUOUS
 62
     0
  2
_OPEN
 10
8174.6235390000002
 20
6420.3428519999998
 30
0.0
 41
90.0
 42
90.0
 43
90.0
  0
POINT
  5
7CD9
  8
DEFPOINTS
  6
CONTINUOUS
 62
     0
 10
7646.6235390000011
 20
6346.9455590000007
 30
0.0
  0
POINT
  5
7CDA
  8
DEFPOINTS
  6
CONTINUOUS
 62
     0
 10
8174.6235390000002
 20
5828.6371980000004
 30
0.0
  0
POINT
  5
7CDB
  8
DEFPOINTS
  6
CONTINUOUS
 62
     0
 10
8174.6235390000002
 20
6420.3428519999998
 30
0.0
  0
ENDBLK
  5
7BEC
  8
0
  0
BLOCK
  8
0
  2
*D11
 70
     1
 10
0.0
 20
0.0
 30
0.0
  3
*D11
  1

  0
LINE
  5
7CDC
  8
3
  6
CONTINUOUS
 62
     0
 10
6959.6235390000002
 20
4186.1371979999994
 30
0.0
 11
6959.6235390000002
 21
3825.0986320000002
 31
0.0
  0
LINE
  5
7CDD
  8
3
  6
CONTINUOUS
 62
     0
 10
7646.6235390000011
 20
4045.0479729999988
 30
0.0
 11
7646.6235390000011
 21
3825.0986320000002
 31
0.0
  0
LINE
  5
7CDE
  8
3
  6
CONTINUOUS
 62
     0
 10
7049.6235390000011
 20
3870.0986320000002
 30
0.0
 11
7556.6235390000002
 21
3870.0986320000002
 31
0.0
  0
INSERT
  5
7CDF
  8
3
  6
CONTINUOUS
 62
     0
  2
_OPEN
 10
6959.6235390000002
 20
3870.0986320000002
 30
0.0
 41
90.0
 42
90.0
 43
90.0
 50
180.0
  0
INSERT
  5
7CE0
  8
3
  6
CONTINUOUS
 62
     0
  2
_OPEN
 10
7646.6235390000011
 20
3870.0986320000002
 30
0.0
 41
90.0
 42
90.0
 43
90.0
  0
TEXT
  8
3
  40
135
  5
7D26
  62
0
  72
0
  71
0
 10
6998.19
 20
3743.65
 30
0.000000
  1
687
  0
POINT
  5
7CE2
  8
DEFPOINTS
  6
CONTINUOUS
 62
     0
 10
6959.6235390000002
 20
4208.6371979999994
 30
0.0
  0
POINT
  5
7CE3
  8
DEFPOINTS
  6
CONTINUOUS
 62
     0
 10
7646.6235390000011
 20
4067.5479729999988
 30
0.0
  0
POINT
  5
7CE4
  8
DEFPOINTS
  6
CONTINUOUS
 62
     0
 10
7646.6235390000011
 20
3870.0986320000002
 30
0.0
  0
ENDBLK
  5
7B8B
  8
0
  0
BLOCK
  8
0
  2
*D12
 70
     1
 10
0.0
 20
0.0
 30
0.0
  3
*D12
  1

  0
LINE
  5
7CE5
  8
3
  6
CONTINUOUS
 62
     0
 10
8139.6235390000002
 20
4186.1371979999994
 30
0.0
 11
8139.6235390000002
 21
3825.0986320000002
 31
0.0
  0
LINE
  5
7CE6
  8
3
  6
CONTINUOUS
 62
     0
 10
7736.6235389999993
 20
3870.0986320000002
 30
0.0
 11
8049.6235390000002
 21
3870.0986320000002
 31
0.0
  0
TEXT
  8
3
  40
135
  5
7D27
  62
0
  72
0
  71
0
 10
7623.54
 20
3742.90
 30
0.000000
  1
493
  0
INSERT
  5
7CE8
  8
3
  6
CONTINUOUS
 62
     0
  2
_OPEN
 10
7646.6235390000011
 20
3870.0986320000002
 30
0.0
 41
90.0
 42
90.0
 43
90.0
 50
180.0
  0
INSERT
  5
7CE9
  8
3
  6
CONTINUOUS
 62
     0
  2
_OPEN
 10
8139.6235390000002
 20
3870.0986320000002
 30
0.0
 41
90.0
 42
90.0
 43
90.0
  0
POINT
  5
7CEA
  8
DEFPOINTS
  6
CONTINUOUS
 62
     0
 10
7646.6235390000011
 20
4067.5479729999988
 30
0.0
  0
POINT
  5
7CEB
  8
DEFPOINTS
  6
CONTINUOUS
 62
     0
 10
8139.6235390000002
 20
4208.6371979999994
 30
0.0
  0
POINT
  5
7CEC
  8
DEFPOINTS
  6
CONTINUOUS
 62
     0
 10
8139.6235390000002
 20
3870.0986320000002
 30
0.0
  0
ENDBLK
  5
7BB0
  8
0
  0
BLOCK
  8
0
  2
*D13
 70
     1
 10
0.0
 20
0.0
 30
0.0
  3
*D13
  1

  0
LINE
  5
7CED
  8
3
  6
CONTINUOUS
 62
     0
 10
8197.1235390000002
 20
5778.6371980000004
 30
0.0
 11
8574.7111780000014
 21
5778.6371980000004
 31
0.0
  0
LINE
  5
7CEE
  8
3
  6
CONTINUOUS
 62
     0
 10
8197.1235390000002
 20
4658.6371980000004
 30
0.0
 11
8574.7111780000014
 21
4658.6371980000004
 31
0.0
  0
LINE
  5
7CEF
  8
3
  6
CONTINUOUS
 62
     0
 10
8529.7111780000014
 20
5688.6371979999994
 30
0.0
 11
8529.7111780000014
 21
4748.6371979999994
 31
0.0
  0
INSERT
  5
7CF0
  8
3
  6
CONTINUOUS
 62
     0
  2
_OPEN
 10
8529.7111780000014
 20
5778.6371980000004
 30
0.0
 41
90.0
 42
90.0
 43
90.0
 50
90.0
  0
INSERT
  5
7CF1
  8
3
  6
CONTINUOUS
 62
     0
  2
_OPEN
 10
8529.7111780000014
 20
4658.6371980000004
 30
0.0
 41
90.0
 42
90.0
 43
90.0
 50
270.0
  0
TEXT
  8
3
  40
135
  5
7D28
  62
0
  72
0
  71
0
 10
8147.21
 20
4977.01
 30
0.000000
  1
φ1120
  0
POINT
  5
7CF3
  8
DEFPOINTS
  6
CONTINUOUS
 62
     0
 10
8174.6235390000002
 20
5778.6371980000004
 30
0.0
  0
POINT
  5
7CF4
  8
DEFPOINTS
  6
CONTINUOUS
 62
     0
 10
8174.6235390000002
 20
4658.6371980000004
 30
0.0
  0
POINT
  5
7CF5
  8
DEFPOINTS
  6
CONTINUOUS
 62
     0
 10
8529.7111780000014
 20
4658.6371980000004
 30
0.0
  0
ENDBLK
  5
7C3A
  8
0
  0
BLOCK
  8
0
  2
*D14
 70
     1
 10
0.0
 20
0.0
 30
0.0
  3
*D14
  1

  0
LINE
  5
7CF6
  8
3
 62
     0
 10
2391.6934919999999
 20
5263.6371979999994
 30
0.0
 11
2391.6934919999999
 21
6839.3073799754056
 31
0.0
  0
LINE
  5
7CF7
  8
3
 62
     0
 10
4896.6934920000003
 20
4356.1371979999994
 30
0.0
 11
4896.6934920000003
 21
6839.3073799754056
 31
0.0
  0
LINE
  5
7CF8
  8
3
 62
     0
 10
2481.6934919999999
 20
6794.3073799754056
 30
0.0
 11
4806.6934920000003
 21
6794.3073799754056
 31
0.0
  0
INSERT
  5
7CF9
  8
3
 62
     0
  2
_OPEN
 10
2391.6934919999999
 20
6794.3073799754056
 30
0.0
 41
90.0
 42
90.0
 43
90.0
 50
180.0
  0
INSERT
  5
7CFA
  8
3
 62
     0
  2
_OPEN
 10
4896.6934920000003
 20
6794.3073799754056
 30
0.0
 41
90.0
 42
90.0
 43
90.0
  0
TEXT
  8
3
  40
135
  5
7D29
  62
0
  72
0
  71
0
 10
3426.48
 20
6667.86
 30
0.000000
  1
2505
  0
POINT
  5
7CFC
  8
DEFPOINTS
 62
     0
 10
2391.6934919999999
 20
5241.1371980000004
 30
0.0
  0
POINT
  5
7CFD
  8
DEFPOINTS
 62
     0
 10
4896.6934920000003
 20
4333.6371979999994
 30
0.0
  0
POINT
  5
7CFE
  8
DEFPOINTS
 62
     0
 10
4896.6934920000003
 20
6794.3073799754056
 30
0.0
  0
ENDBLK
  5
7C23
  8
0
  0
BLOCK
  8
0
  2
*D15
 70
     1
 10
0.0
 20
0.0
 30
0.0
  3
*D15
  1

  0
LINE
  5
7CFF
  8
3
 62
     0
 10
3169.1934919999999
 20
5978.6371980000004
 30
0.0
 11
1944.552417222375
 21
5978.6371980000013
 31
0.0
  0
LINE
  5
7D00
  8
3
 62
     0
 10
2267.5984050000002
 20
5218.6371979999994
 30
0.0
 11
1944.5524172223741
 21
5218.6371980000004
 31
0.0
  0
LINE
  5
7D01
  8
3
 62
     0
 10
1989.552417222375
 20
6068.6371980000013
 30
0.0
 11
1989.552417222375
 21
6158.6371980000004
 31
0.0
  0
LINE
  5
7D02
  8
3
 62
     0
 10
1989.552417222375
 20
5128.6371980000004
 30
0.0
 11
1989.552417222375
 21
5038.6371980000004
 31
0.0
  0
LINE
  5
7D03
  8
3
 62
     0
 10
1989.552417222375
 20
5978.6371980000013
 30
0.0
 11
1989.552417222375
 21
5218.6371980000004
 31
0.0
  0
INSERT
  5
7D04
  8
3
 62
     0
  2
_OPEN
 10
1989.552417222375
 20
5978.6371980000013
 30
0.0
 41
90.0
 42
90.0
 43
90.0
 50
270.0
  0
INSERT
  5
7D05
  8
3
 62
     0
  2
_OPEN
 10
1989.552417222375
 20
5218.6371980000004
 30
0.0
 41
90.0
 42
90.0
 43
90.0
 50
90.0
  0
TEXT
  8
3
  40
135
  5
7D2A
  62
0
  72
0
  71
0
 10
1607.05
 20
5288.26
 30
0.000000
  1
760
  0
POINT
  5
7D07
  8
DEFPOINTS
 62
     0
 10
3191.6934919999999
 20
5978.6371980000004
 30
0.0
  0
POINT
  5
7D08
  8
DEFPOINTS
 62
     0
 10
2290.0984050000002
 20
5218.6371979999994
 30
0.0
  0
POINT
  5
7D09
  8
DEFPOINTS
 62
     0
 10
1989.552417222375
 20
5218.6371980000004
 30
0.0
  0
ENDBLK
  5
7C47
  8
0
  0
BLOCK
  8
0
  2
*D16
 70
     1
 10
0.0
 20
0.0
 30
0.0
  3
*D16
  1

  0
LINE
  5
7D0A
  8
3
 62
     0
 10
2514.1934919999999
 20
4208.6371979999994
 30
0.0
 11
1944.5524172223741
 21
4208.6371980000004
 31
0.0
  0
LINE
  5
7D0B
  8
3
 62
     0
 10
1989.5524172223741
 20
5128.6371980000004
 30
0.0
 11
1989.5524172223741
 21
4298.6371980000004
 31
0.0
  0
INSERT
  5
7D0C
  8
3
 62
     0
  2
_OPEN
 10
1989.5524172223741
 20
5218.6371980000004
 30
0.0
 41
90.0
 42
90.0
 43
90.0
 50
90.0
  0
INSERT
  5
7D0D
  8
3
 62
     0
  2
_OPEN
 10
1989.5524172223741
 20
4208.6371980000004
 30
0.0
 41
90.0
 42
90.0
 43
90.0
 50
270.0
  0
TEXT
  8
3
  40
135
  5
7D2B
  62
0
  72
0
  71
0
 10
1607.05
 20
4474.69
 30
0.000000
  1
1010
  0
POINT
  5
7D0F
  8
DEFPOINTS
 62
     0
 10
2290.0984050000002
 20
5218.6371979999994
 30
0.0
  0
POINT
  5
7D10
  8
DEFPOINTS
 62
     0
 10
2536.6934919999999
 20
4208.6371979999994
 30
0.0
  0
POINT
  5
7D11
  8
DEFPOINTS
 62
     0
 10
1989.5524172223741
 20
4208.6371980000004
 30
0.0
  0
ENDBLK
  5
7C53
  8
0
  0
BLOCK
  8
0
  2
*D17
 70
     1
 10
0.0
 20
0.0
 30
0.0
  3
*D17
  1

  0
LINE
  5
7D12
  8
3
 62
     0
 10
3169.1934919999999
 20
5978.6371980000004
 30
0.0
 11
1663.2944003046809
 21
5978.6371980000013
 31
0.0
  0
LINE
  5
7D13
  8
3
 62
     0
 10
2514.1934919999999
 20
4208.6371979999994
 30
0.0
 11
1663.29440030468
 21
4208.6371980000004
 31
0.0
  0
LINE
  5
7D14
  8
3
 62
     0
 10
1708.29440030468
 20
5888.6371980000013
 30
0.0
 11
1708.29440030468
 21
4298.6371980000004
 31
0.0
  0
INSERT
  5
7D15
  8
3
 62
     0
  2
_OPEN
 10
1708.29440030468
 20
5978.6371980000013
 30
0.0
 41
90.0
 42
90.0
 43
90.0
 50
90.0
  0
INSERT
  5
7D16
  8
3
 62
     0
  2
_OPEN
 10
1708.29440030468
 20
4208.6371980000004
 30
0.0
 41
90.0
 42
90.0
 43
90.0
 50
270.0
  0
TEXT
  8
3
  40
135
  5
7D2C
  62
0
  72
0
  71
0
 10
1325.79
 20
4871.76
 30
0.000000
  1
1770
  0
POINT
  5
7D18
  8
DEFPOINTS
 62
     0
 10
3191.6934919999999
 20
5978.6371980000004
 30
0.0
  0
POINT
  5
7D19
  8
DEFPOINTS
 62
     0
 10
2536.6934919999999
 20
4208.6371979999994
 30
0.0
  0
POINT
  5
7D1A
  8
DEFPOINTS
 62
     0
 10
1708.29440030468
 20
4208.6371980000004
 30
0.0
  0
ENDBLK
  5
7C60
  8
0
  0
ENDSEC
  0
SECTION
  2
ENTITIES
  0
ARC
  5
7A64
  8
1
  6
CONTINUOUS
 10
3278.6934919999999
 20
5300.6371980000004
 30
0.0
 40
1054.2
 50
270.0
 51
355.5
  0
LINE
  5
7A65
  8
1
  6
CONTINUOUS
 10
4498.7934919999989
 20
4361.037198
 30
0.0
 11
3071.4934920000001
 21
4861.9371979999987
 31
0.0
  0
LINE
  5
7A66
  8
1
  6
CONTINUOUS
 10
4531.9934919999996
 20
4455.4371979999996
 30
0.0
 11
3104.593492
 21
4956.3371979999993
 31
0.0
  0
LINE
  5
7A67
  8
1
  6
CONTINUOUS
 10
4685.8934920000002
 20
4756.7371979999989
 30
0.0
 11
3392.8934920000002
 21
5541.7371979999989
 31
0.0
  0
LINE
  5
7A68
  8
1
  6
CONTINUOUS
 10
4633.9934919999996
 20
4671.2371979999998
 30
0.0
 11
3340.9934919999992
 21
5456.2371979999998
 31
0.0
  0
LINE
  5
7A69
  8
1
  6
CONTINUOUS
 10
4796.6934920000012
 20
4388.6371979999994
 30
0.0
 11
4346.6934920000003
 21
4388.6371979999994
 31
0.0
  0
LINE
  5
7A6A
  8
1
  6
CONTINUOUS
 10
4770.7934919999998
 20
8798.7677090000016
 30
0.0
 11
4372.593492
 21
8798.7677090000016
 31
0.0
  0
LINE
  5
7A6B
  8
1
  6
CONTINUOUS
 10
4770.7934919999998
 20
9398.2677089999997
 30
0.0
 11
4394.6934920000003
 21
9398.2677089999997
 31
0.0
  0
ARC
  5
7A6C
  8
1
  6
CONTINUOUS
 10
4571.6934920000003
 20
4568.6371980000004
 30
0.0
 40
199.0
 50
320.10000000000002
 51
219.90000000000001
  0
LINE
  5
7A6D
  8
1
  6
CONTINUOUS
 10
2536.6934919999999
 20
4333.6371979999994
 30
0.0
 11
4896.6934920000003
 21
4333.6371979999994
 31
0.0
  0
LINE
  5
7A6E
  8
1
  6
CONTINUOUS
 10
2536.6934919999999
 20
4208.6371979999994
 30
0.0
 11
4896.6934920000003
 21
4208.6371979999994
 31
0.0
  0
LINE
  5
7A6F
  8
1
  6
CONTINUOUS
 10
4796.6934920000012
 20
4333.6371979999994
 30
0.0
 11
4346.6934920000003
 21
4333.6371979999994
 31
0.0
  0
CIRCLE
  5
7A70
  8
1
  6
CONTINUOUS
 10
4571.6934920000003
 20
4568.6371980000004
 30
0.0
 40
120.0
  0
LINE
  5
7A71
  8
2
  6
CENTER
 10
4691.6934920000003
 20
4568.6371980000004
 30
0.0
 11
4451.6934920000003
 21
4568.6371980000004
 31
0.0
  0
LINE
  5
7A72
  8
1
  6
CONTINUOUS
 10
4896.6934920000003
 20
9743.0677090000008
 30
0.0
 11
3756.6934919999999
 21
9743.0677090000008
 31
0.0
  0
LINE
  5
7A73
  8
1
  6
CONTINUOUS
 10
4896.6934920000003
 20
8563.0677090000008
 30
0.0
 11
2536.6934919999999
 21
8563.0677090000008
 31
0.0
  0
LINE
  5
7A74
  8
1
  6
CONTINUOUS
 10
4791.6934920000003
 20
8510.0677090000008
 30
0.0
 11
2818.6934919999999
 21
8510.0677090000008
 31
0.0
  0
LINE
  5
7A75
  8
1
  6
CONTINUOUS
 10
4791.6934920000003
 20
8750.0677090000008
 30
0.0
 11
2818.6934919999999
 21
8750.0677090000008
 31
0.0
  0
LINE
  5
7A76
  8
1
  6
CONTINUOUS
 10
4451.6934920000003
 20
8680.0677090000008
 30
0.0
 11
4691.6934920000003
 21
8680.0677090000008
 31
0.0
  0
LINE
  5
7A77
  8
1
  6
CONTINUOUS
 10
4451.6934920000003
 20
8580.0677090000008
 30
0.0
 11
4691.6934920000003
 21
8580.0677090000008
 31
0.0
  0
CIRCLE
  5
7A78
  8
1
  6
CONTINUOUS
 10
3196.6934919999999
 20
5218.6371979999994
 30
0.0
 40
278.0
  0
CIRCLE
  5
7A79
  8
1
  6
CONTINUOUS
 10
3196.6934919999999
 20
5218.6371979999994
 30
0.0
 40
610.0
  0
CIRCLE
  5
7A7A
  8
1
  6
CONTINUOUS
 10
3196.6934919999999
 20
5218.6371979999994
 30
0.0
 40
560.0
  0
LINE
  5
7A7B
  8
1
  6
CONTINUOUS
 10
3244.6934919999999
 20
5938.6371979999994
 30
0.0
 11
4391.2934919999989
 21
5938.6371979999994
 31
0.0
  0
LINE
  5
7A7C
  8
1
  6
CONTINUOUS
 10
3191.6934919999999
 20
5978.6371980000004
 30
0.0
 11
4447.6934920000003
 21
5978.6371980000004
 31
0.0
  0
ARC
  5
7A7D
  8
1
  6
CONTINUOUS
 10
3196.6934919999999
 20
5218.6371979999994
 30
0.0
 40
378.0
 50
58.700000000000003
 51
250.69999999999999
  0
LINE
  5
7A7E
  8
2
  6
CENTER
 10
2290.0984050000002
 20
5218.6371979999994
 30
0.0
 11
4423.3969649999999
 21
5218.6371979999994
 31
0.0
  0
ARC
  5
7A7F
  8
1
  6
CONTINUOUS
 10
3128.1934919999999
 20
5150.1371979999994
 30
0.0
 40
739.10000000000002
 50
90.0
 51
174.90000000000001
  0
ARC
  5
7A80
  8
1
  6
CONTINUOUS
 10
3278.6934919999999
 20
5136.6371979999994
 30
0.0
 40
890.20000000000005
 50
174.90000000000001
 51
270.0
  0
LINE
  5
7A81
  8
1
  6
CONTINUOUS
 10
2536.6934919999999
 20
4333.6371979999994
 30
0.0
 11
2536.6934919999999
 21
4208.6371979999994
 31
0.0
  0
LINE
  5
7A82
  8
2
  6
CENTER
 10
3196.6934919999999
 20
4063.0674309999999
 30
0.0
 11
3196.6934919999999
 21
6328.035124
 31
0.0
  0
ARC
  5
7A83
  8
1
  6
CONTINUOUS
 10
3128.1934919999999
 20
5287.1371979999994
 30
0.0
 40
602.10000000000002
 50
78.799999999999983
 51
90.0
  0
LINE
  5
7A84
  8
1
  6
CONTINUOUS
 10
3244.6934919999999
 20
5877.8371979999993
 30
0.0
 11
3244.6934919999999
 21
5978.6371980000004
 31
0.0
  0
LINE
  5
7A85
  8
1
  6
CONTINUOUS
 10
4394.6934920000003
 20
5978.6371980000004
 30
0.0
 11
4329.6934920000003
 21
5218.6371979999994
 31
0.0
  0
LINE
  5
7A86
  8
1
  6
CONTINUOUS
 10
4409.6934920000003
 20
4388.6371979999994
 30
0.0
 11
4409.6934920000003
 21
4431.1371980000004
 31
0.0
  0
LINE
  5
7A87
  8
1
  6
CONTINUOUS
 10
4409.6934920000003
 20
4431.1371980000004
 30
0.0
 11
4418.9934920000014
 21
4441.037198
 31
0.0
  0
LINE
  5
7A88
  8
1
  6
CONTINUOUS
 10
4346.6934920000003
 20
4333.6371979999994
 30
0.0
 11
4346.6934920000003
 21
4388.6371979999994
 31
0.0
  0
LINE
  5
7A89
  8
1
  6
CONTINUOUS
 10
4394.6934920000003
 20
8825.0677090000008
 30
0.0
 11
3244.6934919999999
 21
9675.0677090000027
 31
0.0
  0
LINE
  5
7A8A
  8
1
  6
CONTINUOUS
 10
4394.6934920000003
 20
9675.0677090000027
 30
0.0
 11
3244.6934919999999
 21
8825.0677090000008
 31
0.0
  0
LINE
  5
7A8B
  8
1
  6
CONTINUOUS
 10
4394.6934920000003
 20
9675.0677090000027
 30
0.0
 11
2388.4934920000001
 21
9675.0677090000027
 31
0.0
  0
LINE
  5
7A8C
  8
1
  6
CONTINUOUS
 10
4394.6934920000003
 20
8825.0677090000008
 30
0.0
 11
2388.4934920000001
 21
8825.0677090000008
 31
0.0
  0
LINE
  5
7A8D
  8
1
  6
CONTINUOUS
 10
3806.6934919999999
 20
9778.0677090000008
 30
0.0
 11
2586.6934919999999
 21
9778.0677090000008
 31
0.0
  0
LINE
  5
7A8E
  8
1
  6
CONTINUOUS
 10
2918.6934919999999
 20
8580.0677090000008
 30
0.0
 11
3474.6934919999999
 21
8580.0677090000008
 31
0.0
  0
LINE
  5
7A8F
  8
1
  6
CONTINUOUS
 10
2918.6934919999999
 20
8680.0677090000008
 30
0.0
 11
3474.6934919999999
 21
8680.0677090000008
 31
0.0
  0
LINE
  5
7A90
  8
1
  6
CONTINUOUS
 10
3244.6934919999999
 20
8825.0677090000008
 30
0.0
 11
3244.6934919999999
 21
9675.0677090000027
 31
0.0
  0
LINE
  5
7A91
  8
1
  6
CONTINUOUS
 10
2388.4934920000001
 20
8825.0677090000008
 30
0.0
 11
2388.4934920000001
 21
9675.0677090000027
 31
0.0
  0
LINE
  5
7A92
  8
1
  6
CONTINUOUS
 10
2536.6934919999999
 20
8825.0677090000008
 30
0.0
 11
2536.6934919999999
 21
8563.0677090000008
 31
0.0
  0
LINE
  5
7A93
  8
1
  6
CONTINUOUS
 10
3169.1934919999999
 20
8825.0677090000008
 30
0.0
 11
3169.1934919999999
 21
8680.0677090000008
 31
0.0
  0
LINE
  5
7A94
  8
1
  6
CONTINUOUS
 10
3224.1934919999999
 20
8825.0677090000008
 30
0.0
 11
3224.1934919999999
 21
8680.0677090000008
 31
0.0
  0
LINE
  5
7A95
  8
1
  6
CONTINUOUS
 10
2918.6934919999999
 20
8580.0677090000008
 30
0.0
 11
2918.6934919999999
 21
8680.0677090000008
 31
0.0
  0
LINE
  5
7A96
  8
1
  6
CONTINUOUS
 10
2818.6934919999999
 20
8510.0677090000008
 30
0.0
 11
2818.6934919999999
 21
8750.0677090000008
 31
0.0
  0
LINE
  5
7A97
  8
1
  6
CONTINUOUS
 10
2636.6934919999999
 20
9743.0677090000008
 30
0.0
 11
2536.6934919999999
 21
9743.0677090000008
 31
0.0
  0
LINE
  5
7A98
  8
1
  6
CONTINUOUS
 10
2536.6934919999999
 20
9743.0677090000008
 30
0.0
 11
2536.6934919999999
 21
9675.0677090000027
 31
0.0
  0
LINE
  5
7A99
  8
1
  6
CONTINUOUS
 10
2636.6934919999999
 20
9778.0677090000008
 30
0.0
 11
2636.6934919999999
 21
9675.0677090000027
 31
0.0
  0
LINE
  5
7A9A
  8
1
  6
CONTINUOUS
 10
4394.6934920000003
 20
8825.0677090000008
 30
0.0
 11
4394.6934920000003
 21
9675.0677090000027
 31
0.0
  0
LINE
  5
7A9B
  8
1
  6
CONTINUOUS
 10
3474.6934919999999
 20
8580.0677090000008
 30
0.0
 11
3474.6934919999999
 21
8680.0677090000008
 31
0.0
  0
LINE
  5
7A9C
  8
1
  6
CONTINUOUS
 10
4451.6934920000003
 20
8580.0677090000008
 30
0.0
 11
4451.6934920000003
 21
8680.0677090000008
 31
0.0
  0
LINE
  5
7A9D
  8
1
  6
CONTINUOUS
 10
4372.593492
 20
8798.7677090000016
 30
0.0
 11
4372.593492
 21
8825.0677090000008
 31
0.0
  0
LINE
  5
7A9E
  8
1
  6
CONTINUOUS
 10
3756.6934919999999
 20
9778.0677090000008
 30
0.0
 11
3756.6934919999999
 21
9675.0677090000027
 31
0.0
  0
ARC
  5
7A9F
  8
1
  6
CONTINUOUS
 10
4571.6934920000003
 20
4568.6371980000004
 30
0.0
 40
220.0
 50
250.69999999999999
 51
58.700000000000003
  0
LINE
  5
7AA0
  8
1
  6
CONTINUOUS
 10
4733.6934920000003
 20
4388.6371979999994
 30
0.0
 11
4733.6934920000003
 21
4431.1371980000004
 31
0.0
  0
LINE
  5
7AA1
  8
1
  6
CONTINUOUS
 10
4733.6934920000003
 20
4431.1371980000004
 30
0.0
 11
4724.3934919999992
 21
4441.037198
 31
0.0
  0
LINE
  5
7AA2
  8
1
  6
CONTINUOUS
 10
4796.6934920000012
 20
4333.6371979999994
 30
0.0
 11
4796.6934920000012
 21
4388.6371979999994
 31
0.0
  0
LINE
  5
7AA3
  8
2
  6
CENTER
 10
4571.6934920000003
 20
4448.6371979999994
 30
0.0
 11
4571.6934920000003
 21
4688.6371979999994
 31
0.0
  0
LINE
  5
7AA4
  8
1
  6
CONTINUOUS
 10
4896.6934920000003
 20
4333.6371979999994
 30
0.0
 11
4896.6934920000003
 21
4208.6371979999994
 31
0.0
  0
LINE
  5
7AA5
  8
1
  6
CONTINUOUS
 10
4896.6934920000003
 20
9743.0677090000008
 30
0.0
 11
4896.6934920000003
 21
8563.0677090000008
 31
0.0
  0
LINE
  5
7AA6
  8
1
  6
CONTINUOUS
 10
4599.1934920000003
 20
8680.0677090000008
 30
0.0
 11
4599.1934920000003
 21
8798.7677090000016
 31
0.0
  0
LINE
  5
7AA7
  8
1
  6
CONTINUOUS
 10
4544.1934920000003
 20
8680.0677090000008
 30
0.0
 11
4544.1934920000003
 21
8798.7677090000016
 31
0.0
  0
LINE
  5
7AA8
  8
1
  6
CONTINUOUS
 10
4691.6934920000003
 20
8580.0677090000008
 30
0.0
 11
4691.6934920000003
 21
8680.0677090000008
 31
0.0
  0
LINE
  5
7AA9
  8
1
  6
CONTINUOUS
 10
4791.6934920000003
 20
8510.0677090000008
 30
0.0
 11
4791.6934920000003
 21
8750.0677090000008
 31
0.0
  0
LINE
  5
7AAA
  8
1
  6
CONTINUOUS
 10
4770.7934919999998
 20
8798.7677090000016
 30
0.0
 11
4770.7934919999998
 21
9398.2677089999997
 31
0.0
  0
LINE
  5
7AAB
  8
1
  6
CONTINUOUS
 10
7076.6235390000002
 20
5191.1371979999994
 30
0.0
 11
7221.6235390000011
 21
5191.1371979999994
 31
0.0
  0
LINE
  5
7AAC
  8
1
  6
CONTINUOUS
 10
7076.6235390000002
 20
5246.1371979999994
 30
0.0
 11
7221.6235390000011
 21
5246.1371979999994
 31
0.0
  0
LINE
  5
7AAD
  8
1
  6
CONTINUOUS
 10
7076.6235390000002
 20
4541.1371980000004
 30
0.0
 11
7221.6235390000011
 21
4541.1371980000004
 31
0.0
  0
LINE
  5
7AAE
  8
1
  6
CONTINUOUS
 10
7076.6235390000002
 20
4596.1371980000004
 30
0.0
 11
7221.6235390000011
 21
4596.1371980000004
 31
0.0
  0
LINE
  5
7AAF
  8
1
  6
CONTINUOUS
 10
6886.6235390000002
 20
4348.6371979999994
 30
0.0
 11
7146.6235390000011
 21
4348.6371979999994
 31
0.0
  0
LINE
  5
7AB0
  8
1
  6
CONTINUOUS
 10
6886.6235390000002
 20
5596.6371979999994
 30
0.0
 11
7146.6235390000011
 21
5596.6371979999994
 31
0.0
  0
LINE
  5
7AB1
  8
1
  6
CONTINUOUS
 10
8139.6235390000002
 20
4208.6371979999994
 30
0.0
 11
6959.6235390000002
 21
4208.6371979999994
 31
0.0
  0
LINE
  5
7AB2
  8
1
  6
CONTINUOUS
 10
8139.6235390000002
 20
4333.6371979999994
 30
0.0
 11
6959.6235390000002
 21
4333.6371979999994
 31
0.0
  0
LINE
  5
7AB3
  8
1
  6
CONTINUOUS
 10
6886.6235390000002
 20
4348.6371979999994
 30
0.0
 11
6886.6235390000002
 21
5596.6371979999994
 31
0.0
  0
LINE
  5
7AB4
  8
1
  6
CONTINUOUS
 10
7076.6235390000002
 20
4688.6371979999994
 30
0.0
 11
7076.6235390000002
 21
4448.6371979999994
 31
0.0
  0
LINE
  5
7AB5
  8
1
  6
CONTINUOUS
 10
6976.6235390000011
 20
4688.6371979999994
 30
0.0
 11
6976.6235390000011
 21
4448.6371979999994
 31
0.0
  0
LINE
  5
7AB6
  8
1
  6
CONTINUOUS
 10
6976.6235390000011
 20
4448.6371979999994
 30
0.0
 11
7076.6235390000002
 21
4448.6371979999994
 31
0.0
  0
LINE
  5
7AB7
  8
1
  6
CONTINUOUS
 10
6976.6235390000011
 20
4688.6371979999994
 30
0.0
 11
7076.6235390000002
 21
4688.6371979999994
 31
0.0
  0
LINE
  5
7AB8
  8
1
  6
CONTINUOUS
 10
6959.6235390000002
 20
4208.6371979999994
 30
0.0
 11
6959.6235390000002
 21
4333.6371979999994
 31
0.0
  0
LINE
  5
7AB9
  8
1
  6
CONTINUOUS
 10
7076.6235390000002
 20
5496.6371980000004
 30
0.0
 11
7076.6235390000002
 21
4940.6371980000004
 31
0.0
  0
LINE
  5
7ABA
  8
1
  6
CONTINUOUS
 10
6976.6235390000011
 20
5496.6371980000004
 30
0.0
 11
6976.6235390000011
 21
4940.6371980000004
 31
0.0
  0
LINE
  5
7ABB
  8
1
  6
CONTINUOUS
 10
6976.6235390000011
 20
4940.6371980000004
 30
0.0
 11
7076.6235390000002
 21
4940.6371980000004
 31
0.0
  0
LINE
  5
7ABC
  8
1
  6
CONTINUOUS
 10
6976.6235390000011
 20
5496.6371980000004
 30
0.0
 11
7076.6235390000002
 21
5496.6371980000004
 31
0.0
  0
LINE
  5
7ABD
  8
1
  6
CONTINUOUS
 10
7146.6235390000011
 20
4348.6371979999994
 30
0.0
 11
7146.6235390000011
 21
5596.6371979999994
 31
0.0
  0
LINE
  5
7ABE
  8
1
  6
CONTINUOUS
 10
8174.6235390000002
 20
4608.6371979999994
 30
0.0
 11
8174.6235390000002
 21
5828.6371980000004
 31
0.0
  0
LINE
  5
7ABF
  8
1
  6
CONTINUOUS
 10
8071.6235390000002
 20
4333.6371979999994
 30
0.0
 11
8071.6235390000002
 21
5978.6371980000004
 31
0.0
  0
LINE
  5
7AC0
  8
1
  6
CONTINUOUS
 10
7221.6235390000011
 20
4333.6371979999994
 30
0.0
 11
7221.6235390000011
 21
5978.6371980000004
 31
0.0
  0
LINE
  5
7AC1
  8
1
  6
CONTINUOUS
 10
8071.6235390000002
 20
4658.6371980000004
 30
0.0
 11
8174.6235390000002
 21
4658.6371980000004
 31
0.0
  0
LINE
  5
7AC2
  8
1
  6
CONTINUOUS
 10
8139.6235390000002
 20
4208.6371979999994
 30
0.0
 11
8139.6235390000002
 21
4333.6371979999994
 31
0.0
  0
LINE
  5
7AC3
  8
1
  6
CONTINUOUS
 10
8071.6235390000002
 20
5938.6371979999994
 30
0.0
 11
7221.6235390000011
 21
5938.6371979999994
 31
0.0
  0
LINE
  5
7AC4
  8
1
  6
CONTINUOUS
 10
8121.6235390000011
 20
5978.6371980000004
 30
0.0
 11
7171.6235390000011
 21
5978.6371980000004
 31
0.0
  0
LINE
  5
7AC5
  8
1
  6
CONTINUOUS
 10
8071.6235390000002
 20
5778.6371980000004
 30
0.0
 11
8174.6235390000002
 21
5778.6371980000004
 31
0.0
  0
DIMENSION
  5
7AD9
  8
3
  6
CONTINUOUS
  2
*D1
 10
3196.6934919999999
 20
3870.09854
 30
0.0
 11
2888.1220629999989
 21
3870.09854
 31
0.0
 70
   128
 13
2536.6934919999999
 23
4208.6371979999994
 33
0.0
 14
3196.6934919999999
 24
4063.0674309999999
 34
0.0
1001
ACAD
1000
DSTYLE
1002
{
1070
   287
1070
     3
1070
    40
1040
45.0
1070
   143
1040
0.039
1070
   172
1070
     1
1070
   271
1070
     0
1070
   279
1070
     0
1070
   288
1070
     1
1002
}
  0
DIMENSION
  5
7AE5
  8
3
  6
CONTINUOUS
  2
*D2
 10
4896.6934920000003
 20
3870.09854
 30
0.0
 11
4046.6934920000008
 21
3982.59854
 31
0.0
 70
     0
 13
3196.6934919999999
 23
4063.0674309999999
 33
0.0
 14
4896.6934920000003
 24
4208.6371979999994
 34
0.0
1001
ACAD
1000
DSTYLE
1002
{
1070
   287
1070
     4
1070
    40
1040
45.0
1070
    75
1070
     1
1070
   143
1040
0.039
1070
   172
1070
     1
1070
   271
1070
     0
1070
   279
1070
     1
1070
   288
1070
     1
1002
}
  0
DIMENSION
  5
7AF2
  8
3
  6
CONTINUOUS
  2
*D3
 10
4394.6934920000003
 20
6253.1544979999999
 30
0.0
 11
3789.5082269999998
 21
6253.1544979999999
 31
0.0
 70
   128
 13
3244.6934919999999
 23
5978.6371980000004
 33
0.0
 14
4394.6934920000003
 24
5978.6371980000004
 34
0.0
1001
ACAD
1000
DSTYLE
1002
{
1070
   287
1070
     3
1070
    40
1040
45.0
1070
   143
1040
0.039
1070
   172
1070
     1
1070
   271
1070
     0
1070
   279
1070
     0
1070
   288
1070
     1
1002
}
  0
DIMENSION
  5
7AFF
  8
3
  6
CONTINUOUS
  2
*D4
 10
3196.6934919999999
 20
6549.7048329999989
 30
0.0
 11
2827.6819879999998
 21
6549.7048329999989
 31
0.0
 70
   128
 13
2391.6934919999999
 23
5218.6371979999994
 33
0.0
 14
3196.6934919999999
 24
5885.327937
 34
0.0
1001
ACAD
1000
DSTYLE
1002
{
1070
   287
1070
     3
1070
    40
1040
45.0
1070
   143
1040
0.039
1070
   172
1070
     1
1070
   271
1070
     0
1070
   279
1070
     0
1070
   288
1070
     1
1002
}
  0
DIMENSION
  5
7B0B
  8
3
  6
CONTINUOUS
  2
*D5
 10
4394.6934920000003
 20
6549.7048329999989
 30
0.0
 11
3795.6934919999999
 21
6662.2048329999998
 31
0.0
 70
     0
 13
3196.6934919999999
 23
5885.327937
 33
0.0
 14
4394.6934920000003
 24
5978.6371980000004
 34
0.0
1001
ACAD
1000
DSTYLE
1002
{
1070
   287
1070
     4
1070
    40
1040
45.0
1070
    75
1070
     1
1070
   143
1040
0.039
1070
   172
1070
     1
1070
   271
1070
     0
1070
   279
1070
     1
1070
   288
1070
     1
1002
}
  0
DIMENSION
  5
7B31
  8
3
  6
CONTINUOUS
  2
*D6
 10
4896.6934920000003
 20
8093.4287590000013
 30
0.0
 11
3729.676974
 21
8093.4287590000013
 31
0.0
 70
   128
 13
2536.6934919999999
 23
8563.0677090000008
 33
0.0
 14
4896.6934920000003
 24
8563.0677090000008
 34
0.0
1001
ACAD
1000
DSTYLE
1002
{
1070
   287
1070
     3
1070
    40
1040
45.0
1070
   143
1040
0.039
1070
   172
1070
     1
1070
   271
1070
     0
1070
   279
1070
     0
1070
   288
1070
     1
1002
}
  0
DIMENSION
  5
7B3E
  8
3
  6
CONTINUOUS
  2
*D7
 10
5289.8045780000011
 20
8563.0677090000008
 30
0.0
 11
5289.8045780000002
 21
9221.4047339999997
 31
0.0
 70
   128
 13
4896.6934920000003
 23
9743.0677090000008
 33
0.0
 14
4896.6934920000003
 24
8563.0677090000008
 34
0.0
 50
90.0
1001
ACAD
1000
DSTYLE
1002
{
1070
   287
1070
     3
1070
    40
1040
45.0
1070
   143
1040
0.039
1070
   172
1070
     1
1070
   271
1070
     0
1070
   279
1070
     0
1070
   288
1070
     1
1002
}
  0
LINE
  5
7B3F
  8
2
  6
CENTER
 10
4576.4559289999997
 20
9250.0677090000008
 30
0.0
 11
2063.5212630000001
 21
9250.0677090000008
 31
0.0
  0
LINE
  5
7B40
  8
2
  6
CENTER
 10
3196.6934919999999
 20
8411.1695870000003
 30
0.0
 11
3196.6934919999999
 21
9891.6909730000025
 31
0.0
  0
LINE
  5
7B41
  8
2
  6
CENTER
 10
7646.6235390000011
 20
6156.8038759999999
 30
0.0
 11
7646.6235390000011
 21
4067.5479729999988
 31
0.0
  0
DIMENSION
  5
7B4E
  8
3
  6
CONTINUOUS
  2
*D8
 10
8071.6235390000002
 20
6140.4283660000001
 30
0.0
 11
7590.6052170000012
 21
6140.4283660000001
 31
0.0
 70
   128
 13
7221.6235390000011
 23
5978.6371980000004
 33
0.0
 14
8071.6235390000002
 24
5978.6371980000004
 34
0.0
1001
ACAD
1000
DSTYLE
1002
{
1070
   287
1070
     3
1070
    40
1040
45.0
1070
   143
1040
0.039
1070
   172
1070
     1
1070
   271
1070
     0
1070
   279
1070
     0
1070
   288
1070
     1
1002
}
  0
DIMENSION
  5
7B5B
  8
3
  6
CONTINUOUS
  2
*D9
 10
7646.6235390000011
 20
6420.3428519999998
 30
0.0
 11
7264.9475080000002
 21
6420.3428519999998
 31
0.0
 70
   128
  1
MAX\P850
 13
6886.6235390000002
 23
5596.6371979999994
 33
0.0
 14
7646.6235390000011
 24
6346.9455590000007
 34
0.0
1001
ACAD
1000
DSTYLE
1002
{
1070
   287
1070
     3
1070
    40
1040
45.0
1070
   143
1040
0.039
1070
   172
1070
     1
1070
   271
1070
     0
1070
   279
1070
     0
1070
   288
1070
     1
1002
}
  0
DIMENSION
  5
7B69
  8
3
  6
CONTINUOUS
  2
*D10
 10
8174.6235390000002
 20
6420.3428519999998
 30
0.0
 11
7870.8223159999998
 21
6412.7776210000002
 31
0.0
 70
   128
 13
7646.6235390000011
 23
6346.9455590000007
 33
0.0
 14
8174.6235390000002
 24
5828.6371980000004
 34
0.0
1001
ACAD
1000
DSTYLE
1002
{
1070
   287
1070
     4
1070
    40
1040
45.0
1070
    75
1070
     1
1070
   143
1040
0.039
1070
   172
1070
     1
1070
   271
1070
     0
1070
   279
1070
     1
1070
   288
1070
     1
1002
}
  0
DIMENSION
  5
7B8C
  8
3
  6
CONTINUOUS
  2
*D11
 10
7646.6235390000011
 20
3870.0986320000002
 30
0.0
 11
7268.1949679999998
 21
3870.0986320000002
 31
0.0
 70
   128
 13
6959.6235390000002
 23
4208.6371979999994
 33
0.0
 14
7646.6235390000011
 24
4067.5479729999988
 34
0.0
1001
ACAD
1000
DSTYLE
1002
{
1070
   287
1070
     3
1070
    40
1040
45.0
1070
   143
1040
0.039
1070
   172
1070
     1
1070
   271
1070
     0
1070
   279
1070
     0
1070
   288
1070
     1
1002
}
  0
DIMENSION
  5
7B9A
  8
3
  6
CONTINUOUS
  2
*D12
 10
8139.6235390000002
 20
3870.0986320000002
 30
0.0
 11
7893.5425939999996
 21
3869.3460159999991
 31
0.0
 70
   128
 13
7646.6235390000011
 23
4067.5479729999988
 33
0.0
 14
8139.6235390000002
 24
4208.6371979999994
 34
0.0
1001
ACAD
1000
DSTYLE
1002
{
1070
   287
1070
     4
1070
    40
1040
45.0
1070
    75
1070
     1
1070
   143
1040
0.039
1070
   172
1070
     1
1070
   271
1070
     0
1070
   279
1070
     1
1070
   288
1070
     1
1002
}
  0
DIMENSION
  5
7BBD
  8
3
  6
CONTINUOUS
  2
*D13
 10
8529.7111780000014
 20
4658.6371980000004
 30
0.0
 11
8529.7111779999996
 21
5215.9617310000003
 31
0.0
 70
   128
 13
8174.6235390000002
 23
5778.6371980000004
 33
0.0
 14
8174.6235390000002
 24
4658.6371980000004
 34
0.0
 50
90.0
1001
ACAD
1000
DSTYLE
1002
{
1070
   287
1070
     3
1070
     3
1000
φ<>
1070
    40
1040
45.0
1070
   143
1040
0.039
1070
   172
1070
     1
1070
   271
1070
     0
1070
   279
1070
     0
1070
   288
1070
     1
1002
}
  0
LINE
  5
7BBE
  8
2
  6
CENTER
 10
6791.0916653427557
 20
5218.6371979999994
 30
0.0
 11
8236.8106088930272
 21
5218.6371979999994
 31
0.0
  0
LINE
  5
7BBF
  8
4
  6
CONTINUOUS
 10
9250.0
 20
2500.0
 30
0.0
 11
9250.0
 21
1500.0
 31
0.0
  0
LINE
  5
7BC0
  8
4
  6
CONTINUOUS
 10
5750.0
 20
2500.0
 30
0.0
 11
5750.0
 21
1500.0
 31
0.0
  0
LINE
  5
7BC1
  8
4
  6
CONTINUOUS
 10
3250.0
 20
2500.0
 30
0.0
 11
3250.0
 21
1500.0
 31
0.0
  0
LINE
  5
7BC4
  8
4
  6
CONTINUOUS
 10
3250.0
 20
1500.0
 30
0.0
 11
9250.0
 21
1500.0
 31
0.0
  0
LINE
  5
7BC5
  8
4
  6
CONTINUOUS
 10
3250.0
 20
2000.0
 30
0.0
 11
9250.0
 21
2000.0
 31
0.0
  0
TEXT
  5
7BC6
  8
4
  6
CONTINUOUS
 10
3442.5104040000001
 20
2157.7151289999988
 30
0.0
 40
250.0
  1
機器名称
  0
TEXT
  5
7BC7
  8
4
  6
CONTINUOUS
 10
3431.2905300000002
 20
1608.225782999999
 30
0.0
 40
250.0
  1
機器型番
  0
TEXT
  5
7BC8
  8
4
  6
CONTINUOUS
 10
5888.393728
 20
2112.8588439999999
 30
0.0
 40
211.11111099999991
  1
ミツヤリミットロードファン
  0
TEXT
  5
7BC9
  8
4
  6
CONTINUOUS
 10
5933.2724779999999
 20
1585.7979210000001
 30
0.0
 40
250.0
  1
LL#7-4
  0
TEXT
  5
7BCB
  8
4
  6
CONTINUOUS
 10
4523.9288280000001
 20
11917.14420699999
 30
0.0
 40
270.0
  1
床置ベット
  0
TEXT
  5
7BCC
  8
4
  6
CONTINUOUS
 10
1580.837966999999
 20
12669.404881
 30
0.0
 40
300.0
  1
ベルト駆動式片吸込両持リミットロードファン
  0
LINE
  5
7BCD
  8
4
  6
CONTINUOUS
 10
1250.0
 20
12347.04377099999
 30
0.0
 11
9250.0
 21
12347.04377099999
 31
0.0
  0
LINE
  5
7BCE
  8
4
  6
CONTINUOUS
 10
1250.0
 20
13347.043771000001
 30
0.0
 11
9250.0
 21
13347.043771000001
 31
0.0
  0
LINE
  5
7BCF
  8
4
  6
CONTINUOUS
 10
3250.0
 20
2500.0
 30
0.0
 11
9250.0
 21
2500.0
 31
0.0
  0
LINE
  5
7BD0
  8
4
  6
CONTINUOUS
 10
1250.0
 20
13347.043771000001
 30
0.0
 11
1250.0
 21
12347.04377099999
 31
0.0
  0
TEXT
  5
7BD1
  8
4
  6
CONTINUOUS
 10
2344.6346669999998
 20
11911.597388
 30
0.0
 40
270.0
  1
左回転上向
  0
TEXT
  5
7BD2
  8
4
  6
CONTINUOUS
 10
7344.8477969999994
 20
13530.305408
 30
0.0
 40
280.0
  1
No.
  0
TEXT
  5
7BD3
  8
4
  6
CONTINUOUS
 10
6556.480313
 20
11917.14420699999
 30
0.0
 40
270.0
  1
縮尺：1/50
  0
LINE
  5
7BD4
  8
4
  6
CONTINUOUS
 10
9250.0
 20
13347.043771000001
 30
0.0
 11
9250.0
 21
12347.04377099999
 31
0.0
  0
LINE
  5
7BD6
  8
4
  6
CONTINUOUS
 10
7203.0871120000002
 20
13406.317916
 30
0.0
 11
7203.0871120000002
 21
13933.261307999999
 31
0.0
  0
LINE
  5
7BD7
  8
4
  6
CONTINUOUS
 10
7203.0871120000002
 20
13933.261307999999
 30
0.0
 11
9250.0
 21
13933.261307999999
 31
0.0
  0
LINE
  5
7BD8
  8
4
  6
CONTINUOUS
 10
9250.0
 20
13933.261307999999
 30
0.0
 11
9250.0
 21
13406.317916
 31
0.0
  0
LINE
  5
7BD9
  8
4
  6
CONTINUOUS
 10
9250.0
 20
13406.317916
 30
0.0
 11
7203.0871120000002
 21
13406.317916
 31
0.0
  0
DIMENSION
  5
7C24
  8
3
  2
*D14
 10
4896.6934920000003
 20
6794.3073799754056
 30
0.0
 11
3696.4833835375098
 21
6794.3073799754056
 31
0.0
 70
   128
 13
2391.6934919999999
 23
5241.1371980000004
 33
0.0
 14
4896.6934920000003
 24
4333.6371979999994
 34
0.0
1001
ACAD
1000
DSTYLE
1002
{
1070
   287
1070
     3
1070
    40
1040
45.0
1070
   143
1040
0.039
1070
   172
1070
     1
1070
   271
1070
     0
1070
   279
1070
     0
1070
   288
1070
     1
1002
}
  0
DIMENSION
  5
7C48
  8
3
  2
*D15
 10
1989.552417222375
 20
5218.6371980000004
 30
0.0
 11
1989.5524172223741
 21
5527.2086265714279
 31
0.0
 70
   128
 13
3191.6934919999999
 23
5978.6371980000004
 33
0.0
 14
2290.0984050000002
 24
5218.6371979999994
 34
0.0
 50
90.0
1001
ACAD
1000
DSTYLE
1002
{
1070
   287
1070
     3
1070
    40
1040
45.0
1070
   143
1040
0.039
1070
   172
1070
     1
1070
   271
1070
     0
1070
   279
1070
     0
1070
   288
1070
     1
1002
}
  0
DIMENSION
  5
7C54
  8
3
  2
*D16
 10
1989.5524172223741
 20
4208.6371980000004
 30
0.0
 11
1877.0524172223729
 21
4713.6371980000004
 31
0.0
 70
     0
 13
2290.0984050000002
 23
5218.6371979999994
 33
0.0
 14
2536.6934919999999
 24
4208.6371979999994
 34
0.0
 50
90.0
1001
ACAD
1000
DSTYLE
1002
{
1070
   287
1070
     4
1070
    40
1040
45.0
1070
    75
1070
     1
1070
   143
1040
0.039
1070
   172
1070
     1
1070
   271
1070
     0
1070
   279
1070
     1
1070
   288
1070
     1
1002
}
  0
DIMENSION
  5
7C61
  8
3
  2
*D17
 10
1708.29440030468
 20
4208.6371980000004
 30
0.0
 11
1708.2944003046789
 21
5110.7100835019482
 31
0.0
 70
   128
 13
3191.6934919999999
 23
5978.6371980000004
 33
0.0
 14
2536.6934919999999
 24
4208.6371979999994
 34
0.0
 50
90.0
1001
ACAD
1000
DSTYLE
1002
{
1070
   287
1070
     3
1070
    40
1040
45.0
1070
   143
1040
0.039
1070
   172
1070
     1
1070
   271
1070
     0
1070
   279
1070
     0
1070
   288
1070
     1
1002
}
  0
ENDSEC
  0
EOF
