  0
SECTION
  2
HEADER
  9
$ACADVER
  1
AC1009
  9
$INSBASE
 10
0.0
 20
0.0
 30
0.0
  9
$EXTMIN
 10
1250.0
 20
1500.0
 30
0.0
  9
$EXTMAX
 10
9250.0
 20
13933.261307999999
 30
0.0
  9
$LIMMIN
 10
0.0
 20
0.0
  9
$LIMMAX
 10
297.0
 20
210.0
  9
$ORTHOMODE
 70
     0
  9
$REGENMODE
 70
     1
  9
$FILLMODE
 70
     0
  9
$QTEXTMODE
 70
     0
  9
$MIRRTEXT
 70
     1
  9
$DRAGMODE
 70
     2
  9
$LTSCALE
 40
100.0
  9
$OSMODE
 70
    37
  9
$ATTMODE
 70
     1
  9
$TEXTSIZE
 40
180.0
  9
$TRACEWID
 40
0.05
  9
$TEXTSTYLE
  7
STANDARD
  9
$CLAYER
  8
3
  9
$CELTYPE
  6
BYLAYER
  9
$CECOLOR
 62
   256
  9
$DIMSCALE
 40
45.0
  9
$DIMASZ
 40
2.0
  9
$DIMEXO
 40
0.5
  9
$DIMDLI
 40
10.0
  9
$DIMRND
 40
0.0
  9
$DIMDLE
 40
0.0
  9
$DIMEXE
 40
1.0
  9
$DIMTP
 40
1.0
  9
$DIMTM
 40
1.0
  9
$DIMTXT
 40
3.0
  9
$DIMCEN
 40
0.0
  9
$DIMTSZ
 40
0.0
  9
$DIMTOL
 70
     0
  9
$DIMLIM
 70
     0
  9
$DIMTIH
 70
     0
  9
$DIMTOH
 70
     0
  9
$DIMSE1
 70
     0
  9
$DIMSE2
 70
     0
  9
$DIMTAD
 70
     1
  9
$DIMZIN
 70
     8
  9
$DIMBLK
  1

  9
$DIMASO
 70
     1
  9
$DIMSHO
 70
     1
  9
$DIMPOST
  1

  9
$DIMAPOST
  1

  9
$DIMALT
 70
     0
  9
$DIMALTD
 70
     2
  9
$DIMALTF
 40
0.039
  9
$DIMLFAC
 40
1.0
  9
$DIMTOFL
 70
     1
  9
$DIMTVP
 40
0.0
  9
$DIMTIX
 70
     0
  9
$DIMSOXD
 70
     0
  9
$DIMSAH
 70
     1
  9
$DIMBLK1
  1
OPEN
  9
$DIMBLK2
  1
OPEN
  9
$DIMSTYLE
  2
IGA
  9
$DIMCLRD
 70
     0
  9
$DIMCLRE
 70
     0
  9
$DIMCLRT
 70
     0
  9
$DIMTFAC
 40
10.0
  9
$DIMGAP
 40
1.0
  9
$LUNITS
 70
     2
  9
$LUPREC
 70
     3
  9
$SKETCHINC
 40
0.1
  9
$FILLETRAD
 40
50.0
  9
$AUNITS
 70
     0
  9
$AUPREC
 70
     0
  9
$MENU
  1
acad
  9
$ELEVATION
 40
0.0
  9
$PELEVATION
 40
0.0
  9
$THICKNESS
 40
0.0
  9
$LIMCHECK
 70
     0
  9
$BLIPMODE
 70
     0
  9
$CHAMFERA
 40
0.5
  9
$CHAMFERB
 40
0.5
  9
$SKPOLY
 70
     0
  9
$TDCREATE
 40
2450750.5893275458
  9
$TDUPDATE
 40
2454953.6603271412
  9
$TDINDWG
 40
0.0031058218
  9
$TDUSRTIMER
 40
0.0031058218
  9
$USRTIMER
 70
     1
  9
$ANGBASE
 50
0.0
  9
$ANGDIR
 70
     0
  9
$PDMODE
 70
     0
  9
$PDSIZE
 40
0.0
  9
$PLINEWID
 40
0.0
  9
$COORDS
 70
     1
  9
$SPLFRAME
 70
     0
  9
$SPLINETYPE
 70
     6
  9
$SPLINESEGS
 70
     8
  9
$ATTDIA
 70
     0
  9
$ATTREQ
 70
     1
  9
$HANDLING
 70
 10241
  9
$HANDSEED
  5
7D52
  9
$SURFTAB1
 70
     6
  9
$SURFTAB2
 70
     6
  9
$SURFTYPE
 70
     6
  9
$SURFU
 70
     6
  9
$SURFV
 70
     6
  9
$UCSNAME
  2

  9
$UCSORG
 10
0.0
 20
0.0
 30
0.0
  9
$UCSXDIR
 10
1.0
 20
0.0
 30
0.0
  9
$UCSYDIR
 10
0.0
 20
1.0
 30
0.0
  9
$PUCSNAME
  2

  9
$PUCSORG
 10
0.0
 20
0.0
 30
0.0
  9
$PUCSXDIR
 10
1.0
 20
0.0
 30
0.0
  9
$PUCSYDIR
 10
0.0
 20
1.0
 30
0.0
  9
$USERI1
 70
     0
  9
$USERI2
 70
     0
  9
$USERI3
 70
     0
  9
$USERI4
 70
     0
  9
$USERI5
 70
     0
  9
$USERR1
 40
0.0
  9
$USERR2
 40
0.0
  9
$USERR3
 40
0.0
  9
$USERR4
 40
0.0
  9
$USERR5
 40
0.0
  9
$WORLDVIEW
 70
     1
  9
$SHADEDGE
 70
     3
  9
$SHADEDIF
 70
    70
  9
$TILEMODE
 70
     1
  9
$MAXACTVP
 70
    16
  9
$PLIMCHECK
 70
     0
  9
$PEXTMIN
 10
1.0000000000000000E+020
 20
1.0000000000000000E+020
 30
1.0000000000000000E+020
  9
$PEXTMAX
 10
-1.0000000000000000E+020
 20
-1.0000000000000000E+020
 30
-1.0000000000000000E+020
  9
$PLIMMIN
 10
0.0
 20
0.0
  9
$PLIMMAX
 10
12.0
 20
9.0
  9
$UNITMODE
 70
     0
  9
$VISRETAIN
 70
     0
  9
$PLINEGEN
 70
     0
  9
$PSLTSCALE
 70
     1
  0
ENDSEC
  0
SECTION
  2
TABLES
  0
TABLE
  2
VPORT
 70
     2
  0
VPORT
  2
*ACTIVE
 70
     0
 10
0.0
 20
0.0
 11
1.0
 21
1.0
 12
9755.876518810177
 22
1983.639925272264
 13
0.0
 23
0.0
 14
10.0
 24
10.0
 15
10.0
 25
10.0
 16
0.0
 26
0.0
 36
1.0
 17
0.0
 27
0.0
 37
0.0
 40
4557.9254949889546
 41
3.1666666666666661
 42
50.0
 43
0.0
 44
0.0
 50
0.0
 51
0.0
 71
     0
 72
   100
 73
     1
 74
     0
 75
     0
 76
     0
 77
     0
 78
     0
  0
ENDTAB
  0
TABLE
  2
LTYPE
 70
     2
  0
LTYPE
  2
CONTINUOUS
 70
     0
  3
Solid line
 72
    65
 73
     0
 40
0.0
  0
LTYPE
  2
CENTER
 70
     0
  3
____ _ ____ _ ____ _ ____ _ ____ _ ____ _ ____ 
 72
    65
 73
     4
 40
2.0
 49
1.25
 49
-0.25
 49
0.25
 49
-0.25
  0
ENDTAB
  0
TABLE
  2
LAYER
 70
     6
  0
LAYER
  2
0
 70
     0
 62
     7
  6
CONTINUOUS
  0
LAYER
  2
3
 70
     0
 62
     2
  6
CONTINUOUS
  0
LAYER
  2
2
 70
     0
 62
     3
  6
CENTER
  0
LAYER
  2
1
 70
     0
 62
     4
  6
CONTINUOUS
  0
LAYER
  2
4
 70
     0
 62
     7
  6
CONTINUOUS
  0
LAYER
  2
DEFPOINTS
 70
     0
 62
     7
  6
CONTINUOUS
  0
ENDTAB
  0
TABLE
  2
STYLE
 70
     1
  0
STYLE
  2
STANDARD
 70
     0
 40
0.0
 41
1.0
 50
0.0
 71
     0
 42
180.0
  3
simplex.shx
  4
extfont.shx
  0
ENDTAB
  0
TABLE
  2
VIEW
 70
     0
  0
ENDTAB
  0
TABLE
  2
UCS
 70
     0
  0
ENDTAB
  0
TABLE
  2
APPID
 70
     1
  0
APPID
  2
ACAD
 70
     0
  0
ENDTAB
  0
TABLE
  2
DIMSTYLE
 70
     1
  0
DIMSTYLE
  2
IGA
 70
     0
  3

  4

  5

  6
OPEN
  7
OPEN
 40
2.0
 41
2.0
 42
0.5
 43
10.0
 44
1.0
 45
0.0
 46
0.0
 47
1.0
 48
1.0
140
3.0
141
0.0
142
0.0
143
0.03937
144
1.0
145
0.0
146
10.0
147
1.0
 71
     0
 72
     0
 73
     0
 74
     0
 75
     0
 76
     0
 77
     1
 78
     8
170
     0
171
     2
172
     0
173
     1
174
     0
175
     0
176
     0
177
     0
178
     0
  0
ENDTAB
  0
ENDSEC
  0
SECTION
  2
BLOCKS
  0
BLOCK
  8
0
  2
$MODEL_SPACE
 70
     0
 10
0.0
 20
0.0
 30
0.0
  3
$MODEL_SPACE
  1

  0
ENDBLK
  5
1B
  8
0
  0
BLOCK
 67
     1
  8
0
  2
$PAPER_SPACE
 70
     0
 10
0.0
 20
0.0
 30
0.0
  3
$PAPER_SPACE
  1

  0
ENDBLK
  5
18
 67
     1
  8
0
  0
BLOCK
  8
0
  2
_OPEN
 70
     0
 10
0.0
 20
0.0
 30
0.0
  3
_OPEN
  1

  0
LINE
  5
7AC6
  8
0
  6
BYBLOCK
 62
     0
 10
-1.0
 20
0.166667
 30
0.0
 11
0.0
 21
0.0
 31
0.0
  0
LINE
  5
7AC7
  8
0
  6
BYBLOCK
 62
     0
 10
0.0
 20
0.0
 30
0.0
 11
-1.0
 21
-0.166667
 31
0.0
  0
LINE
  5
7AC8
  8
0
  6
BYBLOCK
 62
     0
 10
0.0
 20
0.0
 30
0.0
 11
-1.0
 21
0.0
 31
0.0
  0
ENDBLK
  5
7AC9
  8
0
  0
BLOCK
  8
0
  2
*D1
 70
     1
 10
0.0
 20
0.0
 30
0.0
  3
*D1
  1

  0
LINE
  5
7CAC
  8
3
  6
CONTINUOUS
 62
     0
 10
2590.7187610000001
 20
4058.373274
 30
0.0
 11
2590.7187610000001
 21
3657.0479620000001
 31
0.0
  0
LINE
  5
7CAD
  8
3
  6
CONTINUOUS
 62
     0
 10
3250.7187610000001
 20
3991.643869
 30
0.0
 11
3250.7187610000001
 21
3657.0479620000001
 31
0.0
  0
LINE
  5
7CAE
  8
3
  6
CONTINUOUS
 62
     0
 10
2680.7187610000001
 20
3702.0479619999992
 30
0.0
 11
3160.7187610000001
 21
3702.0479619999992
 31
0.0
  0
INSERT
  5
7CAF
  8
3
  6
CONTINUOUS
 62
     0
  2
_OPEN
 10
2590.7187610000001
 20
3702.0479619999992
 30
0.0
 41
90.0
 42
90.0
 43
90.0
 50
180.0
  0
INSERT
  5
7CB0
  8
3
  6
CONTINUOUS
 62
     0
  2
_OPEN
 10
3250.7187610000001
 20
3702.0479619999992
 30
0.0
 41
90.0
 42
90.0
 43
90.0
  0
TEXT
  8
3
  40
135
  5
7D40
  62
0
  72
0
  71
0
 10
2672.15
 20
3575.60
 30
0.000000
  1
660
  0
POINT
  5
7CB2
  8
DEFPOINTS
  6
CONTINUOUS
 62
     0
 10
2590.7187610000001
 20
4080.873274
 30
0.0
  0
POINT
  5
7CB3
  8
DEFPOINTS
  6
CONTINUOUS
 62
     0
 10
3250.7187610000001
 20
4014.1438689999991
 30
0.0
  0
POINT
  5
7CB4
  8
DEFPOINTS
  6
CONTINUOUS
 62
     0
 10
3250.7187610000001
 20
3702.0479619999992
 30
0.0
  0
ENDBLK
  5
7AE3
  8
0
  0
BLOCK
  8
0
  2
*D2
 70
     1
 10
0.0
 20
0.0
 30
0.0
  3
*D2
  1

  0
LINE
  5
7CB5
  8
3
  6
CONTINUOUS
 62
     0
 10
4950.7187610000001
 20
4058.373274
 30
0.0
 11
4950.7187610000001
 21
3657.0479620000001
 31
0.0
  0
LINE
  5
7CB6
  8
3
  6
CONTINUOUS
 62
     0
 10
3340.7187610000001
 20
3702.0479619999992
 30
0.0
 11
4860.718761000001
 21
3702.0479619999992
 31
0.0
  0
INSERT
  5
7CB7
  8
3
  6
CONTINUOUS
 62
     0
  2
_OPEN
 10
3250.7187610000001
 20
3702.0479619999992
 30
0.0
 41
90.0
 42
90.0
 43
90.0
 50
180.0
  0
INSERT
  5
7CB8
  8
3
  6
CONTINUOUS
 62
     0
  2
_OPEN
 10
4950.7187610000001
 20
3702.0479619999992
 30
0.0
 41
90.0
 42
90.0
 43
90.0
  0
TEXT
  8
3
  40
135
  5
7D41
  62
0
  72
0
  71
0
 10
3830.72
 20
3575.60
 30
0.000000
  1
1700
  0
POINT
  5
7CBA
  8
DEFPOINTS
  6
CONTINUOUS
 62
     0
 10
3250.7187610000001
 20
4014.1438689999991
 30
0.0
  0
POINT
  5
7CBB
  8
DEFPOINTS
  6
CONTINUOUS
 62
     0
 10
4950.7187610000001
 20
4080.873274
 30
0.0
  0
POINT
  5
7CBC
  8
DEFPOINTS
  6
CONTINUOUS
 62
     0
 10
4950.7187610000001
 20
3702.0479619999992
 30
0.0
  0
ENDBLK
  5
7AEF
  8
0
  0
BLOCK
  8
0
  2
*D3
 70
     1
 10
0.0
 20
0.0
 30
0.0
  3
*D3
  1

  0
LINE
  5
7CBD
  8
3
  6
CONTINUOUS
 62
     0
 10
2468.2187610000001
 20
6118.8732740000014
 30
0.0
 11
2177.811321000001
 21
6118.8732740000014
 31
0.0
  0
LINE
  5
7CBE
  8
3
  6
CONTINUOUS
 62
     0
 10
2468.2187610000001
 20
4968.8732739999996
 30
0.0
 11
2177.8113210000001
 21
4968.8732739999996
 31
0.0
  0
LINE
  5
7CBF
  8
3
  6
CONTINUOUS
 62
     0
 10
2222.811321000001
 20
6028.8732740000014
 30
0.0
 11
2222.8113210000001
 21
5058.8732739999996
 31
0.0
  0
INSERT
  5
7CC0
  8
3
  6
CONTINUOUS
 62
     0
  2
_OPEN
 10
2222.811321000001
 20
6118.8732740000014
 30
0.0
 41
90.0
 42
90.0
 43
90.0
 50
90.0
  0
INSERT
  5
7CC1
  8
3
  6
CONTINUOUS
 62
     0
  2
_OPEN
 10
2222.8113210000001
 20
4968.8732739999996
 30
0.0
 41
90.0
 42
90.0
 43
90.0
 50
270.0
  0
TEXT
  8
3
  40
135
  5
7D42
  62
0
  72
0
  71
0
 10
1840.31
 20
5308.46
 30
0.000000
  1
1150
  0
POINT
  5
7CC3
  8
DEFPOINTS
  6
CONTINUOUS
 62
     0
 10
2490.7187610000001
 20
6118.8732740000014
 30
0.0
  0
POINT
  5
7CC4
  8
DEFPOINTS
  6
CONTINUOUS
 62
     0
 10
2490.7187610000001
 20
4968.8732739999996
 30
0.0
  0
POINT
  5
7CC5
  8
DEFPOINTS
  6
CONTINUOUS
 62
     0
 10
2222.8113210000001
 20
4968.8732739999996
 30
0.0
  0
ENDBLK
  5
7AFC
  8
0
  0
BLOCK
  8
0
  2
*D4
 70
     1
 10
0.0
 20
0.0
 30
0.0
  3
*D4
  1

  0
LINE
  5
7CC6
  8
3
  6
CONTINUOUS
 62
     0
 10
2468.2187610000001
 20
6118.8732740000014
 30
0.0
 11
1875.3680179999999
 21
6118.8732740000023
 31
0.0
  0
LINE
  5
7CC7
  8
3
  6
CONTINUOUS
 62
     0
 10
2561.528022
 20
4920.8732740000014
 30
0.0
 11
1875.3680179999999
 21
4920.8732740000014
 31
0.0
  0
LINE
  5
7CC8
  8
3
  6
CONTINUOUS
 62
     0
 10
1920.368018000001
 20
6028.8732740000023
 30
0.0
 11
1920.3680179999999
 21
5010.8732740000014
 31
0.0
  0
INSERT
  5
7CC9
  8
3
  6
CONTINUOUS
 62
     0
  2
_OPEN
 10
1920.368018000001
 20
6118.8732740000023
 30
0.0
 41
90.0
 42
90.0
 43
90.0
 50
90.0
  0
INSERT
  5
7CCA
  8
3
  6
CONTINUOUS
 62
     0
  2
_OPEN
 10
1920.3680179999999
 20
4920.8732740000014
 30
0.0
 41
90.0
 42
90.0
 43
90.0
 50
270.0
  0
TEXT
  8
3
  40
135
  5
7D43
  62
0
  72
0
  71
0
 10
1537.87
 20
5332.96
 30
0.000000
  1
1198
  0
POINT
  5
7CCC
  8
DEFPOINTS
  6
CONTINUOUS
 62
     0
 10
2490.7187610000001
 20
6118.8732740000014
 30
0.0
  0
POINT
  5
7CCD
  8
DEFPOINTS
  6
CONTINUOUS
 62
     0
 10
2584.028022
 20
4920.8732740000014
 30
0.0
  0
POINT
  5
7CCE
  8
DEFPOINTS
  6
CONTINUOUS
 62
     0
 10
1920.3680179999999
 20
4920.8732740000014
 30
0.0
  0
ENDBLK
  5
7B09
  8
0
  0
BLOCK
  8
0
  2
*D5
 70
     1
 10
0.0
 20
0.0
 30
0.0
  3
*D5
  1

  0
LINE
  5
7CCF
  8
3
  6
CONTINUOUS
 62
     0
 10
2568.2187610000001
 20
4080.873274
 30
0.0
 11
1875.368017999999
 21
4080.873274
 31
0.0
  0
LINE
  5
7CD0
  8
3
  6
CONTINUOUS
 62
     0
 10
1920.3680179999999
 20
4830.8732740000014
 30
0.0
 11
1920.368017999999
 21
4170.8732739999996
 31
0.0
  0
INSERT
  5
7CD1
  8
3
  6
CONTINUOUS
 62
     0
  2
_OPEN
 10
1920.3680179999999
 20
4920.8732740000014
 30
0.0
 41
90.0
 42
90.0
 43
90.0
 50
90.0
  0
INSERT
  5
7CD2
  8
3
  6
CONTINUOUS
 62
     0
  2
_OPEN
 10
1920.368017999999
 20
4080.873274
 30
0.0
 41
90.0
 42
90.0
 43
90.0
 50
270.0
  0
TEXT
  8
3
  40
135
  5
7D44
  62
0
  72
0
  71
0
 10
1537.87
 20
4261.92
 30
0.000000
  1
840
  0
POINT
  5
7CD4
  8
DEFPOINTS
  6
CONTINUOUS
 62
     0
 10
2584.028022
 20
4920.8732740000014
 30
0.0
  0
POINT
  5
7CD5
  8
DEFPOINTS
  6
CONTINUOUS
 62
     0
 10
2590.7187610000001
 20
4080.873274
 30
0.0
  0
POINT
  5
7CD6
  8
DEFPOINTS
  6
CONTINUOUS
 62
     0
 10
1920.368017999999
 20
4080.873274
 30
0.0
  0
ENDBLK
  5
7B15
  8
0
  0
BLOCK
  8
0
  2
*D6
 70
     1
 10
0.0
 20
0.0
 30
0.0
  3
*D6
  1

  0
LINE
  5
7CD7
  8
3
  6
CONTINUOUS
 62
     0
 10
2490.7187610000001
 20
6194.3732740000014
 30
0.0
 11
2490.7187610000001
 21
6368.1146719999997
 31
0.0
  0
LINE
  5
7CD8
  8
3
  6
CONTINUOUS
 62
     0
 10
3250.7187610000001
 20
6076.3732740000014
 30
0.0
 11
3250.7187610000001
 21
6368.1146719999997
 31
0.0
  0
LINE
  5
7CD9
  8
3
  6
CONTINUOUS
 62
     0
 10
2580.7187609999992
 20
6323.1146719999988
 30
0.0
 11
3160.7187610000001
 21
6323.1146719999988
 31
0.0
  0
INSERT
  5
7CDA
  8
3
  6
CONTINUOUS
 62
     0
  2
_OPEN
 10
2490.7187610000001
 20
6323.1146719999988
 30
0.0
 41
90.0
 42
90.0
 43
90.0
 50
180.0
  0
INSERT
  5
7CDB
  8
3
  6
CONTINUOUS
 62
     0
  2
_OPEN
 10
3250.7187610000001
 20
6323.1146719999988
 30
0.0
 41
90.0
 42
90.0
 43
90.0
  0
TEXT
  8
3
  40
135
  5
7D45
  62
0
  72
0
  71
0
 10
2614.92
 20
6196.66
 30
0.000000
  1
760
  0
POINT
  5
7CDD
  8
DEFPOINTS
  6
CONTINUOUS
 62
     0
 10
2490.7187610000001
 20
6171.8732740000014
 30
0.0
  0
POINT
  5
7CDE
  8
DEFPOINTS
  6
CONTINUOUS
 62
     0
 10
3250.7187610000001
 20
6053.8732739999996
 30
0.0
  0
POINT
  5
7CDF
  8
DEFPOINTS
  6
CONTINUOUS
 62
     0
 10
3250.7187610000001
 20
6323.1146719999988
 30
0.0
  0
ENDBLK
  5
7B2F
  8
0
  0
BLOCK
  8
0
  2
*D7
 70
     1
 10
0.0
 20
0.0
 30
0.0
  3
*D7
  1

  0
LINE
  5
7CE0
  8
3
  6
CONTINUOUS
 62
     0
 10
4219.7187610000001
 20
4943.3732739999996
 30
0.0
 11
4219.7187610000001
 21
6368.1146719999997
 31
0.0
  0
LINE
  5
7CE1
  8
3
  6
CONTINUOUS
 62
     0
 10
3340.7187610000001
 20
6323.1146719999988
 30
0.0
 11
4129.7187610000001
 21
6323.1146719999988
 31
0.0
  0
INSERT
  5
7CE2
  8
3
  6
CONTINUOUS
 62
     0
  2
_OPEN
 10
3250.7187610000001
 20
6323.1146719999988
 30
0.0
 41
90.0
 42
90.0
 43
90.0
 50
180.0
  0
INSERT
  5
7CE3
  8
3
  6
CONTINUOUS
 62
     0
  2
_OPEN
 10
4219.7187610000001
 20
6323.1146719999988
 30
0.0
 41
90.0
 42
90.0
 43
90.0
  0
TEXT
  8
3
  40
135
  5
7D46
  62
0
  72
0
  71
0
 10
3465.22
 20
6196.66
 30
0.000000
  1
969
  0
POINT
  5
7CE5
  8
DEFPOINTS
  6
CONTINUOUS
 62
     0
 10
3250.7187610000001
 20
6053.8732739999996
 30
0.0
  0
POINT
  5
7CE6
  8
DEFPOINTS
  6
CONTINUOUS
 62
     0
 10
4219.7187610000001
 20
4920.8732740000014
 30
0.0
  0
POINT
  5
7CE7
  8
DEFPOINTS
  6
CONTINUOUS
 62
     0
 10
4219.7187610000001
 20
6323.1146719999988
 30
0.0
  0
ENDBLK
  5
7C5A
  8
0
  0
BLOCK
  8
0
  2
*D8
 70
     1
 10
0.0
 20
0.0
 30
0.0
  3
*D8
  1

  0
LINE
  5
7CE8
  8
3
  6
CONTINUOUS
 62
     0
 10
2590.7187610000001
 20
8386.7811419999998
 30
0.0
 11
2590.7187610000001
 21
7937.0132059999996
 31
0.0
  0
LINE
  5
7CE9
  8
3
  6
CONTINUOUS
 62
     0
 10
4950.7187610000001
 20
8386.7811419999998
 30
0.0
 11
4950.7187610000001
 21
7937.0132059999996
 31
0.0
  0
LINE
  5
7CEA
  8
3
  6
CONTINUOUS
 62
     0
 10
2680.7187610000001
 20
7982.0132060000014
 30
0.0
 11
4860.718761000001
 21
7982.0132060000014
 31
0.0
  0
INSERT
  5
7CEB
  8
3
  6
CONTINUOUS
 62
     0
  2
_OPEN
 10
2590.7187610000001
 20
7982.0132060000014
 30
0.0
 41
90.0
 42
90.0
 43
90.0
 50
180.0
  0
INSERT
  5
7CEC
  8
3
  6
CONTINUOUS
 62
     0
  2
_OPEN
 10
4950.7187610000001
 20
7982.0132060000014
 30
0.0
 41
90.0
 42
90.0
 43
90.0
  0
TEXT
  8
3
  40
135
  5
7D47
  62
0
  72
0
  71
0
 10
3497.72
 20
7855.56
 30
0.000000
  1
2360
  0
POINT
  5
7CEE
  8
DEFPOINTS
  6
CONTINUOUS
 62
     0
 10
2590.7187610000001
 20
8409.2811420000016
 30
0.0
  0
POINT
  5
7CEF
  8
DEFPOINTS
  6
CONTINUOUS
 62
     0
 10
4950.7187610000001
 20
8409.2811420000016
 30
0.0
  0
POINT
  5
7CF0
  8
DEFPOINTS
  6
CONTINUOUS
 62
     0
 10
4950.7187610000001
 20
7982.0132060000014
 30
0.0
  0
ENDBLK
  5
7B48
  8
0
  0
BLOCK
  8
0
  2
*D9
 70
     1
 10
0.0
 20
0.0
 30
0.0
  3
*D9
  1

  0
LINE
  5
7CF1
  8
3
  6
CONTINUOUS
 62
     0
 10
4973.2187610000001
 20
9589.2811419999998
 30
0.0
 11
5439.3790820000022
 21
9589.2811419999998
 31
0.0
  0
LINE
  5
7CF2
  8
3
  6
CONTINUOUS
 62
     0
 10
4973.2187610000001
 20
8409.2811420000016
 30
0.0
 11
5439.3790820000022
 21
8409.2811420000016
 31
0.0
  0
LINE
  5
7CF3
  8
3
  6
CONTINUOUS
 62
     0
 10
5394.3790820000013
 20
9499.2811419999998
 30
0.0
 11
5394.3790820000013
 21
8499.2811419999998
 31
0.0
  0
INSERT
  5
7CF4
  8
3
  6
CONTINUOUS
 62
     0
  2
_OPEN
 10
5394.3790820000013
 20
9589.2811419999998
 30
0.0
 41
90.0
 42
90.0
 43
90.0
 50
90.0
  0
INSERT
  5
7CF5
  8
3
  6
CONTINUOUS
 62
     0
  2
_OPEN
 10
5394.3790820000013
 20
8409.2811420000016
 30
0.0
 41
90.0
 42
90.0
 43
90.0
 50
270.0
  0
TEXT
  8
3
  40
135
  5
7D48
  62
0
  72
0
  71
0
 10
5011.88
 20
8763.73
 30
0.000000
  1
1180
  0
POINT
  5
7CF7
  8
DEFPOINTS
  6
CONTINUOUS
 62
     0
 10
4950.7187610000001
 20
9589.2811419999998
 30
0.0
  0
POINT
  5
7CF8
  8
DEFPOINTS
  6
CONTINUOUS
 62
     0
 10
4950.7187610000001
 20
8409.2811420000016
 30
0.0
  0
POINT
  5
7CF9
  8
DEFPOINTS
  6
CONTINUOUS
 62
     0
 10
5394.3790820000013
 20
8409.2811420000016
 30
0.0
  0
ENDBLK
  5
7B55
  8
0
  0
BLOCK
  8
0
  2
*D10
 70
     1
 10
0.0
 20
0.0
 30
0.0
  3
*D10
  1

  0
LINE
  5
7CFA
  8
3
  6
CONTINUOUS
 62
     0
 10
6811.2286379999996
 20
4058.373274
 30
0.0
 11
6811.2286379999996
 21
3668.865615522468
 31
0.0
  0
LINE
  5
7CFB
  8
3
  6
CONTINUOUS
 62
     0
 10
7498.2286379999987
 20
3916.3631219999988
 30
0.0
 11
7498.2286379999987
 21
3668.865615522468
 31
0.0
  0
LINE
  5
7CFC
  8
3
  6
CONTINUOUS
 62
     0
 10
6901.2286379999987
 20
3713.865615522468
 30
0.0
 11
7408.2286379999996
 21
3713.865615522468
 31
0.0
  0
INSERT
  5
7CFD
  8
3
  6
CONTINUOUS
 62
     0
  2
_OPEN
 10
6811.2286379999996
 20
3713.865615522468
 30
0.0
 41
90.0
 42
90.0
 43
90.0
 50
180.0
  0
INSERT
  5
7CFE
  8
3
  6
CONTINUOUS
 62
     0
  2
_OPEN
 10
7498.2286379999987
 20
3713.865615522468
 30
0.0
 41
90.0
 42
90.0
 43
90.0
  0
TEXT
  8
3
  40
135
  5
7D49
  62
0
  72
0
  71
0
 10
6919.66
 20
3587.42
 30
0.000000
  1
687
  0
POINT
  5
7D00
  8
DEFPOINTS
  6
CONTINUOUS
 62
     0
 10
6811.2286379999996
 20
4080.873274
 30
0.0
  0
POINT
  5
7D01
  8
DEFPOINTS
  6
CONTINUOUS
 62
     0
 10
7498.2286379999987
 20
3938.8631220000002
 30
0.0
  0
POINT
  5
7D02
  8
DEFPOINTS
  6
CONTINUOUS
 62
     0
 10
7498.2286379999987
 20
3713.865615522468
 30
0.0
  0
ENDBLK
  5
7C89
  8
0
  0
BLOCK
  8
0
  2
*D11
 70
     1
 10
0.0
 20
0.0
 30
0.0
  3
*D11
  1

  0
LINE
  5
7D03
  8
3
  6
CONTINUOUS
 62
     0
 10
7991.2286379999987
 20
4058.373274
 30
0.0
 11
7991.2286379999987
 21
3668.865615522468
 31
0.0
  0
LINE
  5
7D04
  8
3
  6
CONTINUOUS
 62
     0
 10
7588.2286379999996
 20
3713.865615522468
 30
0.0
 11
7901.2286379999987
 21
3713.865615522468
 31
0.0
  0
TEXT
  8
3
  40
135
  5
7D4A
  62
0
  72
0
  71
0
 10
7451.55
 20
3587.42
 30
0.000000
  1
493
  0
INSERT
  5
7D06
  8
3
  6
CONTINUOUS
 62
     0
  2
_OPEN
 10
7498.2286379999987
 20
3713.865615522468
 30
0.0
 41
90.0
 42
90.0
 43
90.0
 50
180.0
  0
INSERT
  5
7D07
  8
3
  6
CONTINUOUS
 62
     0
  2
_OPEN
 10
7991.2286379999987
 20
3713.865615522468
 30
0.0
 41
90.0
 42
90.0
 43
90.0
  0
POINT
  5
7D08
  8
DEFPOINTS
  6
CONTINUOUS
 62
     0
 10
7498.2286379999987
 20
3938.8631220000002
 30
0.0
  0
POINT
  5
7D09
  8
DEFPOINTS
  6
CONTINUOUS
 62
     0
 10
7991.2286379999987
 20
4080.873274
 30
0.0
  0
POINT
  5
7D0A
  8
DEFPOINTS
  6
CONTINUOUS
 62
     0
 10
7991.2286379999987
 20
3713.865615522468
 30
0.0
  0
ENDBLK
  5
7C7E
  8
0
  0
BLOCK
  8
0
  2
*D12
 70
     1
 10
0.0
 20
0.0
 30
0.0
  3
*D12
  1

  0
LINE
  5
7D0B
  8
3
  6
CONTINUOUS
 62
     0
 10
7073.2286379999987
 20
6141.3732740000014
 30
0.0
 11
7073.2286379999987
 21
6368.135679
 31
0.0
  0
LINE
  5
7D0C
  8
3
  6
CONTINUOUS
 62
     0
 10
7923.2286379999987
 20
6141.3732740000014
 30
0.0
 11
7923.2286379999987
 21
6368.135679
 31
0.0
  0
LINE
  5
7D0D
  8
3
  6
CONTINUOUS
 62
     0
 10
7163.2286379999987
 20
6323.1356789999991
 30
0.0
 11
7833.2286379999996
 21
6323.1356789999991
 31
0.0
  0
INSERT
  5
7D0E
  8
3
  6
CONTINUOUS
 62
     0
  2
_OPEN
 10
7073.2286379999987
 20
6323.1356789999991
 30
0.0
 41
90.0
 42
90.0
 43
90.0
 50
180.0
  0
INSERT
  5
7D0F
  8
3
  6
CONTINUOUS
 62
     0
  2
_OPEN
 10
7923.2286379999987
 20
6323.1356789999991
 30
0.0
 41
90.0
 42
90.0
 43
90.0
  0
TEXT
  8
3
  40
135
  5
7D4B
  62
0
  72
0
  71
0
 10
7173.63
 20
6196.69
 30
0.000000
  1
850
  0
POINT
  5
7D11
  8
DEFPOINTS
  6
CONTINUOUS
 62
     0
 10
7073.2286379999987
 20
6118.8732740000014
 30
0.0
  0
POINT
  5
7D12
  8
DEFPOINTS
  6
CONTINUOUS
 62
     0
 10
7923.2286379999987
 20
6118.8732740000014
 30
0.0
  0
POINT
  5
7D13
  8
DEFPOINTS
  6
CONTINUOUS
 62
     0
 10
7923.2286379999987
 20
6323.1356789999991
 30
0.0
  0
ENDBLK
  5
7B97
  8
0
  0
BLOCK
  8
0
  2
*D13
 70
     1
 10
0.0
 20
0.0
 30
0.0
  3
*D13
  1

  0
LINE
  5
7D14
  8
3
  6
CONTINUOUS
 62
     0
 10
6738.2286379999987
 20
5321.3732739999996
 30
0.0
 11
6738.2286379999987
 21
6638.4034949999996
 31
0.0
  0
LINE
  5
7D15
  8
3
  6
CONTINUOUS
 62
     0
 10
7498.2286379999987
 20
6552.0426120000002
 30
0.0
 11
7498.2286379999987
 21
6638.4034949999996
 31
0.0
  0
LINE
  5
7D16
  8
3
  6
CONTINUOUS
 62
     0
 10
6828.2286379999996
 20
6593.4034950000014
 30
0.0
 11
7408.2286379999996
 21
6593.4034950000014
 31
0.0
  0
INSERT
  5
7D17
  8
3
  6
CONTINUOUS
 62
     0
  2
_OPEN
 10
6738.2286379999987
 20
6593.4034950000014
 30
0.0
 41
90.0
 42
90.0
 43
90.0
 50
180.0
  0
INSERT
  5
7D18
  8
3
  6
CONTINUOUS
 62
     0
  2
_OPEN
 10
7498.2286379999987
 20
6593.4034950000014
 30
0.0
 41
90.0
 42
90.0
 43
90.0
  0
TEXT
  8
3
  40
135
  5
7D4C
  62
0
  72
0
  71
0
 10
6854.84
 20
6579.45
 30
0.000000
  1
MAX
  0
TEXT
  8
3
  40
135
  5
7D4D
  62
0
  72
0
  71
0
 10
6854.84
 20
6403.95
 30
0.000000
  1
850
  0
POINT
  5
7D1A
  8
DEFPOINTS
  6
CONTINUOUS
 62
     0
 10
6738.2286379999987
 20
5298.8732739999996
 30
0.0
  0
POINT
  5
7D1B
  8
DEFPOINTS
  6
CONTINUOUS
 62
     0
 10
7498.2286379999987
 20
6529.5426119999993
 30
0.0
  0
POINT
  5
7D1C
  8
DEFPOINTS
  6
CONTINUOUS
 62
     0
 10
7498.2286379999987
 20
6593.4034950000014
 30
0.0
  0
ENDBLK
  5
7C44
  8
0
  0
BLOCK
  8
0
  2
*D14
 70
     1
 10
0.0
 20
0.0
 30
0.0
  3
*D14
  1

  0
LINE
  5
7D1D
  8
3
  6
CONTINUOUS
 62
     0
 10
8026.2286379999987
 20
5553.3732740000014
 30
0.0
 11
8026.2286379999987
 21
6638.4034949999996
 31
0.0
  0
LINE
  5
7D1E
  8
3
  6
CONTINUOUS
 62
     0
 10
7588.2286379999996
 20
6593.4034950000014
 30
0.0
 11
7936.2286379999996
 21
6593.4034950000014
 31
0.0
  0
TEXT
  8
3
  40
135
  5
7D4E
  62
0
  72
0
  71
0
 10
7492.42
 20
6467.77
 30
0.000000
  1
528
  0
INSERT
  5
7D20
  8
3
  6
CONTINUOUS
 62
     0
  2
_OPEN
 10
7498.2286379999987
 20
6593.4034950000014
 30
0.0
 41
90.0
 42
90.0
 43
90.0
 50
180.0
  0
INSERT
  5
7D21
  8
3
  6
CONTINUOUS
 62
     0
  2
_OPEN
 10
8026.2286379999987
 20
6593.4034950000014
 30
0.0
 41
90.0
 42
90.0
 43
90.0
  0
POINT
  5
7D22
  8
DEFPOINTS
  6
CONTINUOUS
 62
     0
 10
7498.2286379999987
 20
6529.5426119999993
 30
0.0
  0
POINT
  5
7D23
  8
DEFPOINTS
  6
CONTINUOUS
 62
     0
 10
8026.2286379999987
 20
5530.8732740000014
 30
0.0
  0
POINT
  5
7D24
  8
DEFPOINTS
  6
CONTINUOUS
 62
     0
 10
8026.2286379999987
 20
6593.4034950000014
 30
0.0
  0
ENDBLK
  5
7C1A
  8
0
  0
BLOCK
  8
0
  2
*D15
 70
     1
 10
0.0
 20
0.0
 30
0.0
  3
*D15
  1

  0
LINE
  5
7D25
  8
3
  6
CONTINUOUS
 62
     0
 10
8048.7286379999996
 20
5480.8732739999996
 30
0.0
 11
8445.003302000001
 21
5480.8732739999996
 31
0.0
  0
LINE
  5
7D26
  8
3
  6
CONTINUOUS
 62
     0
 10
8048.7286379999996
 20
4360.8732740000014
 30
0.0
 11
8445.003302000001
 21
4360.8732740000014
 31
0.0
  0
LINE
  5
7D27
  8
3
  6
CONTINUOUS
 62
     0
 10
8400.003302000001
 20
5390.8732739999996
 30
0.0
 11
8400.003302000001
 21
4450.8732739999996
 31
0.0
  0
INSERT
  5
7D28
  8
3
  6
CONTINUOUS
 62
     0
  2
_OPEN
 10
8400.003302000001
 20
5480.8732739999996
 30
0.0
 41
90.0
 42
90.0
 43
90.0
 50
90.0
  0
INSERT
  5
7D29
  8
3
  6
CONTINUOUS
 62
     0
  2
_OPEN
 10
8400.003302000001
 20
4360.8732740000014
 30
0.0
 41
90.0
 42
90.0
 43
90.0
 50
270.0
  0
TEXT
  8
3
  40
135
  5
7D4F
  62
0
  72
0
  71
0
 10
8017.50
 20
4689.54
 30
0.000000
  1
φ1120
  0
POINT
  5
7D2B
  8
DEFPOINTS
  6
CONTINUOUS
 62
     0
 10
8026.2286379999987
 20
5480.8732739999996
 30
0.0
  0
POINT
  5
7D2C
  8
DEFPOINTS
  6
CONTINUOUS
 62
     0
 10
8026.2286379999987
 20
4360.8732740000014
 30
0.0
  0
POINT
  5
7D2D
  8
DEFPOINTS
  6
CONTINUOUS
 62
     0
 10
8400.003302000001
 20
4360.8732740000014
 30
0.0
  0
ENDBLK
  5
7C4F
  8
0
  0
BLOCK
  8
0
  2
*D16
 70
     1
 10
0.0
 20
0.0
 30
0.0
  3
*D16
  1

  0
LINE
  5
7D2E
  8
3
 62
     0
 10
2490.7187610000001
 20
6194.3732740000014
 30
0.0
 11
2490.7187610000001
 21
6642.8616595348221
 31
0.0
  0
LINE
  5
7D2F
  8
3
 62
     0
 10
4950.7187610000001
 20
4228.3732739999996
 30
0.0
 11
4950.7187610000001
 21
6642.8616595348221
 31
0.0
  0
LINE
  5
7D30
  8
3
 62
     0
 10
2580.7187609999992
 20
6597.8616595348212
 30
0.0
 11
4860.718761000001
 21
6597.8616595348212
 31
0.0
  0
INSERT
  5
7D31
  8
3
 62
     0
  2
_OPEN
 10
2490.7187610000001
 20
6597.8616595348212
 30
0.0
 41
90.0
 42
90.0
 43
90.0
 50
180.0
  0
INSERT
  5
7D32
  8
3
 62
     0
  2
_OPEN
 10
4950.7187610000001
 20
6597.8616595348212
 30
0.0
 41
90.0
 42
90.0
 43
90.0
  0
TEXT
  8
3
  40
135
  5
7D50
  62
0
  72
0
  71
0
 10
3371.04
 20
6471.41
 30
0.000000
  1
2460
  0
POINT
  5
7D34
  8
DEFPOINTS
 62
     0
 10
2490.7187610000001
 20
6171.8732740000014
 30
0.0
  0
POINT
  5
7D35
  8
DEFPOINTS
 62
     0
 10
4950.7187610000001
 20
4205.8732739999996
 30
0.0
  0
POINT
  5
7D36
  8
DEFPOINTS
 62
     0
 10
4950.7187610000001
 20
6597.8616595348212
 30
0.0
  0
ENDBLK
  5
7C66
  8
0
  0
BLOCK
  8
0
  2
*D17
 70
     1
 10
0.0
 20
0.0
 30
0.0
  3
*D17
  1

  0
LINE
  5
7D37
  8
3
 62
     0
 10
2468.2187610000001
 20
6171.8732740000014
 30
0.0
 11
1584.3426596696379
 21
6171.8732740000014
 31
0.0
  0
LINE
  5
7D38
  8
3
 62
     0
 10
2568.2187610000001
 20
4080.873274
 30
0.0
 11
1584.342659669637
 21
4080.873274
 31
0.0
  0
LINE
  5
7D39
  8
3
 62
     0
 10
1629.3426596696379
 20
6081.8732740000023
 30
0.0
 11
1629.342659669637
 21
4170.8732739999996
 31
0.0
  0
INSERT
  5
7D3A
  8
3
 62
     0
  2
_OPEN
 10
1629.3426596696379
 20
6171.8732740000014
 30
0.0
 41
90.0
 42
90.0
 43
90.0
 50
90.0
  0
INSERT
  5
7D3B
  8
3
 62
     0
  2
_OPEN
 10
1629.342659669637
 20
4080.873274
 30
0.0
 41
90.0
 42
90.0
 43
90.0
 50
270.0
  0
TEXT
  8
3
  40
135
  5
7D51
  62
0
  72
0
  71
0
 10
1246.84
 20
4876.50
 30
0.000000
  1
2091
  0
POINT
  5
7D3D
  8
DEFPOINTS
 62
     0
 10
2490.7187610000001
 20
6171.8732740000014
 30
0.0
  0
POINT
  5
7D3E
  8
DEFPOINTS
 62
     0
 10
2590.7187610000001
 20
4080.873274
 30
0.0
  0
POINT
  5
7D3F
  8
DEFPOINTS
 62
     0
 10
1629.342659669637
 20
4080.873274
 30
0.0
  0
ENDBLK
  5
7C73
  8
0
  0
ENDSEC
  0
SECTION
  2
ENTITIES
  0
LINE
  5
7A63
  8
1
  6
CONTINUOUS
 10
4576.2187610000001
 20
4226.5732740000003
 30
0.0
 11
3165.6187609999988
 21
4552.5732740000003
 31
0.0
  0
LINE
  5
7A64
  8
1
  6
CONTINUOUS
 10
4598.7187609999992
 20
4323.9732739999999
 30
0.0
 11
3188.1187610000002
 21
4649.973273999999
 31
0.0
  0
LINE
  5
7A65
  8
1
  6
CONTINUOUS
 10
4720.3187609999986
 20
4639.4732739999999
 30
0.0
 11
3413.318761
 21
5262.1732739999998
 31
0.0
  0
LINE
  5
7A66
  8
1
  6
CONTINUOUS
 10
4677.3187609999986
 20
4549.1732739999998
 30
0.0
 11
3370.318761
 21
5171.8732740000014
 31
0.0
  0
LINE
  5
7A67
  8
1
  6
CONTINUOUS
 10
4845.7187610000001
 20
8596.2811419999998
 30
0.0
 11
2872.7187610000001
 21
8596.2811419999998
 31
0.0
  0
LINE
  5
7A68
  8
1
  6
CONTINUOUS
 10
4845.7187610000001
 20
8356.2811419999998
 30
0.0
 11
2872.7187610000001
 21
8356.2811419999998
 31
0.0
  0
LINE
  5
7A69
  8
1
  6
CONTINUOUS
 10
4222.918760999999
 20
8671.2811419999998
 30
0.0
 11
2490.7187610000001
 21
8671.2811419999998
 31
0.0
  0
LINE
  5
7A6A
  8
1
  6
CONTINUOUS
 10
4222.918760999999
 20
9521.2811419999998
 30
0.0
 11
2490.7187610000001
 21
9521.2811419999998
 31
0.0
  0
LINE
  5
7A6B
  8
1
  6
CONTINUOUS
 10
4950.7187610000001
 20
8409.2811420000016
 30
0.0
 11
2590.7187610000001
 21
8409.2811420000016
 31
0.0
  0
LINE
  5
7A6C
  8
1
  6
CONTINUOUS
 10
4950.7187610000001
 20
9589.2811419999998
 30
0.0
 11
3810.7187610000001
 21
9589.2811419999998
 31
0.0
  0
ARC
  5
7A6D
  8
1
  6
CONTINUOUS
 10
3168.7187610000001
 20
5002.8732740000014
 30
0.0
 40
1054.2
 50
0.0
 51
85.5
  0
ARC
  5
7A6E
  8
1
  6
CONTINUOUS
 10
3332.7187610000001
 20
5002.8732740000014
 30
0.0
 40
890.20000000000005
 50
264.89999999999998
 51
0.0
  0
LINE
  5
7A6F
  8
1
  6
CONTINUOUS
 10
2590.7187610000001
 20
4080.873274
 30
0.0
 11
4950.7187610000001
 21
4080.873274
 31
0.0
  0
LINE
  5
7A70
  8
1
  6
CONTINUOUS
 10
2590.7187610000001
 20
4205.8732739999996
 30
0.0
 11
4950.7187610000001
 21
4205.8732739999996
 31
0.0
  0
LINE
  5
7A71
  8
1
  6
CONTINUOUS
 10
2490.7187610000001
 20
6118.8732740000014
 30
0.0
 11
3250.7187610000001
 21
6053.8732739999996
 31
0.0
  0
ARC
  5
7A72
  8
1
  6
CONTINUOUS
 10
3319.2187610000001
 20
4852.3732740000014
 30
0.0
 40
739.10000000000002
 50
180.0
 51
264.89999999999998
  0
CIRCLE
  5
7A73
  8
1
  6
CONTINUOUS
 10
3250.7187610000001
 20
4920.8732740000014
 30
0.0
 40
610.0
  0
LINE
  5
7A74
  8
1
  6
CONTINUOUS
 10
2490.7187610000001
 20
4915.8732739999996
 30
0.0
 11
2490.7187610000001
 21
6171.8732740000014
 31
0.0
  0
LINE
  5
7A75
  8
1
  6
CONTINUOUS
 10
2530.7187610000001
 20
4968.8732739999996
 30
0.0
 11
2530.7187610000001
 21
6115.4732739999999
 31
0.0
  0
LINE
  5
7A76
  8
1
  6
CONTINUOUS
 10
2590.7187610000001
 20
4205.8732739999996
 30
0.0
 11
2590.7187610000001
 21
4080.873274
 31
0.0
  0
LINE
  5
7A77
  8
1
  6
CONTINUOUS
 10
2591.5187609999998
 20
4968.8732739999996
 30
0.0
 11
2490.7187610000001
 21
4968.8732739999996
 31
0.0
  0
ARC
  5
7A78
  8
1
  6
CONTINUOUS
 10
3182.2187610000001
 20
4852.3732740000014
 30
0.0
 40
602.10000000000002
 50
168.80000000000001
 51
180.0
  0
CIRCLE
  5
7A79
  8
1
  6
CONTINUOUS
 10
3250.7187610000001
 20
4920.8732740000014
 30
0.0
 40
560.0
  0
LINE
  5
7A7A
  8
2
  6
CENTER
 10
8165.0905460000004
 20
4920.8732740000014
 30
0.0
 11
6614.3882750000002
 21
4920.8732740000014
 31
0.0
  0
ARC
  5
7A7B
  8
1
  6
CONTINUOUS
 10
3250.7187610000001
 20
4920.8732740000014
 30
0.0
 40
378.0
 50
64.5
 51
257.0
  0
CIRCLE
  5
7A7C
  8
1
  6
CONTINUOUS
 10
3250.7187610000001
 20
4920.8732740000014
 30
0.0
 40
278.0
  0
LINE
  5
7A7D
  8
2
  6
CENTER
 10
3250.7187610000001
 20
4014.1438689999991
 30
0.0
 11
3250.7187610000001
 21
6198.9893209999991
 31
0.0
  0
LINE
  5
7A7E
  8
1
  6
CONTINUOUS
 10
2690.7187610000001
 20
9589.2811419999998
 30
0.0
 11
2590.7187610000001
 21
9589.2811419999998
 31
0.0
  0
LINE
  5
7A7F
  8
1
  6
CONTINUOUS
 10
3860.7187610000001
 20
9624.2811419999998
 30
0.0
 11
2640.7187610000001
 21
9624.2811419999998
 31
0.0
  0
LINE
  5
7A80
  8
1
  6
CONTINUOUS
 10
2490.7187610000001
 20
8621.2811419999998
 30
0.0
 11
2490.7187610000001
 21
9571.2811419999998
 31
0.0
  0
LINE
  5
7A81
  8
1
  6
CONTINUOUS
 10
2590.7187610000001
 20
8671.2811419999998
 30
0.0
 11
2590.7187610000001
 21
8409.2811420000016
 31
0.0
  0
LINE
  5
7A82
  8
1
  6
CONTINUOUS
 10
2590.7187610000001
 20
9589.2811419999998
 30
0.0
 11
2590.7187610000001
 21
9521.2811419999998
 31
0.0
  0
LINE
  5
7A83
  8
1
  6
CONTINUOUS
 10
2972.7187610000001
 20
8526.2811419999998
 30
0.0
 11
3528.7187610000001
 21
8526.2811419999998
 31
0.0
  0
LINE
  5
7A84
  8
1
  6
CONTINUOUS
 10
2972.7187610000001
 20
8426.2811419999998
 30
0.0
 11
3528.7187610000001
 21
8426.2811419999998
 31
0.0
  0
LINE
  5
7A85
  8
1
  6
CONTINUOUS
 10
3223.2187610000001
 20
8671.2811419999998
 30
0.0
 11
3223.2187610000001
 21
8526.2811419999998
 31
0.0
  0
LINE
  5
7A86
  8
1
  6
CONTINUOUS
 10
2872.7187610000001
 20
8356.2811419999998
 30
0.0
 11
2872.7187610000001
 21
8596.2811419999998
 31
0.0
  0
LINE
  5
7A87
  8
1
  6
CONTINUOUS
 10
2972.7187610000001
 20
8426.2811419999998
 30
0.0
 11
2972.7187610000001
 21
8526.2811419999998
 31
0.0
  0
LINE
  5
7A88
  8
1
  6
CONTINUOUS
 10
3278.2187610000001
 20
8671.2811419999998
 30
0.0
 11
3278.2187610000001
 21
8526.2811419999998
 31
0.0
  0
LINE
  5
7A89
  8
1
  6
CONTINUOUS
 10
3528.7187610000001
 20
8426.2811419999998
 30
0.0
 11
3528.7187610000001
 21
8526.2811419999998
 31
0.0
  0
LINE
  5
7A8A
  8
1
  6
CONTINUOUS
 10
2690.7187610000001
 20
9624.2811419999998
 30
0.0
 11
2690.7187610000001
 21
9521.2811419999998
 31
0.0
  0
LINE
  5
7A8B
  8
1
  6
CONTINUOUS
 10
3810.7187610000001
 20
9624.2811419999998
 30
0.0
 11
3810.7187610000001
 21
9521.2811419999998
 31
0.0
  0
LINE
  5
7A8C
  8
1
  6
CONTINUOUS
 10
4850.7187610000001
 20
4205.8732739999996
 30
0.0
 11
4400.7187610000001
 21
4205.8732739999996
 31
0.0
  0
LINE
  5
7A8D
  8
1
  6
CONTINUOUS
 10
4463.7187610000001
 20
4303.3732740000014
 30
0.0
 11
4473.0187610000003
 21
4313.2732740000001
 31
0.0
  0
ARC
  5
7A8E
  8
1
  6
CONTINUOUS
 10
4625.7187610000001
 20
4440.8732739999996
 30
0.0
 40
199.0
 50
320.10000000000002
 51
219.90000000000001
  0
LINE
  5
7A8F
  8
1
  6
CONTINUOUS
 10
4850.7187610000001
 20
4260.8732739999996
 30
0.0
 11
4400.7187610000001
 21
4260.8732739999996
 31
0.0
  0
LINE
  5
7A90
  8
1
  6
CONTINUOUS
 10
4400.7187610000001
 20
4205.8732739999996
 30
0.0
 11
4400.7187610000001
 21
4260.8732739999996
 31
0.0
  0
LINE
  5
7A91
  8
1
  6
CONTINUOUS
 10
4463.7187610000001
 20
4260.8732739999996
 30
0.0
 11
4463.7187610000001
 21
4303.3732740000014
 31
0.0
  0
ARC
  5
7A92
  8
1
  6
CONTINUOUS
 10
4625.7187610000001
 20
4440.8732739999996
 30
0.0
 40
220.0
 50
257.0
 51
64.5
  0
LINE
  5
7A93
  8
2
  6
CENTER
 10
4745.7187610000001
 20
4440.8732739999996
 30
0.0
 11
4505.7187609999992
 21
4440.8732739999996
 31
0.0
  0
LINE
  5
7A94
  8
2
  6
CENTER
 10
4625.7187610000001
 20
4320.8732740000014
 30
0.0
 11
4625.7187610000001
 21
4560.8732740000014
 31
0.0
  0
CIRCLE
  5
7A95
  8
1
  6
CONTINUOUS
 10
4625.7187610000001
 20
4440.8732739999996
 30
0.0
 40
120.0
  0
LINE
  5
7A96
  8
1
  6
CONTINUOUS
 10
4850.7187610000001
 20
4205.8732739999996
 30
0.0
 11
4850.7187610000001
 21
4260.8732739999996
 31
0.0
  0
LINE
  5
7A97
  8
1
  6
CONTINUOUS
 10
4950.7187610000001
 20
4205.8732739999996
 30
0.0
 11
4950.7187610000001
 21
4080.873274
 31
0.0
  0
LINE
  5
7A98
  8
1
  6
CONTINUOUS
 10
4787.7187609999992
 20
4303.3732740000014
 30
0.0
 11
4778.4187609999999
 21
4313.2732740000001
 31
0.0
  0
LINE
  5
7A99
  8
1
  6
CONTINUOUS
 10
4787.7187609999992
 20
4260.8732739999996
 30
0.0
 11
4787.7187609999992
 21
4303.3732740000014
 31
0.0
  0
LINE
  5
7A9A
  8
1
  6
CONTINUOUS
 10
4222.918760999999
 20
8671.2811419999998
 30
0.0
 11
4222.918760999999
 21
9521.2811419999998
 31
0.0
  0
LINE
  5
7A9B
  8
1
  6
CONTINUOUS
 10
4950.7187610000001
 20
9589.2811419999998
 30
0.0
 11
4950.7187610000001
 21
8409.2811420000016
 31
0.0
  0
LINE
  5
7A9C
  8
1
  6
CONTINUOUS
 10
4824.8187609999986
 20
9244.4811420000005
 30
0.0
 11
4426.6187609999988
 21
9244.4811420000005
 31
0.0
  0
LINE
  5
7A9D
  8
1
  6
CONTINUOUS
 10
4824.8187609999986
 20
8644.9811420000005
 30
0.0
 11
4426.6187609999988
 21
8644.9811420000005
 31
0.0
  0
LINE
  5
7A9E
  8
1
  6
CONTINUOUS
 10
4426.6187609999988
 20
8644.9811420000005
 30
0.0
 11
4426.6187609999988
 21
9244.4811420000005
 31
0.0
  0
LINE
  5
7A9F
  8
1
  6
CONTINUOUS
 10
4598.2187610000001
 20
8526.2811419999998
 30
0.0
 11
4598.2187610000001
 21
8644.9811420000005
 31
0.0
  0
LINE
  5
7AA0
  8
1
  6
CONTINUOUS
 10
4653.2187610000001
 20
8526.2811419999998
 30
0.0
 11
4653.2187610000001
 21
8644.9811420000005
 31
0.0
  0
LINE
  5
7AA1
  8
1
  6
CONTINUOUS
 10
4505.7187609999992
 20
8426.2811419999998
 30
0.0
 11
4745.7187610000001
 21
8426.2811419999998
 31
0.0
  0
LINE
  5
7AA2
  8
1
  6
CONTINUOUS
 10
4505.7187609999992
 20
8526.2811419999998
 30
0.0
 11
4745.7187610000001
 21
8526.2811419999998
 31
0.0
  0
LINE
  5
7AA3
  8
1
  6
CONTINUOUS
 10
4745.7187610000001
 20
8426.2811419999998
 30
0.0
 11
4745.7187610000001
 21
8526.2811419999998
 31
0.0
  0
LINE
  5
7AA4
  8
1
  6
CONTINUOUS
 10
4505.7187609999992
 20
8426.2811419999998
 30
0.0
 11
4505.7187609999992
 21
8526.2811419999998
 31
0.0
  0
LINE
  5
7AA5
  8
1
  6
CONTINUOUS
 10
4845.7187610000001
 20
8356.2811419999998
 30
0.0
 11
4845.7187610000001
 21
8596.2811419999998
 31
0.0
  0
LINE
  5
7AA6
  8
1
  6
CONTINUOUS
 10
4824.8187609999986
 20
8644.9811420000005
 30
0.0
 11
4824.8187609999986
 21
9244.4811420000005
 31
0.0
  0
LINE
  5
7AA7
  8
1
  6
CONTINUOUS
 10
7991.2286379999987
 20
4205.8732739999996
 30
0.0
 11
6811.2286379999996
 21
4205.8732739999996
 31
0.0
  0
LINE
  5
7AA8
  8
1
  6
CONTINUOUS
 10
7991.2286379999987
 20
4080.873274
 30
0.0
 11
6811.2286379999996
 21
4080.873274
 31
0.0
  0
LINE
  5
7AA9
  8
1
  6
CONTINUOUS
 10
7073.2286379999987
 20
6118.8732740000014
 30
0.0
 11
7923.2286379999987
 21
6118.8732740000014
 31
0.0
  0
LINE
  5
7AAA
  8
1
  6
CONTINUOUS
 10
7073.2286379999987
 20
4968.8732739999996
 30
0.0
 11
7923.2286379999987
 21
4968.8732739999996
 31
0.0
  0
LINE
  5
7AAB
  8
1
  6
CONTINUOUS
 10
7073.2286379999987
 20
6118.8732740000014
 30
0.0
 11
7923.2286379999987
 21
4968.8732739999996
 31
0.0
  0
LINE
  5
7AAC
  8
1
  6
CONTINUOUS
 10
7923.2286379999987
 20
6118.8732740000014
 30
0.0
 11
7073.2286379999987
 21
4968.8732739999996
 31
0.0
  0
LINE
  5
7AAD
  8
1
  6
CONTINUOUS
 10
7073.2286379999987
 20
4205.8732739999996
 30
0.0
 11
7073.2286379999987
 21
6118.8732740000014
 31
0.0
  0
LINE
  5
7AAE
  8
1
  6
CONTINUOUS
 10
6738.2286379999987
 20
5298.8732739999996
 30
0.0
 11
6998.2286379999987
 21
5298.8732739999996
 31
0.0
  0
LINE
  5
7AAF
  8
1
  6
CONTINUOUS
 10
6828.2286379999996
 20
5198.8732739999996
 30
0.0
 11
6928.2286379999996
 21
5198.8732739999996
 31
0.0
  0
LINE
  5
7AB0
  8
1
  6
CONTINUOUS
 10
6828.2286379999996
 20
4560.8732740000014
 30
0.0
 11
6928.2286379999996
 21
4560.8732740000014
 31
0.0
  0
LINE
  5
7AB1
  8
1
  6
CONTINUOUS
 10
6828.2286379999996
 20
4320.8732740000014
 30
0.0
 11
6928.2286379999996
 21
4320.8732740000014
 31
0.0
  0
LINE
  5
7AB2
  8
1
  6
CONTINUOUS
 10
6828.2286379999996
 20
4642.8732740000014
 30
0.0
 11
6928.2286379999996
 21
4642.8732740000014
 31
0.0
  0
LINE
  5
7AB3
  8
1
  6
CONTINUOUS
 10
6738.2286379999987
 20
4220.8732740000014
 30
0.0
 11
6998.2286379999987
 21
4220.8732740000014
 31
0.0
  0
LINE
  5
7AB4
  8
1
  6
CONTINUOUS
 10
6738.2286379999987
 20
4220.8732740000014
 30
0.0
 11
6738.2286379999987
 21
5298.8732739999996
 31
0.0
  0
LINE
  5
7AB5
  8
1
  6
CONTINUOUS
 10
6811.2286379999996
 20
4080.873274
 30
0.0
 11
6811.2286379999996
 21
4205.8732739999996
 31
0.0
  0
LINE
  5
7AB6
  8
1
  6
CONTINUOUS
 10
6828.2286379999996
 20
4560.8732740000014
 30
0.0
 11
6828.2286379999996
 21
4320.8732740000014
 31
0.0
  0
LINE
  5
7AB7
  8
1
  6
CONTINUOUS
 10
6828.2286379999996
 20
5198.8732739999996
 30
0.0
 11
6828.2286379999996
 21
4642.8732740000014
 31
0.0
  0
LINE
  5
7AB8
  8
1
  6
CONTINUOUS
 10
6998.2286379999987
 20
4220.8732740000014
 30
0.0
 11
6998.2286379999987
 21
5298.8732739999996
 31
0.0
  0
LINE
  5
7AB9
  8
1
  6
CONTINUOUS
 10
6928.2286379999996
 20
4560.8732740000014
 30
0.0
 11
6928.2286379999996
 21
4320.8732740000014
 31
0.0
  0
LINE
  5
7ABA
  8
1
  6
CONTINUOUS
 10
6928.2286379999996
 20
4468.3732739999996
 30
0.0
 11
7073.2286379999987
 21
4468.3732739999996
 31
0.0
  0
LINE
  5
7ABB
  8
1
  6
CONTINUOUS
 10
6928.2286379999996
 20
4413.3732739999996
 30
0.0
 11
7073.2286379999987
 21
4413.3732739999996
 31
0.0
  0
LINE
  5
7ABC
  8
1
  6
CONTINUOUS
 10
6928.2286379999996
 20
5198.8732739999996
 30
0.0
 11
6928.2286379999996
 21
4642.8732740000014
 31
0.0
  0
LINE
  5
7ABD
  8
1
  6
CONTINUOUS
 10
6928.2286379999996
 20
4948.3732740000014
 30
0.0
 11
7073.2286379999987
 21
4948.3732740000014
 31
0.0
  0
LINE
  5
7ABE
  8
1
  6
CONTINUOUS
 10
6928.2286379999996
 20
4893.3732739999996
 30
0.0
 11
7073.2286379999987
 21
4893.3732739999996
 31
0.0
  0
LINE
  5
7ABF
  8
1
  6
CONTINUOUS
 10
7923.2286379999987
 20
4205.8732739999996
 30
0.0
 11
7923.2286379999987
 21
6118.8732740000014
 31
0.0
  0
LINE
  5
7AC0
  8
1
  6
CONTINUOUS
 10
8026.2286379999987
 20
4310.8732740000014
 30
0.0
 11
8026.2286379999987
 21
5530.8732740000014
 31
0.0
  0
LINE
  5
7AC1
  8
1
  6
CONTINUOUS
 10
7991.2286379999987
 20
4080.873274
 30
0.0
 11
7991.2286379999987
 21
4205.8732739999996
 31
0.0
  0
LINE
  5
7AC2
  8
1
  6
CONTINUOUS
 10
7923.2286379999987
 20
4360.8732740000014
 30
0.0
 11
8026.2286379999987
 21
4360.8732740000014
 31
0.0
  0
LINE
  5
7AC3
  8
1
  6
CONTINUOUS
 10
7923.2286379999987
 20
5480.8732739999996
 30
0.0
 11
8026.2286379999987
 21
5480.8732739999996
 31
0.0
  0
DIMENSION
  5
7AE4
  8
3
  6
CONTINUOUS
  2
*D1
 10
3250.7187610000001
 20
3702.0479619999992
 30
0.0
 11
2942.147332
 21
3702.0479619999992
 31
0.0
 70
   128
 13
2590.7187610000001
 23
4080.873274
 33
0.0
 14
3250.7187610000001
 24
4014.1438689999991
 34
0.0
1001
ACAD
1000
DSTYLE
1002
{
1070
   287
1070
     3
1070
    40
1040
45.0
1070
   143
1040
0.039
1070
   172
1070
     1
1070
   271
1070
     0
1070
   279
1070
     0
1070
   288
1070
     1
1002
}
  0
DIMENSION
  5
7AF0
  8
3
  6
CONTINUOUS
  2
*D2
 10
4950.7187610000001
 20
3702.0479619999992
 30
0.0
 11
4100.7187610000001
 21
3814.5479619999992
 31
0.0
 70
     0
 13
3250.7187610000001
 23
4014.1438689999991
 33
0.0
 14
4950.7187610000001
 24
4080.873274
 34
0.0
1001
ACAD
1000
DSTYLE
1002
{
1070
   287
1070
     4
1070
    40
1040
45.0
1070
    75
1070
     1
1070
   143
1040
0.039
1070
   172
1070
     1
1070
   271
1070
     0
1070
   279
1070
     1
1070
   288
1070
     1
1002
}
  0
DIMENSION
  5
7AFD
  8
3
  6
CONTINUOUS
  2
*D3
 10
2222.8113210000001
 20
4968.8732739999996
 30
0.0
 11
2222.8113210000001
 21
5547.4095560000014
 31
0.0
 70
   128
 13
2490.7187610000001
 23
6118.8732740000014
 33
0.0
 14
2490.7187610000001
 24
4968.8732739999996
 34
0.0
 50
90.0
1001
ACAD
1000
DSTYLE
1002
{
1070
   287
1070
     3
1070
    40
1040
45.0
1070
   143
1040
0.039
1070
   172
1070
     1
1070
   271
1070
     0
1070
   279
1070
     0
1070
   288
1070
     1
1002
}
  0
DIMENSION
  5
7B0A
  8
3
  6
CONTINUOUS
  2
*D4
 10
1920.3680179999999
 20
4920.8732740000014
 30
0.0
 11
1920.368017999999
 21
5571.9055289999997
 31
0.0
 70
   128
 13
2490.7187610000001
 23
6118.8732740000014
 33
0.0
 14
2584.028022
 24
4920.8732740000014
 34
0.0
 50
90.0
1001
ACAD
1000
DSTYLE
1002
{
1070
   287
1070
     3
1070
    40
1040
45.0
1070
   143
1040
0.039
1070
   172
1070
     1
1070
   271
1070
     0
1070
   279
1070
     0
1070
   288
1070
     1
1002
}
  0
DIMENSION
  5
7B16
  8
3
  6
CONTINUOUS
  2
*D5
 10
1920.368017999999
 20
4080.873274
 30
0.0
 11
1807.868017999999
 21
4500.8732740000014
 31
0.0
 70
     0
 13
2584.028022
 23
4920.8732740000014
 33
0.0
 14
2590.7187610000001
 24
4080.873274
 34
0.0
 50
90.0
1001
ACAD
1000
DSTYLE
1002
{
1070
   287
1070
     4
1070
    40
1040
45.0
1070
    75
1070
     1
1070
   143
1040
0.039
1070
   172
1070
     1
1070
   271
1070
     0
1070
   279
1070
     1
1070
   288
1070
     1
1002
}
  0
DIMENSION
  5
7B30
  8
3
  6
CONTINUOUS
  2
*D6
 10
3250.7187610000001
 20
6323.1146719999988
 30
0.0
 11
2884.9169689999999
 21
6323.1146719999988
 31
0.0
 70
   128
 13
2490.7187610000001
 23
6171.8732740000014
 33
0.0
 14
3250.7187610000001
 24
6053.8732739999996
 34
0.0
1001
ACAD
1000
DSTYLE
1002
{
1070
   287
1070
     3
1070
    40
1040
45.0
1070
   143
1040
0.039
1070
   172
1070
     1
1070
   271
1070
     0
1070
   279
1070
     0
1070
   288
1070
     1
1002
}
  0
DIMENSION
  5
7B3C
  8
3
  6
CONTINUOUS
  2
*D7
 10
4219.7187610000001
 20
6323.1146719999988
 30
0.0
 11
3735.2187610000001
 21
6435.6146719999988
 31
0.0
 70
     0
 13
3250.7187610000001
 23
6053.8732739999996
 33
0.0
 14
4219.7187610000001
 24
4920.8732740000014
 34
0.0
1001
ACAD
1000
DSTYLE
1002
{
1070
   287
1070
     4
1070
    40
1040
45.0
1070
    75
1070
     1
1070
   143
1040
0.039
1070
   172
1070
     1
1070
   271
1070
     0
1070
   279
1070
     1
1070
   288
1070
     1
1002
}
  0
DIMENSION
  5
7B49
  8
3
  6
CONTINUOUS
  2
*D8
 10
4950.7187610000001
 20
7982.0132060000014
 30
0.0
 11
3767.724483
 21
7982.0132060000014
 31
0.0
 70
   128
 13
2590.7187610000001
 23
8409.2811420000016
 33
0.0
 14
4950.7187610000001
 24
8409.2811420000016
 34
0.0
1001
ACAD
1000
DSTYLE
1002
{
1070
   287
1070
     3
1070
    40
1040
45.0
1070
   143
1040
0.039
1070
   172
1070
     1
1070
   271
1070
     0
1070
   279
1070
     0
1070
   288
1070
     1
1002
}
  0
DIMENSION
  5
7B56
  8
3
  6
CONTINUOUS
  2
*D9
 10
5394.3790820000013
 20
8409.2811420000016
 30
0.0
 11
5394.3790820000004
 21
9002.6778319999994
 31
0.0
 70
   128
 13
4950.7187610000001
 23
9589.2811419999998
 33
0.0
 14
4950.7187610000001
 24
8409.2811420000016
 34
0.0
 50
90.0
1001
ACAD
1000
DSTYLE
1002
{
1070
   287
1070
     3
1070
    40
1040
45.0
1070
   143
1040
0.039
1070
   172
1070
     1
1070
   271
1070
     0
1070
   279
1070
     0
1070
   288
1070
     1
1002
}
  0
LINE
  5
7B57
  8
2
  6
CENTER
 10
4386.4016350000002
 20
9096.2811419999998
 30
0.0
 11
2329.075206
 21
9096.2811419999998
 31
0.0
  0
LINE
  5
7B58
  8
2
  6
CENTER
 10
3250.7187610000001
 20
8259.6339810000009
 30
0.0
 11
3250.7187610000001
 21
9692.7407360000016
 31
0.0
  0
LINE
  5
7B59
  8
2
  6
CENTER
 10
7498.2286379999987
 20
6340.5673450000004
 30
0.0
 11
7498.2286379999987
 21
3938.8631220000002
 31
0.0
  0
LINE
  5
7B5A
  8
2
  6
CENTER
 10
4337.4539320000003
 20
4920.8732740000014
 30
0.0
 11
2367.832155999999
 21
4920.8732740000014
 31
0.0
  0
DIMENSION
  5
7B67
  8
3
  6
CONTINUOUS
  2
*D10
 10
7498.2286379999987
 20
3713.865615522468
 30
0.0
 11
7189.6572094285712
 21
3713.865615522468
 31
0.0
 70
   128
 13
6811.2286379999996
 23
4080.873274
 33
0.0
 14
7498.2286379999987
 24
3938.8631220000002
 34
0.0
1001
ACAD
1000
DSTYLE
1002
{
1070
   287
1070
     3
1070
    40
1040
45.0
1070
   143
1040
0.039
1070
   172
1070
     1
1070
   271
1070
     0
1070
   279
1070
     0
1070
   288
1070
     1
1002
}
  0
DIMENSION
  5
7B75
  8
3
  6
CONTINUOUS
  2
*D11
 10
7991.2286379999987
 20
3713.865615522468
 30
0.0
 11
7721.5494090000011
 21
3713.865615522468
 31
0.0
 70
   128
 13
7498.2286379999987
 23
3938.8631220000002
 33
0.0
 14
7991.2286379999987
 24
4080.873274
 34
0.0
1001
ACAD
1000
DSTYLE
1002
{
1070
   287
1070
     4
1070
    40
1040
45.0
1070
    75
1070
     1
1070
   143
1040
0.039
1070
   172
1070
     1
1070
   271
1070
     0
1070
   279
1070
     1
1070
   288
1070
     1
1002
}
  0
DIMENSION
  5
7B98
  8
3
  6
CONTINUOUS
  2
*D12
 10
7923.2286379999987
 20
6323.1356789999991
 30
0.0
 11
7443.6284999999989
 21
6323.1356789999991
 31
0.0
 70
   128
 13
7073.2286379999987
 23
6118.8732740000014
 33
0.0
 14
7923.2286379999987
 24
6118.8732740000014
 34
0.0
1001
ACAD
1000
DSTYLE
1002
{
1070
   287
1070
     3
1070
    40
1040
45.0
1070
   143
1040
0.039
1070
   172
1070
     1
1070
   271
1070
     0
1070
   279
1070
     0
1070
   288
1070
     1
1002
}
  0
DIMENSION
  5
7BA5
  8
3
  6
CONTINUOUS
  2
*D13
 10
7498.2286379999987
 20
6593.4034950000014
 30
0.0
 11
7124.8368989999999
 21
6593.4034950000014
 31
0.0
 70
   128
  1
MAX\P850
 13
6738.2286379999987
 23
5298.8732739999996
 33
0.0
 14
7498.2286379999987
 24
6529.5426119999993
 34
0.0
1001
ACAD
1000
DSTYLE
1002
{
1070
   287
1070
     3
1070
    40
1040
45.0
1070
   143
1040
0.039
1070
   172
1070
     1
1070
   271
1070
     0
1070
   279
1070
     0
1070
   288
1070
     1
1002
}
  0
DIMENSION
  5
7BB3
  8
3
  6
CONTINUOUS
  2
*D14
 10
8026.2286379999987
 20
6593.4034950000014
 30
0.0
 11
7762.4200999999994
 21
6594.2158910000007
 31
0.0
 70
   128
 13
7498.2286379999987
 23
6529.5426119999993
 33
0.0
 14
8026.2286379999987
 24
5530.8732740000014
 34
0.0
1001
ACAD
1000
DSTYLE
1002
{
1070
   287
1070
     4
1070
    40
1040
45.0
1070
    75
1070
     1
1070
   143
1040
0.039
1070
   172
1070
     1
1070
   271
1070
     0
1070
   279
1070
     1
1070
   288
1070
     1
1002
}
  0
DIMENSION
  5
7BD6
  8
3
  6
CONTINUOUS
  2
*D15
 10
8400.003302000001
 20
4360.8732740000014
 30
0.0
 11
8400.0033019999992
 21
4928.4912119999999
 31
0.0
 70
   128
 13
8026.2286379999987
 23
5480.8732739999996
 33
0.0
 14
8026.2286379999987
 24
4360.8732740000014
 34
0.0
 50
90.0
1001
ACAD
1000
DSTYLE
1002
{
1070
   287
1070
     3
1070
     3
1000
φ<>
1070
    40
1040
45.0
1070
   143
1040
0.039
1070
   172
1070
     1
1070
   271
1070
     0
1070
   279
1070
     0
1070
   288
1070
     1
1002
}
  0
LINE
  5
7BD7
  8
4
  6
CONTINUOUS
 10
9250.0
 20
2500.0
 30
0.0
 11
9250.0
 21
1500.0
 31
0.0
  0
LINE
  5
7BD8
  8
4
  6
CONTINUOUS
 10
5750.0
 20
2500.0
 30
0.0
 11
5750.0
 21
1500.0
 31
0.0
  0
LINE
  5
7BD9
  8
4
  6
CONTINUOUS
 10
3250.0
 20
2500.0
 30
0.0
 11
3250.0
 21
1500.0
 31
0.0
  0
LINE
  5
7BDC
  8
4
  6
CONTINUOUS
 10
3250.0
 20
1500.0
 30
0.0
 11
9250.0
 21
1500.0
 31
0.0
  0
LINE
  5
7BDD
  8
4
  6
CONTINUOUS
 10
3250.0
 20
2000.0
 30
0.0
 11
9250.0
 21
2000.0
 31
0.0
  0
TEXT
  5
7BDE
  8
4
  6
CONTINUOUS
 10
3442.5104040000001
 20
2157.7151289999988
 30
0.0
 40
250.0
  1
機器名称
  0
TEXT
  5
7BDF
  8
4
  6
CONTINUOUS
 10
3431.2905300000002
 20
1608.225782999999
 30
0.0
 40
250.0
  1
機器型番
  0
TEXT
  5
7BE0
  8
4
  6
CONTINUOUS
 10
5888.393728
 20
2112.8588439999999
 30
0.0
 40
211.11111099999991
  1
ミツヤリミットロードファン
  0
TEXT
  5
7BE1
  8
4
  6
CONTINUOUS
 10
5933.2724779999999
 20
1585.7979210000001
 30
0.0
 40
250.0
  1
LL#7-4
  0
TEXT
  5
7BE3
  8
4
  6
CONTINUOUS
 10
4523.9288280000001
 20
11917.14420699999
 30
0.0
 40
270.0
  1
床置ベット
  0
TEXT
  5
7BE4
  8
4
  6
CONTINUOUS
 10
1580.837966999999
 20
12669.404881
 30
0.0
 40
300.0
  1
ベルト駆動式片吸込両持リミットロードファン
  0
LINE
  5
7BE5
  8
4
  6
CONTINUOUS
 10
1250.0
 20
12347.04377099999
 30
0.0
 11
9250.0
 21
12347.04377099999
 31
0.0
  0
LINE
  5
7BE6
  8
4
  6
CONTINUOUS
 10
1250.0
 20
13347.043771000001
 30
0.0
 11
9250.0
 21
13347.043771000001
 31
0.0
  0
LINE
  5
7BE7
  8
4
  6
CONTINUOUS
 10
3250.0
 20
2500.0
 30
0.0
 11
9250.0
 21
2500.0
 31
0.0
  0
LINE
  5
7BE8
  8
4
  6
CONTINUOUS
 10
1250.0
 20
13347.043771000001
 30
0.0
 11
1250.0
 21
12347.04377099999
 31
0.0
  0
TEXT
  5
7BE9
  8
4
  6
CONTINUOUS
 10
2344.6346669999998
 20
11911.597388
 30
0.0
 40
270.0
  1
左回転左横向
  0
TEXT
  5
7BEA
  8
4
  6
CONTINUOUS
 10
7344.8477969999994
 20
13530.305408
 30
0.0
 40
280.0
  1
No.
  0
TEXT
  5
7BEB
  8
4
  6
CONTINUOUS
 10
6556.480313
 20
11917.14420699999
 30
0.0
 40
270.0
  1
縮尺：1/50
  0
LINE
  5
7BEC
  8
4
  6
CONTINUOUS
 10
9250.0
 20
13347.043771000001
 30
0.0
 11
9250.0
 21
12347.04377099999
 31
0.0
  0
LINE
  5
7BEE
  8
4
  6
CONTINUOUS
 10
7203.0871120000002
 20
13406.317916
 30
0.0
 11
7203.0871120000002
 21
13933.261307999999
 31
0.0
  0
LINE
  5
7BEF
  8
4
  6
CONTINUOUS
 10
7203.0871120000002
 20
13933.261307999999
 30
0.0
 11
9250.0
 21
13933.261307999999
 31
0.0
  0
LINE
  5
7BF0
  8
4
  6
CONTINUOUS
 10
9250.0
 20
13933.261307999999
 30
0.0
 11
9250.0
 21
13406.317916
 31
0.0
  0
LINE
  5
7BF1
  8
4
  6
CONTINUOUS
 10
9250.0
 20
13406.317916
 30
0.0
 11
7203.0871120000002
 21
13406.317916
 31
0.0
  0
DIMENSION
  5
7C67
  8
3
  2
*D16
 10
4950.7187610000001
 20
6597.8616595348212
 30
0.0
 11
3641.040323697991
 21
6597.8616595348212
 31
0.0
 70
   128
 13
2490.7187610000001
 23
6171.8732740000014
 33
0.0
 14
4950.7187610000001
 24
4205.8732739999996
 34
0.0
1001
ACAD
1000
DSTYLE
1002
{
1070
   287
1070
     3
1070
    40
1040
45.0
1070
   143
1040
0.039
1070
   172
1070
     1
1070
   271
1070
     0
1070
   279
1070
     0
1070
   288
1070
     1
1002
}
  0
DIMENSION
  5
7C74
  8
3
  2
*D17
 10
1629.342659669637
 20
4080.873274
 30
0.0
 11
1629.342659669637
 21
5115.4467947861922
 31
0.0
 70
   128
 13
2490.7187610000001
 23
6171.8732740000014
 33
0.0
 14
2590.7187610000001
 24
4080.873274
 34
0.0
 50
90.0
1001
ACAD
1000
DSTYLE
1002
{
1070
   287
1070
     3
1070
    40
1040
45.0
1070
   143
1040
0.039
1070
   172
1070
     1
1070
   271
1070
     0
1070
   279
1070
     0
1070
   288
1070
     1
1002
}
  0
ENDSEC
  0
EOF
