  0
SECTION
  2
HEADER
  9
$ACADVER
  1
AC1009
  9
$INSBASE
 10
0.0
 20
0.0
 30
0.0
  9
$EXTMIN
 10
0.0
 20
0.0
 30
0.0
  9
$EXTMAX
 10
7350.0
 20
10325.0
 30
0.0
  9
$LIMMIN
 10
0.0
 20
0.0
  9
$LIMMAX
 10
297.0
 20
210.0
  9
$ORTHOMODE
 70
     0
  9
$REGENMODE
 70
     1
  9
$FILLMODE
 70
     0
  9
$QTEXTMODE
 70
     0
  9
$MIRRTEXT
 70
     1
  9
$DRAGMODE
 70
     2
  9
$LTSCALE
 40
100.0
  9
$OSMODE
 70
    37
  9
$ATTMODE
 70
     1
  9
$TEXTSIZE
 40
180.0
  9
$TRACEWID
 40
0.05
  9
$TEXTSTYLE
  7
STANDARD
  9
$CLAYER
  8
3
  9
$CELTYPE
  6
BYLAYER
  9
$CECOLOR
 62
   256
  9
$DIMSCALE
 40
35.0
  9
$DIMASZ
 40
2.0
  9
$DIMEXO
 40
0.5
  9
$DIMDLI
 40
10.0
  9
$DIMRND
 40
0.0
  9
$DIMDLE
 40
0.0
  9
$DIMEXE
 40
1.0
  9
$DIMTP
 40
1.0
  9
$DIMTM
 40
1.0
  9
$DIMTXT
 40
3.0
  9
$DIMCEN
 40
0.0
  9
$DIMTSZ
 40
0.0
  9
$DIMTOL
 70
     0
  9
$DIMLIM
 70
     0
  9
$DIMTIH
 70
     0
  9
$DIMTOH
 70
     0
  9
$DIMSE1
 70
     0
  9
$DIMSE2
 70
     0
  9
$DIMTAD
 70
     1
  9
$DIMZIN
 70
     8
  9
$DIMBLK
  1

  9
$DIMASO
 70
     1
  9
$DIMSHO
 70
     1
  9
$DIMPOST
  1

  9
$DIMAPOST
  1

  9
$DIMALT
 70
     0
  9
$DIMALTD
 70
     2
  9
$DIMALTF
 40
0.039
  9
$DIMLFAC
 40
1.0
  9
$DIMTOFL
 70
     1
  9
$DIMTVP
 40
0.0
  9
$DIMTIX
 70
     0
  9
$DIMSOXD
 70
     0
  9
$DIMSAH
 70
     1
  9
$DIMBLK1
  1
DOT
  9
$DIMBLK2
  1
OPEN
  9
$DIMSTYLE
  2
IGA
  9
$DIMCLRD
 70
     0
  9
$DIMCLRE
 70
     0
  9
$DIMCLRT
 70
     0
  9
$DIMTFAC
 40
10.0
  9
$DIMGAP
 40
1.0
  9
$LUNITS
 70
     2
  9
$LUPREC
 70
     3
  9
$SKETCHINC
 40
0.1
  9
$FILLETRAD
 40
50.0
  9
$AUNITS
 70
     0
  9
$AUPREC
 70
     0
  9
$MENU
  1
acad
  9
$ELEVATION
 40
0.0
  9
$PELEVATION
 40
0.0
  9
$THICKNESS
 40
0.0
  9
$LIMCHECK
 70
     0
  9
$BLIPMODE
 70
     0
  9
$CHAMFERA
 40
0.5
  9
$CHAMFERB
 40
0.5
  9
$SKPOLY
 70
     0
  9
$TDCREATE
 40
2453167.599160763
  9
$TDUPDATE
 40
2454953.6470486112
  9
$TDINDWG
 40
0.0630661921
  9
$TDUSRTIMER
 40
0.0630661921
  9
$USRTIMER
 70
     1
  9
$ANGBASE
 50
0.0
  9
$ANGDIR
 70
     0
  9
$PDMODE
 70
     0
  9
$PDSIZE
 40
0.0
  9
$PLINEWID
 40
0.0
  9
$COORDS
 70
     1
  9
$SPLFRAME
 70
     0
  9
$SPLINETYPE
 70
     6
  9
$SPLINESEGS
 70
     8
  9
$ATTDIA
 70
     0
  9
$ATTREQ
 70
     1
  9
$HANDLING
 70
 10241
  9
$HANDSEED
  5
84D8
  9
$SURFTAB1
 70
     6
  9
$SURFTAB2
 70
     6
  9
$SURFTYPE
 70
     6
  9
$SURFU
 70
     6
  9
$SURFV
 70
     6
  9
$UCSNAME
  2

  9
$UCSORG
 10
0.0
 20
0.0
 30
0.0
  9
$UCSXDIR
 10
1.0
 20
0.0
 30
0.0
  9
$UCSYDIR
 10
0.0
 20
1.0
 30
0.0
  9
$PUCSNAME
  2

  9
$PUCSORG
 10
0.0
 20
0.0
 30
0.0
  9
$PUCSXDIR
 10
1.0
 20
0.0
 30
0.0
  9
$PUCSYDIR
 10
0.0
 20
1.0
 30
0.0
  9
$USERI1
 70
     0
  9
$USERI2
 70
     0
  9
$USERI3
 70
     0
  9
$USERI4
 70
     0
  9
$USERI5
 70
     0
  9
$USERR1
 40
0.0
  9
$USERR2
 40
0.0
  9
$USERR3
 40
0.0
  9
$USERR4
 40
0.0
  9
$USERR5
 40
0.0
  9
$WORLDVIEW
 70
     1
  9
$SHADEDGE
 70
     3
  9
$SHADEDIF
 70
    70
  9
$TILEMODE
 70
     1
  9
$MAXACTVP
 70
    16
  9
$PLIMCHECK
 70
     0
  9
$PEXTMIN
 10
1.0000000000000000E+020
 20
1.0000000000000000E+020
 30
1.0000000000000000E+020
  9
$PEXTMAX
 10
-1.0000000000000000E+020
 20
-1.0000000000000000E+020
 30
-1.0000000000000000E+020
  9
$PLIMMIN
 10
0.0
 20
0.0
  9
$PLIMMAX
 10
12.0
 20
9.0
  9
$UNITMODE
 70
     0
  9
$VISRETAIN
 70
     0
  9
$PLINEGEN
 70
     0
  9
$PSLTSCALE
 70
     1
  0
ENDSEC
  0
SECTION
  2
TABLES
  0
TABLE
  2
VPORT
 70
     2
  0
VPORT
  2
*ACTIVE
 70
     0
 10
0.0
 20
0.0
 11
1.0
 21
1.0
 12
6968.633361064195
 22
958.68863480990512
 13
0.0
 23
0.0
 14
10.0
 24
10.0
 15
10.0
 25
10.0
 16
0.0
 26
0.0
 36
1.0
 17
0.0
 27
0.0
 37
0.0
 40
3131.7670163688322
 41
3.1666666666666661
 42
50.0
 43
0.0
 44
0.0
 50
0.0
 51
0.0
 71
     0
 72
   100
 73
     1
 74
     0
 75
     0
 76
     0
 77
     0
 78
     0
  0
ENDTAB
  0
TABLE
  2
LTYPE
 70
     2
  0
LTYPE
  2
CONTINUOUS
 70
     0
  3
Solid line
 72
    65
 73
     0
 40
0.0
  0
LTYPE
  2
CENTER
 70
     0
  3
____ _ ____ _ ____ _ ____ _ ____ _ ____ _ ____ 
 72
    65
 73
     4
 40
2.0
 49
1.25
 49
-0.25
 49
0.25
 49
-0.25
  0
ENDTAB
  0
TABLE
  2
LAYER
 70
     6
  0
LAYER
  2
0
 70
     0
 62
     7
  6
CONTINUOUS
  0
LAYER
  2
3
 70
     0
 62
     2
  6
CONTINUOUS
  0
LAYER
  2
2
 70
     0
 62
     3
  6
CENTER
  0
LAYER
  2
1
 70
     0
 62
     4
  6
CONTINUOUS
  0
LAYER
  2
4
 70
     0
 62
     7
  6
CONTINUOUS
  0
LAYER
  2
DEFPOINTS
 70
     0
 62
     7
  6
CONTINUOUS
  0
ENDTAB
  0
TABLE
  2
STYLE
 70
     1
  0
STYLE
  2
STANDARD
 70
     0
 40
0.0
 41
1.0
 50
0.0
 71
     0
 42
180.0
  3
simplex.shx
  4
extfont.shx
  0
ENDTAB
  0
TABLE
  2
VIEW
 70
     0
  0
ENDTAB
  0
TABLE
  2
UCS
 70
     0
  0
ENDTAB
  0
TABLE
  2
APPID
 70
     1
  0
APPID
  2
ACAD
 70
     0
  0
ENDTAB
  0
TABLE
  2
DIMSTYLE
 70
     1
  0
DIMSTYLE
  2
IGA
 70
     0
  3

  4

  5

  6
OPEN
  7
OPEN
 40
2.0
 41
2.0
 42
0.5
 43
10.0
 44
1.0
 45
0.0
 46
0.0
 47
1.0
 48
1.0
140
3.0
141
0.0
142
0.0
143
0.03937
144
1.0
145
0.0
146
10.0
147
1.0
 71
     0
 72
     0
 73
     0
 74
     0
 75
     0
 76
     0
 77
     1
 78
     8
170
     0
171
     2
172
     0
173
     1
174
     0
175
     0
176
     0
177
     0
178
     0
  0
ENDTAB
  0
ENDSEC
  0
SECTION
  2
BLOCKS
  0
BLOCK
  8
0
  2
$MODEL_SPACE
 70
     0
 10
0.0
 20
0.0
 30
0.0
  3
$MODEL_SPACE
  1

  0
ENDBLK
  5
1B
  8
0
  0
BLOCK
 67
     1
  8
0
  2
$PAPER_SPACE
 70
     0
 10
0.0
 20
0.0
 30
0.0
  3
$PAPER_SPACE
  1

  0
ENDBLK
  5
18
 67
     1
  8
0
  0
BLOCK
  8
0
  2
YA_N
 70
     0
 10
0.0
 20
0.0
 30
0.0
  3
YA_N
  1

  0
ENDBLK
  5
79FE
  8
0
  0
BLOCK
  8
0
  2
_OPEN
 70
     0
 10
0.0
 20
0.0
 30
0.0
  3
_OPEN
  1

  0
LINE
  5
7B93
  8
0
  6
BYBLOCK
 62
     0
 10
-1.0
 20
0.1666666666666666
 30
0.0
 11
0.0
 21
0.0
 31
0.0
  0
LINE
  5
7B94
  8
0
  6
BYBLOCK
 62
     0
 10
0.0
 20
0.0
 30
0.0
 11
-1.0
 21
-0.1666666666666666
 31
0.0
  0
LINE
  5
7B95
  8
0
  6
BYBLOCK
 62
     0
 10
0.0
 20
0.0
 30
0.0
 11
-1.0
 21
0.0
 31
0.0
  0
ENDBLK
  5
7B96
  8
0
  0
BLOCK
  8
0
  2
*D2
 70
     1
 10
0.0
 20
0.0
 30
0.0
  3
*D2
  1

  0
LINE
  5
83D7
  8
3
 62
     0
 10
2580.744453512345
 20
7683.7675927715281
 30
0.0
 11
3225.553871923426
 21
7683.7675927715281
 31
0.0
  0
LINE
  5
83D8
  8
3
 62
     0
 10
2580.744453512345
 20
6693.7675927715281
 30
0.0
 11
3225.553871923425
 21
6693.7675927715281
 31
0.0
  0
LINE
  5
83D9
  8
3
 62
     0
 10
3190.553871923426
 20
7613.7675927715281
 30
0.0
 11
3190.553871923425
 21
6763.7675927715281
 31
0.0
  0
INSERT
  5
83DA
  8
3
 62
     0
  2
_OPEN
 10
3190.553871923426
 20
7683.7675927715281
 30
0.0
 41
70.0
 42
70.0
 43
70.0
 50
90.0
  0
INSERT
  5
83DB
  8
3
 62
     0
  2
_OPEN
 10
3190.553871923425
 20
6693.7675927715281
 30
0.0
 41
70.0
 42
70.0
 43
70.0
 50
270.0
  0
TEXT
  8
3
  40
105
  5
84BE
  62
0
  72
0
  71
0
 10
2893.05
 20
7005.01
 30
0.000000
  1
990
  0
POINT
  5
83DD
  8
DEFPOINTS
 62
     0
 10
2563.244453512345
 20
7683.7675927715281
 30
0.0
  0
POINT
  5
83DE
  8
DEFPOINTS
 62
     0
 10
2563.244453512345
 20
6693.7675927715281
 30
0.0
  0
POINT
  5
83DF
  8
DEFPOINTS
 62
     0
 10
3190.553871923425
 20
6693.7675927715281
 30
0.0
  0
ENDBLK
  5
7BB0
  8
0
  0
BLOCK
  8
0
  2
*D3
 70
     1
 10
0.0
 20
0.0
 30
0.0
  3
*D3
  1

  0
LINE
  5
83E0
  8
3
 62
     0
 10
2320.7444535123441
 20
5848.7675927715281
 30
0.0
 11
3225.5538719234241
 21
5848.7675927715281
 31
0.0
  0
LINE
  5
83E1
  8
3
 62
     0
 10
3190.5538719234241
 20
6623.7675927715281
 30
0.0
 11
3190.5538719234241
 21
5918.7675927715281
 31
0.0
  0
INSERT
  5
83E2
  8
3
 62
     0
  2
_OPEN
 10
3190.5538719234241
 20
6693.7675927715281
 30
0.0
 41
70.0
 42
70.0
 43
70.0
 50
90.0
  0
INSERT
  5
83E3
  8
3
 62
     0
  2
_OPEN
 10
3190.5538719234241
 20
5848.7675927715281
 30
0.0
 41
70.0
 42
70.0
 43
70.0
 50
270.0
  0
TEXT
  8
3
  40
105
  5
84BF
  62
0
  72
0
  71
0
 10
2893.05
 20
6085.42
 30
0.000000
  1
845
  0
POINT
  5
83E5
  8
DEFPOINTS
 62
     0
 10
2563.244453512345
 20
6693.7675927715281
 30
0.0
  0
POINT
  5
83E6
  8
DEFPOINTS
 62
     0
 10
2303.2444535123441
 20
5848.7675927715281
 30
0.0
  0
POINT
  5
83E7
  8
DEFPOINTS
 62
     0
 10
3190.5538719234241
 20
5848.7675927715281
 30
0.0
  0
ENDBLK
  5
7BBE
  8
0
  0
BLOCK
  8
0
  2
*D4
 70
     1
 10
0.0
 20
0.0
 30
0.0
  3
*D4
  1

  0
LINE
  5
83E8
  8
3
 62
     0
 10
2563.244453512345
 20
6676.2675927715281
 30
0.0
 11
2563.244453512345
 21
5351.5740510801079
 31
0.0
  0
LINE
  5
83E9
  8
3
 62
     0
 10
2303.2444535123441
 20
5831.2675927715281
 30
0.0
 11
2303.2444535123441
 21
5351.5740510801079
 31
0.0
  0
LINE
  5
83EA
  8
3
 62
     0
 10
2373.244453512345
 20
5386.5740510801079
 30
0.0
 11
2493.244453512345
 21
5386.5740510801079
 31
0.0
  0
LINE
  5
83EB
  8
3
 62
     0
 10
2563.244453512345
 20
5386.5740510801079
 30
0.0
 11
2973.244453512345
 21
5386.5740510801079
 31
0.0
  0
INSERT
  5
83EC
  8
3
 62
     0
  2
_OPEN
 10
2303.2444535123441
 20
5386.5740510801079
 30
0.0
 41
70.0
 42
70.0
 43
70.0
 50
180.0
  0
INSERT
  5
83ED
  8
3
 62
     0
  2
_OPEN
 10
2563.244453512345
 20
5386.5740510801079
 30
0.0
 41
70.0
 42
70.0
 43
70.0
  0
TEXT
  8
3
  40
105
  5
84C0
  62
0
  72
0
  71
0
 10
2593.24
 20
5288.22
 30
0.000000
  1
260
  0
POINT
  5
83EF
  8
DEFPOINTS
 62
     0
 10
2563.244453512345
 20
6693.7675927715281
 30
0.0
  0
POINT
  5
83F0
  8
DEFPOINTS
 62
     0
 10
2303.2444535123441
 20
5848.7675927715281
 30
0.0
  0
POINT
  5
83F1
  8
DEFPOINTS
 62
     0
 10
2303.2444535123441
 20
5386.5740510801079
 30
0.0
  0
ENDBLK
  5
7C30
  8
0
  0
BLOCK
  8
0
  2
*D5
 70
     1
 10
0.0
 20
0.0
 30
0.0
  3
*D5
  1

  0
LINE
  5
83F2
  8
3
 62
     0
 10
803.24445351234488
 20
5831.2675927715281
 30
0.0
 11
803.24445351234488
 21
5351.5740510801079
 31
0.0
  0
LINE
  5
83F3
  8
3
 62
     0
 10
2233.244453512345
 20
5386.5740510801079
 30
0.0
 11
873.24445351234499
 21
5386.5740510801079
 31
0.0
  0
INSERT
  5
83F4
  8
3
 62
     0
  2
_OPEN
 10
2303.2444535123441
 20
5386.5740510801079
 30
0.0
 41
70.0
 42
70.0
 43
70.0
  0
INSERT
  5
83F5
  8
3
 62
     0
  2
_OPEN
 10
803.24445351234488
 20
5386.5740510801079
 30
0.0
 41
70.0
 42
70.0
 43
70.0
 50
180.0
  0
TEXT
  8
3
  40
105
  5
84C1
  62
0
  72
0
  71
0
 10
1343.24
 20
5288.22
 30
0.000000
  1
1500
  0
POINT
  5
83F7
  8
DEFPOINTS
 62
     0
 10
2303.2444535123441
 20
5848.7675927715281
 30
0.0
  0
POINT
  5
83F8
  8
DEFPOINTS
 62
     0
 10
803.24445351234488
 20
5848.7675927715281
 30
0.0
  0
POINT
  5
83F9
  8
DEFPOINTS
 62
     0
 10
803.24445351234488
 20
5386.5740510801079
 30
0.0
  0
ENDBLK
  5
7C24
  8
0
  0
BLOCK
  8
0
  2
*D6
 70
     1
 10
0.0
 20
0.0
 30
0.0
  3
*D6
  1

  0
LINE
  5
83FA
  8
3
 62
     0
 10
785.74445351234488
 20
5848.7675927715281
 30
0.0
 11
337.85267265174571
 21
5848.7675927715281
 31
0.0
  0
LINE
  5
83FB
  8
3
 62
     0
 10
785.74445351234488
 20
6758.7675927715263
 30
0.0
 11
337.85267265174588
 21
6758.7675927715263
 31
0.0
  0
LINE
  5
83FC
  8
3
 62
     0
 10
372.85267265174571
 20
5918.7675927715281
 30
0.0
 11
372.85267265174582
 21
6688.7675927715263
 31
0.0
  0
INSERT
  5
83FD
  8
3
 62
     0
  2
_OPEN
 10
372.85267265174571
 20
5848.7675927715281
 30
0.0
 41
70.0
 42
70.0
 43
70.0
 50
270.0
  0
INSERT
  5
83FE
  8
3
 62
     0
  2
_OPEN
 10
372.85267265174582
 20
6758.7675927715263
 30
0.0
 41
70.0
 42
70.0
 43
70.0
 50
90.0
  0
TEXT
  8
3
  40
105
  5
84C2
  62
0
  72
0
  71
0
 10
75.3527
 20
6072.36
 30
0.000000
  1
910
  0
POINT
  5
8400
  8
DEFPOINTS
 62
     0
 10
803.24445351234488
 20
5848.7675927715281
 30
0.0
  0
POINT
  5
8401
  8
DEFPOINTS
 62
     0
 10
803.24445351234488
 20
6758.7675927715263
 30
0.0
  0
POINT
  5
8402
  8
DEFPOINTS
 62
     0
 10
372.85267265174582
 20
6758.7675927715263
 30
0.0
  0
ENDBLK
  5
7BF2
  8
0
  0
BLOCK
  8
0
  2
*D7
 70
     1
 10
0.0
 20
0.0
 30
0.0
  3
*D7
  1

  0
LINE
  5
8403
  8
3
 62
     0
 10
1225.744453512345
 20
7683.7675927715281
 30
0.0
 11
337.85267265174468
 21
7683.7675927715281
 31
0.0
  0
LINE
  5
8404
  8
3
 62
     0
 10
372.85267265174463
 20
6828.7675927715272
 30
0.0
 11
372.85267265174468
 21
7613.7675927715281
 31
0.0
  0
INSERT
  5
8405
  8
3
 62
     0
  2
_OPEN
 10
372.85267265174451
 20
6758.7675927715263
 30
0.0
 41
70.0
 42
70.0
 43
70.0
 50
270.0
  0
INSERT
  5
8406
  8
3
 62
     0
  2
_OPEN
 10
372.85267265174468
 20
7683.7675927715281
 30
0.0
 41
70.0
 42
70.0
 43
70.0
 50
90.0
  0
TEXT
  8
3
  40
105
  5
84C3
  62
0
  72
0
  71
0
 10
75.3527
 20
7035.42
 30
0.000000
  1
925
  0
POINT
  5
8408
  8
DEFPOINTS
 62
     0
 10
803.24445351234488
 20
6758.7675927715263
 30
0.0
  0
POINT
  5
8409
  8
DEFPOINTS
 62
     0
 10
1243.244453512345
 20
7683.7675927715281
 30
0.0
  0
POINT
  5
840A
  8
DEFPOINTS
 62
     0
 10
372.85267265174468
 20
7683.7675927715281
 30
0.0
  0
ENDBLK
  5
7BFE
  8
0
  0
BLOCK
  8
0
  2
*D8
 70
     1
 10
0.0
 20
0.0
 30
0.0
  3
*D8
  1

  0
LINE
  5
840B
  8
3
 62
     0
 10
803.24445351234488
 20
6776.2675927715263
 30
0.0
 11
803.2444535123451
 21
7949.311000374676
 31
0.0
  0
LINE
  5
840C
  8
3
 62
     0
 10
1243.244453512345
 20
7701.2675927715281
 30
0.0
 11
1243.244453512345
 21
7949.311000374676
 31
0.0
  0
LINE
  5
840D
  8
3
 62
     0
 10
733.2444535123451
 20
7914.311000374677
 30
0.0
 11
663.24445351234499
 21
7914.311000374677
 31
0.0
  0
LINE
  5
840E
  8
3
 62
     0
 10
1313.244453512345
 20
7914.311000374677
 30
0.0
 11
1383.244453512345
 21
7914.311000374677
 31
0.0
  0
LINE
  5
840F
  8
3
 62
     0
 10
803.2444535123451
 20
7914.311000374677
 30
0.0
 11
1243.244453512345
 21
7914.311000374677
 31
0.0
  0
INSERT
  5
8410
  8
3
 62
     0
  2
_OPEN
 10
803.2444535123451
 20
7914.311000374677
 30
0.0
 41
70.0
 42
70.0
 43
70.0
  0
INSERT
  5
8411
  8
3
 62
     0
  2
_OPEN
 10
1243.244453512345
 20
7914.311000374677
 30
0.0
 41
70.0
 42
70.0
 43
70.0
 50
180.0
  0
TEXT
  8
3
  40
105
  5
84C4
  62
0
  72
0
  71
0
 10
813.244
 20
7815.96
 30
0.000000
  1
440
  0
POINT
  5
8413
  8
DEFPOINTS
 62
     0
 10
803.24445351234488
 20
6758.7675927715263
 30
0.0
  0
POINT
  5
8414
  8
DEFPOINTS
 62
     0
 10
1243.244453512345
 20
7683.7675927715281
 30
0.0
  0
POINT
  5
8415
  8
DEFPOINTS
 62
     0
 10
1243.244453512345
 20
7914.311000374677
 30
0.0
  0
ENDBLK
  5
7C0D
  8
0
  0
BLOCK
  8
0
  2
*D9
 70
     1
 10
0.0
 20
0.0
 30
0.0
  3
*D9
  1

  0
LINE
  5
8416
  8
3
 62
     0
 10
2563.244453512345
 20
7701.2675927715281
 30
0.0
 11
2563.244453512345
 21
7949.311000374676
 31
0.0
  0
LINE
  5
8417
  8
3
 62
     0
 10
1313.244453512345
 20
7914.311000374677
 30
0.0
 11
2493.244453512345
 21
7914.311000374677
 31
0.0
  0
INSERT
  5
8418
  8
3
 62
     0
  2
_OPEN
 10
1243.244453512345
 20
7914.311000374677
 30
0.0
 41
70.0
 42
70.0
 43
70.0
 50
180.0
  0
INSERT
  5
8419
  8
3
 62
     0
  2
_OPEN
 10
2563.244453512345
 20
7914.311000374677
 30
0.0
 41
70.0
 42
70.0
 43
70.0
  0
TEXT
  8
3
  40
105
  5
84C5
  62
0
  72
0
  71
0
 10
1693.24
 20
7815.96
 30
0.000000
  1
1320
  0
POINT
  5
841B
  8
DEFPOINTS
 62
     0
 10
1243.244453512345
 20
7683.7675927715281
 30
0.0
  0
POINT
  5
841C
  8
DEFPOINTS
 62
     0
 10
2563.244453512345
 20
7683.7675927715281
 30
0.0
  0
POINT
  5
841D
  8
DEFPOINTS
 62
     0
 10
2563.244453512345
 20
7914.311000374677
 30
0.0
  0
ENDBLK
  5
7C19
  8
0
  0
BLOCK
  8
0
  2
*D10
 70
     1
 10
0.0
 20
0.0
 30
0.0
  3
*D10
  1

  0
LINE
  5
841E
  8
3
 62
     0
 10
803.24445351234692
 20
2348.2316662232301
 30
0.0
 11
803.24445351234692
 21
2076.6201966049662
 31
0.0
  0
LINE
  5
841F
  8
3
 62
     0
 10
1903.2444535123441
 20
2348.2316662232301
 30
0.0
 11
1903.2444535123441
 21
2076.6201966049662
 31
0.0
  0
LINE
  5
8420
  8
3
 62
     0
 10
873.24445351234681
 20
2111.6201966049662
 30
0.0
 11
1833.244453512345
 21
2111.6201966049662
 31
0.0
  0
INSERT
  5
8421
  8
3
 62
     0
  2
_OPEN
 10
803.24445351234692
 20
2111.6201966049662
 30
0.0
 41
70.0
 42
70.0
 43
70.0
 50
180.0
  0
INSERT
  5
8422
  8
3
 62
     0
  2
_OPEN
 10
1903.2444535123441
 20
2111.6201966049662
 30
0.0
 41
70.0
 42
70.0
 43
70.0
  0
TEXT
  8
3
  40
105
  5
84C6
  62
0
  72
0
  71
0
 10
1122.84
 20
2013.27
 30
0.000000
  1
1100
  0
POINT
  5
8424
  8
DEFPOINTS
 62
     0
 10
803.24445351234692
 20
2365.7316662232311
 30
0.0
  0
POINT
  5
8425
  8
DEFPOINTS
 62
     0
 10
1903.2444535123441
 20
2365.7316662232311
 30
0.0
  0
POINT
  5
8426
  8
DEFPOINTS
 62
     0
 10
1903.2444535123441
 20
2111.6201966049662
 30
0.0
  0
ENDBLK
  5
7CC0
  8
0
  0
BLOCK
  8
0
  2
*D11
 70
     1
 10
0.0
 20
0.0
 30
0.0
  3
*D11
  1

  0
LINE
  5
8427
  8
3
 62
     0
 10
2563.244453512345
 20
2348.2316662232301
 30
0.0
 11
2563.244453512345
 21
2076.6201966049662
 31
0.0
  0
LINE
  5
8428
  8
3
 62
     0
 10
1973.244453512345
 20
2111.6201966049662
 30
0.0
 11
2493.244453512345
 21
2111.6201966049662
 31
0.0
  0
INSERT
  5
8429
  8
3
 62
     0
  2
_OPEN
 10
1903.2444535123441
 20
2111.6201966049662
 30
0.0
 41
70.0
 42
70.0
 43
70.0
 50
180.0
  0
INSERT
  5
842A
  8
3
 62
     0
  2
_OPEN
 10
2563.244453512345
 20
2111.6201966049662
 30
0.0
 41
70.0
 42
70.0
 43
70.0
  0
TEXT
  8
3
  40
105
  5
84C7
  62
0
  72
0
  71
0
 10
2023.24
 20
2013.27
 30
0.000000
  1
660
  0
POINT
  5
842C
  8
DEFPOINTS
 62
     0
 10
1903.2444535123441
 20
2365.7316662232311
 30
0.0
  0
POINT
  5
842D
  8
DEFPOINTS
 62
     0
 10
2563.244453512345
 20
2365.7316662232311
 30
0.0
  0
POINT
  5
842E
  8
DEFPOINTS
 62
     0
 10
2563.244453512345
 20
2111.6201966049662
 30
0.0
  0
ENDBLK
  5
7CCC
  8
0
  0
BLOCK
  8
0
  2
*D12
 70
     1
 10
0.0
 20
0.0
 30
0.0
  3
*D12
  1

  0
LINE
  5
842F
  8
3
 62
     0
 10
4417.9400047573081
 20
2348.2316662232301
 30
0.0
 11
4417.9400047573081
 21
2081.8794238503251
 31
0.0
  0
LINE
  5
8430
  8
3
 62
     0
 10
5757.9400047573081
 20
2348.2316662232301
 30
0.0
 11
5757.9400047573081
 21
2081.8794238503251
 31
0.0
  0
LINE
  5
8431
  8
3
 62
     0
 10
4487.940004757309
 20
2116.8794238503251
 30
0.0
 11
5687.940004757309
 21
2116.8794238503251
 31
0.0
  0
INSERT
  5
8432
  8
3
 62
     0
  2
_OPEN
 10
4417.9400047573081
 20
2116.8794238503251
 30
0.0
 41
70.0
 42
70.0
 43
70.0
 50
180.0
  0
INSERT
  5
8433
  8
3
 62
     0
  2
_OPEN
 10
5757.9400047573081
 20
2116.8794238503251
 30
0.0
 41
70.0
 42
70.0
 43
70.0
  0
TEXT
  8
3
  40
105
  5
84C8
  62
0
  72
0
  71
0
 10
4845.03
 20
2018.53
 30
0.000000
  1
1340
  0
POINT
  5
8435
  8
DEFPOINTS
 62
     0
 10
4417.9400047573081
 20
2365.7316662232311
 30
0.0
  0
POINT
  5
8436
  8
DEFPOINTS
 62
     0
 10
5757.9400047573081
 20
2365.7316662232311
 30
0.0
  0
POINT
  5
8437
  8
DEFPOINTS
 62
     0
 10
5757.9400047573081
 20
2116.8794238503251
 30
0.0
  0
ENDBLK
  5
7CE5
  8
0
  0
BLOCK
  8
0
  2
*D13
 70
     1
 10
0.0
 20
0.0
 30
0.0
  3
*D13
  1

  0
LINE
  5
8438
  8
3
 62
     0
 10
6252.940004757309
 20
2348.2316662232301
 30
0.0
 11
6252.940004757309
 21
2081.8794238503251
 31
0.0
  0
LINE
  5
8439
  8
3
 62
     0
 10
5827.940004757309
 20
2116.8794238503251
 30
0.0
 11
6182.9400047573099
 21
2116.8794238503251
 31
0.0
  0
INSERT
  5
843A
  8
3
 62
     0
  2
_OPEN
 10
5757.9400047573081
 20
2116.8794238503251
 30
0.0
 41
70.0
 42
70.0
 43
70.0
 50
180.0
  0
INSERT
  5
843B
  8
3
 62
     0
  2
_OPEN
 10
6252.940004757309
 20
2116.8794238503251
 30
0.0
 41
70.0
 42
70.0
 43
70.0
  0
TEXT
  8
3
  40
105
  5
84C9
  62
0
  72
0
  71
0
 10
5795.44
 20
2018.53
 30
0.000000
  1
495
  0
POINT
  5
843D
  8
DEFPOINTS
 62
     0
 10
5757.9400047573081
 20
2365.7316662232311
 30
0.0
  0
POINT
  5
843E
  8
DEFPOINTS
 62
     0
 10
6252.940004757309
 20
2365.7316662232311
 30
0.0
  0
POINT
  5
843F
  8
DEFPOINTS
 62
     0
 10
6252.940004757309
 20
2116.8794238503251
 30
0.0
  0
ENDBLK
  5
7CF1
  8
0
  0
BLOCK
  8
0
  2
*D14
 70
     1
 10
0.0
 20
0.0
 30
0.0
  3
*D14
  1

  0
LINE
  5
8440
  8
3
 62
     0
 10
5332.9400047573108
 20
4803.2316662232297
 30
0.0
 11
5332.9400047573108
 21
5149.5476797904048
 31
0.0
  0
LINE
  5
8441
  8
3
 62
     0
 10
6182.9400047573126
 20
4803.2316662232297
 30
0.0
 11
6182.9400047573126
 21
5149.5476797904048
 31
0.0
  0
LINE
  5
8442
  8
3
 62
     0
 10
5402.9400047573108
 20
5114.5476797904048
 30
0.0
 11
6112.9400047573117
 21
5114.5476797904048
 31
0.0
  0
INSERT
  5
8443
  8
3
 62
     0
  2
_OPEN
 10
5332.9400047573108
 20
5114.5476797904048
 30
0.0
 41
70.0
 42
70.0
 43
70.0
 50
180.0
  0
INSERT
  5
8444
  8
3
 62
     0
  2
_OPEN
 10
6182.9400047573126
 20
5114.5476797904048
 30
0.0
 41
70.0
 42
70.0
 43
70.0
  0
TEXT
  8
3
  40
105
  5
84CA
  62
0
  72
0
  71
0
 10
5550.71
 20
5016.20
 30
0.000000
  1
850
  0
POINT
  5
8446
  8
DEFPOINTS
 62
     0
 10
5332.9400047573108
 20
4785.7316662232297
 30
0.0
  0
POINT
  5
8447
  8
DEFPOINTS
 62
     0
 10
6182.9400047573126
 20
4785.7316662232297
 30
0.0
  0
POINT
  5
8448
  8
DEFPOINTS
 62
     0
 10
6182.9400047573126
 20
5114.5476797904048
 30
0.0
  0
ENDBLK
  5
823C
  8
0
  0
BLOCK
  8
0
  2
*D15
 70
     1
 10
0.0
 20
0.0
 30
0.0
  3
*D15
  1

  0
LINE
  5
8449
  8
3
 62
     0
 10
5757.9400047573081
 20
5283.4635034827843
 30
0.0
 11
5757.9400047573081
 21
5388.1608328504108
 31
0.0
  0
LINE
  5
844A
  8
3
 62
     0
 10
6193.2400047573092
 20
4803.2316662232297
 30
0.0
 11
6193.2400047573092
 21
5388.1608328504108
 31
0.0
  0
LINE
  5
844B
  8
3
 62
     0
 10
5687.9400047573081
 20
5353.1608328504117
 30
0.0
 11
5617.9400047573081
 21
5353.1608328504117
 31
0.0
  0
LINE
  5
844C
  8
3
 62
     0
 10
6263.2400047573092
 20
5353.1608328504117
 30
0.0
 11
6333.2400047573101
 21
5353.1608328504117
 31
0.0
  0
LINE
  5
844D
  8
3
 62
     0
 10
5757.9400047573081
 20
5353.1608328504117
 30
0.0
 11
6193.2400047573092
 21
5353.1608328504117
 31
0.0
  0
INSERT
  5
844E
  8
3
 62
     0
  2
_OPEN
 10
5757.9400047573081
 20
5353.1608328504117
 30
0.0
 41
70.0
 42
70.0
 43
70.0
  0
INSERT
  5
844F
  8
3
 62
     0
  2
_OPEN
 10
6193.2400047573092
 20
5353.1608328504117
 30
0.0
 41
70.0
 42
70.0
 43
70.0
 50
180.0
  0
TEXT
  8
3
  40
105
  5
84CB
  62
0
  72
0
  71
0
 10
5765.59
 20
5254.81
 30
0.000000
  1
435
  0
POINT
  5
8451
  8
DEFPOINTS
 62
     0
 10
5757.9400047573081
 20
5265.9635034827843
 30
0.0
  0
POINT
  5
8452
  8
DEFPOINTS
 62
     0
 10
6193.2400047573092
 20
4785.7316662232297
 30
0.0
  0
POINT
  5
8453
  8
DEFPOINTS
 62
     0
 10
6193.2400047573092
 20
5353.1608328504117
 30
0.0
  0
ENDBLK
  5
8253
  8
0
  0
BLOCK
  8
0
  2
*D16
 70
     1
 10
0.0
 20
0.0
 30
0.0
  3
*D16
  1

  0
LINE
  5
8454
  8
3
 62
     0
 10
4270.940004757309
 20
3933.2316662232288
 30
0.0
 11
4270.940004757309
 21
5388.1608328504108
 31
0.0
  0
LINE
  5
8455
  8
3
 62
     0
 10
5687.9400047573081
 20
5353.1608328504117
 30
0.0
 11
4340.940004757309
 21
5353.1608328504117
 31
0.0
  0
INSERT
  5
8456
  8
3
 62
     0
  2
_OPEN
 10
5757.9400047573081
 20
5353.1608328504117
 30
0.0
 41
70.0
 42
70.0
 43
70.0
  0
INSERT
  5
8457
  8
3
 62
     0
  2
_OPEN
 10
4270.940004757309
 20
5353.1608328504117
 30
0.0
 41
70.0
 42
70.0
 43
70.0
 50
180.0
  0
TEXT
  8
3
  40
105
  5
84CC
  62
0
  72
0
  71
0
 10
4804.44
 20
5342.31
 30
0.000000
  1
MAX
  0
TEXT
  8
3
  40
105
  5
84CD
  62
0
  72
0
  71
0
 10
4804.44
 20
5205.81
 30
0.000000
  1
1530
  0
POINT
  5
8459
  8
DEFPOINTS
 62
     0
 10
5757.9400047573081
 20
5265.9635034827843
 30
0.0
  0
POINT
  5
845A
  8
DEFPOINTS
 62
     0
 10
4270.940004757309
 20
3915.7316662232301
 30
0.0
  0
POINT
  5
845B
  8
DEFPOINTS
 62
     0
 10
4270.940004757309
 20
5353.1608328504117
 30
0.0
  0
ENDBLK
  5
8246
  8
0
  0
BLOCK
  8
0
  2
_DOT
 70
     0
 10
0.0
 20
0.0
 30
0.0
  3
_DOT
  1

  0
LINE
  5
7E13
  8
0
  6
BYBLOCK
 62
     0
 10
0.0
 20
0.0
 30
0.0
 11
-1.0
 21
-0.0000000000000284
 31
0.0
  0
POLYLINE
  5
7E14
  8
0
  6
BYBLOCK
 62
     0
 66
     1
 10
0.0
 20
0.0
 30
0.0
 70
     1
 40
0.1666666666666666
 41
0.1666666666666666
  0
VERTEX
  5
845C
  8
0
  6
BYBLOCK
 62
     0
 10
-0.0833333333333286
 20
-0.0000000000000284
 30
0.0
 42
1.0
  0
VERTEX
  5
845D
  8
0
  6
BYBLOCK
 62
     0
 10
0.0833333333333286
 20
-0.0000000000000284
 30
0.0
 42
1.0
  0
SEQEND
  5
845E
  8
0
  6
BYBLOCK
 62
     0
  0
ENDBLK
  5
7DF9
  8
0
  0
BLOCK
  8
0
  2
*D18
 70
     1
 10
0.0
 20
0.0
 30
0.0
  3
*D18
  1

  0
LINE
  5
845F
  8
3
 62
     0
 10
2680.7444535123441
 20
3932.7316662232301
 30
0.0
 11
3022.1617731652741
 21
3932.7316662232301
 31
0.0
  0
LINE
  5
8460
  8
3
 62
     0
 10
2680.7444535123441
 20
2782.7316662232301
 30
0.0
 11
3022.1617731652741
 21
2782.7316662232301
 31
0.0
  0
LINE
  5
8461
  8
3
 62
     0
 10
2987.1617731652741
 20
3862.7316662232311
 30
0.0
 11
2987.1617731652741
 21
2852.7316662232301
 31
0.0
  0
INSERT
  5
8462
  8
3
 62
     0
  2
_OPEN
 10
2987.1617731652741
 20
3932.7316662232301
 30
0.0
 41
70.0
 42
70.0
 43
70.0
 50
90.0
  0
INSERT
  5
8463
  8
3
 62
     0
  2
_OPEN
 10
2987.1617731652741
 20
2782.7316662232301
 30
0.0
 41
70.0
 42
70.0
 43
70.0
 50
270.0
  0
TEXT
  8
3
  40
105
  5
84CE
  62
0
  72
0
  71
0
 10
2689.66
 20
3131.71
 30
0.000000
  1
1150
  0
POINT
  5
8465
  8
DEFPOINTS
 62
     0
 10
2663.2444535123441
 20
3932.7316662232301
 30
0.0
  0
POINT
  5
8466
  8
DEFPOINTS
 62
     0
 10
2663.2444535123441
 20
2782.7316662232301
 30
0.0
  0
POINT
  5
8467
  8
DEFPOINTS
 62
     0
 10
2987.1617731652741
 20
2782.7316662232301
 30
0.0
  0
ENDBLK
  5
8115
  8
0
  0
BLOCK
  8
0
  2
*D19
 70
     1
 10
0.0
 20
0.0
 30
0.0
  3
*D19
  1

  0
LINE
  5
8468
  8
3
 62
     0
 10
2680.7444535123441
 20
2782.7316662232301
 30
0.0
 11
3279.6555267345611
 21
2782.7316662232301
 31
0.0
  0
LINE
  5
8469
  8
3
 62
     0
 10
2804.740344293522
 20
3980.7316662232311
 30
0.0
 11
3279.655526734562
 21
3980.7316662232301
 31
0.0
  0
LINE
  5
846A
  8
3
 62
     0
 10
3244.6555267345611
 20
2852.7316662232301
 30
0.0
 11
3244.655526734562
 21
3910.7316662232301
 31
0.0
  0
INSERT
  5
846B
  8
3
 62
     0
  2
_OPEN
 10
3244.6555267345611
 20
2782.7316662232301
 30
0.0
 41
70.0
 42
70.0
 43
70.0
 50
270.0
  0
INSERT
  5
846C
  8
3
 62
     0
  2
_OPEN
 10
3244.655526734562
 20
3980.7316662232301
 30
0.0
 41
70.0
 42
70.0
 43
70.0
 50
90.0
  0
TEXT
  8
3
  40
105
  5
84CF
  62
0
  72
0
  71
0
 10
2947.16
 20
3143.40
 30
0.000000
  1
1198
  0
POINT
  5
846E
  8
DEFPOINTS
 62
     0
 10
2663.2444535123441
 20
2782.7316662232301
 30
0.0
  0
POINT
  5
846F
  8
DEFPOINTS
 62
     0
 10
2787.240344293522
 20
3980.7316662232311
 30
0.0
  0
POINT
  5
8470
  8
DEFPOINTS
 62
     0
 10
3244.655526734562
 20
3980.7316662232301
 30
0.0
  0
ENDBLK
  5
8122
  8
0
  0
BLOCK
  8
0
  2
*D20
 70
     1
 10
0.0
 20
0.0
 30
0.0
  3
*D20
  1

  0
LINE
  5
8471
  8
3
 62
     0
 10
2663.2444535123441
 20
4003.2316662232301
 30
0.0
 11
2663.2444535123441
 21
5025.2698635207671
 31
0.0
  0
LINE
  5
8472
  8
3
 62
     0
 10
1903.2444535123441
 20
4882.2275570044076
 30
0.0
 11
1903.2444535123441
 21
5025.2698635207671
 31
0.0
  0
LINE
  5
8473
  8
3
 62
     0
 10
2593.2444535123441
 20
4990.2698635207671
 30
0.0
 11
1973.244453512345
 21
4990.2698635207671
 31
0.0
  0
INSERT
  5
8474
  8
3
 62
     0
  2
_OPEN
 10
2663.2444535123441
 20
4990.2698635207671
 30
0.0
 41
70.0
 42
70.0
 43
70.0
  0
INSERT
  5
8475
  8
3
 62
     0
  2
_OPEN
 10
1903.2444535123441
 20
4990.2698635207671
 30
0.0
 41
70.0
 42
70.0
 43
70.0
 50
180.0
  0
TEXT
  8
3
  40
105
  5
84D0
  62
0
  72
0
  71
0
 10
2109.31
 20
4891.92
 30
0.000000
  1
760
  0
POINT
  5
8477
  8
DEFPOINTS
 62
     0
 10
2663.2444535123441
 20
3985.7316662232301
 30
0.0
  0
POINT
  5
8478
  8
DEFPOINTS
 62
     0
 10
1903.2444535123441
 20
4864.7275570044076
 30
0.0
  0
POINT
  5
8479
  8
DEFPOINTS
 62
     0
 10
1903.2444535123441
 20
4990.2698635207671
 30
0.0
  0
ENDBLK
  5
813B
  8
0
  0
BLOCK
  8
0
  2
*D21
 70
     1
 10
0.0
 20
0.0
 30
0.0
  3
*D21
  1

  0
LINE
  5
847A
  8
3
 62
     0
 10
934.24445351234488
 20
3916.2316662232311
 30
0.0
 11
934.2444535123451
 21
5025.2698635207671
 31
0.0
  0
LINE
  5
847B
  8
3
 62
     0
 10
1833.244453512345
 20
4990.2698635207671
 30
0.0
 11
1004.244453512345
 21
4990.2698635207671
 31
0.0
  0
INSERT
  5
847C
  8
3
 62
     0
  2
_OPEN
 10
1903.2444535123441
 20
4990.2698635207671
 30
0.0
 41
70.0
 42
70.0
 43
70.0
  0
INSERT
  5
847D
  8
3
 62
     0
  2
_OPEN
 10
934.2444535123451
 20
4990.2698635207671
 30
0.0
 41
70.0
 42
70.0
 43
70.0
 50
180.0
  0
TEXT
  8
3
  40
105
  5
84D1
  62
0
  72
0
  71
0
 10
1208.74
 20
4891.92
 30
0.000000
  1
969
  0
POINT
  5
847F
  8
DEFPOINTS
 62
     0
 10
1903.2444535123441
 20
4864.7275570044076
 30
0.0
  0
POINT
  5
8480
  8
DEFPOINTS
 62
     0
 10
934.24445351234488
 20
3898.7316662232301
 30
0.0
  0
POINT
  5
8481
  8
DEFPOINTS
 62
     0
 10
934.2444535123451
 20
4990.2698635207671
 30
0.0
  0
ENDBLK
  5
8148
  8
0
  0
BLOCK
  8
0
  2
*D22
 70
     1
 10
0.0
 20
0.0
 30
0.0
  3
*D22
  1

  0
LINE
  5
8482
  8
3
 62
     0
 10
2580.744453512345
 20
2625.7316662232301
 30
0.0
 11
3552.6545347454312
 21
2625.7316662232301
 31
0.0
  0
LINE
  5
8483
  8
3
 62
     0
 10
2804.740344293522
 20
3980.7316662232311
 30
0.0
 11
3552.6545347454312
 21
3980.7316662232301
 31
0.0
  0
LINE
  5
8484
  8
3
 62
     0
 10
3517.6545347454298
 20
2695.7316662232301
 30
0.0
 11
3517.6545347454312
 21
3910.7316662232301
 31
0.0
  0
INSERT
  5
8485
  8
3
 62
     0
  2
_OPEN
 10
3517.6545347454298
 20
2625.7316662232301
 30
0.0
 41
70.0
 42
70.0
 43
70.0
 50
270.0
  0
INSERT
  5
8486
  8
3
 62
     0
  2
_OPEN
 10
3517.6545347454312
 20
3980.7316662232301
 30
0.0
 41
70.0
 42
70.0
 43
70.0
 50
90.0
  0
TEXT
  8
3
  40
105
  5
84D2
  62
0
  72
0
  71
0
 10
3220.15
 20
3146.97
 30
0.000000
  1
1355
  0
POINT
  5
8488
  8
DEFPOINTS
 62
     0
 10
2563.244453512345
 20
2625.7316662232301
 30
0.0
  0
POINT
  5
8489
  8
DEFPOINTS
 62
     0
 10
2787.240344293522
 20
3980.7316662232311
 30
0.0
  0
POINT
  5
848A
  8
DEFPOINTS
 62
     0
 10
3517.6545347454312
 20
3980.7316662232301
 30
0.0
  0
ENDBLK
  5
8155
  8
0
  0
BLOCK
  8
0
  2
*D23
 70
     1
 10
0.0
 20
0.0
 30
0.0
  3
*D23
  1

  0
LINE
  5
848B
  8
3
 62
     0
 10
1838.744453512345
 20
4785.7316662232297
 30
0.0
 11
3552.6545347454298
 21
4785.7316662232297
 31
0.0
  0
LINE
  5
848C
  8
3
 62
     0
 10
3517.6545347454298
 20
4050.7316662232311
 30
0.0
 11
3517.6545347454298
 21
4715.7316662232297
 31
0.0
  0
INSERT
  5
848D
  8
3
 62
     0
  2
_OPEN
 10
3517.6545347454298
 20
3980.7316662232301
 30
0.0
 41
70.0
 42
70.0
 43
70.0
 50
270.0
  0
INSERT
  5
848E
  8
3
 62
     0
  2
_OPEN
 10
3517.6545347454298
 20
4785.7316662232297
 30
0.0
 41
70.0
 42
70.0
 43
70.0
 50
90.0
  0
TEXT
  8
3
  40
105
  5
84D3
  62
0
  72
0
  71
0
 10
3220.15
 20
4197.38
 30
0.000000
  1
805
  0
POINT
  5
8490
  8
DEFPOINTS
 62
     0
 10
2787.240344293522
 20
3980.7316662232311
 30
0.0
  0
POINT
  5
8491
  8
DEFPOINTS
 62
     0
 10
1821.244453512345
 20
4785.7316662232297
 30
0.0
  0
POINT
  5
8492
  8
DEFPOINTS
 62
     0
 10
3517.6545347454298
 20
4785.7316662232297
 30
0.0
  0
ENDBLK
  5
8161
  8
0
  0
BLOCK
  8
0
  2
*D24
 70
     1
 10
0.0
 20
0.0
 30
0.0
  3
*D24
  1

  0
LINE
  5
8493
  8
3
 62
     0
 10
6200.4400047573126
 20
4540.7316662232288
 30
0.0
 11
6549.4261533025938
 21
4540.7316662232288
 31
0.0
  0
LINE
  5
8494
  8
3
 62
     0
 10
6200.440004757309
 20
3420.7316662232288
 30
0.0
 11
6549.4261533025938
 21
3420.7316662232288
 31
0.0
  0
LINE
  5
8495
  8
3
 62
     0
 10
6514.4261533025929
 20
4470.7316662232288
 30
0.0
 11
6514.4261533025929
 21
3490.7316662232288
 31
0.0
  0
INSERT
  5
8496
  8
3
 62
     0
  2
_OPEN
 10
6514.4261533025929
 20
4540.7316662232288
 30
0.0
 41
70.0
 42
70.0
 43
70.0
 50
90.0
  0
INSERT
  5
8497
  8
3
 62
     0
  2
_OPEN
 10
6514.4261533025929
 20
3420.7316662232288
 30
0.0
 41
70.0
 42
70.0
 43
70.0
 50
270.0
  0
TEXT
  8
3
  40
105
  5
84D4
  62
0
  72
0
  71
0
 10
6216.93
 20
3794.88
 30
0.000000
  1
φ1120
  0
POINT
  5
8499
  8
DEFPOINTS
 62
     0
 10
6182.9400047573126
 20
4540.7316662232288
 30
0.0
  0
POINT
  5
849A
  8
DEFPOINTS
 62
     0
 10
6182.940004757309
 20
3420.7316662232288
 30
0.0
  0
POINT
  5
849B
  8
DEFPOINTS
 62
     0
 10
6514.4261533025929
 20
3420.7316662232288
 30
0.0
  0
ENDBLK
  5
82F2
  8
0
  0
BLOCK
  8
0
  2
*D25
 70
     1
 10
0.0
 20
0.0
 30
0.0
  3
*D25
  1

  0
LINE
  5
849C
  8
3
 62
     0
 10
2580.744453512345
 20
2510.7316662232311
 30
0.0
 11
3549.3602749652782
 21
2510.7316662232301
 31
0.0
  0
LINE
  5
849D
  8
3
 62
     0
 10
2580.744453512345
 20
2625.7316662232301
 30
0.0
 11
3549.3602749652782
 21
2625.7316662232301
 31
0.0
  0
LINE
  5
849E
  8
3
 62
     0
 10
3514.3602749652782
 20
2440.7316662232301
 30
0.0
 11
3514.3602749652782
 21
2370.7316662232301
 31
0.0
  0
LINE
  5
849F
  8
3
 62
     0
 10
3514.3602749652782
 20
2695.7316662232301
 30
0.0
 11
3514.3602749652782
 21
2765.7316662232301
 31
0.0
  0
LINE
  5
84A0
  8
3
 62
     0
 10
3514.3602749652782
 20
2568.2316662232301
 30
0.0
 11
3841.8602749652782
 21
2666.4816662232301
 31
0.0
  0
LINE
  5
84A1
  8
3
 62
     0
 10
3841.8602749652782
 20
2666.4816662232301
 30
0.0
 11
3841.8602749652782
 21
3101.4816662232301
 31
0.0
  0
TEXT
  8
3
  40
105
  5
84D5
  62
0
  72
0
  71
0
 10
3516.86
 20
2698.13
 30
0.000000
  1
(115)
  0
LINE
  5
84A3
  8
3
 62
     0
 10
3514.3602749652782
 20
2510.7316662232301
 30
0.0
 11
3514.3602749652782
 21
2625.7316662232301
 31
0.0
  0
LINE
  5
84A4
  8
3
 62
     0
 10
3514.3602749652782
 20
2510.7316662232301
 30
0.0
 11
3514.3602749652782
 21
2625.7316662232301
 31
0.0
  0
INSERT
  5
84A5
  8
3
 62
     0
  2
_DOT
 10
3514.3602749652782
 20
2510.7316662232301
 30
0.0
 41
70.0
 42
70.0
 43
70.0
 50
90.0
  0
INSERT
  5
84A6
  8
3
 62
     0
  2
_OPEN
 10
3514.3602749652782
 20
2625.7316662232301
 30
0.0
 41
70.0
 42
70.0
 43
70.0
 50
270.0
  0
POINT
  5
84A7
  8
DEFPOINTS
 62
     0
 10
2563.244453512345
 20
2510.7316662232311
 30
0.0
  0
POINT
  5
84A8
  8
DEFPOINTS
 62
     0
 10
2563.244453512345
 20
2625.7316662232301
 30
0.0
  0
POINT
  5
84A9
  8
DEFPOINTS
 62
     0
 10
3514.3602749652782
 20
2625.7316662232301
 30
0.0
  0
ENDBLK
  5
839C
  8
0
  0
BLOCK
  8
0
  2
*D26
 70
     1
 10
0.0
 20
0.0
 30
0.0
  3
*D26
  1

  0
LINE
  5
84AA
  8
3
 62
     0
 10
1856.244453512345
 20
4785.7316662232297
 30
0.0
 11
3960.0461048084262
 21
4785.7316662232297
 31
0.0
  0
LINE
  5
84AB
  8
3
 62
     0
 10
2580.744453512345
 20
2385.7316662232301
 30
0.0
 11
3960.0461048084248
 21
2385.7316662232301
 31
0.0
  0
LINE
  5
84AC
  8
3
 62
     0
 10
3925.0461048084262
 20
4715.7316662232297
 30
0.0
 11
3925.0461048084248
 21
2455.7316662232301
 31
0.0
  0
INSERT
  5
84AD
  8
3
 62
     0
  2
_OPEN
 10
3925.0461048084262
 20
4785.7316662232297
 30
0.0
 41
70.0
 42
70.0
 43
70.0
 50
90.0
  0
INSERT
  5
84AE
  8
3
 62
     0
  2
_OPEN
 10
3925.0461048084248
 20
2385.7316662232301
 30
0.0
 41
70.0
 42
70.0
 43
70.0
 50
270.0
  0
TEXT
  8
3
  40
105
  5
84D6
  62
0
  72
0
  71
0
 10
3600.05
 20
3399.88
 30
0.000000
  1
(2400)
  0
POINT
  5
84B0
  8
DEFPOINTS
 62
     0
 10
1838.744453512345
 20
4785.7316662232297
 30
0.0
  0
POINT
  5
84B1
  8
DEFPOINTS
 62
     0
 10
2563.244453512345
 20
2385.7316662232301
 30
0.0
  0
POINT
  5
84B2
  8
DEFPOINTS
 62
     0
 10
3925.0461048084248
 20
2385.7316662232301
 30
0.0
  0
ENDBLK
  5
83A9
  8
0
  0
BLOCK
  8
0
  2
*D27
 70
     1
 10
0.0
 20
0.0
 30
0.0
  3
*D27
  1

  0
LINE
  5
84B3
  8
3
 62
     0
 10
2580.744453512345
 20
2510.7316662232311
 30
0.0
 11
3549.3602749652782
 21
2510.7316662232301
 31
0.0
  0
LINE
  5
84B4
  8
3
 62
     0
 10
2580.744453512345
 20
2385.7316662232301
 30
0.0
 11
3549.3602749652782
 21
2385.7316662232301
 31
0.0
  0
LINE
  5
84B5
  8
3
 62
     0
 10
3514.3602749652782
 20
2580.7316662232301
 30
0.0
 11
3514.3602749652782
 21
2650.7316662232301
 31
0.0
  0
LINE
  5
84B6
  8
3
 62
     0
 10
3514.3602749652782
 20
2315.7316662232301
 30
0.0
 11
3514.3602749652782
 21
1925.7316662232299
 31
0.0
  0
LINE
  5
84B7
  8
3
 62
     0
 10
3514.3602749652782
 20
2510.7316662232301
 30
0.0
 11
3514.3602749652782
 21
2385.7316662232301
 31
0.0
  0
INSERT
  5
84B8
  8
3
 62
     0
  2
_DOT
 10
3514.3602749652782
 20
2510.7316662232301
 30
0.0
 41
70.0
 42
70.0
 43
70.0
 50
270.0
  0
INSERT
  5
84B9
  8
3
 62
     0
  2
_OPEN
 10
3514.3602749652782
 20
2385.7316662232301
 30
0.0
 41
70.0
 42
70.0
 43
70.0
 50
90.0
  0
TEXT
  8
3
  40
105
  5
84D7
  62
0
  72
0
  71
0
 10
3216.86
 20
1899.88
 30
0.000000
  1
125
  0
POINT
  5
84BB
  8
DEFPOINTS
 62
     0
 10
2563.244453512345
 20
2510.7316662232311
 30
0.0
  0
POINT
  5
84BC
  8
DEFPOINTS
 62
     0
 10
2563.244453512345
 20
2385.7316662232301
 30
0.0
  0
POINT
  5
84BD
  8
DEFPOINTS
 62
     0
 10
3514.3602749652782
 20
2385.7316662232301
 30
0.0
  0
ENDBLK
  5
83B8
  8
0
  0
ENDSEC
  0
SECTION
  2
ENTITIES
  0
INSERT
  5
7AD0
  8
0
  2
YA_N
 10
275.18706682008099
 20
57.69095189364441
 30
0.0
  0
LINE
  5
7AD3
  8
2
 10
1903.2444535123441
 20
2385.7316662232301
 30
0.0
 11
1903.2444535123441
 21
4864.7275570044076
 31
0.0
  0
LINE
  5
7AD9
  8
1
 10
2563.244453512345
 20
2625.7316662232301
 30
0.0
 11
803.24445351234692
 21
2625.7316662232301
 31
0.0
1001
ACAD
1000
ASC_BOUNDS
1002
{
1070
    19
1005
0
1005
0
1002
}
  0
LINE
  5
7ADA
  8
1
 10
2563.244453512345
 20
2750.7316662232301
 30
0.0
 11
2563.244453512345
 21
2625.7316662232301
 31
0.0
  0
LINE
  5
7ADB
  8
1
 10
2563.244453512345
 20
2750.7316662232301
 30
0.0
 11
793.24445351234681
 21
2750.7316662232301
 31
0.0
  0
LINE
  5
7AE1
  8
2
 10
1053.244453512345
 20
3298.9300210577348
 30
0.0
 11
1053.2444535123459
 21
2625.7316662232301
 31
0.0
  0
LINE
  5
7AE2
  8
2
 10
4458.1407484632336
 20
3010.7316662232311
 30
0.0
 11
4302.4444802595908
 21
3010.7316662232311
 31
0.0
  0
LINE
  5
7AE4
  8
1
 10
4417.9400047573081
 20
2750.7316662232301
 30
0.0
 11
5279.9400047573099
 21
2750.7316662232301
 31
0.0
  0
LINE
  5
7AE5
  8
1
 10
4417.9400047573081
 20
2750.7316662232301
 30
0.0
 11
4417.9400047573081
 21
2625.7316662232301
 31
0.0
  0
LINE
  5
7AE6
  8
1
 10
6252.9400047573108
 20
2750.7316662232301
 30
0.0
 11
6252.940004757309
 21
2625.7316662232301
 31
0.0
  0
LINE
  5
7AE7
  8
1
 10
6252.940004757309
 20
2750.7316662232301
 30
0.0
 11
6252.940004757309
 21
2745.5006504295202
 31
0.0
  0
LINE
  5
7AE8
  8
1
 10
4417.9400047573081
 20
2625.7316662232301
 30
0.0
 11
6252.9400047573108
 21
2625.7316662232301
 31
0.0
1001
ACAD
1000
ASC_BOUNDS
1002
{
1070
    19
1002
}
  0
LINE
  5
7AE9
  8
2
 10
4302.0222093483189
 20
3980.7316662232288
 30
0.0
 11
6290.1498232362846
 21
3980.7316662232288
 31
0.0
  0
LINE
  5
7AEA
  8
2
 10
5757.9400047573081
 20
5093.1319041286633
 30
0.0
 11
5757.9400047573081
 21
2385.7316662232301
 31
0.0
  0
INSERT
  5
7AEC
  8
0
  2
YA_N
 10
-805.59225922110249
 20
-1258.9783687196441
 30
0.0
 41
25.0
 42
25.0
 43
25.0
  0
INSERT
  5
7AEE
  8
0
  2
YA_N
 10
-77.754580822312846
 20
-323.11650731075139
 30
0.0
 41
25.0
 42
25.0
 43
25.0
  0
ARC
  5
7AF1
  8
1
 10
1053.244453512345
 20
3010.7316662232311
 30
0.0
 40
203.5
 50
285.60369900000001
 51
254.39624000000001
  0
LINE
  5
7AF2
  8
1
 10
998.50641651234594
 20
2814.7316662232301
 30
0.0
 11
1107.9824905123451
 21
2814.7316662232301
 31
0.0
  0
ARC
  5
7AF3
  8
1
 10
1239.244453512345
 20
2827.7316662232301
 30
0.0
 40
3.0
 50
0.0
 51
90.0
  0
ARC
  5
7AF4
  8
1
 10
1237.244453512345
 20
2885.0583272232302
 30
0.0
 40
5.0000669999999987
 50
0.0
 51
55.056334999999997
  0
LINE
  5
7AF5
  8
1
 10
1242.244453512345
 20
2885.0583272232302
 30
0.0
 11
1242.244453512345
 21
2810.7316662232301
 31
0.0
  0
LINE
  5
7AF6
  8
1
 10
1221.494453512345
 20
2830.7316662232311
 30
0.0
 11
1221.494453512345
 21
2810.7316662232301
 31
0.0
  0
LINE
  5
7AF7
  8
1
 10
1202.994453512345
 20
2830.7316662232311
 30
0.0
 11
1202.994453512345
 21
2810.7316662232301
 31
0.0
  0
LINE
  5
7AF8
  8
1
 10
1212.244453512345
 20
2835.1554942232301
 30
0.0
 11
1212.244453512345
 21
2806.039772223231
 31
0.0
  0
LINE
  5
7AF9
  8
1
 10
1157.347023512345
 20
2835.874855223231
 30
0.0
 11
1162.744453512345
 21
2815.7316662232301
 31
0.0
  0
LINE
  5
7AFA
  8
1
 10
1162.744453512345
 20
2827.7316662232301
 30
0.0
 11
1162.744453512345
 21
2810.7316662232301
 31
0.0
  0
LINE
  5
7AFB
  8
1
 10
1165.7444535123441
 20
2830.7316662232311
 30
0.0
 11
1239.244453512345
 21
2830.7316662232311
 31
0.0
  0
ARC
  5
7AFC
  8
1
 10
1165.7444535123441
 20
2827.7316662232301
 30
0.0
 40
3.0
 50
90.0
 51
180.0
  0
LINE
  5
7AFD
  8
1
 10
1240.1082235123449
 20
2889.1569592232299
 30
0.0
 11
1224.1703575123461
 21
2900.2934342232311
 31
0.0
  0
LINE
  5
7AFE
  8
1
 10
864.24445351234499
 20
2885.0583272232302
 30
0.0
 11
864.24445351234499
 21
2810.7316662232301
 31
0.0
  0
LINE
  5
7AFF
  8
1
 10
884.99445351234499
 20
2830.7316662232311
 30
0.0
 11
884.99445351234499
 21
2810.7316662232301
 31
0.0
  0
LINE
  5
7B00
  8
1
 10
903.49445351234499
 20
2830.7316662232311
 30
0.0
 11
903.49445351234499
 21
2810.7316662232301
 31
0.0
  0
LINE
  5
7B01
  8
1
 10
894.24445351234488
 20
2835.1554942232301
 30
0.0
 11
894.24445351234488
 21
2806.039772223231
 31
0.0
  0
LINE
  5
7B02
  8
1
 10
949.1416705123446
 20
2835.87497722323
 30
0.0
 11
943.74445351234499
 21
2815.7316662232301
 31
0.0
  0
LINE
  5
7B03
  8
1
 10
943.74445351234499
 20
2827.7316662232301
 30
0.0
 11
943.74445351234499
 21
2810.7316662232301
 31
0.0
  0
LINE
  5
7B04
  8
1
 10
940.74445351234488
 20
2830.7316662232311
 30
0.0
 11
867.24445351234499
 21
2830.7316662232311
 31
0.0
  0
ARC
  5
7B05
  8
1
 10
940.74445351234488
 20
2827.7316662232301
 30
0.0
 40
3.0
 50
0.0
 51
90.0
  0
ARC
  5
7B06
  8
1
 10
867.24445351234499
 20
2827.7316662232301
 30
0.0
 40
3.0
 50
90.0
 51
180.0
  0
LINE
  5
7B07
  8
1
 10
866.38056251234582
 20
2889.1569592232299
 30
0.0
 11
882.31842851234614
 21
2900.2934342232311
 31
0.0
  0
ARC
  5
7B08
  8
1
 10
869.24445351234488
 20
2885.0583272232302
 30
0.0
 40
5.0
 50
124.94366100000001
 51
180.0
  0
LINE
  5
7B09
  8
1
 10
1297.306709560434
 20
2810.7316662232301
 30
0.0
 11
1123.244453512345
 21
2810.7316662232301
 31
0.0
  0
LINE
  5
7B0A
  8
1
 10
1313.2444535123459
 20
2750.7316662232301
 30
0.0
 11
1297.306709560434
 21
2810.7316662232301
 31
0.0
  0
LINE
  5
7B0B
  8
1
 10
793.24445351234681
 20
2750.7316662232301
 30
0.0
 11
809.2294634187092
 21
2810.7316662232301
 31
0.0
  0
LINE
  5
7B0C
  8
1
 10
1123.2444535123459
 20
2760.7316662232311
 30
0.0
 11
983.24445351234669
 21
2760.7316662232311
 31
0.0
  0
LINE
  5
7B0D
  8
1
 10
1123.244453512345
 20
2800.7316662232301
 30
0.0
 11
983.24445351234669
 21
2800.7316662232301
 31
0.0
  0
LINE
  5
7B0E
  8
1
 10
983.24445351234669
 20
2810.7316662232301
 30
0.0
 11
983.24445351234669
 21
2800.7316662232301
 31
0.0
  0
LINE
  5
7B0F
  8
1
 10
1123.2444535123459
 20
2810.7316662232301
 30
0.0
 11
1123.2444535123459
 21
2800.7316662232301
 31
0.0
  0
LINE
  5
7B10
  8
1
 10
983.24445351234669
 20
2760.7316662232311
 30
0.0
 11
983.24445351234499
 21
2750.7316662232301
 31
0.0
  0
LINE
  5
7B11
  8
1
 10
1123.2444535123459
 20
2760.7316662232311
 30
0.0
 11
1123.2444535123459
 21
2750.7316662232301
 31
0.0
  0
LINE
  5
7B12
  8
1
 10
983.24445351234669
 20
2810.7316662232301
 30
0.0
 11
809.2294634187092
 21
2810.7316662232301
 31
0.0
  0
LINE
  5
7B13
  8
1
 10
894.24445351234488
 20
2757.3731722548491
 30
0.0
 11
894.24445351234488
 21
2728.2574502548491
 31
0.0
  0
LINE
  5
7B14
  8
1
 10
1212.244453512345
 20
2757.3731722548491
 30
0.0
 11
1212.244453512345
 21
2728.2574502548491
 31
0.0
  0
CIRCLE
  5
7B15
  8
1
 10
1053.244453512345
 20
3010.7316662232311
 30
0.0
 40
118.0
  0
INSERT
  5
7B16
  8
0
  2
YA_N
 10
-125.28520241714951
 20
-378.20747810478872
 30
0.0
 41
25.0
 42
25.0
 43
25.0
  0
LINE
  5
7B18
  8
1
 10
5330.6400047573088
 20
2779.7316662232311
 30
0.0
 11
5330.6400047573088
 21
3935.7316662232301
 31
0.0
  0
LINE
  5
7B19
  8
1
 10
5332.9400047573099
 20
2779.7316662232311
 30
0.0
 11
5332.9400047573108
 21
3935.7316662232301
 31
0.0
  0
LINE
  5
7B1A
  8
1
 10
6182.9400047573072
 20
2779.7316662232311
 30
0.0
 11
6182.9400047573108
 21
3935.7316662232301
 31
0.0
  0
LINE
  5
7B1C
  8
1
 10
803.24445351234692
 20
2750.7316662232301
 30
0.0
 11
803.24445351234692
 21
2625.7316662232301
 31
0.0
  0
POINT
  5
7B21
  8
1
 10
2563.244453512345
 20
2750.7316662232301
 30
0.0
  0
POINT
  5
7B22
  8
1
 10
2563.244453512345
 20
2625.7316662232301
 30
0.0
  0
POINT
  5
7B23
  8
1
 10
2563.244453512345
 20
2750.7316662232301
 30
0.0
  0
LINE
  5
7B25
  8
1
 10
2303.2444535123441
 20
2625.7316662232301
 30
0.0
 11
2303.2444535123441
 21
2750.7316662232301
 31
0.0
  0
LINE
  5
7B37
  8
1
 10
2563.244453512345
 20
7683.7675927715281
 30
0.0
 11
1243.244453512345
 21
7683.7675927715281
 31
0.0
  0
LINE
  5
7B38
  8
1
 10
2563.244453512345
 20
7683.7675927715281
 30
0.0
 11
2563.244453512345
 21
7613.7675927715254
 31
0.0
  0
LINE
  5
7B39
  8
1
 10
1243.244453512345
 20
7683.7675927715281
 30
0.0
 11
1243.244453512345
 21
7616.0675927715247
 31
0.0
  0
LINE
  5
7B3A
  8
1
 10
803.24445351234488
 20
6758.7675927715281
 30
0.0
 11
803.24445351234488
 21
5848.7675927715281
 31
0.0
  0
LINE
  5
7B3B
  8
1
 10
2303.2444535123441
 20
5848.7675927715281
 30
0.0
 11
803.24445351234488
 21
5848.7675927715281
 31
0.0
  0
LINE
  5
7B3C
  8
1
 10
2563.244453512345
 20
6693.7675927715281
 30
0.0
 11
2303.2444535123441
 21
6693.7675927715281
 31
0.0
  0
LINE
  5
7B3D
  8
1
 10
2303.2444535123441
 20
6693.7675927715281
 30
0.0
 11
2303.2444535123441
 21
5848.7675927715281
 31
0.0
  0
POINT
  5
7B3E
  8
1
 10
1503.244453512345
 20
5848.7675927715281
 30
0.0
  0
LINE
  5
7B3F
  8
1
 10
4480.940004757309
 20
3880.7316662232288
 30
0.0
 11
4480.940004757309
 21
2750.7316662232301
 31
0.0
  0
LINE
  5
7B40
  8
1
 10
4480.940004757309
 20
3880.7316662232288
 30
0.0
 11
5234.940004757309
 21
3880.7316662232288
 31
0.0
  0
LINE
  5
7B41
  8
1
 10
5234.9400047573099
 20
3880.7316662232288
 30
0.0
 11
5234.9400047573072
 21
2750.7316662232301
 31
0.0
  0
LINE
  5
7B42
  8
1
 10
4327.940004757309
 20
4183.9316662232286
 30
0.0
 11
4437.9400047573072
 21
4183.9316662232286
 31
0.0
  0
LINE
  5
7B43
  8
1
 10
4327.9400047573117
 20
3777.5316662232299
 30
0.0
 11
4437.9400047573108
 21
3777.5316662232299
 31
0.0
  0
LINE
  5
7B44
  8
1
 10
4327.9400047573072
 20
4183.9316662232286
 30
0.0
 11
4327.9400047573163
 21
2891.7316662232301
 31
0.0
  0
LINE
  5
7B45
  8
1
 10
4437.9400047573117
 20
3129.7316662232301
 30
0.0
 11
4327.9400047573117
 21
3129.7316662232301
 31
0.0
  0
LINE
  5
7B46
  8
1
 10
4437.9400047573135
 20
2891.7316662232301
 30
0.0
 11
4327.9400047573154
 21
2891.7316662232301
 31
0.0
  0
LINE
  5
7B47
  8
1
 10
4437.9400047573072
 20
4183.9316662232286
 30
0.0
 11
4437.9400047573163
 21
2891.7316662232301
 31
0.0
  0
LINE
  5
7B48
  8
1
 10
4470.9400047573081
 20
4260.7316662232279
 30
0.0
 11
4470.9400047573081
 21
2790.7316662232301
 31
0.0
  0
LINE
  5
7B49
  8
1
 10
4270.940004757309
 20
4260.7316662232279
 30
0.0
 11
4270.940004757309
 21
2790.7316662232301
 31
0.0
  0
LINE
  5
7B4A
  8
1
 10
4270.940004757309
 20
4260.7316662232279
 30
0.0
 11
4470.9400047573081
 21
4260.7316662232279
 31
0.0
  0
LINE
  5
7B4B
  8
1
 10
4470.9400047573081
 20
2790.7316662232301
 30
0.0
 11
4270.940004757309
 21
2790.7316662232301
 31
0.0
  0
LINE
  5
7B4C
  8
2
 10
1315.027759447948
 20
3010.7316662232311
 30
0.0
 11
748.38141561702469
 21
3010.7316662232311
 31
0.0
  0
LINE
  5
7B4D
  8
1
 10
4437.940004757309
 20
4020.7316662232288
 30
0.0
 11
5330.6400047573097
 21
4020.7316662232288
 31
0.0
  0
LINE
  5
7B4E
  8
1
 10
4437.9400047573099
 20
3940.7316662232288
 30
0.0
 11
5279.940004757309
 21
3940.7316662232288
 31
0.0
  0
POINT
  5
7B58
  8
1
 10
2563.244453512345
 20
2625.7316662232301
 30
0.0
  0
POINT
  5
7B59
  8
1
 10
4270.940004757309
 20
4260.7316662232279
 30
0.0
  0
ARC
  5
7B5B
  8
1
 10
1053.244453512345
 20
3010.7316662232311
 30
0.0
 40
220.0
 50
141.4387266550537
 51
316.1058405637059
  0
LINE
  5
7B63
  8
2
 10
1903.2444535123441
 20
5622.0116577251356
 30
0.0
 11
1903.2444535123441
 21
7720.9774112505047
 31
0.0
  0
LINE
  5
7B64
  8
1
 10
2613.2444535123441
 20
6763.7675927715291
 30
0.0
 11
934.24445351234488
 21
6763.7675927715291
 31
0.0
  0
LINE
  5
7B65
  8
1
 10
2183.244453512345
 20
5701.7675927715281
 30
0.0
 11
833.24445351234499
 21
5701.7675927715281
 31
0.0
  0
LINE
  5
7B66
  8
1
 10
2183.244453512345
 20
5901.7675927715281
 30
0.0
 11
833.24445351234499
 21
5901.7675927715281
 31
0.0
  0
LINE
  5
7B67
  8
1
 10
2106.4444535123448
 20
5868.7675927715254
 30
0.0
 11
934.24445351234488
 21
5868.7675927715354
 31
0.0
  0
LINE
  5
7B68
  8
1
 10
2106.444453512343
 20
5758.7675927715236
 30
0.0
 11
934.24445351234488
 21
5758.7675927715354
 31
0.0
  0
LINE
  5
7B69
  8
1
 10
1648.244453512345
 20
6665.7675927715272
 30
0.0
 11
1863.244453512345
 21
6665.7675927715291
 31
0.0
  0
LINE
  5
7B6A
  8
1
 10
2158.244453512345
 20
5911.7675927715281
 30
0.0
 11
1943.2444535123459
 21
5911.7675927715281
 31
0.0
  0
LINE
  5
7B6B
  8
1
 10
833.24445351234499
 20
5901.7675927715281
 30
0.0
 11
833.24445351234499
 21
5701.7675927715281
 31
0.0
  0
LINE
  5
7B6C
  8
1
 10
934.24445351234488
 20
5868.7675927715318
 30
0.0
 11
934.24445351234488
 21
5758.7675927715318
 31
0.0
  0
LINE
  5
7B6D
  8
1
 10
1943.244453512345
 20
5868.7675927715281
 30
0.0
 11
1943.244453512345
 21
6763.7675927715281
 31
0.0
  0
LINE
  5
7B6E
  8
1
 10
1863.244453512345
 20
5868.7675927715281
 30
0.0
 11
1863.244453512345
 21
6763.7675927715281
 31
0.0
  0
LINE
  5
7B6F
  8
1
 10
1172.244453512345
 20
5868.7675927715318
 30
0.0
 11
1172.244453512345
 21
5758.7675927715318
 31
0.0
  0
LINE
  5
7B70
  8
1
 10
1700.0444535123461
 20
5758.7675927715318
 30
0.0
 11
1700.0444535123461
 21
5868.7675927715281
 31
0.0
  0
LINE
  5
7B71
  8
1
 10
2183.244453512345
 20
5701.7675927715281
 30
0.0
 11
2183.244453512345
 21
5901.7675927715281
 31
0.0
  0
LINE
  5
7B72
  8
1
 10
2106.4444535123448
 20
5758.7675927715281
 30
0.0
 11
2106.4444535123448
 21
5868.7675927715254
 31
0.0
  0
POINT
  5
7B73
  8
1
 10
2183.244453512345
 20
5701.7675927715281
 30
0.0
  0
LINE
  5
7B75
  8
1
 10
2613.2444535123441
 20
7616.0675927715283
 30
0.0
 11
934.24445351234488
 21
7616.0675927715247
 31
0.0
  0
LINE
  5
7B76
  8
1
 10
2613.2444535123441
 20
7613.7675927715254
 30
0.0
 11
934.24445351234488
 21
7613.76759277153
 31
0.0
  0
LINE
  5
7B77
  8
2
 10
582.21747852122644
 20
7188.7675927715263
 30
0.0
 11
2881.380220998909
 21
7188.7675927715281
 31
0.0
  0
LINE
  5
7B7E
  8
2
 10
1053.244453512345
 20
6565.6400606813149
 30
0.0
 11
1053.244453512345
 21
5596.3840879366162
 31
0.0
  0
LINE
  5
7B7F
  8
1
 10
853.24445351234488
 20
6561.2675927725249
 30
0.0
 11
1253.2444535123429
 21
6561.2675927725231
 31
0.0
  0
LINE
  5
7B80
  8
1
 10
853.24445351234488
 20
6031.767592772524
 30
0.0
 11
853.24445351234488
 21
6561.2675927725249
 31
0.0
  0
LINE
  5
7B81
  8
1
 10
1253.244453512347
 20
5925.4105116901092
 30
0.0
 11
853.24445351234488
 21
5925.4105116901092
 31
0.0
  0
LINE
  5
7B82
  8
1
 10
853.24445351234488
 20
5925.4105116901092
 30
0.0
 11
853.24445351234488
 21
6084.2675927725249
 31
0.0
  0
LINE
  5
7B83
  8
1
 10
1083.244453512345
 20
5758.7675927715327
 30
0.0
 11
1083.2444535123459
 21
5898.7675927676619
 31
0.0
  0
LINE
  5
7B84
  8
1
 10
1023.244453512346
 20
5758.7675927715327
 30
0.0
 11
1023.244453512346
 21
5898.7675927676619
 31
0.0
  0
LINE
  5
7B85
  8
1
 10
992.5270045297475
 20
5903.7675927725249
 30
0.0
 11
1113.961902494942
 21
5903.7675927725249
 31
0.0
  0
LINE
  5
7B86
  8
1
 10
1013.8231445664979
 20
5898.7675927676619
 30
0.0
 11
1090.665762458191
 21
5898.7675927676619
 31
0.0
  0
LINE
  5
7B87
  8
1
 10
992.5270045297475
 20
5925.4105116901092
 30
0.0
 11
992.5270045297475
 21
5903.7675927725249
 31
0.0
  0
LINE
  5
7B88
  8
1
 10
1013.8231445664979
 20
5898.7675927676619
 30
0.0
 11
1013.8231445665
 21
5903.7675927725249
 31
0.0
  0
LINE
  5
7B89
  8
1
 10
1090.665762458191
 20
5898.7675927676619
 30
0.0
 11
1090.665762458191
 21
5903.7675927725249
 31
0.0
  0
LINE
  5
7B8A
  8
1
 10
1113.961902494942
 20
5925.4105116901092
 30
0.0
 11
1113.961902494942
 21
5903.7675927725249
 31
0.0
  0
LINE
  5
7B8B
  8
1
 10
1083.244453512345
 20
5758.7675927715327
 30
0.0
 11
1023.244453512345
 21
5758.7675927715327
 31
0.0
  0
LINE
  5
7B8C
  8
1
 10
1253.244453512345
 20
5925.4105116901092
 30
0.0
 11
1253.2444535123429
 21
6561.2675927725231
 31
0.0
  0
LINE
  5
7B8F
  8
1
 10
1943.244453512345
 20
6665.7675927715291
 30
0.0
 11
2158.244453512345
 21
6665.7675927715272
 31
0.0
  0
LINE
  5
7B90
  8
1
 10
1863.2444535123459
 20
5911.7675927715281
 30
0.0
 11
1648.244453512345
 21
5911.7675927715281
 31
0.0
  0
DIMENSION
  5
7BA3
  8
3
  2
*D2
 10
3190.553871923425
 20
6693.7675927715281
 30
0.0
 11
3190.5538719234241
 21
7190.8552420415108
 31
0.0
 70
   128
 13
2563.244453512345
 23
7683.7675927715281
 33
0.0
 14
2563.244453512345
 24
6693.7675927715281
 34
0.0
 50
90.0
1001
ACAD
1000
DSTYLE
1002
{
1070
   287
1070
     3
1070
    40
1040
35.0
1070
   143
1040
0.039
1070
   172
1070
     1
1070
   271
1070
     0
1070
   279
1070
     0
1070
   288
1070
     1
1002
}
  0
LINE
  5
7BB1
  8
1
 10
2563.244453512345
 20
6763.7675927715291
 30
0.0
 11
2563.244453512345
 21
6693.7675927715281
 31
0.0
  0
DIMENSION
  5
7BBF
  8
3
  2
*D3
 10
3190.5538719234241
 20
5848.7675927715281
 30
0.0
 11
3103.0538719234228
 21
6271.2675927715291
 31
0.0
 70
     0
 13
2563.244453512345
 23
6693.7675927715281
 33
0.0
 14
2303.2444535123441
 24
5848.7675927715281
 34
0.0
 50
90.0
1001
ACAD
1000
DSTYLE
1002
{
1070
   287
1070
     4
1070
    40
1040
35.0
1070
    75
1070
     1
1070
   143
1040
0.039
1070
   172
1070
     1
1070
   271
1070
     0
1070
   279
1070
     1
1070
   288
1070
     1
1002
}
  0
DIMENSION
  5
7BCE
  8
3
  2
*D4
 10
2303.2444535123441
 20
5386.5740510801079
 30
0.0
 11
2803.244453512345
 21
5386.5740510801079
 31
0.0
 70
   128
 13
2563.244453512345
 23
6693.7675927715281
 33
0.0
 14
2303.2444535123441
 24
5848.7675927715281
 34
0.0
1001
ACAD
1000
DSTYLE
1002
{
1070
   287
1070
     3
1070
    40
1040
35.0
1070
   143
1040
0.039
1070
   172
1070
     1
1070
   271
1070
     0
1070
   279
1070
     0
1070
   288
1070
     1
1002
}
  0
DIMENSION
  5
7BE6
  8
3
  2
*D5
 10
803.24445351234488
 20
5386.5740510801079
 30
0.0
 11
1553.244453512345
 21
5474.0740510801079
 31
0.0
 70
     0
 13
2303.2444535123441
 23
5848.7675927715281
 33
0.0
 14
803.24445351234488
 24
5848.7675927715281
 34
0.0
1001
ACAD
1000
DSTYLE
1002
{
1070
   287
1070
     4
1070
    40
1040
35.0
1070
    75
1070
     1
1070
   143
1040
0.039
1070
   172
1070
     1
1070
   271
1070
     0
1070
   279
1070
     1
1070
   288
1070
     1
1002
}
  0
DIMENSION
  5
7BF3
  8
3
  2
*D6
 10
372.85267265174582
 20
6758.7675927715263
 30
0.0
 11
372.85267265174468
 21
6258.2074768975936
 31
0.0
 70
   128
 13
803.24445351234488
 23
5848.7675927715281
 33
0.0
 14
803.24445351234488
 24
6758.7675927715263
 34
0.0
 50
90.0
1001
ACAD
1000
DSTYLE
1002
{
1070
   287
1070
     3
1070
    40
1040
35.0
1070
   143
1040
0.039
1070
   172
1070
     1
1070
   271
1070
     0
1070
   279
1070
     0
1070
   288
1070
     1
1002
}
  0
DIMENSION
  5
7BFF
  8
3
  2
*D7
 10
372.85267265174468
 20
7683.7675927715281
 30
0.0
 11
285.35267265174349
 21
7221.2675927715272
 31
0.0
 70
     0
 13
803.24445351234488
 23
6758.7675927715263
 33
0.0
 14
1243.244453512345
 24
7683.7675927715281
 34
0.0
 50
90.0
1001
ACAD
1000
DSTYLE
1002
{
1070
   287
1070
     4
1070
    40
1040
35.0
1070
    75
1070
     1
1070
   143
1040
0.039
1070
   172
1070
     1
1070
   271
1070
     0
1070
   279
1070
     1
1070
   288
1070
     1
1002
}
  0
DIMENSION
  5
7C0E
  8
3
  2
*D8
 10
1243.244453512345
 20
7914.311000374677
 30
0.0
 11
1023.244453512345
 21
7914.311000374677
 31
0.0
 70
   128
 13
803.24445351234488
 23
6758.7675927715263
 33
0.0
 14
1243.244453512345
 24
7683.7675927715281
 34
0.0
1001
ACAD
1000
DSTYLE
1002
{
1070
   287
1070
     3
1070
    40
1040
35.0
1070
   143
1040
0.039
1070
   172
1070
     1
1070
   271
1070
     0
1070
   279
1070
     0
1070
   288
1070
     1
1002
}
  0
DIMENSION
  5
7C1A
  8
3
  2
*D9
 10
2563.244453512345
 20
7914.311000374677
 30
0.0
 11
1903.2444535123441
 21
8001.8110003746779
 31
0.0
 70
     0
 13
1243.244453512345
 23
7683.7675927715281
 33
0.0
 14
2563.244453512345
 24
7683.7675927715281
 34
0.0
1001
ACAD
1000
DSTYLE
1002
{
1070
   287
1070
     4
1070
    40
1040
35.0
1070
    75
1070
     1
1070
   143
1040
0.039
1070
   172
1070
     1
1070
   271
1070
     0
1070
   279
1070
     1
1070
   288
1070
     1
1002
}
  0
DIMENSION
  5
7CC1
  8
3
  2
*D10
 10
1903.2444535123441
 20
2111.6201966049662
 30
0.0
 11
1332.843314280813
 21
2111.6201966049662
 31
0.0
 70
   128
 13
803.24445351234692
 23
2365.7316662232311
 33
0.0
 14
1903.2444535123441
 24
2365.7316662232311
 34
0.0
1001
ACAD
1000
DSTYLE
1002
{
1070
   287
1070
     3
1070
    40
1040
35.0
1070
   143
1040
0.039
1070
   172
1070
     1
1070
   271
1070
     0
1070
   279
1070
     0
1070
   288
1070
     1
1002
}
  0
DIMENSION
  5
7CCD
  8
3
  2
*D11
 10
2563.244453512345
 20
2111.6201966049662
 30
0.0
 11
2233.244453512345
 21
2199.1201966049662
 31
0.0
 70
     0
 13
1903.2444535123441
 23
2365.7316662232311
 33
0.0
 14
2563.244453512345
 24
2365.7316662232311
 34
0.0
1001
ACAD
1000
DSTYLE
1002
{
1070
   287
1070
     4
1070
    40
1040
35.0
1070
    75
1070
     1
1070
   143
1040
0.039
1070
   172
1070
     1
1070
   271
1070
     0
1070
   279
1070
     1
1070
   288
1070
     1
1002
}
  0
DIMENSION
  5
7CE6
  8
3
  2
*D12
 10
5757.9400047573081
 20
2116.8794238503251
 30
0.0
 11
5055.026162118309
 21
2116.8794238503251
 31
0.0
 70
   128
 13
4417.9400047573081
 23
2365.7316662232311
 33
0.0
 14
5757.9400047573081
 24
2365.7316662232311
 34
0.0
1001
ACAD
1000
DSTYLE
1002
{
1070
   287
1070
     3
1070
    40
1040
35.0
1070
   143
1040
0.039
1070
   172
1070
     1
1070
   271
1070
     0
1070
   279
1070
     0
1070
   288
1070
     1
1002
}
  0
DIMENSION
  5
7CF2
  8
3
  2
*D13
 10
6252.940004757309
 20
2116.8794238503251
 30
0.0
 11
6005.440004757309
 21
2204.3794238503251
 31
0.0
 70
     0
 13
5757.9400047573081
 23
2365.7316662232311
 33
0.0
 14
6252.940004757309
 24
2365.7316662232311
 34
0.0
1001
ACAD
1000
DSTYLE
1002
{
1070
   287
1070
     4
1070
    40
1040
35.0
1070
    75
1070
     1
1070
   143
1040
0.039
1070
   172
1070
     1
1070
   271
1070
     0
1070
   279
1070
     1
1070
   288
1070
     1
1002
}
  0
DIMENSION
  5
7D19
  8
3
  2
*D14
 10
6182.9400047573126
 20
5114.5476797904048
 30
0.0
 11
5760.7077326111694
 21
5114.5476797904048
 31
0.0
 70
   128
 13
5332.9400047573108
 23
4785.7316662232297
 33
0.0
 14
6182.9400047573126
 24
4785.7316662232297
 34
0.0
1001
ACAD
1000
DSTYLE
1002
{
1070
   287
1070
     3
1070
    40
1040
35.0
1070
   143
1040
0.039
1070
   172
1070
     1
1070
   271
1070
     0
1070
   279
1070
     0
1070
   288
1070
     1
1002
}
  0
DIMENSION
  5
7D28
  8
3
  2
*D15
 10
6193.2400047573092
 20
5353.1608328504117
 30
0.0
 11
5975.5900047573077
 21
5353.1608328504117
 31
0.0
 70
   128
 13
5757.9400047573081
 23
5265.9635034827843
 33
0.0
 14
6193.2400047573092
 24
4785.7316662232297
 34
0.0
1001
ACAD
1000
DSTYLE
1002
{
1070
   287
1070
     3
1070
    40
1040
35.0
1070
   143
1040
0.039
1070
   172
1070
     1
1070
   271
1070
     0
1070
   279
1070
     0
1070
   288
1070
     1
1002
}
  0
DIMENSION
  5
7D76
  8
3
  2
*D16
 10
4270.940004757309
 20
5353.1608328504117
 30
0.0
 11
5014.440004757309
 21
5528.1608328504117
 31
0.0
 70
     0
  1
MAX\P1530
 13
5757.9400047573081
 23
5265.9635034827843
 33
0.0
 14
4270.940004757309
 24
3915.7316662232301
 34
0.0
1001
ACAD
1000
DSTYLE
1002
{
1070
   287
1070
     4
1070
    40
1040
35.0
1070
    75
1070
     1
1070
   143
1040
0.039
1070
   172
1070
     1
1070
   271
1070
     0
1070
   279
1070
     1
1070
   288
1070
     1
1002
}
  0
LINE
  5
7D81
  8
4
 10
6475.0
 20
1510.0
 30
0.0
 11
6475.0
 21
810.0
 31
0.0
  0
LINE
  5
7D82
  8
4
 10
4025.0
 20
1510.0
 30
0.0
 11
4025.0
 21
810.0
 31
0.0
  0
LINE
  5
7D83
  8
4
 10
2275.0
 20
1510.0
 30
0.0
 11
2275.0
 21
810.0
 31
0.0
  0
LINE
  5
7D86
  8
4
 10
2275.0
 20
810.0
 30
0.0
 11
6475.0
 21
810.0
 31
0.0
  0
LINE
  5
7D87
  8
4
 10
2275.0
 20
1160.0
 30
0.0
 11
6475.0
 21
1160.0
 31
0.0
  0
TEXT
  5
7D88
  8
4
 10
2409.7572829641558
 20
1270.4005905331451
 30
0.0
 40
175.0
  1
機器名称
  0
TEXT
  5
7D89
  8
4
 10
2401.9033710867911
 20
885.75804856203831
 30
0.0
 40
175.0
  1
機器型番
  0
TEXT
  5
7D8A
  8
4
 10
4131.1124678485839
 20
1242.5648553767689
 30
0.0
 40
140.0
  1
ミツヤリミットロ－ﾄﾞファン
  0
TEXT
  5
7D8B
  8
4
 10
4153.2907345491822
 20
870.0585449798017
 30
0.0
 40
175.0
  1
LL#7-1
  0
TEXT
  5
7D8D
  8
4
 10
2697.9708263690191
 20
8342.0009446638051
 30
0.0
 40
188.99999999999989
  1
床置防振ベット
  0
TEXT
  5
7D8E
  8
4
 10
1004.678023501895
 20
8868.5834166975455
 30
0.0
 40
252.0
  1
遠心式片吸込片持リミットロ－ﾄﾞファン
  0
LINE
  5
7D8F
  8
4
 10
875.0
 20
8642.9306399268171
 30
0.0
 11
6475.0
 21
8642.9306399268171
 31
0.0
  0
LINE
  5
7D90
  8
4
 10
875.0
 20
9342.9306399268171
 30
0.0
 11
6475.0
 21
9342.9306399268171
 31
0.0
  0
LINE
  5
7D91
  8
4
 10
2275.0
 20
1510.0
 30
0.0
 11
6475.0
 21
1510.0
 31
0.0
  0
LINE
  5
7D92
  8
4
 10
875.0
 20
9342.9306399268171
 30
0.0
 11
875.0
 21
8642.9306399268171
 31
0.0
  0
TEXT
  5
7D93
  8
4
 10
1172.4649135195609
 20
8338.1181714122031
 30
0.0
 40
188.99999999999989
  1
左回転右横向
  0
TEXT
  5
7D94
  8
4
 10
5141.3934573725146
 20
9471.21378523358
 30
0.0
 40
196.0
  1
No.
  0
TEXT
  5
7D95
  8
4
 10
4589.5362191000459
 20
8342.0009446638051
 30
0.0
 40
188.99999999999989
  1
縮尺：1/35
  0
LINE
  5
7D96
  8
4
 10
6475.0
 20
9342.9306399268171
 30
0.0
 11
6475.0
 21
8642.9306399268171
 31
0.0
  0
LINE
  5
7D97
  8
4
 10
7350.0
 20
10325.0
 30
0.0
 11
7350.0
 21
10325.0
 31
0.0
  0
LINE
  5
7D98
  8
4
 10
5042.160978259526
 20
9384.4225409389055
 30
0.0
 11
5042.160978259526
 21
9753.2829154241354
 31
0.0
  0
LINE
  5
7D99
  8
4
 10
5042.160978259526
 20
9753.2829154241354
 30
0.0
 11
6475.0
 21
9753.2829154241354
 31
0.0
  0
LINE
  5
7D9A
  8
4
 10
6475.0
 20
9753.2829154241354
 30
0.0
 11
6475.0
 21
9384.4225409389055
 31
0.0
  0
LINE
  5
7D9B
  8
4
 10
6475.0
 20
9384.4225409389055
 30
0.0
 11
5042.160978259526
 21
9384.4225409389055
 31
0.0
  0
LINE
  5
7D9C
  8
4
 10
0.0
 20
0.0
 30
0.0
 11
0.0
 21
10325.0
 31
0.0
  0
LINE
  5
7D9D
  8
4
 10
0.0
 20
10325.0
 30
0.0
 11
7350.0
 21
10325.0
 31
0.0
  0
LINE
  5
7D9E
  8
4
 10
7350.0
 20
10325.0
 30
0.0
 11
7350.0
 21
0.0
 31
0.0
  0
LINE
  5
7D9F
  8
4
 10
7350.0
 20
0.0
 30
0.0
 11
0.0
 21
0.0
 31
0.0
  0
LINE
  5
7E35
  8
1
 10
2659.2444535123441
 20
3985.7316662232301
 30
0.0
 11
2659.2444535123441
 21
2729.7316662232301
 31
0.0
  0
LINE
  5
7E36
  8
1
 10
2613.2444535123441
 20
3985.7316662232301
 30
0.0
 11
2613.2444535123441
 21
2729.7316662232301
 31
0.0
  0
LINE
  5
7E37
  8
1
 10
2663.2444535123441
 20
3985.7316662232301
 30
0.0
 11
2663.2444535123441
 21
2729.7316662232301
 31
0.0
  0
ARC
  5
7E39
  8
1
 10
1985.2444535123441
 20
3898.7316662232301
 30
0.0
 40
1051.0
 50
180.0
 51
244.2751334173729
  0
LINE
  5
7E4C
  8
1
 10
2663.2444535123441
 20
2782.7316662232301
 30
0.0
 11
2294.8965350402918
 21
2815.7878584537111
 31
0.0
  0
LINE
  5
7E4D
  8
1
 10
2663.2444535123441
 20
2729.7316662232301
 30
0.0
 11
2613.2444535123441
 21
2729.7316662232301
 31
0.0
  0
ARC
  5
7E53
  8
1
 10
1834.744453512345
 20
4049.2316662232311
 30
0.0
 40
736.5
 50
354.66335167861649
 51
84.663351678616479
  0
CIRCLE
  5
7E54
  8
1
 10
1903.2444535123441
 20
3980.7316662232311
 30
0.0
 40
203.19999999999999
  0
LINE
  5
7E6F
  8
1
 10
2663.2444535123441
 20
3932.7316662232301
 30
0.0
 11
2559.8158777458311
 21
3932.7316662232301
 31
0.0
  0
LINE
  5
7E70
  8
1
 10
2663.2444535123441
 20
3985.7316662232301
 30
0.0
 11
2613.2444535123441
 21
3985.7316662232301
 31
0.0
  0
ARC
  5
7E71
  8
1
 10
1971.744453512345
 20
4049.2316662232311
 30
0.0
 40
599.5
 50
348.79449463144641
 51
353.43894645716648
  0
ARC
  5
7E74
  8
1
 10
1821.244453512345
 20
3898.7316662232301
 30
0.0
 40
887.0
 50
84.695634792204103
 51
180.0
  0
LINE
  5
8061
  8
2
 10
748.87498297135608
 20
3980.7316662232311
 30
0.0
 11
2787.240344293522
 21
3980.7316662232311
 31
0.0
  0
ARC
  5
8063
  8
1
 10
1903.2444535123441
 20
3980.7316662232311
 30
0.0
 40
280.0
 50
316.10584056370601
 51
141.43872665505381
  0
LINE
  5
8064
  8
1
 10
1741.9055517206141
 20
4104.2630337726841
 30
0.0
 11
959.55355581832816
 21
3082.4674013159251
 31
0.0
  0
LINE
  5
8065
  8
1
 10
2046.8897831025599
 20
3837.0088103967528
 30
0.0
 11
1136.660540577529
 21
2927.270559001161
 31
0.0
  0
LINE
  5
8066
  8
1
 10
881.21721816475656
 20
3147.8689343113228
 30
0.0
 11
1684.300699433596
 21
4155.2700074262566
 31
0.0
  0
LINE
  5
8067
  8
1
 10
2105.0185550721558
 20
3786.5997215574162
 30
0.0
 11
1211.7812475950541
 21
2858.199423985805
 31
0.0
  0
LINE
  5
8069
  8
1
 10
2663.2444535123441
 20
6710.7675927715291
 30
0.0
 11
2663.2444535123441
 21
7666.7675927715272
 31
0.0
  0
LINE
  5
806A
  8
1
 10
2613.2444535123441
 20
7666.7675927715272
 30
0.0
 11
2663.2444535123432
 21
7666.7675927715254
 31
0.0
  0
LINE
  5
806B
  8
1
 10
2613.2444535123441
 20
6710.7675927715291
 30
0.0
 11
2663.2444535123441
 21
6710.7675927715291
 31
0.0
  0
LINE
  5
806C
  8
1
 10
2613.2444535123441
 20
6710.7675927715291
 30
0.0
 11
2613.2444535123441
 21
7666.7675927715272
 31
0.0
  0
LINE
  5
806D
  8
1
 10
934.24445351234488
 20
6761.76759277153
 30
0.0
 11
934.24445351234488
 21
7616.0675927715247
 31
0.0
  0
LINE
  5
806F
  8
1
 10
2613.2444535123441
 20
6761.76759277153
 30
0.0
 11
934.24445351234488
 21
6761.76759277153
 31
0.0
  0
LINE
  5
8071
  8
1
 10
803.24445351234488
 20
6758.7675927715281
 30
0.0
 11
2563.244453512345
 21
6758.7675927715281
 31
0.0
  0
LINE
  5
80D2
  8
1
 10
5330.6400047573088
 20
4785.7316662232297
 30
0.0
 11
6184.9400047573126
 21
4785.7316662232306
 31
0.0
  0
LINE
  5
80F7
  8
1
 10
5279.940004757309
 20
2729.7316662232301
 30
0.0
 11
6235.940004757309
 21
2729.7316662232311
 31
0.0
  0
LINE
  5
80F8
  8
1
 10
5279.940004757309
 20
3985.7316662232301
 30
0.0
 11
6235.940004757309
 21
3985.7316662232301
 31
0.0
  0
LINE
  5
80FB
  8
1
 10
5279.940004757309
 20
3985.7316662232301
 30
0.0
 11
5279.940004757309
 21
2729.7316662232301
 31
0.0
  0
LINE
  5
80FD
  8
1
 10
6235.940004757309
 20
3985.7316662232301
 30
0.0
 11
6235.940004757309
 21
2729.7316662232301
 31
0.0
  0
LINE
  5
80FE
  8
1
 10
5330.6400047573088
 20
2779.7316662232311
 30
0.0
 11
6182.9400047573072
 21
2779.7316662232311
 31
0.0
  0
LINE
  5
80FF
  8
1
 10
5330.6400047573088
 20
3935.7316662232301
 30
0.0
 11
6182.9400047573108
 21
3935.7316662232301
 31
0.0
  0
LINE
  5
8100
  8
1
 10
5332.9400047573108
 20
3985.7316662232301
 30
0.0
 11
5332.9400047573108
 21
4785.7316662232297
 31
0.0
  0
LINE
  5
8101
  8
1
 10
5330.6400047573088
 20
3985.7316662232301
 30
0.0
 11
5330.6400047573088
 21
4785.7316662232297
 31
0.0
  0
LINE
  5
8102
  8
1
 10
6182.9400047573117
 20
3985.7316662232301
 30
0.0
 11
6182.9400047573126
 21
4785.7316662232297
 31
0.0
  0
LINE
  5
8103
  8
1
 10
6184.9400047573108
 20
3985.7316662232301
 30
0.0
 11
6184.9400047573117
 21
4785.7316662232297
 31
0.0
  0
LINE
  5
8104
  8
1
 10
5330.6400047573088
 20
3675.7316662232301
 30
0.0
 11
5332.9400047573099
 21
3675.7316662232301
 31
0.0
  0
LINE
  5
8105
  8
1
 10
5330.6400047573088
 20
3595.7316662232311
 30
0.0
 11
5332.9400047573099
 21
3595.7316662232311
 31
0.0
  0
LINE
  5
8106
  8
1
 10
6235.940004757309
 20
2750.7316662232301
 30
0.0
 11
6252.940004757309
 21
2750.7316662232301
 31
0.0
  0
LINE
  5
8108
  8
1
 10
5279.940004757309
 20
3985.7316662232301
 30
0.0
 11
6235.940004757309
 21
2729.7316662232311
 31
0.0
  0
LINE
  5
8109
  8
1
 10
6235.940004757309
 20
3985.7316662232301
 30
0.0
 11
5279.940004757309
 21
2729.7316662232301
 31
0.0
  0
DIMENSION
  5
8116
  8
3
  2
*D18
 10
2987.1617731652741
 20
2782.7316662232301
 30
0.0
 11
2987.1617731652732
 21
3317.555896843598
 31
0.0
 70
   128
 13
2663.2444535123441
 23
3932.7316662232301
 33
0.0
 14
2663.2444535123441
 24
2782.7316662232301
 34
0.0
 50
90.0
1001
ACAD
1000
DSTYLE
1002
{
1070
   287
1070
     3
1070
    40
1040
35.0
1070
   143
1040
0.039
1070
   172
1070
     1
1070
   271
1070
     0
1070
   279
1070
     0
1070
   288
1070
     1
1002
}
  0
DIMENSION
  5
8123
  8
3
  2
*D19
 10
3244.655526734562
 20
3980.7316662232301
 30
0.0
 11
3244.6555267345611
 21
3329.2491505602288
 31
0.0
 70
   128
 13
2663.2444535123441
 23
2782.7316662232301
 33
0.0
 14
2787.240344293522
 24
3980.7316662232311
 34
0.0
 50
90.0
1001
ACAD
1000
DSTYLE
1002
{
1070
   287
1070
     3
1070
    40
1040
35.0
1070
   143
1040
0.039
1070
   172
1070
     1
1070
   271
1070
     0
1070
   279
1070
     0
1070
   288
1070
     1
1002
}
  0
DIMENSION
  5
813C
  8
3
  2
*D20
 10
1903.2444535123441
 20
4990.2698635207671
 30
0.0
 11
2319.3138284728338
 21
4990.2698635207671
 31
0.0
 70
   128
 13
2663.2444535123441
 23
3985.7316662232301
 33
0.0
 14
1903.2444535123441
 24
4864.7275570044076
 34
0.0
1001
ACAD
1000
DSTYLE
1002
{
1070
   287
1070
     3
1070
    40
1040
35.0
1070
   143
1040
0.039
1070
   172
1070
     1
1070
   271
1070
     0
1070
   279
1070
     0
1070
   288
1070
     1
1002
}
  0
DIMENSION
  5
8149
  8
3
  2
*D21
 10
934.2444535123451
 20
4990.2698635207671
 30
0.0
 11
1418.744453512345
 21
5077.7698635207671
 31
0.0
 70
     0
 13
1903.2444535123441
 23
4864.7275570044076
 33
0.0
 14
934.24445351234488
 24
3898.7316662232301
 34
0.0
1001
ACAD
1000
DSTYLE
1002
{
1070
   287
1070
     4
1070
    40
1040
35.0
1070
    75
1070
     1
1070
   143
1040
0.039
1070
   172
1070
     1
1070
   271
1070
     0
1070
   279
1070
     1
1070
   288
1070
     1
1002
}
  0
DIMENSION
  5
8156
  8
3
  2
*D22
 10
3517.6545347454312
 20
3980.7316662232301
 30
0.0
 11
3517.6545347454298
 21
3332.8243202195181
 31
0.0
 70
   128
 13
2563.244453512345
 23
2625.7316662232301
 33
0.0
 14
2787.240344293522
 24
3980.7316662232311
 34
0.0
 50
90.0
1001
ACAD
1000
DSTYLE
1002
{
1070
   287
1070
     3
1070
    40
1040
35.0
1070
   143
1040
0.039
1070
   172
1070
     1
1070
   271
1070
     0
1070
   279
1070
     0
1070
   288
1070
     1
1002
}
  0
DIMENSION
  5
8162
  8
3
  2
*D23
 10
3517.6545347454298
 20
4785.7316662232297
 30
0.0
 11
3430.1545347454298
 21
4383.2316662232297
 31
0.0
 70
     0
 13
2787.240344293522
 23
3980.7316662232311
 33
0.0
 14
1821.244453512345
 24
4785.7316662232297
 34
0.0
 50
90.0
1001
ACAD
1000
DSTYLE
1002
{
1070
   287
1070
     4
1070
    40
1040
35.0
1070
    75
1070
     1
1070
   143
1040
0.039
1070
   172
1070
     1
1070
   271
1070
     0
1070
   279
1070
     1
1070
   288
1070
     1
1002
}
  0
DIMENSION
  5
82E7
  8
3
  2
*D24
 10
6514.4261533025929
 20
3420.7316662232288
 30
0.0
 11
6426.926153302592
 21
3980.7316662232311
 31
0.0
 70
     0
 13
6182.9400047573126
 23
4540.7316662232288
 33
0.0
 14
6182.940004757309
 24
3420.7316662232288
 34
0.0
 50
90.0
1001
ACAD
1000
DSTYLE
1002
{
1070
   287
1070
     3
1070
     3
1000
φ<>
1070
    40
1040
35.0
1070
   143
1040
0.039
1070
   172
1070
     1
1070
   271
1070
     0
1070
   279
1070
     0
1002
}
  0
LINE
  5
833B
  8
1
 10
5262.9400047573063
 20
2750.7316662232301
 30
0.0
 11
5262.9400047573063
 21
2625.7316662232301
 31
0.0
  0
LINE
  5
833C
  8
1
 10
1648.2444535123441
 20
3880.7316662232288
 30
0.0
 11
2158.244453512345
 21
3880.7316662232288
 31
0.0
  0
LINE
  5
833E
  8
1
 10
2158.244453512345
 20
3880.7316662232288
 30
0.0
 11
2303.2444535123441
 21
2750.7316662232301
 31
0.0
  0
LINE
  5
833F
  8
1
 10
1648.2444535123441
 20
3880.7316662232288
 30
0.0
 11
1503.2444535123441
 21
2750.7316662232301
 31
0.0
  0
LINE
  5
8340
  8
1
 10
1648.244453512345
 20
5911.7675927715281
 30
0.0
 11
1648.244453512345
 21
6665.7675927715291
 31
0.0
  0
LINE
  5
8341
  8
1
 10
2158.244453512345
 20
5911.7675927715281
 30
0.0
 11
2158.244453512345
 21
6665.7675927715272
 31
0.0
  0
LINE
  5
8343
  8
1
 10
4417.9400047573081
 20
2385.7316662232301
 30
0.0
 11
6252.9400047573108
 21
2385.7316662232301
 31
0.0
1001
ACAD
1000
ASC_BOUNDS
1002
{
1070
    19
1002
}
  0
LINE
  5
8344
  8
1
 10
6252.9400047573108
 20
2510.7316662232311
 30
0.0
 11
6252.940004757309
 21
2385.7316662232301
 31
0.0
  0
LINE
  5
8345
  8
1
 10
5262.9400047573063
 20
2510.7316662232311
 30
0.0
 11
5262.9400047573063
 21
2385.7316662232301
 31
0.0
  0
LINE
  5
8346
  8
1
 10
4417.9400047573081
 20
2510.7316662232311
 30
0.0
 11
6252.9400047573117
 21
2510.7316662232311
 31
0.0
  0
LINE
  5
8347
  8
1
 10
4417.9400047573081
 20
2510.7316662232311
 30
0.0
 11
4417.9400047573081
 21
2385.7316662232301
 31
0.0
  0
LINE
  5
8348
  8
1
 10
2563.244453512345
 20
2510.7316662232311
 30
0.0
 11
803.24445351234692
 21
2510.7316662232311
 31
0.0
  0
LINE
  5
8349
  8
1
 10
2563.244453512345
 20
2510.7316662232311
 30
0.0
 11
2563.244453512345
 21
2385.7316662232301
 31
0.0
  0
LINE
  5
834A
  8
1
 10
2563.244453512345
 20
2385.7316662232301
 30
0.0
 11
803.24445351234692
 21
2385.7316662232301
 31
0.0
1001
ACAD
1000
ASC_BOUNDS
1002
{
1070
    19
1005
0
1005
0
1002
}
  0
LINE
  5
834B
  8
1
 10
2303.2444535123441
 20
2385.7316662232301
 30
0.0
 11
2303.2444535123441
 21
2510.7316662232311
 31
0.0
  0
LINE
  5
834C
  8
1
 10
803.24445351234692
 20
2510.7316662232311
 30
0.0
 11
803.24445351234692
 21
2385.7316662232301
 31
0.0
  0
DIMENSION
  5
839D
  8
3
  2
*D25
 10
3514.3602749652782
 20
2625.7316662232301
 30
0.0
 11
3726.8602749652769
 21
2701.4816662232301
 31
0.0
 70
     0
 13
2563.244453512345
 23
2510.7316662232311
 33
0.0
 14
2563.244453512345
 24
2625.7316662232301
 34
0.0
 50
90.0
1001
ACAD
1000
DSTYLE
1002
{
1070
   287
1070
     4
1070
     3
1000
(<>)
1070
    40
1040
35.0
1070
   143
1040
0.039
1070
   172
1070
     1
1070
   271
1070
     0
1070
   279
1070
     1
1070
     6
1000
DOT
1002
}
  0
DIMENSION
  5
83AA
  8
3
  2
*D26
 10
3925.0461048084248
 20
2385.7316662232301
 30
0.0
 11
3810.0461048084239
 21
3585.7316662232301
 31
0.0
 70
     0
 13
1838.744453512345
 23
4785.7316662232297
 33
0.0
 14
2563.244453512345
 24
2385.7316662232301
 34
0.0
 50
90.0
1001
ACAD
1000
DSTYLE
1002
{
1070
   287
1070
     4
1070
     3
1000
(<>)
1070
    40
1040
35.0
1070
   143
1040
0.039
1070
   172
1070
     1
1070
   271
1070
     0
1070
   279
1070
     1
1002
}
  0
DIMENSION
  5
83B9
  8
3
  2
*D27
 10
3514.3602749652782
 20
2385.7316662232301
 30
0.0
 11
3426.8602749652782
 21
2085.7316662232311
 31
0.0
 70
     0
 13
2563.244453512345
 23
2510.7316662232311
 33
0.0
 14
2563.244453512345
 24
2385.7316662232301
 34
0.0
 50
90.0
1001
ACAD
1000
DSTYLE
1002
{
1070
   287
1070
     3
1070
    40
1040
35.0
1070
   143
1040
0.039
1070
   172
1070
     1
1070
   271
1070
     0
1070
   279
1070
     0
1070
     6
1000
DOT
1002
}
  0
ENDSEC
  0
EOF
