  0
SECTION
  2
HEADER
  9
$ACADVER
  1
AC1009
  9
$INSBASE
 10
0.0
 20
0.0
 30
0.0
  9
$EXTMIN
 10
0.0
 20
0.0
 30
0.0
  9
$EXTMAX
 10
7350.0
 20
10325.0
 30
0.0
  9
$LIMMIN
 10
0.0
 20
0.0
  9
$LIMMAX
 10
297.0
 20
210.0
  9
$ORTHOMODE
 70
     0
  9
$REGENMODE
 70
     1
  9
$FILLMODE
 70
     0
  9
$QTEXTMODE
 70
     0
  9
$MIRRTEXT
 70
     1
  9
$DRAGMODE
 70
     2
  9
$LTSCALE
 40
100.0
  9
$OSMODE
 70
    37
  9
$ATTMODE
 70
     1
  9
$TEXTSIZE
 40
180.0
  9
$TRACEWID
 40
0.05
  9
$TEXTSTYLE
  7
STANDARD
  9
$CLAYER
  8
3
  9
$CELTYPE
  6
BYLAYER
  9
$CECOLOR
 62
   256
  9
$DIMSCALE
 40
35.0
  9
$DIMASZ
 40
2.0
  9
$DIMEXO
 40
0.5
  9
$DIMDLI
 40
10.0
  9
$DIMRND
 40
0.0
  9
$DIMDLE
 40
0.0
  9
$DIMEXE
 40
1.0
  9
$DIMTP
 40
1.0
  9
$DIMTM
 40
1.0
  9
$DIMTXT
 40
3.0
  9
$DIMCEN
 40
0.0
  9
$DIMTSZ
 40
0.0
  9
$DIMTOL
 70
     0
  9
$DIMLIM
 70
     0
  9
$DIMTIH
 70
     0
  9
$DIMTOH
 70
     0
  9
$DIMSE1
 70
     0
  9
$DIMSE2
 70
     0
  9
$DIMTAD
 70
     1
  9
$DIMZIN
 70
     8
  9
$DIMBLK
  1

  9
$DIMASO
 70
     1
  9
$DIMSHO
 70
     1
  9
$DIMPOST
  1
(<>)
  9
$DIMAPOST
  1

  9
$DIMALT
 70
     0
  9
$DIMALTD
 70
     2
  9
$DIMALTF
 40
0.039
  9
$DIMLFAC
 40
1.0
  9
$DIMTOFL
 70
     1
  9
$DIMTVP
 40
0.0
  9
$DIMTIX
 70
     0
  9
$DIMSOXD
 70
     0
  9
$DIMSAH
 70
     1
  9
$DIMBLK1
  1
OPEN
  9
$DIMBLK2
  1
OPEN
  9
$DIMSTYLE
  2
IGA
  9
$DIMCLRD
 70
     0
  9
$DIMCLRE
 70
     0
  9
$DIMCLRT
 70
     0
  9
$DIMTFAC
 40
10.0
  9
$DIMGAP
 40
1.0
  9
$LUNITS
 70
     2
  9
$LUPREC
 70
     3
  9
$SKETCHINC
 40
0.1
  9
$FILLETRAD
 40
50.0
  9
$AUNITS
 70
     0
  9
$AUPREC
 70
     0
  9
$MENU
  1
acad
  9
$ELEVATION
 40
0.0
  9
$PELEVATION
 40
0.0
  9
$THICKNESS
 40
0.0
  9
$LIMCHECK
 70
     0
  9
$BLIPMODE
 70
     0
  9
$CHAMFERA
 40
0.5
  9
$CHAMFERB
 40
0.5
  9
$SKPOLY
 70
     0
  9
$TDCREATE
 40
2453167.599160763
  9
$TDUPDATE
 40
2454953.6468843981
  9
$TDINDWG
 40
0.1018126273
  9
$TDUSRTIMER
 40
0.1018126273
  9
$USRTIMER
 70
     1
  9
$ANGBASE
 50
0.0
  9
$ANGDIR
 70
     0
  9
$PDMODE
 70
     0
  9
$PDSIZE
 40
0.0
  9
$PLINEWID
 40
0.0
  9
$COORDS
 70
     1
  9
$SPLFRAME
 70
     0
  9
$SPLINETYPE
 70
     6
  9
$SPLINESEGS
 70
     8
  9
$ATTDIA
 70
     0
  9
$ATTREQ
 70
     1
  9
$HANDLING
 70
 10241
  9
$HANDSEED
  5
8C4B
  9
$SURFTAB1
 70
     6
  9
$SURFTAB2
 70
     6
  9
$SURFTYPE
 70
     6
  9
$SURFU
 70
     6
  9
$SURFV
 70
     6
  9
$UCSNAME
  2

  9
$UCSORG
 10
0.0
 20
0.0
 30
0.0
  9
$UCSXDIR
 10
1.0
 20
0.0
 30
0.0
  9
$UCSYDIR
 10
0.0
 20
1.0
 30
0.0
  9
$PUCSNAME
  2

  9
$PUCSORG
 10
0.0
 20
0.0
 30
0.0
  9
$PUCSXDIR
 10
1.0
 20
0.0
 30
0.0
  9
$PUCSYDIR
 10
0.0
 20
1.0
 30
0.0
  9
$USERI1
 70
     0
  9
$USERI2
 70
     0
  9
$USERI3
 70
     0
  9
$USERI4
 70
     0
  9
$USERI5
 70
     0
  9
$USERR1
 40
0.0
  9
$USERR2
 40
0.0
  9
$USERR3
 40
0.0
  9
$USERR4
 40
0.0
  9
$USERR5
 40
0.0
  9
$WORLDVIEW
 70
     1
  9
$SHADEDGE
 70
     3
  9
$SHADEDIF
 70
    70
  9
$TILEMODE
 70
     1
  9
$MAXACTVP
 70
    16
  9
$PLIMCHECK
 70
     0
  9
$PEXTMIN
 10
1.0000000000000000E+020
 20
1.0000000000000000E+020
 30
1.0000000000000000E+020
  9
$PEXTMAX
 10
-1.0000000000000000E+020
 20
-1.0000000000000000E+020
 30
-1.0000000000000000E+020
  9
$PLIMMIN
 10
0.0
 20
0.0
  9
$PLIMMAX
 10
12.0
 20
9.0
  9
$UNITMODE
 70
     0
  9
$VISRETAIN
 70
     0
  9
$PLINEGEN
 70
     0
  9
$PSLTSCALE
 70
     1
  0
ENDSEC
  0
SECTION
  2
TABLES
  0
TABLE
  2
VPORT
 70
     2
  0
VPORT
  2
*ACTIVE
 70
     0
 10
0.0
 20
0.0
 11
1.0
 21
1.0
 12
6723.4380783575798
 22
963.56173071940623
 13
0.0
 23
0.0
 14
10.0
 24
10.0
 15
10.0
 25
10.0
 16
0.0
 26
0.0
 36
1.0
 17
0.0
 27
0.0
 37
0.0
 40
2906.922288116054
 41
3.1666666666666661
 42
50.0
 43
0.0
 44
0.0
 50
0.0
 51
0.0
 71
     0
 72
   100
 73
     1
 74
     0
 75
     0
 76
     0
 77
     0
 78
     0
  0
ENDTAB
  0
TABLE
  2
LTYPE
 70
     2
  0
LTYPE
  2
CONTINUOUS
 70
     0
  3
Solid line
 72
    65
 73
     0
 40
0.0
  0
LTYPE
  2
CENTER
 70
     0
  3
____ _ ____ _ ____ _ ____ _ ____ _ ____ _ ____ 
 72
    65
 73
     4
 40
2.0
 49
1.25
 49
-0.25
 49
0.25
 49
-0.25
  0
ENDTAB
  0
TABLE
  2
LAYER
 70
     7
  0
LAYER
  2
0
 70
     0
 62
     7
  6
CONTINUOUS
  0
LAYER
  2
3
 70
     0
 62
     2
  6
CONTINUOUS
  0
LAYER
  2
2
 70
     0
 62
     3
  6
CENTER
  0
LAYER
  2
1
 70
     0
 62
     4
  6
CONTINUOUS
  0
LAYER
  2
4
 70
     0
 62
     7
  6
CONTINUOUS
  0
LAYER
  2
DEFPOINTS
 70
     0
 62
     7
  6
CONTINUOUS
  0
LAYER
  2
FUTO
 70
     0
 62
     4
  6
CONTINUOUS
  0
ENDTAB
  0
TABLE
  2
STYLE
 70
     1
  0
STYLE
  2
STANDARD
 70
     0
 40
0.0
 41
1.0
 50
0.0
 71
     0
 42
180.0
  3
simplex.shx
  4
extfont.shx
  0
ENDTAB
  0
TABLE
  2
VIEW
 70
     0
  0
ENDTAB
  0
TABLE
  2
UCS
 70
     0
  0
ENDTAB
  0
TABLE
  2
APPID
 70
     1
  0
APPID
  2
ACAD
 70
     0
  0
ENDTAB
  0
TABLE
  2
DIMSTYLE
 70
     2
  0
DIMSTYLE
  2
IGA
 70
     0
  3

  4

  5

  6
OPEN
  7
OPEN
 40
2.0
 41
2.0
 42
0.5
 43
10.0
 44
1.0
 45
0.0
 46
0.0
 47
1.0
 48
1.0
140
3.0
141
0.0
142
0.0
143
0.03937
144
1.0
145
0.0
146
10.0
147
1.0
 71
     0
 72
     0
 73
     0
 74
     0
 75
     0
 76
     0
 77
     1
 78
     8
170
     0
171
     2
172
     0
173
     1
174
     0
175
     0
176
     0
177
     0
178
     0
  0
DIMSTYLE
  2
STANDARD
 70
     0
  3

  4

  5

  6

  7

 40
1.0
 41
0.18
 42
0.0625
 43
0.38
 44
0.18
 45
0.0
 46
0.0
 47
0.0
 48
0.0
140
0.18
141
0.09
142
0.0
143
25.399999999999999
144
1.0
145
0.0
146
1.0
147
0.09
 71
     0
 72
     0
 73
     1
 74
     1
 75
     0
 76
     0
 77
     0
 78
     0
170
     0
171
     2
172
     0
173
     0
174
     0
175
     0
176
     0
177
     0
178
     0
  0
ENDTAB
  0
ENDSEC
  0
SECTION
  2
BLOCKS
  0
BLOCK
  8
0
  2
$MODEL_SPACE
 70
     0
 10
0.0
 20
0.0
 30
0.0
  3
$MODEL_SPACE
  1

  0
ENDBLK
  5
1B
  8
0
  0
BLOCK
 67
     1
  8
0
  2
$PAPER_SPACE
 70
     0
 10
0.0
 20
0.0
 30
0.0
  3
$PAPER_SPACE
  1

  0
ENDBLK
  5
18
 67
     1
  8
0
  0
BLOCK
  8
0
  2
YA_N
 70
     0
 10
0.0
 20
0.0
 30
0.0
  3
YA_N
  1

  0
ENDBLK
  5
79FE
  8
0
  0
BLOCK
  8
0
  2
_OPEN
 70
     0
 10
0.0
 20
0.0
 30
0.0
  3
_OPEN
  1

  0
LINE
  5
7B93
  8
0
  6
BYBLOCK
 62
     0
 10
-1.0
 20
0.1666666666666666
 30
0.0
 11
0.0
 21
0.0
 31
0.0
  0
LINE
  5
7B94
  8
0
  6
BYBLOCK
 62
     0
 10
0.0
 20
0.0
 30
0.0
 11
-1.0
 21
-0.1666666666666666
 31
0.0
  0
LINE
  5
7B95
  8
0
  6
BYBLOCK
 62
     0
 10
0.0
 20
0.0
 30
0.0
 11
-1.0
 21
0.0
 31
0.0
  0
ENDBLK
  5
7B96
  8
0
  0
BLOCK
  8
0
  2
*D2
 70
     1
 10
0.0
 20
0.0
 30
0.0
  3
*D2
  1

  0
LINE
  5
8B4A
  8
3
 62
     0
 10
2048.0042379940041
 20
7683.7675927715281
 30
0.0
 11
1403.1948195829259
 21
7683.76759277153
 31
0.0
  0
LINE
  5
8B4B
  8
3
 62
     0
 10
2048.0042379940041
 20
6693.7675927715281
 30
0.0
 11
1403.194819582925
 21
6693.7675927715281
 31
0.0
  0
LINE
  5
8B4C
  8
3
 62
     0
 10
1438.194819582925
 20
7613.7675927715291
 30
0.0
 11
1438.194819582925
 21
6763.7675927715291
 31
0.0
  0
INSERT
  5
8B4D
  8
3
 62
     0
  2
_OPEN
 10
1438.1948195829259
 20
7683.76759277153
 30
0.0
 41
70.0
 42
70.0
 43
70.0
 50
90.0
  0
INSERT
  5
8B4E
  8
3
 62
     0
  2
_OPEN
 10
1438.194819582925
 20
6693.7675927715281
 30
0.0
 41
70.0
 42
70.0
 43
70.0
 50
270.0
  0
TEXT
  8
3
  40
105
  5
8C31
  62
0
  72
0
  71
0
 10
1140.69
 20
7005.01
 30
0.000000
  1
990
  0
POINT
  5
8B50
  8
DEFPOINTS
 62
     0
 10
2065.5042379940041
 20
7683.7675927715281
 30
0.0
  0
POINT
  5
8B51
  8
DEFPOINTS
 62
     0
 10
2065.5042379940041
 20
6693.7675927715281
 30
0.0
  0
POINT
  5
8B52
  8
DEFPOINTS
 62
     0
 10
1438.194819582925
 20
6693.7675927715281
 30
0.0
  0
ENDBLK
  5
8298
  8
0
  0
BLOCK
  8
0
  2
*D3
 70
     1
 10
0.0
 20
0.0
 30
0.0
  3
*D3
  1

  0
LINE
  5
8B53
  8
3
 62
     0
 10
2308.0042379940041
 20
5848.7675927715281
 30
0.0
 11
1403.1948195829241
 21
5848.76759277153
 31
0.0
  0
LINE
  5
8B54
  8
3
 62
     0
 10
1438.1948195829241
 20
6623.7675927715281
 30
0.0
 11
1438.1948195829241
 21
5918.7675927715291
 31
0.0
  0
INSERT
  5
8B55
  8
3
 62
     0
  2
_OPEN
 10
1438.1948195829241
 20
6693.7675927715281
 30
0.0
 41
70.0
 42
70.0
 43
70.0
 50
90.0
  0
INSERT
  5
8B56
  8
3
 62
     0
  2
_OPEN
 10
1438.1948195829241
 20
5848.76759277153
 30
0.0
 41
70.0
 42
70.0
 43
70.0
 50
270.0
  0
TEXT
  8
3
  40
105
  5
8C32
  62
0
  72
0
  71
0
 10
1140.69
 20
6085.42
 30
0.000000
  1
845
  0
POINT
  5
8B58
  8
DEFPOINTS
 62
     0
 10
2065.5042379940041
 20
6693.7675927715281
 30
0.0
  0
POINT
  5
8B59
  8
DEFPOINTS
 62
     0
 10
2325.5042379940041
 20
5848.7675927715281
 30
0.0
  0
POINT
  5
8B5A
  8
DEFPOINTS
 62
     0
 10
1438.1948195829241
 20
5848.76759277153
 30
0.0
  0
ENDBLK
  5
82AE
  8
0
  0
BLOCK
  8
0
  2
*D4
 70
     1
 10
0.0
 20
0.0
 30
0.0
  3
*D4
  1

  0
LINE
  5
8B5B
  8
3
 62
     0
 10
2065.5042379940041
 20
6676.2675927715281
 30
0.0
 11
2065.5042379940041
 21
5351.5740510801079
 31
0.0
  0
LINE
  5
8B5C
  8
3
 62
     0
 10
2325.5042379940041
 20
5831.2675927715281
 30
0.0
 11
2325.5042379940041
 21
5351.5740510801079
 31
0.0
  0
LINE
  5
8B5D
  8
3
 62
     0
 10
2255.5042379940041
 20
5386.5740510801079
 30
0.0
 11
2135.5042379940041
 21
5386.5740510801079
 31
0.0
  0
LINE
  5
8B5E
  8
3
 62
     0
 10
2065.5042379940041
 20
5386.5740510801079
 30
0.0
 11
1655.5042379940039
 21
5386.5740510801079
 31
0.0
  0
INSERT
  5
8B5F
  8
3
 62
     0
  2
_OPEN
 10
2325.5042379940041
 20
5386.5740510801079
 30
0.0
 41
70.0
 42
70.0
 43
70.0
  0
INSERT
  5
8B60
  8
3
 62
     0
  2
_OPEN
 10
2065.5042379940041
 20
5386.5740510801079
 30
0.0
 41
70.0
 42
70.0
 43
70.0
 50
180.0
  0
TEXT
  8
3
  40
105
  5
8C33
  62
0
  72
0
  71
0
 10
1615.50
 20
5288.22
 30
0.000000
  1
260
  0
POINT
  5
8B62
  8
DEFPOINTS
 62
     0
 10
2065.5042379940041
 20
6693.7675927715281
 30
0.0
  0
POINT
  5
8B63
  8
DEFPOINTS
 62
     0
 10
2325.5042379940041
 20
5848.7675927715281
 30
0.0
  0
POINT
  5
8B64
  8
DEFPOINTS
 62
     0
 10
2325.5042379940041
 20
5386.5740510801079
 30
0.0
  0
ENDBLK
  5
82A4
  8
0
  0
BLOCK
  8
0
  2
*D5
 70
     1
 10
0.0
 20
0.0
 30
0.0
  3
*D5
  1

  0
LINE
  5
8B65
  8
3
 62
     0
 10
3825.5042379940041
 20
5831.2675927715281
 30
0.0
 11
3825.5042379940041
 21
5351.5740510801079
 31
0.0
  0
LINE
  5
8B66
  8
3
 62
     0
 10
2395.5042379940041
 20
5386.5740510801079
 30
0.0
 11
3755.5042379940041
 21
5386.5740510801079
 31
0.0
  0
INSERT
  5
8B67
  8
3
 62
     0
  2
_OPEN
 10
2325.5042379940041
 20
5386.5740510801079
 30
0.0
 41
70.0
 42
70.0
 43
70.0
 50
180.0
  0
INSERT
  5
8B68
  8
3
 62
     0
  2
_OPEN
 10
3825.5042379940041
 20
5386.5740510801079
 30
0.0
 41
70.0
 42
70.0
 43
70.0
  0
TEXT
  8
3
  40
105
  5
8C34
  62
0
  72
0
  71
0
 10
2865.50
 20
5288.22
 30
0.000000
  1
1500
  0
POINT
  5
8B6A
  8
DEFPOINTS
 62
     0
 10
2325.5042379940041
 20
5848.7675927715281
 30
0.0
  0
POINT
  5
8B6B
  8
DEFPOINTS
 62
     0
 10
3825.5042379940041
 20
5848.7675927715281
 30
0.0
  0
POINT
  5
8B6C
  8
DEFPOINTS
 62
     0
 10
3825.5042379940041
 20
5386.5740510801079
 30
0.0
  0
ENDBLK
  5
826B
  8
0
  0
BLOCK
  8
0
  2
*D6
 70
     1
 10
0.0
 20
0.0
 30
0.0
  3
*D6
  1

  0
LINE
  5
8B6D
  8
3
 62
     0
 10
3843.0042379940041
 20
5848.7675927715281
 30
0.0
 11
4290.8960188546052
 21
5848.7675927715281
 31
0.0
  0
LINE
  5
8B6E
  8
3
 62
     0
 10
3843.0042379940041
 20
6758.7675927715263
 30
0.0
 11
4290.8960188546052
 21
6758.7675927715263
 31
0.0
  0
LINE
  5
8B6F
  8
3
 62
     0
 10
4255.8960188546052
 20
5918.7675927715281
 30
0.0
 11
4255.8960188546052
 21
6688.7675927715263
 31
0.0
  0
INSERT
  5
8B70
  8
3
 62
     0
  2
_OPEN
 10
4255.8960188546052
 20
5848.7675927715281
 30
0.0
 41
70.0
 42
70.0
 43
70.0
 50
270.0
  0
INSERT
  5
8B71
  8
3
 62
     0
  2
_OPEN
 10
4255.8960188546052
 20
6758.7675927715263
 30
0.0
 41
70.0
 42
70.0
 43
70.0
 50
90.0
  0
TEXT
  8
3
  40
105
  5
8C35
  62
0
  72
0
  71
0
 10
3958.40
 20
6072.36
 30
0.000000
  1
910
  0
POINT
  5
8B73
  8
DEFPOINTS
 62
     0
 10
3825.5042379940041
 20
5848.7675927715281
 30
0.0
  0
POINT
  5
8B74
  8
DEFPOINTS
 62
     0
 10
3825.5042379940041
 20
6758.7675927715263
 30
0.0
  0
POINT
  5
8B75
  8
DEFPOINTS
 62
     0
 10
4255.8960188546052
 20
6758.7675927715263
 30
0.0
  0
ENDBLK
  5
828D
  8
0
  0
BLOCK
  8
0
  2
*D7
 70
     1
 10
0.0
 20
0.0
 30
0.0
  3
*D7
  1

  0
LINE
  5
8B76
  8
3
 62
     0
 10
3403.0042379940041
 20
7683.7675927715281
 30
0.0
 11
4290.8960188546052
 21
7683.7675927715281
 31
0.0
  0
LINE
  5
8B77
  8
3
 62
     0
 10
4255.8960188546043
 20
6828.7675927715272
 30
0.0
 11
4255.8960188546043
 21
7613.7675927715281
 31
0.0
  0
INSERT
  5
8B78
  8
3
 62
     0
  2
_OPEN
 10
4255.8960188546043
 20
6758.7675927715263
 30
0.0
 41
70.0
 42
70.0
 43
70.0
 50
270.0
  0
INSERT
  5
8B79
  8
3
 62
     0
  2
_OPEN
 10
4255.8960188546043
 20
7683.7675927715281
 30
0.0
 41
70.0
 42
70.0
 43
70.0
 50
90.0
  0
TEXT
  8
3
  40
105
  5
8C36
  62
0
  72
0
  71
0
 10
3958.40
 20
7035.42
 30
0.000000
  1
925
  0
POINT
  5
8B7B
  8
DEFPOINTS
 62
     0
 10
3825.5042379940041
 20
6758.7675927715263
 30
0.0
  0
POINT
  5
8B7C
  8
DEFPOINTS
 62
     0
 10
3385.5042379940041
 20
7683.7675927715281
 30
0.0
  0
POINT
  5
8B7D
  8
DEFPOINTS
 62
     0
 10
4255.8960188546043
 20
7683.7675927715281
 30
0.0
  0
ENDBLK
  5
8275
  8
0
  0
BLOCK
  8
0
  2
*D8
 70
     1
 10
0.0
 20
0.0
 30
0.0
  3
*D8
  1

  0
LINE
  5
8B7E
  8
3
 62
     0
 10
3825.5042379940041
 20
6776.2675927715263
 30
0.0
 11
3825.5042379940041
 21
7949.311000374676
 31
0.0
  0
LINE
  5
8B7F
  8
3
 62
     0
 10
3385.5042379940041
 20
7701.2675927715281
 30
0.0
 11
3385.5042379940041
 21
7949.311000374676
 31
0.0
  0
LINE
  5
8B80
  8
3
 62
     0
 10
3895.5042379940028
 20
7914.311000374677
 30
0.0
 11
3965.5042379940041
 21
7914.311000374677
 31
0.0
  0
LINE
  5
8B81
  8
3
 62
     0
 10
3315.5042379940041
 20
7914.311000374677
 30
0.0
 11
3245.5042379940041
 21
7914.311000374677
 31
0.0
  0
LINE
  5
8B82
  8
3
 62
     0
 10
3825.5042379940041
 20
7914.311000374677
 30
0.0
 11
3385.5042379940041
 21
7914.311000374677
 31
0.0
  0
INSERT
  5
8B83
  8
3
 62
     0
  2
_OPEN
 10
3825.5042379940041
 20
7914.311000374677
 30
0.0
 41
70.0
 42
70.0
 43
70.0
 50
180.0
  0
INSERT
  5
8B84
  8
3
 62
     0
  2
_OPEN
 10
3385.5042379940041
 20
7914.311000374677
 30
0.0
 41
70.0
 42
70.0
 43
70.0
  0
TEXT
  8
3
  40
105
  5
8C37
  62
0
  72
0
  71
0
 10
3395.50
 20
7815.96
 30
0.000000
  1
440
  0
POINT
  5
8B86
  8
DEFPOINTS
 62
     0
 10
3825.5042379940041
 20
6758.7675927715263
 30
0.0
  0
POINT
  5
8B87
  8
DEFPOINTS
 62
     0
 10
3385.5042379940041
 20
7683.7675927715281
 30
0.0
  0
POINT
  5
8B88
  8
DEFPOINTS
 62
     0
 10
3385.5042379940041
 20
7914.311000374677
 30
0.0
  0
ENDBLK
  5
8282
  8
0
  0
BLOCK
  8
0
  2
*D9
 70
     1
 10
0.0
 20
0.0
 30
0.0
  3
*D9
  1

  0
LINE
  5
8B89
  8
3
 62
     0
 10
2065.5042379940041
 20
7701.2675927715281
 30
0.0
 11
2065.5042379940041
 21
7949.311000374676
 31
0.0
  0
LINE
  5
8B8A
  8
3
 62
     0
 10
3315.5042379940041
 20
7914.311000374677
 30
0.0
 11
2135.5042379940041
 21
7914.311000374677
 31
0.0
  0
INSERT
  5
8B8B
  8
3
 62
     0
  2
_OPEN
 10
3385.5042379940041
 20
7914.311000374677
 30
0.0
 41
70.0
 42
70.0
 43
70.0
  0
INSERT
  5
8B8C
  8
3
 62
     0
  2
_OPEN
 10
2065.5042379940041
 20
7914.311000374677
 30
0.0
 41
70.0
 42
70.0
 43
70.0
 50
180.0
  0
TEXT
  8
3
  40
105
  5
8C38
  62
0
  72
0
  71
0
 10
2515.50
 20
7815.96
 30
0.000000
  1
1320
  0
POINT
  5
8B8E
  8
DEFPOINTS
 62
     0
 10
3385.5042379940041
 20
7683.7675927715281
 30
0.0
  0
POINT
  5
8B8F
  8
DEFPOINTS
 62
     0
 10
2065.5042379940041
 20
7683.7675927715281
 30
0.0
  0
POINT
  5
8B90
  8
DEFPOINTS
 62
     0
 10
2065.5042379940041
 20
7914.311000374677
 30
0.0
  0
ENDBLK
  5
8261
  8
0
  0
BLOCK
  8
0
  2
*D10
 70
     1
 10
0.0
 20
0.0
 30
0.0
  3
*D10
  1

  0
LINE
  5
8B91
  8
3
 62
     0
 10
3825.5042379940019
 20
2418.2316662232301
 30
0.0
 11
3825.5042379940019
 21
2146.6201966049662
 31
0.0
  0
LINE
  5
8B92
  8
3
 62
     0
 10
2725.5042379940041
 20
2418.2316662232301
 30
0.0
 11
2725.5042379940041
 21
2146.6201966049662
 31
0.0
  0
LINE
  5
8B93
  8
3
 62
     0
 10
3755.5042379940019
 20
2181.6201966049671
 30
0.0
 11
2795.5042379940041
 21
2181.6201966049671
 31
0.0
  0
INSERT
  5
8B94
  8
3
 62
     0
  2
_OPEN
 10
3825.5042379940019
 20
2181.6201966049671
 30
0.0
 41
70.0
 42
70.0
 43
70.0
  0
INSERT
  5
8B95
  8
3
 62
     0
  2
_OPEN
 10
2725.5042379940041
 20
2181.6201966049671
 30
0.0
 41
70.0
 42
70.0
 43
70.0
 50
180.0
  0
TEXT
  8
3
  40
105
  5
8C39
  62
0
  72
0
  71
0
 10
3085.91
 20
2083.27
 30
0.000000
  1
1100
  0
POINT
  5
8B97
  8
DEFPOINTS
 62
     0
 10
3825.5042379940019
 20
2435.7316662232301
 30
0.0
  0
POINT
  5
8B98
  8
DEFPOINTS
 62
     0
 10
2725.5042379940041
 20
2435.7316662232301
 30
0.0
  0
POINT
  5
8B99
  8
DEFPOINTS
 62
     0
 10
2725.5042379940041
 20
2181.6201966049671
 30
0.0
  0
ENDBLK
  5
82C3
  8
0
  0
BLOCK
  8
0
  2
*D11
 70
     1
 10
0.0
 20
0.0
 30
0.0
  3
*D11
  1

  0
LINE
  5
8B9A
  8
3
 62
     0
 10
2065.5042379940041
 20
2418.2316662232301
 30
0.0
 11
2065.5042379940041
 21
2146.6201966049662
 31
0.0
  0
LINE
  5
8B9B
  8
3
 62
     0
 10
2655.5042379940041
 20
2181.6201966049671
 30
0.0
 11
2135.5042379940041
 21
2181.6201966049671
 31
0.0
  0
INSERT
  5
8B9C
  8
3
 62
     0
  2
_OPEN
 10
2725.5042379940041
 20
2181.6201966049671
 30
0.0
 41
70.0
 42
70.0
 43
70.0
  0
INSERT
  5
8B9D
  8
3
 62
     0
  2
_OPEN
 10
2065.5042379940041
 20
2181.6201966049671
 30
0.0
 41
70.0
 42
70.0
 43
70.0
 50
180.0
  0
TEXT
  8
3
  40
105
  5
8C3A
  62
0
  72
0
  71
0
 10
2185.50
 20
2083.27
 30
0.000000
  1
660
  0
POINT
  5
8B9F
  8
DEFPOINTS
 62
     0
 10
2725.5042379940041
 20
2435.7316662232301
 30
0.0
  0
POINT
  5
8BA0
  8
DEFPOINTS
 62
     0
 10
2065.5042379940041
 20
2435.7316662232301
 30
0.0
  0
POINT
  5
8BA1
  8
DEFPOINTS
 62
     0
 10
2065.5042379940041
 20
2181.6201966049671
 30
0.0
  0
ENDBLK
  5
8308
  8
0
  0
BLOCK
  8
0
  2
*D12
 70
     1
 10
0.0
 20
0.0
 30
0.0
  3
*D12
  1

  0
LINE
  5
8BA2
  8
3
 62
     0
 10
4417.9400047573081
 20
2418.2316662232301
 30
0.0
 11
4417.9400047573081
 21
2151.8794238503251
 31
0.0
  0
LINE
  5
8BA3
  8
3
 62
     0
 10
5757.9400047573081
 20
2418.2316662232301
 30
0.0
 11
5757.9400047573081
 21
2151.8794238503251
 31
0.0
  0
LINE
  5
8BA4
  8
3
 62
     0
 10
4487.940004757309
 20
2186.8794238503251
 30
0.0
 11
5687.940004757309
 21
2186.8794238503251
 31
0.0
  0
INSERT
  5
8BA5
  8
3
 62
     0
  2
_OPEN
 10
4417.9400047573081
 20
2186.8794238503251
 30
0.0
 41
70.0
 42
70.0
 43
70.0
 50
180.0
  0
INSERT
  5
8BA6
  8
3
 62
     0
  2
_OPEN
 10
5757.9400047573081
 20
2186.8794238503251
 30
0.0
 41
70.0
 42
70.0
 43
70.0
  0
TEXT
  8
3
  40
105
  5
8C3B
  62
0
  72
0
  71
0
 10
4845.03
 20
2088.53
 30
0.000000
  1
1340
  0
POINT
  5
8BA8
  8
DEFPOINTS
 62
     0
 10
4417.9400047573081
 20
2435.7316662232301
 30
0.0
  0
POINT
  5
8BA9
  8
DEFPOINTS
 62
     0
 10
5757.9400047573081
 20
2435.7316662232301
 30
0.0
  0
POINT
  5
8BAA
  8
DEFPOINTS
 62
     0
 10
5757.9400047573081
 20
2186.8794238503251
 30
0.0
  0
ENDBLK
  5
7CE5
  8
0
  0
BLOCK
  8
0
  2
*D13
 70
     1
 10
0.0
 20
0.0
 30
0.0
  3
*D13
  1

  0
LINE
  5
8BAB
  8
3
 62
     0
 10
6252.940004757309
 20
2418.2316662232301
 30
0.0
 11
6252.940004757309
 21
2151.8794238503251
 31
0.0
  0
LINE
  5
8BAC
  8
3
 62
     0
 10
5827.940004757309
 20
2186.8794238503251
 30
0.0
 11
6182.9400047573099
 21
2186.8794238503251
 31
0.0
  0
INSERT
  5
8BAD
  8
3
 62
     0
  2
_OPEN
 10
5757.9400047573081
 20
2186.8794238503251
 30
0.0
 41
70.0
 42
70.0
 43
70.0
 50
180.0
  0
INSERT
  5
8BAE
  8
3
 62
     0
  2
_OPEN
 10
6252.940004757309
 20
2186.8794238503251
 30
0.0
 41
70.0
 42
70.0
 43
70.0
  0
TEXT
  8
3
  40
105
  5
8C3C
  62
0
  72
0
  71
0
 10
5795.44
 20
2088.53
 30
0.000000
  1
495
  0
POINT
  5
8BB0
  8
DEFPOINTS
 62
     0
 10
5757.9400047573081
 20
2435.7316662232301
 30
0.0
  0
POINT
  5
8BB1
  8
DEFPOINTS
 62
     0
 10
6252.940004757309
 20
2435.7316662232301
 30
0.0
  0
POINT
  5
8BB2
  8
DEFPOINTS
 62
     0
 10
6252.940004757309
 20
2186.8794238503251
 30
0.0
  0
ENDBLK
  5
7CF1
  8
0
  0
BLOCK
  8
0
  2
*D14
 70
     1
 10
0.0
 20
0.0
 30
0.0
  3
*D14
  1

  0
LINE
  5
8BB3
  8
3
 62
     0
 10
5332.9400047573108
 20
4803.2316662232297
 30
0.0
 11
5332.9400047573108
 21
5149.5476797904048
 31
0.0
  0
LINE
  5
8BB4
  8
3
 62
     0
 10
6182.9400047573126
 20
4803.2316662232297
 30
0.0
 11
6182.9400047573126
 21
5149.5476797904048
 31
0.0
  0
LINE
  5
8BB5
  8
3
 62
     0
 10
5402.9400047573108
 20
5114.5476797904048
 30
0.0
 11
6112.9400047573117
 21
5114.5476797904048
 31
0.0
  0
INSERT
  5
8BB6
  8
3
 62
     0
  2
_OPEN
 10
5332.9400047573108
 20
5114.5476797904048
 30
0.0
 41
70.0
 42
70.0
 43
70.0
 50
180.0
  0
INSERT
  5
8BB7
  8
3
 62
     0
  2
_OPEN
 10
6182.9400047573126
 20
5114.5476797904048
 30
0.0
 41
70.0
 42
70.0
 43
70.0
  0
TEXT
  8
3
  40
105
  5
8C3D
  62
0
  72
0
  71
0
 10
5550.71
 20
5016.20
 30
0.000000
  1
850
  0
POINT
  5
8BB9
  8
DEFPOINTS
 62
     0
 10
5332.9400047573108
 20
4785.7316662232297
 30
0.0
  0
POINT
  5
8BBA
  8
DEFPOINTS
 62
     0
 10
6182.9400047573126
 20
4785.7316662232297
 30
0.0
  0
POINT
  5
8BBB
  8
DEFPOINTS
 62
     0
 10
6182.9400047573126
 20
5114.5476797904048
 30
0.0
  0
ENDBLK
  5
823C
  8
0
  0
BLOCK
  8
0
  2
*D15
 70
     1
 10
0.0
 20
0.0
 30
0.0
  3
*D15
  1

  0
LINE
  5
8BBC
  8
3
 62
     0
 10
5757.9400047573081
 20
5283.4635034827843
 30
0.0
 11
5757.9400047573081
 21
5388.1608328504108
 31
0.0
  0
LINE
  5
8BBD
  8
3
 62
     0
 10
6193.2400047573092
 20
4803.2316662232297
 30
0.0
 11
6193.2400047573092
 21
5388.1608328504108
 31
0.0
  0
LINE
  5
8BBE
  8
3
 62
     0
 10
5687.9400047573081
 20
5353.1608328504117
 30
0.0
 11
5617.9400047573081
 21
5353.1608328504117
 31
0.0
  0
LINE
  5
8BBF
  8
3
 62
     0
 10
6263.2400047573092
 20
5353.1608328504117
 30
0.0
 11
6333.2400047573101
 21
5353.1608328504117
 31
0.0
  0
LINE
  5
8BC0
  8
3
 62
     0
 10
5757.9400047573081
 20
5353.1608328504117
 30
0.0
 11
6193.2400047573092
 21
5353.1608328504117
 31
0.0
  0
INSERT
  5
8BC1
  8
3
 62
     0
  2
_OPEN
 10
5757.9400047573081
 20
5353.1608328504117
 30
0.0
 41
70.0
 42
70.0
 43
70.0
  0
INSERT
  5
8BC2
  8
3
 62
     0
  2
_OPEN
 10
6193.2400047573092
 20
5353.1608328504117
 30
0.0
 41
70.0
 42
70.0
 43
70.0
 50
180.0
  0
TEXT
  8
3
  40
105
  5
8C3E
  62
0
  72
0
  71
0
 10
5765.59
 20
5254.81
 30
0.000000
  1
435
  0
POINT
  5
8BC4
  8
DEFPOINTS
 62
     0
 10
5757.9400047573081
 20
5265.9635034827843
 30
0.0
  0
POINT
  5
8BC5
  8
DEFPOINTS
 62
     0
 10
6193.2400047573092
 20
4785.7316662232297
 30
0.0
  0
POINT
  5
8BC6
  8
DEFPOINTS
 62
     0
 10
6193.2400047573092
 20
5353.1608328504117
 30
0.0
  0
ENDBLK
  5
8253
  8
0
  0
BLOCK
  8
0
  2
*D16
 70
     1
 10
0.0
 20
0.0
 30
0.0
  3
*D16
  1

  0
LINE
  5
8BC7
  8
3
 62
     0
 10
4270.940004757309
 20
3933.2316662232288
 30
0.0
 11
4270.940004757309
 21
5388.1608328504108
 31
0.0
  0
LINE
  5
8BC8
  8
3
 62
     0
 10
5687.9400047573081
 20
5353.1608328504117
 30
0.0
 11
4340.940004757309
 21
5353.1608328504117
 31
0.0
  0
INSERT
  5
8BC9
  8
3
 62
     0
  2
_OPEN
 10
5757.9400047573081
 20
5353.1608328504117
 30
0.0
 41
70.0
 42
70.0
 43
70.0
  0
INSERT
  5
8BCA
  8
3
 62
     0
  2
_OPEN
 10
4270.940004757309
 20
5353.1608328504117
 30
0.0
 41
70.0
 42
70.0
 43
70.0
 50
180.0
  0
TEXT
  8
3
  40
105
  5
8C3F
  62
0
  72
0
  71
0
 10
4804.44
 20
5342.31
 30
0.000000
  1
MAX
  0
TEXT
  8
3
  40
105
  5
8C40
  62
0
  72
0
  71
0
 10
4804.44
 20
5205.81
 30
0.000000
  1
1530
  0
POINT
  5
8BCC
  8
DEFPOINTS
 62
     0
 10
5757.9400047573081
 20
5265.9635034827843
 30
0.0
  0
POINT
  5
8BCD
  8
DEFPOINTS
 62
     0
 10
4270.940004757309
 20
3915.7316662232301
 30
0.0
  0
POINT
  5
8BCE
  8
DEFPOINTS
 62
     0
 10
4270.940004757309
 20
5353.1608328504117
 30
0.0
  0
ENDBLK
  5
8246
  8
0
  0
BLOCK
  8
0
  2
_DOT
 70
     0
 10
0.0
 20
0.0
 30
0.0
  3
_DOT
  1

  0
LINE
  5
7E13
  8
0
  6
BYBLOCK
 62
     0
 10
0.0
 20
0.0
 30
0.0
 11
-1.0
 21
-0.0000000000000284
 31
0.0
  0
POLYLINE
  5
7E14
  8
0
  6
BYBLOCK
 62
     0
 66
     1
 10
0.0
 20
0.0
 30
0.0
 70
     1
 40
0.1666666666666666
 41
0.1666666666666666
  0
VERTEX
  5
8BCF
  8
0
  6
BYBLOCK
 62
     0
 10
-0.0833333333333286
 20
-0.0000000000000284
 30
0.0
 42
1.0
  0
VERTEX
  5
8BD0
  8
0
  6
BYBLOCK
 62
     0
 10
0.0833333333333286
 20
-0.0000000000000284
 30
0.0
 42
1.0
  0
SEQEND
  5
8BD1
  8
0
  6
BYBLOCK
 62
     0
  0
ENDBLK
  5
7DF9
  8
0
  0
BLOCK
  8
0
  2
*D18
 70
     1
 10
0.0
 20
0.0
 30
0.0
  3
*D18
  1

  0
LINE
  5
8BD2
  8
3
 62
     0
 10
1948.0042379940051
 20
3932.7316662232301
 30
0.0
 11
1606.5869183410759
 21
3932.7316662232301
 31
0.0
  0
LINE
  5
8BD3
  8
3
 62
     0
 10
1948.0042379940051
 20
2782.7316662232301
 30
0.0
 11
1606.5869183410759
 21
2782.7316662232301
 31
0.0
  0
LINE
  5
8BD4
  8
3
 62
     0
 10
1641.5869183410759
 20
3862.7316662232311
 30
0.0
 11
1641.5869183410759
 21
2852.7316662232301
 31
0.0
  0
INSERT
  5
8BD5
  8
3
 62
     0
  2
_OPEN
 10
1641.5869183410759
 20
3932.7316662232301
 30
0.0
 41
70.0
 42
70.0
 43
70.0
 50
90.0
  0
INSERT
  5
8BD6
  8
3
 62
     0
  2
_OPEN
 10
1641.5869183410759
 20
2782.7316662232301
 30
0.0
 41
70.0
 42
70.0
 43
70.0
 50
270.0
  0
TEXT
  8
3
  40
105
  5
8C41
  62
0
  72
0
  71
0
 10
1344.09
 20
3131.71
 30
0.000000
  1
1150
  0
POINT
  5
8BD8
  8
DEFPOINTS
 62
     0
 10
1965.5042379940051
 20
3932.7316662232301
 30
0.0
  0
POINT
  5
8BD9
  8
DEFPOINTS
 62
     0
 10
1965.5042379940051
 20
2782.7316662232301
 30
0.0
  0
POINT
  5
8BDA
  8
DEFPOINTS
 62
     0
 10
1641.5869183410759
 20
2782.7316662232301
 30
0.0
  0
ENDBLK
  5
82DC
  8
0
  0
BLOCK
  8
0
  2
*D19
 70
     1
 10
0.0
 20
0.0
 30
0.0
  3
*D19
  1

  0
LINE
  5
8BDB
  8
3
 62
     0
 10
1948.0042379940051
 20
2782.7316662232301
 30
0.0
 11
1349.093164771788
 21
2782.7316662232301
 31
0.0
  0
LINE
  5
8BDC
  8
3
 62
     0
 10
1824.0083472128269
 20
3980.7316662232311
 30
0.0
 11
1349.093164771788
 21
3980.7316662232311
 31
0.0
  0
LINE
  5
8BDD
  8
3
 62
     0
 10
1384.093164771788
 20
2852.7316662232301
 30
0.0
 11
1384.093164771788
 21
3910.7316662232311
 31
0.0
  0
INSERT
  5
8BDE
  8
3
 62
     0
  2
_OPEN
 10
1384.093164771788
 20
2782.7316662232301
 30
0.0
 41
70.0
 42
70.0
 43
70.0
 50
270.0
  0
INSERT
  5
8BDF
  8
3
 62
     0
  2
_OPEN
 10
1384.093164771788
 20
3980.7316662232311
 30
0.0
 41
70.0
 42
70.0
 43
70.0
 50
90.0
  0
TEXT
  8
3
  40
105
  5
8C42
  62
0
  72
0
  71
0
 10
1086.59
 20
3143.40
 30
0.000000
  1
1198
  0
POINT
  5
8BE1
  8
DEFPOINTS
 62
     0
 10
1965.5042379940051
 20
2782.7316662232301
 30
0.0
  0
POINT
  5
8BE2
  8
DEFPOINTS
 62
     0
 10
1841.5083472128269
 20
3980.7316662232311
 30
0.0
  0
POINT
  5
8BE3
  8
DEFPOINTS
 62
     0
 10
1384.093164771788
 20
3980.7316662232311
 30
0.0
  0
ENDBLK
  5
82E7
  8
0
  0
BLOCK
  8
0
  2
*D20
 70
     1
 10
0.0
 20
0.0
 30
0.0
  3
*D20
  1

  0
LINE
  5
8BE4
  8
3
 62
     0
 10
1965.5042379940051
 20
4003.2316662232301
 30
0.0
 11
1965.5042379940051
 21
5025.2698635207671
 31
0.0
  0
LINE
  5
8BE5
  8
3
 62
     0
 10
2725.5042379940041
 20
4882.2275570044076
 30
0.0
 11
2725.5042379940041
 21
5025.2698635207671
 31
0.0
  0
LINE
  5
8BE6
  8
3
 62
     0
 10
2035.5042379940051
 20
4990.2698635207671
 30
0.0
 11
2655.5042379940041
 21
4990.2698635207671
 31
0.0
  0
INSERT
  5
8BE7
  8
3
 62
     0
  2
_OPEN
 10
1965.5042379940051
 20
4990.2698635207671
 30
0.0
 41
70.0
 42
70.0
 43
70.0
 50
180.0
  0
INSERT
  5
8BE8
  8
3
 62
     0
  2
_OPEN
 10
2725.5042379940041
 20
4990.2698635207671
 30
0.0
 41
70.0
 42
70.0
 43
70.0
  0
TEXT
  8
3
  40
105
  5
8C43
  62
0
  72
0
  71
0
 10
2099.43
 20
4891.92
 30
0.000000
  1
760
  0
POINT
  5
8BEA
  8
DEFPOINTS
 62
     0
 10
1965.5042379940051
 20
3985.7316662232301
 30
0.0
  0
POINT
  5
8BEB
  8
DEFPOINTS
 62
     0
 10
2725.5042379940041
 20
4864.7275570044076
 30
0.0
  0
POINT
  5
8BEC
  8
DEFPOINTS
 62
     0
 10
2725.5042379940041
 20
4990.2698635207671
 30
0.0
  0
ENDBLK
  5
831D
  8
0
  0
BLOCK
  8
0
  2
*D21
 70
     1
 10
0.0
 20
0.0
 30
0.0
  3
*D21
  1

  0
LINE
  5
8BED
  8
3
 62
     0
 10
3694.5042379940041
 20
3916.2316662232311
 30
0.0
 11
3694.5042379940041
 21
5025.2698635207671
 31
0.0
  0
LINE
  5
8BEE
  8
3
 62
     0
 10
2795.5042379940041
 20
4990.2698635207671
 30
0.0
 11
3624.5042379940041
 21
4990.2698635207671
 31
0.0
  0
INSERT
  5
8BEF
  8
3
 62
     0
  2
_OPEN
 10
2725.5042379940041
 20
4990.2698635207671
 30
0.0
 41
70.0
 42
70.0
 43
70.0
 50
180.0
  0
INSERT
  5
8BF0
  8
3
 62
     0
  2
_OPEN
 10
3694.5042379940041
 20
4990.2698635207671
 30
0.0
 41
70.0
 42
70.0
 43
70.0
  0
TEXT
  8
3
  40
105
  5
8C44
  62
0
  72
0
  71
0
 10
3000.00
 20
4891.92
 30
0.000000
  1
969
  0
POINT
  5
8BF2
  8
DEFPOINTS
 62
     0
 10
2725.5042379940041
 20
4864.7275570044076
 30
0.0
  0
POINT
  5
8BF3
  8
DEFPOINTS
 62
     0
 10
3694.5042379940041
 20
3898.7316662232301
 30
0.0
  0
POINT
  5
8BF4
  8
DEFPOINTS
 62
     0
 10
3694.5042379940041
 20
4990.2698635207671
 30
0.0
  0
ENDBLK
  5
82B8
  8
0
  0
BLOCK
  8
0
  2
*D22
 70
     1
 10
0.0
 20
0.0
 30
0.0
  3
*D22
  1

  0
LINE
  5
8BF5
  8
3
 62
     0
 10
2048.0042379940041
 20
2625.7316662232301
 30
0.0
 11
1076.0941567609191
 21
2625.7316662232301
 31
0.0
  0
LINE
  5
8BF6
  8
3
 62
     0
 10
1824.0083472128269
 20
3980.7316662232311
 30
0.0
 11
1076.0941567609191
 21
3980.7316662232311
 31
0.0
  0
LINE
  5
8BF7
  8
3
 62
     0
 10
1111.0941567609191
 20
2695.7316662232301
 30
0.0
 11
1111.0941567609191
 21
3910.7316662232311
 31
0.0
  0
INSERT
  5
8BF8
  8
3
 62
     0
  2
_OPEN
 10
1111.0941567609191
 20
2625.7316662232301
 30
0.0
 41
70.0
 42
70.0
 43
70.0
 50
270.0
  0
INSERT
  5
8BF9
  8
3
 62
     0
  2
_OPEN
 10
1111.0941567609191
 20
3980.7316662232311
 30
0.0
 41
70.0
 42
70.0
 43
70.0
 50
90.0
  0
TEXT
  8
3
  40
105
  5
8C45
  62
0
  72
0
  71
0
 10
813.594
 20
3146.97
 30
0.000000
  1
1355
  0
POINT
  5
8BFB
  8
DEFPOINTS
 62
     0
 10
2065.5042379940041
 20
2625.7316662232301
 30
0.0
  0
POINT
  5
8BFC
  8
DEFPOINTS
 62
     0
 10
1841.5083472128269
 20
3980.7316662232311
 30
0.0
  0
POINT
  5
8BFD
  8
DEFPOINTS
 62
     0
 10
1111.0941567609191
 20
3980.7316662232311
 30
0.0
  0
ENDBLK
  5
82F2
  8
0
  0
BLOCK
  8
0
  2
*D23
 70
     1
 10
0.0
 20
0.0
 30
0.0
  3
*D23
  1

  0
LINE
  5
8BFE
  8
3
 62
     0
 10
2790.0042379940041
 20
4785.7316662232297
 30
0.0
 11
1076.0941567609191
 21
4785.7316662232306
 31
0.0
  0
LINE
  5
8BFF
  8
3
 62
     0
 10
1111.0941567609179
 20
4050.7316662232311
 30
0.0
 11
1111.0941567609179
 21
4715.7316662232324
 31
0.0
  0
INSERT
  5
8C00
  8
3
 62
     0
  2
_OPEN
 10
1111.0941567609179
 20
3980.7316662232311
 30
0.0
 41
70.0
 42
70.0
 43
70.0
 50
270.0
  0
INSERT
  5
8C01
  8
3
 62
     0
  2
_OPEN
 10
1111.0941567609179
 20
4785.7316662232306
 30
0.0
 41
70.0
 42
70.0
 43
70.0
 50
90.0
  0
TEXT
  8
3
  40
105
  5
8C46
  62
0
  72
0
  71
0
 10
813.594
 20
4197.38
 30
0.000000
  1
805
  0
POINT
  5
8C03
  8
DEFPOINTS
 62
     0
 10
1841.5083472128269
 20
3980.7316662232311
 30
0.0
  0
POINT
  5
8C04
  8
DEFPOINTS
 62
     0
 10
2807.5042379940041
 20
4785.7316662232297
 30
0.0
  0
POINT
  5
8C05
  8
DEFPOINTS
 62
     0
 10
1111.0941567609179
 20
4785.7316662232306
 30
0.0
  0
ENDBLK
  5
8312
  8
0
  0
BLOCK
  8
0
  2
*D24
 70
     1
 10
0.0
 20
0.0
 30
0.0
  3
*D24
  1

  0
LINE
  5
8C06
  8
3
 62
     0
 10
6202.4400047573126
 20
4540.7316662232288
 30
0.0
 11
6591.1837436896321
 21
4540.7316662232288
 31
0.0
  0
LINE
  5
8C07
  8
3
 62
     0
 10
6253.440004757309
 20
3420.7316662232288
 30
0.0
 11
6591.1837436896321
 21
3420.7316662232288
 31
0.0
  0
LINE
  5
8C08
  8
3
 62
     0
 10
6556.1837436896312
 20
4470.7316662232288
 30
0.0
 11
6556.1837436896312
 21
3490.7316662232288
 31
0.0
  0
INSERT
  5
8C09
  8
3
 62
     0
  2
_OPEN
 10
6556.1837436896312
 20
4540.7316662232288
 30
0.0
 41
70.0
 42
70.0
 43
70.0
 50
90.0
  0
INSERT
  5
8C0A
  8
3
 62
     0
  2
_OPEN
 10
6556.1837436896312
 20
3420.7316662232288
 30
0.0
 41
70.0
 42
70.0
 43
70.0
 50
270.0
  0
TEXT
  8
3
  40
105
  5
8C47
  62
0
  72
0
  71
0
 10
6258.68
 20
3794.88
 30
0.000000
  1
φ1120
  0
POINT
  5
8C0C
  8
DEFPOINTS
 62
     0
 10
6184.9400047573117
 20
4540.7316662232288
 30
0.0
  0
POINT
  5
8C0D
  8
DEFPOINTS
 62
     0
 10
6235.940004757309
 20
3420.7316662232288
 30
0.0
  0
POINT
  5
8C0E
  8
DEFPOINTS
 62
     0
 10
6556.1837436896312
 20
3420.7316662232288
 30
0.0
  0
ENDBLK
  5
8980
  8
0
  0
BLOCK
  8
0
  2
*D25
 70
     1
 10
0.0
 20
0.0
 30
0.0
  3
*D25
  1

  0
LINE
  5
8C0F
  8
3
 62
     0
 10
2048.0042379940041
 20
2580.7316662232301
 30
0.0
 11
1076.0546453754141
 21
2580.7316662232301
 31
0.0
  0
LINE
  5
8C10
  8
3
 62
     0
 10
2048.0042379940041
 20
2455.7316662232301
 30
0.0
 11
1076.0546453754141
 21
2455.7316662232301
 31
0.0
  0
LINE
  5
8C11
  8
3
 62
     0
 10
1111.0546453754141
 20
2650.7316662232301
 30
0.0
 11
1111.0546453754141
 21
2720.7316662232301
 31
0.0
  0
LINE
  5
8C12
  8
3
 62
     0
 10
1111.0546453754141
 20
2385.7316662232301
 30
0.0
 11
1111.0546453754141
 21
1995.7316662232299
 31
0.0
  0
LINE
  5
8C13
  8
3
 62
     0
 10
1111.0546453754141
 20
2580.7316662232301
 30
0.0
 11
1111.0546453754141
 21
2455.7316662232301
 31
0.0
  0
INSERT
  5
8C14
  8
3
 62
     0
  2
_DOT
 10
1111.0546453754141
 20
2580.7316662232301
 30
0.0
 41
70.0
 42
70.0
 43
70.0
 50
270.0
  0
INSERT
  5
8C15
  8
3
 62
     0
  2
_OPEN
 10
1111.0546453754141
 20
2455.7316662232301
 30
0.0
 41
70.0
 42
70.0
 43
70.0
 50
90.0
  0
TEXT
  8
3
  40
105
  5
8C48
  62
0
  72
0
  71
0
 10
813.555
 20
1969.88
 30
0.000000
  1
125
  0
POINT
  5
8C17
  8
DEFPOINTS
 62
     0
 10
2065.5042379940041
 20
2580.7316662232301
 30
0.0
  0
POINT
  5
8C18
  8
DEFPOINTS
 62
     0
 10
2065.5042379940041
 20
2455.7316662232301
 30
0.0
  0
POINT
  5
8C19
  8
DEFPOINTS
 62
     0
 10
1111.0546453754141
 20
2455.7316662232301
 30
0.0
  0
ENDBLK
  5
89F7
  8
0
  0
BLOCK
  8
0
  2
*D26
 70
     1
 10
0.0
 20
0.0
 30
0.0
  3
*D26
  1

  0
LINE
  5
8C1A
  8
3
 62
     0
 10
2048.0042379940041
 20
2580.7316662232301
 30
0.0
 11
1076.0546453754141
 21
2580.7316662232301
 31
0.0
  0
LINE
  5
8C1B
  8
3
 62
     0
 10
2048.0042379940041
 20
2625.7316662232301
 30
0.0
 11
1076.0546453754141
 21
2625.7316662232301
 31
0.0
  0
LINE
  5
8C1C
  8
3
 62
     0
 10
1111.054645375413
 20
2510.7316662232311
 30
0.0
 11
1111.054645375413
 21
2440.7316662232301
 31
0.0
  0
LINE
  5
8C1D
  8
3
 62
     0
 10
1111.0546453754141
 20
2695.7316662232301
 30
0.0
 11
1111.0546453754141
 21
2765.7316662232301
 31
0.0
  0
LINE
  5
8C1E
  8
3
 62
     0
 10
1111.0546453754141
 20
2603.2316662232301
 30
0.0
 11
943.554645375414
 21
2653.4816662232311
 31
0.0
  0
LINE
  5
8C1F
  8
3
 62
     0
 10
943.554645375414
 20
2653.4816662232311
 30
0.0
 11
943.554645375414
 21
3028.4816662232311
 31
0.0
  0
TEXT
  8
3
  40
105
  5
8C49
  62
0
  72
0
  71
0
 10
618.555
 20
2655.13
 30
0.000000
  1
(45)
  0
LINE
  5
8C21
  8
3
 62
     0
 10
1111.0546453754141
 20
2580.7316662232301
 30
0.0
 11
1111.0546453754141
 21
2625.7316662232301
 31
0.0
  0
LINE
  5
8C22
  8
3
 62
     0
 10
1111.0546453754141
 20
2580.7316662232301
 30
0.0
 11
1111.0546453754141
 21
2625.7316662232301
 31
0.0
  0
INSERT
  5
8C23
  8
3
 62
     0
  2
_DOT
 10
1111.0546453754141
 20
2580.7316662232301
 30
0.0
 41
70.0
 42
70.0
 43
70.0
 50
90.0
  0
INSERT
  5
8C24
  8
3
 62
     0
  2
_OPEN
 10
1111.0546453754141
 20
2625.7316662232301
 30
0.0
 41
70.0
 42
70.0
 43
70.0
 50
270.0
  0
POINT
  5
8C25
  8
DEFPOINTS
 62
     0
 10
2065.5042379940041
 20
2580.7316662232301
 30
0.0
  0
POINT
  5
8C26
  8
DEFPOINTS
 62
     0
 10
2065.5042379940041
 20
2625.7316662232301
 30
0.0
  0
POINT
  5
8C27
  8
DEFPOINTS
 62
     0
 10
1111.0546453754141
 20
2625.7316662232301
 30
0.0
  0
ENDBLK
  5
8A08
  8
0
  0
BLOCK
  8
0
  2
*D27
 70
     1
 10
0.0
 20
0.0
 30
0.0
  3
*D27
  1

  0
LINE
  5
8C28
  8
3
 62
     0
 10
2772.5042379940041
 20
4785.7316662232297
 30
0.0
 11
675.68985083131031
 21
4785.7316662232306
 31
0.0
  0
LINE
  5
8C29
  8
3
 62
     0
 10
2048.0042379940041
 20
2455.7316662232301
 30
0.0
 11
675.68985083130985
 21
2455.7316662232311
 31
0.0
  0
LINE
  5
8C2A
  8
3
 62
     0
 10
710.68985083131008
 20
4715.7316662232324
 30
0.0
 11
710.68985083130974
 21
2525.7316662232311
 31
0.0
  0
INSERT
  5
8C2B
  8
3
 62
     0
  2
_OPEN
 10
710.68985083131008
 20
4785.7316662232306
 30
0.0
 41
70.0
 42
70.0
 43
70.0
 50
90.0
  0
INSERT
  5
8C2C
  8
3
 62
     0
  2
_OPEN
 10
710.68985083130974
 20
2455.7316662232311
 30
0.0
 41
70.0
 42
70.0
 43
70.0
 50
270.0
  0
TEXT
  8
3
  40
105
  5
8C4A
  62
0
  72
0
  71
0
 10
385.690
 20
3434.88
 30
0.000000
  1
(2330)
  0
POINT
  5
8C2E
  8
DEFPOINTS
 62
     0
 10
2790.0042379940041
 20
4785.7316662232297
 30
0.0
  0
POINT
  5
8C2F
  8
DEFPOINTS
 62
     0
 10
2065.5042379940041
 20
2455.7316662232301
 30
0.0
  0
POINT
  5
8C30
  8
DEFPOINTS
 62
     0
 10
710.68985083130974
 20
2455.7316662232311
 30
0.0
  0
ENDBLK
  5
8A15
  8
0
  0
ENDSEC
  0
SECTION
  2
ENTITIES
  0
INSERT
  5
7AD0
  8
0
  2
YA_N
 10
275.18706682008099
 20
57.69095189364441
 30
0.0
  0
LINE
  5
7AD3
  8
2
 10
2725.5042379940041
 20
2455.7316662232301
 30
0.0
 11
2725.5042379940041
 21
4864.7275570044076
 31
0.0
  0
LINE
  5
7AD9
  8
1
 10
2065.5042379940041
 20
2625.7316662232301
 30
0.0
 11
3825.5042379940019
 21
2625.7316662232301
 31
0.0
1001
ACAD
1000
ASC_BOUNDS
1002
{
1070
    19
1005
0
1005
0
1002
}
  0
LINE
  5
7ADA
  8
1
 10
2065.5042379940041
 20
2750.7316662232301
 30
0.0
 11
2065.5042379940041
 21
2625.7316662232301
 31
0.0
  0
LINE
  5
7ADB
  8
1
 10
2065.5042379940041
 20
2750.7316662232301
 30
0.0
 11
3835.5042379940019
 21
2750.7316662232301
 31
0.0
  0
LINE
  5
7AE1
  8
2
 10
3575.5042379940041
 20
3298.9300210577348
 30
0.0
 11
3575.5042379940028
 21
2625.7316662232301
 31
0.0
  0
LINE
  5
7AE2
  8
2
 10
5165.5227793784816
 20
3010.7316662232301
 30
0.0
 11
4302.4444802595908
 21
3010.7316662232301
 31
0.0
  0
LINE
  5
7AE4
  8
1
 10
4417.9400047573081
 20
2750.7316662232301
 30
0.0
 11
6252.9400047573117
 21
2750.7316662232301
 31
0.0
  0
LINE
  5
7AE5
  8
1
 10
4417.9400047573081
 20
2750.7316662232301
 30
0.0
 11
4417.9400047573081
 21
2625.7316662232301
 31
0.0
  0
LINE
  5
7AE6
  8
1
 10
6252.9400047573108
 20
2750.7316662232301
 30
0.0
 11
6252.940004757309
 21
2625.7316662232301
 31
0.0
  0
LINE
  5
7AE8
  8
1
 10
4417.9400047573081
 20
2625.7316662232301
 30
0.0
 11
6252.9400047573108
 21
2625.7316662232301
 31
0.0
1001
ACAD
1000
ASC_BOUNDS
1002
{
1070
    19
1002
}
  0
LINE
  5
7AE9
  8
2
 10
4302.0222093483189
 20
3980.7316662232288
 30
0.0
 11
6290.1498232362846
 21
3980.7316662232288
 31
0.0
  0
LINE
  5
7AEA
  8
2
 10
5757.9400047573081
 20
5093.1319041286633
 30
0.0
 11
5757.9400047573081
 21
2455.7316662232301
 31
0.0
  0
INSERT
  5
7AEC
  8
0
  2
YA_N
 10
-805.59225922110249
 20
-1258.9783687196441
 30
0.0
 41
25.0
 42
25.0
 43
25.0
  0
INSERT
  5
7AEE
  8
0
  2
YA_N
 10
-77.754580822312846
 20
-323.11650731075139
 30
0.0
 41
25.0
 42
25.0
 43
25.0
  0
ARC
  5
7AF1
  8
1
 10
3575.5042379940041
 20
3010.7316662232311
 30
0.0
 40
203.5
 50
285.60376000000002
 51
254.39630099999991
  0
LINE
  5
7AF2
  8
1
 10
3630.2422749940029
 20
2814.7316662232301
 30
0.0
 11
3520.7662009940032
 21
2814.7316662232301
 31
0.0
  0
ARC
  5
7AF3
  8
1
 10
3389.5042379940041
 20
2827.7316662232301
 30
0.0
 40
3.0
 50
90.0
 51
180.0
  0
ARC
  5
7AF4
  8
1
 10
3391.5042379940041
 20
2885.0583272232302
 30
0.0
 40
5.0000669999999987
 50
124.943665
 51
180.0
  0
LINE
  5
7AF5
  8
1
 10
3386.5042379940041
 20
2885.0583272232302
 30
0.0
 11
3386.5042379940041
 21
2810.7316662232301
 31
0.0
  0
LINE
  5
7AF6
  8
1
 10
3407.2542379940041
 20
2830.7316662232311
 30
0.0
 11
3407.2542379940041
 21
2810.7316662232301
 31
0.0
  0
LINE
  5
7AF7
  8
1
 10
3425.7542379940041
 20
2830.7316662232311
 30
0.0
 11
3425.7542379940041
 21
2810.7316662232301
 31
0.0
  0
LINE
  5
7AF8
  8
1
 10
3416.5042379940041
 20
2835.1554942232301
 30
0.0
 11
3416.5042379940041
 21
2806.039772223231
 31
0.0
  0
LINE
  5
7AF9
  8
1
 10
3471.4016679940032
 20
2835.874855223231
 30
0.0
 11
3466.0042379940041
 21
2815.7316662232301
 31
0.0
  0
LINE
  5
7AFA
  8
1
 10
3466.0042379940041
 20
2827.7316662232301
 30
0.0
 11
3466.0042379940041
 21
2810.7316662232301
 31
0.0
  0
LINE
  5
7AFB
  8
1
 10
3463.0042379940041
 20
2830.7316662232311
 30
0.0
 11
3389.5042379940041
 21
2830.7316662232311
 31
0.0
  0
ARC
  5
7AFC
  8
1
 10
3463.0042379940041
 20
2827.7316662232301
 30
0.0
 40
3.0
 50
0.0
 51
90.0
  0
LINE
  5
7AFD
  8
1
 10
3388.6404679940042
 20
2889.1569592232299
 30
0.0
 11
3404.5783339940031
 21
2900.2934342232311
 31
0.0
  0
LINE
  5
7AFE
  8
1
 10
3764.5042379940041
 20
2885.0583272232302
 30
0.0
 11
3764.5042379940041
 21
2810.7316662232301
 31
0.0
  0
LINE
  5
7AFF
  8
1
 10
3743.7542379940041
 20
2830.7316662232311
 30
0.0
 11
3743.7542379940041
 21
2810.7316662232301
 31
0.0
  0
LINE
  5
7B00
  8
1
 10
3725.2542379940041
 20
2830.7316662232311
 30
0.0
 11
3725.2542379940041
 21
2810.7316662232301
 31
0.0
  0
LINE
  5
7B01
  8
1
 10
3734.5042379940041
 20
2835.1554942232301
 30
0.0
 11
3734.5042379940041
 21
2806.039772223231
 31
0.0
  0
LINE
  5
7B02
  8
1
 10
3679.6070209940049
 20
2835.87497722323
 30
0.0
 11
3685.0042379940041
 21
2815.7316662232301
 31
0.0
  0
LINE
  5
7B03
  8
1
 10
3685.0042379940041
 20
2827.7316662232301
 30
0.0
 11
3685.0042379940041
 21
2810.7316662232301
 31
0.0
  0
LINE
  5
7B04
  8
1
 10
3688.0042379940041
 20
2830.7316662232311
 30
0.0
 11
3761.5042379940041
 21
2830.7316662232311
 31
0.0
  0
ARC
  5
7B05
  8
1
 10
3688.0042379940041
 20
2827.7316662232301
 30
0.0
 40
3.0
 50
90.0
 51
180.0
  0
ARC
  5
7B06
  8
1
 10
3761.5042379940041
 20
2827.7316662232301
 30
0.0
 40
3.0
 50
0.0
 51
90.0
  0
LINE
  5
7B07
  8
1
 10
3762.3681289940032
 20
2889.1569592232299
 30
0.0
 11
3746.430262994003
 21
2900.2934342232311
 31
0.0
  0
ARC
  5
7B08
  8
1
 10
3759.5042379940041
 20
2885.0583272232302
 30
0.0
 40
5.0
 50
0.0
 51
55.05633899999998
  0
LINE
  5
7B09
  8
1
 10
3331.441981945914
 20
2810.7316662232301
 30
0.0
 11
3505.5042379940041
 21
2810.7316662232301
 31
0.0
  0
LINE
  5
7B0A
  8
1
 10
3315.5042379940019
 20
2750.7316662232301
 30
0.0
 11
3331.441981945914
 21
2810.7316662232301
 31
0.0
  0
LINE
  5
7B0B
  8
1
 10
3835.5042379940019
 20
2750.7316662232301
 30
0.0
 11
3819.519228087639
 21
2810.7316662232301
 31
0.0
  0
LINE
  5
7B0C
  8
1
 10
3505.5042379940019
 20
2760.7316662232311
 30
0.0
 11
3645.5042379940019
 21
2760.7316662232311
 31
0.0
  0
LINE
  5
7B0D
  8
1
 10
3505.5042379940041
 20
2800.7316662232301
 30
0.0
 11
3645.5042379940019
 21
2800.7316662232301
 31
0.0
  0
LINE
  5
7B0E
  8
1
 10
3645.5042379940019
 20
2810.7316662232301
 30
0.0
 11
3645.5042379940019
 21
2800.7316662232301
 31
0.0
  0
LINE
  5
7B0F
  8
1
 10
3505.5042379940019
 20
2810.7316662232301
 30
0.0
 11
3505.5042379940019
 21
2800.7316662232301
 31
0.0
  0
LINE
  5
7B10
  8
1
 10
3645.5042379940019
 20
2760.7316662232311
 30
0.0
 11
3645.5042379940028
 21
2750.7316662232301
 31
0.0
  0
LINE
  5
7B11
  8
1
 10
3505.5042379940019
 20
2760.7316662232311
 30
0.0
 11
3505.5042379940019
 21
2750.7316662232301
 31
0.0
  0
LINE
  5
7B12
  8
1
 10
3645.5042379940019
 20
2810.7316662232301
 30
0.0
 11
3819.519228087639
 21
2810.7316662232301
 31
0.0
  0
LINE
  5
7B13
  8
1
 10
3734.5042379940041
 20
2757.3731722548491
 30
0.0
 11
3734.5042379940041
 21
2728.2574502548491
 31
0.0
  0
LINE
  5
7B14
  8
1
 10
3416.5042379940041
 20
2757.3731722548491
 30
0.0
 11
3416.5042379940041
 21
2728.2574502548491
 31
0.0
  0
CIRCLE
  5
7B15
  8
1
 10
3575.5042379940041
 20
3010.7316662232311
 30
0.0
 40
118.0
  0
INSERT
  5
7B16
  8
0
  2
YA_N
 10
-125.28520241714951
 20
-378.20747810478872
 30
0.0
 41
25.0
 42
25.0
 43
25.0
  0
LINE
  5
7B18
  8
1
 10
5330.6400047573088
 20
2779.7316662232311
 30
0.0
 11
5330.6400047573088
 21
3935.7316662232301
 31
0.0
  0
LINE
  5
7B19
  8
1
 10
5332.9400047573099
 20
2779.7316662232311
 30
0.0
 11
5332.9400047573108
 21
3935.7316662232301
 31
0.0
  0
LINE
  5
7B1A
  8
1
 10
6182.9400047573072
 20
2779.7316662232311
 30
0.0
 11
6182.9400047573108
 21
3935.7316662232301
 31
0.0
  0
LINE
  5
7B1C
  8
1
 10
3825.5042379940019
 20
2750.7316662232301
 30
0.0
 11
3825.5042379940019
 21
2625.7316662232301
 31
0.0
  0
POINT
  5
7B21
  8
1
 10
2065.5042379940041
 20
2750.7316662232301
 30
0.0
  0
POINT
  5
7B22
  8
1
 10
2065.5042379940041
 20
2625.7316662232301
 30
0.0
  0
POINT
  5
7B23
  8
1
 10
2065.5042379940041
 20
2750.7316662232301
 30
0.0
  0
LINE
  5
7B25
  8
1
 10
2325.5042379940041
 20
2625.7316662232301
 30
0.0
 11
2325.5042379940041
 21
2750.7316662232301
 31
0.0
  0
LINE
  5
7B37
  8
1
 10
2065.5042379940041
 20
7683.7675927715281
 30
0.0
 11
3385.5042379940041
 21
7683.7675927715281
 31
0.0
  0
LINE
  5
7B38
  8
1
 10
2065.5042379940041
 20
7683.7675927715281
 30
0.0
 11
2065.5042379940041
 21
7613.7675927715254
 31
0.0
  0
LINE
  5
7B39
  8
1
 10
3385.5042379940041
 20
7683.7675927715281
 30
0.0
 11
3385.5042379940041
 21
7616.0675927715247
 31
0.0
  0
LINE
  5
7B3A
  8
1
 10
3825.5042379940041
 20
6758.7675927715281
 30
0.0
 11
3825.5042379940041
 21
5848.7675927715281
 31
0.0
  0
LINE
  5
7B3B
  8
1
 10
2325.5042379940041
 20
5848.7675927715281
 30
0.0
 11
3825.5042379940041
 21
5848.7675927715281
 31
0.0
  0
LINE
  5
7B3C
  8
1
 10
2065.5042379940028
 20
6693.7675927715281
 30
0.0
 11
2325.5042379940041
 21
6693.7675927715281
 31
0.0
  0
LINE
  5
7B3D
  8
1
 10
2325.5042379940041
 20
6693.7675927715281
 30
0.0
 11
2325.5042379940041
 21
5848.7675927715281
 31
0.0
  0
POINT
  5
7B3E
  8
1
 10
3125.5042379940041
 20
5848.7675927715281
 30
0.0
  0
LINE
  5
7B3F
  8
1
 10
4480.940004757309
 20
3880.7316662232288
 30
0.0
 11
4480.940004757309
 21
2750.7316662232301
 31
0.0
  0
LINE
  5
7B40
  8
1
 10
4480.940004757309
 20
3880.7316662232288
 30
0.0
 11
5234.940004757309
 21
3880.7316662232288
 31
0.0
  0
LINE
  5
7B41
  8
1
 10
5234.9400047573099
 20
3880.7316662232288
 30
0.0
 11
5234.9400047573072
 21
2750.7316662232301
 31
0.0
  0
LINE
  5
7B42
  8
1
 10
4327.940004757309
 20
4183.9316662232286
 30
0.0
 11
4437.9400047573072
 21
4183.9316662232286
 31
0.0
  0
LINE
  5
7B43
  8
1
 10
4327.9400047573117
 20
3777.5316662232299
 30
0.0
 11
4437.9400047573108
 21
3777.5316662232299
 31
0.0
  0
LINE
  5
7B44
  8
1
 10
4327.9400047573072
 20
4183.9316662232286
 30
0.0
 11
4327.9400047573163
 21
2891.7316662232301
 31
0.0
  0
LINE
  5
7B45
  8
1
 10
4437.9400047573117
 20
3129.7316662232301
 30
0.0
 11
4327.9400047573117
 21
3129.7316662232301
 31
0.0
  0
LINE
  5
7B46
  8
1
 10
4437.9400047573135
 20
2891.7316662232301
 30
0.0
 11
4327.9400047573154
 21
2891.7316662232301
 31
0.0
  0
LINE
  5
7B47
  8
1
 10
4437.9400047573072
 20
4183.9316662232286
 30
0.0
 11
4437.9400047573163
 21
2891.7316662232301
 31
0.0
  0
LINE
  5
7B48
  8
1
 10
4470.9400047573081
 20
4260.7316662232279
 30
0.0
 11
4470.9400047573081
 21
2790.7316662232301
 31
0.0
  0
LINE
  5
7B49
  8
1
 10
4270.940004757309
 20
4260.7316662232279
 30
0.0
 11
4270.940004757309
 21
2790.7316662232301
 31
0.0
  0
LINE
  5
7B4A
  8
1
 10
4270.940004757309
 20
4260.7316662232279
 30
0.0
 11
4470.9400047573081
 21
4260.7316662232279
 31
0.0
  0
LINE
  5
7B4B
  8
1
 10
4470.9400047573081
 20
2790.7316662232301
 30
0.0
 11
4270.940004757309
 21
2790.7316662232301
 31
0.0
  0
LINE
  5
7B4C
  8
2
 10
3313.7209320584002
 20
3010.7316662232311
 30
0.0
 11
3880.367275889324
 21
3010.7316662232311
 31
0.0
  0
LINE
  5
7B4D
  8
1
 10
4437.940004757309
 20
4020.7316662232288
 30
0.0
 11
5330.6400047573097
 21
4020.7316662232288
 31
0.0
  0
LINE
  5
7B4E
  8
1
 10
4437.9400047573099
 20
3940.7316662232288
 30
0.0
 11
5279.940004757309
 21
3940.7316662232288
 31
0.0
  0
POINT
  5
7B58
  8
1
 10
2065.5042379940041
 20
2625.7316662232301
 30
0.0
  0
POINT
  5
7B59
  8
1
 10
4270.940004757309
 20
4260.7316662232279
 30
0.0
  0
ARC
  5
7B5B
  8
1
 10
3575.5042379940041
 20
3010.7316662232311
 30
0.0
 40
220.0
 50
223.89415943629399
 51
38.561273344946208
  0
LINE
  5
7B63
  8
2
 10
2725.5042379940041
 20
5622.0116577251356
 30
0.0
 11
2725.5042379940041
 21
7720.9774112505047
 31
0.0
  0
LINE
  5
7B64
  8
1
 10
2015.5042379940051
 20
6763.7675927715291
 30
0.0
 11
3694.5042379940041
 21
6763.7675927715291
 31
0.0
  0
LINE
  5
7B65
  8
1
 10
2445.5042379940041
 20
5701.7675927715281
 30
0.0
 11
3795.5042379940041
 21
5701.7675927715281
 31
0.0
  0
LINE
  5
7B66
  8
1
 10
2445.5042379940041
 20
5901.7675927715281
 30
0.0
 11
3795.5042379940041
 21
5901.7675927715281
 31
0.0
  0
LINE
  5
7B67
  8
1
 10
2522.304237994003
 20
5868.7675927715254
 30
0.0
 11
3694.5042379940041
 21
5868.7675927715354
 31
0.0
  0
LINE
  5
7B68
  8
1
 10
2522.3042379940048
 20
5758.7675927715236
 30
0.0
 11
3694.5042379940041
 21
5758.7675927715354
 31
0.0
  0
LINE
  5
7B69
  8
1
 10
2980.5042379940041
 20
6665.7675927715272
 30
0.0
 11
2765.5042379940041
 21
6665.7675927715291
 31
0.0
  0
LINE
  5
7B6A
  8
1
 10
2470.5042379940041
 20
5911.7675927715281
 30
0.0
 11
2685.5042379940019
 21
5911.7675927715281
 31
0.0
  0
LINE
  5
7B6B
  8
1
 10
3795.5042379940041
 20
5901.7675927715281
 30
0.0
 11
3795.5042379940041
 21
5701.7675927715281
 31
0.0
  0
LINE
  5
7B6C
  8
1
 10
3694.5042379940041
 20
5868.7675927715318
 30
0.0
 11
3694.5042379940041
 21
5758.7675927715318
 31
0.0
  0
LINE
  5
7B6D
  8
1
 10
2685.5042379940041
 20
5868.7675927715281
 30
0.0
 11
2685.5042379940041
 21
6763.7675927715281
 31
0.0
  0
LINE
  5
7B6E
  8
1
 10
2765.5042379940041
 20
5868.7675927715281
 30
0.0
 11
2765.5042379940041
 21
6763.7675927715281
 31
0.0
  0
LINE
  5
7B6F
  8
1
 10
3456.5042379940041
 20
5868.7675927715318
 30
0.0
 11
3456.5042379940041
 21
5758.7675927715318
 31
0.0
  0
LINE
  5
7B70
  8
1
 10
2928.7042379940031
 20
5758.7675927715318
 30
0.0
 11
2928.7042379940031
 21
5868.7675927715281
 31
0.0
  0
LINE
  5
7B71
  8
1
 10
2445.5042379940041
 20
5701.7675927715281
 30
0.0
 11
2445.5042379940041
 21
5901.7675927715281
 31
0.0
  0
LINE
  5
7B72
  8
1
 10
2522.304237994003
 20
5758.7675927715281
 30
0.0
 11
2522.304237994003
 21
5868.7675927715254
 31
0.0
  0
POINT
  5
7B73
  8
1
 10
2445.5042379940041
 20
5701.7675927715281
 30
0.0
  0
LINE
  5
7B75
  8
1
 10
2015.5042379940039
 20
7616.0675927715283
 30
0.0
 11
3694.5042379940041
 21
7616.0675927715247
 31
0.0
  0
LINE
  5
7B76
  8
1
 10
2015.5042379940039
 20
7613.7675927715254
 30
0.0
 11
3694.5042379940041
 21
7613.76759277153
 31
0.0
  0
LINE
  5
7B77
  8
2
 10
4046.5312129851218
 20
7188.7675927715263
 30
0.0
 11
1747.368470507439
 21
7188.7675927715281
 31
0.0
  0
LINE
  5
7B7E
  8
2
 10
3575.5042379940041
 20
6565.6400606813149
 30
0.0
 11
3575.5042379940041
 21
5596.3840879366162
 31
0.0
  0
LINE
  5
7B7F
  8
1
 10
3775.5042379940041
 20
6561.2675927725249
 30
0.0
 11
3375.504237994006
 21
6561.2675927725231
 31
0.0
  0
LINE
  5
7B80
  8
1
 10
3775.5042379940041
 20
6031.767592772524
 30
0.0
 11
3775.5042379940041
 21
6561.2675927725249
 31
0.0
  0
LINE
  5
7B81
  8
1
 10
3375.5042379940019
 20
5925.4105116901092
 30
0.0
 11
3775.5042379940041
 21
5925.4105116901092
 31
0.0
  0
LINE
  5
7B82
  8
1
 10
3775.5042379940041
 20
5925.4105116901092
 30
0.0
 11
3775.5042379940041
 21
6084.2675927725249
 31
0.0
  0
LINE
  5
7B83
  8
1
 10
3545.5042379940041
 20
5758.7675927715327
 30
0.0
 11
3545.5042379940019
 21
5898.7675927676619
 31
0.0
  0
LINE
  5
7B84
  8
1
 10
3605.5042379940019
 20
5758.7675927715327
 30
0.0
 11
3605.5042379940019
 21
5898.7675927676619
 31
0.0
  0
LINE
  5
7B85
  8
1
 10
3636.2216869766012
 20
5903.7675927725249
 30
0.0
 11
3514.7867890114062
 21
5903.7675927725249
 31
0.0
  0
LINE
  5
7B86
  8
1
 10
3614.9255469398499
 20
5898.7675927676619
 30
0.0
 11
3538.0829290481579
 21
5898.7675927676619
 31
0.0
  0
LINE
  5
7B87
  8
1
 10
3636.2216869766012
 20
5925.4105116901092
 30
0.0
 11
3636.2216869766012
 21
5903.7675927725249
 31
0.0
  0
LINE
  5
7B88
  8
1
 10
3614.9255469398499
 20
5898.7675927676619
 30
0.0
 11
3614.925546939849
 21
5903.7675927725249
 31
0.0
  0
LINE
  5
7B89
  8
1
 10
3538.0829290481579
 20
5898.7675927676619
 30
0.0
 11
3538.0829290481579
 21
5903.7675927725249
 31
0.0
  0
LINE
  5
7B8A
  8
1
 10
3514.7867890114062
 20
5925.4105116901092
 30
0.0
 11
3514.7867890114062
 21
5903.7675927725249
 31
0.0
  0
LINE
  5
7B8B
  8
1
 10
3545.5042379940041
 20
5758.7675927715327
 30
0.0
 11
3605.5042379940041
 21
5758.7675927715327
 31
0.0
  0
LINE
  5
7B8C
  8
1
 10
3375.5042379940041
 20
5925.4105116901092
 30
0.0
 11
3375.504237994006
 21
6561.2675927725231
 31
0.0
  0
LINE
  5
7B8F
  8
1
 10
2685.5042379940041
 20
6665.7675927715291
 30
0.0
 11
2470.5042379940041
 21
6665.7675927715272
 31
0.0
  0
LINE
  5
7B90
  8
1
 10
2765.5042379940019
 20
5911.7675927715281
 30
0.0
 11
2980.5042379940041
 21
5911.7675927715281
 31
0.0
  0
DIMENSION
  5
7BA3
  8
3
  2
*D2
 10
1438.194819582925
 20
6693.7675927715281
 30
0.0
 11
1438.1948195829241
 21
7190.8552420415108
 31
0.0
 70
   128
 13
2065.5042379940041
 23
7683.7675927715281
 33
0.0
 14
2065.5042379940041
 24
6693.7675927715281
 34
0.0
 50
270.0
1001
ACAD
1000
DSTYLE
1002
{
1070
   287
1070
     3
1070
   287
1070
     3
1070
    40
1040
35.0
1070
   143
1040
0.039
1070
   172
1070
     1
1070
   271
1070
     0
1070
   279
1070
     0
1070
   288
1070
     1
1002
}
  0
LINE
  5
7BB1
  8
1
 10
2065.5042379940041
 20
6763.7675927715291
 30
0.0
 11
2065.5042379940041
 21
6693.7675927715281
 31
0.0
  0
DIMENSION
  5
7BBF
  8
3
  2
*D3
 10
1438.1948195829241
 20
5848.76759277153
 30
0.0
 11
1350.6948195829229
 21
6271.2675927715291
 31
0.0
 70
     0
 13
2065.5042379940041
 23
6693.7675927715281
 33
0.0
 14
2325.5042379940041
 24
5848.7675927715281
 34
0.0
 50
270.0
1001
ACAD
1000
DSTYLE
1002
{
1070
   287
1070
     4
1070
   287
1070
     4
1070
    40
1040
35.0
1070
    75
1070
     1
1070
   143
1040
0.039
1070
   172
1070
     1
1070
   271
1070
     0
1070
   279
1070
     1
1070
   288
1070
     1
1002
}
  0
DIMENSION
  5
7BCE
  8
3
  2
*D4
 10
2325.5042379940041
 20
5386.5740510801079
 30
0.0
 11
1825.5042379940039
 21
5386.5740510801079
 31
0.0
 70
   128
 13
2065.5042379940041
 23
6693.7675927715281
 33
0.0
 14
2325.5042379940041
 24
5848.7675927715281
 34
0.0
1001
ACAD
1000
DSTYLE
1002
{
1070
   287
1070
     3
1070
   287
1070
     3
1070
    40
1040
35.0
1070
   143
1040
0.039
1070
   172
1070
     1
1070
   271
1070
     0
1070
   279
1070
     0
1070
   288
1070
     1
1002
}
  0
DIMENSION
  5
7BE6
  8
3
  2
*D5
 10
3825.5042379940041
 20
5386.5740510801079
 30
0.0
 11
3075.5042379940041
 21
5474.0740510801079
 31
0.0
 70
     0
 13
2325.5042379940041
 23
5848.7675927715281
 33
0.0
 14
3825.5042379940041
 24
5848.7675927715281
 34
0.0
1001
ACAD
1000
DSTYLE
1002
{
1070
   287
1070
     4
1070
   287
1070
     4
1070
    40
1040
35.0
1070
    75
1070
     1
1070
   143
1040
0.039
1070
   172
1070
     1
1070
   271
1070
     0
1070
   279
1070
     1
1070
   288
1070
     1
1002
}
  0
DIMENSION
  5
7BF3
  8
3
  2
*D6
 10
4255.8960188546052
 20
6758.7675927715263
 30
0.0
 11
4255.8960188546043
 21
6258.2074768975936
 31
0.0
 70
   128
 13
3825.5042379940041
 23
5848.7675927715281
 33
0.0
 14
3825.5042379940041
 24
6758.7675927715263
 34
0.0
 50
270.0
1001
ACAD
1000
DSTYLE
1002
{
1070
   287
1070
     3
1070
   287
1070
     3
1070
    40
1040
35.0
1070
   143
1040
0.039
1070
   172
1070
     1
1070
   271
1070
     0
1070
   279
1070
     0
1070
   288
1070
     1
1002
}
  0
DIMENSION
  5
7BFF
  8
3
  2
*D7
 10
4255.8960188546043
 20
7683.7675927715281
 30
0.0
 11
4168.3960188546016
 21
7221.2675927715281
 31
0.0
 70
     0
 13
3825.5042379940041
 23
6758.7675927715263
 33
0.0
 14
3385.5042379940041
 24
7683.7675927715281
 34
0.0
 50
270.0
1001
ACAD
1000
DSTYLE
1002
{
1070
   287
1070
     4
1070
   287
1070
     4
1070
    40
1040
35.0
1070
    75
1070
     1
1070
   143
1040
0.039
1070
   172
1070
     1
1070
   271
1070
     0
1070
   279
1070
     1
1070
   288
1070
     1
1002
}
  0
DIMENSION
  5
7C0E
  8
3
  2
*D8
 10
3385.5042379940041
 20
7914.311000374677
 30
0.0
 11
3605.5042379940041
 21
7914.311000374677
 31
0.0
 70
   128
 13
3825.5042379940041
 23
6758.7675927715263
 33
0.0
 14
3385.5042379940041
 24
7683.7675927715281
 34
0.0
1001
ACAD
1000
DSTYLE
1002
{
1070
   287
1070
     3
1070
   287
1070
     3
1070
    40
1040
35.0
1070
   143
1040
0.039
1070
   172
1070
     1
1070
   271
1070
     0
1070
   279
1070
     0
1070
   288
1070
     1
1002
}
  0
DIMENSION
  5
7C1A
  8
3
  2
*D9
 10
2065.5042379940041
 20
7914.311000374677
 30
0.0
 11
2725.5042379940041
 21
8001.8110003746779
 31
0.0
 70
     0
 13
3385.5042379940041
 23
7683.7675927715281
 33
0.0
 14
2065.5042379940041
 24
7683.7675927715281
 34
0.0
1001
ACAD
1000
DSTYLE
1002
{
1070
   287
1070
     4
1070
   287
1070
     4
1070
    40
1040
35.0
1070
    75
1070
     1
1070
   143
1040
0.039
1070
   172
1070
     1
1070
   271
1070
     0
1070
   279
1070
     1
1070
   288
1070
     1
1002
}
  0
DIMENSION
  5
7CC1
  8
3
  2
*D10
 10
2725.5042379940041
 20
2181.6201966049671
 30
0.0
 11
3295.9053772255361
 21
2181.6201966049671
 31
0.0
 70
   128
 13
3825.5042379940019
 23
2435.7316662232301
 33
0.0
 14
2725.5042379940041
 24
2435.7316662232301
 34
0.0
1001
ACAD
1000
DSTYLE
1002
{
1070
   287
1070
     3
1070
   287
1070
     3
1070
    40
1040
35.0
1070
   143
1040
0.039
1070
   172
1070
     1
1070
   271
1070
     0
1070
   279
1070
     0
1070
   288
1070
     1
1002
}
  0
DIMENSION
  5
7CCD
  8
3
  2
*D11
 10
2065.5042379940041
 20
2181.6201966049671
 30
0.0
 11
2395.5042379940041
 21
2269.1201966049662
 31
0.0
 70
     0
 13
2725.5042379940041
 23
2435.7316662232301
 33
0.0
 14
2065.5042379940041
 24
2435.7316662232301
 34
0.0
1001
ACAD
1000
DSTYLE
1002
{
1070
   287
1070
     4
1070
   287
1070
     4
1070
    40
1040
35.0
1070
    75
1070
     1
1070
   143
1040
0.039
1070
   172
1070
     1
1070
   271
1070
     0
1070
   279
1070
     1
1070
   288
1070
     1
1002
}
  0
DIMENSION
  5
7CE6
  8
3
  2
*D12
 10
5757.9400047573081
 20
2186.8794238503251
 30
0.0
 11
5055.026162118309
 21
2186.8794238503251
 31
0.0
 70
   128
 13
4417.9400047573081
 23
2435.7316662232301
 33
0.0
 14
5757.9400047573081
 24
2435.7316662232301
 34
0.0
1001
ACAD
1000
DSTYLE
1002
{
1070
   287
1070
     3
1070
   287
1070
     3
1070
    40
1040
35.0
1070
   143
1040
0.039
1070
   172
1070
     1
1070
   271
1070
     0
1070
   279
1070
     0
1070
   288
1070
     1
1002
}
  0
DIMENSION
  5
7CF2
  8
3
  2
*D13
 10
6252.940004757309
 20
2186.8794238503251
 30
0.0
 11
6005.440004757309
 21
2274.3794238503251
 31
0.0
 70
     0
 13
5757.9400047573081
 23
2435.7316662232301
 33
0.0
 14
6252.940004757309
 24
2435.7316662232301
 34
0.0
1001
ACAD
1000
DSTYLE
1002
{
1070
   287
1070
     4
1070
   287
1070
     4
1070
    40
1040
35.0
1070
    75
1070
     1
1070
   143
1040
0.039
1070
   172
1070
     1
1070
   271
1070
     0
1070
   279
1070
     1
1070
   288
1070
     1
1002
}
  0
DIMENSION
  5
7D19
  8
3
  2
*D14
 10
6182.9400047573126
 20
5114.5476797904048
 30
0.0
 11
5760.7077326111694
 21
5114.5476797904048
 31
0.0
 70
   128
 13
5332.9400047573108
 23
4785.7316662232297
 33
0.0
 14
6182.9400047573126
 24
4785.7316662232297
 34
0.0
1001
ACAD
1000
DSTYLE
1002
{
1070
   287
1070
     3
1070
   287
1070
     3
1070
    40
1040
35.0
1070
   143
1040
0.039
1070
   172
1070
     1
1070
   271
1070
     0
1070
   279
1070
     0
1070
   288
1070
     1
1002
}
  0
DIMENSION
  5
7D28
  8
3
  2
*D15
 10
6193.2400047573092
 20
5353.1608328504117
 30
0.0
 11
5975.5900047573077
 21
5353.1608328504117
 31
0.0
 70
   128
 13
5757.9400047573081
 23
5265.9635034827843
 33
0.0
 14
6193.2400047573092
 24
4785.7316662232297
 34
0.0
1001
ACAD
1000
DSTYLE
1002
{
1070
   287
1070
     3
1070
   287
1070
     3
1070
    40
1040
35.0
1070
   143
1040
0.039
1070
   172
1070
     1
1070
   271
1070
     0
1070
   279
1070
     0
1070
   288
1070
     1
1002
}
  0
DIMENSION
  5
7D76
  8
3
  2
*D16
 10
4270.940004757309
 20
5353.1608328504117
 30
0.0
 11
5014.440004757309
 21
5528.1608328504117
 31
0.0
 70
     0
  1
MAX\P1530
 13
5757.9400047573081
 23
5265.9635034827843
 33
0.0
 14
4270.940004757309
 24
3915.7316662232301
 34
0.0
1001
ACAD
1000
DSTYLE
1002
{
1070
   287
1070
     4
1070
   287
1070
     4
1070
    40
1040
35.0
1070
    75
1070
     1
1070
   143
1040
0.039
1070
   172
1070
     1
1070
   271
1070
     0
1070
   279
1070
     1
1070
   288
1070
     1
1002
}
  0
LINE
  5
7D81
  8
4
 10
6475.0
 20
1580.0
 30
0.0
 11
6475.0
 21
880.0
 31
0.0
  0
LINE
  5
7D82
  8
4
 10
4025.0
 20
1580.0
 30
0.0
 11
4025.0
 21
880.0
 31
0.0
  0
LINE
  5
7D83
  8
4
 10
2275.0
 20
1580.0
 30
0.0
 11
2275.0
 21
880.0
 31
0.0
  0
LINE
  5
7D86
  8
4
 10
2275.0
 20
880.0
 30
0.0
 11
6475.0
 21
880.0
 31
0.0
  0
LINE
  5
7D87
  8
4
 10
2275.0
 20
1230.0
 30
0.0
 11
6475.0
 21
1230.0
 31
0.0
  0
TEXT
  5
7D88
  8
4
 10
2409.7572829641558
 20
1340.4005905331451
 30
0.0
 40
175.0
  1
機器名称
  0
TEXT
  5
7D89
  8
4
 10
2401.9033710867911
 20
955.7580485620382
 30
0.0
 40
175.0
  1
機器型番
  0
TEXT
  5
7D8A
  8
4
 10
4131.1124678485839
 20
1312.5648553767689
 30
0.0
 40
140.0
  1
ミツヤリミットロ－ﾄﾞファン
  0
TEXT
  5
7D8B
  8
4
 10
4153.2907345491822
 20
940.05854497980181
 30
0.0
 40
175.0
  1
LL#7-1
  0
TEXT
  5
7D8D
  8
4
 10
2697.9708263690191
 20
8342.0009446638051
 30
0.0
 40
188.99999999999989
  1
床置防振ベット
  0
TEXT
  5
7D8E
  8
4
 10
1004.678023501895
 20
8868.5834166975455
 30
0.0
 40
252.0
  1
遠心式片吸込片持リミットロ－ﾄﾞファン
  0
LINE
  5
7D8F
  8
4
 10
875.0
 20
8642.9306399268171
 30
0.0
 11
6475.0
 21
8642.9306399268171
 31
0.0
  0
LINE
  5
7D90
  8
4
 10
875.0
 20
9342.9306399268171
 30
0.0
 11
6475.0
 21
9342.9306399268171
 31
0.0
  0
LINE
  5
7D91
  8
4
 10
2275.0
 20
1580.0
 30
0.0
 11
6475.0
 21
1580.0
 31
0.0
  0
LINE
  5
7D92
  8
4
 10
875.0
 20
9342.9306399268171
 30
0.0
 11
875.0
 21
8642.9306399268171
 31
0.0
  0
TEXT
  5
7D93
  8
4
 10
1172.4649135195609
 20
8338.1181714122031
 30
0.0
 40
188.99999999999989
  1
右回転左横向
  0
TEXT
  5
7D94
  8
4
 10
5141.3934573725146
 20
9471.21378523358
 30
0.0
 40
196.0
  1
No.
  0
TEXT
  5
7D95
  8
4
 10
4589.5362191000459
 20
8342.0009446638051
 30
0.0
 40
188.99999999999989
  1
縮尺：1/35
  0
LINE
  5
7D96
  8
4
 10
6475.0
 20
9342.9306399268171
 30
0.0
 11
6475.0
 21
8642.9306399268171
 31
0.0
  0
LINE
  5
7D97
  8
4
 10
7350.0
 20
10325.0
 30
0.0
 11
7350.0
 21
10325.0
 31
0.0
  0
LINE
  5
7D98
  8
4
 10
5042.160978259526
 20
9384.4225409389055
 30
0.0
 11
5042.160978259526
 21
9753.2829154241354
 31
0.0
  0
LINE
  5
7D99
  8
4
 10
5042.160978259526
 20
9753.2829154241354
 30
0.0
 11
6475.0
 21
9753.2829154241354
 31
0.0
  0
LINE
  5
7D9A
  8
4
 10
6475.0
 20
9753.2829154241354
 30
0.0
 11
6475.0
 21
9384.4225409389055
 31
0.0
  0
LINE
  5
7D9B
  8
4
 10
6475.0
 20
9384.4225409389055
 30
0.0
 11
5042.160978259526
 21
9384.4225409389055
 31
0.0
  0
LINE
  5
7D9C
  8
4
 10
0.0
 20
0.0
 30
0.0
 11
0.0
 21
10325.0
 31
0.0
  0
LINE
  5
7D9D
  8
4
 10
0.0
 20
10325.0
 30
0.0
 11
7350.0
 21
10325.0
 31
0.0
  0
LINE
  5
7D9E
  8
4
 10
7350.0
 20
10325.0
 30
0.0
 11
7350.0
 21
0.0
 31
0.0
  0
LINE
  5
7D9F
  8
4
 10
7350.0
 20
0.0
 30
0.0
 11
0.0
 21
0.0
 31
0.0
  0
LINE
  5
7E35
  8
1
 10
1969.5042379940051
 20
3985.7316662232301
 30
0.0
 11
1969.5042379940051
 21
2729.7316662232301
 31
0.0
  0
LINE
  5
7E36
  8
1
 10
2015.5042379940051
 20
3985.7316662232301
 30
0.0
 11
2015.5042379940051
 21
2729.7316662232301
 31
0.0
  0
LINE
  5
7E37
  8
1
 10
1965.5042379940051
 20
3985.7316662232301
 30
0.0
 11
1965.5042379940051
 21
2729.7316662232301
 31
0.0
  0
ARC
  5
7E39
  8
1
 10
2643.5042379940041
 20
3898.7316662232301
 30
0.0
 40
1051.0
 50
295.72486658262699
 51
0.0
  0
LINE
  5
7E4C
  8
1
 10
1965.5042379940051
 20
2782.7316662232301
 30
0.0
 11
2333.8521564660568
 21
2815.7878584537111
 31
0.0
  0
LINE
  5
7E4D
  8
1
 10
1965.5042379940051
 20
2729.7316662232301
 30
0.0
 11
2015.5042379940051
 21
2729.7316662232301
 31
0.0
  0
ARC
  5
7E53
  8
1
 10
2794.0042379940041
 20
4049.2316662232311
 30
0.0
 40
736.5
 50
95.336648321383507
 51
185.33664832138339
  0
CIRCLE
  5
7E54
  8
1
 10
2725.5042379940041
 20
3980.7316662232311
 30
0.0
 40
203.19999999999999
  0
LINE
  5
7E6F
  8
1
 10
1965.5042379940051
 20
3932.7316662232301
 30
0.0
 11
2068.932813760518
 21
3932.7316662232301
 31
0.0
  0
LINE
  5
7E70
  8
1
 10
1965.5042379940051
 20
3985.7316662232301
 30
0.0
 11
2015.5042379940051
 21
3985.7316662232301
 31
0.0
  0
ARC
  5
7E71
  8
1
 10
2657.0042379940041
 20
4049.2316662232311
 30
0.0
 40
599.5
 50
186.56105354283341
 51
191.2055053685535
  0
ARC
  5
7E74
  8
1
 10
2807.5042379940041
 20
3898.7316662232301
 30
0.0
 40
887.0
 50
0.0
 51
95.304365207795854
  0
LINE
  5
8061
  8
2
 10
3879.8737085349931
 20
3980.7316662232311
 30
0.0
 11
1841.5083472128269
 21
3980.7316662232311
 31
0.0
  0
ARC
  5
8063
  8
1
 10
2725.5042379940041
 20
3980.7316662232311
 30
0.0
 40
280.0
 50
38.561273344946173
 51
223.8941594362939
  0
LINE
  5
8064
  8
1
 10
2886.8431397857348
 20
4104.2630337726841
 30
0.0
 11
3669.1951356880199
 21
3082.4674013159251
 31
0.0
  0
LINE
  5
8065
  8
1
 10
2581.8589084037881
 20
3837.0088103967528
 30
0.0
 11
3492.0881509288188
 21
2927.270559001161
 31
0.0
  0
LINE
  5
8066
  8
1
 10
3747.5314733415921
 20
3147.8689343113228
 30
0.0
 11
2944.4479920727531
 21
4155.2700074262566
 31
0.0
  0
LINE
  5
8067
  8
1
 10
2523.7301364341929
 20
3786.5997215574162
 30
0.0
 11
3416.967443911295
 21
2858.199423985805
 31
0.0
  0
LINE
  5
8069
  8
1
 10
1965.5042379940051
 20
6710.7675927715291
 30
0.0
 11
1965.5042379940051
 21
7666.7675927715272
 31
0.0
  0
LINE
  5
806A
  8
1
 10
2015.504237994006
 20
7666.7675927715272
 30
0.0
 11
1965.5042379940051
 21
7666.7675927715254
 31
0.0
  0
LINE
  5
806B
  8
1
 10
2015.5042379940051
 20
6710.7675927715291
 30
0.0
 11
1965.5042379940051
 21
6710.7675927715291
 31
0.0
  0
LINE
  5
806C
  8
1
 10
2015.5042379940051
 20
6710.7675927715291
 30
0.0
 11
2015.5042379940051
 21
7666.7675927715272
 31
0.0
  0
LINE
  5
806D
  8
1
 10
3694.5042379940041
 20
6761.76759277153
 30
0.0
 11
3694.5042379940041
 21
7616.0675927715247
 31
0.0
  0
LINE
  5
806F
  8
1
 10
2015.5042379940051
 20
6761.76759277153
 30
0.0
 11
3694.5042379940041
 21
6761.76759277153
 31
0.0
  0
LINE
  5
8071
  8
1
 10
3825.5042379940041
 20
6758.7675927715281
 30
0.0
 11
2065.5042379940041
 21
6758.7675927715281
 31
0.0
  0
LINE
  5
80D2
  8
1
 10
5330.6400047573088
 20
4785.7316662232297
 30
0.0
 11
6184.9400047573126
 21
4785.7316662232306
 31
0.0
  0
LINE
  5
80F8
  8
1
 10
5279.940004757309
 20
3985.7316662232301
 30
0.0
 11
5330.6400047573088
 21
3985.7316662232301
 31
0.0
  0
LINE
  5
80FB
  8
1
 10
5279.940004757309
 20
3985.7316662232301
 30
0.0
 11
5279.940004757309
 21
2750.7316662232311
 31
0.0
  0
LINE
  5
80FD
  8
1
 10
6235.940004757309
 20
3985.7316662232301
 30
0.0
 11
6235.9400047573099
 21
2750.7316662232311
 31
0.0
  0
LINE
  5
80FE
  8
1
 10
5330.6400047573088
 20
2779.7316662232311
 30
0.0
 11
6182.9400047573072
 21
2779.7316662232311
 31
0.0
  0
LINE
  5
8100
  8
1
 10
5332.9400047573108
 20
3935.7316662232301
 30
0.0
 11
5332.9400047573108
 21
4785.7316662232297
 31
0.0
  0
LINE
  5
8101
  8
1
 10
5330.6400047573088
 20
3935.7316662232301
 30
0.0
 11
5330.6400047573088
 21
4785.7316662232297
 31
0.0
  0
LINE
  5
8102
  8
1
 10
6182.9400047573117
 20
3935.7316662232311
 30
0.0
 11
6182.9400047573126
 21
4785.7316662232297
 31
0.0
  0
LINE
  5
8103
  8
1
 10
6184.9400047573108
 20
3935.7316662232311
 30
0.0
 11
6184.9400047573117
 21
4785.7316662232297
 31
0.0
  0
LINE
  5
8104
  8
1
 10
5330.6400047573088
 20
3675.7316662232301
 30
0.0
 11
5332.9400047573099
 21
3675.7316662232301
 31
0.0
  0
LINE
  5
8105
  8
1
 10
5330.6400047573088
 20
3595.7316662232311
 30
0.0
 11
5332.9400047573099
 21
3595.7316662232311
 31
0.0
  0
DIMENSION
  5
8116
  8
3
  2
*D18
 10
1641.5869183410759
 20
2782.7316662232301
 30
0.0
 11
1641.5869183410759
 21
3317.555896843598
 31
0.0
 70
   128
 13
1965.5042379940051
 23
3932.7316662232301
 33
0.0
 14
1965.5042379940051
 24
2782.7316662232301
 34
0.0
 50
270.0
1001
ACAD
1000
DSTYLE
1002
{
1070
   287
1070
     3
1070
   287
1070
     3
1070
    40
1040
35.0
1070
   143
1040
0.039
1070
   172
1070
     1
1070
   271
1070
     0
1070
   279
1070
     0
1070
   288
1070
     1
1002
}
  0
DIMENSION
  5
8123
  8
3
  2
*D19
 10
1384.093164771788
 20
3980.7316662232311
 30
0.0
 11
1384.093164771788
 21
3329.2491505602288
 31
0.0
 70
   128
 13
1965.5042379940051
 23
2782.7316662232301
 33
0.0
 14
1841.5083472128269
 24
3980.7316662232311
 34
0.0
 50
270.0
1001
ACAD
1000
DSTYLE
1002
{
1070
   287
1070
     3
1070
   287
1070
     3
1070
    40
1040
35.0
1070
   143
1040
0.039
1070
   172
1070
     1
1070
   271
1070
     0
1070
   279
1070
     0
1070
   288
1070
     1
1002
}
  0
DIMENSION
  5
813C
  8
3
  2
*D20
 10
2725.5042379940041
 20
4990.2698635207671
 30
0.0
 11
2309.4348630335148
 21
4990.2698635207671
 31
0.0
 70
   128
 13
1965.5042379940051
 23
3985.7316662232301
 33
0.0
 14
2725.5042379940041
 24
4864.7275570044076
 34
0.0
1001
ACAD
1000
DSTYLE
1002
{
1070
   287
1070
     3
1070
   287
1070
     3
1070
    40
1040
35.0
1070
   143
1040
0.039
1070
   172
1070
     1
1070
   271
1070
     0
1070
   279
1070
     0
1070
   288
1070
     1
1002
}
  0
DIMENSION
  5
8149
  8
3
  2
*D21
 10
3694.5042379940041
 20
4990.2698635207671
 30
0.0
 11
3210.0042379940041
 21
5077.7698635207671
 31
0.0
 70
     0
 13
2725.5042379940041
 23
4864.7275570044076
 33
0.0
 14
3694.5042379940041
 24
3898.7316662232301
 34
0.0
1001
ACAD
1000
DSTYLE
1002
{
1070
   287
1070
     4
1070
   287
1070
     4
1070
    40
1040
35.0
1070
    75
1070
     1
1070
   143
1040
0.039
1070
   172
1070
     1
1070
   271
1070
     0
1070
   279
1070
     1
1070
   288
1070
     1
1002
}
  0
DIMENSION
  5
8156
  8
3
  2
*D22
 10
1111.0941567609191
 20
3980.7316662232311
 30
0.0
 11
1111.0941567609179
 21
3332.8243202195181
 31
0.0
 70
   128
 13
2065.5042379940041
 23
2625.7316662232301
 33
0.0
 14
1841.5083472128269
 24
3980.7316662232311
 34
0.0
 50
270.0
1001
ACAD
1000
DSTYLE
1002
{
1070
   287
1070
     3
1070
   287
1070
     3
1070
    40
1040
35.0
1070
   143
1040
0.039
1070
   172
1070
     1
1070
   271
1070
     0
1070
   279
1070
     0
1070
   288
1070
     1
1002
}
  0
DIMENSION
  5
8162
  8
3
  2
*D23
 10
1111.0941567609179
 20
4785.7316662232306
 30
0.0
 11
1023.594156760917
 21
4383.2316662232306
 31
0.0
 70
     0
 13
1841.5083472128269
 23
3980.7316662232311
 33
0.0
 14
2807.5042379940041
 24
4785.7316662232297
 34
0.0
 50
270.0
1001
ACAD
1000
DSTYLE
1002
{
1070
   287
1070
     4
1070
   287
1070
     4
1070
    40
1040
35.0
1070
    75
1070
     1
1070
   143
1040
0.039
1070
   172
1070
     1
1070
   271
1070
     0
1070
   279
1070
     1
1070
   288
1070
     1
1002
}
  0
LINE
  5
8320
  8
1
 10
6184.9400047573072
 20
2779.7316662232311
 30
0.0
 11
6184.9400047573108
 21
3935.7316662232301
 31
0.0
  0
LINE
  5
8321
  8
1
 10
6184.9400047573117
 20
3985.7316662232311
 30
0.0
 11
6235.940004757309
 21
3985.7316662232301
 31
0.0
  0
LINE
  5
88FB
  8
FUTO
 10
4493.4400047583067
 20
2750.731666223207
 30
0.0
 11
4493.440004758304
 21
2810.731666223206
 31
0.0
  0
LINE
  5
88FC
  8
FUTO
 10
5013.4400047583067
 20
2750.731666223207
 30
0.0
 11
5013.440004758304
 21
2810.731666223206
 31
0.0
  0
LINE
  5
8907
  8
FUTO
 10
5130.4400047583049
 20
2817.0988484374388
 30
0.0
 11
5130.4400047583049
 21
3230.7768163372848
 31
0.0
  0
LINE
  5
890A
  8
FUTO
 10
4853.4400047583067
 20
2810.731666223207
 30
0.0
 11
4933.4400047583049
 21
2810.731666223207
 31
0.0
  0
LINE
  5
8918
  8
FUTO
 10
4494.58292367589
 20
3230.7768163372771
 30
0.0
 11
4494.58292367589
 21
2817.0988484374388
 31
0.0
  0
LINE
  5
8923
  8
FUTO
 10
4493.4400047583067
 20
2810.731666223207
 30
0.0
 11
5013.4400047583067
 21
2810.731666223207
 31
0.0
  0
LINE
  5
8925
  8
FUTO
 10
4494.58292367589
 20
2817.0988484374388
 30
0.0
 11
5130.4400047583049
 21
2817.0988484374388
 31
0.0
  0
LINE
  5
8926
  8
FUTO
 10
4327.9400047573154
 20
3040.731666223207
 30
0.0
 11
4467.9400047534436
 21
3040.7316662232079
 31
0.0
  0
LINE
  5
8927
  8
FUTO
 10
4327.9400047573154
 20
2980.7316662232079
 30
0.0
 11
4467.9400047534436
 21
2980.7316662232079
 31
0.0
  0
LINE
  5
892D
  8
FUTO
 10
4472.9400047583058
 20
2950.0142172406081
 30
0.0
 11
4472.9400047583058
 21
3071.4491152058058
 31
0.0
  0
LINE
  5
892E
  8
FUTO
 10
4467.9400047534436
 20
2971.3103572773612
 30
0.0
 11
4467.9400047534436
 21
3048.1529751690532
 31
0.0
  0
LINE
  5
892F
  8
FUTO
 10
4494.58292367589
 20
2950.0142172406081
 30
0.0
 11
4472.9400047583058
 21
2950.0142172406081
 31
0.0
  0
LINE
  5
8930
  8
FUTO
 10
4467.9400047534436
 20
2971.3103572773612
 30
0.0
 11
4472.9400047583058
 21
2971.3103572773621
 31
0.0
  0
LINE
  5
8931
  8
FUTO
 10
4467.9400047534436
 20
3048.1529751690532
 30
0.0
 11
4472.9400047583058
 21
3048.1529751690532
 31
0.0
  0
LINE
  5
8932
  8
FUTO
 10
4494.58292367589
 20
3071.4491152058058
 30
0.0
 11
4472.9400047583058
 21
3071.4491152058058
 31
0.0
  0
LINE
  5
8939
  8
FUTO
 10
4494.58292367589
 20
3230.7768163372771
 30
0.0
 11
5130.4400047583049
 21
3230.7768163372848
 31
0.0
  0
LINE
  5
893A
  8
FUTO
 10
4327.9400047573154
 20
3040.731666223207
 30
0.0
 11
4327.9400047573154
 21
2980.731666223207
 31
0.0
  0
LINE
  5
893B
  8
FUTO
 10
4493.4400047583067
 20
2750.731666223207
 30
0.0
 11
5013.4400047583067
 21
2750.731666223207
 31
0.0
  0
DIMENSION
  5
8975
  8
3
  2
*D24
 10
6556.1837436896312
 20
3420.7316662232288
 30
0.0
 11
6468.6837436896303
 21
3980.7316662232311
 31
0.0
 70
     0
 13
6184.9400047573117
 23
4540.7316662232288
 33
0.0
 14
6235.940004757309
 24
3420.7316662232288
 34
0.0
 50
90.0
1001
ACAD
1000
DSTYLE
1002
{
1070
   287
1070
     3
1070
   287
1070
     3
1070
     3
1000
φ<>
1070
    40
1040
35.0
1070
   143
1040
0.039
1070
   172
1070
     1
1070
   271
1070
     0
1070
   279
1070
     0
1002
}
  0
LINE
  5
89D7
  8
1
 10
2470.5042379940041
 20
3880.7316662232288
 30
0.0
 11
2980.5042379940041
 21
3880.7316662232301
 31
0.0
  0
LINE
  5
89D9
  8
1
 10
2470.5042379940041
 20
3880.7316662232288
 30
0.0
 11
2325.5042379940041
 21
2750.7316662232301
 31
0.0
  0
LINE
  5
89DA
  8
1
 10
2980.5042379940041
 20
3880.7316662232288
 30
0.0
 11
3125.5042379940041
 21
2750.7316662232301
 31
0.0
  0
LINE
  5
89DB
  8
1
 10
2470.5042379940041
 20
5911.7675927715281
 30
0.0
 11
2470.5042379940041
 21
6665.7675927715272
 31
0.0
  0
LINE
  5
89DC
  8
1
 10
2980.5042379940041
 20
5911.7675927715281
 30
0.0
 11
2980.5042379940041
 21
6665.7675927715272
 31
0.0
  0
LINE
  5
89DE
  8
1
 10
5262.9400047573063
 20
2750.7316662232301
 30
0.0
 11
5262.9400047573063
 21
2625.7316662232301
 31
0.0
  0
LINE
  5
89E0
  8
1
 10
4417.9400047573081
 20
2455.7316662232301
 30
0.0
 11
6252.9400047573108
 21
2455.7316662232301
 31
0.0
1001
ACAD
1000
ASC_BOUNDS
1002
{
1070
    19
1002
}
  0
LINE
  5
89E1
  8
1
 10
6252.9400047573108
 20
2580.7316662232301
 30
0.0
 11
6252.940004757309
 21
2455.7316662232301
 31
0.0
  0
LINE
  5
89E2
  8
1
 10
5262.9400047573063
 20
2580.7316662232301
 30
0.0
 11
5262.9400047573063
 21
2455.7316662232301
 31
0.0
  0
LINE
  5
89E3
  8
1
 10
4417.9400047573081
 20
2580.7316662232301
 30
0.0
 11
6252.9400047573117
 21
2580.7316662232301
 31
0.0
  0
LINE
  5
89E4
  8
1
 10
4417.9400047573081
 20
2580.7316662232301
 30
0.0
 11
4417.9400047573081
 21
2455.7316662232301
 31
0.0
  0
LINE
  5
89E5
  8
1
 10
2065.5042379940041
 20
2455.7316662232301
 30
0.0
 11
3825.5042379940019
 21
2455.7316662232301
 31
0.0
1001
ACAD
1000
ASC_BOUNDS
1002
{
1070
    19
1005
0
1005
0
1002
}
  0
LINE
  5
89E6
  8
1
 10
3825.5042379940019
 20
2580.7316662232301
 30
0.0
 11
3825.5042379940019
 21
2455.7316662232301
 31
0.0
  0
LINE
  5
89E7
  8
1
 10
2325.5042379940041
 20
2455.7316662232301
 30
0.0
 11
2325.5042379940041
 21
2580.7316662232301
 31
0.0
  0
LINE
  5
89E8
  8
1
 10
2065.5042379940041
 20
2580.7316662232301
 30
0.0
 11
3825.5042379940019
 21
2580.7316662232301
 31
0.0
  0
LINE
  5
89E9
  8
1
 10
2065.5042379940041
 20
2580.7316662232301
 30
0.0
 11
2065.5042379940041
 21
2455.7316662232301
 31
0.0
  0
DIMENSION
  5
89F8
  8
3
  2
*D25
 10
1111.0546453754141
 20
2455.7316662232301
 30
0.0
 11
1023.554645375413
 21
2155.7316662232311
 31
0.0
 70
     0
 13
2065.5042379940041
 23
2580.7316662232301
 33
0.0
 14
2065.5042379940041
 24
2455.7316662232301
 34
0.0
 50
90.0
1001
ACAD
1000
DSTYLE
1002
{
1070
   287
1070
     3
1070
   287
1070
     3
1070
    40
1040
35.0
1070
   143
1040
0.039
1070
   172
1070
     1
1070
   271
1070
     0
1070
   279
1070
     0
1070
     6
1000
DOT
1002
}
  0
DIMENSION
  5
8A09
  8
3
  2
*D26
 10
1111.0546453754141
 20
2625.7316662232301
 30
0.0
 11
828.55464537541343
 21
2688.4816662232311
 31
0.0
 70
     0
 13
2065.5042379940041
 23
2580.7316662232301
 33
0.0
 14
2065.5042379940041
 24
2625.7316662232301
 34
0.0
 50
90.0
1001
ACAD
1000
DSTYLE
1002
{
1070
   287
1070
     4
1070
   287
1070
     4
1070
     3
1000
(<>)
1070
    40
1040
35.0
1070
   143
1040
0.039
1070
   172
1070
     1
1070
   271
1070
     0
1070
   279
1070
     1
1070
     6
1000
DOT
1002
}
  0
DIMENSION
  5
8A16
  8
3
  2
*D27
 10
710.68985083130974
 20
2455.7316662232311
 30
0.0
 11
595.6898508313094
 21
3620.7316662232311
 31
0.0
 70
     0
 13
2790.0042379940041
 23
4785.7316662232297
 33
0.0
 14
2065.5042379940041
 24
2455.7316662232301
 34
0.0
 50
90.0
1001
ACAD
1000
DSTYLE
1002
{
1070
   287
1070
     4
1070
   287
1070
     4
1070
     3
1000
(<>)
1070
    40
1040
35.0
1070
   143
1040
0.039
1070
   172
1070
     1
1070
   271
1070
     0
1070
   279
1070
     1
1002
}
  0
ENDSEC
  0
EOF
