  0
SECTION
  2
HEADER
  9
$ACADVER
  1
AC1009
  9
$INSBASE
 10
0.0
 20
0.0
 30
0.0
  9
$EXTMIN
 10
0.0
 20
0.0
 30
0.0
  9
$EXTMAX
 10
7350.0
 20
10325.0
 30
0.0
  9
$LIMMIN
 10
0.0
 20
0.0
  9
$LIMMAX
 10
297.0
 20
210.0
  9
$ORTHOMODE
 70
     0
  9
$REGENMODE
 70
     1
  9
$FILLMODE
 70
     0
  9
$QTEXTMODE
 70
     0
  9
$MIRRTEXT
 70
     1
  9
$DRAGMODE
 70
     2
  9
$LTSCALE
 40
100.0
  9
$OSMODE
 70
    37
  9
$ATTMODE
 70
     1
  9
$TEXTSIZE
 40
180.0
  9
$TRACEWID
 40
0.05
  9
$TEXTSTYLE
  7
STANDARD
  9
$CLAYER
  8
3
  9
$CELTYPE
  6
BYLAYER
  9
$CECOLOR
 62
   256
  9
$DIMSCALE
 40
35.0
  9
$DIMASZ
 40
2.0
  9
$DIMEXO
 40
0.5
  9
$DIMDLI
 40
10.0
  9
$DIMRND
 40
0.0
  9
$DIMDLE
 40
0.0
  9
$DIMEXE
 40
1.0
  9
$DIMTP
 40
1.0
  9
$DIMTM
 40
1.0
  9
$DIMTXT
 40
3.0
  9
$DIMCEN
 40
0.0
  9
$DIMTSZ
 40
0.0
  9
$DIMTOL
 70
     0
  9
$DIMLIM
 70
     0
  9
$DIMTIH
 70
     0
  9
$DIMTOH
 70
     0
  9
$DIMSE1
 70
     0
  9
$DIMSE2
 70
     0
  9
$DIMTAD
 70
     1
  9
$DIMZIN
 70
     8
  9
$DIMBLK
  1

  9
$DIMASO
 70
     1
  9
$DIMSHO
 70
     1
  9
$DIMPOST
  1
(<>)
  9
$DIMAPOST
  1

  9
$DIMALT
 70
     0
  9
$DIMALTD
 70
     2
  9
$DIMALTF
 40
0.039
  9
$DIMLFAC
 40
1.0
  9
$DIMTOFL
 70
     1
  9
$DIMTVP
 40
0.0
  9
$DIMTIX
 70
     0
  9
$DIMSOXD
 70
     0
  9
$DIMSAH
 70
     1
  9
$DIMBLK1
  1
OPEN
  9
$DIMBLK2
  1
OPEN
  9
$DIMSTYLE
  2
IGA
  9
$DIMCLRD
 70
     0
  9
$DIMCLRE
 70
     0
  9
$DIMCLRT
 70
     0
  9
$DIMTFAC
 40
10.0
  9
$DIMGAP
 40
1.0
  9
$LUNITS
 70
     2
  9
$LUPREC
 70
     3
  9
$SKETCHINC
 40
0.1
  9
$FILLETRAD
 40
50.0
  9
$AUNITS
 70
     0
  9
$AUPREC
 70
     0
  9
$MENU
  1
acad
  9
$ELEVATION
 40
0.0
  9
$PELEVATION
 40
0.0
  9
$THICKNESS
 40
0.0
  9
$LIMCHECK
 70
     0
  9
$BLIPMODE
 70
     0
  9
$CHAMFERA
 40
0.5
  9
$CHAMFERB
 40
0.5
  9
$SKPOLY
 70
     0
  9
$TDCREATE
 40
2453167.599160763
  9
$TDUPDATE
 40
2454953.6468326729
  9
$TDINDWG
 40
0.0980720602
  9
$TDUSRTIMER
 40
0.0980720602
  9
$USRTIMER
 70
     1
  9
$ANGBASE
 50
0.0
  9
$ANGDIR
 70
     0
  9
$PDMODE
 70
     0
  9
$PDSIZE
 40
0.0
  9
$PLINEWID
 40
0.0
  9
$COORDS
 70
     1
  9
$SPLFRAME
 70
     0
  9
$SPLINETYPE
 70
     6
  9
$SPLINESEGS
 70
     8
  9
$ATTDIA
 70
     0
  9
$ATTREQ
 70
     1
  9
$HANDLING
 70
 10241
  9
$HANDSEED
  5
8089
  9
$SURFTAB1
 70
     6
  9
$SURFTAB2
 70
     6
  9
$SURFTYPE
 70
     6
  9
$SURFU
 70
     6
  9
$SURFV
 70
     6
  9
$UCSNAME
  2

  9
$UCSORG
 10
0.0
 20
0.0
 30
0.0
  9
$UCSXDIR
 10
1.0
 20
0.0
 30
0.0
  9
$UCSYDIR
 10
0.0
 20
1.0
 30
0.0
  9
$PUCSNAME
  2

  9
$PUCSORG
 10
0.0
 20
0.0
 30
0.0
  9
$PUCSXDIR
 10
1.0
 20
0.0
 30
0.0
  9
$PUCSYDIR
 10
0.0
 20
1.0
 30
0.0
  9
$USERI1
 70
     0
  9
$USERI2
 70
     0
  9
$USERI3
 70
     0
  9
$USERI4
 70
     0
  9
$USERI5
 70
     0
  9
$USERR1
 40
0.0
  9
$USERR2
 40
0.0
  9
$USERR3
 40
0.0
  9
$USERR4
 40
0.0
  9
$USERR5
 40
0.0
  9
$WORLDVIEW
 70
     1
  9
$SHADEDGE
 70
     3
  9
$SHADEDIF
 70
    70
  9
$TILEMODE
 70
     1
  9
$MAXACTVP
 70
    16
  9
$PLIMCHECK
 70
     0
  9
$PEXTMIN
 10
1.0000000000000000E+020
 20
1.0000000000000000E+020
 30
1.0000000000000000E+020
  9
$PEXTMAX
 10
-1.0000000000000000E+020
 20
-1.0000000000000000E+020
 30
-1.0000000000000000E+020
  9
$PLIMMIN
 10
0.0
 20
0.0
  9
$PLIMMAX
 10
12.0
 20
9.0
  9
$UNITMODE
 70
     0
  9
$VISRETAIN
 70
     0
  9
$PLINEGEN
 70
     0
  9
$PSLTSCALE
 70
     1
  0
ENDSEC
  0
SECTION
  2
TABLES
  0
TABLE
  2
VPORT
 70
     2
  0
VPORT
  2
*ACTIVE
 70
     0
 10
0.0
 20
0.0
 11
1.0
 21
1.0
 12
6792.8740682367898
 22
983.69789204486563
 13
0.0
 23
0.0
 14
10.0
 24
10.0
 15
10.0
 25
10.0
 16
0.0
 26
0.0
 36
1.0
 17
0.0
 27
0.0
 37
0.0
 40
2968.0858396652511
 41
3.1666666666666661
 42
50.0
 43
0.0
 44
0.0
 50
0.0
 51
0.0
 71
     0
 72
   100
 73
     1
 74
     0
 75
     0
 76
     0
 77
     0
 78
     0
  0
ENDTAB
  0
TABLE
  2
LTYPE
 70
     2
  0
LTYPE
  2
CONTINUOUS
 70
     0
  3
Solid line
 72
    65
 73
     0
 40
0.0
  0
LTYPE
  2
CENTER
 70
     0
  3
____ _ ____ _ ____ _ ____ _ ____ _ ____ _ ____ 
 72
    65
 73
     4
 40
2.0
 49
1.25
 49
-0.25
 49
0.25
 49
-0.25
  0
ENDTAB
  0
TABLE
  2
LAYER
 70
     6
  0
LAYER
  2
0
 70
     0
 62
     7
  6
CONTINUOUS
  0
LAYER
  2
3
 70
     0
 62
     2
  6
CONTINUOUS
  0
LAYER
  2
2
 70
     0
 62
     3
  6
CENTER
  0
LAYER
  2
1
 70
     0
 62
     4
  6
CONTINUOUS
  0
LAYER
  2
4
 70
     0
 62
     7
  6
CONTINUOUS
  0
LAYER
  2
DEFPOINTS
 70
     0
 62
     7
  6
CONTINUOUS
  0
ENDTAB
  0
TABLE
  2
STYLE
 70
     1
  0
STYLE
  2
STANDARD
 70
     0
 40
0.0
 41
1.0
 50
0.0
 71
     0
 42
180.0
  3
simplex.shx
  4
extfont.shx
  0
ENDTAB
  0
TABLE
  2
VIEW
 70
     0
  0
ENDTAB
  0
TABLE
  2
UCS
 70
     0
  0
ENDTAB
  0
TABLE
  2
APPID
 70
     1
  0
APPID
  2
ACAD
 70
     0
  0
ENDTAB
  0
TABLE
  2
DIMSTYLE
 70
     1
  0
DIMSTYLE
  2
IGA
 70
     0
  3

  4

  5

  6
OPEN
  7
OPEN
 40
2.0
 41
2.0
 42
0.5
 43
10.0
 44
1.0
 45
0.0
 46
0.0
 47
1.0
 48
1.0
140
3.0
141
0.0
142
0.0
143
0.03937
144
1.0
145
0.0
146
10.0
147
1.0
 71
     0
 72
     0
 73
     0
 74
     0
 75
     0
 76
     0
 77
     1
 78
     8
170
     0
171
     2
172
     0
173
     1
174
     0
175
     0
176
     0
177
     0
178
     0
  0
ENDTAB
  0
ENDSEC
  0
SECTION
  2
BLOCKS
  0
BLOCK
  8
0
  2
$MODEL_SPACE
 70
     0
 10
0.0
 20
0.0
 30
0.0
  3
$MODEL_SPACE
  1

  0
ENDBLK
  5
1B
  8
0
  0
BLOCK
 67
     1
  8
0
  2
$PAPER_SPACE
 70
     0
 10
0.0
 20
0.0
 30
0.0
  3
$PAPER_SPACE
  1

  0
ENDBLK
  5
18
 67
     1
  8
0
  0
BLOCK
  8
0
  2
YA_N
 70
     0
 10
0.0
 20
0.0
 30
0.0
  3
YA_N
  1

  0
ENDBLK
  5
79FE
  8
0
  0
BLOCK
  8
0
  2
_OPEN
 70
     0
 10
0.0
 20
0.0
 30
0.0
  3
_OPEN
  1

  0
LINE
  5
7B93
  8
0
  6
BYBLOCK
 62
     0
 10
-1.0
 20
0.1666666666666666
 30
0.0
 11
0.0
 21
0.0
 31
0.0
  0
LINE
  5
7B94
  8
0
  6
BYBLOCK
 62
     0
 10
0.0
 20
0.0
 30
0.0
 11
-1.0
 21
-0.1666666666666666
 31
0.0
  0
LINE
  5
7B95
  8
0
  6
BYBLOCK
 62
     0
 10
0.0
 20
0.0
 30
0.0
 11
-1.0
 21
0.0
 31
0.0
  0
ENDBLK
  5
7B96
  8
0
  0
BLOCK
  8
0
  2
*D2
 70
     1
 10
0.0
 20
0.0
 30
0.0
  3
*D2
  1

  0
LINE
  5
7F86
  8
3
 62
     0
 10
2947.0604735312681
 20
7683.7675927715281
 30
0.0
 11
3591.8698919423491
 21
7683.7675927715281
 31
0.0
  0
LINE
  5
7F87
  8
3
 62
     0
 10
2947.0604735312681
 20
6693.7675927715281
 30
0.0
 11
3591.8698919423482
 21
6693.7675927715281
 31
0.0
  0
LINE
  5
7F88
  8
3
 62
     0
 10
3556.8698919423491
 20
7613.7675927715281
 30
0.0
 11
3556.8698919423491
 21
6763.7675927715281
 31
0.0
  0
INSERT
  5
7F89
  8
3
 62
     0
  2
_OPEN
 10
3556.8698919423491
 20
7683.7675927715281
 30
0.0
 41
70.0
 42
70.0
 43
70.0
 50
90.0
  0
INSERT
  5
7F8A
  8
3
 62
     0
  2
_OPEN
 10
3556.8698919423491
 20
6693.7675927715281
 30
0.0
 41
70.0
 42
70.0
 43
70.0
 50
270.0
  0
TEXT
  8
3
  40
105
  5
806F
  62
0
  72
0
  71
0
 10
3259.37
 20
7005.01
 30
0.000000
  1
990
  0
POINT
  5
7F8C
  8
DEFPOINTS
 62
     0
 10
2929.5604735312681
 20
7683.7675927715281
 30
0.0
  0
POINT
  5
7F8D
  8
DEFPOINTS
 62
     0
 10
2929.5604735312681
 20
6693.7675927715281
 30
0.0
  0
POINT
  5
7F8E
  8
DEFPOINTS
 62
     0
 10
3556.8698919423491
 20
6693.7675927715281
 30
0.0
  0
ENDBLK
  5
7BB0
  8
0
  0
BLOCK
  8
0
  2
*D3
 70
     1
 10
0.0
 20
0.0
 30
0.0
  3
*D3
  1

  0
LINE
  5
7F8F
  8
3
 62
     0
 10
2687.0604735312681
 20
5848.7675927715281
 30
0.0
 11
3591.8698919423468
 21
5848.7675927715281
 31
0.0
  0
LINE
  5
7F90
  8
3
 62
     0
 10
3556.8698919423468
 20
6623.7675927715281
 30
0.0
 11
3556.8698919423468
 21
5918.7675927715281
 31
0.0
  0
INSERT
  5
7F91
  8
3
 62
     0
  2
_OPEN
 10
3556.8698919423468
 20
6693.7675927715281
 30
0.0
 41
70.0
 42
70.0
 43
70.0
 50
90.0
  0
INSERT
  5
7F92
  8
3
 62
     0
  2
_OPEN
 10
3556.8698919423468
 20
5848.7675927715281
 30
0.0
 41
70.0
 42
70.0
 43
70.0
 50
270.0
  0
TEXT
  8
3
  40
105
  5
8070
  62
0
  72
0
  71
0
 10
3259.37
 20
6085.42
 30
0.000000
  1
845
  0
POINT
  5
7F94
  8
DEFPOINTS
 62
     0
 10
2929.5604735312681
 20
6693.7675927715281
 30
0.0
  0
POINT
  5
7F95
  8
DEFPOINTS
 62
     0
 10
2669.5604735312681
 20
5848.7675927715281
 30
0.0
  0
POINT
  5
7F96
  8
DEFPOINTS
 62
     0
 10
3556.8698919423468
 20
5848.7675927715281
 30
0.0
  0
ENDBLK
  5
7BBE
  8
0
  0
BLOCK
  8
0
  2
*D4
 70
     1
 10
0.0
 20
0.0
 30
0.0
  3
*D4
  1

  0
LINE
  5
7F97
  8
3
 62
     0
 10
2929.5604735312681
 20
6676.2675927715281
 30
0.0
 11
2929.5604735312681
 21
5351.5740510801079
 31
0.0
  0
LINE
  5
7F98
  8
3
 62
     0
 10
2669.5604735312681
 20
5831.2675927715281
 30
0.0
 11
2669.5604735312681
 21
5351.5740510801079
 31
0.0
  0
LINE
  5
7F99
  8
3
 62
     0
 10
2739.5604735312681
 20
5386.5740510801079
 30
0.0
 11
2859.5604735312681
 21
5386.5740510801079
 31
0.0
  0
LINE
  5
7F9A
  8
3
 62
     0
 10
2929.5604735312681
 20
5386.5740510801079
 30
0.0
 11
3339.5604735312681
 21
5386.5740510801079
 31
0.0
  0
INSERT
  5
7F9B
  8
3
 62
     0
  2
_OPEN
 10
2669.5604735312681
 20
5386.5740510801079
 30
0.0
 41
70.0
 42
70.0
 43
70.0
 50
180.0
  0
INSERT
  5
7F9C
  8
3
 62
     0
  2
_OPEN
 10
2929.5604735312681
 20
5386.5740510801079
 30
0.0
 41
70.0
 42
70.0
 43
70.0
  0
TEXT
  8
3
  40
105
  5
8071
  62
0
  72
0
  71
0
 10
2959.56
 20
5288.22
 30
0.000000
  1
260
  0
POINT
  5
7F9E
  8
DEFPOINTS
 62
     0
 10
2929.5604735312681
 20
6693.7675927715281
 30
0.0
  0
POINT
  5
7F9F
  8
DEFPOINTS
 62
     0
 10
2669.5604735312681
 20
5848.7675927715281
 30
0.0
  0
POINT
  5
7FA0
  8
DEFPOINTS
 62
     0
 10
2669.5604735312681
 20
5386.5740510801079
 30
0.0
  0
ENDBLK
  5
7C30
  8
0
  0
BLOCK
  8
0
  2
*D5
 70
     1
 10
0.0
 20
0.0
 30
0.0
  3
*D5
  1

  0
LINE
  5
7FA1
  8
3
 62
     0
 10
1169.5604735312679
 20
5831.2675927715281
 30
0.0
 11
1169.5604735312679
 21
5351.5740510801079
 31
0.0
  0
LINE
  5
7FA2
  8
3
 62
     0
 10
2599.5604735312681
 20
5386.5740510801079
 30
0.0
 11
1239.5604735312679
 21
5386.5740510801079
 31
0.0
  0
INSERT
  5
7FA3
  8
3
 62
     0
  2
_OPEN
 10
2669.5604735312681
 20
5386.5740510801079
 30
0.0
 41
70.0
 42
70.0
 43
70.0
  0
INSERT
  5
7FA4
  8
3
 62
     0
  2
_OPEN
 10
1169.5604735312679
 20
5386.5740510801079
 30
0.0
 41
70.0
 42
70.0
 43
70.0
 50
180.0
  0
TEXT
  8
3
  40
105
  5
8072
  62
0
  72
0
  71
0
 10
1709.56
 20
5288.22
 30
0.000000
  1
1500
  0
POINT
  5
7FA6
  8
DEFPOINTS
 62
     0
 10
2669.5604735312681
 20
5848.7675927715281
 30
0.0
  0
POINT
  5
7FA7
  8
DEFPOINTS
 62
     0
 10
1169.5604735312679
 20
5848.7675927715281
 30
0.0
  0
POINT
  5
7FA8
  8
DEFPOINTS
 62
     0
 10
1169.5604735312679
 20
5386.5740510801079
 30
0.0
  0
ENDBLK
  5
7C24
  8
0
  0
BLOCK
  8
0
  2
*D6
 70
     1
 10
0.0
 20
0.0
 30
0.0
  3
*D6
  1

  0
LINE
  5
7FA9
  8
3
 62
     0
 10
1152.0604735312679
 20
5848.7675927715281
 30
0.0
 11
704.16869267066875
 21
5848.7675927715281
 31
0.0
  0
LINE
  5
7FAA
  8
3
 62
     0
 10
1152.0604735312679
 20
6758.7675927715263
 30
0.0
 11
704.16869267066909
 21
6758.7675927715263
 31
0.0
  0
LINE
  5
7FAB
  8
3
 62
     0
 10
739.16869267066897
 20
5918.7675927715281
 30
0.0
 11
739.16869267066897
 21
6688.7675927715263
 31
0.0
  0
INSERT
  5
7FAC
  8
3
 62
     0
  2
_OPEN
 10
739.16869267066886
 20
5848.7675927715281
 30
0.0
 41
70.0
 42
70.0
 43
70.0
 50
270.0
  0
INSERT
  5
7FAD
  8
3
 62
     0
  2
_OPEN
 10
739.16869267066897
 20
6758.7675927715263
 30
0.0
 41
70.0
 42
70.0
 43
70.0
 50
90.0
  0
TEXT
  8
3
  40
105
  5
8073
  62
0
  72
0
  71
0
 10
441.669
 20
6072.36
 30
0.000000
  1
910
  0
POINT
  5
7FAF
  8
DEFPOINTS
 62
     0
 10
1169.5604735312679
 20
5848.7675927715281
 30
0.0
  0
POINT
  5
7FB0
  8
DEFPOINTS
 62
     0
 10
1169.5604735312679
 20
6758.7675927715263
 30
0.0
  0
POINT
  5
7FB1
  8
DEFPOINTS
 62
     0
 10
739.16869267066897
 20
6758.7675927715263
 30
0.0
  0
ENDBLK
  5
7BF2
  8
0
  0
BLOCK
  8
0
  2
*D7
 70
     1
 10
0.0
 20
0.0
 30
0.0
  3
*D7
  1

  0
LINE
  5
7FB2
  8
3
 62
     0
 10
1592.0604735312679
 20
7683.7675927715281
 30
0.0
 11
704.16869267066795
 21
7683.7675927715281
 31
0.0
  0
LINE
  5
7FB3
  8
3
 62
     0
 10
739.16869267066772
 20
6828.7675927715272
 30
0.0
 11
739.16869267066795
 21
7613.7675927715281
 31
0.0
  0
INSERT
  5
7FB4
  8
3
 62
     0
  2
_OPEN
 10
739.16869267066772
 20
6758.7675927715263
 30
0.0
 41
70.0
 42
70.0
 43
70.0
 50
270.0
  0
INSERT
  5
7FB5
  8
3
 62
     0
  2
_OPEN
 10
739.16869267066795
 20
7683.7675927715281
 30
0.0
 41
70.0
 42
70.0
 43
70.0
 50
90.0
  0
TEXT
  8
3
  40
105
  5
8074
  62
0
  72
0
  71
0
 10
441.669
 20
7035.42
 30
0.000000
  1
925
  0
POINT
  5
7FB7
  8
DEFPOINTS
 62
     0
 10
1169.5604735312679
 20
6758.7675927715263
 30
0.0
  0
POINT
  5
7FB8
  8
DEFPOINTS
 62
     0
 10
1609.5604735312679
 20
7683.7675927715281
 30
0.0
  0
POINT
  5
7FB9
  8
DEFPOINTS
 62
     0
 10
739.16869267066795
 20
7683.7675927715281
 30
0.0
  0
ENDBLK
  5
7BFE
  8
0
  0
BLOCK
  8
0
  2
*D8
 70
     1
 10
0.0
 20
0.0
 30
0.0
  3
*D8
  1

  0
LINE
  5
7FBA
  8
3
 62
     0
 10
1169.5604735312679
 20
6776.2675927715263
 30
0.0
 11
1169.5604735312679
 21
7949.311000374676
 31
0.0
  0
LINE
  5
7FBB
  8
3
 62
     0
 10
1609.5604735312679
 20
7701.2675927715281
 30
0.0
 11
1609.5604735312679
 21
7949.311000374676
 31
0.0
  0
LINE
  5
7FBC
  8
3
 62
     0
 10
1099.5604735312679
 20
7914.311000374677
 30
0.0
 11
1029.5604735312679
 21
7914.311000374677
 31
0.0
  0
LINE
  5
7FBD
  8
3
 62
     0
 10
1679.5604735312679
 20
7914.311000374677
 30
0.0
 11
1749.5604735312679
 21
7914.311000374677
 31
0.0
  0
LINE
  5
7FBE
  8
3
 62
     0
 10
1169.5604735312679
 20
7914.311000374677
 30
0.0
 11
1609.5604735312679
 21
7914.311000374677
 31
0.0
  0
INSERT
  5
7FBF
  8
3
 62
     0
  2
_OPEN
 10
1169.5604735312679
 20
7914.311000374677
 30
0.0
 41
70.0
 42
70.0
 43
70.0
  0
INSERT
  5
7FC0
  8
3
 62
     0
  2
_OPEN
 10
1609.5604735312679
 20
7914.311000374677
 30
0.0
 41
70.0
 42
70.0
 43
70.0
 50
180.0
  0
TEXT
  8
3
  40
105
  5
8075
  62
0
  72
0
  71
0
 10
1179.56
 20
7815.96
 30
0.000000
  1
440
  0
POINT
  5
7FC2
  8
DEFPOINTS
 62
     0
 10
1169.5604735312679
 20
6758.7675927715263
 30
0.0
  0
POINT
  5
7FC3
  8
DEFPOINTS
 62
     0
 10
1609.5604735312679
 20
7683.7675927715281
 30
0.0
  0
POINT
  5
7FC4
  8
DEFPOINTS
 62
     0
 10
1609.5604735312679
 20
7914.311000374677
 30
0.0
  0
ENDBLK
  5
7C0D
  8
0
  0
BLOCK
  8
0
  2
*D9
 70
     1
 10
0.0
 20
0.0
 30
0.0
  3
*D9
  1

  0
LINE
  5
7FC5
  8
3
 62
     0
 10
2929.5604735312681
 20
7701.2675927715281
 30
0.0
 11
2929.5604735312681
 21
7949.311000374676
 31
0.0
  0
LINE
  5
7FC6
  8
3
 62
     0
 10
1679.5604735312679
 20
7914.311000374677
 30
0.0
 11
2859.5604735312681
 21
7914.311000374677
 31
0.0
  0
INSERT
  5
7FC7
  8
3
 62
     0
  2
_OPEN
 10
1609.5604735312679
 20
7914.311000374677
 30
0.0
 41
70.0
 42
70.0
 43
70.0
 50
180.0
  0
INSERT
  5
7FC8
  8
3
 62
     0
  2
_OPEN
 10
2929.5604735312681
 20
7914.311000374677
 30
0.0
 41
70.0
 42
70.0
 43
70.0
  0
TEXT
  8
3
  40
105
  5
8076
  62
0
  72
0
  71
0
 10
2059.56
 20
7815.96
 30
0.000000
  1
1320
  0
POINT
  5
7FCA
  8
DEFPOINTS
 62
     0
 10
1609.5604735312679
 20
7683.7675927715281
 30
0.0
  0
POINT
  5
7FCB
  8
DEFPOINTS
 62
     0
 10
2929.5604735312681
 20
7683.7675927715281
 30
0.0
  0
POINT
  5
7FCC
  8
DEFPOINTS
 62
     0
 10
2929.5604735312681
 20
7914.311000374677
 30
0.0
  0
ENDBLK
  5
7C19
  8
0
  0
BLOCK
  8
0
  2
*D10
 70
     1
 10
0.0
 20
0.0
 30
0.0
  3
*D10
  1

  0
LINE
  5
7FCD
  8
3
 62
     0
 10
1071.5604735312679
 20
4413.2316662232297
 30
0.0
 11
1071.5604735312679
 21
4621.5591929576403
 31
0.0
  0
LINE
  5
7FCE
  8
3
 62
     0
 10
2221.5604735312681
 20
4413.2316662232297
 30
0.0
 11
2221.5604735312681
 21
4621.5591929576403
 31
0.0
  0
LINE
  5
7FCF
  8
3
 62
     0
 10
1141.5604735312679
 20
4586.5591929576403
 30
0.0
 11
2151.5604735312681
 21
4586.5591929576403
 31
0.0
  0
INSERT
  5
7FD0
  8
3
 62
     0
  2
_OPEN
 10
1071.5604735312679
 20
4586.5591929576403
 30
0.0
 41
70.0
 42
70.0
 43
70.0
 50
180.0
  0
INSERT
  5
7FD1
  8
3
 62
     0
  2
_OPEN
 10
2221.5604735312681
 20
4586.5591929576403
 30
0.0
 41
70.0
 42
70.0
 43
70.0
  0
TEXT
  8
3
  40
105
  5
8077
  62
0
  72
0
  71
0
 10
1409.80
 20
4488.21
 30
0.000000
  1
1150
  0
POINT
  5
7FD3
  8
DEFPOINTS
 62
     0
 10
1071.5604735312679
 20
4395.7316662232288
 30
0.0
  0
POINT
  5
7FD4
  8
DEFPOINTS
 62
     0
 10
2221.5604735312681
 20
4395.7316662232288
 30
0.0
  0
POINT
  5
7FD5
  8
DEFPOINTS
 62
     0
 10
2221.5604735312681
 20
4586.5591929576403
 30
0.0
  0
ENDBLK
  5
7C3C
  8
0
  0
BLOCK
  8
0
  2
*D11
 70
     1
 10
0.0
 20
0.0
 30
0.0
  3
*D11
  1

  0
LINE
  5
7FD6
  8
3
 62
     0
 10
1071.5604735312679
 20
4430.7316662232297
 30
0.0
 11
1071.5604735312679
 21
4853.767158279672
 31
0.0
  0
LINE
  5
7FD7
  8
3
 62
     0
 10
2269.5604735312681
 20
4499.0706671219632
 30
0.0
 11
2269.5604735312681
 21
4853.767158279672
 31
0.0
  0
LINE
  5
7FD8
  8
3
 62
     0
 10
1141.5604735312679
 20
4818.7671582796729
 30
0.0
 11
2199.5604735312681
 21
4818.7671582796729
 31
0.0
  0
INSERT
  5
7FD9
  8
3
 62
     0
  2
_OPEN
 10
1071.5604735312679
 20
4818.7671582796729
 30
0.0
 41
70.0
 42
70.0
 43
70.0
 50
180.0
  0
INSERT
  5
7FDA
  8
3
 62
     0
  2
_OPEN
 10
2269.5604735312681
 20
4818.7671582796729
 30
0.0
 41
70.0
 42
70.0
 43
70.0
  0
TEXT
  8
3
  40
105
  5
8078
  62
0
  72
0
  71
0
 10
1398.47
 20
4720.42
 30
0.000000
  1
1198
  0
POINT
  5
7FDC
  8
DEFPOINTS
 62
     0
 10
1071.5604735312679
 20
4413.2316662232297
 30
0.0
  0
POINT
  5
7FDD
  8
DEFPOINTS
 62
     0
 10
2269.5604735312681
 20
4481.5706671219632
 30
0.0
  0
POINT
  5
7FDE
  8
DEFPOINTS
 62
     0
 10
2269.5604735312681
 20
4818.7671582796729
 30
0.0
  0
ENDBLK
  5
7C49
  8
0
  0
BLOCK
  8
0
  2
*D12
 70
     1
 10
0.0
 20
0.0
 30
0.0
  3
*D12
  1

  0
LINE
  5
7FDF
  8
3
 62
     0
 10
3074.5604735312681
 20
3571.2316662232301
 30
0.0
 11
3074.5604735312681
 21
4853.767158279672
 31
0.0
  0
LINE
  5
7FE0
  8
3
 62
     0
 10
2339.5604735312681
 20
4818.7671582796729
 30
0.0
 11
3004.5604735312681
 21
4818.7671582796729
 31
0.0
  0
INSERT
  5
7FE1
  8
3
 62
     0
  2
_OPEN
 10
2269.5604735312681
 20
4818.7671582796729
 30
0.0
 41
70.0
 42
70.0
 43
70.0
 50
180.0
  0
INSERT
  5
7FE2
  8
3
 62
     0
  2
_OPEN
 10
3074.5604735312681
 20
4818.7671582796729
 30
0.0
 41
70.0
 42
70.0
 43
70.0
  0
TEXT
  8
3
  40
105
  5
8079
  62
0
  72
0
  71
0
 10
2462.06
 20
4720.42
 30
0.000000
  1
805
  0
POINT
  5
7FE4
  8
DEFPOINTS
 62
     0
 10
2269.5604735312681
 20
4481.5706671219632
 30
0.0
  0
POINT
  5
7FE5
  8
DEFPOINTS
 62
     0
 10
3074.5604735312681
 20
3553.7316662232301
 30
0.0
  0
POINT
  5
7FE6
  8
DEFPOINTS
 62
     0
 10
3074.5604735312681
 20
4818.7671582796729
 30
0.0
  0
ENDBLK
  5
7C55
  8
0
  0
BLOCK
  8
0
  2
*D13
 70
     1
 10
0.0
 20
0.0
 30
0.0
  3
*D13
  1

  0
LINE
  5
7FE7
  8
3
 62
     0
 10
2292.0604735312681
 20
4395.7316662232288
 30
0.0
 11
3479.991607781456
 21
4395.7316662232288
 31
0.0
  0
LINE
  5
7FE8
  8
3
 62
     0
 10
3193.8411249842452
 20
3635.7316662232311
 30
0.0
 11
3479.991607781456
 21
3635.7316662232311
 31
0.0
  0
LINE
  5
7FE9
  8
3
 62
     0
 10
3444.991607781456
 20
4325.7316662232288
 30
0.0
 11
3444.991607781456
 21
3705.7316662232311
 31
0.0
  0
INSERT
  5
7FEA
  8
3
 62
     0
  2
_OPEN
 10
3444.991607781456
 20
4395.7316662232288
 30
0.0
 41
70.0
 42
70.0
 43
70.0
 50
90.0
  0
INSERT
  5
7FEB
  8
3
 62
     0
  2
_OPEN
 10
3444.991607781456
 20
3635.7316662232311
 30
0.0
 41
70.0
 42
70.0
 43
70.0
 50
270.0
  0
TEXT
  8
3
  40
105
  5
807A
  62
0
  72
0
  71
0
 10
3147.49
 20
3811.69
 30
0.000000
  1
760
  0
POINT
  5
7FED
  8
DEFPOINTS
 62
     0
 10
2274.5604735312681
 20
4395.7316662232288
 30
0.0
  0
POINT
  5
7FEE
  8
DEFPOINTS
 62
     0
 10
3176.3411249842452
 20
3635.7316662232311
 30
0.0
  0
POINT
  5
7FEF
  8
DEFPOINTS
 62
     0
 10
3444.991607781456
 20
3635.7316662232311
 30
0.0
  0
ENDBLK
  5
7C62
  8
0
  0
BLOCK
  8
0
  2
*D14
 70
     1
 10
0.0
 20
0.0
 30
0.0
  3
*D14
  1

  0
LINE
  5
7FF0
  8
3
 62
     0
 10
2947.0604735312681
 20
2625.7316662232301
 30
0.0
 11
3479.9916077814551
 21
2625.7316662232301
 31
0.0
  0
LINE
  5
7FF1
  8
3
 62
     0
 10
3444.991607781456
 20
3565.7316662232301
 30
0.0
 11
3444.991607781456
 21
2695.7316662232301
 31
0.0
  0
INSERT
  5
7FF2
  8
3
 62
     0
  2
_OPEN
 10
3444.991607781456
 20
3635.7316662232311
 30
0.0
 41
70.0
 42
70.0
 43
70.0
 50
90.0
  0
INSERT
  5
7FF3
  8
3
 62
     0
  2
_OPEN
 10
3444.991607781456
 20
2625.7316662232301
 30
0.0
 41
70.0
 42
70.0
 43
70.0
 50
270.0
  0
TEXT
  8
3
  40
105
  5
807B
  62
0
  72
0
  71
0
 10
3147.49
 20
2944.88
 30
0.000000
  1
1010
  0
POINT
  5
7FF5
  8
DEFPOINTS
 62
     0
 10
3176.3411249842452
 20
3635.7316662232311
 30
0.0
  0
POINT
  5
7FF6
  8
DEFPOINTS
 62
     0
 10
2929.5604735312681
 20
2625.7316662232301
 30
0.0
  0
POINT
  5
7FF7
  8
DEFPOINTS
 62
     0
 10
3444.991607781456
 20
2625.7316662232301
 30
0.0
  0
ENDBLK
  5
7C6E
  8
0
  0
BLOCK
  8
0
  2
*D15
 70
     1
 10
0.0
 20
0.0
 30
0.0
  3
*D15
  1

  0
LINE
  5
7FF8
  8
3
 62
     0
 10
6202.7400047573092
 20
4195.7316662232297
 30
0.0
 11
6572.8257878305103
 21
4195.7316662232297
 31
0.0
  0
LINE
  5
7FF9
  8
3
 62
     0
 10
6202.740004757311
 20
3075.7316662232301
 30
0.0
 11
6572.8257878305103
 21
3075.7316662232301
 31
0.0
  0
LINE
  5
7FFA
  8
3
 62
     0
 10
6537.8257878305094
 20
4125.7316662232297
 30
0.0
 11
6537.8257878305094
 21
3145.7316662232301
 31
0.0
  0
INSERT
  5
7FFB
  8
3
 62
     0
  2
_OPEN
 10
6537.8257878305094
 20
4195.7316662232297
 30
0.0
 41
70.0
 42
70.0
 43
70.0
 50
90.0
  0
INSERT
  5
7FFC
  8
3
 62
     0
  2
_OPEN
 10
6537.8257878305094
 20
3075.7316662232301
 30
0.0
 41
70.0
 42
70.0
 43
70.0
 50
270.0
  0
TEXT
  8
3
  40
105
  5
807C
  62
0
  72
0
  71
0
 10
6240.33
 20
3438.06
 30
0.000000
  1
φ1120
  0
POINT
  5
7FFE
  8
DEFPOINTS
 62
     0
 10
6185.2400047573092
 20
4195.7316662232297
 30
0.0
  0
POINT
  5
7FFF
  8
DEFPOINTS
 62
     0
 10
6185.240004757311
 20
3075.7316662232301
 30
0.0
  0
POINT
  5
8000
  8
DEFPOINTS
 62
     0
 10
6537.8257878305094
 20
3075.7316662232301
 30
0.0
  0
ENDBLK
  5
7DB6
  8
0
  0
BLOCK
  8
0
  2
*D16
 70
     1
 10
0.0
 20
0.0
 30
0.0
  3
*D16
  1

  0
LINE
  5
8001
  8
3
 62
     0
 10
5332.9400047573108
 20
4413.2316662232297
 30
0.0
 11
5332.9400047573108
 21
4572.1934174266062
 31
0.0
  0
LINE
  5
8002
  8
3
 62
     0
 10
6182.9400047573126
 20
4413.2316662232297
 30
0.0
 11
6182.9400047573126
 21
4572.1934174266062
 31
0.0
  0
LINE
  5
8003
  8
3
 62
     0
 10
5402.9400047573108
 20
4537.1934174266062
 30
0.0
 11
6112.9400047573117
 21
4537.1934174266062
 31
0.0
  0
INSERT
  5
8004
  8
3
 62
     0
  2
_OPEN
 10
5332.9400047573108
 20
4537.1934174266062
 30
0.0
 41
70.0
 42
70.0
 43
70.0
 50
180.0
  0
INSERT
  5
8005
  8
3
 62
     0
  2
_OPEN
 10
6182.9400047573126
 20
4537.1934174266062
 30
0.0
 41
70.0
 42
70.0
 43
70.0
  0
TEXT
  8
3
  40
105
  5
807D
  62
0
  72
0
  71
0
 10
5550.71
 20
4438.84
 30
0.000000
  1
850
  0
POINT
  5
8007
  8
DEFPOINTS
 62
     0
 10
5332.9400047573108
 20
4395.7316662232288
 30
0.0
  0
POINT
  5
8008
  8
DEFPOINTS
 62
     0
 10
6182.9400047573126
 20
4395.7316662232288
 30
0.0
  0
POINT
  5
8009
  8
DEFPOINTS
 62
     0
 10
6182.9400047573126
 20
4537.1934174266062
 30
0.0
  0
ENDBLK
  5
7D18
  8
0
  0
BLOCK
  8
0
  2
*D17
 70
     1
 10
0.0
 20
0.0
 30
0.0
  3
*D17
  1

  0
LINE
  5
800A
  8
3
 62
     0
 10
5757.9400047573081
 20
4706.1092411189848
 30
0.0
 11
5757.9400047573081
 21
4833.4714673410308
 31
0.0
  0
LINE
  5
800B
  8
3
 62
     0
 10
6193.2400047573092
 20
4413.2316662232297
 30
0.0
 11
6193.2400047573092
 21
4833.4714673410308
 31
0.0
  0
LINE
  5
800C
  8
3
 62
     0
 10
5687.9400047573081
 20
4798.4714673410299
 30
0.0
 11
5617.9400047573081
 21
4798.4714673410299
 31
0.0
  0
LINE
  5
800D
  8
3
 62
     0
 10
6263.2400047573092
 20
4798.4714673410299
 30
0.0
 11
6333.2400047573101
 21
4798.4714673410299
 31
0.0
  0
LINE
  5
800E
  8
3
 62
     0
 10
5757.9400047573081
 20
4798.4714673410299
 30
0.0
 11
6193.2400047573092
 21
4798.4714673410299
 31
0.0
  0
INSERT
  5
800F
  8
3
 62
     0
  2
_OPEN
 10
5757.9400047573081
 20
4798.4714673410299
 30
0.0
 41
70.0
 42
70.0
 43
70.0
  0
INSERT
  5
8010
  8
3
 62
     0
  2
_OPEN
 10
6193.2400047573092
 20
4798.4714673410299
 30
0.0
 41
70.0
 42
70.0
 43
70.0
 50
180.0
  0
TEXT
  8
3
  40
105
  5
807E
  62
0
  72
0
  71
0
 10
5765.59
 20
4700.12
 30
0.000000
  1
435
  0
POINT
  5
8012
  8
DEFPOINTS
 62
     0
 10
5757.9400047573081
 20
4688.6092411189848
 30
0.0
  0
POINT
  5
8013
  8
DEFPOINTS
 62
     0
 10
6193.2400047573092
 20
4395.7316662232288
 30
0.0
  0
POINT
  5
8014
  8
DEFPOINTS
 62
     0
 10
6193.2400047573092
 20
4798.4714673410299
 30
0.0
  0
ENDBLK
  5
7D6A
  8
0
  0
BLOCK
  8
0
  2
*D18
 70
     1
 10
0.0
 20
0.0
 30
0.0
  3
*D18
  1

  0
LINE
  5
8015
  8
3
 62
     0
 10
4270.940004757309
 20
3933.2316662232288
 30
0.0
 11
4270.940004757309
 21
4833.4714673410308
 31
0.0
  0
LINE
  5
8016
  8
3
 62
     0
 10
5687.9400047573081
 20
4798.4714673410299
 30
0.0
 11
4340.940004757309
 21
4798.4714673410299
 31
0.0
  0
INSERT
  5
8017
  8
3
 62
     0
  2
_OPEN
 10
5757.9400047573081
 20
4798.4714673410299
 30
0.0
 41
70.0
 42
70.0
 43
70.0
  0
INSERT
  5
8018
  8
3
 62
     0
  2
_OPEN
 10
4270.940004757309
 20
4798.4714673410299
 30
0.0
 41
70.0
 42
70.0
 43
70.0
 50
180.0
  0
TEXT
  8
3
  40
105
  5
807F
  62
0
  72
0
  71
0
 10
4804.44
 20
4787.62
 30
0.000000
  1
MAX
  0
TEXT
  8
3
  40
105
  5
8080
  62
0
  72
0
  71
0
 10
4804.44
 20
4651.12
 30
0.000000
  1
1530
  0
POINT
  5
801A
  8
DEFPOINTS
 62
     0
 10
5757.9400047573081
 20
4688.6092411189848
 30
0.0
  0
POINT
  5
801B
  8
DEFPOINTS
 62
     0
 10
4270.940004757309
 20
3915.7316662232301
 30
0.0
  0
POINT
  5
801C
  8
DEFPOINTS
 62
     0
 10
4270.940004757309
 20
4798.4714673410299
 30
0.0
  0
ENDBLK
  5
7D80
  8
0
  0
BLOCK
  8
0
  2
_DOT
 70
     0
 10
0.0
 20
0.0
 30
0.0
  3
_DOT
  1

  0
LINE
  5
7E13
  8
0
  6
BYBLOCK
 62
     0
 10
0.0
 20
0.0
 30
0.0
 11
-1.0
 21
-0.0000000000000284
 31
0.0
  0
POLYLINE
  5
7E14
  8
0
  6
BYBLOCK
 62
     0
 66
     1
 10
0.0
 20
0.0
 30
0.0
 70
     1
 40
0.1666666666666666
 41
0.1666666666666666
  0
VERTEX
  5
801D
  8
0
  6
BYBLOCK
 62
     0
 10
-0.0833333333333286
 20
-0.0000000000000284
 30
0.0
 42
1.0
  0
VERTEX
  5
801E
  8
0
  6
BYBLOCK
 62
     0
 10
0.0833333333333286
 20
-0.0000000000000284
 30
0.0
 42
1.0
  0
SEQEND
  5
801F
  8
0
  6
BYBLOCK
 62
     0
  0
ENDBLK
  5
7DF9
  8
0
  0
BLOCK
  8
0
  2
*D20
 70
     1
 10
0.0
 20
0.0
 30
0.0
  3
*D20
  1

  0
LINE
  5
8020
  8
3
 62
     0
 10
1018.560473531268
 20
4413.2316662232297
 30
0.0
 11
1018.560473531268
 21
5036.7617842140708
 31
0.0
  0
LINE
  5
8021
  8
3
 62
     0
 10
3074.5604735312681
 20
4836.267158279672
 30
0.0
 11
3074.5604735312681
 21
5036.7617842140708
 31
0.0
  0
LINE
  5
8022
  8
3
 62
     0
 10
1088.5604735312679
 20
5001.7617842140708
 30
0.0
 11
3004.5604735312681
 21
5001.7617842140708
 31
0.0
  0
INSERT
  5
8023
  8
3
 62
     0
  2
_OPEN
 10
1018.560473531268
 20
5001.7617842140708
 30
0.0
 41
70.0
 42
70.0
 43
70.0
 50
180.0
  0
INSERT
  5
8024
  8
3
 62
     0
  2
_OPEN
 10
3074.5604735312681
 20
5001.7617842140708
 30
0.0
 41
70.0
 42
70.0
 43
70.0
  0
TEXT
  8
3
  40
105
  5
8081
  62
0
  72
0
  71
0
 10
1889.22
 20
4903.41
 30
0.000000
  1
2056
  0
POINT
  5
8026
  8
DEFPOINTS
 62
     0
 10
1018.560473531268
 20
4395.7316662232288
 30
0.0
  0
POINT
  5
8027
  8
DEFPOINTS
 62
     0
 10
3074.5604735312681
 20
4818.7671582796729
 30
0.0
  0
POINT
  5
8028
  8
DEFPOINTS
 62
     0
 10
3074.5604735312681
 20
5001.7617842140708
 30
0.0
  0
ENDBLK
  5
7E4F
  8
0
  0
BLOCK
  8
0
  2
*D21
 70
     1
 10
0.0
 20
0.0
 30
0.0
  3
*D21
  1

  0
LINE
  5
8029
  8
3
 62
     0
 10
1169.5604735312691
 20
2438.2316662232301
 30
0.0
 11
1169.5604735312691
 21
2172.707933910609
 31
0.0
  0
LINE
  5
802A
  8
3
 62
     0
 10
2269.5604735312681
 20
2438.2316662232301
 30
0.0
 11
2269.5604735312681
 21
2172.707933910609
 31
0.0
  0
LINE
  5
802B
  8
3
 62
     0
 10
1239.56047353127
 20
2207.707933910609
 30
0.0
 11
2199.5604735312681
 21
2207.707933910609
 31
0.0
  0
INSERT
  5
802C
  8
3
 62
     0
  2
_OPEN
 10
1169.5604735312691
 20
2207.707933910609
 30
0.0
 41
70.0
 42
70.0
 43
70.0
 50
180.0
  0
INSERT
  5
802D
  8
3
 62
     0
  2
_OPEN
 10
2269.5604735312681
 20
2207.707933910609
 30
0.0
 41
70.0
 42
70.0
 43
70.0
  0
TEXT
  8
3
  40
105
  5
8082
  62
0
  72
0
  71
0
 10
1509.56
 20
2109.36
 30
0.000000
  1
1100
  0
POINT
  5
802F
  8
DEFPOINTS
 62
     0
 10
1169.5604735312691
 20
2455.7316662232301
 30
0.0
  0
POINT
  5
8030
  8
DEFPOINTS
 62
     0
 10
2269.5604735312681
 20
2455.7316662232301
 30
0.0
  0
POINT
  5
8031
  8
DEFPOINTS
 62
     0
 10
2269.5604735312681
 20
2207.707933910609
 30
0.0
  0
ENDBLK
  5
7E96
  8
0
  0
BLOCK
  8
0
  2
*D22
 70
     1
 10
0.0
 20
0.0
 30
0.0
  3
*D22
  1

  0
LINE
  5
8032
  8
3
 62
     0
 10
2269.5604735312681
 20
2438.2316662232301
 30
0.0
 11
2269.5604735312681
 21
2172.707933910609
 31
0.0
  0
LINE
  5
8033
  8
3
 62
     0
 10
2929.5604735312681
 20
2438.2316662232301
 30
0.0
 11
2929.5604735312681
 21
2172.707933910609
 31
0.0
  0
LINE
  5
8034
  8
3
 62
     0
 10
2339.5604735312681
 20
2207.707933910609
 30
0.0
 11
2859.5604735312681
 21
2207.707933910609
 31
0.0
  0
INSERT
  5
8035
  8
3
 62
     0
  2
_OPEN
 10
2269.5604735312681
 20
2207.707933910609
 30
0.0
 41
70.0
 42
70.0
 43
70.0
 50
180.0
  0
INSERT
  5
8036
  8
3
 62
     0
  2
_OPEN
 10
2929.5604735312681
 20
2207.707933910609
 30
0.0
 41
70.0
 42
70.0
 43
70.0
  0
TEXT
  8
3
  40
105
  5
8083
  62
0
  72
0
  71
0
 10
2389.56
 20
2109.36
 30
0.000000
  1
660
  0
POINT
  5
8038
  8
DEFPOINTS
 62
     0
 10
2269.5604735312681
 20
2455.7316662232301
 30
0.0
  0
POINT
  5
8039
  8
DEFPOINTS
 62
     0
 10
2929.5604735312681
 20
2455.7316662232301
 30
0.0
  0
POINT
  5
803A
  8
DEFPOINTS
 62
     0
 10
2929.5604735312681
 20
2207.707933910609
 30
0.0
  0
ENDBLK
  5
7EA3
  8
0
  0
BLOCK
  8
0
  2
*D23
 70
     1
 10
0.0
 20
0.0
 30
0.0
  3
*D23
  1

  0
LINE
  5
803B
  8
3
 62
     0
 10
4417.9400047573081
 20
2438.2316662232301
 30
0.0
 11
4417.9400047573081
 21
2172.707933910609
 31
0.0
  0
LINE
  5
803C
  8
3
 62
     0
 10
5757.9400047573072
 20
2438.2316662232301
 30
0.0
 11
5757.9400047573072
 21
2172.707933910609
 31
0.0
  0
LINE
  5
803D
  8
3
 62
     0
 10
4487.940004757309
 20
2207.707933910609
 30
0.0
 11
5687.9400047573072
 21
2207.707933910609
 31
0.0
  0
INSERT
  5
803E
  8
3
 62
     0
  2
_OPEN
 10
4417.9400047573081
 20
2207.707933910609
 30
0.0
 41
70.0
 42
70.0
 43
70.0
 50
180.0
  0
INSERT
  5
803F
  8
3
 62
     0
  2
_OPEN
 10
5757.9400047573072
 20
2207.707933910609
 30
0.0
 41
70.0
 42
70.0
 43
70.0
  0
TEXT
  8
3
  40
105
  5
8084
  62
0
  72
0
  71
0
 10
4877.94
 20
2109.36
 30
0.000000
  1
1340
  0
POINT
  5
8041
  8
DEFPOINTS
 62
     0
 10
4417.9400047573081
 20
2455.7316662232301
 30
0.0
  0
POINT
  5
8042
  8
DEFPOINTS
 62
     0
 10
5757.9400047573072
 20
2455.7316662232301
 30
0.0
  0
POINT
  5
8043
  8
DEFPOINTS
 62
     0
 10
5757.9400047573072
 20
2207.707933910609
 30
0.0
  0
ENDBLK
  5
7EB0
  8
0
  0
BLOCK
  8
0
  2
*D24
 70
     1
 10
0.0
 20
0.0
 30
0.0
  3
*D24
  1

  0
LINE
  5
8044
  8
3
 62
     0
 10
5757.9400047573072
 20
2438.2316662232301
 30
0.0
 11
5757.9400047573072
 21
2172.707933910609
 31
0.0
  0
LINE
  5
8045
  8
3
 62
     0
 10
6252.940004757309
 20
2438.2316662232301
 30
0.0
 11
6252.940004757309
 21
2172.707933910609
 31
0.0
  0
LINE
  5
8046
  8
3
 62
     0
 10
5827.9400047573072
 20
2207.707933910609
 30
0.0
 11
6182.9400047573099
 21
2207.707933910609
 31
0.0
  0
INSERT
  5
8047
  8
3
 62
     0
  2
_OPEN
 10
5757.9400047573072
 20
2207.707933910609
 30
0.0
 41
70.0
 42
70.0
 43
70.0
 50
180.0
  0
INSERT
  5
8048
  8
3
 62
     0
  2
_OPEN
 10
6252.940004757309
 20
2207.707933910609
 30
0.0
 41
70.0
 42
70.0
 43
70.0
  0
TEXT
  8
3
  40
105
  5
8085
  62
0
  72
0
  71
0
 10
5795.44
 20
2109.36
 30
0.000000
  1
495
  0
POINT
  5
804A
  8
DEFPOINTS
 62
     0
 10
5757.9400047573072
 20
2455.7316662232301
 30
0.0
  0
POINT
  5
804B
  8
DEFPOINTS
 62
     0
 10
6252.940004757309
 20
2455.7316662232301
 30
0.0
  0
POINT
  5
804C
  8
DEFPOINTS
 62
     0
 10
6252.940004757309
 20
2207.707933910609
 30
0.0
  0
ENDBLK
  5
7EBD
  8
0
  0
BLOCK
  8
0
  2
*D25
 70
     1
 10
0.0
 20
0.0
 30
0.0
  3
*D25
  1

  0
LINE
  5
804D
  8
3
 62
     0
 10
2947.0604735312681
 20
2580.7316662232301
 30
0.0
 11
3482.523652063966
 21
2580.7316662232301
 31
0.0
  0
LINE
  5
804E
  8
3
 62
     0
 10
2947.0604735312681
 20
2455.7316662232301
 30
0.0
 11
3482.523652063966
 21
2455.7316662232301
 31
0.0
  0
LINE
  5
804F
  8
3
 62
     0
 10
3447.523652063966
 20
2650.7316662232301
 30
0.0
 11
3447.523652063966
 21
2720.7316662232301
 31
0.0
  0
LINE
  5
8050
  8
3
 62
     0
 10
3447.523652063966
 20
2385.7316662232301
 30
0.0
 11
3447.523652063966
 21
1995.7316662232299
 31
0.0
  0
LINE
  5
8051
  8
3
 62
     0
 10
3447.523652063966
 20
2580.7316662232301
 30
0.0
 11
3447.523652063966
 21
2455.7316662232301
 31
0.0
  0
INSERT
  5
8052
  8
3
 62
     0
  2
_DOT
 10
3447.523652063966
 20
2580.7316662232301
 30
0.0
 41
70.0
 42
70.0
 43
70.0
 50
270.0
  0
INSERT
  5
8053
  8
3
 62
     0
  2
_OPEN
 10
3447.523652063966
 20
2455.7316662232301
 30
0.0
 41
70.0
 42
70.0
 43
70.0
 50
90.0
  0
TEXT
  8
3
  40
105
  5
8086
  62
0
  72
0
  71
0
 10
3150.02
 20
1969.88
 30
0.000000
  1
125
  0
POINT
  5
8055
  8
DEFPOINTS
 62
     0
 10
2929.5604735312681
 20
2580.7316662232301
 30
0.0
  0
POINT
  5
8056
  8
DEFPOINTS
 62
     0
 10
2929.5604735312681
 20
2455.7316662232301
 30
0.0
  0
POINT
  5
8057
  8
DEFPOINTS
 62
     0
 10
3447.523652063966
 20
2455.7316662232301
 30
0.0
  0
ENDBLK
  5
7F06
  8
0
  0
BLOCK
  8
0
  2
*D26
 70
     1
 10
0.0
 20
0.0
 30
0.0
  3
*D26
  1

  0
LINE
  5
8058
  8
3
 62
     0
 10
2947.0604735312681
 20
2580.7316662232301
 30
0.0
 11
3480.0396527320481
 21
2580.7316662232301
 31
0.0
  0
LINE
  5
8059
  8
3
 62
     0
 10
2947.0604735312681
 20
2625.7316662232301
 30
0.0
 11
3480.0396527320481
 21
2625.7316662232301
 31
0.0
  0
LINE
  5
805A
  8
3
 62
     0
 10
3445.0396527320481
 20
2510.7316662232301
 30
0.0
 11
3445.0396527320481
 21
2440.7316662232301
 31
0.0
  0
LINE
  5
805B
  8
3
 62
     0
 10
3445.0396527320481
 20
2695.7316662232301
 30
0.0
 11
3445.0396527320481
 21
2765.7316662232301
 31
0.0
  0
LINE
  5
805C
  8
3
 62
     0
 10
3445.0396527320481
 20
2603.2316662232301
 30
0.0
 11
3772.5396527320481
 21
2701.4816662232301
 31
0.0
  0
LINE
  5
805D
  8
3
 62
     0
 10
3772.5396527320481
 20
2701.4816662232301
 30
0.0
 11
3772.5396527320481
 21
3076.4816662232301
 31
0.0
  0
TEXT
  8
3
  40
105
  5
8087
  62
0
  72
0
  71
0
 10
3447.54
 20
2703.13
 30
0.000000
  1
(45)
  0
LINE
  5
805F
  8
3
 62
     0
 10
3445.0396527320481
 20
2580.7316662232301
 30
0.0
 11
3445.0396527320481
 21
2625.7316662232301
 31
0.0
  0
LINE
  5
8060
  8
3
 62
     0
 10
3445.0396527320481
 20
2580.7316662232301
 30
0.0
 11
3445.0396527320481
 21
2625.7316662232301
 31
0.0
  0
INSERT
  5
8061
  8
3
 62
     0
  2
_DOT
 10
3445.0396527320481
 20
2580.7316662232301
 30
0.0
 41
70.0
 42
70.0
 43
70.0
 50
90.0
  0
INSERT
  5
8062
  8
3
 62
     0
  2
_OPEN
 10
3445.0396527320481
 20
2625.7316662232301
 30
0.0
 41
70.0
 42
70.0
 43
70.0
 50
270.0
  0
POINT
  5
8063
  8
DEFPOINTS
 62
     0
 10
2929.5604735312681
 20
2580.7316662232301
 30
0.0
  0
POINT
  5
8064
  8
DEFPOINTS
 62
     0
 10
2929.5604735312681
 20
2625.7316662232301
 30
0.0
  0
POINT
  5
8065
  8
DEFPOINTS
 62
     0
 10
3445.0396527320481
 20
2625.7316662232301
 30
0.0
  0
ENDBLK
  5
7F59
  8
0
  0
BLOCK
  8
0
  2
*D27
 70
     1
 10
0.0
 20
0.0
 30
0.0
  3
*D27
  1

  0
LINE
  5
8066
  8
3
 62
     0
 10
2292.0604735312681
 20
4395.7316662232288
 30
0.0
 11
3871.9835071102862
 21
4395.7316662232288
 31
0.0
  0
LINE
  5
8067
  8
3
 62
     0
 10
2947.0604735312681
 20
2455.7316662232301
 30
0.0
 11
3871.9835071102862
 21
2455.7316662232301
 31
0.0
  0
LINE
  5
8068
  8
3
 62
     0
 10
3836.9835071102871
 20
4325.7316662232288
 30
0.0
 11
3836.9835071102862
 21
2525.7316662232301
 31
0.0
  0
INSERT
  5
8069
  8
3
 62
     0
  2
_OPEN
 10
3836.9835071102871
 20
4395.7316662232288
 30
0.0
 41
70.0
 42
70.0
 43
70.0
 50
90.0
  0
INSERT
  5
806A
  8
3
 62
     0
  2
_OPEN
 10
3836.9835071102862
 20
2455.7316662232301
 30
0.0
 41
70.0
 42
70.0
 43
70.0
 50
270.0
  0
TEXT
  8
3
  40
105
  5
8088
  62
0
  72
0
  71
0
 10
3511.98
 20
3239.88
 30
0.000000
  1
(1940)
  0
POINT
  5
806C
  8
DEFPOINTS
 62
     0
 10
2274.5604735312681
 20
4395.7316662232288
 30
0.0
  0
POINT
  5
806D
  8
DEFPOINTS
 62
     0
 10
2929.5604735312681
 20
2455.7316662232301
 30
0.0
  0
POINT
  5
806E
  8
DEFPOINTS
 62
     0
 10
3836.9835071102862
 20
2455.7316662232301
 30
0.0
  0
ENDBLK
  5
7F66
  8
0
  0
ENDSEC
  0
SECTION
  2
ENTITIES
  0
INSERT
  5
7AD0
  8
0
  2
YA_N
 10
275.18706682008099
 20
57.69095189364441
 30
0.0
  0
LINE
  5
7AD2
  8
2
 10
3176.3411249842452
 20
3635.7316662232311
 30
0.0
 11
1018.411690692692
 21
3635.7316662232311
 31
0.0
  0
LINE
  5
7AD3
  8
2
 10
2269.5604735312681
 20
2455.7316662232301
 30
0.0
 11
2269.5604735312681
 21
4481.5706671219632
 31
0.0
  0
LINE
  5
7AD4
  8
1
 10
2274.5604735312681
 20
4395.7316662232288
 30
0.0
 11
1018.560473531268
 21
4395.7316662232288
 31
0.0
  0
LINE
  5
7AD5
  8
1
 10
1018.560473531268
 20
4395.7316662232288
 30
0.0
 11
1018.560473531268
 21
4345.7316662232288
 31
0.0
  0
LINE
  5
7AD6
  8
1
 10
2274.5604735312681
 20
4395.7316662232288
 30
0.0
 11
2274.5604735312681
 21
4345.7316662232288
 31
0.0
  0
LINE
  5
7AD7
  8
1
 10
2274.5604735312681
 20
4345.7316662232288
 30
0.0
 11
1018.560473531268
 21
4345.7316662232288
 31
0.0
  0
LINE
  5
7AD8
  8
1
 10
2274.5604735312681
 20
4391.7316662232288
 30
0.0
 11
1018.560473531268
 21
4391.7316662232288
 31
0.0
  0
LINE
  5
7AD9
  8
1
 10
2929.5604735312681
 20
2625.7316662232301
 30
0.0
 11
1169.5604735312691
 21
2625.7316662232301
 31
0.0
1001
ACAD
1000
ASC_BOUNDS
1002
{
1070
    19
1005
0
1005
0
1002
}
  0
LINE
  5
7ADA
  8
1
 10
2929.5604735312681
 20
2750.7316662232301
 30
0.0
 11
2929.5604735312681
 21
2625.7316662232301
 31
0.0
  0
LINE
  5
7ADB
  8
1
 10
2929.5604735312681
 20
2750.7316662232301
 30
0.0
 11
1159.5604735312691
 21
2750.7316662232301
 31
0.0
  0
ARC
  5
7ADC
  8
1
 10
2187.5604735312681
 20
3717.7316662232301
 30
0.0
 40
1051.0
 50
184.47481789853379
 51
211.48940223188859
  0
ARC
  5
7ADD
  8
1
 10
2187.5604735312681
 20
3553.7316662232301
 30
0.0
 40
887.0
 50
302.1763990923285
 51
5.3043652077958754
  0
ARC
  5
7ADE
  8
1
 10
2338.0604735312681
 20
3567.2316662232301
 30
0.0
 40
736.5
 50
5.3366483213834996
 51
95.336648321383493
  0
LINE
  5
7ADF
  8
1
 10
1071.5604735312679
 20
4395.7316662232288
 30
0.0
 11
1139.7642147099241
 21
3635.7316662232311
 31
0.0
  0
LINE
  5
7AE0
  8
1
 10
2221.5604735312681
 20
4395.7316662232288
 30
0.0
 11
2221.5604735312681
 21
4292.3030904567167
 31
0.0
  0
LINE
  5
7AE1
  8
2
 10
1419.5604735312679
 20
3298.9300210577348
 30
0.0
 11
1419.5604735312691
 21
2625.7316662232301
 31
0.0
  0
LINE
  5
7AE2
  8
1
 10
4458.1407484632336
 20
3010.7316662232311
 30
0.0
 11
4302.4444802595908
 21
3010.7316662232311
 31
0.0
  0
LINE
  5
7AE4
  8
1
 10
4417.9400047573081
 20
2750.7316662232301
 30
0.0
 11
6252.940004757309
 21
2750.7316662232301
 31
0.0
  0
LINE
  5
7AE5
  8
1
 10
4417.9400047573081
 20
2750.7316662232301
 30
0.0
 11
4417.9400047573081
 21
2625.7316662232301
 31
0.0
  0
LINE
  5
7AE6
  8
1
 10
6252.9400047573108
 20
2750.7316662232301
 30
0.0
 11
6252.940004757309
 21
2625.7316662232301
 31
0.0
  0
LINE
  5
7AE7
  8
1
 10
6252.940004757309
 20
2750.7316662232301
 30
0.0
 11
6252.940004757309
 21
2745.5006504295202
 31
0.0
  0
LINE
  5
7AE8
  8
1
 10
4417.9400047573081
 20
2625.7316662232301
 30
0.0
 11
6252.9400047573108
 21
2625.7316662232301
 31
0.0
1001
ACAD
1000
ASC_BOUNDS
1002
{
1070
    19
1002
}
  0
LINE
  5
7AE9
  8
2
 10
4302.0222093483189
 20
3635.7316662232311
 30
0.0
 11
6290.1498232362846
 21
3635.7316662232311
 31
0.0
  0
LINE
  5
7AEA
  8
2
 10
5757.9400047573081
 20
4515.7776417648638
 30
0.0
 11
5757.9400047573081
 21
2455.7316662232301
 31
0.0
  0
POINT
  5
7AEB
  8
1
 10
2269.5604735312681
 20
4436.9332287218504
 30
0.0
  0
INSERT
  5
7AEC
  8
0
  2
YA_N
 10
-805.59225922110249
 20
-1258.9783687196441
 30
0.0
 41
25.0
 42
25.0
 43
25.0
  0
INSERT
  5
7AEE
  8
0
  2
YA_N
 10
-77.754580822312846
 20
-323.11650731075139
 30
0.0
 41
25.0
 42
25.0
 43
25.0
  0
ARC
  5
7AF0
  8
1
 10
2338.0604735312681
 20
3704.2316662232311
 30
0.0
 40
599.5
 50
96.561053542833491
 51
101.2055053685535
  0
ARC
  5
7AF1
  8
1
 10
1419.5604735312679
 20
3010.7316662232311
 30
0.0
 40
203.5
 50
285.60369900000001
 51
254.39624000000001
  0
LINE
  5
7AF2
  8
1
 10
1364.822436531269
 20
2814.7316662232301
 30
0.0
 11
1474.2985105312689
 21
2814.7316662232301
 31
0.0
  0
ARC
  5
7AF3
  8
1
 10
1605.5604735312679
 20
2827.7316662232301
 30
0.0
 40
3.0
 50
0.0
 51
90.0
  0
ARC
  5
7AF4
  8
1
 10
1603.5604735312679
 20
2885.0583272232302
 30
0.0
 40
5.0000669999999987
 50
0.0
 51
55.056334999999997
  0
LINE
  5
7AF5
  8
1
 10
1608.5604735312679
 20
2885.0583272232302
 30
0.0
 11
1608.5604735312679
 21
2810.7316662232301
 31
0.0
  0
LINE
  5
7AF6
  8
1
 10
1587.8104735312679
 20
2830.7316662232311
 30
0.0
 11
1587.8104735312679
 21
2810.7316662232301
 31
0.0
  0
LINE
  5
7AF7
  8
1
 10
1569.3104735312679
 20
2830.7316662232311
 30
0.0
 11
1569.3104735312679
 21
2810.7316662232301
 31
0.0
  0
LINE
  5
7AF8
  8
1
 10
1578.5604735312679
 20
2835.1554942232301
 30
0.0
 11
1578.5604735312679
 21
2806.039772223231
 31
0.0
  0
LINE
  5
7AF9
  8
1
 10
1523.6630435312691
 20
2835.874855223231
 30
0.0
 11
1529.0604735312679
 21
2815.7316662232301
 31
0.0
  0
LINE
  5
7AFA
  8
1
 10
1529.0604735312679
 20
2827.7316662232301
 30
0.0
 11
1529.0604735312679
 21
2810.7316662232301
 31
0.0
  0
LINE
  5
7AFB
  8
1
 10
1532.0604735312679
 20
2830.7316662232311
 30
0.0
 11
1605.5604735312679
 21
2830.7316662232311
 31
0.0
  0
ARC
  5
7AFC
  8
1
 10
1532.0604735312679
 20
2827.7316662232301
 30
0.0
 40
3.0
 50
90.0
 51
180.0
  0
LINE
  5
7AFD
  8
1
 10
1606.4242435312681
 20
2889.1569592232299
 30
0.0
 11
1590.486377531269
 21
2900.2934342232311
 31
0.0
  0
LINE
  5
7AFE
  8
1
 10
1230.5604735312679
 20
2885.0583272232302
 30
0.0
 11
1230.5604735312679
 21
2810.7316662232301
 31
0.0
  0
LINE
  5
7AFF
  8
1
 10
1251.3104735312679
 20
2830.7316662232311
 30
0.0
 11
1251.3104735312679
 21
2810.7316662232301
 31
0.0
  0
LINE
  5
7B00
  8
1
 10
1269.8104735312679
 20
2830.7316662232311
 30
0.0
 11
1269.8104735312679
 21
2810.7316662232301
 31
0.0
  0
LINE
  5
7B01
  8
1
 10
1260.5604735312679
 20
2835.1554942232301
 30
0.0
 11
1260.5604735312679
 21
2806.039772223231
 31
0.0
  0
LINE
  5
7B02
  8
1
 10
1315.4576905312681
 20
2835.87497722323
 30
0.0
 11
1310.0604735312679
 21
2815.7316662232301
 31
0.0
  0
LINE
  5
7B03
  8
1
 10
1310.0604735312679
 20
2827.7316662232301
 30
0.0
 11
1310.0604735312679
 21
2810.7316662232301
 31
0.0
  0
LINE
  5
7B04
  8
1
 10
1307.0604735312679
 20
2830.7316662232311
 30
0.0
 11
1233.5604735312679
 21
2830.7316662232311
 31
0.0
  0
ARC
  5
7B05
  8
1
 10
1307.0604735312679
 20
2827.7316662232301
 30
0.0
 40
3.0
 50
0.0
 51
90.0
  0
ARC
  5
7B06
  8
1
 10
1233.5604735312679
 20
2827.7316662232301
 30
0.0
 40
3.0
 50
90.0
 51
180.0
  0
LINE
  5
7B07
  8
1
 10
1232.6965825312691
 20
2889.1569592232299
 30
0.0
 11
1248.6344485312691
 21
2900.2934342232311
 31
0.0
  0
ARC
  5
7B08
  8
1
 10
1235.5604735312679
 20
2885.0583272232302
 30
0.0
 40
5.0
 50
124.94366100000001
 51
180.0
  0
LINE
  5
7B09
  8
1
 10
1663.6227295793569
 20
2810.7316662232301
 30
0.0
 11
1489.5604735312679
 21
2810.7316662232301
 31
0.0
  0
LINE
  5
7B0A
  8
1
 10
1679.56047353127
 20
2750.7316662232301
 30
0.0
 11
1663.6227295793569
 21
2810.7316662232301
 31
0.0
  0
LINE
  5
7B0B
  8
1
 10
1159.5604735312691
 20
2750.7316662232301
 30
0.0
 11
1175.5454834376319
 21
2810.7316662232301
 31
0.0
  0
LINE
  5
7B0C
  8
1
 10
1489.56047353127
 20
2760.7316662232311
 30
0.0
 11
1349.56047353127
 21
2760.7316662232311
 31
0.0
  0
LINE
  5
7B0D
  8
1
 10
1489.5604735312679
 20
2800.7316662232301
 30
0.0
 11
1349.56047353127
 21
2800.7316662232301
 31
0.0
  0
LINE
  5
7B0E
  8
1
 10
1349.56047353127
 20
2810.7316662232301
 30
0.0
 11
1349.56047353127
 21
2800.7316662232301
 31
0.0
  0
LINE
  5
7B0F
  8
1
 10
1489.56047353127
 20
2810.7316662232301
 30
0.0
 11
1489.56047353127
 21
2800.7316662232301
 31
0.0
  0
LINE
  5
7B10
  8
1
 10
1349.56047353127
 20
2760.7316662232311
 30
0.0
 11
1349.5604735312679
 21
2750.7316662232301
 31
0.0
  0
LINE
  5
7B11
  8
1
 10
1489.56047353127
 20
2760.7316662232311
 30
0.0
 11
1489.56047353127
 21
2750.7316662232301
 31
0.0
  0
LINE
  5
7B12
  8
1
 10
1349.56047353127
 20
2810.7316662232301
 30
0.0
 11
1175.5454834376319
 21
2810.7316662232301
 31
0.0
  0
LINE
  5
7B13
  8
1
 10
1260.5604735312679
 20
2757.3731722548491
 30
0.0
 11
1260.5604735312679
 21
2728.2574502548491
 31
0.0
  0
LINE
  5
7B14
  8
1
 10
1578.5604735312679
 20
2757.3731722548491
 30
0.0
 11
1578.5604735312679
 21
2728.2574502548491
 31
0.0
  0
CIRCLE
  5
7B15
  8
1
 10
1419.5604735312679
 20
3010.7316662232311
 30
0.0
 40
118.0
  0
INSERT
  5
7B16
  8
0
  2
YA_N
 10
-125.28520241714951
 20
-378.20747810478872
 30
0.0
 41
25.0
 42
25.0
 43
25.0
  0
LINE
  5
7B18
  8
1
 10
5330.6400047573088
 20
2750.7316662232301
 30
0.0
 11
5330.6400047573088
 21
4395.7316662232288
 31
0.0
  0
LINE
  5
7B19
  8
1
 10
5332.9400047573099
 20
2750.7316662232301
 30
0.0
 11
5332.9400047573108
 21
4395.7316662232288
 31
0.0
  0
LINE
  5
7B1A
  8
1
 10
6182.9400047573063
 20
2750.7316662232301
 30
0.0
 11
6182.9400047573126
 21
4395.7316662232288
 31
0.0
  0
LINE
  5
7B1C
  8
1
 10
1169.5604735312691
 20
2750.7316662232301
 30
0.0
 11
1169.5604735312691
 21
2625.7316662232301
 31
0.0
  0
POINT
  5
7B21
  8
1
 10
2929.5604735312681
 20
2750.7316662232301
 30
0.0
  0
POINT
  5
7B22
  8
1
 10
2929.5604735312681
 20
2625.7316662232301
 30
0.0
  0
POINT
  5
7B23
  8
1
 10
2929.5604735312681
 20
2750.7316662232301
 30
0.0
  0
LINE
  5
7B25
  8
1
 10
2669.5604735312681
 20
2625.7316662232301
 30
0.0
 11
2669.5604735312681
 21
2750.7316662232301
 31
0.0
  0
CIRCLE
  5
7B2D
  8
1
 10
2269.5604735312681
 20
3635.7316662232311
 30
0.0
 40
203.19999999999999
  0
LINE
  5
7B37
  8
1
 10
2929.5604735312681
 20
7683.7675927715281
 30
0.0
 11
1609.5604735312679
 21
7683.7675927715281
 31
0.0
  0
LINE
  5
7B38
  8
1
 10
2929.5604735312681
 20
7683.7675927715281
 30
0.0
 11
2929.5604735312681
 21
7613.7675927715254
 31
0.0
  0
LINE
  5
7B39
  8
1
 10
1609.5604735312679
 20
7683.7675927715281
 30
0.0
 11
1609.5604735312679
 21
7666.7675927715181
 31
0.0
  0
LINE
  5
7B3A
  8
1
 10
1169.5604735312679
 20
6758.7675927715281
 30
0.0
 11
1169.5604735312679
 21
5848.7675927715281
 31
0.0
  0
LINE
  5
7B3B
  8
1
 10
2669.5604735312681
 20
5848.7675927715281
 30
0.0
 11
1169.5604735312679
 21
5848.7675927715281
 31
0.0
  0
LINE
  5
7B3C
  8
1
 10
2929.5604735312691
 20
6693.7675927715281
 30
0.0
 11
2669.5604735312681
 21
6693.7675927715281
 31
0.0
  0
LINE
  5
7B3D
  8
1
 10
2669.5604735312681
 20
6693.7675927715281
 30
0.0
 11
2669.5604735312681
 21
5848.7675927715281
 31
0.0
  0
POINT
  5
7B3E
  8
1
 10
1869.5604735312679
 20
5848.7675927715281
 30
0.0
  0
LINE
  5
7B3F
  8
1
 10
4480.940004757309
 20
3535.7316662232301
 30
0.0
 11
4480.940004757309
 21
2750.7316662232301
 31
0.0
  0
LINE
  5
7B40
  8
1
 10
4480.940004757309
 20
3535.7316662232301
 30
0.0
 11
5234.940004757309
 21
3535.7316662232301
 31
0.0
  0
LINE
  5
7B41
  8
1
 10
5234.940004757309
 20
3535.7316662232301
 30
0.0
 11
5234.9400047573072
 21
2750.7316662232301
 31
0.0
  0
LINE
  5
7B42
  8
1
 10
4327.940004757309
 20
3838.93166622323
 30
0.0
 11
4437.9400047573072
 21
3838.93166622323
 31
0.0
  0
LINE
  5
7B43
  8
1
 10
4327.9400047573117
 20
3432.5316662232308
 30
0.0
 11
4437.9400047573108
 21
3432.5316662232308
 31
0.0
  0
LINE
  5
7B44
  8
1
 10
4327.9400047573072
 20
3838.93166622323
 30
0.0
 11
4327.9400047573163
 21
2891.7316662232301
 31
0.0
  0
LINE
  5
7B45
  8
1
 10
4437.9400047573117
 20
3129.7316662232301
 30
0.0
 11
4327.9400047573117
 21
3129.7316662232301
 31
0.0
  0
LINE
  5
7B46
  8
1
 10
4437.9400047573135
 20
2891.7316662232301
 30
0.0
 11
4327.9400047573154
 21
2891.7316662232301
 31
0.0
  0
LINE
  5
7B47
  8
1
 10
4437.9400047573072
 20
3838.93166622323
 30
0.0
 11
4437.9400047573163
 21
2891.7316662232301
 31
0.0
  0
LINE
  5
7B48
  8
1
 10
4470.9400047573081
 20
3915.7316662232301
 30
0.0
 11
4470.9400047573081
 21
2790.7316662232301
 31
0.0
  0
LINE
  5
7B49
  8
1
 10
4270.940004757309
 20
3915.7316662232301
 30
0.0
 11
4270.940004757309
 21
2790.7316662232301
 31
0.0
  0
LINE
  5
7B4A
  8
1
 10
4270.940004757309
 20
3915.7316662232301
 30
0.0
 11
4470.9400047573081
 21
3915.7316662232301
 31
0.0
  0
LINE
  5
7B4B
  8
1
 10
4470.9400047573081
 20
2790.7316662232301
 30
0.0
 11
4270.940004757309
 21
2790.7316662232301
 31
0.0
  0
LINE
  5
7B4C
  8
2
 10
1681.343779466871
 20
3010.7316662232311
 30
0.0
 11
1114.6974356359481
 21
3010.7316662232311
 31
0.0
  0
LINE
  5
7B4D
  8
1
 10
4437.940004757309
 20
3675.7316662232301
 30
0.0
 11
5332.9400047573099
 21
3675.7316662232301
 31
0.0
  0
LINE
  5
7B4E
  8
1
 10
4437.9400047573099
 20
3595.7316662232311
 30
0.0
 11
5332.9400047573099
 21
3595.7316662232311
 31
0.0
  0
LINE
  5
7B50
  8
1
 10
5279.940004757309
 20
4395.7316662232288
 30
0.0
 11
6235.940004757309
 21
4395.7316662232288
 31
0.0
  0
LINE
  5
7B51
  8
1
 10
5279.940004757309
 20
4345.7316662232306
 30
0.0
 11
6235.9400047573072
 21
4345.7316662232288
 31
0.0
  0
LINE
  5
7B52
  8
1
 10
5279.940004757309
 20
4391.7316662232288
 30
0.0
 11
6235.940004757309
 21
4391.7316662232288
 31
0.0
  0
LINE
  5
7B53
  8
1
 10
6235.9400047573081
 20
4395.7316662232288
 30
0.0
 11
6235.9400047573072
 21
4345.7316662232288
 31
0.0
  0
LINE
  5
7B54
  8
1
 10
5279.940004757309
 20
4395.7316662232288
 30
0.0
 11
5279.940004757309
 21
4345.7316662232288
 31
0.0
  0
POINT
  5
7B58
  8
1
 10
2929.5604735312681
 20
2625.7316662232301
 30
0.0
  0
POINT
  5
7B59
  8
1
 10
4270.940004757309
 20
3915.7316662232301
 30
0.0
  0
ARC
  5
7B5A
  8
1
 10
2269.5604735312681
 20
3635.7316662232311
 30
0.0
 40
280.0
 50
303.06668567542681
 51
129.58696622881351
  0
ARC
  5
7B5B
  8
1
 10
1419.5604735312679
 20
3010.7316662232311
 30
0.0
 40
220.0
 50
129.58696622881351
 51
303.06668567542681
  0
LINE
  5
7B5C
  8
1
 10
2091.1308388770749
 20
3851.5159693529331
 30
0.0
 11
1279.365760588687
 21
3180.2764758251392
 31
0.0
  0
LINE
  5
7B5D
  8
1
 10
2136.3596656201698
 20
3789.184540982325
 30
0.0
 11
1342.209610669508
 21
3099.843079715225
 31
0.0
  0
LINE
  5
7B5E
  8
1
 10
2376.3208654962691
 20
3462.8373091508279
 30
0.0
 11
1481.557157841653
 21
2910.3304155611072
 31
0.0
  0
LINE
  5
7B5F
  8
1
 10
2422.332612396578
 20
3401.081557366409
 30
0.0
 11
1539.5957254968689
 21
2826.3637235500132
 31
0.0
  0
LINE
  5
7B61
  8
1
 10
1068.5604735312679
 20
6763.7675927715281
 30
0.0
 11
1068.5604735312679
 21
7613.7675927715318
 31
0.0
  0
LINE
  5
7B62
  8
1
 10
1018.560473531268
 20
6710.7675927715281
 30
0.0
 11
1018.560473531268
 21
7666.7675927715272
 31
0.0
  0
LINE
  5
7B63
  8
2
 10
2269.5604735312681
 20
5622.0116577251356
 30
0.0
 11
2269.5604735312681
 21
7720.9774112505047
 31
0.0
  0
LINE
  5
7B64
  8
1
 10
3074.5604735312681
 20
6763.7675927715281
 30
0.0
 11
1068.5604735312679
 21
6763.7675927715281
 31
0.0
  0
LINE
  5
7B65
  8
1
 10
2549.5604735312681
 20
5701.7675927715281
 30
0.0
 11
1199.5604735312679
 21
5701.7675927715281
 31
0.0
  0
LINE
  5
7B66
  8
1
 10
2549.5604735312681
 20
5901.7675927715281
 30
0.0
 11
1199.5604735312679
 21
5901.7675927715281
 31
0.0
  0
LINE
  5
7B67
  8
1
 10
2472.760473531268
 20
5868.7675927715254
 30
0.0
 11
1300.5604735312679
 21
5868.7675927715354
 31
0.0
  0
LINE
  5
7B68
  8
1
 10
2472.7604735312671
 20
5758.7675927715236
 30
0.0
 11
1300.5604735312679
 21
5758.7675927715354
 31
0.0
  0
LINE
  5
7B69
  8
1
 10
2014.5604735312679
 20
6665.7675927715272
 30
0.0
 11
2229.5604735312681
 21
6665.7675927715291
 31
0.0
  0
LINE
  5
7B6A
  8
1
 10
2524.5604735312681
 20
5911.7675927715281
 30
0.0
 11
2309.56047353127
 21
5911.7675927715281
 31
0.0
  0
LINE
  5
7B6B
  8
1
 10
1199.5604735312679
 20
5901.7675927715281
 30
0.0
 11
1199.5604735312679
 21
5701.7675927715281
 31
0.0
  0
LINE
  5
7B6C
  8
1
 10
1300.5604735312679
 20
5868.7675927715318
 30
0.0
 11
1300.5604735312679
 21
5758.7675927715318
 31
0.0
  0
LINE
  5
7B6D
  8
1
 10
2309.5604735312681
 20
5868.7675927715281
 30
0.0
 11
2309.5604735312681
 21
6763.7675927715281
 31
0.0
  0
LINE
  5
7B6E
  8
1
 10
2229.5604735312681
 20
5868.7675927715281
 30
0.0
 11
2229.5604735312681
 21
6710.7675927715281
 31
0.0
  0
LINE
  5
7B6F
  8
1
 10
1538.5604735312679
 20
5868.7675927715318
 30
0.0
 11
1538.5604735312679
 21
5758.7675927715318
 31
0.0
  0
LINE
  5
7B70
  8
1
 10
2066.3604735312688
 20
5758.7675927715318
 30
0.0
 11
2066.3604735312688
 21
5868.7675927715281
 31
0.0
  0
LINE
  5
7B71
  8
1
 10
2549.5604735312681
 20
5701.7675927715281
 30
0.0
 11
2549.5604735312681
 21
5901.7675927715281
 31
0.0
  0
LINE
  5
7B72
  8
1
 10
2472.760473531268
 20
5758.7675927715281
 30
0.0
 11
2472.760473531268
 21
5868.7675927715254
 31
0.0
  0
POINT
  5
7B73
  8
1
 10
2549.5604735312681
 20
5701.7675927715281
 30
0.0
  0
LINE
  5
7B74
  8
1
 10
1018.560473531268
 20
6710.7675927715281
 30
0.0
 11
2274.5604735312681
 21
6710.7675927715281
 31
0.0
  0
LINE
  5
7B75
  8
1
 10
3074.5604735312681
 20
7616.0675927715283
 30
0.0
 11
2274.5604735312681
 21
7616.0675927715283
 31
0.0
  0
LINE
  5
7B76
  8
1
 10
3074.5604735312681
 20
7613.7675927715254
 30
0.0
 11
2274.5604735312681
 21
7613.7675927715281
 31
0.0
  0
LINE
  5
7B77
  8
2
 10
948.53349854014948
 20
7188.7675927715263
 30
0.0
 11
3247.696241017833
 21
7188.7675927715281
 31
0.0
  0
LINE
  5
7B78
  8
1
 10
1018.560473531268
 20
7666.7675927715272
 30
0.0
 11
2274.5604735312681
 21
7666.7675927715054
 31
0.0
  0
LINE
  5
7B79
  8
1
 10
2274.5604735312681
 20
6710.7675927715281
 30
0.0
 11
2274.5604735312681
 21
7666.7675927715027
 31
0.0
  0
LINE
  5
7B7A
  8
1
 10
2221.5604735312681
 20
7613.7675927715272
 30
0.0
 11
1068.5604735312679
 21
7613.7675927715318
 31
0.0
  0
LINE
  5
7B7B
  8
1
 10
2221.5604735312681
 20
6763.7675927715291
 30
0.0
 11
2221.5604735312681
 21
7613.7675927715281
 31
0.0
  0
LINE
  5
7B7D
  8
1
 10
3074.5604735312681
 20
6763.7675927715281
 30
0.0
 11
3074.5604735312681
 21
7616.067592771532
 31
0.0
  0
LINE
  5
7B7E
  8
2
 10
1419.5604735312679
 20
6565.6400606813149
 30
0.0
 11
1419.5604735312679
 21
5596.3840879366162
 31
0.0
  0
LINE
  5
7B7F
  8
1
 10
1219.5604735312679
 20
6561.2675927725249
 30
0.0
 11
1619.5604735312661
 21
6561.2675927725231
 31
0.0
  0
LINE
  5
7B80
  8
1
 10
1219.5604735312679
 20
6031.767592772524
 30
0.0
 11
1219.5604735312679
 21
6561.2675927725249
 31
0.0
  0
LINE
  5
7B81
  8
1
 10
1619.56047353127
 20
5925.4105116901092
 30
0.0
 11
1219.5604735312679
 21
5925.4105116901092
 31
0.0
  0
LINE
  5
7B82
  8
1
 10
1219.5604735312679
 20
5925.4105116901092
 30
0.0
 11
1219.5604735312679
 21
6084.2675927725249
 31
0.0
  0
LINE
  5
7B83
  8
1
 10
1449.5604735312679
 20
5758.7675927715327
 30
0.0
 11
1449.56047353127
 21
5898.7675927676619
 31
0.0
  0
LINE
  5
7B84
  8
1
 10
1389.56047353127
 20
5758.7675927715327
 30
0.0
 11
1389.56047353127
 21
5898.7675927676619
 31
0.0
  0
LINE
  5
7B85
  8
1
 10
1358.84302454867
 20
5903.7675927725249
 30
0.0
 11
1480.277922513865
 21
5903.7675927725249
 31
0.0
  0
LINE
  5
7B86
  8
1
 10
1380.139164585421
 20
5898.7675927676619
 30
0.0
 11
1456.9817824771139
 21
5898.7675927676619
 31
0.0
  0
LINE
  5
7B87
  8
1
 10
1358.84302454867
 20
5925.4105116901092
 30
0.0
 11
1358.84302454867
 21
5903.7675927725249
 31
0.0
  0
LINE
  5
7B88
  8
1
 10
1380.139164585421
 20
5898.7675927676619
 30
0.0
 11
1380.139164585423
 21
5903.7675927725249
 31
0.0
  0
LINE
  5
7B89
  8
1
 10
1456.9817824771139
 20
5898.7675927676619
 30
0.0
 11
1456.9817824771139
 21
5903.7675927725249
 31
0.0
  0
LINE
  5
7B8A
  8
1
 10
1480.277922513865
 20
5925.4105116901092
 30
0.0
 11
1480.277922513865
 21
5903.7675927725249
 31
0.0
  0
LINE
  5
7B8B
  8
1
 10
1449.5604735312679
 20
5758.7675927715327
 30
0.0
 11
1389.5604735312679
 21
5758.7675927715327
 31
0.0
  0
LINE
  5
7B8C
  8
1
 10
1619.5604735312679
 20
5925.4105116901092
 30
0.0
 11
1619.5604735312661
 21
6561.2675927725231
 31
0.0
  0
LINE
  5
7B8F
  8
1
 10
2309.5604735312681
 20
6665.7675927715291
 30
0.0
 11
2524.5604735312681
 21
6665.7675927715272
 31
0.0
  0
LINE
  5
7B90
  8
1
 10
2229.5604735312691
 20
5911.7675927715281
 30
0.0
 11
2014.5604735312679
 21
5911.7675927715281
 31
0.0
  0
DIMENSION
  5
7BA3
  8
3
  2
*D2
 10
3556.8698919423491
 20
6693.7675927715281
 30
0.0
 11
3556.8698919423468
 21
7190.8552420415108
 31
0.0
 70
   128
 13
2929.5604735312681
 23
7683.7675927715281
 33
0.0
 14
2929.5604735312681
 24
6693.7675927715281
 34
0.0
 50
90.0
1001
ACAD
1000
DSTYLE
1002
{
1070
   287
1070
     3
1070
    40
1040
35.0
1070
   143
1040
0.039
1070
   172
1070
     1
1070
   271
1070
     0
1070
   279
1070
     0
1070
   288
1070
     1
1002
}
  0
LINE
  5
7BA4
  8
1
 10
1609.5604735312679
 20
6758.7675927715263
 30
0.0
 11
1169.5604735312679
 21
6758.7675927715263
 31
0.0
  0
LINE
  5
7BA5
  8
1
 10
1609.5604735312679
 20
6763.7675927715281
 30
0.0
 11
1609.5604735312679
 21
6758.7675927715263
 31
0.0
  0
LINE
  5
7BB1
  8
1
 10
2929.5604735312681
 20
6763.7675927715291
 30
0.0
 11
2929.5604735312681
 21
6693.7675927715281
 31
0.0
  0
LINE
  5
7BB2
  8
1
 10
1068.5604735312679
 20
7613.7675927715318
 30
0.0
 11
2221.5604735312681
 21
6763.7675927715281
 31
0.0
  0
LINE
  5
7BB3
  8
1
 10
2221.5604735312681
 20
7613.7675927715272
 30
0.0
 11
1068.5604735312679
 21
6763.7675927715281
 31
0.0
  0
DIMENSION
  5
7BBF
  8
3
  2
*D3
 10
3556.8698919423468
 20
5848.7675927715281
 30
0.0
 11
3469.3698919423468
 21
6271.2675927715291
 31
0.0
 70
     0
 13
2929.5604735312681
 23
6693.7675927715281
 33
0.0
 14
2669.5604735312681
 24
5848.7675927715281
 34
0.0
 50
90.0
1001
ACAD
1000
DSTYLE
1002
{
1070
   287
1070
     4
1070
    40
1040
35.0
1070
    75
1070
     1
1070
   143
1040
0.039
1070
   172
1070
     1
1070
   271
1070
     0
1070
   279
1070
     1
1070
   288
1070
     1
1002
}
  0
DIMENSION
  5
7BCE
  8
3
  2
*D4
 10
2669.5604735312681
 20
5386.5740510801079
 30
0.0
 11
3169.5604735312681
 21
5386.5740510801079
 31
0.0
 70
   128
 13
2929.5604735312681
 23
6693.7675927715281
 33
0.0
 14
2669.5604735312681
 24
5848.7675927715281
 34
0.0
1001
ACAD
1000
DSTYLE
1002
{
1070
   287
1070
     3
1070
    40
1040
35.0
1070
   143
1040
0.039
1070
   172
1070
     1
1070
   271
1070
     0
1070
   279
1070
     0
1070
   288
1070
     1
1002
}
  0
DIMENSION
  5
7BE6
  8
3
  2
*D5
 10
1169.5604735312679
 20
5386.5740510801079
 30
0.0
 11
1919.5604735312679
 21
5474.0740510801079
 31
0.0
 70
     0
 13
2669.5604735312681
 23
5848.7675927715281
 33
0.0
 14
1169.5604735312679
 24
5848.7675927715281
 34
0.0
1001
ACAD
1000
DSTYLE
1002
{
1070
   287
1070
     4
1070
    40
1040
35.0
1070
    75
1070
     1
1070
   143
1040
0.039
1070
   172
1070
     1
1070
   271
1070
     0
1070
   279
1070
     1
1070
   288
1070
     1
1002
}
  0
DIMENSION
  5
7BF3
  8
3
  2
*D6
 10
739.16869267066897
 20
6758.7675927715263
 30
0.0
 11
739.16869267066795
 21
6258.2074768975936
 31
0.0
 70
   128
 13
1169.5604735312679
 23
5848.7675927715281
 33
0.0
 14
1169.5604735312679
 24
6758.7675927715263
 34
0.0
 50
90.0
1001
ACAD
1000
DSTYLE
1002
{
1070
   287
1070
     3
1070
    40
1040
35.0
1070
   143
1040
0.039
1070
   172
1070
     1
1070
   271
1070
     0
1070
   279
1070
     0
1070
   288
1070
     1
1002
}
  0
DIMENSION
  5
7BFF
  8
3
  2
*D7
 10
739.16869267066795
 20
7683.7675927715281
 30
0.0
 11
651.66869267066659
 21
7221.2675927715272
 31
0.0
 70
     0
 13
1169.5604735312679
 23
6758.7675927715263
 33
0.0
 14
1609.5604735312679
 24
7683.7675927715281
 34
0.0
 50
90.0
1001
ACAD
1000
DSTYLE
1002
{
1070
   287
1070
     4
1070
    40
1040
35.0
1070
    75
1070
     1
1070
   143
1040
0.039
1070
   172
1070
     1
1070
   271
1070
     0
1070
   279
1070
     1
1070
   288
1070
     1
1002
}
  0
DIMENSION
  5
7C0E
  8
3
  2
*D8
 10
1609.5604735312679
 20
7914.311000374677
 30
0.0
 11
1389.5604735312679
 21
7914.311000374677
 31
0.0
 70
   128
 13
1169.5604735312679
 23
6758.7675927715263
 33
0.0
 14
1609.5604735312679
 24
7683.7675927715281
 34
0.0
1001
ACAD
1000
DSTYLE
1002
{
1070
   287
1070
     3
1070
    40
1040
35.0
1070
   143
1040
0.039
1070
   172
1070
     1
1070
   271
1070
     0
1070
   279
1070
     0
1070
   288
1070
     1
1002
}
  0
DIMENSION
  5
7C1A
  8
3
  2
*D9
 10
2929.5604735312681
 20
7914.311000374677
 30
0.0
 11
2269.5604735312681
 21
8001.8110003746779
 31
0.0
 70
     0
 13
1609.5604735312679
 23
7683.7675927715281
 33
0.0
 14
2929.5604735312681
 24
7683.7675927715281
 34
0.0
1001
ACAD
1000
DSTYLE
1002
{
1070
   287
1070
     4
1070
    40
1040
35.0
1070
    75
1070
     1
1070
   143
1040
0.039
1070
   172
1070
     1
1070
   271
1070
     0
1070
   279
1070
     1
1070
   288
1070
     1
1002
}
  0
DIMENSION
  5
7C3D
  8
3
  2
*D10
 10
2221.5604735312681
 20
4586.5591929576403
 30
0.0
 11
1619.8033275050909
 21
4586.5591929576403
 31
0.0
 70
   128
 13
1071.5604735312679
 23
4395.7316662232288
 33
0.0
 14
2221.5604735312681
 24
4395.7316662232288
 34
0.0
1001
ACAD
1000
DSTYLE
1002
{
1070
   287
1070
     3
1070
    40
1040
35.0
1070
   143
1040
0.039
1070
   172
1070
     1
1070
   271
1070
     0
1070
   279
1070
     0
1070
   288
1070
     1
1002
}
  0
DIMENSION
  5
7C4A
  8
3
  2
*D11
 10
2269.5604735312681
 20
4818.7671582796729
 30
0.0
 11
1608.466749201121
 21
4818.7671582796729
 31
0.0
 70
   128
 13
1071.5604735312679
 23
4413.2316662232297
 33
0.0
 14
2269.5604735312681
 24
4481.5706671219632
 34
0.0
1001
ACAD
1000
DSTYLE
1002
{
1070
   287
1070
     3
1070
    40
1040
35.0
1070
   143
1040
0.039
1070
   172
1070
     1
1070
   271
1070
     0
1070
   279
1070
     0
1070
   288
1070
     1
1002
}
  0
DIMENSION
  5
7C56
  8
3
  2
*D12
 10
3074.5604735312681
 20
4818.7671582796729
 30
0.0
 11
2672.0604735312681
 21
4906.267158279672
 31
0.0
 70
     0
 13
2269.5604735312681
 23
4481.5706671219632
 33
0.0
 14
3074.5604735312681
 24
3553.7316662232301
 34
0.0
1001
ACAD
1000
DSTYLE
1002
{
1070
   287
1070
     4
1070
    40
1040
35.0
1070
    75
1070
     1
1070
   143
1040
0.039
1070
   172
1070
     1
1070
   271
1070
     0
1070
   279
1070
     1
1070
   288
1070
     1
1002
}
  0
DIMENSION
  5
7C63
  8
3
  2
*D13
 10
3444.991607781456
 20
3635.7316662232311
 30
0.0
 11
3444.991607781456
 21
3997.5438674597858
 31
0.0
 70
   128
 13
2274.5604735312681
 23
4395.7316662232288
 33
0.0
 14
3176.3411249842452
 24
3635.7316662232311
 34
0.0
 50
90.0
1001
ACAD
1000
DSTYLE
1002
{
1070
   287
1070
     3
1070
    40
1040
35.0
1070
   143
1040
0.039
1070
   172
1070
     1
1070
   271
1070
     0
1070
   279
1070
     0
1070
   288
1070
     1
1002
}
  0
DIMENSION
  5
7C6F
  8
3
  2
*D14
 10
3444.991607781456
 20
2625.7316662232301
 30
0.0
 11
3357.4916077814551
 21
3130.731666223232
 31
0.0
 70
     0
 13
3176.3411249842452
 23
3635.7316662232311
 33
0.0
 14
2929.5604735312681
 24
2625.7316662232301
 34
0.0
 50
90.0
1001
ACAD
1000
DSTYLE
1002
{
1070
   287
1070
     4
1070
    40
1040
35.0
1070
    75
1070
     1
1070
   143
1040
0.039
1070
   172
1070
     1
1070
   271
1070
     0
1070
   279
1070
     1
1070
   288
1070
     1
1002
}
  0
DIMENSION
  5
7D01
  8
3
  2
*D15
 10
6537.8257878305094
 20
3075.7316662232301
 30
0.0
 11
6537.8257878305094
 21
3623.9063406411078
 31
0.0
 70
   128
 13
6185.2400047573092
 23
4195.7316662232297
 33
0.0
 14
6185.240004757311
 24
3075.7316662232301
 34
0.0
 50
90.0
1001
ACAD
1000
DSTYLE
1002
{
1070
   287
1070
     3
1070
     3
1000
φ<>
1070
    40
1040
35.0
1070
   143
1040
0.039
1070
   172
1070
     1
1070
   271
1070
     0
1070
   279
1070
     0
1070
   288
1070
     1
1002
}
  0
DIMENSION
  5
7D19
  8
3
  2
*D16
 10
6182.9400047573126
 20
4537.1934174266062
 30
0.0
 11
5760.7077326111694
 21
4537.1934174266062
 31
0.0
 70
   128
 13
5332.9400047573108
 23
4395.7316662232288
 33
0.0
 14
6182.9400047573126
 24
4395.7316662232288
 34
0.0
1001
ACAD
1000
DSTYLE
1002
{
1070
   287
1070
     3
1070
    40
1040
35.0
1070
   143
1040
0.039
1070
   172
1070
     1
1070
   271
1070
     0
1070
   279
1070
     0
1070
   288
1070
     1
1002
}
  0
DIMENSION
  5
7D28
  8
3
  2
*D17
 10
6193.2400047573092
 20
4798.4714673410299
 30
0.0
 11
5975.5900047573077
 21
4798.4714673410299
 31
0.0
 70
   128
 13
5757.9400047573081
 23
4688.6092411189848
 33
0.0
 14
6193.2400047573092
 24
4395.7316662232288
 34
0.0
1001
ACAD
1000
DSTYLE
1002
{
1070
   287
1070
     3
1070
    40
1040
35.0
1070
   143
1040
0.039
1070
   172
1070
     1
1070
   271
1070
     0
1070
   279
1070
     0
1070
   288
1070
     1
1002
}
  0
DIMENSION
  5
7D76
  8
3
  2
*D18
 10
4270.940004757309
 20
4798.4714673410299
 30
0.0
 11
5014.440004757309
 21
4973.4714673410308
 31
0.0
 70
     0
  1
MAX\P1530
 13
5757.9400047573081
 23
4688.6092411189848
 33
0.0
 14
4270.940004757309
 24
3915.7316662232301
 34
0.0
1001
ACAD
1000
DSTYLE
1002
{
1070
   287
1070
     4
1070
    40
1040
35.0
1070
    75
1070
     1
1070
   143
1040
0.039
1070
   172
1070
     1
1070
   271
1070
     0
1070
   279
1070
     1
1070
   288
1070
     1
1002
}
  0
LINE
  5
7D81
  8
4
 10
6475.0
 20
1580.0
 30
0.0
 11
6475.0
 21
880.0
 31
0.0
  0
LINE
  5
7D82
  8
4
 10
4025.0
 20
1580.0
 30
0.0
 11
4025.0
 21
880.0
 31
0.0
  0
LINE
  5
7D83
  8
4
 10
2275.0
 20
1580.0
 30
0.0
 11
2275.0
 21
880.0
 31
0.0
  0
LINE
  5
7D86
  8
4
 10
2275.0
 20
880.0
 30
0.0
 11
6475.0
 21
880.0
 31
0.0
  0
LINE
  5
7D87
  8
4
 10
2275.0
 20
1230.0
 30
0.0
 11
6475.0
 21
1230.0
 31
0.0
  0
TEXT
  5
7D88
  8
4
 10
2409.7572829641558
 20
1340.4005905331451
 30
0.0
 40
175.0
  1
機器名称
  0
TEXT
  5
7D89
  8
4
 10
2401.9033710867911
 20
955.7580485620382
 30
0.0
 40
175.0
  1
機器型番
  0
TEXT
  5
7D8A
  8
4
 10
4131.1124678485839
 20
1312.5648553767689
 30
0.0
 40
140.0
  1
ミツヤリミットロ－ﾄﾞファン
  0
TEXT
  5
7D8B
  8
4
 10
4153.2907345491822
 20
940.05854497980181
 30
0.0
 40
175.0
  1
LL#7-1
  0
TEXT
  5
7D8D
  8
4
 10
2697.9708263690191
 20
8342.0009446638051
 30
0.0
 40
188.99999999999989
  1
床置防振ベット
  0
TEXT
  5
7D8E
  8
4
 10
1004.678023501895
 20
8868.5834166975455
 30
0.0
 40
252.0
  1
遠心式片吸込片持リミットロ－ﾄﾞファン
  0
LINE
  5
7D8F
  8
4
 10
875.0
 20
8642.9306399268171
 30
0.0
 11
6475.0
 21
8642.9306399268171
 31
0.0
  0
LINE
  5
7D90
  8
4
 10
875.0
 20
9342.9306399268171
 30
0.0
 11
6475.0
 21
9342.9306399268171
 31
0.0
  0
LINE
  5
7D91
  8
4
 10
2275.0
 20
1580.0
 30
0.0
 11
6475.0
 21
1580.0
 31
0.0
  0
LINE
  5
7D92
  8
4
 10
875.0
 20
9342.9306399268171
 30
0.0
 11
875.0
 21
8642.9306399268171
 31
0.0
  0
TEXT
  5
7D93
  8
4
 10
1172.4649135195609
 20
8338.1181714122031
 30
0.0
 40
188.99999999999989
  1
右回転上向
  0
TEXT
  5
7D94
  8
4
 10
5141.3934573725146
 20
9471.21378523358
 30
0.0
 40
196.0
  1
No.
  0
TEXT
  5
7D95
  8
4
 10
4589.5362191000459
 20
8342.0009446638051
 30
0.0
 40
188.99999999999989
  1
縮尺：1/35
  0
LINE
  5
7D96
  8
4
 10
6475.0
 20
9342.9306399268171
 30
0.0
 11
6475.0
 21
8642.9306399268171
 31
0.0
  0
LINE
  5
7D97
  8
4
 10
7350.0
 20
10325.0
 30
0.0
 11
7350.0
 21
10325.0
 31
0.0
  0
LINE
  5
7D98
  8
4
 10
5042.160978259526
 20
9384.4225409389055
 30
0.0
 11
5042.160978259526
 21
9753.2829154241354
 31
0.0
  0
LINE
  5
7D99
  8
4
 10
5042.160978259526
 20
9753.2829154241354
 30
0.0
 11
6475.0
 21
9753.2829154241354
 31
0.0
  0
LINE
  5
7D9A
  8
4
 10
6475.0
 20
9753.2829154241354
 30
0.0
 11
6475.0
 21
9384.4225409389055
 31
0.0
  0
LINE
  5
7D9B
  8
4
 10
6475.0
 20
9384.4225409389055
 30
0.0
 11
5042.160978259526
 21
9384.4225409389055
 31
0.0
  0
LINE
  5
7D9C
  8
4
 10
0.0
 20
0.0
 30
0.0
 11
0.0
 21
10325.0
 31
0.0
  0
LINE
  5
7D9D
  8
4
 10
0.0
 20
10325.0
 30
0.0
 11
7350.0
 21
10325.0
 31
0.0
  0
LINE
  5
7D9E
  8
4
 10
7350.0
 20
10325.0
 30
0.0
 11
7350.0
 21
0.0
 31
0.0
  0
LINE
  5
7D9F
  8
4
 10
7350.0
 20
0.0
 30
0.0
 11
0.0
 21
0.0
 31
0.0
  0
DIMENSION
  5
7E50
  8
3
  2
*D20
 10
3074.5604735312681
 20
5001.7617842140708
 30
0.0
 11
2099.2193951210638
 21
5001.7617842140708
 31
0.0
 70
   128
 13
1018.560473531268
 23
4395.7316662232288
 33
0.0
 14
3074.5604735312681
 24
4818.7671582796729
 34
0.0
1001
ACAD
1000
DSTYLE
1002
{
1070
   287
1070
     3
1070
    40
1040
35.0
1070
   143
1040
0.039
1070
   172
1070
     1
1070
   271
1070
     0
1070
   279
1070
     0
1070
   288
1070
     1
1002
}
  0
DIMENSION
  5
7E97
  8
3
  2
*D21
 10
2269.5604735312681
 20
2207.707933910609
 30
0.0
 11
1719.5604735312691
 21
2295.207933910609
 31
0.0
 70
     0
 13
1169.5604735312691
 23
2455.7316662232301
 33
0.0
 14
2269.5604735312681
 24
2455.7316662232301
 34
0.0
1001
ACAD
1000
DSTYLE
1002
{
1070
   287
1070
     3
1070
    40
1040
35.0
1070
   143
1040
0.039
1070
   172
1070
     1
1070
   271
1070
     0
1070
   279
1070
     0
1002
}
  0
DIMENSION
  5
7EA4
  8
3
  2
*D22
 10
2929.5604735312681
 20
2207.707933910609
 30
0.0
 11
2599.5604735312681
 21
2295.207933910609
 31
0.0
 70
     0
 13
2269.5604735312681
 23
2455.7316662232301
 33
0.0
 14
2929.5604735312681
 24
2455.7316662232301
 34
0.0
1001
ACAD
1000
DSTYLE
1002
{
1070
   287
1070
     3
1070
    40
1040
35.0
1070
   143
1040
0.039
1070
   172
1070
     1
1070
   271
1070
     0
1070
   279
1070
     0
1002
}
  0
DIMENSION
  5
7EB1
  8
3
  2
*D23
 10
5757.9400047573072
 20
2207.707933910609
 30
0.0
 11
5087.9400047573081
 21
2295.207933910609
 31
0.0
 70
     0
 13
4417.9400047573081
 23
2455.7316662232301
 33
0.0
 14
5757.9400047573072
 24
2455.7316662232301
 34
0.0
1001
ACAD
1000
DSTYLE
1002
{
1070
   287
1070
     3
1070
    40
1040
35.0
1070
   143
1040
0.039
1070
   172
1070
     1
1070
   271
1070
     0
1070
   279
1070
     0
1002
}
  0
DIMENSION
  5
7EBE
  8
3
  2
*D24
 10
6252.940004757309
 20
2207.707933910609
 30
0.0
 11
6005.440004757309
 21
2295.207933910609
 31
0.0
 70
     0
 13
5757.9400047573072
 23
2455.7316662232301
 33
0.0
 14
6252.940004757309
 24
2455.7316662232301
 34
0.0
1001
ACAD
1000
DSTYLE
1002
{
1070
   287
1070
     3
1070
    40
1040
35.0
1070
   143
1040
0.039
1070
   172
1070
     1
1070
   271
1070
     0
1070
   279
1070
     0
1002
}
  0
LINE
  5
7ED4
  8
1
 10
2014.5604735312679
 20
3535.7316662232301
 30
0.0
 11
2524.5604735312681
 21
3535.7316662232301
 31
0.0
  0
LINE
  5
7ED6
  8
1
 10
2524.5604735312681
 20
3535.7316662232301
 30
0.0
 11
2669.5604735312681
 21
2750.7316662232301
 31
0.0
  0
LINE
  5
7ED7
  8
1
 10
2014.5604735312679
 20
3535.7316662232301
 30
0.0
 11
1869.5604735312679
 21
2750.7316662232301
 31
0.0
  0
LINE
  5
7ED8
  8
1
 10
2014.5604735312679
 20
5911.7675927715281
 30
0.0
 11
2014.5604735312679
 21
6665.7675927715291
 31
0.0
  0
LINE
  5
7ED9
  8
1
 10
2524.5604735312681
 20
5911.7675927715281
 30
0.0
 11
2524.5604735312681
 21
6665.7675927715272
 31
0.0
  0
LINE
  5
7EDB
  8
1
 10
5262.9400047573045
 20
2750.7316662232301
 30
0.0
 11
5262.9400047573045
 21
2625.7316662232301
 31
0.0
  0
LINE
  5
7EDD
  8
1
 10
4417.9400047573081
 20
2455.7316662232311
 30
0.0
 11
6252.9400047573108
 21
2455.7316662232301
 31
0.0
1001
ACAD
1000
ASC_BOUNDS
1002
{
1070
    19
1002
}
  0
LINE
  5
7EDE
  8
1
 10
4417.9400047573081
 20
2580.7316662232301
 30
0.0
 11
6252.940004757309
 21
2580.7316662232301
 31
0.0
  0
LINE
  5
7EDF
  8
1
 10
6252.9400047573108
 20
2580.7316662232301
 30
0.0
 11
6252.940004757309
 21
2455.7316662232301
 31
0.0
  0
LINE
  5
7EE0
  8
1
 10
6252.940004757309
 20
2580.7316662232301
 30
0.0
 11
6252.940004757309
 21
2575.5006504295202
 31
0.0
  0
LINE
  5
7EE1
  8
1
 10
4417.9400047573081
 20
2580.7316662232301
 30
0.0
 11
4417.9400047573081
 21
2455.7316662232301
 31
0.0
  0
LINE
  5
7EE2
  8
1
 10
5262.9400047573045
 20
2580.7316662232301
 30
0.0
 11
5262.9400047573045
 21
2455.7316662232301
 31
0.0
  0
LINE
  5
7EE3
  8
1
 10
2929.5604735312681
 20
2580.7316662232301
 30
0.0
 11
1169.5604735312691
 21
2580.7316662232301
 31
0.0
  0
LINE
  5
7EE4
  8
1
 10
2929.5604735312681
 20
2580.7316662232301
 30
0.0
 11
2929.5604735312681
 21
2455.7316662232301
 31
0.0
  0
POINT
  5
7EE5
  8
1
 10
2929.5604735312681
 20
2580.7316662232301
 30
0.0
  0
POINT
  5
7EE6
  8
1
 10
2929.5604735312681
 20
2580.7316662232301
 30
0.0
  0
LINE
  5
7EE7
  8
1
 10
2929.5604735312681
 20
2455.7316662232301
 30
0.0
 11
1169.5604735312691
 21
2455.7316662232301
 31
0.0
1001
ACAD
1000
ASC_BOUNDS
1002
{
1070
    19
1005
0
1005
0
1002
}
  0
LINE
  5
7EE8
  8
1
 10
2669.5604735312681
 20
2455.7316662232301
 30
0.0
 11
2669.5604735312681
 21
2580.7316662232301
 31
0.0
  0
LINE
  5
7EE9
  8
1
 10
1169.5604735312691
 20
2580.7316662232301
 30
0.0
 11
1169.5604735312691
 21
2455.7316662232301
 31
0.0
  0
DIMENSION
  5
7F07
  8
3
  2
*D25
 10
3447.523652063966
 20
2455.7316662232301
 30
0.0
 11
3360.023652063966
 21
2155.7316662232311
 31
0.0
 70
     0
 13
2929.5604735312681
 23
2580.7316662232301
 33
0.0
 14
2929.5604735312681
 24
2455.7316662232301
 34
0.0
 50
90.0
1001
ACAD
1000
DSTYLE
1002
{
1070
   287
1070
     3
1070
    40
1040
35.0
1070
   143
1040
0.039
1070
   172
1070
     1
1070
   271
1070
     0
1070
   279
1070
     0
1070
     6
1000
DOT
1002
}
  0
DIMENSION
  5
7F5A
  8
3
  2
*D26
 10
3445.0396527320481
 20
2625.7316662232301
 30
0.0
 11
3657.5396527320472
 21
2736.4816662232311
 31
0.0
 70
     0
 13
2929.5604735312681
 23
2580.7316662232301
 33
0.0
 14
2929.5604735312681
 24
2625.7316662232301
 34
0.0
 50
90.0
1001
ACAD
1000
DSTYLE
1002
{
1070
   287
1070
     4
1070
     3
1000
(<>)
1070
    40
1040
35.0
1070
   143
1040
0.039
1070
   172
1070
     1
1070
   271
1070
     0
1070
   279
1070
     1
1070
     6
1000
DOT
1002
}
  0
DIMENSION
  5
7F67
  8
3
  2
*D27
 10
3836.9835071102862
 20
2455.7316662232301
 30
0.0
 11
3721.9835071102862
 21
3425.7316662232301
 31
0.0
 70
     0
 13
2274.5604735312681
 23
4395.7316662232288
 33
0.0
 14
2929.5604735312681
 24
2455.7316662232301
 34
0.0
 50
90.0
1001
ACAD
1000
DSTYLE
1002
{
1070
   287
1070
     4
1070
     3
1000
(<>)
1070
    40
1040
35.0
1070
   143
1040
0.039
1070
   172
1070
     1
1070
   271
1070
     0
1070
   279
1070
     1
1002
}
  0
ARC
  5
7F6C
  8
1
 10
2187.5604735312681
 20
3717.7316662232301
 30
0.0
 40
1051.0
 50
236.57095352068239
 51
246.9372123999963
  0
ENDSEC
  0
EOF
