  0
SECTION
  2
HEADER
  9
$ACADVER
  1
AC1009
  9
$INSBASE
 10
0.0
 20
0.0
 30
0.0
  9
$EXTMIN
 10
0.0
 20
0.0
 30
0.0
  9
$EXTMAX
 10
7350.0
 20
10325.0
 30
0.0
  9
$LIMMIN
 10
0.0
 20
0.0
  9
$LIMMAX
 10
297.0
 20
210.0
  9
$ORTHOMODE
 70
     0
  9
$REGENMODE
 70
     1
  9
$FILLMODE
 70
     0
  9
$QTEXTMODE
 70
     0
  9
$MIRRTEXT
 70
     1
  9
$DRAGMODE
 70
     2
  9
$LTSCALE
 40
100.0
  9
$OSMODE
 70
    37
  9
$ATTMODE
 70
     1
  9
$TEXTSIZE
 40
180.0
  9
$TRACEWID
 40
0.05
  9
$TEXTSTYLE
  7
STANDARD
  9
$CLAYER
  8
3
  9
$CELTYPE
  6
BYLAYER
  9
$CECOLOR
 62
   256
  9
$DIMSCALE
 40
35.0
  9
$DIMASZ
 40
2.0
  9
$DIMEXO
 40
0.5
  9
$DIMDLI
 40
10.0
  9
$DIMRND
 40
0.0
  9
$DIMDLE
 40
0.0
  9
$DIMEXE
 40
1.0
  9
$DIMTP
 40
1.0
  9
$DIMTM
 40
1.0
  9
$DIMTXT
 40
3.0
  9
$DIMCEN
 40
0.0
  9
$DIMTSZ
 40
0.0
  9
$DIMTOL
 70
     0
  9
$DIMLIM
 70
     0
  9
$DIMTIH
 70
     0
  9
$DIMTOH
 70
     0
  9
$DIMSE1
 70
     0
  9
$DIMSE2
 70
     0
  9
$DIMTAD
 70
     1
  9
$DIMZIN
 70
     8
  9
$DIMBLK
  1

  9
$DIMASO
 70
     1
  9
$DIMSHO
 70
     1
  9
$DIMPOST
  1
(<>)
  9
$DIMAPOST
  1

  9
$DIMALT
 70
     0
  9
$DIMALTD
 70
     2
  9
$DIMALTF
 40
0.039
  9
$DIMLFAC
 40
1.0
  9
$DIMTOFL
 70
     1
  9
$DIMTVP
 40
0.0
  9
$DIMTIX
 70
     0
  9
$DIMSOXD
 70
     0
  9
$DIMSAH
 70
     1
  9
$DIMBLK1
  1
OPEN
  9
$DIMBLK2
  1
OPEN
  9
$DIMSTYLE
  2
IGA
  9
$DIMCLRD
 70
     0
  9
$DIMCLRE
 70
     0
  9
$DIMCLRT
 70
     0
  9
$DIMTFAC
 40
10.0
  9
$DIMGAP
 40
1.0
  9
$LUNITS
 70
     2
  9
$LUPREC
 70
     3
  9
$SKETCHINC
 40
0.1
  9
$FILLETRAD
 40
50.0
  9
$AUNITS
 70
     0
  9
$AUPREC
 70
     0
  9
$MENU
  1
acad
  9
$ELEVATION
 40
0.0
  9
$PELEVATION
 40
0.0
  9
$THICKNESS
 40
0.0
  9
$LIMCHECK
 70
     0
  9
$BLIPMODE
 70
     0
  9
$CHAMFERA
 40
0.5
  9
$CHAMFERB
 40
0.5
  9
$SKPOLY
 70
     0
  9
$TDCREATE
 40
2453167.599160763
  9
$TDUPDATE
 40
2454953.6466655792
  9
$TDINDWG
 40
0.0410932755
  9
$TDUSRTIMER
 40
0.0410932755
  9
$USRTIMER
 70
     1
  9
$ANGBASE
 50
0.0
  9
$ANGDIR
 70
     0
  9
$PDMODE
 70
     0
  9
$PDSIZE
 40
0.0
  9
$PLINEWID
 40
0.0
  9
$COORDS
 70
     1
  9
$SPLFRAME
 70
     0
  9
$SPLINETYPE
 70
     6
  9
$SPLINESEGS
 70
     8
  9
$ATTDIA
 70
     0
  9
$ATTREQ
 70
     1
  9
$HANDLING
 70
 10241
  9
$HANDSEED
  5
454
  9
$SURFTAB1
 70
     6
  9
$SURFTAB2
 70
     6
  9
$SURFTYPE
 70
     6
  9
$SURFU
 70
     6
  9
$SURFV
 70
     6
  9
$UCSNAME
  2

  9
$UCSORG
 10
0.0
 20
0.0
 30
0.0
  9
$UCSXDIR
 10
1.0
 20
0.0
 30
0.0
  9
$UCSYDIR
 10
0.0
 20
1.0
 30
0.0
  9
$PUCSNAME
  2

  9
$PUCSORG
 10
0.0
 20
0.0
 30
0.0
  9
$PUCSXDIR
 10
1.0
 20
0.0
 30
0.0
  9
$PUCSYDIR
 10
0.0
 20
1.0
 30
0.0
  9
$USERI1
 70
     0
  9
$USERI2
 70
     0
  9
$USERI3
 70
     0
  9
$USERI4
 70
     0
  9
$USERI5
 70
     0
  9
$USERR1
 40
0.0
  9
$USERR2
 40
0.0
  9
$USERR3
 40
0.0
  9
$USERR4
 40
0.0
  9
$USERR5
 40
0.0
  9
$WORLDVIEW
 70
     1
  9
$SHADEDGE
 70
     3
  9
$SHADEDIF
 70
    70
  9
$TILEMODE
 70
     1
  9
$MAXACTVP
 70
    16
  9
$PLIMCHECK
 70
     0
  9
$PEXTMIN
 10
1.0000000000000000E+020
 20
1.0000000000000000E+020
 30
1.0000000000000000E+020
  9
$PEXTMAX
 10
-1.0000000000000000E+020
 20
-1.0000000000000000E+020
 30
-1.0000000000000000E+020
  9
$PLIMMIN
 10
0.0
 20
0.0
  9
$PLIMMAX
 10
12.0
 20
9.0
  9
$UNITMODE
 70
     0
  9
$VISRETAIN
 70
     0
  9
$PLINEGEN
 70
     0
  9
$PSLTSCALE
 70
     1
  0
ENDSEC
  0
SECTION
  2
TABLES
  0
TABLE
  2
VPORT
 70
     2
  0
VPORT
  2
*ACTIVE
 70
     0
 10
0.0
 20
0.0
 11
1.0
 21
1.0
 12
6866.1625215936401
 22
1083.7349647730971
 13
0.0
 23
0.0
 14
10.0
 24
10.0
 15
10.0
 25
10.0
 16
0.0
 26
0.0
 36
1.0
 17
0.0
 27
0.0
 37
0.0
 40
3088.1187200965651
 41
3.1666666666666661
 42
50.0
 43
0.0
 44
0.0
 50
0.0
 51
0.0
 71
     0
 72
   100
 73
     1
 74
     0
 75
     0
 76
     0
 77
     0
 78
     0
  0
ENDTAB
  0
TABLE
  2
LTYPE
 70
     2
  0
LTYPE
  2
CONTINUOUS
 70
     0
  3
Solid line
 72
    65
 73
     0
 40
0.0
  0
LTYPE
  2
CENTER
 70
     0
  3
____ _ ____ _ ____ _ ____ _ ____ _ ____ _ ____ 
 72
    65
 73
     4
 40
2.0
 49
1.25
 49
-0.25
 49
0.25
 49
-0.25
  0
ENDTAB
  0
TABLE
  2
LAYER
 70
     7
  0
LAYER
  2
0
 70
     0
 62
     7
  6
CONTINUOUS
  0
LAYER
  2
3
 70
     0
 62
     2
  6
CONTINUOUS
  0
LAYER
  2
2
 70
     0
 62
     3
  6
CENTER
  0
LAYER
  2
1
 70
     0
 62
     4
  6
CONTINUOUS
  0
LAYER
  2
4
 70
     0
 62
     7
  6
CONTINUOUS
  0
LAYER
  2
DEFPOINTS
 70
     0
 62
     7
  6
CONTINUOUS
  0
LAYER
  2
FUTO
 70
     0
 62
     4
  6
CONTINUOUS
  0
ENDTAB
  0
TABLE
  2
STYLE
 70
     1
  0
STYLE
  2
STANDARD
 70
     0
 40
0.0
 41
1.0
 50
0.0
 71
     0
 42
180.0
  3
simplex.shx
  4
extfont.shx
  0
ENDTAB
  0
TABLE
  2
VIEW
 70
     0
  0
ENDTAB
  0
TABLE
  2
UCS
 70
     0
  0
ENDTAB
  0
TABLE
  2
APPID
 70
     1
  0
APPID
  2
ACAD
 70
     0
  0
ENDTAB
  0
TABLE
  2
DIMSTYLE
 70
     1
  0
DIMSTYLE
  2
IGA
 70
     0
  3

  4

  5

  6
OPEN
  7
OPEN
 40
2.0
 41
2.0
 42
0.5
 43
10.0
 44
1.0
 45
0.0
 46
0.0
 47
1.0
 48
1.0
140
3.0
141
0.0
142
0.0
143
0.03937
144
1.0
145
0.0
146
10.0
147
1.0
 71
     0
 72
     0
 73
     0
 74
     0
 75
     0
 76
     0
 77
     1
 78
     8
170
     0
171
     2
172
     0
173
     1
174
     0
175
     0
176
     0
177
     0
178
     0
  0
ENDTAB
  0
ENDSEC
  0
SECTION
  2
BLOCKS
  0
BLOCK
  8
0
  2
$MODEL_SPACE
 70
     0
 10
0.0
 20
0.0
 30
0.0
  3
$MODEL_SPACE
  1

  0
ENDBLK
  5
7
  8
0
  0
BLOCK
 67
     1
  8
0
  2
$PAPER_SPACE
 70
     0
 10
0.0
 20
0.0
 30
0.0
  3
$PAPER_SPACE
  1

  0
ENDBLK
  5
A
 67
     1
  8
0
  0
BLOCK
  8
0
  2
_OPEN
 70
     0
 10
0.0
 20
0.0
 30
0.0
  3
_OPEN
  1

  0
LINE
  5
29
  8
0
  6
BYBLOCK
 62
     0
 10
-1.0
 20
0.1666666666666666
 30
0.0
 11
0.0
 21
0.0
 31
0.0
  0
LINE
  5
2A
  8
0
  6
BYBLOCK
 62
     0
 10
0.0
 20
0.0
 30
0.0
 11
-1.0
 21
-0.1666666666666666
 31
0.0
  0
LINE
  5
2B
  8
0
  6
BYBLOCK
 62
     0
 10
0.0
 20
0.0
 30
0.0
 11
-1.0
 21
0.0
 31
0.0
  0
ENDBLK
  5
2D
  8
0
  0
BLOCK
  8
0
  2
*D1
 70
     1
 10
0.0
 20
0.0
 30
0.0
  3
*D1
  1

  0
LINE
  5
43
  8
0
  6
BYBLOCK
 62
     0
 10
-4249.8031859644989
 20
7683.7675927715281
 30
0.0
 11
-4894.6126043755803
 21
7683.7675927715281
 31
0.0
  0
LINE
  5
44
  8
0
  6
BYBLOCK
 62
     0
 10
-4249.8031859644989
 20
6693.7675927715281
 30
0.0
 11
-4894.6126043755803
 21
6693.7675927715281
 31
0.0
  0
LINE
  5
45
  8
0
  6
BYBLOCK
 62
     0
 10
-4859.6126043755803
 20
7613.7675927715281
 30
0.0
 11
-4859.6126043755803
 21
6763.7675927715281
 31
0.0
  0
INSERT
  5
46
  8
0
  6
BYBLOCK
 62
     0
  2
_OPEN
 10
-4859.6126043755803
 20
7683.7675927715281
 30
0.0
 41
70.0
 42
70.0
 43
70.0
 50
90.0
  0
INSERT
  5
47
  8
0
  6
BYBLOCK
 62
     0
  2
_OPEN
 10
-4859.6126043755803
 20
6693.7675927715281
 30
0.0
 41
70.0
 42
70.0
 43
70.0
 50
270.0
  0
TEXT
  5
48
  8
3
 62
     0
 10
-4894.6126043755803
 20
7055.8552420415108
 30
0.0
 40
105.0
  1
990
 50
90.0
  0
POINT
  5
49
  8
DEFPOINTS
  6
BYBLOCK
 62
     0
 10
-4232.3031859644989
 20
7683.7675927715281
 30
0.0
  0
POINT
  5
4A
  8
DEFPOINTS
  6
BYBLOCK
 62
     0
 10
-4232.3031859644989
 20
6693.7675927715281
 30
0.0
  0
POINT
  5
4B
  8
DEFPOINTS
  6
BYBLOCK
 62
     0
 10
-4859.6126043755803
 20
6693.7675927715281
 30
0.0
  0
ENDBLK
  5
4D
  8
0
  0
BLOCK
  8
0
  2
*D2
 70
     1
 10
0.0
 20
0.0
 30
0.0
  3
*D2
  1

  0
LINE
  5
185
  8
0
  6
BYBLOCK
 62
     0
 10
-3989.8031859644998
 20
5848.7675927715281
 30
0.0
 11
-4894.6126043755803
 21
5848.7675927715281
 31
0.0
  0
LINE
  5
186
  8
0
  6
BYBLOCK
 62
     0
 10
-4859.6126043755803
 20
6623.7675927715281
 30
0.0
 11
-4859.6126043755803
 21
5918.7675927715281
 31
0.0
  0
INSERT
  5
187
  8
0
  6
BYBLOCK
 62
     0
  2
_OPEN
 10
-4859.6126043755803
 20
6693.7675927715281
 30
0.0
 41
70.0
 42
70.0
 43
70.0
 50
90.0
  0
INSERT
  5
188
  8
0
  6
BYBLOCK
 62
     0
  2
_OPEN
 10
-4859.6126043755803
 20
5848.7675927715281
 30
0.0
 41
70.0
 42
70.0
 43
70.0
 50
270.0
  0
TEXT
  5
189
  8
3
 62
     0
 10
-4894.6126043755803
 20
6136.2675927715281
 30
0.0
 40
105.0
  1
845
 50
90.0
  0
POINT
  5
18A
  8
DEFPOINTS
  6
BYBLOCK
 62
     0
 10
-4232.3031859644989
 20
6693.7675927715281
 30
0.0
  0
POINT
  5
18B
  8
DEFPOINTS
  6
BYBLOCK
 62
     0
 10
-3972.3031859644989
 20
5848.7675927715281
 30
0.0
  0
POINT
  5
18C
  8
DEFPOINTS
  6
BYBLOCK
 62
     0
 10
-4859.6126043755803
 20
5848.7675927715281
 30
0.0
  0
ENDBLK
  5
18E
  8
0
  0
BLOCK
  8
0
  2
*D3
 70
     1
 10
0.0
 20
0.0
 30
0.0
  3
*D3
  1

  0
LINE
  5
177
  8
0
  6
BYBLOCK
 62
     0
 10
-4232.3031859644989
 20
6676.2675927715281
 30
0.0
 11
-4232.3031859644989
 21
5351.5740510801079
 31
0.0
  0
LINE
  5
178
  8
0
  6
BYBLOCK
 62
     0
 10
-3972.3031859644989
 20
5831.2675927715281
 30
0.0
 11
-3972.3031859644989
 21
5351.5740510801079
 31
0.0
  0
LINE
  5
179
  8
0
  6
BYBLOCK
 62
     0
 10
-4042.3031859644998
 20
5386.5740510801079
 30
0.0
 11
-4162.3031859644989
 21
5386.5740510801079
 31
0.0
  0
LINE
  5
17A
  8
0
  6
BYBLOCK
 62
     0
 10
-4232.3031859644989
 20
5386.5740510801079
 30
0.0
 11
-4607.3031859644989
 21
5386.5740510801079
 31
0.0
  0
INSERT
  5
17B
  8
0
  6
BYBLOCK
 62
     0
  2
_OPEN
 10
-3972.3031859644989
 20
5386.5740510801079
 30
0.0
 41
70.0
 42
70.0
 43
70.0
  0
INSERT
  5
17C
  8
0
  6
BYBLOCK
 62
     0
  2
_OPEN
 10
-4232.3031859644989
 20
5386.5740510801079
 30
0.0
 41
70.0
 42
70.0
 43
70.0
 50
180.0
  0
TEXT
  5
17D
  8
3
 62
     0
 10
-4572.3031859644989
 20
5421.5740510801079
 30
0.0
 40
105.0
  1
260
  0
POINT
  5
17E
  8
DEFPOINTS
  6
BYBLOCK
 62
     0
 10
-4232.3031859644989
 20
6693.7675927715281
 30
0.0
  0
POINT
  5
17F
  8
DEFPOINTS
  6
BYBLOCK
 62
     0
 10
-3972.3031859644989
 20
5848.7675927715281
 30
0.0
  0
POINT
  5
180
  8
DEFPOINTS
  6
BYBLOCK
 62
     0
 10
-3972.3031859644989
 20
5386.5740510801079
 30
0.0
  0
ENDBLK
  5
182
  8
0
  0
BLOCK
  8
0
  2
*D4
 70
     1
 10
0.0
 20
0.0
 30
0.0
  3
*D4
  1

  0
LINE
  5
163
  8
0
  6
BYBLOCK
 62
     0
 10
-2472.3031859644989
 20
5831.2675927715281
 30
0.0
 11
-2472.3031859644989
 21
5351.5740510801079
 31
0.0
  0
LINE
  5
164
  8
0
  6
BYBLOCK
 62
     0
 10
-3902.3031859644998
 20
5386.5740510801079
 30
0.0
 11
-2542.3031859644989
 21
5386.5740510801079
 31
0.0
  0
INSERT
  5
165
  8
0
  6
BYBLOCK
 62
     0
  2
_OPEN
 10
-3972.3031859644989
 20
5386.5740510801079
 30
0.0
 41
70.0
 42
70.0
 43
70.0
 50
180.0
  0
INSERT
  5
166
  8
0
  6
BYBLOCK
 62
     0
  2
_OPEN
 10
-2472.3031859644989
 20
5386.5740510801079
 30
0.0
 41
70.0
 42
70.0
 43
70.0
  0
TEXT
  5
167
  8
3
 62
     0
 10
-3397.3031859644989
 20
5421.5740510801079
 30
0.0
 40
105.0
  1
1500
  0
POINT
  5
168
  8
DEFPOINTS
  6
BYBLOCK
 62
     0
 10
-3972.3031859644989
 20
5848.7675927715281
 30
0.0
  0
POINT
  5
169
  8
DEFPOINTS
  6
BYBLOCK
 62
     0
 10
-2472.3031859644989
 20
5848.7675927715281
 30
0.0
  0
POINT
  5
16A
  8
DEFPOINTS
  6
BYBLOCK
 62
     0
 10
-2472.3031859644989
 20
5386.5740510801079
 30
0.0
  0
ENDBLK
  5
16C
  8
0
  0
BLOCK
  8
0
  2
*D5
 70
     1
 10
0.0
 20
0.0
 30
0.0
  3
*D5
  1

  0
LINE
  5
62
  8
0
  6
BYBLOCK
 62
     0
 10
-2454.8031859644989
 20
5848.7675927715281
 30
0.0
 11
-2006.9114051038989
 21
5848.7675927715281
 31
0.0
  0
LINE
  5
63
  8
0
  6
BYBLOCK
 62
     0
 10
-2454.8031859644989
 20
6758.7675927715263
 30
0.0
 11
-2006.9114051038989
 21
6758.7675927715263
 31
0.0
  0
LINE
  5
64
  8
0
  6
BYBLOCK
 62
     0
 10
-2041.9114051038989
 20
5918.7675927715281
 30
0.0
 11
-2041.9114051038989
 21
6688.7675927715263
 31
0.0
  0
INSERT
  5
65
  8
0
  6
BYBLOCK
 62
     0
  2
_OPEN
 10
-2041.9114051038989
 20
5848.7675927715281
 30
0.0
 41
70.0
 42
70.0
 43
70.0
 50
270.0
  0
INSERT
  5
66
  8
0
  6
BYBLOCK
 62
     0
  2
_OPEN
 10
-2041.9114051038989
 20
6758.7675927715263
 30
0.0
 41
70.0
 42
70.0
 43
70.0
 50
90.0
  0
TEXT
  5
67
  8
3
 62
     0
 10
-2076.9114051038991
 20
6133.2074768975936
 30
0.0
 40
105.0
  1
910
 50
90.0
  0
POINT
  5
68
  8
DEFPOINTS
  6
BYBLOCK
 62
     0
 10
-2472.3031859644989
 20
5848.7675927715281
 30
0.0
  0
POINT
  5
69
  8
DEFPOINTS
  6
BYBLOCK
 62
     0
 10
-2472.3031859644989
 20
6758.7675927715263
 30
0.0
  0
POINT
  5
6A
  8
DEFPOINTS
  6
BYBLOCK
 62
     0
 10
-2041.9114051038989
 20
6758.7675927715263
 30
0.0
  0
ENDBLK
  5
6C
  8
0
  0
BLOCK
  8
0
  2
*D6
 70
     1
 10
0.0
 20
0.0
 30
0.0
  3
*D6
  1

  0
LINE
  5
51
  8
0
  6
BYBLOCK
 62
     0
 10
-2894.8031859644998
 20
7683.7675927715281
 30
0.0
 11
-2006.9114051038989
 21
7683.7675927715281
 31
0.0
  0
LINE
  5
52
  8
0
  6
BYBLOCK
 62
     0
 10
-2041.9114051038989
 20
6828.7675927715272
 30
0.0
 11
-2041.9114051038989
 21
7613.7675927715281
 31
0.0
  0
INSERT
  5
53
  8
0
  6
BYBLOCK
 62
     0
  2
_OPEN
 10
-2041.9114051038989
 20
6758.7675927715263
 30
0.0
 41
70.0
 42
70.0
 43
70.0
 50
270.0
  0
INSERT
  5
54
  8
0
  6
BYBLOCK
 62
     0
  2
_OPEN
 10
-2041.9114051038989
 20
7683.7675927715281
 30
0.0
 41
70.0
 42
70.0
 43
70.0
 50
90.0
  0
TEXT
  5
55
  8
3
 62
     0
 10
-2076.9114051038991
 20
7086.2675927715272
 30
0.0
 40
105.0
  1
925
 50
90.0
  0
POINT
  5
56
  8
DEFPOINTS
  6
BYBLOCK
 62
     0
 10
-2472.3031859644989
 20
6758.7675927715263
 30
0.0
  0
POINT
  5
57
  8
DEFPOINTS
  6
BYBLOCK
 62
     0
 10
-2912.3031859644998
 20
7683.7675927715281
 30
0.0
  0
POINT
  5
58
  8
DEFPOINTS
  6
BYBLOCK
 62
     0
 10
-2041.9114051038989
 20
7683.7675927715281
 30
0.0
  0
ENDBLK
  5
5A
  8
0
  0
BLOCK
  8
0
  2
*D7
 70
     1
 10
0.0
 20
0.0
 30
0.0
  3
*D7
  1

  0
LINE
  5
22
  8
0
  6
BYBLOCK
 62
     0
 10
-2472.3031859644989
 20
6776.2675927715263
 30
0.0
 11
-2472.3031859644989
 21
7949.311000374676
 31
0.0
  0
LINE
  5
23
  8
0
  6
BYBLOCK
 62
     0
 10
-2912.3031859644998
 20
7701.2675927715281
 30
0.0
 11
-2912.3031859644998
 21
7949.311000374676
 31
0.0
  0
LINE
  5
24
  8
0
  6
BYBLOCK
 62
     0
 10
-2402.3031859644998
 20
7914.311000374677
 30
0.0
 11
-2332.3031859644989
 21
7914.311000374677
 31
0.0
  0
LINE
  5
25
  8
0
  6
BYBLOCK
 62
     0
 10
-2982.3031859644998
 20
7914.311000374677
 30
0.0
 11
-3052.3031859644998
 21
7914.311000374677
 31
0.0
  0
LINE
  5
26
  8
0
  6
BYBLOCK
 62
     0
 10
-2472.3031859644989
 20
7914.311000374677
 30
0.0
 11
-2912.3031859644998
 21
7914.311000374677
 31
0.0
  0
INSERT
  5
27
  8
0
  6
BYBLOCK
 62
     0
  2
_OPEN
 10
-2472.3031859644989
 20
7914.311000374677
 30
0.0
 41
70.0
 42
70.0
 43
70.0
 50
180.0
  0
INSERT
  5
2E
  8
0
  6
BYBLOCK
 62
     0
  2
_OPEN
 10
-2912.3031859644998
 20
7914.311000374677
 30
0.0
 41
70.0
 42
70.0
 43
70.0
  0
TEXT
  5
2F
  8
3
 62
     0
 10
-2827.3031859644989
 20
7949.311000374676
 30
0.0
 40
105.0
  1
440
  0
POINT
  5
30
  8
DEFPOINTS
  6
BYBLOCK
 62
     0
 10
-2472.3031859644989
 20
6758.7675927715263
 30
0.0
  0
POINT
  5
32
  8
DEFPOINTS
  6
BYBLOCK
 62
     0
 10
-2912.3031859644998
 20
7683.7675927715281
 30
0.0
  0
POINT
  5
33
  8
DEFPOINTS
  6
BYBLOCK
 62
     0
 10
-2912.3031859644998
 20
7914.311000374677
 30
0.0
  0
ENDBLK
  5
35
  8
0
  0
BLOCK
  8
0
  2
*D8
 70
     1
 10
0.0
 20
0.0
 30
0.0
  3
*D8
  1

  0
LINE
  5
247
  8
0
  6
BYBLOCK
 62
     0
 10
-4232.3031859644989
 20
7701.2675927715281
 30
0.0
 11
-4232.3031859644989
 21
7949.311000374676
 31
0.0
  0
LINE
  5
248
  8
0
  6
BYBLOCK
 62
     0
 10
-2982.3031859644998
 20
7914.311000374677
 30
0.0
 11
-4162.3031859644989
 21
7914.311000374677
 31
0.0
  0
INSERT
  5
249
  8
0
  6
BYBLOCK
 62
     0
  2
_OPEN
 10
-2912.3031859644998
 20
7914.311000374677
 30
0.0
 41
70.0
 42
70.0
 43
70.0
  0
INSERT
  5
24A
  8
0
  6
BYBLOCK
 62
     0
  2
_OPEN
 10
-4232.3031859644989
 20
7914.311000374677
 30
0.0
 41
70.0
 42
70.0
 43
70.0
 50
180.0
  0
TEXT
  5
24B
  8
3
 62
     0
 10
-3747.3031859644989
 20
7949.311000374676
 30
0.0
 40
105.0
  1
1320
  0
POINT
  5
24C
  8
DEFPOINTS
  6
BYBLOCK
 62
     0
 10
-2912.3031859644998
 20
7683.7675927715281
 30
0.0
  0
POINT
  5
24D
  8
DEFPOINTS
  6
BYBLOCK
 62
     0
 10
-4232.3031859644989
 20
7683.7675927715281
 30
0.0
  0
POINT
  5
24E
  8
DEFPOINTS
  6
BYBLOCK
 62
     0
 10
-4232.3031859644989
 20
7914.311000374677
 30
0.0
  0
ENDBLK
  5
250
  8
0
  0
BLOCK
  8
0
  2
*D9
 70
     1
 10
0.0
 20
0.0
 30
0.0
  3
*D9
  1

  0
LINE
  5
14C
  8
0
  6
BYBLOCK
 62
     0
 10
-2374.3031859644989
 20
4413.2316662232297
 30
0.0
 11
-2374.3031859644989
 21
4621.5591929576403
 31
0.0
  0
LINE
  5
14D
  8
0
  6
BYBLOCK
 62
     0
 10
-3524.3031859644998
 20
4413.2316662232297
 30
0.0
 11
-3524.3031859644998
 21
4621.5591929576403
 31
0.0
  0
LINE
  5
14E
  8
0
  6
BYBLOCK
 62
     0
 10
-2444.3031859644998
 20
4586.5591929576403
 30
0.0
 11
-3454.3031859644998
 21
4586.5591929576403
 31
0.0
  0
INSERT
  5
14F
  8
0
  6
BYBLOCK
 62
     0
  2
_OPEN
 10
-2374.3031859644989
 20
4586.5591929576403
 30
0.0
 41
70.0
 42
70.0
 43
70.0
  0
INSERT
  5
150
  8
0
  6
BYBLOCK
 62
     0
  2
_OPEN
 10
-3524.3031859644998
 20
4586.5591929576403
 30
0.0
 41
70.0
 42
70.0
 43
70.0
 50
180.0
  0
TEXT
  5
151
  8
3
 62
     0
 10
-3087.5460399383219
 20
4621.5591929576403
 30
0.0
 40
105.0
  1
1150
  0
POINT
  5
152
  8
DEFPOINTS
  6
BYBLOCK
 62
     0
 10
-2374.3031859644989
 20
4395.7316662232288
 30
0.0
  0
POINT
  5
153
  8
DEFPOINTS
  6
BYBLOCK
 62
     0
 10
-3524.3031859644998
 20
4395.7316662232288
 30
0.0
  0
POINT
  5
154
  8
DEFPOINTS
  6
BYBLOCK
 62
     0
 10
-3524.3031859644998
 20
4586.5591929576403
 30
0.0
  0
ENDBLK
  5
156
  8
0
  0
BLOCK
  8
0
  2
*D10
 70
     1
 10
0.0
 20
0.0
 30
0.0
  3
*D10
  1

  0
LINE
  5
C8
  8
0
  6
BYBLOCK
 62
     0
 10
-2374.3031859644989
 20
4430.7316662232297
 30
0.0
 11
-2374.3031859644989
 21
4853.767158279672
 31
0.0
  0
LINE
  5
C9
  8
0
  6
BYBLOCK
 62
     0
 10
-3572.3031859644998
 20
4499.0706671219632
 30
0.0
 11
-3572.3031859644998
 21
4853.767158279672
 31
0.0
  0
LINE
  5
CA
  8
0
  6
BYBLOCK
 62
     0
 10
-2444.3031859644998
 20
4818.7671582796729
 30
0.0
 11
-3502.3031859644998
 21
4818.7671582796729
 31
0.0
  0
INSERT
  5
CB
  8
0
  6
BYBLOCK
 62
     0
  2
_OPEN
 10
-2374.3031859644989
 20
4818.7671582796729
 30
0.0
 41
70.0
 42
70.0
 43
70.0
  0
INSERT
  5
CC
  8
0
  6
BYBLOCK
 62
     0
  2
_OPEN
 10
-3572.3031859644998
 20
4818.7671582796729
 30
0.0
 41
70.0
 42
70.0
 43
70.0
 50
180.0
  0
TEXT
  5
CD
  8
3
 62
     0
 10
-3076.209461634352
 20
4853.767158279672
 30
0.0
 40
105.0
  1
1198
  0
POINT
  5
CE
  8
DEFPOINTS
  6
BYBLOCK
 62
     0
 10
-2374.3031859644989
 20
4413.2316662232297
 30
0.0
  0
POINT
  5
CF
  8
DEFPOINTS
  6
BYBLOCK
 62
     0
 10
-3572.3031859644998
 20
4481.5706671219632
 30
0.0
  0
POINT
  5
D0
  8
DEFPOINTS
  6
BYBLOCK
 62
     0
 10
-3572.3031859644998
 20
4818.7671582796729
 30
0.0
  0
ENDBLK
  5
D2
  8
0
  0
BLOCK
  8
0
  2
*D11
 70
     1
 10
0.0
 20
0.0
 30
0.0
  3
*D11
  1

  0
LINE
  5
E2
  8
0
  6
BYBLOCK
 62
     0
 10
-4377.3031859644998
 20
3571.2316662232301
 30
0.0
 11
-4377.3031859644998
 21
4853.767158279672
 31
0.0
  0
LINE
  5
E3
  8
0
  6
BYBLOCK
 62
     0
 10
-3642.3031859644998
 20
4818.7671582796729
 30
0.0
 11
-4307.3031859644989
 21
4818.7671582796729
 31
0.0
  0
INSERT
  5
E4
  8
0
  6
BYBLOCK
 62
     0
  2
_OPEN
 10
-3572.3031859644998
 20
4818.7671582796729
 30
0.0
 41
70.0
 42
70.0
 43
70.0
  0
INSERT
  5
E5
  8
0
  6
BYBLOCK
 62
     0
  2
_OPEN
 10
-4377.3031859644998
 20
4818.7671582796729
 30
0.0
 41
70.0
 42
70.0
 43
70.0
 50
180.0
  0
TEXT
  5
E6
  8
3
 62
     0
 10
-4109.8031859644998
 20
4853.767158279672
 30
0.0
 40
105.0
  1
805
  0
POINT
  5
E7
  8
DEFPOINTS
  6
BYBLOCK
 62
     0
 10
-3572.3031859644998
 20
4481.5706671219632
 30
0.0
  0
POINT
  5
E8
  8
DEFPOINTS
  6
BYBLOCK
 62
     0
 10
-4377.3031859644998
 20
3553.7316662232301
 30
0.0
  0
POINT
  5
E9
  8
DEFPOINTS
  6
BYBLOCK
 62
     0
 10
-4377.3031859644998
 20
4818.7671582796729
 30
0.0
  0
ENDBLK
  5
EB
  8
0
  0
BLOCK
  8
0
  2
*D12
 70
     1
 10
0.0
 20
0.0
 30
0.0
  3
*D12
  1

  0
LINE
  5
F5
  8
0
  6
BYBLOCK
 62
     0
 10
-3594.8031859644989
 20
4395.7316662232288
 30
0.0
 11
-4782.7343202146876
 21
4395.7316662232288
 31
0.0
  0
LINE
  5
F6
  8
0
  6
BYBLOCK
 62
     0
 10
-4496.5838374174764
 20
3635.7316662232311
 30
0.0
 11
-4782.7343202146876
 21
3635.7316662232311
 31
0.0
  0
LINE
  5
F7
  8
0
  6
BYBLOCK
 62
     0
 10
-4747.7343202146867
 20
4325.7316662232288
 30
0.0
 11
-4747.7343202146867
 21
3705.7316662232311
 31
0.0
  0
INSERT
  5
F8
  8
0
  6
BYBLOCK
 62
     0
  2
_OPEN
 10
-4747.7343202146867
 20
4395.7316662232288
 30
0.0
 41
70.0
 42
70.0
 43
70.0
 50
90.0
  0
INSERT
  5
F9
  8
0
  6
BYBLOCK
 62
     0
  2
_OPEN
 10
-4747.7343202146867
 20
3635.7316662232311
 30
0.0
 41
70.0
 42
70.0
 43
70.0
 50
270.0
  0
TEXT
  5
FA
  8
3
 62
     0
 10
-4782.7343202146876
 20
3862.5438674597858
 30
0.0
 40
105.0
  1
760
 50
90.0
  0
POINT
  5
FB
  8
DEFPOINTS
  6
BYBLOCK
 62
     0
 10
-3577.3031859644998
 20
4395.7316662232288
 30
0.0
  0
POINT
  5
FC
  8
DEFPOINTS
  6
BYBLOCK
 62
     0
 10
-4479.0838374174746
 20
3635.7316662232311
 30
0.0
  0
POINT
  5
FD
  8
DEFPOINTS
  6
BYBLOCK
 62
     0
 10
-4747.7343202146867
 20
3635.7316662232311
 30
0.0
  0
ENDBLK
  5
FF
  8
0
  0
BLOCK
  8
0
  2
*D13
 70
     1
 10
0.0
 20
0.0
 30
0.0
  3
*D13
  1

  0
LINE
  5
104
  8
0
  6
BYBLOCK
 62
     0
 10
-4249.8031859644989
 20
2625.7316662232301
 30
0.0
 11
-4782.7343202146876
 21
2625.7316662232301
 31
0.0
  0
LINE
  5
105
  8
0
  6
BYBLOCK
 62
     0
 10
-4747.7343202146867
 20
3565.7316662232301
 30
0.0
 11
-4747.7343202146867
 21
2695.7316662232301
 31
0.0
  0
INSERT
  5
106
  8
0
  6
BYBLOCK
 62
     0
  2
_OPEN
 10
-4747.7343202146867
 20
3635.7316662232311
 30
0.0
 41
70.0
 42
70.0
 43
70.0
 50
90.0
  0
INSERT
  5
107
  8
0
  6
BYBLOCK
 62
     0
  2
_OPEN
 10
-4747.7343202146867
 20
2625.7316662232301
 30
0.0
 41
70.0
 42
70.0
 43
70.0
 50
270.0
  0
TEXT
  5
108
  8
3
 62
     0
 10
-4782.7343202146876
 20
2965.7316662232311
 30
0.0
 40
105.0
  1
1010
 50
90.0
  0
POINT
  5
109
  8
DEFPOINTS
  6
BYBLOCK
 62
     0
 10
-4479.0838374174746
 20
3635.7316662232311
 30
0.0
  0
POINT
  5
10A
  8
DEFPOINTS
  6
BYBLOCK
 62
     0
 10
-4232.3031859644989
 20
2625.7316662232301
 30
0.0
  0
POINT
  5
10B
  8
DEFPOINTS
  6
BYBLOCK
 62
     0
 10
-4747.7343202146867
 20
2625.7316662232301
 30
0.0
  0
ENDBLK
  5
10D
  8
0
  0
BLOCK
  8
0
  2
*D14
 70
     1
 10
0.0
 20
0.0
 30
0.0
  3
*D14
  1

  0
LINE
  5
BA
  8
0
  6
BYBLOCK
 62
     0
 10
-2472.3031859645012
 20
2368.2316662232301
 30
0.0
 11
-2472.3031859645012
 21
2096.6201966049662
 31
0.0
  0
LINE
  5
BB
  8
0
  6
BYBLOCK
 62
     0
 10
-3572.3031859644998
 20
2368.2316662232301
 30
0.0
 11
-3572.3031859644998
 21
2096.6201966049662
 31
0.0
  0
LINE
  5
BC
  8
0
  6
BYBLOCK
 62
     0
 10
-2542.3031859645012
 20
2131.6201966049662
 30
0.0
 11
-3502.3031859644998
 21
2131.6201966049662
 31
0.0
  0
INSERT
  5
BD
  8
0
  6
BYBLOCK
 62
     0
  2
_OPEN
 10
-2472.3031859645012
 20
2131.6201966049662
 30
0.0
 41
70.0
 42
70.0
 43
70.0
  0
INSERT
  5
BE
  8
0
  6
BYBLOCK
 62
     0
  2
_OPEN
 10
-3572.3031859644998
 20
2131.6201966049662
 30
0.0
 41
70.0
 42
70.0
 43
70.0
 50
180.0
  0
TEXT
  5
BF
  8
3
 62
     0
 10
-3166.9020467329678
 20
2166.6201966049662
 30
0.0
 40
105.0
  1
1100
  0
POINT
  5
C0
  8
DEFPOINTS
  6
BYBLOCK
 62
     0
 10
-2472.3031859645012
 20
2385.7316662232301
 30
0.0
  0
POINT
  5
C1
  8
DEFPOINTS
  6
BYBLOCK
 62
     0
 10
-3572.3031859644998
 20
2385.7316662232301
 30
0.0
  0
POINT
  5
C2
  8
DEFPOINTS
  6
BYBLOCK
 62
     0
 10
-3572.3031859644998
 20
2131.6201966049662
 30
0.0
  0
ENDBLK
  5
C4
  8
0
  0
BLOCK
  8
0
  2
*D15
 70
     1
 10
0.0
 20
0.0
 30
0.0
  3
*D15
  1

  0
LINE
  5
A3
  8
0
  6
BYBLOCK
 62
     0
 10
-4232.3031859644989
 20
2368.2316662232301
 30
0.0
 11
-4232.3031859644989
 21
2096.6201966049662
 31
0.0
  0
LINE
  5
A4
  8
0
  6
BYBLOCK
 62
     0
 10
-3642.3031859644998
 20
2131.6201966049662
 30
0.0
 11
-4162.3031859644989
 21
2131.6201966049662
 31
0.0
  0
INSERT
  5
A5
  8
0
  6
BYBLOCK
 62
     0
  2
_OPEN
 10
-3572.3031859644998
 20
2131.6201966049662
 30
0.0
 41
70.0
 42
70.0
 43
70.0
  0
INSERT
  5
A6
  8
0
  6
BYBLOCK
 62
     0
  2
_OPEN
 10
-4232.3031859644989
 20
2131.6201966049662
 30
0.0
 41
70.0
 42
70.0
 43
70.0
 50
180.0
  0
TEXT
  5
A7
  8
3
 62
     0
 10
-4037.3031859644989
 20
2166.6201966049662
 30
0.0
 40
105.0
  1
660
  0
POINT
  5
A8
  8
DEFPOINTS
  6
BYBLOCK
 62
     0
 10
-3572.3031859644998
 20
2385.7316662232301
 30
0.0
  0
POINT
  5
A9
  8
DEFPOINTS
  6
BYBLOCK
 62
     0
 10
-4232.3031859644989
 20
2385.7316662232301
 30
0.0
  0
POINT
  5
AA
  8
DEFPOINTS
  6
BYBLOCK
 62
     0
 10
-4232.3031859644989
 20
2131.6201966049662
 30
0.0
  0
ENDBLK
  5
AC
  8
0
  0
BLOCK
  8
0
  2
*D16
 70
     1
 10
0.0
 20
0.0
 30
0.0
  3
*D16
  1

  0
LINE
  5
1B4
  8
0
  6
BYBLOCK
 62
     0
 10
4417.9400047573081
 20
2173.4880679732642
 30
0.0
 11
4417.9400047573081
 21
1907.135825600358
 31
0.0
  0
LINE
  5
1B5
  8
0
  6
BYBLOCK
 62
     0
 10
5757.9400047573081
 20
2173.4880679732642
 30
0.0
 11
5757.9400047573081
 21
1907.135825600358
 31
0.0
  0
LINE
  5
1B6
  8
0
  6
BYBLOCK
 62
     0
 10
4487.940004757309
 20
1942.135825600358
 30
0.0
 11
5687.940004757309
 21
1942.135825600358
 31
0.0
  0
INSERT
  5
1B7
  8
0
  6
BYBLOCK
 62
     0
  2
_OPEN
 10
4417.9400047573081
 20
1942.135825600358
 30
0.0
 41
70.0
 42
70.0
 43
70.0
 50
180.0
  0
INSERT
  5
1B8
  8
0
  6
BYBLOCK
 62
     0
  2
_OPEN
 10
5757.9400047573081
 20
1942.135825600358
 30
0.0
 41
70.0
 42
70.0
 43
70.0
  0
TEXT
  5
1B9
  8
3
 62
     0
 10
4880.0261621183081
 20
1977.135825600358
 30
0.0
 40
105.0
  1
1340
  0
POINT
  5
1BA
  8
DEFPOINTS
  6
BYBLOCK
 62
     0
 10
4417.9400047573081
 20
2190.9880679732642
 30
0.0
  0
POINT
  5
1BB
  8
DEFPOINTS
  6
BYBLOCK
 62
     0
 10
5757.9400047573081
 20
2190.9880679732642
 30
0.0
  0
POINT
  5
1BC
  8
DEFPOINTS
  6
BYBLOCK
 62
     0
 10
5757.9400047573081
 20
1942.135825600358
 30
0.0
  0
ENDBLK
  5
1BE
  8
0
  0
BLOCK
  8
0
  2
*D17
 70
     1
 10
0.0
 20
0.0
 30
0.0
  3
*D17
  1

  0
LINE
  5
1CB
  8
0
  6
BYBLOCK
 62
     0
 10
6252.940004757309
 20
2173.4880679732642
 30
0.0
 11
6252.940004757309
 21
1907.135825600358
 31
0.0
  0
LINE
  5
1CC
  8
0
  6
BYBLOCK
 62
     0
 10
5827.940004757309
 20
1942.135825600358
 30
0.0
 11
6182.9400047573099
 21
1942.135825600358
 31
0.0
  0
INSERT
  5
1CD
  8
0
  6
BYBLOCK
 62
     0
  2
_OPEN
 10
5757.9400047573081
 20
1942.135825600358
 30
0.0
 41
70.0
 42
70.0
 43
70.0
 50
180.0
  0
INSERT
  5
1CE
  8
0
  6
BYBLOCK
 62
     0
  2
_OPEN
 10
6252.940004757309
 20
1942.135825600358
 30
0.0
 41
70.0
 42
70.0
 43
70.0
  0
TEXT
  5
1CF
  8
3
 62
     0
 10
5870.440004757309
 20
1977.135825600358
 30
0.0
 40
105.0
  1
495
  0
POINT
  5
1D0
  8
DEFPOINTS
  6
BYBLOCK
 62
     0
 10
5757.9400047573081
 20
2190.9880679732642
 30
0.0
  0
POINT
  5
1D1
  8
DEFPOINTS
  6
BYBLOCK
 62
     0
 10
6252.940004757309
 20
2190.9880679732642
 30
0.0
  0
POINT
  5
1D2
  8
DEFPOINTS
  6
BYBLOCK
 62
     0
 10
6252.940004757309
 20
1942.135825600358
 30
0.0
  0
ENDBLK
  5
1D4
  8
0
  0
BLOCK
  8
0
  2
*D18
 70
     1
 10
0.0
 20
0.0
 30
0.0
  3
*D18
  1

  0
LINE
  5
1D9
  8
0
  6
BYBLOCK
 62
     0
 10
6202.7400047573092
 20
4195.7316662232297
 30
0.0
 11
6572.8257878305094
 21
4195.7316662232297
 31
0.0
  0
LINE
  5
1DA
  8
0
  6
BYBLOCK
 62
     0
 10
6202.740004757311
 20
3075.7316662232301
 30
0.0
 11
6572.8257878305094
 21
3075.7316662232301
 31
0.0
  0
LINE
  5
1DB
  8
0
  6
BYBLOCK
 62
     0
 10
6537.8257878305094
 20
4125.7316662232297
 30
0.0
 11
6537.8257878305094
 21
3145.7316662232301
 31
0.0
  0
INSERT
  5
1DC
  8
0
  6
BYBLOCK
 62
     0
  2
_OPEN
 10
6537.8257878305094
 20
4195.7316662232297
 30
0.0
 41
70.0
 42
70.0
 43
70.0
 50
90.0
  0
INSERT
  5
1DD
  8
0
  6
BYBLOCK
 62
     0
  2
_OPEN
 10
6537.8257878305094
 20
3075.7316662232301
 30
0.0
 41
70.0
 42
70.0
 43
70.0
 50
270.0
  0
TEXT
  5
1DE
  8
3
 62
     0
 10
6502.8257878305076
 20
3406.4063406411078
 30
0.0
 40
105.0
  1
φ1120
 50
90.0
  0
POINT
  5
1DF
  8
DEFPOINTS
  6
BYBLOCK
 62
     0
 10
6185.2400047573092
 20
4195.7316662232297
 30
0.0
  0
POINT
  5
1E0
  8
DEFPOINTS
  6
BYBLOCK
 62
     0
 10
6185.240004757311
 20
3075.7316662232301
 30
0.0
  0
POINT
  5
1E1
  8
DEFPOINTS
  6
BYBLOCK
 62
     0
 10
6537.8257878305094
 20
3075.7316662232301
 30
0.0
  0
ENDBLK
  5
1E3
  8
0
  0
BLOCK
  8
0
  2
*D19
 70
     1
 10
0.0
 20
0.0
 30
0.0
  3
*D19
  1

  0
LINE
  5
22F
  8
0
  6
BYBLOCK
 62
     0
 10
5332.9400047573108
 20
4148.4880679732632
 30
0.0
 11
5332.9400047573108
 21
4307.4498191766388
 31
0.0
  0
LINE
  5
230
  8
0
  6
BYBLOCK
 62
     0
 10
6182.9400047573126
 20
4148.4880679732632
 30
0.0
 11
6182.9400047573126
 21
4307.4498191766388
 31
0.0
  0
LINE
  5
231
  8
0
  6
BYBLOCK
 62
     0
 10
5402.9400047573108
 20
4272.4498191766397
 30
0.0
 11
6112.9400047573117
 21
4272.4498191766397
 31
0.0
  0
INSERT
  5
232
  8
0
  6
BYBLOCK
 62
     0
  2
_OPEN
 10
5332.9400047573108
 20
4272.4498191766397
 30
0.0
 41
70.0
 42
70.0
 43
70.0
 50
180.0
  0
INSERT
  5
233
  8
0
  6
BYBLOCK
 62
     0
  2
_OPEN
 10
6182.9400047573126
 20
4272.4498191766397
 30
0.0
 41
70.0
 42
70.0
 43
70.0
  0
TEXT
  5
234
  8
3
 62
     0
 10
5625.7077326111676
 20
4307.4498191766388
 30
0.0
 40
105.0
  1
850
  0
POINT
  5
235
  8
DEFPOINTS
  6
BYBLOCK
 62
     0
 10
5332.9400047573108
 20
4130.9880679732632
 30
0.0
  0
POINT
  5
236
  8
DEFPOINTS
  6
BYBLOCK
 62
     0
 10
6182.9400047573126
 20
4130.9880679732632
 30
0.0
  0
POINT
  5
237
  8
DEFPOINTS
  6
BYBLOCK
 62
     0
 10
6182.9400047573126
 20
4272.4498191766397
 30
0.0
  0
ENDBLK
  5
239
  8
0
  0
BLOCK
  8
0
  2
*D20
 70
     1
 10
0.0
 20
0.0
 30
0.0
  3
*D20
  1

  0
LINE
  5
1F2
  8
0
  6
BYBLOCK
 62
     0
 10
5757.9400047573081
 20
4441.3656428690192
 30
0.0
 11
5757.9400047573081
 21
4568.7278690910643
 31
0.0
  0
LINE
  5
1F3
  8
0
  6
BYBLOCK
 62
     0
 10
6193.2400047573092
 20
4148.4880679732632
 30
0.0
 11
6193.2400047573092
 21
4568.7278690910643
 31
0.0
  0
LINE
  5
1F4
  8
0
  6
BYBLOCK
 62
     0
 10
5687.9400047573081
 20
4533.7278690910643
 30
0.0
 11
5617.9400047573081
 21
4533.7278690910643
 31
0.0
  0
LINE
  5
1F5
  8
0
  6
BYBLOCK
 62
     0
 10
6263.2400047573092
 20
4533.7278690910643
 30
0.0
 11
6333.2400047573101
 21
4533.7278690910643
 31
0.0
  0
LINE
  5
1F6
  8
0
  6
BYBLOCK
 62
     0
 10
5757.9400047573081
 20
4533.7278690910643
 30
0.0
 11
6193.2400047573092
 21
4533.7278690910643
 31
0.0
  0
INSERT
  5
1F7
  8
0
  6
BYBLOCK
 62
     0
  2
_OPEN
 10
5757.9400047573081
 20
4533.7278690910643
 30
0.0
 41
70.0
 42
70.0
 43
70.0
  0
INSERT
  5
1F8
  8
0
  6
BYBLOCK
 62
     0
  2
_OPEN
 10
6193.2400047573092
 20
4533.7278690910643
 30
0.0
 41
70.0
 42
70.0
 43
70.0
 50
180.0
  0
TEXT
  5
1F9
  8
3
 62
     0
 10
5840.5900047573077
 20
4568.7278690910643
 30
0.0
 40
105.0
  1
435
  0
POINT
  5
1FA
  8
DEFPOINTS
  6
BYBLOCK
 62
     0
 10
5757.9400047573081
 20
4423.8656428690192
 30
0.0
  0
POINT
  5
1FB
  8
DEFPOINTS
  6
BYBLOCK
 62
     0
 10
6193.2400047573092
 20
4130.9880679732632
 30
0.0
  0
POINT
  5
1FC
  8
DEFPOINTS
  6
BYBLOCK
 62
     0
 10
6193.2400047573092
 20
4533.7278690910643
 30
0.0
  0
ENDBLK
  5
1FE
  8
0
  0
BLOCK
  8
0
  2
*D21
 70
     1
 10
0.0
 20
0.0
 30
0.0
  3
*D21
  1

  0
LINE
  5
1E6
  8
0
  6
BYBLOCK
 62
     0
 10
4270.940004757309
 20
3668.4880679732628
 30
0.0
 11
4270.940004757309
 21
4568.7278690910643
 31
0.0
  0
LINE
  5
1E7
  8
0
  6
BYBLOCK
 62
     0
 10
5687.9400047573081
 20
4533.7278690910643
 30
0.0
 11
4340.940004757309
 21
4533.7278690910643
 31
0.0
  0
INSERT
  5
1E8
  8
0
  6
BYBLOCK
 62
     0
  2
_OPEN
 10
5757.9400047573081
 20
4533.7278690910643
 30
0.0
 41
70.0
 42
70.0
 43
70.0
  0
INSERT
  5
1E9
  8
0
  6
BYBLOCK
 62
     0
  2
_OPEN
 10
4270.940004757309
 20
4533.7278690910643
 30
0.0
 41
70.0
 42
70.0
 43
70.0
 50
180.0
  0
INSERT
  5
1EA
  8
3
  2
*U46
 10
0.0
 20
0.0
 30
0.0
  0
POINT
  5
1EB
  8
DEFPOINTS
  6
BYBLOCK
 62
     0
 10
5757.9400047573081
 20
4423.8656428690192
 30
0.0
  0
POINT
  5
1EC
  8
DEFPOINTS
  6
BYBLOCK
 62
     0
 10
4270.940004757309
 20
3650.9880679732628
 30
0.0
  0
POINT
  5
1ED
  8
DEFPOINTS
  6
BYBLOCK
 62
     0
 10
4270.940004757309
 20
4533.7278690910643
 30
0.0
  0
ENDBLK
  5
1EF
  8
0
  0
BLOCK
  8
0
  2
_DOT
 70
     0
 10
0.0
 20
0.0
 30
0.0
  3
_DOT
  1

  0
LINE
  5
85
  8
0
  6
BYBLOCK
 62
     0
 10
0.0
 20
0.0
 30
0.0
 11
-1.0
 21
-0.0000000000000284
 31
0.0
  0
POLYLINE
  5
86
  8
0
  6
BYBLOCK
 62
     0
 66
     1
 10
0.0
 20
0.0
 30
0.0
 70
     1
 40
0.1666666666666666
 41
0.1666666666666666
  0
VERTEX
  5
33D
  8
0
  6
BYBLOCK
 62
     0
 10
-0.0833333333333286
 20
-0.0000000000000284
 30
0.0
 42
1.0
  0
VERTEX
  5
33E
  8
0
  6
BYBLOCK
 62
     0
 10
0.0833333333333286
 20
-0.0000000000000284
 30
0.0
 42
1.0
  0
SEQEND
  5
33F
  8
0
  6
BYBLOCK
 62
     0
  0
ENDBLK
  5
8B
  8
0
  0
BLOCK
  8
0
  2
*D23
 70
     1
 10
0.0
 20
0.0
 30
0.0
  3
*D23
  1

  0
LINE
  5
D5
  8
0
  6
BYBLOCK
 62
     0
 10
-2321.3031859644998
 20
4413.2316662232297
 30
0.0
 11
-2321.3031859644998
 21
5036.7617842140708
 31
0.0
  0
LINE
  5
D6
  8
0
  6
BYBLOCK
 62
     0
 10
-4377.3031859644998
 20
4836.267158279672
 30
0.0
 11
-4377.3031859644998
 21
5036.7617842140708
 31
0.0
  0
LINE
  5
D7
  8
0
  6
BYBLOCK
 62
     0
 10
-2391.3031859644989
 20
5001.7617842140708
 30
0.0
 11
-4307.3031859644989
 21
5001.7617842140708
 31
0.0
  0
INSERT
  5
D8
  8
0
  6
BYBLOCK
 62
     0
  2
_OPEN
 10
-2321.3031859644998
 20
5001.7617842140708
 30
0.0
 41
70.0
 42
70.0
 43
70.0
  0
INSERT
  5
D9
  8
0
  6
BYBLOCK
 62
     0
  2
_OPEN
 10
-4377.3031859644998
 20
5001.7617842140708
 30
0.0
 41
70.0
 42
70.0
 43
70.0
 50
180.0
  0
TEXT
  5
DA
  8
3
 62
     0
 10
-3584.4621075542959
 20
5036.7617842140708
 30
0.0
 40
105.0
  1
2056
  0
POINT
  5
DB
  8
DEFPOINTS
  6
BYBLOCK
 62
     0
 10
-2321.3031859644998
 20
4395.7316662232288
 30
0.0
  0
POINT
  5
DC
  8
DEFPOINTS
  6
BYBLOCK
 62
     0
 10
-4377.3031859644998
 20
4818.7671582796729
 30
0.0
  0
POINT
  5
DD
  8
DEFPOINTS
  6
BYBLOCK
 62
     0
 10
-4377.3031859644998
 20
5001.7617842140708
 30
0.0
  0
ENDBLK
  5
DF
  8
0
  0
BLOCK
  8
0
  2
*D24
 70
     1
 10
0.0
 20
0.0
 30
0.0
  3
*D24
  1

  0
LINE
  5
418
  8
3
 62
     0
 10
1486.119702619389
 20
2580.7316662232301
 30
0.0
 11
950.29556923834025
 21
2580.7316662232311
 31
0.0
  0
LINE
  5
419
  8
3
 62
     0
 10
1486.119702619389
 20
2455.7316662232301
 30
0.0
 11
950.29556923834025
 21
2455.7316662232311
 31
0.0
  0
LINE
  5
41A
  8
3
 62
     0
 10
985.29556923834014
 20
2650.7316662232311
 30
0.0
 11
985.29556923834014
 21
2720.7316662232311
 31
0.0
  0
LINE
  5
41B
  8
3
 62
     0
 10
985.29556923834014
 20
2385.7316662232311
 30
0.0
 11
985.29556923834014
 21
1995.7316662232299
 31
0.0
  0
LINE
  5
41C
  8
3
 62
     0
 10
985.29556923834014
 20
2580.7316662232311
 30
0.0
 11
985.29556923834014
 21
2455.7316662232311
 31
0.0
  0
INSERT
  5
41D
  8
3
 62
     0
  2
_DOT
 10
985.29556923834014
 20
2580.7316662232311
 30
0.0
 41
70.0
 42
70.0
 43
70.0
 50
270.0
  0
INSERT
  5
41E
  8
3
 62
     0
  2
_OPEN
 10
985.29556923834014
 20
2455.7316662232311
 30
0.0
 41
70.0
 42
70.0
 43
70.0
 50
90.0
  0
TEXT
  8
3
  40
105
  5
43A
  62
0
  72
0
  71
0
 10
687.796
 20
1969.88
 30
0.000000
  1
125
  0
POINT
  5
420
  8
DEFPOINTS
 62
     0
 10
1503.619702619389
 20
2580.7316662232301
 30
0.0
  0
POINT
  5
421
  8
DEFPOINTS
 62
     0
 10
1503.619702619389
 20
2455.7316662232301
 30
0.0
  0
POINT
  5
422
  8
DEFPOINTS
 62
     0
 10
985.29556923834014
 20
2455.7316662232311
 30
0.0
  0
ENDBLK
  5
2CE
  8
0
  0
BLOCK
  8
0
  2
*D25
 70
     1
 10
0.0
 20
0.0
 30
0.0
  3
*D25
  1

  0
LINE
  5
423
  8
3
 62
     0
 10
1486.119702619389
 20
2580.7316662232301
 30
0.0
 11
950.94735949861933
 21
2580.7316662232311
 31
0.0
  0
LINE
  5
424
  8
3
 62
     0
 10
1486.119702619389
 20
2625.7316662232301
 30
0.0
 11
950.94735949861933
 21
2625.7316662232311
 31
0.0
  0
LINE
  5
425
  8
3
 62
     0
 10
985.94735949861933
 20
2510.7316662232311
 30
0.0
 11
985.94735949861933
 21
2440.7316662232311
 31
0.0
  0
LINE
  5
426
  8
3
 62
     0
 10
985.94735949861933
 20
2695.7316662232311
 30
0.0
 11
985.94735949861933
 21
2765.7316662232311
 31
0.0
  0
LINE
  5
427
  8
3
 62
     0
 10
985.94735949861933
 20
2603.2316662232311
 30
0.0
 11
818.44735949861945
 21
2653.4816662232311
 31
0.0
  0
LINE
  5
428
  8
3
 62
     0
 10
818.44735949861945
 20
2653.4816662232311
 30
0.0
 11
818.44735949861945
 21
3028.4816662232311
 31
0.0
  0
TEXT
  8
3
  40
105
  5
43B
  62
0
  72
0
  71
0
 10
493.447
 20
2655.13
 30
0.000000
  1
(45)
  0
LINE
  5
42A
  8
3
 62
     0
 10
985.94735949861933
 20
2580.7316662232311
 30
0.0
 11
985.94735949861933
 21
2625.7316662232311
 31
0.0
  0
LINE
  5
42B
  8
3
 62
     0
 10
985.94735949861933
 20
2580.7316662232311
 30
0.0
 11
985.94735949861933
 21
2625.7316662232311
 31
0.0
  0
INSERT
  5
42C
  8
3
 62
     0
  2
_DOT
 10
985.94735949861933
 20
2580.7316662232311
 30
0.0
 41
70.0
 42
70.0
 43
70.0
 50
90.0
  0
INSERT
  5
42D
  8
3
 62
     0
  2
_OPEN
 10
985.94735949861933
 20
2625.7316662232311
 30
0.0
 41
70.0
 42
70.0
 43
70.0
 50
270.0
  0
POINT
  5
42E
  8
DEFPOINTS
 62
     0
 10
1503.619702619389
 20
2580.7316662232301
 30
0.0
  0
POINT
  5
42F
  8
DEFPOINTS
 62
     0
 10
1503.619702619389
 20
2625.7316662232301
 30
0.0
  0
POINT
  5
430
  8
DEFPOINTS
 62
     0
 10
985.94735949861933
 20
2625.7316662232311
 30
0.0
  0
ENDBLK
  5
2DF
  8
0
  0
BLOCK
  8
0
  2
*D26
 70
     1
 10
0.0
 20
0.0
 30
0.0
  3
*D26
  1

  0
LINE
  5
431
  8
3
 62
     0
 10
2141.119702619389
 20
4395.7316662232288
 30
0.0
 11
548.11601002850557
 21
4395.7316662232297
 31
0.0
  0
LINE
  5
432
  8
3
 62
     0
 10
1486.119702619389
 20
2455.7316662232301
 30
0.0
 11
548.11601002850512
 21
2455.7316662232311
 31
0.0
  0
LINE
  5
433
  8
3
 62
     0
 10
583.11601002850546
 20
4325.7316662232297
 30
0.0
 11
583.11601002850512
 21
2525.7316662232311
 31
0.0
  0
INSERT
  5
434
  8
3
 62
     0
  2
_OPEN
 10
583.11601002850546
 20
4395.7316662232297
 30
0.0
 41
70.0
 42
70.0
 43
70.0
 50
90.0
  0
INSERT
  5
435
  8
3
 62
     0
  2
_OPEN
 10
583.11601002850512
 20
2455.7316662232311
 30
0.0
 41
70.0
 42
70.0
 43
70.0
 50
270.0
  0
TEXT
  8
3
  40
105
  5
43C
  62
0
  72
0
  71
0
 10
258.116
 20
3239.88
 30
0.000000
  1
(1940)
  0
POINT
  5
437
  8
DEFPOINTS
 62
     0
 10
2158.619702619389
 20
4395.7316662232288
 30
0.0
  0
POINT
  5
438
  8
DEFPOINTS
 62
     0
 10
1503.619702619389
 20
2455.7316662232301
 30
0.0
  0
POINT
  5
439
  8
DEFPOINTS
 62
     0
 10
583.11601002850512
 20
2455.7316662232311
 30
0.0
  0
ENDBLK
  5
2EC
  8
0
  0
BLOCK
  8
0
  2
*D27
 70
     1
 10
0.0
 20
0.0
 30
0.0
  3
*D27
  1

  0
LINE
  5
30D
  8
3
 62
     0
 10
3263.61970261939
 20
6776.2675927715263
 30
0.0
 11
3263.61970261939
 21
7949.311000374676
 31
0.0
  0
LINE
  5
30E
  8
3
 62
     0
 10
2823.619702619389
 20
7701.2675927715281
 30
0.0
 11
2823.619702619389
 21
7949.311000374676
 31
0.0
  0
LINE
  5
30F
  8
3
 62
     0
 10
3333.619702619389
 20
7914.311000374677
 30
0.0
 11
3403.619702619389
 21
7914.311000374677
 31
0.0
  0
LINE
  5
310
  8
3
 62
     0
 10
2753.619702619389
 20
7914.311000374677
 30
0.0
 11
2683.619702619389
 21
7914.311000374677
 31
0.0
  0
LINE
  5
311
  8
3
 62
     0
 10
3263.61970261939
 20
7914.311000374677
 30
0.0
 11
2823.619702619389
 21
7914.311000374677
 31
0.0
  0
INSERT
  5
312
  8
3
 62
     0
  2
_OPEN
 10
3263.61970261939
 20
7914.311000374677
 30
0.0
 41
70.0
 42
70.0
 43
70.0
 50
180.0
  0
INSERT
  5
313
  8
3
 62
     0
  2
_OPEN
 10
2823.619702619389
 20
7914.311000374677
 30
0.0
 41
70.0
 42
70.0
 43
70.0
  0
TEXT
  8
3
  40
105
  5
43D
  62
0
  72
0
  71
0
 10
2833.62
 20
7815.96
 30
0.000000
  1
440
  0
POINT
  5
315
  8
DEFPOINTS
 62
     0
 10
3263.61970261939
 20
6758.7675927715263
 30
0.0
  0
POINT
  5
316
  8
DEFPOINTS
 62
     0
 10
2823.619702619389
 20
7683.7675927715281
 30
0.0
  0
POINT
  5
317
  8
DEFPOINTS
 62
     0
 10
2823.619702619389
 20
7914.311000374677
 30
0.0
  0
ENDBLK
  5
319
  8
0
  0
BLOCK
  8
0
  2
*D28
 70
     1
 10
0.0
 20
0.0
 30
0.0
  3
*D28
  1

  0
LINE
  5
31B
  8
3
 62
     0
 10
1486.119702619389
 20
7683.7675927715281
 30
0.0
 11
841.31028420831115
 21
7683.7675927715281
 31
0.0
  0
LINE
  5
31C
  8
3
 62
     0
 10
1486.119702619389
 20
6693.7675927715281
 30
0.0
 11
841.31028420831092
 21
6693.7675927715281
 31
0.0
  0
LINE
  5
31D
  8
3
 62
     0
 10
876.31028420831115
 20
7613.7675927715281
 30
0.0
 11
876.3102842083108
 21
6763.7675927715281
 31
0.0
  0
INSERT
  5
31E
  8
3
 62
     0
  2
_OPEN
 10
876.31028420831115
 20
7683.7675927715281
 30
0.0
 41
70.0
 42
70.0
 43
70.0
 50
90.0
  0
INSERT
  5
31F
  8
3
 62
     0
  2
_OPEN
 10
876.3102842083108
 20
6693.7675927715281
 30
0.0
 41
70.0
 42
70.0
 43
70.0
 50
270.0
  0
TEXT
  8
3
  40
105
  5
43E
  62
0
  72
0
  71
0
 10
578.810
 20
7005.01
 30
0.000000
  1
990
  0
POINT
  5
321
  8
DEFPOINTS
 62
     0
 10
1503.619702619389
 20
7683.7675927715281
 30
0.0
  0
POINT
  5
322
  8
DEFPOINTS
 62
     0
 10
1503.619702619389
 20
6693.7675927715281
 30
0.0
  0
POINT
  5
323
  8
DEFPOINTS
 62
     0
 10
876.3102842083108
 20
6693.7675927715281
 30
0.0
  0
ENDBLK
  5
325
  8
0
  0
BLOCK
  8
0
  2
*D29
 70
     1
 10
0.0
 20
0.0
 30
0.0
  3
*D29
  1

  0
LINE
  5
327
  8
3
 62
     0
 10
2841.119702619389
 20
7683.7675927715281
 30
0.0
 11
3729.0114834799901
 21
7683.7675927715281
 31
0.0
  0
LINE
  5
328
  8
3
 62
     0
 10
3694.0114834799888
 20
6828.7675927715272
 30
0.0
 11
3694.0114834799888
 21
7613.7675927715281
 31
0.0
  0
INSERT
  5
329
  8
3
 62
     0
  2
_OPEN
 10
3694.0114834799888
 20
6758.7675927715263
 30
0.0
 41
70.0
 42
70.0
 43
70.0
 50
270.0
  0
INSERT
  5
32A
  8
3
 62
     0
  2
_OPEN
 10
3694.0114834799888
 20
7683.7675927715281
 30
0.0
 41
70.0
 42
70.0
 43
70.0
 50
90.0
  0
TEXT
  8
3
  40
105
  5
43F
  62
0
  72
0
  71
0
 10
3396.51
 20
7035.42
 30
0.000000
  1
925
  0
POINT
  5
32C
  8
DEFPOINTS
 62
     0
 10
3263.61970261939
 20
6758.7675927715263
 30
0.0
  0
POINT
  5
32D
  8
DEFPOINTS
 62
     0
 10
2823.619702619389
 20
7683.7675927715281
 30
0.0
  0
POINT
  5
32E
  8
DEFPOINTS
 62
     0
 10
3694.0114834799888
 20
7683.7675927715281
 30
0.0
  0
ENDBLK
  5
330
  8
0
  0
BLOCK
  8
0
  2
*D30
 70
     1
 10
0.0
 20
0.0
 30
0.0
  3
*D30
  1

  0
LINE
  5
332
  8
3
 62
     0
 10
3281.119702619389
 20
5848.7675927715281
 30
0.0
 11
3729.0114834799911
 21
5848.7675927715281
 31
0.0
  0
LINE
  5
333
  8
3
 62
     0
 10
3281.119702619389
 20
6758.7675927715263
 30
0.0
 11
3729.0114834799911
 21
6758.7675927715263
 31
0.0
  0
LINE
  5
334
  8
3
 62
     0
 10
3694.0114834799901
 20
5918.7675927715281
 30
0.0
 11
3694.0114834799901
 21
6688.7675927715263
 31
0.0
  0
INSERT
  5
335
  8
3
 62
     0
  2
_OPEN
 10
3694.0114834799901
 20
5848.7675927715281
 30
0.0
 41
70.0
 42
70.0
 43
70.0
 50
270.0
  0
INSERT
  5
336
  8
3
 62
     0
  2
_OPEN
 10
3694.0114834799901
 20
6758.7675927715263
 30
0.0
 41
70.0
 42
70.0
 43
70.0
 50
90.0
  0
TEXT
  8
3
  40
105
  5
440
  62
0
  72
0
  71
0
 10
3396.51
 20
6072.36
 30
0.000000
  1
910
  0
POINT
  5
338
  8
DEFPOINTS
 62
     0
 10
3263.61970261939
 20
5848.7675927715281
 30
0.0
  0
POINT
  5
339
  8
DEFPOINTS
 62
     0
 10
3263.61970261939
 20
6758.7675927715263
 30
0.0
  0
POINT
  5
33A
  8
DEFPOINTS
 62
     0
 10
3694.0114834799901
 20
6758.7675927715263
 30
0.0
  0
ENDBLK
  5
33C
  8
0
  0
BLOCK
  8
0
  2
*D31
 70
     1
 10
0.0
 20
0.0
 30
0.0
  3
*D31
  1

  0
LINE
  5
341
  8
3
 62
     0
 10
1503.619702619389
 20
2418.2316662232301
 30
0.0
 11
1503.619702619389
 21
2146.6201966049662
 31
0.0
  0
LINE
  5
342
  8
3
 62
     0
 10
2093.619702619389
 20
2181.6201966049671
 30
0.0
 11
1573.619702619389
 21
2181.6201966049671
 31
0.0
  0
INSERT
  5
343
  8
3
 62
     0
  2
_OPEN
 10
2163.619702619389
 20
2181.6201966049671
 30
0.0
 41
70.0
 42
70.0
 43
70.0
  0
INSERT
  5
344
  8
3
 62
     0
  2
_OPEN
 10
1503.619702619389
 20
2181.6201966049671
 30
0.0
 41
70.0
 42
70.0
 43
70.0
 50
180.0
  0
TEXT
  8
3
  40
105
  5
441
  62
0
  72
0
  71
0
 10
1623.62
 20
2083.27
 30
0.000000
  1
660
  0
POINT
  5
346
  8
DEFPOINTS
 62
     0
 10
2163.619702619389
 20
2435.7316662232301
 30
0.0
  0
POINT
  5
347
  8
DEFPOINTS
 62
     0
 10
1503.619702619389
 20
2435.7316662232301
 30
0.0
  0
POINT
  5
348
  8
DEFPOINTS
 62
     0
 10
1503.619702619389
 20
2181.6201966049671
 30
0.0
  0
ENDBLK
  5
34A
  8
0
  0
BLOCK
  8
0
  2
*D32
 70
     1
 10
0.0
 20
0.0
 30
0.0
  3
*D32
  1

  0
LINE
  5
34C
  8
3
 62
     0
 10
3263.6197026193872
 20
2418.2316662232301
 30
0.0
 11
3263.6197026193872
 21
2146.6201966049662
 31
0.0
  0
LINE
  5
34D
  8
3
 62
     0
 10
2163.619702619389
 20
2418.2316662232301
 30
0.0
 11
2163.619702619389
 21
2146.6201966049662
 31
0.0
  0
LINE
  5
34E
  8
3
 62
     0
 10
3193.6197026193872
 20
2181.6201966049671
 30
0.0
 11
2233.619702619389
 21
2181.6201966049671
 31
0.0
  0
INSERT
  5
34F
  8
3
 62
     0
  2
_OPEN
 10
3263.6197026193872
 20
2181.6201966049671
 30
0.0
 41
70.0
 42
70.0
 43
70.0
  0
INSERT
  5
350
  8
3
 62
     0
  2
_OPEN
 10
2163.619702619389
 20
2181.6201966049671
 30
0.0
 41
70.0
 42
70.0
 43
70.0
 50
180.0
  0
TEXT
  8
3
  40
105
  5
442
  62
0
  72
0
  71
0
 10
2524.02
 20
2083.27
 30
0.000000
  1
1100
  0
POINT
  5
352
  8
DEFPOINTS
 62
     0
 10
3263.6197026193872
 20
2435.7316662232301
 30
0.0
  0
POINT
  5
353
  8
DEFPOINTS
 62
     0
 10
2163.619702619389
 20
2435.7316662232301
 30
0.0
  0
POINT
  5
354
  8
DEFPOINTS
 62
     0
 10
2163.619702619389
 20
2181.6201966049671
 30
0.0
  0
ENDBLK
  5
356
  8
0
  0
BLOCK
  8
0
  2
*D33
 70
     1
 10
0.0
 20
0.0
 30
0.0
  3
*D33
  1

  0
LINE
  5
358
  8
3
 62
     0
 10
3361.619702619389
 20
4430.7316662232297
 30
0.0
 11
3361.619702619389
 21
4853.767158279672
 31
0.0
  0
LINE
  5
359
  8
3
 62
     0
 10
2163.619702619389
 20
4499.0706671219632
 30
0.0
 11
2163.619702619389
 21
4853.767158279672
 31
0.0
  0
LINE
  5
35A
  8
3
 62
     0
 10
3291.61970261939
 20
4818.7671582796729
 30
0.0
 11
2233.619702619389
 21
4818.7671582796729
 31
0.0
  0
INSERT
  5
35B
  8
3
 62
     0
  2
_OPEN
 10
3361.619702619389
 20
4818.7671582796729
 30
0.0
 41
70.0
 42
70.0
 43
70.0
  0
INSERT
  5
35C
  8
3
 62
     0
  2
_OPEN
 10
2163.619702619389
 20
4818.7671582796729
 30
0.0
 41
70.0
 42
70.0
 43
70.0
 50
180.0
  0
TEXT
  8
3
  40
105
  5
443
  62
0
  72
0
  71
0
 10
2614.71
 20
4720.42
 30
0.000000
  1
1198
  0
POINT
  5
35E
  8
DEFPOINTS
 62
     0
 10
3361.619702619389
 20
4413.2316662232297
 30
0.0
  0
POINT
  5
35F
  8
DEFPOINTS
 62
     0
 10
2163.619702619389
 20
4481.5706671219632
 30
0.0
  0
POINT
  5
360
  8
DEFPOINTS
 62
     0
 10
2163.619702619389
 20
4818.7671582796729
 30
0.0
  0
ENDBLK
  5
362
  8
0
  0
BLOCK
  8
0
  2
*D34
 70
     1
 10
0.0
 20
0.0
 30
0.0
  3
*D34
  1

  0
LINE
  5
364
  8
3
 62
     0
 10
3414.619702619389
 20
4413.2316662232297
 30
0.0
 11
3414.619702619389
 21
5036.7617842140708
 31
0.0
  0
LINE
  5
365
  8
3
 62
     0
 10
1358.619702619389
 20
4836.267158279672
 30
0.0
 11
1358.619702619389
 21
5036.7617842140708
 31
0.0
  0
LINE
  5
366
  8
3
 62
     0
 10
3344.619702619389
 20
5001.7617842140708
 30
0.0
 11
1428.619702619389
 21
5001.7617842140708
 31
0.0
  0
INSERT
  5
367
  8
3
 62
     0
  2
_OPEN
 10
3414.619702619389
 20
5001.7617842140708
 30
0.0
 41
70.0
 42
70.0
 43
70.0
  0
INSERT
  5
368
  8
3
 62
     0
  2
_OPEN
 10
1358.619702619389
 20
5001.7617842140708
 30
0.0
 41
70.0
 42
70.0
 43
70.0
 50
180.0
  0
TEXT
  8
3
  40
105
  5
444
  62
0
  72
0
  71
0
 10
2123.96
 20
4903.41
 30
0.000000
  1
2056
  0
POINT
  5
36A
  8
DEFPOINTS
 62
     0
 10
3414.619702619389
 20
4395.7316662232288
 30
0.0
  0
POINT
  5
36B
  8
DEFPOINTS
 62
     0
 10
1358.619702619389
 20
4818.7671582796729
 30
0.0
  0
POINT
  5
36C
  8
DEFPOINTS
 62
     0
 10
1358.619702619389
 20
5001.7617842140708
 30
0.0
  0
ENDBLK
  5
36E
  8
0
  0
BLOCK
  8
0
  2
*D35
 70
     1
 10
0.0
 20
0.0
 30
0.0
  3
*D35
  1

  0
LINE
  5
370
  8
3
 62
     0
 10
1358.619702619389
 20
3571.2316662232301
 30
0.0
 11
1358.619702619389
 21
4853.767158279672
 31
0.0
  0
LINE
  5
371
  8
3
 62
     0
 10
2093.619702619389
 20
4818.7671582796729
 30
0.0
 11
1428.619702619389
 21
4818.7671582796729
 31
0.0
  0
INSERT
  5
372
  8
3
 62
     0
  2
_OPEN
 10
2163.619702619389
 20
4818.7671582796729
 30
0.0
 41
70.0
 42
70.0
 43
70.0
  0
INSERT
  5
373
  8
3
 62
     0
  2
_OPEN
 10
1358.619702619389
 20
4818.7671582796729
 30
0.0
 41
70.0
 42
70.0
 43
70.0
 50
180.0
  0
TEXT
  8
3
  40
105
  5
445
  62
0
  72
0
  71
0
 10
1551.12
 20
4720.42
 30
0.000000
  1
805
  0
POINT
  5
375
  8
DEFPOINTS
 62
     0
 10
2163.619702619389
 20
4481.5706671219632
 30
0.0
  0
POINT
  5
376
  8
DEFPOINTS
 62
     0
 10
1358.619702619389
 20
3553.7316662232301
 30
0.0
  0
POINT
  5
377
  8
DEFPOINTS
 62
     0
 10
1358.619702619389
 20
4818.7671582796729
 30
0.0
  0
ENDBLK
  5
379
  8
0
  0
BLOCK
  8
0
  2
*D36
 70
     1
 10
0.0
 20
0.0
 30
0.0
  3
*D36
  1

  0
LINE
  5
37B
  8
3
 62
     0
 10
2141.119702619389
 20
4395.7316662232288
 30
0.0
 11
953.18856836920236
 21
4395.7316662232297
 31
0.0
  0
LINE
  5
37C
  8
3
 62
     0
 10
1239.3390511664129
 20
3635.7316662232311
 30
0.0
 11
953.18856836920224
 21
3635.7316662232311
 31
0.0
  0
LINE
  5
37D
  8
3
 62
     0
 10
988.18856836920236
 20
4325.7316662232297
 30
0.0
 11
988.18856836920224
 21
3705.7316662232311
 31
0.0
  0
INSERT
  5
37E
  8
3
 62
     0
  2
_OPEN
 10
988.18856836920236
 20
4395.7316662232297
 30
0.0
 41
70.0
 42
70.0
 43
70.0
 50
90.0
  0
INSERT
  5
37F
  8
3
 62
     0
  2
_OPEN
 10
988.18856836920224
 20
3635.7316662232311
 30
0.0
 41
70.0
 42
70.0
 43
70.0
 50
270.0
  0
TEXT
  8
3
  40
105
  5
446
  62
0
  72
0
  71
0
 10
690.689
 20
3811.69
 30
0.000000
  1
760
  0
POINT
  5
381
  8
DEFPOINTS
 62
     0
 10
2158.619702619389
 20
4395.7316662232288
 30
0.0
  0
POINT
  5
382
  8
DEFPOINTS
 62
     0
 10
1256.839051166412
 20
3635.7316662232311
 30
0.0
  0
POINT
  5
383
  8
DEFPOINTS
 62
     0
 10
988.18856836920224
 20
3635.7316662232311
 30
0.0
  0
ENDBLK
  5
385
  8
0
  0
BLOCK
  8
0
  2
*D37
 70
     1
 10
0.0
 20
0.0
 30
0.0
  3
*D37
  1

  0
LINE
  5
387
  8
3
 62
     0
 10
1486.119702619389
 20
2625.7316662232301
 30
0.0
 11
953.18856836920168
 21
2625.7316662232311
 31
0.0
  0
LINE
  5
388
  8
3
 62
     0
 10
988.1885683692019
 20
3565.7316662232311
 30
0.0
 11
988.18856836920168
 21
2695.7316662232311
 31
0.0
  0
INSERT
  5
389
  8
3
 62
     0
  2
_OPEN
 10
988.1885683692019
 20
3635.7316662232311
 30
0.0
 41
70.0
 42
70.0
 43
70.0
 50
90.0
  0
INSERT
  5
38A
  8
3
 62
     0
  2
_OPEN
 10
988.18856836920168
 20
2625.7316662232311
 30
0.0
 41
70.0
 42
70.0
 43
70.0
 50
270.0
  0
TEXT
  8
3
  40
105
  5
447
  62
0
  72
0
  71
0
 10
690.689
 20
2944.88
 30
0.000000
  1
1010
  0
POINT
  5
38C
  8
DEFPOINTS
 62
     0
 10
1256.839051166412
 20
3635.7316662232311
 30
0.0
  0
POINT
  5
38D
  8
DEFPOINTS
 62
     0
 10
1503.619702619389
 20
2625.7316662232301
 30
0.0
  0
POINT
  5
38E
  8
DEFPOINTS
 62
     0
 10
988.18856836920168
 20
2625.7316662232311
 30
0.0
  0
ENDBLK
  5
390
  8
0
  0
BLOCK
  8
0
  2
*D38
 70
     1
 10
0.0
 20
0.0
 30
0.0
  3
*D38
  1

  0
LINE
  5
392
  8
3
 62
     0
 10
3361.619702619389
 20
4413.2316662232297
 30
0.0
 11
3361.619702619389
 21
4621.5591929576403
 31
0.0
  0
LINE
  5
393
  8
3
 62
     0
 10
2211.619702619389
 20
4413.2316662232297
 30
0.0
 11
2211.619702619389
 21
4621.5591929576403
 31
0.0
  0
LINE
  5
394
  8
3
 62
     0
 10
3291.61970261939
 20
4586.5591929576403
 30
0.0
 11
2281.619702619389
 21
4586.5591929576403
 31
0.0
  0
INSERT
  5
395
  8
3
 62
     0
  2
_OPEN
 10
3361.619702619389
 20
4586.5591929576403
 30
0.0
 41
70.0
 42
70.0
 43
70.0
  0
INSERT
  5
396
  8
3
 62
     0
  2
_OPEN
 10
2211.619702619389
 20
4586.5591929576403
 30
0.0
 41
70.0
 42
70.0
 43
70.0
 50
180.0
  0
TEXT
  8
3
  40
105
  5
448
  62
0
  72
0
  71
0
 10
2603.38
 20
4488.21
 30
0.000000
  1
1150
  0
POINT
  5
398
  8
DEFPOINTS
 62
     0
 10
3361.619702619389
 20
4395.7316662232288
 30
0.0
  0
POINT
  5
399
  8
DEFPOINTS
 62
     0
 10
2211.619702619389
 20
4395.7316662232288
 30
0.0
  0
POINT
  5
39A
  8
DEFPOINTS
 62
     0
 10
2211.619702619389
 20
4586.5591929576403
 30
0.0
  0
ENDBLK
  5
39C
  8
0
  0
BLOCK
  8
0
  2
*D39
 70
     1
 10
0.0
 20
0.0
 30
0.0
  3
*D39
  1

  0
LINE
  5
39E
  8
3
 62
     0
 10
3263.61970261939
 20
5831.2675927715281
 30
0.0
 11
3263.61970261939
 21
5351.5740510801079
 31
0.0
  0
LINE
  5
39F
  8
3
 62
     0
 10
1833.619702619389
 20
5386.5740510801079
 30
0.0
 11
3193.619702619389
 21
5386.5740510801079
 31
0.0
  0
INSERT
  5
3A0
  8
3
 62
     0
  2
_OPEN
 10
1763.619702619389
 20
5386.5740510801079
 30
0.0
 41
70.0
 42
70.0
 43
70.0
 50
180.0
  0
INSERT
  5
3A1
  8
3
 62
     0
  2
_OPEN
 10
3263.61970261939
 20
5386.5740510801079
 30
0.0
 41
70.0
 42
70.0
 43
70.0
  0
TEXT
  8
3
  40
105
  5
449
  62
0
  72
0
  71
0
 10
2303.62
 20
5288.22
 30
0.000000
  1
1500
  0
POINT
  5
3A3
  8
DEFPOINTS
 62
     0
 10
1763.619702619389
 20
5848.7675927715281
 30
0.0
  0
POINT
  5
3A4
  8
DEFPOINTS
 62
     0
 10
3263.61970261939
 20
5848.7675927715281
 30
0.0
  0
POINT
  5
3A5
  8
DEFPOINTS
 62
     0
 10
3263.61970261939
 20
5386.5740510801079
 30
0.0
  0
ENDBLK
  5
3A7
  8
0
  0
BLOCK
  8
0
  2
*D40
 70
     1
 10
0.0
 20
0.0
 30
0.0
  3
*D40
  1

  0
LINE
  5
3A9
  8
3
 62
     0
 10
1503.619702619389
 20
6676.2675927715281
 30
0.0
 11
1503.619702619389
 21
5351.5740510801079
 31
0.0
  0
LINE
  5
3AA
  8
3
 62
     0
 10
1763.619702619389
 20
5831.2675927715281
 30
0.0
 11
1763.619702619389
 21
5351.5740510801079
 31
0.0
  0
LINE
  5
3AB
  8
3
 62
     0
 10
1693.619702619389
 20
5386.5740510801079
 30
0.0
 11
1573.619702619389
 21
5386.5740510801079
 31
0.0
  0
LINE
  5
3AC
  8
3
 62
     0
 10
1503.619702619389
 20
5386.5740510801079
 30
0.0
 11
1093.619702619389
 21
5386.5740510801079
 31
0.0
  0
INSERT
  5
3AD
  8
3
 62
     0
  2
_OPEN
 10
1763.619702619389
 20
5386.5740510801079
 30
0.0
 41
70.0
 42
70.0
 43
70.0
  0
INSERT
  5
3AE
  8
3
 62
     0
  2
_OPEN
 10
1503.619702619389
 20
5386.5740510801079
 30
0.0
 41
70.0
 42
70.0
 43
70.0
 50
180.0
  0
TEXT
  8
3
  40
105
  5
44A
  62
0
  72
0
  71
0
 10
1053.62
 20
5288.22
 30
0.000000
  1
260
  0
POINT
  5
3B0
  8
DEFPOINTS
 62
     0
 10
1503.619702619389
 20
6693.7675927715281
 30
0.0
  0
POINT
  5
3B1
  8
DEFPOINTS
 62
     0
 10
1763.619702619389
 20
5848.7675927715281
 30
0.0
  0
POINT
  5
3B2
  8
DEFPOINTS
 62
     0
 10
1763.619702619389
 20
5386.5740510801079
 30
0.0
  0
ENDBLK
  5
3B4
  8
0
  0
BLOCK
  8
0
  2
*D41
 70
     1
 10
0.0
 20
0.0
 30
0.0
  3
*D41
  1

  0
LINE
  5
3B6
  8
3
 62
     0
 10
1746.119702619389
 20
5848.7675927715281
 30
0.0
 11
841.31028420830978
 21
5848.7675927715281
 31
0.0
  0
LINE
  5
3B7
  8
3
 62
     0
 10
876.31028420831012
 20
6623.7675927715281
 30
0.0
 11
876.31028420831001
 21
5918.7675927715281
 31
0.0
  0
INSERT
  5
3B8
  8
3
 62
     0
  2
_OPEN
 10
876.31028420831012
 20
6693.7675927715281
 30
0.0
 41
70.0
 42
70.0
 43
70.0
 50
90.0
  0
INSERT
  5
3B9
  8
3
 62
     0
  2
_OPEN
 10
876.31028420830978
 20
5848.7675927715281
 30
0.0
 41
70.0
 42
70.0
 43
70.0
 50
270.0
  0
TEXT
  8
3
  40
105
  5
44B
  62
0
  72
0
  71
0
 10
578.810
 20
6085.42
 30
0.000000
  1
845
  0
POINT
  5
3BB
  8
DEFPOINTS
 62
     0
 10
1503.619702619389
 20
6693.7675927715281
 30
0.0
  0
POINT
  5
3BC
  8
DEFPOINTS
 62
     0
 10
1763.619702619389
 20
5848.7675927715281
 30
0.0
  0
POINT
  5
3BD
  8
DEFPOINTS
 62
     0
 10
876.31028420830978
 20
5848.7675927715281
 30
0.0
  0
ENDBLK
  5
3BF
  8
0
  0
BLOCK
  8
0
  2
*D42
 70
     1
 10
0.0
 20
0.0
 30
0.0
  3
*D42
  1

  0
LINE
  5
3C1
  8
3
 62
     0
 10
4417.9400047573081
 20
2418.2316662232301
 30
0.0
 11
4417.9400047573081
 21
2151.8794238503251
 31
0.0
  0
LINE
  5
3C2
  8
3
 62
     0
 10
5757.9400047573081
 20
2418.2316662232301
 30
0.0
 11
5757.9400047573081
 21
2151.8794238503251
 31
0.0
  0
LINE
  5
3C3
  8
3
 62
     0
 10
4487.940004757309
 20
2186.8794238503251
 30
0.0
 11
5687.940004757309
 21
2186.8794238503251
 31
0.0
  0
INSERT
  5
3C4
  8
3
 62
     0
  2
_OPEN
 10
4417.9400047573081
 20
2186.8794238503251
 30
0.0
 41
70.0
 42
70.0
 43
70.0
 50
180.0
  0
INSERT
  5
3C5
  8
3
 62
     0
  2
_OPEN
 10
5757.9400047573081
 20
2186.8794238503251
 30
0.0
 41
70.0
 42
70.0
 43
70.0
  0
TEXT
  8
3
  40
105
  5
44C
  62
0
  72
0
  71
0
 10
4845.03
 20
2088.53
 30
0.000000
  1
1340
  0
POINT
  5
3C7
  8
DEFPOINTS
 62
     0
 10
4417.9400047573081
 20
2435.7316662232301
 30
0.0
  0
POINT
  5
3C8
  8
DEFPOINTS
 62
     0
 10
5757.9400047573081
 20
2435.7316662232301
 30
0.0
  0
POINT
  5
3C9
  8
DEFPOINTS
 62
     0
 10
5757.9400047573081
 20
2186.8794238503251
 30
0.0
  0
ENDBLK
  5
3CB
  8
0
  0
BLOCK
  8
0
  2
*D43
 70
     1
 10
0.0
 20
0.0
 30
0.0
  3
*D43
  1

  0
LINE
  5
3CD
  8
3
 62
     0
 10
6252.940004757309
 20
2418.2316662232301
 30
0.0
 11
6252.940004757309
 21
2151.8794238503251
 31
0.0
  0
LINE
  5
3CE
  8
3
 62
     0
 10
5827.940004757309
 20
2186.8794238503251
 30
0.0
 11
6182.9400047573099
 21
2186.8794238503251
 31
0.0
  0
INSERT
  5
3CF
  8
3
 62
     0
  2
_OPEN
 10
5757.9400047573081
 20
2186.8794238503251
 30
0.0
 41
70.0
 42
70.0
 43
70.0
 50
180.0
  0
INSERT
  5
3D0
  8
3
 62
     0
  2
_OPEN
 10
6252.940004757309
 20
2186.8794238503251
 30
0.0
 41
70.0
 42
70.0
 43
70.0
  0
TEXT
  8
3
  40
105
  5
44D
  62
0
  72
0
  71
0
 10
5795.44
 20
2088.53
 30
0.000000
  1
495
  0
POINT
  5
3D2
  8
DEFPOINTS
 62
     0
 10
5757.9400047573081
 20
2435.7316662232301
 30
0.0
  0
POINT
  5
3D3
  8
DEFPOINTS
 62
     0
 10
6252.940004757309
 20
2435.7316662232301
 30
0.0
  0
POINT
  5
3D4
  8
DEFPOINTS
 62
     0
 10
6252.940004757309
 20
2186.8794238503251
 30
0.0
  0
ENDBLK
  5
3D6
  8
0
  0
BLOCK
  8
0
  2
*D44
 70
     1
 10
0.0
 20
0.0
 30
0.0
  3
*D44
  1

  0
LINE
  5
3D8
  8
3
 62
     0
 10
6202.7400047573092
 20
4195.7316662232297
 30
0.0
 11
6572.8257878305103
 21
4195.7316662232297
 31
0.0
  0
LINE
  5
3D9
  8
3
 62
     0
 10
6202.740004757311
 20
3075.7316662232301
 30
0.0
 11
6572.8257878305103
 21
3075.7316662232301
 31
0.0
  0
LINE
  5
3DA
  8
3
 62
     0
 10
6537.8257878305094
 20
4125.7316662232297
 30
0.0
 11
6537.8257878305094
 21
3145.7316662232301
 31
0.0
  0
INSERT
  5
3DB
  8
3
 62
     0
  2
_OPEN
 10
6537.8257878305094
 20
4195.7316662232297
 30
0.0
 41
70.0
 42
70.0
 43
70.0
 50
90.0
  0
INSERT
  5
3DC
  8
3
 62
     0
  2
_OPEN
 10
6537.8257878305094
 20
3075.7316662232301
 30
0.0
 41
70.0
 42
70.0
 43
70.0
 50
270.0
  0
TEXT
  8
3
  40
105
  5
44E
  62
0
  72
0
  71
0
 10
6240.33
 20
3438.06
 30
0.000000
  1
φ1120
  0
POINT
  5
3DE
  8
DEFPOINTS
 62
     0
 10
6185.2400047573092
 20
4195.7316662232297
 30
0.0
  0
POINT
  5
3DF
  8
DEFPOINTS
 62
     0
 10
6185.240004757311
 20
3075.7316662232301
 30
0.0
  0
POINT
  5
3E0
  8
DEFPOINTS
 62
     0
 10
6537.8257878305094
 20
3075.7316662232301
 30
0.0
  0
ENDBLK
  5
3E2
  8
0
  0
BLOCK
  8
0
  2
*D45
 70
     1
 10
0.0
 20
0.0
 30
0.0
  3
*D45
  1

  0
LINE
  5
3E4
  8
3
 62
     0
 10
4270.940004757309
 20
3933.2316662232288
 30
0.0
 11
4270.940004757309
 21
4833.4714673410308
 31
0.0
  0
LINE
  5
3E5
  8
3
 62
     0
 10
5687.9400047573081
 20
4798.4714673410299
 30
0.0
 11
4340.940004757309
 21
4798.4714673410299
 31
0.0
  0
INSERT
  5
3E6
  8
3
 62
     0
  2
_OPEN
 10
5757.9400047573081
 20
4798.4714673410299
 30
0.0
 41
70.0
 42
70.0
 43
70.0
  0
INSERT
  5
3E7
  8
3
 62
     0
  2
_OPEN
 10
4270.940004757309
 20
4798.4714673410299
 30
0.0
 41
70.0
 42
70.0
 43
70.0
 50
180.0
  0
TEXT
  8
3
  40
105
  5
44F
  62
0
  72
0
  71
0
 10
4804.44
 20
4787.62
 30
0.000000
  1
MAX
  0
TEXT
  8
3
  40
105
  5
450
  62
0
  72
0
  71
0
 10
4804.44
 20
4651.12
 30
0.000000
  1
1530
  0
POINT
  5
3E9
  8
DEFPOINTS
 62
     0
 10
5757.9400047573081
 20
4688.6092411189848
 30
0.0
  0
POINT
  5
3EA
  8
DEFPOINTS
 62
     0
 10
4270.940004757309
 20
3915.7316662232301
 30
0.0
  0
POINT
  5
3EB
  8
DEFPOINTS
 62
     0
 10
4270.940004757309
 20
4798.4714673410299
 30
0.0
  0
ENDBLK
  5
3ED
  8
0
  0
BLOCK
  8
0
  2
*U46
 70
     1
 10
0.0
 20
0.0
 30
0.0
  3
*U46
  1

  0
TEXT
  5
3EF
  8
3
 62
     0
 10
4864.440004757309
 20
4743.7278690910643
 30
0.0
 40
105.0
  1
MAX
  0
TEXT
  5
3F0
  8
3
 62
     0
 10
4839.440004757309
 20
4568.7278690910643
 30
0.0
 40
105.0
  1
1530
  0
ENDBLK
  5
3F2
  8
0
  0
BLOCK
  8
0
  2
*D47
 70
     1
 10
0.0
 20
0.0
 30
0.0
  3
*D47
  1

  0
LINE
  5
3F4
  8
3
 62
     0
 10
5757.9400047573081
 20
4706.1092411189848
 30
0.0
 11
5757.9400047573081
 21
4833.4714673410308
 31
0.0
  0
LINE
  5
3F5
  8
3
 62
     0
 10
6193.2400047573092
 20
4413.2316662232297
 30
0.0
 11
6193.2400047573092
 21
4833.4714673410308
 31
0.0
  0
LINE
  5
3F6
  8
3
 62
     0
 10
5687.9400047573081
 20
4798.4714673410299
 30
0.0
 11
5617.9400047573081
 21
4798.4714673410299
 31
0.0
  0
LINE
  5
3F7
  8
3
 62
     0
 10
6263.2400047573092
 20
4798.4714673410299
 30
0.0
 11
6333.2400047573101
 21
4798.4714673410299
 31
0.0
  0
LINE
  5
3F8
  8
3
 62
     0
 10
5757.9400047573081
 20
4798.4714673410299
 30
0.0
 11
6193.2400047573092
 21
4798.4714673410299
 31
0.0
  0
INSERT
  5
3F9
  8
3
 62
     0
  2
_OPEN
 10
5757.9400047573081
 20
4798.4714673410299
 30
0.0
 41
70.0
 42
70.0
 43
70.0
  0
INSERT
  5
3FA
  8
3
 62
     0
  2
_OPEN
 10
6193.2400047573092
 20
4798.4714673410299
 30
0.0
 41
70.0
 42
70.0
 43
70.0
 50
180.0
  0
TEXT
  8
3
  40
105
  5
451
  62
0
  72
0
  71
0
 10
5765.59
 20
4700.12
 30
0.000000
  1
435
  0
POINT
  5
3FC
  8
DEFPOINTS
 62
     0
 10
5757.9400047573081
 20
4688.6092411189848
 30
0.0
  0
POINT
  5
3FD
  8
DEFPOINTS
 62
     0
 10
6193.2400047573092
 20
4395.7316662232288
 30
0.0
  0
POINT
  5
3FE
  8
DEFPOINTS
 62
     0
 10
6193.2400047573092
 20
4798.4714673410299
 30
0.0
  0
ENDBLK
  5
400
  8
0
  0
BLOCK
  8
0
  2
*D48
 70
     1
 10
0.0
 20
0.0
 30
0.0
  3
*D48
  1

  0
LINE
  5
402
  8
3
 62
     0
 10
5332.9400047573108
 20
4413.2316662232297
 30
0.0
 11
5332.9400047573108
 21
4572.1934174266062
 31
0.0
  0
LINE
  5
403
  8
3
 62
     0
 10
6182.9400047573126
 20
4413.2316662232297
 30
0.0
 11
6182.9400047573126
 21
4572.1934174266062
 31
0.0
  0
LINE
  5
404
  8
3
 62
     0
 10
5402.9400047573108
 20
4537.1934174266062
 30
0.0
 11
6112.9400047573117
 21
4537.1934174266062
 31
0.0
  0
INSERT
  5
405
  8
3
 62
     0
  2
_OPEN
 10
5332.9400047573108
 20
4537.1934174266062
 30
0.0
 41
70.0
 42
70.0
 43
70.0
 50
180.0
  0
INSERT
  5
406
  8
3
 62
     0
  2
_OPEN
 10
6182.9400047573126
 20
4537.1934174266062
 30
0.0
 41
70.0
 42
70.0
 43
70.0
  0
TEXT
  8
3
  40
105
  5
452
  62
0
  72
0
  71
0
 10
5550.71
 20
4438.84
 30
0.000000
  1
850
  0
POINT
  5
408
  8
DEFPOINTS
 62
     0
 10
5332.9400047573108
 20
4395.7316662232288
 30
0.0
  0
POINT
  5
409
  8
DEFPOINTS
 62
     0
 10
6182.9400047573126
 20
4395.7316662232288
 30
0.0
  0
POINT
  5
40A
  8
DEFPOINTS
 62
     0
 10
6182.9400047573126
 20
4537.1934174266062
 30
0.0
  0
ENDBLK
  5
40C
  8
0
  0
BLOCK
  8
0
  2
*D49
 70
     1
 10
0.0
 20
0.0
 30
0.0
  3
*D49
  1

  0
LINE
  5
40E
  8
3
 62
     0
 10
1503.619702619389
 20
7701.2675927715281
 30
0.0
 11
1503.619702619389
 21
7949.311000374676
 31
0.0
  0
LINE
  5
40F
  8
3
 62
     0
 10
2753.619702619389
 20
7914.311000374677
 30
0.0
 11
1573.619702619389
 21
7914.311000374677
 31
0.0
  0
INSERT
  5
410
  8
3
 62
     0
  2
_OPEN
 10
2823.619702619389
 20
7914.311000374677
 30
0.0
 41
70.0
 42
70.0
 43
70.0
  0
INSERT
  5
411
  8
3
 62
     0
  2
_OPEN
 10
1503.619702619389
 20
7914.311000374677
 30
0.0
 41
70.0
 42
70.0
 43
70.0
 50
180.0
  0
TEXT
  8
3
  40
105
  5
453
  62
0
  72
0
  71
0
 10
1953.62
 20
7815.96
 30
0.000000
  1
1320
  0
POINT
  5
413
  8
DEFPOINTS
 62
     0
 10
2823.619702619389
 20
7683.7675927715281
 30
0.0
  0
POINT
  5
414
  8
DEFPOINTS
 62
     0
 10
1503.619702619389
 20
7683.7675927715281
 30
0.0
  0
POINT
  5
415
  8
DEFPOINTS
 62
     0
 10
1503.619702619389
 20
7914.311000374677
 30
0.0
  0
ENDBLK
  5
417
  8
0
  0
ENDSEC
  0
SECTION
  2
ENTITIES
  0
LINE
  5
1E
  8
4
 10
7350.0
 20
10325.0
 30
0.0
 11
7350.0
 21
0.0
 31
0.0
  0
DIMENSION
  5
20
  8
3
  2
*D27
 10
2823.619702619389
 20
7914.311000374677
 30
0.0
 11
3043.619702619389
 21
7914.311000374677
 31
0.0
 70
   128
 13
3263.61970261939
 23
6758.7675927715263
 33
0.0
 14
2823.619702619389
 24
7683.7675927715281
 34
0.0
1001
ACAD
1000
DSTYLE
1002
{
1070
   287
1070
     3
1070
    40
1040
35.0
1070
   143
1040
0.039
1070
   172
1070
     1
1070
   271
1070
     0
1070
   279
1070
     0
1070
   288
1070
     1
1002
}
  0
LINE
  5
36
  8
1
 10
3414.619702619389
 20
6710.7675927715281
 30
0.0
 11
3414.619702619389
 21
7666.7675927715272
 31
0.0
  0
LINE
  5
38
  8
1
 10
3364.619702619389
 20
6763.7675927715281
 30
0.0
 11
3364.619702619389
 21
7613.7675927715318
 31
0.0
  0
LINE
  5
39
  8
1
 10
2211.619702619389
 20
6763.7675927715291
 30
0.0
 11
2211.619702619389
 21
7613.7675927715281
 31
0.0
  0
LINE
  5
3A
  8
1
 10
2158.619702619389
 20
6710.7675927715281
 30
0.0
 11
2158.619702619389
 21
7666.7675927715027
 31
0.0
  0
LINE
  5
3B
  8
2
 10
2163.619702619389
 20
5622.0116577251356
 30
0.0
 11
2163.619702619389
 21
7720.9774112505047
 31
0.0
  0
LINE
  5
3E
  8
1
 10
2211.619702619389
 20
7613.7675927715272
 30
0.0
 11
3364.619702619389
 21
6763.7675927715281
 31
0.0
  0
LINE
  5
3F
  8
1
 10
3364.619702619389
 20
7613.7675927715318
 30
0.0
 11
2211.619702619389
 21
6763.7675927715281
 31
0.0
  0
LINE
  5
40
  8
1
 10
1358.619702619389
 20
6763.7675927715281
 30
0.0
 11
1358.619702619389
 21
7616.067592771532
 31
0.0
  0
DIMENSION
  5
41
  8
3
  2
*D28
 10
876.3102842083108
 20
6693.7675927715281
 30
0.0
 11
876.31028420830978
 21
7190.8552420415108
 31
0.0
 70
   128
 13
1503.619702619389
 23
7683.7675927715281
 33
0.0
 14
1503.619702619389
 24
6693.7675927715281
 34
0.0
 50
270.0
1001
ACAD
1000
DSTYLE
1002
{
1070
   287
1070
     3
1070
    40
1040
35.0
1070
   143
1040
0.039
1070
   172
1070
     1
1070
   271
1070
     0
1070
   279
1070
     0
1070
   288
1070
     1
1002
}
  0
LINE
  5
4E
  8
4
 10
0.0
 20
0.0
 30
0.0
 11
0.0
 21
10325.0
 31
0.0
  0
DIMENSION
  5
4F
  8
3
  2
*D29
 10
3694.0114834799888
 20
7683.7675927715281
 30
0.0
 11
3606.5114834799879
 21
7221.2675927715281
 31
0.0
 70
     0
 13
3263.61970261939
 23
6758.7675927715263
 33
0.0
 14
2823.619702619389
 24
7683.7675927715281
 34
0.0
 50
270.0
1001
ACAD
1000
DSTYLE
1002
{
1070
   287
1070
     4
1070
    40
1040
35.0
1070
    75
1070
     1
1070
   143
1040
0.039
1070
   172
1070
     1
1070
   271
1070
     0
1070
   279
1070
     1
1070
   288
1070
     1
1002
}
  0
LINE
  5
5B
  8
4
 10
7350.0
 20
0.0
 30
0.0
 11
0.0
 21
0.0
 31
0.0
  0
LINE
  5
5C
  8
4
 10
2275.0
 20
1580.0
 30
0.0
 11
6475.0
 21
1580.0
 31
0.0
  0
LINE
  5
5D
  8
4
 10
2275.0
 20
1230.0
 30
0.0
 11
6475.0
 21
1230.0
 31
0.0
  0
LINE
  5
5E
  8
4
 10
2275.0
 20
880.0
 30
0.0
 11
6475.0
 21
880.0
 31
0.0
  0
DIMENSION
  5
60
  8
3
  2
*D30
 10
3694.0114834799901
 20
6758.7675927715263
 30
0.0
 11
3694.0114834799888
 21
6258.2074768975936
 31
0.0
 70
   128
 13
3263.61970261939
 23
5848.7675927715281
 33
0.0
 14
3263.61970261939
 24
6758.7675927715263
 34
0.0
 50
270.0
1001
ACAD
1000
DSTYLE
1002
{
1070
   287
1070
     3
1070
    40
1040
35.0
1070
   143
1040
0.039
1070
   172
1070
     1
1070
   271
1070
     0
1070
   279
1070
     0
1070
   288
1070
     1
1002
}
  0
LINE
  5
6D
  8
2
 10
3013.619702619389
 20
3298.9300210577348
 30
0.0
 11
3013.6197026193881
 21
2625.7316662232301
 31
0.0
  0
LINE
  5
6E
  8
2
 10
2163.619702619389
 20
2455.7316662232301
 30
0.0
 11
2163.619702619389
 21
4481.5706671219632
 31
0.0
  0
DIMENSION
  5
A1
  8
3
  2
*D31
 10
1503.619702619389
 20
2181.6201966049671
 30
0.0
 11
1833.619702619389
 21
2269.1201966049662
 31
0.0
 70
     0
 13
2163.619702619389
 23
2435.7316662232301
 33
0.0
 14
1503.619702619389
 24
2435.7316662232301
 34
0.0
1001
ACAD
1000
DSTYLE
1002
{
1070
   287
1070
     4
1070
    40
1040
35.0
1070
    75
1070
     1
1070
   143
1040
0.039
1070
   172
1070
     1
1070
   271
1070
     0
1070
   279
1070
     1
1070
   288
1070
     1
1002
}
  0
LINE
  5
B4
  8
4
 10
2275.0
 20
1580.0
 30
0.0
 11
2275.0
 21
880.0
 31
0.0
  0
TEXT
  5
B5
  8
4
 10
2409.7572829641558
 20
1340.4005905331451
 30
0.0
 40
175.0
  1
機器名称
  0
TEXT
  5
B6
  8
4
 10
2401.9033710867911
 20
955.7580485620382
 30
0.0
 40
175.0
  1
機器型番
  0
DIMENSION
  5
B8
  8
3
  2
*D32
 10
2163.619702619389
 20
2181.6201966049671
 30
0.0
 11
2734.020841850921
 21
2181.6201966049671
 31
0.0
 70
   128
 13
3263.6197026193872
 23
2435.7316662232301
 33
0.0
 14
2163.619702619389
 24
2435.7316662232301
 34
0.0
1001
ACAD
1000
DSTYLE
1002
{
1070
   287
1070
     3
1070
    40
1040
35.0
1070
   143
1040
0.039
1070
   172
1070
     1
1070
   271
1070
     0
1070
   279
1070
     0
1070
   288
1070
     1
1002
}
  0
DIMENSION
  5
C6
  8
3
  2
*D33
 10
2163.619702619389
 20
4818.7671582796729
 30
0.0
 11
2824.7134269495359
 21
4818.7671582796729
 31
0.0
 70
   128
 13
3361.619702619389
 23
4413.2316662232297
 33
0.0
 14
2163.619702619389
 24
4481.5706671219632
 34
0.0
1001
ACAD
1000
DSTYLE
1002
{
1070
   287
1070
     3
1070
    40
1040
35.0
1070
   143
1040
0.039
1070
   172
1070
     1
1070
   271
1070
     0
1070
   279
1070
     0
1070
   288
1070
     1
1002
}
  0
DIMENSION
  5
D3
  8
3
  2
*D34
 10
1358.619702619389
 20
5001.7617842140708
 30
0.0
 11
2333.9607810295929
 21
5001.7617842140708
 31
0.0
 70
   128
 13
3414.619702619389
 23
4395.7316662232288
 33
0.0
 14
1358.619702619389
 24
4818.7671582796729
 34
0.0
1001
ACAD
1000
DSTYLE
1002
{
1070
   287
1070
     3
1070
    40
1040
35.0
1070
   143
1040
0.039
1070
   172
1070
     1
1070
   271
1070
     0
1070
   279
1070
     0
1070
   288
1070
     1
1002
}
  0
DIMENSION
  5
E0
  8
3
  2
*D35
 10
1358.619702619389
 20
4818.7671582796729
 30
0.0
 11
1761.119702619389
 21
4906.267158279672
 31
0.0
 70
     0
 13
2163.619702619389
 23
4481.5706671219632
 33
0.0
 14
1358.619702619389
 24
3553.7316662232301
 34
0.0
1001
ACAD
1000
DSTYLE
1002
{
1070
   287
1070
     4
1070
    40
1040
35.0
1070
    75
1070
     1
1070
   143
1040
0.039
1070
   172
1070
     1
1070
   271
1070
     0
1070
   279
1070
     1
1070
   288
1070
     1
1002
}
  0
ARC
  5
ED
  8
1
 10
2163.619702619389
 20
3635.7316662232311
 30
0.0
 40
280.0
 50
50.413033771186441
 51
236.93331432457299
  0
CIRCLE
  5
EE
  8
1
 10
2163.619702619389
 20
3635.7316662232311
 30
0.0
 40
203.19999999999999
  0
LINE
  5
EF
  8
1
 10
2010.8475637540789
 20
3401.081557366409
 30
0.0
 11
2893.5844506537878
 21
2826.3637235500132
 31
0.0
  0
LINE
  5
F0
  8
1
 10
2056.8593106543881
 20
3462.8373091508279
 30
0.0
 11
2951.6230183090051
 21
2910.3304155611072
 31
0.0
  0
LINE
  5
F1
  8
1
 10
1503.619702619389
 20
2750.7316662232301
 30
0.0
 11
3273.6197026193881
 21
2750.7316662232301
 31
0.0
  0
LINE
  5
F2
  8
1
 10
1503.619702619389
 20
2625.7316662232301
 30
0.0
 11
3263.6197026193872
 21
2625.7316662232301
 31
0.0
1001
ACAD
1000
ASC_BOUNDS
1002
{
1070
    19
1005
0
1005
0
1002
}
  0
DIMENSION
  5
F3
  8
3
  2
*D36
 10
988.18856836920224
 20
3635.7316662232311
 30
0.0
 11
988.18856836920168
 21
3997.5438674597858
 31
0.0
 70
   128
 13
2158.619702619389
 23
4395.7316662232288
 33
0.0
 14
1256.839051166412
 24
3635.7316662232311
 34
0.0
 50
270.0
1001
ACAD
1000
DSTYLE
1002
{
1070
   287
1070
     3
1070
    40
1040
35.0
1070
   143
1040
0.039
1070
   172
1070
     1
1070
   271
1070
     0
1070
   279
1070
     0
1070
   288
1070
     1
1002
}
  0
ARC
  5
100
  8
1
 10
2095.119702619389
 20
3567.2316662232301
 30
0.0
 40
736.5
 50
84.663351678616479
 51
174.66335167861649
  0
LINE
  5
101
  8
2
 10
1256.839051166412
 20
3635.7316662232311
 30
0.0
 11
3414.7684854579652
 21
3635.7316662232311
 31
0.0
  0
DIMENSION
  5
102
  8
3
  2
*D37
 10
988.18856836920168
 20
2625.7316662232311
 30
0.0
 11
900.68856836920133
 21
3130.7316662232311
 31
0.0
 70
     0
 13
1256.839051166412
 23
3635.7316662232311
 33
0.0
 14
1503.619702619389
 24
2625.7316662232301
 34
0.0
 50
270.0
1001
ACAD
1000
DSTYLE
1002
{
1070
   287
1070
     4
1070
    40
1040
35.0
1070
    75
1070
     1
1070
   143
1040
0.039
1070
   172
1070
     1
1070
   271
1070
     0
1070
   279
1070
     1
1070
   288
1070
     1
1002
}
  0
ARC
  5
10E
  8
1
 10
2245.619702619389
 20
3553.7316662232301
 30
0.0
 40
887.0
 50
174.69563479220409
 51
237.82360090767139
  0
POINT
  5
111
  8
1
 10
1503.619702619389
 20
2750.7316662232301
 30
0.0
  0
POINT
  5
112
  8
1
 10
1503.619702619389
 20
2750.7316662232301
 30
0.0
  0
POINT
  5
113
  8
1
 10
1503.619702619389
 20
2625.7316662232301
 30
0.0
  0
POINT
  5
114
  8
1
 10
1503.619702619389
 20
2625.7316662232301
 30
0.0
  0
LINE
  5
115
  8
1
 10
1503.619702619389
 20
2750.7316662232301
 30
0.0
 11
1503.619702619389
 21
2625.7316662232301
 31
0.0
  0
LINE
  5
116
  8
1
 10
1763.619702619389
 20
2625.7316662232301
 30
0.0
 11
1763.619702619389
 21
2750.7316662232301
 31
0.0
  0
LINE
  5
118
  8
1
 10
3361.619702619389
 20
4395.7316662232288
 30
0.0
 11
3293.4159614407322
 21
3635.7316662232311
 31
0.0
  0
LINE
  5
119
  8
1
 10
2296.8205105304869
 20
3789.184540982325
 30
0.0
 11
3090.9705654811492
 21
3099.843079715225
 31
0.0
  0
LINE
  5
11A
  8
1
 10
2342.0493372735818
 20
3851.5159693529331
 30
0.0
 11
3153.8144155619698
 21
3180.2764758251392
 31
0.0
  0
LINE
  5
11C
  8
1
 10
2769.5574465712989
 20
2810.7316662232301
 30
0.0
 11
2943.619702619389
 21
2810.7316662232301
 31
0.0
  0
LINE
  5
11D
  8
2
 10
2751.836396683786
 20
3010.7316662232311
 30
0.0
 11
3318.4827405147089
 21
3010.7316662232311
 31
0.0
  0
LINE
  5
120
  8
1
 10
2753.6197026193881
 20
2750.7316662232301
 30
0.0
 11
2769.5574465712989
 21
2810.7316662232301
 31
0.0
  0
ARC
  5
122
  8
1
 10
3013.619702619389
 20
3010.7316662232311
 30
0.0
 40
220.0
 50
236.93331432457299
 51
50.41303377118647
  0
ARC
  5
123
  8
1
 10
3013.619702619389
 20
3010.7316662232311
 30
0.0
 40
203.5
 50
285.60376000000002
 51
254.39630099999991
  0
LINE
  5
124
  8
1
 10
3126.119702619389
 20
2830.7316662232311
 30
0.0
 11
3199.619702619389
 21
2830.7316662232311
 31
0.0
  0
LINE
  5
125
  8
1
 10
3083.6197026193872
 20
2810.7316662232301
 30
0.0
 11
3257.6346927130248
 21
2810.7316662232301
 31
0.0
  0
LINE
  5
126
  8
1
 10
2824.61970261939
 20
2885.0583272232302
 30
0.0
 11
2824.61970261939
 21
2810.7316662232301
 31
0.0
  0
LINE
  5
128
  8
1
 10
3068.3577396193882
 20
2814.7316662232301
 30
0.0
 11
2958.8816656193881
 21
2814.7316662232301
 31
0.0
  0
LINE
  5
129
  8
1
 10
2943.619702619389
 20
2800.7316662232301
 30
0.0
 11
3083.6197026193872
 21
2800.7316662232301
 31
0.0
  0
LINE
  5
12A
  8
1
 10
2943.6197026193881
 20
2760.7316662232311
 30
0.0
 11
3083.6197026193872
 21
2760.7316662232311
 31
0.0
  0
LINE
  5
12B
  8
1
 10
2943.6197026193881
 20
2760.7316662232311
 30
0.0
 11
2943.6197026193881
 21
2750.7316662232301
 31
0.0
  0
LINE
  5
12C
  8
1
 10
2943.6197026193881
 20
2810.7316662232301
 30
0.0
 11
2943.6197026193881
 21
2800.7316662232301
 31
0.0
  0
ARC
  5
12D
  8
1
 10
2901.119702619389
 20
2827.7316662232301
 30
0.0
 40
3.0
 50
0.0
 51
90.0
  0
LINE
  5
12E
  8
1
 10
2904.119702619389
 20
2827.7316662232301
 30
0.0
 11
2904.119702619389
 21
2810.7316662232301
 31
0.0
  0
LINE
  5
12F
  8
1
 10
2909.5171326193881
 20
2835.874855223231
 30
0.0
 11
2904.119702619389
 21
2815.7316662232301
 31
0.0
  0
LINE
  5
130
  8
1
 10
2854.619702619389
 20
2835.1554942232301
 30
0.0
 11
2854.619702619389
 21
2806.039772223231
 31
0.0
  0
LINE
  5
131
  8
1
 10
2863.869702619389
 20
2830.7316662232311
 30
0.0
 11
2863.869702619389
 21
2810.7316662232301
 31
0.0
  0
LINE
  5
132
  8
1
 10
2845.36970261939
 20
2830.7316662232311
 30
0.0
 11
2845.36970261939
 21
2810.7316662232301
 31
0.0
  0
ARC
  5
133
  8
1
 10
2827.619702619389
 20
2827.7316662232301
 30
0.0
 40
3.0
 50
90.0
 51
180.0
  0
LINE
  5
134
  8
1
 10
2901.119702619389
 20
2830.7316662232311
 30
0.0
 11
2827.619702619389
 21
2830.7316662232311
 31
0.0
  0
LINE
  5
136
  8
1
 10
2854.619702619389
 20
2757.3731722548491
 30
0.0
 11
2854.619702619389
 21
2728.2574502548491
 31
0.0
  0
ARC
  5
137
  8
1
 10
3126.119702619389
 20
2827.7316662232301
 30
0.0
 40
3.0
 50
90.0
 51
180.0
  0
LINE
  5
138
  8
1
 10
3123.119702619389
 20
2827.7316662232301
 30
0.0
 11
3123.119702619389
 21
2810.7316662232301
 31
0.0
  0
LINE
  5
139
  8
1
 10
3117.7224856193902
 20
2835.87497722323
 30
0.0
 11
3123.119702619389
 21
2815.7316662232301
 31
0.0
  0
LINE
  5
13A
  8
1
 10
3163.369702619389
 20
2830.7316662232311
 30
0.0
 11
3163.369702619389
 21
2810.7316662232301
 31
0.0
  0
LINE
  5
13B
  8
1
 10
3083.6197026193872
 20
2760.7316662232311
 30
0.0
 11
3083.619702619389
 21
2750.7316662232301
 31
0.0
  0
LINE
  5
13C
  8
1
 10
3083.6197026193872
 20
2810.7316662232301
 30
0.0
 11
3083.6197026193872
 21
2800.7316662232301
 31
0.0
  0
CIRCLE
  5
13D
  8
1
 10
3013.619702619389
 20
3010.7316662232311
 30
0.0
 40
118.0
  0
LINE
  5
13E
  8
1
 10
2826.75593261939
 20
2889.1569592232299
 30
0.0
 11
2842.693798619388
 21
2900.2934342232311
 31
0.0
  0
ARC
  5
13F
  8
1
 10
2829.619702619389
 20
2885.0583272232302
 30
0.0
 40
5.0000669999999987
 50
124.943665
 51
180.0
  0
LINE
  5
140
  8
1
 10
3202.61970261939
 20
2885.0583272232302
 30
0.0
 11
3202.61970261939
 21
2810.7316662232301
 31
0.0
  0
LINE
  5
141
  8
1
 10
3273.6197026193881
 20
2750.7316662232301
 30
0.0
 11
3257.6346927130248
 21
2810.7316662232301
 31
0.0
  0
ARC
  5
142
  8
1
 10
3199.619702619389
 20
2827.7316662232301
 30
0.0
 40
3.0
 50
0.0
 51
90.0
  0
LINE
  5
143
  8
1
 10
3172.619702619389
 20
2835.1554942232301
 30
0.0
 11
3172.619702619389
 21
2806.039772223231
 31
0.0
  0
LINE
  5
144
  8
1
 10
3181.869702619389
 20
2830.7316662232311
 30
0.0
 11
3181.869702619389
 21
2810.7316662232301
 31
0.0
  0
LINE
  5
145
  8
1
 10
3263.6197026193872
 20
2750.7316662232301
 30
0.0
 11
3263.6197026193872
 21
2625.7316662232301
 31
0.0
  0
LINE
  5
146
  8
1
 10
3172.619702619389
 20
2757.3731722548491
 30
0.0
 11
3172.619702619389
 21
2728.2574502548491
 31
0.0
  0
ARC
  5
147
  8
1
 10
3197.619702619389
 20
2885.0583272232302
 30
0.0
 40
5.0
 50
0.0
 51
55.05633899999998
  0
LINE
  5
148
  8
1
 10
3200.4835936193881
 20
2889.1569592232299
 30
0.0
 11
3184.5457276193879
 21
2900.2934342232311
 31
0.0
  0
ARC
  5
149
  8
1
 10
2245.619702619389
 20
3717.7316662232301
 30
0.0
 40
1051.0
 50
293.06278760000362
 51
303.42904647931749
  0
DIMENSION
  5
14A
  8
3
  2
*D38
 10
2211.619702619389
 20
4586.5591929576403
 30
0.0
 11
2813.376848645566
 21
4586.5591929576403
 31
0.0
 70
   128
 13
3361.619702619389
 23
4395.7316662232288
 33
0.0
 14
2211.619702619389
 24
4395.7316662232288
 34
0.0
1001
ACAD
1000
DSTYLE
1002
{
1070
   287
1070
     3
1070
    40
1040
35.0
1070
   143
1040
0.039
1070
   172
1070
     1
1070
   271
1070
     0
1070
   279
1070
     0
1070
   288
1070
     1
1002
}
  0
LINE
  5
157
  8
1
 10
2158.619702619389
 20
4391.7316662232288
 30
0.0
 11
3414.619702619389
 21
4391.7316662232288
 31
0.0
  0
LINE
  5
158
  8
1
 10
2158.619702619389
 20
4345.7316662232288
 30
0.0
 11
3414.619702619389
 21
4345.7316662232288
 31
0.0
  0
LINE
  5
159
  8
1
 10
2158.619702619389
 20
4395.7316662232288
 30
0.0
 11
3414.619702619389
 21
4395.7316662232288
 31
0.0
  0
POINT
  5
15A
  8
1
 10
2163.619702619389
 20
4436.9332287218504
 30
0.0
  0
ARC
  5
15B
  8
1
 10
2095.119702619389
 20
3704.2316662232311
 30
0.0
 40
599.5
 50
78.794494631446398
 51
83.438946457166523
  0
LINE
  5
15C
  8
1
 10
2211.619702619389
 20
4395.7316662232288
 30
0.0
 11
2211.619702619389
 21
4292.3030904567167
 31
0.0
  0
LINE
  5
15D
  8
1
 10
2158.619702619389
 20
4395.7316662232288
 30
0.0
 11
2158.619702619389
 21
4345.7316662232288
 31
0.0
  0
LINE
  5
15E
  8
1
 10
3414.619702619389
 20
4395.7316662232288
 30
0.0
 11
3414.619702619389
 21
4345.7316662232288
 31
0.0
  0
LINE
  5
15F
  8
1
 10
2123.619702619389
 20
6665.7675927715291
 30
0.0
 11
1908.619702619389
 21
6665.7675927715272
 31
0.0
  0
LINE
  5
160
  8
1
 10
1908.619702619389
 20
5911.7675927715281
 30
0.0
 11
2123.6197026193872
 21
5911.7675927715281
 31
0.0
  0
DIMENSION
  5
161
  8
3
  2
*D39
 10
3263.61970261939
 20
5386.5740510801079
 30
0.0
 11
2513.619702619389
 21
5474.0740510801079
 31
0.0
 70
     0
 13
1763.619702619389
 23
5848.7675927715281
 33
0.0
 14
3263.61970261939
 24
5848.7675927715281
 34
0.0
1001
ACAD
1000
DSTYLE
1002
{
1070
   287
1070
     4
1070
    40
1040
35.0
1070
    75
1070
     1
1070
   143
1040
0.039
1070
   172
1070
     1
1070
   271
1070
     0
1070
   279
1070
     1
1070
   288
1070
     1
1002
}
  0
LINE
  5
16D
  8
1
 10
1960.4197026193899
 20
5758.7675927715236
 30
0.0
 11
3132.619702619389
 21
5758.7675927715354
 31
0.0
  0
LINE
  5
16E
  8
1
 10
1960.4197026193881
 20
5868.7675927715254
 30
0.0
 11
3132.619702619389
 21
5868.7675927715354
 31
0.0
  0
LINE
  5
16F
  8
1
 10
1883.619702619389
 20
5901.7675927715281
 30
0.0
 11
3233.619702619389
 21
5901.7675927715281
 31
0.0
  0
LINE
  5
170
  8
1
 10
1883.619702619389
 20
5701.7675927715281
 30
0.0
 11
3233.619702619389
 21
5701.7675927715281
 31
0.0
  0
LINE
  5
171
  8
1
 10
1763.619702619389
 20
5848.7675927715281
 30
0.0
 11
3263.61970261939
 21
5848.7675927715281
 31
0.0
  0
LINE
  5
172
  8
1
 10
1358.619702619389
 20
6763.7675927715281
 30
0.0
 11
3364.619702619389
 21
6763.7675927715281
 31
0.0
  0
LINE
  5
173
  8
1
 10
1883.619702619389
 20
5701.7675927715281
 30
0.0
 11
1883.619702619389
 21
5901.7675927715281
 31
0.0
  0
LINE
  5
174
  8
1
 10
1763.619702619389
 20
6693.7675927715281
 30
0.0
 11
1763.619702619389
 21
5848.7675927715281
 31
0.0
  0
DIMENSION
  5
175
  8
3
  2
*D40
 10
1763.619702619389
 20
5386.5740510801079
 30
0.0
 11
1263.619702619389
 21
5386.5740510801079
 31
0.0
 70
   128
 13
1503.619702619389
 23
6693.7675927715281
 33
0.0
 14
1763.619702619389
 24
5848.7675927715281
 34
0.0
1001
ACAD
1000
DSTYLE
1002
{
1070
   287
1070
     3
1070
    40
1040
35.0
1070
   143
1040
0.039
1070
   172
1070
     1
1070
   271
1070
     0
1070
   279
1070
     0
1070
   288
1070
     1
1002
}
  0
DIMENSION
  5
183
  8
3
  2
*D41
 10
876.31028420830978
 20
5848.7675927715281
 30
0.0
 11
788.81028420830899
 21
6271.2675927715281
 31
0.0
 70
     0
 13
1503.619702619389
 23
6693.7675927715281
 33
0.0
 14
1763.619702619389
 24
5848.7675927715281
 34
0.0
 50
270.0
1001
ACAD
1000
DSTYLE
1002
{
1070
   287
1070
     4
1070
    40
1040
35.0
1070
    75
1070
     1
1070
   143
1040
0.039
1070
   172
1070
     1
1070
   271
1070
     0
1070
   279
1070
     1
1070
   288
1070
     1
1002
}
  0
LINE
  5
18F
  8
1
 10
1960.4197026193881
 20
5758.7675927715281
 30
0.0
 11
1960.4197026193881
 21
5868.7675927715254
 31
0.0
  0
POINT
  5
190
  8
1
 10
1883.619702619389
 20
5701.7675927715281
 30
0.0
  0
LINE
  5
192
  8
1
 10
1503.6197026193879
 20
6693.7675927715281
 30
0.0
 11
1763.619702619389
 21
6693.7675927715281
 31
0.0
  0
LINE
  5
193
  8
1
 10
1503.619702619389
 20
6763.7675927715291
 30
0.0
 11
1503.619702619389
 21
6693.7675927715281
 31
0.0
  0
LINE
  5
194
  8
1
 10
3233.619702619389
 20
5901.7675927715281
 30
0.0
 11
3233.619702619389
 21
5701.7675927715281
 31
0.0
  0
LINE
  5
195
  8
1
 10
3263.61970261939
 20
6758.7675927715281
 30
0.0
 11
3263.61970261939
 21
5848.7675927715281
 31
0.0
  0
LINE
  5
196
  8
1
 10
3043.6197026193881
 20
5758.7675927715327
 30
0.0
 11
3043.6197026193881
 21
5898.7675927676619
 31
0.0
  0
LINE
  5
197
  8
1
 10
2983.619702619389
 20
5758.7675927715327
 30
0.0
 11
2983.6197026193872
 21
5898.7675927676619
 31
0.0
  0
LINE
  5
198
  8
2
 10
3013.619702619389
 20
6565.6400606813149
 30
0.0
 11
3013.619702619389
 21
5596.3840879366162
 31
0.0
  0
LINE
  5
199
  8
1
 10
2203.619702619389
 20
5868.7675927715281
 30
0.0
 11
2203.619702619389
 21
6710.7675927715281
 31
0.0
  0
LINE
  5
19A
  8
1
 10
2123.619702619389
 20
5868.7675927715281
 30
0.0
 11
2123.619702619389
 21
6763.7675927715281
 31
0.0
  0
LINE
  5
19B
  8
1
 10
2366.819702619388
 20
5758.7675927715318
 30
0.0
 11
2366.819702619388
 21
5868.7675927715281
 31
0.0
  0
POINT
  5
19C
  8
1
 10
2563.619702619389
 20
5848.7675927715281
 30
0.0
  0
LINE
  5
19D
  8
1
 10
2983.619702619389
 20
5758.7675927715327
 30
0.0
 11
3043.619702619389
 21
5758.7675927715327
 31
0.0
  0
LINE
  5
19E
  8
1
 10
2894.619702619389
 20
5868.7675927715318
 30
0.0
 11
2894.619702619389
 21
5758.7675927715318
 31
0.0
  0
LINE
  5
19F
  8
1
 10
3132.619702619389
 20
5868.7675927715318
 30
0.0
 11
3132.619702619389
 21
5758.7675927715318
 31
0.0
  0
LINE
  5
1A0
  8
1
 10
3414.619702619389
 20
6710.7675927715281
 30
0.0
 11
2158.619702619389
 21
6710.7675927715281
 31
0.0
  0
LINE
  5
1A2
  8
1
 10
2203.6197026193872
 20
5911.7675927715281
 30
0.0
 11
2418.619702619389
 21
5911.7675927715281
 31
0.0
  0
LINE
  5
1A3
  8
1
 10
2418.619702619389
 20
6665.7675927715272
 30
0.0
 11
2203.619702619389
 21
6665.7675927715291
 31
0.0
  0
LINE
  5
1A4
  8
1
 10
3213.619702619389
 20
6031.767592772524
 30
0.0
 11
3213.619702619389
 21
6561.2675927725249
 31
0.0
  0
LINE
  5
1A5
  8
1
 10
2813.619702619389
 20
5925.4105116901092
 30
0.0
 11
2813.6197026193909
 21
6561.2675927725231
 31
0.0
  0
LINE
  5
1A6
  8
1
 10
2813.6197026193872
 20
5925.4105116901092
 30
0.0
 11
3213.619702619389
 21
5925.4105116901092
 31
0.0
  0
LINE
  5
1A7
  8
1
 10
3053.0410115652362
 20
5898.7675927676619
 30
0.0
 11
2976.1983936735428
 21
5898.7675927676619
 31
0.0
  0
LINE
  5
1A8
  8
1
 10
3074.337151601987
 20
5903.7675927725249
 30
0.0
 11
2952.902253636792
 21
5903.7675927725249
 31
0.0
  0
LINE
  5
1A9
  8
1
 10
2976.1983936735428
 20
5898.7675927676619
 30
0.0
 11
2976.1983936735428
 21
5903.7675927725249
 31
0.0
  0
LINE
  5
1AA
  8
1
 10
2952.902253636792
 20
5925.4105116901092
 30
0.0
 11
2952.902253636792
 21
5903.7675927725249
 31
0.0
  0
LINE
  5
1AB
  8
1
 10
3053.0410115652362
 20
5898.7675927676619
 30
0.0
 11
3053.0410115652339
 21
5903.7675927725249
 31
0.0
  0
LINE
  5
1AC
  8
1
 10
3074.337151601987
 20
5925.4105116901092
 30
0.0
 11
3074.337151601987
 21
5903.7675927725249
 31
0.0
  0
LINE
  5
1AD
  8
1
 10
3213.619702619389
 20
5925.4105116901092
 30
0.0
 11
3213.619702619389
 21
6084.2675927725249
 31
0.0
  0
LINE
  5
1AE
  8
1
 10
2823.619702619389
 20
6758.7675927715263
 30
0.0
 11
3263.61970261939
 21
6758.7675927715263
 31
0.0
  0
LINE
  5
1AF
  8
1
 10
3213.619702619389
 20
6561.2675927725249
 30
0.0
 11
2813.6197026193909
 21
6561.2675927725231
 31
0.0
  0
LINE
  5
1B0
  8
1
 10
2823.619702619389
 20
6763.7675927715281
 30
0.0
 11
2823.619702619389
 21
6758.7675927715263
 31
0.0
  0
LINE
  5
1B1
  8
2
 10
5757.9400047573081
 20
4515.7776417648638
 30
0.0
 11
5757.9400047573081
 21
2455.7316662232301
 31
0.0
  0
DIMENSION
  5
1B2
  8
3
  2
*D42
 10
5757.9400047573081
 20
2186.8794238503251
 30
0.0
 11
5055.026162118309
 21
2186.8794238503251
 31
0.0
 70
   128
 13
4417.9400047573081
 23
2435.7316662232301
 33
0.0
 14
5757.9400047573081
 24
2435.7316662232301
 34
0.0
1001
ACAD
1000
DSTYLE
1002
{
1070
   287
1070
     3
1070
    40
1040
35.0
1070
   143
1040
0.039
1070
   172
1070
     1
1070
   271
1070
     0
1070
   279
1070
     0
1070
   288
1070
     1
1002
}
  0
TEXT
  5
1C0
  8
4
 10
4153.2907345491822
 20
940.05854497980181
 30
0.0
 40
175.0
  1
LL#7-1
  0
TEXT
  5
1C1
  8
4
 10
4131.1124678485839
 20
1312.5648553767689
 30
0.0
 40
140.0
  1
ミツヤリミットロ－ﾄﾞファン
  0
LINE
  5
1C4
  8
4
 10
4025.0
 20
1580.0
 30
0.0
 11
4025.0
 21
880.0
 31
0.0
  0
LINE
  5
1C7
  8
4
 10
6475.0
 20
1580.0
 30
0.0
 11
6475.0
 21
880.0
 31
0.0
  0
DIMENSION
  5
1C9
  8
3
  2
*D43
 10
6252.940004757309
 20
2186.8794238503251
 30
0.0
 11
6005.440004757309
 21
2274.3794238503251
 31
0.0
 70
     0
 13
5757.9400047573081
 23
2435.7316662232301
 33
0.0
 14
6252.940004757309
 24
2435.7316662232301
 34
0.0
1001
ACAD
1000
DSTYLE
1002
{
1070
   287
1070
     4
1070
    40
1040
35.0
1070
    75
1070
     1
1070
   143
1040
0.039
1070
   172
1070
     1
1070
   271
1070
     0
1070
   279
1070
     1
1070
   288
1070
     1
1002
}
  0
DIMENSION
  5
1D7
  8
3
  2
*D44
 10
6537.8257878305094
 20
3075.7316662232301
 30
0.0
 11
6537.8257878305094
 21
3623.9063406411078
 31
0.0
 70
   128
 13
6185.2400047573092
 23
4195.7316662232297
 33
0.0
 14
6185.240004757311
 24
3075.7316662232301
 34
0.0
 50
90.0
1001
ACAD
1000
DSTYLE
1002
{
1070
   287
1070
     3
1070
     3
1000
φ<>
1070
    40
1040
35.0
1070
   143
1040
0.039
1070
   172
1070
     1
1070
   271
1070
     0
1070
   279
1070
     0
1070
   288
1070
     1
1002
}
  0
DIMENSION
  5
1E4
  8
3
  2
*D45
 10
4270.940004757309
 20
4798.4714673410299
 30
0.0
 11
5014.440004757309
 21
4973.4714673410308
 31
0.0
 70
     0
  1
MAX\P1530
 13
5757.9400047573081
 23
4688.6092411189848
 33
0.0
 14
4270.940004757309
 24
3915.7316662232301
 34
0.0
1001
ACAD
1000
DSTYLE
1002
{
1070
   287
1070
     4
1070
    40
1040
35.0
1070
    75
1070
     1
1070
   143
1040
0.039
1070
   172
1070
     1
1070
   271
1070
     0
1070
   279
1070
     1
1070
   288
1070
     1
1002
}
  0
DIMENSION
  5
1F0
  8
3
  2
*D47
 10
6193.2400047573092
 20
4798.4714673410299
 30
0.0
 11
5975.5900047573077
 21
4798.4714673410299
 31
0.0
 70
   128
 13
5757.9400047573081
 23
4688.6092411189848
 33
0.0
 14
6193.2400047573092
 24
4395.7316662232288
 34
0.0
1001
ACAD
1000
DSTYLE
1002
{
1070
   287
1070
     3
1070
    40
1040
35.0
1070
   143
1040
0.039
1070
   172
1070
     1
1070
   271
1070
     0
1070
   279
1070
     0
1070
   288
1070
     1
1002
}
  0
LINE
  5
1FF
  8
FUTO
 10
4494.5829236758909
 20
2817.0988484373602
 30
0.0
 11
5130.440004758304
 21
2817.0988484373602
 31
0.0
  0
LINE
  5
201
  8
FUTO
 10
4494.5829236758909
 20
3230.7768163371989
 30
0.0
 11
5130.440004758304
 21
3230.776816337207
 31
0.0
  0
LINE
  5
202
  8
FUTO
 10
4493.4400047583076
 20
2810.7316662231278
 30
0.0
 11
5013.4400047583076
 21
2810.7316662231278
 31
0.0
  0
LINE
  5
203
  8
1
 10
4437.9400047573099
 20
3595.7316662232311
 30
0.0
 11
5332.9400047573099
 21
3595.7316662232311
 31
0.0
  0
LINE
  5
204
  8
1
 10
4437.940004757309
 20
3675.7316662232301
 30
0.0
 11
5332.9400047573099
 21
3675.7316662232301
 31
0.0
  0
LINE
  5
205
  8
1
 10
4480.940004757309
 20
3535.7316662232301
 30
0.0
 11
5234.940004757309
 21
3535.7316662232301
 31
0.0
  0
LINE
  5
206
  8
2
 10
4302.0222093483189
 20
3635.7316662232311
 30
0.0
 11
6290.1498232362846
 21
3635.7316662232311
 31
0.0
  0
LINE
  5
207
  8
1
 10
4417.9400047573081
 20
2625.7316662232301
 30
0.0
 11
6252.9400047573108
 21
2625.7316662232301
 31
0.0
1001
ACAD
1000
ASC_BOUNDS
1002
{
1070
    19
1002
}
  0
LINE
  5
208
  8
1
 10
4417.9400047573081
 20
2750.7316662232301
 30
0.0
 11
6252.940004757309
 21
2750.7316662232301
 31
0.0
  0
LINE
  5
209
  8
1
 10
4270.940004757309
 20
3915.7316662232301
 30
0.0
 11
4270.940004757309
 21
2790.7316662232301
 31
0.0
  0
LINE
  5
20A
  8
1
 10
4470.9400047573081
 20
3915.7316662232301
 30
0.0
 11
4470.9400047573081
 21
2790.7316662232301
 31
0.0
  0
LINE
  5
20B
  8
1
 10
4437.9400047573072
 20
3838.93166622323
 30
0.0
 11
4437.9400047573163
 21
2891.7316662232301
 31
0.0
  0
LINE
  5
20C
  8
1
 10
4327.9400047573072
 20
3838.93166622323
 30
0.0
 11
4327.9400047573163
 21
2891.7316662232301
 31
0.0
  0
LINE
  5
20D
  8
1
 10
4470.9400047573081
 20
2790.7316662232301
 30
0.0
 11
4270.940004757309
 21
2790.7316662232301
 31
0.0
  0
LINE
  5
20E
  8
FUTO
 10
4494.5829236758909
 20
3230.7768163371989
 30
0.0
 11
4494.5829236758909
 21
2817.0988484373602
 31
0.0
  0
LINE
  5
20F
  8
1
 10
4480.940004757309
 20
3535.7316662232301
 30
0.0
 11
4480.940004757309
 21
2750.7316662232301
 31
0.0
  0
LINE
  5
211
  8
1
 10
4417.9400047573081
 20
2750.7316662232301
 30
0.0
 11
4417.9400047573081
 21
2625.7316662232301
 31
0.0
  0
LINE
  5
212
  8
FUTO
 10
4493.4400047583076
 20
2750.7316662231292
 30
0.0
 11
4493.440004758304
 21
2810.7316662231278
 31
0.0
  0
LINE
  5
213
  8
FUTO
 10
4327.9400047573154
 20
2980.7316662231301
 30
0.0
 11
4467.9400047534427
 21
2980.7316662231301
 31
0.0
  0
LINE
  5
214
  8
FUTO
 10
4327.9400047573154
 20
3040.7316662231292
 30
0.0
 11
4467.9400047534427
 21
3040.7316662231301
 31
0.0
  0
LINE
  5
215
  8
FUTO
 10
4327.9400047573154
 20
3040.7316662231292
 30
0.0
 11
4327.9400047573154
 21
2980.7316662231278
 31
0.0
  0
LINE
  5
216
  8
1
 10
4437.9400047573135
 20
2891.7316662232301
 30
0.0
 11
4327.9400047573154
 21
2891.7316662232301
 31
0.0
  0
LINE
  5
217
  8
1
 10
4437.9400047573117
 20
3129.7316662232301
 30
0.0
 11
4327.9400047573117
 21
3129.7316662232301
 31
0.0
  0
LINE
  5
218
  8
2
 10
5163.2655049559826
 20
3010.7316662232301
 30
0.0
 11
4302.4444802595908
 21
3010.7316662232311
 31
0.0
  0
LINE
  5
219
  8
FUTO
 10
4467.9400047534427
 20
3048.1529751689741
 30
0.0
 11
4472.9400047583067
 21
3048.1529751689741
 31
0.0
  0
LINE
  5
21A
  8
FUTO
 10
4494.5829236758909
 20
3071.449115205728
 30
0.0
 11
4472.9400047583067
 21
3071.449115205728
 31
0.0
  0
LINE
  5
21B
  8
FUTO
 10
4494.5829236758909
 20
2950.0142172405308
 30
0.0
 11
4472.9400047583067
 21
2950.0142172405308
 31
0.0
  0
LINE
  5
21C
  8
FUTO
 10
4467.9400047534427
 20
2971.310357277282
 30
0.0
 11
4472.9400047583067
 21
2971.3103572772839
 31
0.0
  0
LINE
  5
21D
  8
FUTO
 10
4472.9400047583067
 20
2950.0142172405308
 30
0.0
 11
4472.9400047583067
 21
3071.449115205728
 31
0.0
  0
LINE
  5
21E
  8
FUTO
 10
4467.9400047534427
 20
2971.310357277282
 30
0.0
 11
4467.9400047534427
 21
3048.1529751689741
 31
0.0
  0
LINE
  5
21F
  8
FUTO
 10
4853.4400047583076
 20
2810.7316662231278
 30
0.0
 11
4933.440004758304
 21
2810.7316662231278
 31
0.0
  0
LINE
  5
220
  8
1
 10
4327.9400047573117
 20
3432.5316662232308
 30
0.0
 11
4437.9400047573108
 21
3432.5316662232308
 31
0.0
  0
LINE
  5
221
  8
1
 10
4270.940004757309
 20
3915.7316662232301
 30
0.0
 11
4470.9400047573081
 21
3915.7316662232301
 31
0.0
  0
POINT
  5
222
  8
1
 10
4270.940004757309
 20
3915.7316662232301
 30
0.0
  0
LINE
  5
223
  8
1
 10
4327.940004757309
 20
3838.93166622323
 30
0.0
 11
4437.9400047573072
 21
3838.93166622323
 31
0.0
  0
LINE
  5
224
  8
1
 10
6182.9400047573063
 20
2750.7316662232301
 30
0.0
 11
6182.9400047573126
 21
4395.7316662232288
 31
0.0
  0
LINE
  5
225
  8
1
 10
5332.9400047573099
 20
2750.7316662232301
 30
0.0
 11
5332.9400047573108
 21
4395.7316662232288
 31
0.0
  0
LINE
  5
226
  8
1
 10
5330.6400047573088
 20
2750.7316662232301
 30
0.0
 11
5330.6400047573088
 21
4395.7316662232288
 31
0.0
  0
LINE
  5
227
  8
FUTO
 10
5130.440004758304
 20
2817.0988484373602
 30
0.0
 11
5130.440004758304
 21
3230.776816337207
 31
0.0
  0
LINE
  5
228
  8
1
 10
5234.940004757309
 20
3535.7316662232301
 30
0.0
 11
5234.9400047573072
 21
2750.7316662232301
 31
0.0
  0
LINE
  5
229
  8
FUTO
 10
5013.4400047583076
 20
2750.7316662231292
 30
0.0
 11
5013.440004758304
 21
2810.7316662231278
 31
0.0
  0
LINE
  5
22B
  8
1
 10
6252.940004757309
 20
2750.7316662232301
 30
0.0
 11
6252.940004757309
 21
2745.5006504295202
 31
0.0
  0
LINE
  5
22C
  8
1
 10
6252.9400047573108
 20
2750.7316662232301
 30
0.0
 11
6252.940004757309
 21
2625.7316662232301
 31
0.0
  0
DIMENSION
  5
22D
  8
3
  2
*D48
 10
6182.9400047573126
 20
4537.1934174266062
 30
0.0
 11
5760.7077326111694
 21
4537.1934174266062
 31
0.0
 70
   128
 13
5332.9400047573108
 23
4395.7316662232288
 33
0.0
 14
6182.9400047573126
 24
4395.7316662232288
 34
0.0
1001
ACAD
1000
DSTYLE
1002
{
1070
   287
1070
     3
1070
    40
1040
35.0
1070
   143
1040
0.039
1070
   172
1070
     1
1070
   271
1070
     0
1070
   279
1070
     0
1070
   288
1070
     1
1002
}
  0
LINE
  5
23A
  8
1
 10
5279.940004757309
 20
4391.7316662232288
 30
0.0
 11
6235.940004757309
 21
4391.7316662232288
 31
0.0
  0
LINE
  5
23B
  8
1
 10
5279.940004757309
 20
4345.7316662232306
 30
0.0
 11
6235.9400047573072
 21
4345.7316662232288
 31
0.0
  0
LINE
  5
23C
  8
1
 10
5279.940004757309
 20
4395.7316662232288
 30
0.0
 11
6235.940004757309
 21
4395.7316662232288
 31
0.0
  0
LINE
  5
23D
  8
1
 10
5279.940004757309
 20
4395.7316662232288
 30
0.0
 11
5279.940004757309
 21
4345.7316662232288
 31
0.0
  0
LINE
  5
23E
  8
1
 10
6235.9400047573081
 20
4395.7316662232288
 30
0.0
 11
6235.9400047573072
 21
4345.7316662232288
 31
0.0
  0
LINE
  5
23F
  8
4
 10
0.0
 20
10325.0
 30
0.0
 11
7350.0
 21
10325.0
 31
0.0
  0
LINE
  5
240
  8
4
 10
875.0
 20
9342.9306399268171
 30
0.0
 11
6475.0
 21
9342.9306399268171
 31
0.0
  0
LINE
  5
241
  8
4
 10
875.0
 20
8642.9306399268171
 30
0.0
 11
6475.0
 21
8642.9306399268171
 31
0.0
  0
TEXT
  5
242
  8
4
 10
1004.678023501895
 20
8868.5834166975455
 30
0.0
 40
252.0
  1
遠心式片吸込片持リミットロ－ﾄﾞファン
  0
TEXT
  5
243
  8
4
 10
2697.9708263690191
 20
8342.0009446638051
 30
0.0
 40
188.99999999999989
  1
床置防振ベット
  0
LINE
  5
244
  8
4
 10
875.0
 20
9342.9306399268171
 30
0.0
 11
875.0
 21
8642.9306399268171
 31
0.0
  0
DIMENSION
  5
245
  8
3
  2
*D49
 10
1503.619702619389
 20
7914.311000374677
 30
0.0
 11
2163.619702619389
 21
8001.8110003746779
 31
0.0
 70
     0
 13
2823.619702619389
 23
7683.7675927715281
 33
0.0
 14
1503.619702619389
 24
7683.7675927715281
 34
0.0
1001
ACAD
1000
DSTYLE
1002
{
1070
   287
1070
     4
1070
    40
1040
35.0
1070
    75
1070
     1
1070
   143
1040
0.039
1070
   172
1070
     1
1070
   271
1070
     0
1070
   279
1070
     1
1070
   288
1070
     1
1002
}
  0
LINE
  5
251
  8
1
 10
1503.619702619389
 20
7683.7675927715281
 30
0.0
 11
2823.619702619389
 21
7683.7675927715281
 31
0.0
  0
TEXT
  5
252
  8
4
 10
1172.4649135195609
 20
8338.1181714122031
 30
0.0
 40
188.99999999999989
  1
左回転上向
  0
LINE
  5
253
  8
2
 10
3484.646677610508
 20
7188.7675927715263
 30
0.0
 11
1185.4839351328239
 21
7188.7675927715281
 31
0.0
  0
LINE
  5
254
  8
1
 10
1358.619702619389
 20
7613.7675927715254
 30
0.0
 11
2158.619702619389
 21
7613.7675927715281
 31
0.0
  0
LINE
  5
255
  8
1
 10
1358.619702619389
 20
7616.0675927715283
 30
0.0
 11
2158.619702619389
 21
7616.0675927715283
 31
0.0
  0
LINE
  5
256
  8
1
 10
1503.619702619389
 20
7683.7675927715281
 30
0.0
 11
1503.619702619389
 21
7613.7675927715254
 31
0.0
  0
LINE
  5
257
  8
1
 10
2211.619702619389
 20
7613.7675927715272
 30
0.0
 11
3364.619702619389
 21
7613.7675927715318
 31
0.0
  0
LINE
  5
258
  8
1
 10
3414.619702619389
 20
7666.7675927715272
 30
0.0
 11
2158.619702619389
 21
7666.7675927715054
 31
0.0
  0
LINE
  5
259
  8
1
 10
2823.619702619389
 20
7683.7675927715281
 30
0.0
 11
2823.619702619389
 21
7666.7675927715181
 31
0.0
  0
LINE
  5
25A
  8
4
 10
6475.0
 20
9342.9306399268171
 30
0.0
 11
6475.0
 21
8642.9306399268171
 31
0.0
  0
TEXT
  5
25B
  8
4
 10
4589.5362191000459
 20
8342.0009446638051
 30
0.0
 40
188.99999999999989
  1
縮尺：1/35
  0
LINE
  5
25C
  8
4
 10
6475.0
 20
9384.4225409389055
 30
0.0
 11
5042.160978259526
 21
9384.4225409389055
 31
0.0
  0
LINE
  5
25D
  8
4
 10
5042.160978259526
 20
9753.2829154241354
 30
0.0
 11
6475.0
 21
9753.2829154241354
 31
0.0
  0
LINE
  5
25E
  8
4
 10
5042.160978259526
 20
9384.4225409389055
 30
0.0
 11
5042.160978259526
 21
9753.2829154241354
 31
0.0
  0
TEXT
  5
25F
  8
4
 10
5141.3934573725146
 20
9471.21378523358
 30
0.0
 40
196.0
  1
No.
  0
LINE
  5
260
  8
4
 10
6475.0
 20
9753.2829154241354
 30
0.0
 11
6475.0
 21
9384.4225409389055
 31
0.0
  0
LINE
  5
261
  8
4
 10
7350.0
 20
10325.0
 30
0.0
 11
7350.0
 21
10325.0
 31
0.0
  0
LINE
  5
2AC
  8
1
 10
5262.9400047573045
 20
2750.7316662232301
 30
0.0
 11
5262.9400047573045
 21
2625.7316662232301
 31
0.0
  0
LINE
  5
2AD
  8
1
 10
1908.619702619389
 20
3535.7316662232301
 30
0.0
 11
2418.619702619389
 21
3535.7316662232301
 31
0.0
  0
LINE
  5
2AF
  8
1
 10
1908.619702619389
 20
3535.7316662232301
 30
0.0
 11
1763.619702619389
 21
2750.7316662232301
 31
0.0
  0
LINE
  5
2B0
  8
1
 10
2418.619702619389
 20
3535.7316662232301
 30
0.0
 11
2563.619702619389
 21
2750.7316662232301
 31
0.0
  0
LINE
  5
2B1
  8
1
 10
1908.619702619389
 20
5911.7675927715281
 30
0.0
 11
1908.619702619389
 21
6665.7675927715272
 31
0.0
  0
LINE
  5
2B2
  8
1
 10
2418.619702619389
 20
5911.7675927715281
 30
0.0
 11
2418.619702619389
 21
6665.7675927715272
 31
0.0
  0
LINE
  5
2B6
  8
1
 10
4417.9400047573081
 20
2455.7316662232301
 30
0.0
 11
6252.9400047573108
 21
2455.7316662232301
 31
0.0
1001
ACAD
1000
ASC_BOUNDS
1002
{
1070
    19
1002
}
  0
LINE
  5
2B7
  8
1
 10
4417.9400047573081
 20
2580.7316662232301
 30
0.0
 11
6252.940004757309
 21
2580.7316662232301
 31
0.0
  0
LINE
  5
2B8
  8
1
 10
6252.9400047573108
 20
2580.7316662232301
 30
0.0
 11
6252.940004757309
 21
2455.7316662232301
 31
0.0
  0
LINE
  5
2B9
  8
1
 10
6252.940004757309
 20
2580.7316662232301
 30
0.0
 11
6252.940004757309
 21
2575.5006504295202
 31
0.0
  0
LINE
  5
2BA
  8
1
 10
4417.9400047573081
 20
2580.7316662232301
 30
0.0
 11
4417.9400047573081
 21
2455.7316662232301
 31
0.0
  0
LINE
  5
2BB
  8
1
 10
5262.9400047573045
 20
2580.7316662232301
 30
0.0
 11
5262.9400047573045
 21
2455.7316662232301
 31
0.0
  0
LINE
  5
2BC
  8
1
 10
1503.619702619389
 20
2455.7316662232301
 30
0.0
 11
3263.6197026193872
 21
2455.7316662232301
 31
0.0
1001
ACAD
1000
ASC_BOUNDS
1002
{
1070
    19
1005
0
1005
0
1002
}
  0
LINE
  5
2BD
  8
1
 10
3263.6197026193872
 20
2580.7316662232301
 30
0.0
 11
3263.6197026193872
 21
2455.7316662232301
 31
0.0
  0
LINE
  5
2BE
  8
1
 10
1503.619702619389
 20
2580.7316662232301
 30
0.0
 11
3263.6197026193881
 21
2580.7316662232301
 31
0.0
  0
LINE
  5
2BF
  8
1
 10
1763.619702619389
 20
2455.7316662232301
 30
0.0
 11
1763.619702619389
 21
2580.7316662232301
 31
0.0
  0
LINE
  5
2C0
  8
1
 10
1503.619702619389
 20
2580.7316662232301
 30
0.0
 11
1503.619702619389
 21
2455.7316662232301
 31
0.0
  0
DIMENSION
  5
2CF
  8
3
  2
*D24
 10
985.29556923834014
 20
2455.7316662232311
 30
0.0
 11
897.79556923833979
 21
2155.7316662232311
 31
0.0
 70
     0
 13
1503.619702619389
 23
2580.7316662232301
 33
0.0
 14
1503.619702619389
 24
2455.7316662232301
 34
0.0
 50
90.0
1001
ACAD
1000
DSTYLE
1002
{
1070
   287
1070
     3
1070
    40
1040
35.0
1070
   143
1040
0.039
1070
   172
1070
     1
1070
   271
1070
     0
1070
   279
1070
     0
1070
     6
1000
DOT
1002
}
  0
DIMENSION
  5
2E0
  8
3
  2
*D25
 10
985.94735949861933
 20
2625.7316662232311
 30
0.0
 11
703.44735949861877
 21
2688.4816662232311
 31
0.0
 70
     0
 13
1503.619702619389
 23
2580.7316662232301
 33
0.0
 14
1503.619702619389
 24
2625.7316662232301
 34
0.0
 50
90.0
1001
ACAD
1000
DSTYLE
1002
{
1070
   287
1070
     4
1070
     3
1000
(<>)
1070
    40
1040
35.0
1070
   143
1040
0.039
1070
   172
1070
     1
1070
   271
1070
     0
1070
   279
1070
     1
1070
     6
1000
DOT
1002
}
  0
DIMENSION
  5
2ED
  8
3
  2
*D26
 10
583.11601002850512
 20
2455.7316662232311
 30
0.0
 11
468.11601002850477
 21
3425.7316662232301
 31
0.0
 70
     0
 13
2158.619702619389
 23
4395.7316662232288
 33
0.0
 14
1503.619702619389
 24
2455.7316662232301
 34
0.0
 50
90.0
1001
ACAD
1000
DSTYLE
1002
{
1070
   287
1070
     4
1070
     3
1000
(<>)
1070
    40
1040
35.0
1070
   143
1040
0.039
1070
   172
1070
     1
1070
   271
1070
     0
1070
   279
1070
     1
1002
}
  0
ARC
  5
2F2
  8
1
 10
2245.619702619389
 20
3717.7316662232301
 30
0.0
 40
1051.0
 50
328.51059776811138
 51
355.5251821014661
  0
ENDSEC
  0
EOF
