  0
SECTION
  2
HEADER
  9
$ACADVER
  1
AC1009
  9
$INSBASE
 10
0.0
 20
0.0
 30
0.0
  9
$EXTMIN
 10
0.0
 20
0.0
 30
0.0
  9
$EXTMAX
 10
7350.0
 20
10325.0
 30
0.0
  9
$LIMMIN
 10
0.0
 20
0.0
  9
$LIMMAX
 10
297.0
 20
210.0
  9
$ORTHOMODE
 70
     0
  9
$REGENMODE
 70
     1
  9
$FILLMODE
 70
     0
  9
$QTEXTMODE
 70
     0
  9
$MIRRTEXT
 70
     1
  9
$DRAGMODE
 70
     2
  9
$LTSCALE
 40
100.0
  9
$OSMODE
 70
    37
  9
$ATTMODE
 70
     1
  9
$TEXTSIZE
 40
180.0
  9
$TRACEWID
 40
0.05
  9
$TEXTSTYLE
  7
STANDARD
  9
$CLAYER
  8
3
  9
$CELTYPE
  6
BYLAYER
  9
$CECOLOR
 62
   256
  9
$DIMSCALE
 40
35.0
  9
$DIMASZ
 40
2.0
  9
$DIMEXO
 40
0.5
  9
$DIMDLI
 40
10.0
  9
$DIMRND
 40
0.0
  9
$DIMDLE
 40
0.0
  9
$DIMEXE
 40
1.0
  9
$DIMTP
 40
1.0
  9
$DIMTM
 40
1.0
  9
$DIMTXT
 40
3.0
  9
$DIMCEN
 40
0.0
  9
$DIMTSZ
 40
0.0
  9
$DIMTOL
 70
     0
  9
$DIMLIM
 70
     0
  9
$DIMTIH
 70
     0
  9
$DIMTOH
 70
     0
  9
$DIMSE1
 70
     0
  9
$DIMSE2
 70
     0
  9
$DIMTAD
 70
     1
  9
$DIMZIN
 70
     8
  9
$DIMBLK
  1

  9
$DIMASO
 70
     1
  9
$DIMSHO
 70
     1
  9
$DIMPOST
  1

  9
$DIMAPOST
  1

  9
$DIMALT
 70
     0
  9
$DIMALTD
 70
     2
  9
$DIMALTF
 40
0.039
  9
$DIMLFAC
 40
1.0
  9
$DIMTOFL
 70
     1
  9
$DIMTVP
 40
0.0
  9
$DIMTIX
 70
     0
  9
$DIMSOXD
 70
     0
  9
$DIMSAH
 70
     1
  9
$DIMBLK1
  1
OPEN
  9
$DIMBLK2
  1
OPEN
  9
$DIMSTYLE
  2
IGA
  9
$DIMCLRD
 70
     0
  9
$DIMCLRE
 70
     0
  9
$DIMCLRT
 70
     0
  9
$DIMTFAC
 40
10.0
  9
$DIMGAP
 40
1.0
  9
$LUNITS
 70
     2
  9
$LUPREC
 70
     3
  9
$SKETCHINC
 40
0.1
  9
$FILLETRAD
 40
50.0
  9
$AUNITS
 70
     0
  9
$AUPREC
 70
     0
  9
$MENU
  1
acad
  9
$ELEVATION
 40
0.0
  9
$PELEVATION
 40
0.0
  9
$THICKNESS
 40
0.0
  9
$LIMCHECK
 70
     0
  9
$BLIPMODE
 70
     0
  9
$CHAMFERA
 40
0.5
  9
$CHAMFERB
 40
0.5
  9
$SKPOLY
 70
     0
  9
$TDCREATE
 40
2453167.599160763
  9
$TDUPDATE
 40
2454953.6465026392
  9
$TDINDWG
 40
0.0947161111
  9
$TDUSRTIMER
 40
0.0947161111
  9
$USRTIMER
 70
     1
  9
$ANGBASE
 50
0.0
  9
$ANGDIR
 70
     0
  9
$PDMODE
 70
     0
  9
$PDSIZE
 40
0.0
  9
$PLINEWID
 40
0.0
  9
$COORDS
 70
     1
  9
$SPLFRAME
 70
     0
  9
$SPLINETYPE
 70
     6
  9
$SPLINESEGS
 70
     8
  9
$ATTDIA
 70
     0
  9
$ATTREQ
 70
     1
  9
$HANDLING
 70
 10241
  9
$HANDSEED
  5
7FE2
  9
$SURFTAB1
 70
     6
  9
$SURFTAB2
 70
     6
  9
$SURFTYPE
 70
     6
  9
$SURFU
 70
     6
  9
$SURFV
 70
     6
  9
$UCSNAME
  2

  9
$UCSORG
 10
0.0
 20
0.0
 30
0.0
  9
$UCSXDIR
 10
1.0
 20
0.0
 30
0.0
  9
$UCSYDIR
 10
0.0
 20
1.0
 30
0.0
  9
$PUCSNAME
  2

  9
$PUCSORG
 10
0.0
 20
0.0
 30
0.0
  9
$PUCSXDIR
 10
1.0
 20
0.0
 30
0.0
  9
$PUCSYDIR
 10
0.0
 20
1.0
 30
0.0
  9
$USERI1
 70
     0
  9
$USERI2
 70
     0
  9
$USERI3
 70
     0
  9
$USERI4
 70
     0
  9
$USERI5
 70
     0
  9
$USERR1
 40
0.0
  9
$USERR2
 40
0.0
  9
$USERR3
 40
0.0
  9
$USERR4
 40
0.0
  9
$USERR5
 40
0.0
  9
$WORLDVIEW
 70
     1
  9
$SHADEDGE
 70
     3
  9
$SHADEDIF
 70
    70
  9
$TILEMODE
 70
     1
  9
$MAXACTVP
 70
    16
  9
$PLIMCHECK
 70
     0
  9
$PEXTMIN
 10
1.0000000000000000E+020
 20
1.0000000000000000E+020
 30
1.0000000000000000E+020
  9
$PEXTMAX
 10
-1.0000000000000000E+020
 20
-1.0000000000000000E+020
 30
-1.0000000000000000E+020
  9
$PLIMMIN
 10
0.0
 20
0.0
  9
$PLIMMAX
 10
12.0
 20
9.0
  9
$UNITMODE
 70
     0
  9
$VISRETAIN
 70
     0
  9
$PLINEGEN
 70
     0
  9
$PSLTSCALE
 70
     1
  0
ENDSEC
  0
SECTION
  2
TABLES
  0
TABLE
  2
VPORT
 70
     2
  0
VPORT
  2
*ACTIVE
 70
     0
 10
0.0
 20
0.0
 11
1.0
 21
1.0
 12
7019.2718833772396
 22
1183.772052097456
 13
0.0
 23
0.0
 14
10.0
 24
10.0
 15
10.0
 25
10.0
 16
0.0
 26
0.0
 36
1.0
 17
0.0
 27
0.0
 37
0.0
 40
3142.6791123310909
 41
3.1666666666666661
 42
50.0
 43
0.0
 44
0.0
 50
0.0
 51
0.0
 71
     0
 72
   100
 73
     1
 74
     0
 75
     0
 76
     0
 77
     0
 78
     0
  0
ENDTAB
  0
TABLE
  2
LTYPE
 70
     2
  0
LTYPE
  2
CONTINUOUS
 70
     0
  3
Solid line
 72
    65
 73
     0
 40
0.0
  0
LTYPE
  2
CENTER
 70
     0
  3
____ _ ____ _ ____ _ ____ _ ____ _ ____ _ ____ 
 72
    65
 73
     4
 40
2.0
 49
1.25
 49
-0.25
 49
0.25
 49
-0.25
  0
ENDTAB
  0
TABLE
  2
LAYER
 70
     6
  0
LAYER
  2
0
 70
     0
 62
     7
  6
CONTINUOUS
  0
LAYER
  2
3
 70
     0
 62
     2
  6
CONTINUOUS
  0
LAYER
  2
2
 70
     0
 62
     3
  6
CENTER
  0
LAYER
  2
1
 70
     0
 62
     4
  6
CONTINUOUS
  0
LAYER
  2
4
 70
     0
 62
     7
  6
CONTINUOUS
  0
LAYER
  2
DEFPOINTS
 70
     0
 62
     7
  6
CONTINUOUS
  0
ENDTAB
  0
TABLE
  2
STYLE
 70
     1
  0
STYLE
  2
STANDARD
 70
     0
 40
0.0
 41
1.0
 50
0.0
 71
     0
 42
180.0
  3
simplex.shx
  4
extfont.shx
  0
ENDTAB
  0
TABLE
  2
VIEW
 70
     0
  0
ENDTAB
  0
TABLE
  2
UCS
 70
     0
  0
ENDTAB
  0
TABLE
  2
APPID
 70
     1
  0
APPID
  2
ACAD
 70
     0
  0
ENDTAB
  0
TABLE
  2
DIMSTYLE
 70
     1
  0
DIMSTYLE
  2
IGA
 70
     0
  3

  4

  5

  6
OPEN
  7
OPEN
 40
2.0
 41
2.0
 42
0.5
 43
10.0
 44
1.0
 45
0.0
 46
0.0
 47
1.0
 48
1.0
140
3.0
141
0.0
142
0.0
143
0.03937
144
1.0
145
0.0
146
10.0
147
1.0
 71
     0
 72
     0
 73
     0
 74
     0
 75
     0
 76
     0
 77
     1
 78
     8
170
     0
171
     2
172
     0
173
     1
174
     0
175
     0
176
     0
177
     0
178
     0
  0
ENDTAB
  0
ENDSEC
  0
SECTION
  2
BLOCKS
  0
BLOCK
  8
0
  2
$MODEL_SPACE
 70
     0
 10
0.0
 20
0.0
 30
0.0
  3
$MODEL_SPACE
  1

  0
ENDBLK
  5
1B
  8
0
  0
BLOCK
 67
     1
  8
0
  2
$PAPER_SPACE
 70
     0
 10
0.0
 20
0.0
 30
0.0
  3
$PAPER_SPACE
  1

  0
ENDBLK
  5
18
 67
     1
  8
0
  0
BLOCK
  8
0
  2
YA_N
 70
     0
 10
0.0
 20
0.0
 30
0.0
  3
YA_N
  1

  0
ENDBLK
  5
79FE
  8
0
  0
BLOCK
  8
0
  2
_OPEN
 70
     0
 10
0.0
 20
0.0
 30
0.0
  3
_OPEN
  1

  0
LINE
  5
7B93
  8
0
  6
BYBLOCK
 62
     0
 10
-1.0
 20
0.1666666666666666
 30
0.0
 11
0.0
 21
0.0
 31
0.0
  0
LINE
  5
7B94
  8
0
  6
BYBLOCK
 62
     0
 10
0.0
 20
0.0
 30
0.0
 11
-1.0
 21
-0.1666666666666666
 31
0.0
  0
LINE
  5
7B95
  8
0
  6
BYBLOCK
 62
     0
 10
0.0
 20
0.0
 30
0.0
 11
-1.0
 21
0.0
 31
0.0
  0
ENDBLK
  5
7B96
  8
0
  0
BLOCK
  8
0
  2
*D2
 70
     1
 10
0.0
 20
0.0
 30
0.0
  3
*D2
  1

  0
LINE
  5
7EFA
  8
3
 62
     0
 10
2947.0604735312681
 20
7683.7675927715281
 30
0.0
 11
3591.8698919423491
 21
7683.7675927715281
 31
0.0
  0
LINE
  5
7EFB
  8
3
 62
     0
 10
2947.0604735312681
 20
6693.7675927715281
 30
0.0
 11
3591.8698919423482
 21
6693.7675927715281
 31
0.0
  0
LINE
  5
7EFC
  8
3
 62
     0
 10
3556.8698919423491
 20
7613.7675927715281
 30
0.0
 11
3556.8698919423491
 21
6763.7675927715281
 31
0.0
  0
INSERT
  5
7EFD
  8
3
 62
     0
  2
_OPEN
 10
3556.8698919423491
 20
7683.7675927715281
 30
0.0
 41
70.0
 42
70.0
 43
70.0
 50
90.0
  0
INSERT
  5
7EFE
  8
3
 62
     0
  2
_OPEN
 10
3556.8698919423491
 20
6693.7675927715281
 30
0.0
 41
70.0
 42
70.0
 43
70.0
 50
270.0
  0
TEXT
  8
3
  40
105
  5
7FCA
  62
0
  72
0
  71
0
 10
3259.37
 20
7005.01
 30
0.000000
  1
990
  0
POINT
  5
7F00
  8
DEFPOINTS
 62
     0
 10
2929.5604735312681
 20
7683.7675927715281
 30
0.0
  0
POINT
  5
7F01
  8
DEFPOINTS
 62
     0
 10
2929.5604735312681
 20
6693.7675927715281
 30
0.0
  0
POINT
  5
7F02
  8
DEFPOINTS
 62
     0
 10
3556.8698919423491
 20
6693.7675927715281
 30
0.0
  0
ENDBLK
  5
7BB0
  8
0
  0
BLOCK
  8
0
  2
*D3
 70
     1
 10
0.0
 20
0.0
 30
0.0
  3
*D3
  1

  0
LINE
  5
7F03
  8
3
 62
     0
 10
2687.0604735312681
 20
5848.7675927715281
 30
0.0
 11
3591.8698919423468
 21
5848.7675927715281
 31
0.0
  0
LINE
  5
7F04
  8
3
 62
     0
 10
3556.8698919423468
 20
6623.7675927715281
 30
0.0
 11
3556.8698919423468
 21
5918.7675927715281
 31
0.0
  0
INSERT
  5
7F05
  8
3
 62
     0
  2
_OPEN
 10
3556.8698919423468
 20
6693.7675927715281
 30
0.0
 41
70.0
 42
70.0
 43
70.0
 50
90.0
  0
INSERT
  5
7F06
  8
3
 62
     0
  2
_OPEN
 10
3556.8698919423468
 20
5848.7675927715281
 30
0.0
 41
70.0
 42
70.0
 43
70.0
 50
270.0
  0
TEXT
  8
3
  40
105
  5
7FCB
  62
0
  72
0
  71
0
 10
3259.37
 20
6085.42
 30
0.000000
  1
845
  0
POINT
  5
7F08
  8
DEFPOINTS
 62
     0
 10
2929.5604735312681
 20
6693.7675927715281
 30
0.0
  0
POINT
  5
7F09
  8
DEFPOINTS
 62
     0
 10
2669.5604735312681
 20
5848.7675927715281
 30
0.0
  0
POINT
  5
7F0A
  8
DEFPOINTS
 62
     0
 10
3556.8698919423468
 20
5848.7675927715281
 30
0.0
  0
ENDBLK
  5
7BBE
  8
0
  0
BLOCK
  8
0
  2
*D4
 70
     1
 10
0.0
 20
0.0
 30
0.0
  3
*D4
  1

  0
LINE
  5
7F0B
  8
3
 62
     0
 10
2929.5604735312681
 20
6676.2675927715281
 30
0.0
 11
2929.5604735312681
 21
5351.5740510801079
 31
0.0
  0
LINE
  5
7F0C
  8
3
 62
     0
 10
2669.5604735312681
 20
5831.2675927715281
 30
0.0
 11
2669.5604735312681
 21
5351.5740510801079
 31
0.0
  0
LINE
  5
7F0D
  8
3
 62
     0
 10
2739.5604735312681
 20
5386.5740510801079
 30
0.0
 11
2859.5604735312681
 21
5386.5740510801079
 31
0.0
  0
LINE
  5
7F0E
  8
3
 62
     0
 10
2929.5604735312681
 20
5386.5740510801079
 30
0.0
 11
3339.5604735312681
 21
5386.5740510801079
 31
0.0
  0
INSERT
  5
7F0F
  8
3
 62
     0
  2
_OPEN
 10
2669.5604735312681
 20
5386.5740510801079
 30
0.0
 41
70.0
 42
70.0
 43
70.0
 50
180.0
  0
INSERT
  5
7F10
  8
3
 62
     0
  2
_OPEN
 10
2929.5604735312681
 20
5386.5740510801079
 30
0.0
 41
70.0
 42
70.0
 43
70.0
  0
TEXT
  8
3
  40
105
  5
7FCC
  62
0
  72
0
  71
0
 10
2959.56
 20
5288.22
 30
0.000000
  1
260
  0
POINT
  5
7F12
  8
DEFPOINTS
 62
     0
 10
2929.5604735312681
 20
6693.7675927715281
 30
0.0
  0
POINT
  5
7F13
  8
DEFPOINTS
 62
     0
 10
2669.5604735312681
 20
5848.7675927715281
 30
0.0
  0
POINT
  5
7F14
  8
DEFPOINTS
 62
     0
 10
2669.5604735312681
 20
5386.5740510801079
 30
0.0
  0
ENDBLK
  5
7C30
  8
0
  0
BLOCK
  8
0
  2
*D5
 70
     1
 10
0.0
 20
0.0
 30
0.0
  3
*D5
  1

  0
LINE
  5
7F15
  8
3
 62
     0
 10
1169.5604735312679
 20
5831.2675927715281
 30
0.0
 11
1169.5604735312679
 21
5351.5740510801079
 31
0.0
  0
LINE
  5
7F16
  8
3
 62
     0
 10
2599.5604735312681
 20
5386.5740510801079
 30
0.0
 11
1239.5604735312679
 21
5386.5740510801079
 31
0.0
  0
INSERT
  5
7F17
  8
3
 62
     0
  2
_OPEN
 10
2669.5604735312681
 20
5386.5740510801079
 30
0.0
 41
70.0
 42
70.0
 43
70.0
  0
INSERT
  5
7F18
  8
3
 62
     0
  2
_OPEN
 10
1169.5604735312679
 20
5386.5740510801079
 30
0.0
 41
70.0
 42
70.0
 43
70.0
 50
180.0
  0
TEXT
  8
3
  40
105
  5
7FCD
  62
0
  72
0
  71
0
 10
1709.56
 20
5288.22
 30
0.000000
  1
1500
  0
POINT
  5
7F1A
  8
DEFPOINTS
 62
     0
 10
2669.5604735312681
 20
5848.7675927715281
 30
0.0
  0
POINT
  5
7F1B
  8
DEFPOINTS
 62
     0
 10
1169.5604735312679
 20
5848.7675927715281
 30
0.0
  0
POINT
  5
7F1C
  8
DEFPOINTS
 62
     0
 10
1169.5604735312679
 20
5386.5740510801079
 30
0.0
  0
ENDBLK
  5
7C24
  8
0
  0
BLOCK
  8
0
  2
*D6
 70
     1
 10
0.0
 20
0.0
 30
0.0
  3
*D6
  1

  0
LINE
  5
7F1D
  8
3
 62
     0
 10
1152.0604735312679
 20
5848.7675927715281
 30
0.0
 11
704.16869267066875
 21
5848.7675927715281
 31
0.0
  0
LINE
  5
7F1E
  8
3
 62
     0
 10
1152.0604735312679
 20
6758.7675927715263
 30
0.0
 11
704.16869267066909
 21
6758.7675927715263
 31
0.0
  0
LINE
  5
7F1F
  8
3
 62
     0
 10
739.16869267066897
 20
5918.7675927715281
 30
0.0
 11
739.16869267066897
 21
6688.7675927715263
 31
0.0
  0
INSERT
  5
7F20
  8
3
 62
     0
  2
_OPEN
 10
739.16869267066886
 20
5848.7675927715281
 30
0.0
 41
70.0
 42
70.0
 43
70.0
 50
270.0
  0
INSERT
  5
7F21
  8
3
 62
     0
  2
_OPEN
 10
739.16869267066897
 20
6758.7675927715263
 30
0.0
 41
70.0
 42
70.0
 43
70.0
 50
90.0
  0
TEXT
  8
3
  40
105
  5
7FCE
  62
0
  72
0
  71
0
 10
441.669
 20
6072.36
 30
0.000000
  1
910
  0
POINT
  5
7F23
  8
DEFPOINTS
 62
     0
 10
1169.5604735312679
 20
5848.7675927715281
 30
0.0
  0
POINT
  5
7F24
  8
DEFPOINTS
 62
     0
 10
1169.5604735312679
 20
6758.7675927715263
 30
0.0
  0
POINT
  5
7F25
  8
DEFPOINTS
 62
     0
 10
739.16869267066897
 20
6758.7675927715263
 30
0.0
  0
ENDBLK
  5
7BF2
  8
0
  0
BLOCK
  8
0
  2
*D7
 70
     1
 10
0.0
 20
0.0
 30
0.0
  3
*D7
  1

  0
LINE
  5
7F26
  8
3
 62
     0
 10
1592.0604735312679
 20
7683.7675927715281
 30
0.0
 11
704.16869267066795
 21
7683.7675927715281
 31
0.0
  0
LINE
  5
7F27
  8
3
 62
     0
 10
739.16869267066772
 20
6828.7675927715272
 30
0.0
 11
739.16869267066795
 21
7613.7675927715281
 31
0.0
  0
INSERT
  5
7F28
  8
3
 62
     0
  2
_OPEN
 10
739.16869267066772
 20
6758.7675927715263
 30
0.0
 41
70.0
 42
70.0
 43
70.0
 50
270.0
  0
INSERT
  5
7F29
  8
3
 62
     0
  2
_OPEN
 10
739.16869267066795
 20
7683.7675927715281
 30
0.0
 41
70.0
 42
70.0
 43
70.0
 50
90.0
  0
TEXT
  8
3
  40
105
  5
7FCF
  62
0
  72
0
  71
0
 10
441.669
 20
7035.42
 30
0.000000
  1
925
  0
POINT
  5
7F2B
  8
DEFPOINTS
 62
     0
 10
1169.5604735312679
 20
6758.7675927715263
 30
0.0
  0
POINT
  5
7F2C
  8
DEFPOINTS
 62
     0
 10
1609.5604735312679
 20
7683.7675927715281
 30
0.0
  0
POINT
  5
7F2D
  8
DEFPOINTS
 62
     0
 10
739.16869267066795
 20
7683.7675927715281
 30
0.0
  0
ENDBLK
  5
7BFE
  8
0
  0
BLOCK
  8
0
  2
*D8
 70
     1
 10
0.0
 20
0.0
 30
0.0
  3
*D8
  1

  0
LINE
  5
7F2E
  8
3
 62
     0
 10
1169.5604735312679
 20
6776.2675927715263
 30
0.0
 11
1169.5604735312679
 21
7949.311000374676
 31
0.0
  0
LINE
  5
7F2F
  8
3
 62
     0
 10
1609.5604735312679
 20
7701.2675927715281
 30
0.0
 11
1609.5604735312679
 21
7949.311000374676
 31
0.0
  0
LINE
  5
7F30
  8
3
 62
     0
 10
1099.5604735312679
 20
7914.311000374677
 30
0.0
 11
1029.5604735312679
 21
7914.311000374677
 31
0.0
  0
LINE
  5
7F31
  8
3
 62
     0
 10
1679.5604735312679
 20
7914.311000374677
 30
0.0
 11
1749.5604735312679
 21
7914.311000374677
 31
0.0
  0
LINE
  5
7F32
  8
3
 62
     0
 10
1169.5604735312679
 20
7914.311000374677
 30
0.0
 11
1609.5604735312679
 21
7914.311000374677
 31
0.0
  0
INSERT
  5
7F33
  8
3
 62
     0
  2
_OPEN
 10
1169.5604735312679
 20
7914.311000374677
 30
0.0
 41
70.0
 42
70.0
 43
70.0
  0
INSERT
  5
7F34
  8
3
 62
     0
  2
_OPEN
 10
1609.5604735312679
 20
7914.311000374677
 30
0.0
 41
70.0
 42
70.0
 43
70.0
 50
180.0
  0
TEXT
  8
3
  40
105
  5
7FD0
  62
0
  72
0
  71
0
 10
1179.56
 20
7815.96
 30
0.000000
  1
440
  0
POINT
  5
7F36
  8
DEFPOINTS
 62
     0
 10
1169.5604735312679
 20
6758.7675927715263
 30
0.0
  0
POINT
  5
7F37
  8
DEFPOINTS
 62
     0
 10
1609.5604735312679
 20
7683.7675927715281
 30
0.0
  0
POINT
  5
7F38
  8
DEFPOINTS
 62
     0
 10
1609.5604735312679
 20
7914.311000374677
 30
0.0
  0
ENDBLK
  5
7C0D
  8
0
  0
BLOCK
  8
0
  2
*D9
 70
     1
 10
0.0
 20
0.0
 30
0.0
  3
*D9
  1

  0
LINE
  5
7F39
  8
3
 62
     0
 10
2929.5604735312681
 20
7701.2675927715281
 30
0.0
 11
2929.5604735312681
 21
7949.311000374676
 31
0.0
  0
LINE
  5
7F3A
  8
3
 62
     0
 10
1679.5604735312679
 20
7914.311000374677
 30
0.0
 11
2859.5604735312681
 21
7914.311000374677
 31
0.0
  0
INSERT
  5
7F3B
  8
3
 62
     0
  2
_OPEN
 10
1609.5604735312679
 20
7914.311000374677
 30
0.0
 41
70.0
 42
70.0
 43
70.0
 50
180.0
  0
INSERT
  5
7F3C
  8
3
 62
     0
  2
_OPEN
 10
2929.5604735312681
 20
7914.311000374677
 30
0.0
 41
70.0
 42
70.0
 43
70.0
  0
TEXT
  8
3
  40
105
  5
7FD1
  62
0
  72
0
  71
0
 10
2059.56
 20
7815.96
 30
0.000000
  1
1320
  0
POINT
  5
7F3E
  8
DEFPOINTS
 62
     0
 10
1609.5604735312679
 20
7683.7675927715281
 30
0.0
  0
POINT
  5
7F3F
  8
DEFPOINTS
 62
     0
 10
2929.5604735312681
 20
7683.7675927715281
 30
0.0
  0
POINT
  5
7F40
  8
DEFPOINTS
 62
     0
 10
2929.5604735312681
 20
7914.311000374677
 30
0.0
  0
ENDBLK
  5
7C19
  8
0
  0
BLOCK
  8
0
  2
*D10
 70
     1
 10
0.0
 20
0.0
 30
0.0
  3
*D10
  1

  0
LINE
  5
7F41
  8
3
 62
     0
 10
1071.5604735312679
 20
4413.2316662232297
 30
0.0
 11
1071.5604735312679
 21
4621.5591929576403
 31
0.0
  0
LINE
  5
7F42
  8
3
 62
     0
 10
2221.5604735312681
 20
4413.2316662232297
 30
0.0
 11
2221.5604735312681
 21
4621.5591929576403
 31
0.0
  0
LINE
  5
7F43
  8
3
 62
     0
 10
1141.5604735312679
 20
4586.5591929576403
 30
0.0
 11
2151.5604735312681
 21
4586.5591929576403
 31
0.0
  0
INSERT
  5
7F44
  8
3
 62
     0
  2
_OPEN
 10
1071.5604735312679
 20
4586.5591929576403
 30
0.0
 41
70.0
 42
70.0
 43
70.0
 50
180.0
  0
INSERT
  5
7F45
  8
3
 62
     0
  2
_OPEN
 10
2221.5604735312681
 20
4586.5591929576403
 30
0.0
 41
70.0
 42
70.0
 43
70.0
  0
TEXT
  8
3
  40
105
  5
7FD2
  62
0
  72
0
  71
0
 10
1409.80
 20
4488.21
 30
0.000000
  1
1150
  0
POINT
  5
7F47
  8
DEFPOINTS
 62
     0
 10
1071.5604735312679
 20
4395.7316662232288
 30
0.0
  0
POINT
  5
7F48
  8
DEFPOINTS
 62
     0
 10
2221.5604735312681
 20
4395.7316662232288
 30
0.0
  0
POINT
  5
7F49
  8
DEFPOINTS
 62
     0
 10
2221.5604735312681
 20
4586.5591929576403
 30
0.0
  0
ENDBLK
  5
7C3C
  8
0
  0
BLOCK
  8
0
  2
*D11
 70
     1
 10
0.0
 20
0.0
 30
0.0
  3
*D11
  1

  0
LINE
  5
7F4A
  8
3
 62
     0
 10
1071.5604735312679
 20
4430.7316662232297
 30
0.0
 11
1071.5604735312679
 21
4853.767158279672
 31
0.0
  0
LINE
  5
7F4B
  8
3
 62
     0
 10
2269.5604735312681
 20
4499.0706671219632
 30
0.0
 11
2269.5604735312681
 21
4853.767158279672
 31
0.0
  0
LINE
  5
7F4C
  8
3
 62
     0
 10
1141.5604735312679
 20
4818.7671582796729
 30
0.0
 11
2199.5604735312681
 21
4818.7671582796729
 31
0.0
  0
INSERT
  5
7F4D
  8
3
 62
     0
  2
_OPEN
 10
1071.5604735312679
 20
4818.7671582796729
 30
0.0
 41
70.0
 42
70.0
 43
70.0
 50
180.0
  0
INSERT
  5
7F4E
  8
3
 62
     0
  2
_OPEN
 10
2269.5604735312681
 20
4818.7671582796729
 30
0.0
 41
70.0
 42
70.0
 43
70.0
  0
TEXT
  8
3
  40
105
  5
7FD3
  62
0
  72
0
  71
0
 10
1398.47
 20
4720.42
 30
0.000000
  1
1198
  0
POINT
  5
7F50
  8
DEFPOINTS
 62
     0
 10
1071.5604735312679
 20
4413.2316662232297
 30
0.0
  0
POINT
  5
7F51
  8
DEFPOINTS
 62
     0
 10
2269.5604735312681
 20
4481.5706671219632
 30
0.0
  0
POINT
  5
7F52
  8
DEFPOINTS
 62
     0
 10
2269.5604735312681
 20
4818.7671582796729
 30
0.0
  0
ENDBLK
  5
7C49
  8
0
  0
BLOCK
  8
0
  2
*D12
 70
     1
 10
0.0
 20
0.0
 30
0.0
  3
*D12
  1

  0
LINE
  5
7F53
  8
3
 62
     0
 10
3074.5604735312681
 20
3571.2316662232301
 30
0.0
 11
3074.5604735312681
 21
4853.767158279672
 31
0.0
  0
LINE
  5
7F54
  8
3
 62
     0
 10
2339.5604735312681
 20
4818.7671582796729
 30
0.0
 11
3004.5604735312681
 21
4818.7671582796729
 31
0.0
  0
INSERT
  5
7F55
  8
3
 62
     0
  2
_OPEN
 10
2269.5604735312681
 20
4818.7671582796729
 30
0.0
 41
70.0
 42
70.0
 43
70.0
 50
180.0
  0
INSERT
  5
7F56
  8
3
 62
     0
  2
_OPEN
 10
3074.5604735312681
 20
4818.7671582796729
 30
0.0
 41
70.0
 42
70.0
 43
70.0
  0
TEXT
  8
3
  40
105
  5
7FD4
  62
0
  72
0
  71
0
 10
2462.06
 20
4720.42
 30
0.000000
  1
805
  0
POINT
  5
7F58
  8
DEFPOINTS
 62
     0
 10
2269.5604735312681
 20
4481.5706671219632
 30
0.0
  0
POINT
  5
7F59
  8
DEFPOINTS
 62
     0
 10
3074.5604735312681
 20
3553.7316662232301
 30
0.0
  0
POINT
  5
7F5A
  8
DEFPOINTS
 62
     0
 10
3074.5604735312681
 20
4818.7671582796729
 30
0.0
  0
ENDBLK
  5
7C55
  8
0
  0
BLOCK
  8
0
  2
*D13
 70
     1
 10
0.0
 20
0.0
 30
0.0
  3
*D13
  1

  0
LINE
  5
7F5B
  8
3
 62
     0
 10
2292.0604735312681
 20
4395.7316662232288
 30
0.0
 11
3479.991607781456
 21
4395.7316662232288
 31
0.0
  0
LINE
  5
7F5C
  8
3
 62
     0
 10
3193.8411249842452
 20
3635.7316662232311
 30
0.0
 11
3479.991607781456
 21
3635.7316662232311
 31
0.0
  0
LINE
  5
7F5D
  8
3
 62
     0
 10
3444.991607781456
 20
4325.7316662232288
 30
0.0
 11
3444.991607781456
 21
3705.7316662232311
 31
0.0
  0
INSERT
  5
7F5E
  8
3
 62
     0
  2
_OPEN
 10
3444.991607781456
 20
4395.7316662232288
 30
0.0
 41
70.0
 42
70.0
 43
70.0
 50
90.0
  0
INSERT
  5
7F5F
  8
3
 62
     0
  2
_OPEN
 10
3444.991607781456
 20
3635.7316662232311
 30
0.0
 41
70.0
 42
70.0
 43
70.0
 50
270.0
  0
TEXT
  8
3
  40
105
  5
7FD5
  62
0
  72
0
  71
0
 10
3147.49
 20
3811.69
 30
0.000000
  1
760
  0
POINT
  5
7F61
  8
DEFPOINTS
 62
     0
 10
2274.5604735312681
 20
4395.7316662232288
 30
0.0
  0
POINT
  5
7F62
  8
DEFPOINTS
 62
     0
 10
3176.3411249842452
 20
3635.7316662232311
 30
0.0
  0
POINT
  5
7F63
  8
DEFPOINTS
 62
     0
 10
3444.991607781456
 20
3635.7316662232311
 30
0.0
  0
ENDBLK
  5
7C62
  8
0
  0
BLOCK
  8
0
  2
*D14
 70
     1
 10
0.0
 20
0.0
 30
0.0
  3
*D14
  1

  0
LINE
  5
7F64
  8
3
 62
     0
 10
2947.0604735312681
 20
2625.7316662232301
 30
0.0
 11
3479.9916077814551
 21
2625.7316662232301
 31
0.0
  0
LINE
  5
7F65
  8
3
 62
     0
 10
3444.991607781456
 20
3565.7316662232301
 30
0.0
 11
3444.991607781456
 21
2695.7316662232301
 31
0.0
  0
INSERT
  5
7F66
  8
3
 62
     0
  2
_OPEN
 10
3444.991607781456
 20
3635.7316662232311
 30
0.0
 41
70.0
 42
70.0
 43
70.0
 50
90.0
  0
INSERT
  5
7F67
  8
3
 62
     0
  2
_OPEN
 10
3444.991607781456
 20
2625.7316662232301
 30
0.0
 41
70.0
 42
70.0
 43
70.0
 50
270.0
  0
TEXT
  8
3
  40
105
  5
7FD6
  62
0
  72
0
  71
0
 10
3147.49
 20
2944.88
 30
0.000000
  1
1010
  0
POINT
  5
7F69
  8
DEFPOINTS
 62
     0
 10
3176.3411249842452
 20
3635.7316662232311
 30
0.0
  0
POINT
  5
7F6A
  8
DEFPOINTS
 62
     0
 10
2929.5604735312681
 20
2625.7316662232301
 30
0.0
  0
POINT
  5
7F6B
  8
DEFPOINTS
 62
     0
 10
3444.991607781456
 20
2625.7316662232301
 30
0.0
  0
ENDBLK
  5
7C6E
  8
0
  0
BLOCK
  8
0
  2
*D15
 70
     1
 10
0.0
 20
0.0
 30
0.0
  3
*D15
  1

  0
LINE
  5
7F6C
  8
3
 62
     0
 10
6202.7400047573092
 20
4195.7316662232297
 30
0.0
 11
6572.8257878305103
 21
4195.7316662232297
 31
0.0
  0
LINE
  5
7F6D
  8
3
 62
     0
 10
6202.740004757311
 20
3075.7316662232301
 30
0.0
 11
6572.8257878305103
 21
3075.7316662232301
 31
0.0
  0
LINE
  5
7F6E
  8
3
 62
     0
 10
6537.8257878305094
 20
4125.7316662232297
 30
0.0
 11
6537.8257878305094
 21
3145.7316662232301
 31
0.0
  0
INSERT
  5
7F6F
  8
3
 62
     0
  2
_OPEN
 10
6537.8257878305094
 20
4195.7316662232297
 30
0.0
 41
70.0
 42
70.0
 43
70.0
 50
90.0
  0
INSERT
  5
7F70
  8
3
 62
     0
  2
_OPEN
 10
6537.8257878305094
 20
3075.7316662232301
 30
0.0
 41
70.0
 42
70.0
 43
70.0
 50
270.0
  0
TEXT
  8
3
  40
105
  5
7FD7
  62
0
  72
0
  71
0
 10
6240.33
 20
3438.06
 30
0.000000
  1
φ1120
  0
POINT
  5
7F72
  8
DEFPOINTS
 62
     0
 10
6185.2400047573092
 20
4195.7316662232297
 30
0.0
  0
POINT
  5
7F73
  8
DEFPOINTS
 62
     0
 10
6185.240004757311
 20
3075.7316662232301
 30
0.0
  0
POINT
  5
7F74
  8
DEFPOINTS
 62
     0
 10
6537.8257878305094
 20
3075.7316662232301
 30
0.0
  0
ENDBLK
  5
7DB6
  8
0
  0
BLOCK
  8
0
  2
*D16
 70
     1
 10
0.0
 20
0.0
 30
0.0
  3
*D16
  1

  0
LINE
  5
7F75
  8
3
 62
     0
 10
5332.9400047573108
 20
4413.2316662232297
 30
0.0
 11
5332.9400047573108
 21
4572.1934174266062
 31
0.0
  0
LINE
  5
7F76
  8
3
 62
     0
 10
6182.9400047573126
 20
4413.2316662232297
 30
0.0
 11
6182.9400047573126
 21
4572.1934174266062
 31
0.0
  0
LINE
  5
7F77
  8
3
 62
     0
 10
5402.9400047573108
 20
4537.1934174266062
 30
0.0
 11
6112.9400047573117
 21
4537.1934174266062
 31
0.0
  0
INSERT
  5
7F78
  8
3
 62
     0
  2
_OPEN
 10
5332.9400047573108
 20
4537.1934174266062
 30
0.0
 41
70.0
 42
70.0
 43
70.0
 50
180.0
  0
INSERT
  5
7F79
  8
3
 62
     0
  2
_OPEN
 10
6182.9400047573126
 20
4537.1934174266062
 30
0.0
 41
70.0
 42
70.0
 43
70.0
  0
TEXT
  8
3
  40
105
  5
7FD8
  62
0
  72
0
  71
0
 10
5550.71
 20
4438.84
 30
0.000000
  1
850
  0
POINT
  5
7F7B
  8
DEFPOINTS
 62
     0
 10
5332.9400047573108
 20
4395.7316662232288
 30
0.0
  0
POINT
  5
7F7C
  8
DEFPOINTS
 62
     0
 10
6182.9400047573126
 20
4395.7316662232288
 30
0.0
  0
POINT
  5
7F7D
  8
DEFPOINTS
 62
     0
 10
6182.9400047573126
 20
4537.1934174266062
 30
0.0
  0
ENDBLK
  5
7D18
  8
0
  0
BLOCK
  8
0
  2
*D17
 70
     1
 10
0.0
 20
0.0
 30
0.0
  3
*D17
  1

  0
LINE
  5
7F7E
  8
3
 62
     0
 10
5757.9400047573081
 20
4706.1092411189848
 30
0.0
 11
5757.9400047573081
 21
4833.4714673410308
 31
0.0
  0
LINE
  5
7F7F
  8
3
 62
     0
 10
6193.2400047573092
 20
4413.2316662232297
 30
0.0
 11
6193.2400047573092
 21
4833.4714673410308
 31
0.0
  0
LINE
  5
7F80
  8
3
 62
     0
 10
5687.9400047573081
 20
4798.4714673410299
 30
0.0
 11
5617.9400047573081
 21
4798.4714673410299
 31
0.0
  0
LINE
  5
7F81
  8
3
 62
     0
 10
6263.2400047573092
 20
4798.4714673410299
 30
0.0
 11
6333.2400047573101
 21
4798.4714673410299
 31
0.0
  0
LINE
  5
7F82
  8
3
 62
     0
 10
5757.9400047573081
 20
4798.4714673410299
 30
0.0
 11
6193.2400047573092
 21
4798.4714673410299
 31
0.0
  0
INSERT
  5
7F83
  8
3
 62
     0
  2
_OPEN
 10
5757.9400047573081
 20
4798.4714673410299
 30
0.0
 41
70.0
 42
70.0
 43
70.0
  0
INSERT
  5
7F84
  8
3
 62
     0
  2
_OPEN
 10
6193.2400047573092
 20
4798.4714673410299
 30
0.0
 41
70.0
 42
70.0
 43
70.0
 50
180.0
  0
TEXT
  8
3
  40
105
  5
7FD9
  62
0
  72
0
  71
0
 10
5765.59
 20
4700.12
 30
0.000000
  1
435
  0
POINT
  5
7F86
  8
DEFPOINTS
 62
     0
 10
5757.9400047573081
 20
4688.6092411189848
 30
0.0
  0
POINT
  5
7F87
  8
DEFPOINTS
 62
     0
 10
6193.2400047573092
 20
4395.7316662232288
 30
0.0
  0
POINT
  5
7F88
  8
DEFPOINTS
 62
     0
 10
6193.2400047573092
 20
4798.4714673410299
 30
0.0
  0
ENDBLK
  5
7D6A
  8
0
  0
BLOCK
  8
0
  2
*D18
 70
     1
 10
0.0
 20
0.0
 30
0.0
  3
*D18
  1

  0
LINE
  5
7F89
  8
3
 62
     0
 10
4270.940004757309
 20
3933.2316662232288
 30
0.0
 11
4270.940004757309
 21
4833.4714673410308
 31
0.0
  0
LINE
  5
7F8A
  8
3
 62
     0
 10
5687.9400047573081
 20
4798.4714673410299
 30
0.0
 11
4340.940004757309
 21
4798.4714673410299
 31
0.0
  0
INSERT
  5
7F8B
  8
3
 62
     0
  2
_OPEN
 10
5757.9400047573081
 20
4798.4714673410299
 30
0.0
 41
70.0
 42
70.0
 43
70.0
  0
INSERT
  5
7F8C
  8
3
 62
     0
  2
_OPEN
 10
4270.940004757309
 20
4798.4714673410299
 30
0.0
 41
70.0
 42
70.0
 43
70.0
 50
180.0
  0
TEXT
  8
3
  40
105
  5
7FDA
  62
0
  72
0
  71
0
 10
4804.44
 20
4787.62
 30
0.000000
  1
MAX
  0
TEXT
  8
3
  40
105
  5
7FDB
  62
0
  72
0
  71
0
 10
4804.44
 20
4651.12
 30
0.000000
  1
1530
  0
POINT
  5
7F8E
  8
DEFPOINTS
 62
     0
 10
5757.9400047573081
 20
4688.6092411189848
 30
0.0
  0
POINT
  5
7F8F
  8
DEFPOINTS
 62
     0
 10
4270.940004757309
 20
3915.7316662232301
 30
0.0
  0
POINT
  5
7F90
  8
DEFPOINTS
 62
     0
 10
4270.940004757309
 20
4798.4714673410299
 30
0.0
  0
ENDBLK
  5
7D80
  8
0
  0
BLOCK
  8
0
  2
_DOT
 70
     0
 10
0.0
 20
0.0
 30
0.0
  3
_DOT
  1

  0
LINE
  5
7E13
  8
0
  6
BYBLOCK
 62
     0
 10
0.0
 20
0.0
 30
0.0
 11
-1.0
 21
-0.0000000000000284
 31
0.0
  0
POLYLINE
  5
7E14
  8
0
  6
BYBLOCK
 62
     0
 66
     1
 10
0.0
 20
0.0
 30
0.0
 70
     1
 40
0.1666666666666666
 41
0.1666666666666666
  0
VERTEX
  5
7F91
  8
0
  6
BYBLOCK
 62
     0
 10
-0.0833333333333286
 20
-0.0000000000000284
 30
0.0
 42
1.0
  0
VERTEX
  5
7F92
  8
0
  6
BYBLOCK
 62
     0
 10
0.0833333333333286
 20
-0.0000000000000284
 30
0.0
 42
1.0
  0
SEQEND
  5
7F93
  8
0
  6
BYBLOCK
 62
     0
  0
ENDBLK
  5
7DF9
  8
0
  0
BLOCK
  8
0
  2
*D20
 70
     1
 10
0.0
 20
0.0
 30
0.0
  3
*D20
  1

  0
LINE
  5
7F94
  8
3
 62
     0
 10
1018.560473531268
 20
4413.2316662232297
 30
0.0
 11
1018.560473531268
 21
5036.7617842140708
 31
0.0
  0
LINE
  5
7F95
  8
3
 62
     0
 10
3074.5604735312681
 20
4836.267158279672
 30
0.0
 11
3074.5604735312681
 21
5036.7617842140708
 31
0.0
  0
LINE
  5
7F96
  8
3
 62
     0
 10
1088.5604735312679
 20
5001.7617842140708
 30
0.0
 11
3004.5604735312681
 21
5001.7617842140708
 31
0.0
  0
INSERT
  5
7F97
  8
3
 62
     0
  2
_OPEN
 10
1018.560473531268
 20
5001.7617842140708
 30
0.0
 41
70.0
 42
70.0
 43
70.0
 50
180.0
  0
INSERT
  5
7F98
  8
3
 62
     0
  2
_OPEN
 10
3074.5604735312681
 20
5001.7617842140708
 30
0.0
 41
70.0
 42
70.0
 43
70.0
  0
TEXT
  8
3
  40
105
  5
7FDC
  62
0
  72
0
  71
0
 10
1889.22
 20
4903.41
 30
0.000000
  1
2056
  0
POINT
  5
7F9A
  8
DEFPOINTS
 62
     0
 10
1018.560473531268
 20
4395.7316662232288
 30
0.0
  0
POINT
  5
7F9B
  8
DEFPOINTS
 62
     0
 10
3074.5604735312681
 20
4818.7671582796729
 30
0.0
  0
POINT
  5
7F9C
  8
DEFPOINTS
 62
     0
 10
3074.5604735312681
 20
5001.7617842140708
 30
0.0
  0
ENDBLK
  5
7E4F
  8
0
  0
BLOCK
  8
0
  2
*D21
 70
     1
 10
0.0
 20
0.0
 30
0.0
  3
*D21
  1

  0
LINE
  5
7F9D
  8
3
 62
     0
 10
1169.5604735312691
 20
2608.2316662232301
 30
0.0
 11
1169.5604735312691
 21
2342.707933910609
 31
0.0
  0
LINE
  5
7F9E
  8
3
 62
     0
 10
2269.5604735312681
 20
2608.2316662232301
 30
0.0
 11
2269.5604735312681
 21
2342.707933910609
 31
0.0
  0
LINE
  5
7F9F
  8
3
 62
     0
 10
1239.56047353127
 20
2377.707933910609
 30
0.0
 11
2199.5604735312681
 21
2377.707933910609
 31
0.0
  0
INSERT
  5
7FA0
  8
3
 62
     0
  2
_OPEN
 10
1169.5604735312691
 20
2377.707933910609
 30
0.0
 41
70.0
 42
70.0
 43
70.0
 50
180.0
  0
INSERT
  5
7FA1
  8
3
 62
     0
  2
_OPEN
 10
2269.5604735312681
 20
2377.707933910609
 30
0.0
 41
70.0
 42
70.0
 43
70.0
  0
TEXT
  8
3
  40
105
  5
7FDD
  62
0
  72
0
  71
0
 10
1509.56
 20
2279.36
 30
0.000000
  1
1100
  0
POINT
  5
7FA3
  8
DEFPOINTS
 62
     0
 10
1169.5604735312691
 20
2625.7316662232301
 30
0.0
  0
POINT
  5
7FA4
  8
DEFPOINTS
 62
     0
 10
2269.5604735312681
 20
2625.7316662232301
 30
0.0
  0
POINT
  5
7FA5
  8
DEFPOINTS
 62
     0
 10
2269.5604735312681
 20
2377.707933910609
 30
0.0
  0
ENDBLK
  5
7E96
  8
0
  0
BLOCK
  8
0
  2
*D22
 70
     1
 10
0.0
 20
0.0
 30
0.0
  3
*D22
  1

  0
LINE
  5
7FA6
  8
3
 62
     0
 10
2269.5604735312681
 20
2608.2316662232301
 30
0.0
 11
2269.5604735312681
 21
2342.707933910609
 31
0.0
  0
LINE
  5
7FA7
  8
3
 62
     0
 10
2929.5604735312681
 20
2608.2316662232301
 30
0.0
 11
2929.5604735312681
 21
2342.707933910609
 31
0.0
  0
LINE
  5
7FA8
  8
3
 62
     0
 10
2339.5604735312681
 20
2377.707933910609
 30
0.0
 11
2859.5604735312681
 21
2377.707933910609
 31
0.0
  0
INSERT
  5
7FA9
  8
3
 62
     0
  2
_OPEN
 10
2269.5604735312681
 20
2377.707933910609
 30
0.0
 41
70.0
 42
70.0
 43
70.0
 50
180.0
  0
INSERT
  5
7FAA
  8
3
 62
     0
  2
_OPEN
 10
2929.5604735312681
 20
2377.707933910609
 30
0.0
 41
70.0
 42
70.0
 43
70.0
  0
TEXT
  8
3
  40
105
  5
7FDE
  62
0
  72
0
  71
0
 10
2389.56
 20
2279.36
 30
0.000000
  1
660
  0
POINT
  5
7FAC
  8
DEFPOINTS
 62
     0
 10
2269.5604735312681
 20
2625.7316662232301
 30
0.0
  0
POINT
  5
7FAD
  8
DEFPOINTS
 62
     0
 10
2929.5604735312681
 20
2625.7316662232301
 30
0.0
  0
POINT
  5
7FAE
  8
DEFPOINTS
 62
     0
 10
2929.5604735312681
 20
2377.707933910609
 30
0.0
  0
ENDBLK
  5
7EA3
  8
0
  0
BLOCK
  8
0
  2
*D23
 70
     1
 10
0.0
 20
0.0
 30
0.0
  3
*D23
  1

  0
LINE
  5
7FAF
  8
3
 62
     0
 10
4417.9400047573081
 20
2608.2316662232301
 30
0.0
 11
4417.9400047573081
 21
2342.707933910609
 31
0.0
  0
LINE
  5
7FB0
  8
3
 62
     0
 10
5757.9400047573072
 20
2608.2316662232301
 30
0.0
 11
5757.9400047573072
 21
2342.707933910609
 31
0.0
  0
LINE
  5
7FB1
  8
3
 62
     0
 10
4487.940004757309
 20
2377.707933910609
 30
0.0
 11
5687.9400047573072
 21
2377.707933910609
 31
0.0
  0
INSERT
  5
7FB2
  8
3
 62
     0
  2
_OPEN
 10
4417.9400047573081
 20
2377.707933910609
 30
0.0
 41
70.0
 42
70.0
 43
70.0
 50
180.0
  0
INSERT
  5
7FB3
  8
3
 62
     0
  2
_OPEN
 10
5757.9400047573072
 20
2377.707933910609
 30
0.0
 41
70.0
 42
70.0
 43
70.0
  0
TEXT
  8
3
  40
105
  5
7FDF
  62
0
  72
0
  71
0
 10
4877.94
 20
2279.36
 30
0.000000
  1
1340
  0
POINT
  5
7FB5
  8
DEFPOINTS
 62
     0
 10
4417.9400047573081
 20
2625.7316662232301
 30
0.0
  0
POINT
  5
7FB6
  8
DEFPOINTS
 62
     0
 10
5757.9400047573072
 20
2625.7316662232301
 30
0.0
  0
POINT
  5
7FB7
  8
DEFPOINTS
 62
     0
 10
5757.9400047573072
 20
2377.707933910609
 30
0.0
  0
ENDBLK
  5
7EB0
  8
0
  0
BLOCK
  8
0
  2
*D24
 70
     1
 10
0.0
 20
0.0
 30
0.0
  3
*D24
  1

  0
LINE
  5
7FB8
  8
3
 62
     0
 10
5757.9400047573072
 20
2608.2316662232301
 30
0.0
 11
5757.9400047573072
 21
2342.707933910609
 31
0.0
  0
LINE
  5
7FB9
  8
3
 62
     0
 10
6252.940004757309
 20
2608.2316662232301
 30
0.0
 11
6252.940004757309
 21
2342.707933910609
 31
0.0
  0
LINE
  5
7FBA
  8
3
 62
     0
 10
5827.9400047573072
 20
2377.707933910609
 30
0.0
 11
6182.9400047573099
 21
2377.707933910609
 31
0.0
  0
INSERT
  5
7FBB
  8
3
 62
     0
  2
_OPEN
 10
5757.9400047573072
 20
2377.707933910609
 30
0.0
 41
70.0
 42
70.0
 43
70.0
 50
180.0
  0
INSERT
  5
7FBC
  8
3
 62
     0
  2
_OPEN
 10
6252.940004757309
 20
2377.707933910609
 30
0.0
 41
70.0
 42
70.0
 43
70.0
  0
TEXT
  8
3
  40
105
  5
7FE0
  62
0
  72
0
  71
0
 10
5795.44
 20
2279.36
 30
0.000000
  1
495
  0
POINT
  5
7FBE
  8
DEFPOINTS
 62
     0
 10
5757.9400047573072
 20
2625.7316662232301
 30
0.0
  0
POINT
  5
7FBF
  8
DEFPOINTS
 62
     0
 10
6252.940004757309
 20
2625.7316662232301
 30
0.0
  0
POINT
  5
7FC0
  8
DEFPOINTS
 62
     0
 10
6252.940004757309
 20
2377.707933910609
 30
0.0
  0
ENDBLK
  5
7EBD
  8
0
  0
BLOCK
  8
0
  2
*D25
 70
     1
 10
0.0
 20
0.0
 30
0.0
  3
*D25
  1

  0
LINE
  5
7FC1
  8
3
 62
     0
 10
2292.0604735312681
 20
4395.7316662232288
 30
0.0
 11
3739.0844146175809
 21
4395.7316662232288
 31
0.0
  0
LINE
  5
7FC2
  8
3
 62
     0
 10
2947.0604735312681
 20
2625.7316662232301
 30
0.0
 11
3739.0844146175809
 21
2625.7316662232301
 31
0.0
  0
LINE
  5
7FC3
  8
3
 62
     0
 10
3704.0844146175809
 20
4325.7316662232288
 30
0.0
 11
3704.0844146175809
 21
2695.7316662232301
 31
0.0
  0
INSERT
  5
7FC4
  8
3
 62
     0
  2
_OPEN
 10
3704.0844146175809
 20
4395.7316662232288
 30
0.0
 41
70.0
 42
70.0
 43
70.0
 50
90.0
  0
INSERT
  5
7FC5
  8
3
 62
     0
  2
_OPEN
 10
3704.0844146175809
 20
2625.7316662232301
 30
0.0
 41
70.0
 42
70.0
 43
70.0
 50
270.0
  0
TEXT
  8
3
  40
105
  5
7FE1
  62
0
  72
0
  71
0
 10
3406.58
 20
3324.88
 30
0.000000
  1
1770
  0
POINT
  5
7FC7
  8
DEFPOINTS
 62
     0
 10
2274.5604735312681
 20
4395.7316662232288
 30
0.0
  0
POINT
  5
7FC8
  8
DEFPOINTS
 62
     0
 10
2929.5604735312681
 20
2625.7316662232301
 30
0.0
  0
POINT
  5
7FC9
  8
DEFPOINTS
 62
     0
 10
3704.0844146175809
 20
2625.7316662232301
 30
0.0
  0
ENDBLK
  5
7ECA
  8
0
  0
ENDSEC
  0
SECTION
  2
ENTITIES
  0
INSERT
  5
7AD0
  8
0
  2
YA_N
 10
275.18706682008099
 20
57.69095189364441
 30
0.0
  0
LINE
  5
7AD2
  8
2
 10
3176.3411249842452
 20
3635.7316662232311
 30
0.0
 11
1018.411690692692
 21
3635.7316662232311
 31
0.0
  0
LINE
  5
7AD3
  8
2
 10
2269.5604735312681
 20
2625.7316662232301
 30
0.0
 11
2269.5604735312681
 21
4481.5706671219632
 31
0.0
  0
LINE
  5
7AD4
  8
1
 10
2274.5604735312681
 20
4395.7316662232288
 30
0.0
 11
1018.560473531268
 21
4395.7316662232288
 31
0.0
  0
LINE
  5
7AD5
  8
1
 10
1018.560473531268
 20
4395.7316662232288
 30
0.0
 11
1018.560473531268
 21
4345.7316662232288
 31
0.0
  0
LINE
  5
7AD6
  8
1
 10
2274.5604735312681
 20
4395.7316662232288
 30
0.0
 11
2274.5604735312681
 21
4345.7316662232288
 31
0.0
  0
LINE
  5
7AD7
  8
1
 10
2274.5604735312681
 20
4345.7316662232288
 30
0.0
 11
1018.560473531268
 21
4345.7316662232288
 31
0.0
  0
LINE
  5
7AD8
  8
1
 10
2274.5604735312681
 20
4391.7316662232288
 30
0.0
 11
1018.560473531268
 21
4391.7316662232288
 31
0.0
  0
LINE
  5
7AD9
  8
1
 10
2929.5604735312681
 20
2625.7316662232301
 30
0.0
 11
1169.5604735312691
 21
2625.7316662232301
 31
0.0
1001
ACAD
1000
ASC_BOUNDS
1002
{
1070
    19
1005
0
1005
0
1002
}
  0
LINE
  5
7ADA
  8
1
 10
2929.5604735312681
 20
2750.7316662232301
 30
0.0
 11
2929.5604735312681
 21
2625.7316662232301
 31
0.0
  0
LINE
  5
7ADB
  8
1
 10
2929.5604735312681
 20
2750.7316662232301
 30
0.0
 11
1159.5604735312691
 21
2750.7316662232301
 31
0.0
  0
ARC
  5
7ADC
  8
1
 10
2187.5604735312681
 20
3717.7316662232301
 30
0.0
 40
1051.0
 50
184.47481789853379
 51
211.48940223188859
  0
ARC
  5
7ADD
  8
1
 10
2187.5604735312681
 20
3553.7316662232301
 30
0.0
 40
887.0
 50
302.1763990923285
 51
5.3043652077958754
  0
ARC
  5
7ADE
  8
1
 10
2338.0604735312681
 20
3567.2316662232301
 30
0.0
 40
736.5
 50
5.3366483213834996
 51
95.336648321383493
  0
LINE
  5
7ADF
  8
1
 10
1071.5604735312679
 20
4395.7316662232288
 30
0.0
 11
1139.7642147099241
 21
3635.7316662232311
 31
0.0
  0
LINE
  5
7AE0
  8
1
 10
2221.5604735312681
 20
4395.7316662232288
 30
0.0
 11
2221.5604735312681
 21
4292.3030904567167
 31
0.0
  0
LINE
  5
7AE1
  8
2
 10
1419.5604735312679
 20
3298.9300210577348
 30
0.0
 11
1419.5604735312691
 21
2625.7316662232301
 31
0.0
  0
LINE
  5
7AE2
  8
1
 10
4458.1407484632336
 20
3010.7316662232311
 30
0.0
 11
4302.4444802595908
 21
3010.7316662232311
 31
0.0
  0
LINE
  5
7AE3
  8
1
 10
4417.9400047573081
 20
2625.7316662232301
 30
0.0
 11
4485.440004757309
 21
2625.7316662232301
 31
0.0
1001
ACAD
1000
ASC_BOUNDS
1002
{
1070
    19
1002
}
  0
LINE
  5
7AE4
  8
1
 10
4417.9400047573081
 20
2750.7316662232301
 30
0.0
 11
6252.940004757309
 21
2750.7316662232301
 31
0.0
  0
LINE
  5
7AE5
  8
1
 10
4417.9400047573081
 20
2750.7316662232301
 30
0.0
 11
4417.9400047573081
 21
2625.7316662232301
 31
0.0
  0
LINE
  5
7AE6
  8
1
 10
6252.9400047573108
 20
2750.7316662232301
 30
0.0
 11
6252.940004757309
 21
2625.7316662232301
 31
0.0
  0
LINE
  5
7AE7
  8
1
 10
6252.940004757309
 20
2750.7316662232301
 30
0.0
 11
6252.940004757309
 21
2745.5006504295202
 31
0.0
  0
LINE
  5
7AE8
  8
1
 10
4482.940004757309
 20
2625.7316662232301
 30
0.0
 11
6252.9400047573108
 21
2625.7316662232301
 31
0.0
1001
ACAD
1000
ASC_BOUNDS
1002
{
1070
    19
1002
}
  0
LINE
  5
7AE9
  8
2
 10
4302.0222093483189
 20
3635.7316662232311
 30
0.0
 11
6290.1498232362846
 21
3635.7316662232311
 31
0.0
  0
LINE
  5
7AEA
  8
2
 10
5757.9400047573081
 20
4515.7776417648638
 30
0.0
 11
5757.9400047573072
 21
2625.7316662232301
 31
0.0
  0
POINT
  5
7AEB
  8
1
 10
2269.5604735312681
 20
4436.9332287218504
 30
0.0
  0
INSERT
  5
7AEC
  8
0
  2
YA_N
 10
-805.59225922110249
 20
-1258.9783687196441
 30
0.0
 41
25.0
 42
25.0
 43
25.0
  0
INSERT
  5
7AEE
  8
0
  2
YA_N
 10
-77.754580822312846
 20
-323.11650731075139
 30
0.0
 41
25.0
 42
25.0
 43
25.0
  0
ARC
  5
7AF0
  8
1
 10
2338.0604735312681
 20
3704.2316662232311
 30
0.0
 40
599.5
 50
96.561053542833491
 51
101.2055053685535
  0
ARC
  5
7AF1
  8
1
 10
1419.5604735312679
 20
3010.7316662232311
 30
0.0
 40
203.5
 50
285.60369900000001
 51
254.39624000000001
  0
LINE
  5
7AF2
  8
1
 10
1364.822436531269
 20
2814.7316662232301
 30
0.0
 11
1474.2985105312689
 21
2814.7316662232301
 31
0.0
  0
ARC
  5
7AF3
  8
1
 10
1605.5604735312679
 20
2827.7316662232301
 30
0.0
 40
3.0
 50
0.0
 51
90.0
  0
ARC
  5
7AF4
  8
1
 10
1603.5604735312679
 20
2885.0583272232302
 30
0.0
 40
5.0000669999999987
 50
0.0
 51
55.056334999999997
  0
LINE
  5
7AF5
  8
1
 10
1608.5604735312679
 20
2885.0583272232302
 30
0.0
 11
1608.5604735312679
 21
2810.7316662232301
 31
0.0
  0
LINE
  5
7AF6
  8
1
 10
1587.8104735312679
 20
2830.7316662232311
 30
0.0
 11
1587.8104735312679
 21
2810.7316662232301
 31
0.0
  0
LINE
  5
7AF7
  8
1
 10
1569.3104735312679
 20
2830.7316662232311
 30
0.0
 11
1569.3104735312679
 21
2810.7316662232301
 31
0.0
  0
LINE
  5
7AF8
  8
1
 10
1578.5604735312679
 20
2835.1554942232301
 30
0.0
 11
1578.5604735312679
 21
2806.039772223231
 31
0.0
  0
LINE
  5
7AF9
  8
1
 10
1523.6630435312691
 20
2835.874855223231
 30
0.0
 11
1529.0604735312679
 21
2815.7316662232301
 31
0.0
  0
LINE
  5
7AFA
  8
1
 10
1529.0604735312679
 20
2827.7316662232301
 30
0.0
 11
1529.0604735312679
 21
2810.7316662232301
 31
0.0
  0
LINE
  5
7AFB
  8
1
 10
1532.0604735312679
 20
2830.7316662232311
 30
0.0
 11
1605.5604735312679
 21
2830.7316662232311
 31
0.0
  0
ARC
  5
7AFC
  8
1
 10
1532.0604735312679
 20
2827.7316662232301
 30
0.0
 40
3.0
 50
90.0
 51
180.0
  0
LINE
  5
7AFD
  8
1
 10
1606.4242435312681
 20
2889.1569592232299
 30
0.0
 11
1590.486377531269
 21
2900.2934342232311
 31
0.0
  0
LINE
  5
7AFE
  8
1
 10
1230.5604735312679
 20
2885.0583272232302
 30
0.0
 11
1230.5604735312679
 21
2810.7316662232301
 31
0.0
  0
LINE
  5
7AFF
  8
1
 10
1251.3104735312679
 20
2830.7316662232311
 30
0.0
 11
1251.3104735312679
 21
2810.7316662232301
 31
0.0
  0
LINE
  5
7B00
  8
1
 10
1269.8104735312679
 20
2830.7316662232311
 30
0.0
 11
1269.8104735312679
 21
2810.7316662232301
 31
0.0
  0
LINE
  5
7B01
  8
1
 10
1260.5604735312679
 20
2835.1554942232301
 30
0.0
 11
1260.5604735312679
 21
2806.039772223231
 31
0.0
  0
LINE
  5
7B02
  8
1
 10
1315.4576905312681
 20
2835.87497722323
 30
0.0
 11
1310.0604735312679
 21
2815.7316662232301
 31
0.0
  0
LINE
  5
7B03
  8
1
 10
1310.0604735312679
 20
2827.7316662232301
 30
0.0
 11
1310.0604735312679
 21
2810.7316662232301
 31
0.0
  0
LINE
  5
7B04
  8
1
 10
1307.0604735312679
 20
2830.7316662232311
 30
0.0
 11
1233.5604735312679
 21
2830.7316662232311
 31
0.0
  0
ARC
  5
7B05
  8
1
 10
1307.0604735312679
 20
2827.7316662232301
 30
0.0
 40
3.0
 50
0.0
 51
90.0
  0
ARC
  5
7B06
  8
1
 10
1233.5604735312679
 20
2827.7316662232301
 30
0.0
 40
3.0
 50
90.0
 51
180.0
  0
LINE
  5
7B07
  8
1
 10
1232.6965825312691
 20
2889.1569592232299
 30
0.0
 11
1248.6344485312691
 21
2900.2934342232311
 31
0.0
  0
ARC
  5
7B08
  8
1
 10
1235.5604735312679
 20
2885.0583272232302
 30
0.0
 40
5.0
 50
124.94366100000001
 51
180.0
  0
LINE
  5
7B09
  8
1
 10
1663.6227295793569
 20
2810.7316662232301
 30
0.0
 11
1489.5604735312679
 21
2810.7316662232301
 31
0.0
  0
LINE
  5
7B0A
  8
1
 10
1679.56047353127
 20
2750.7316662232301
 30
0.0
 11
1663.6227295793569
 21
2810.7316662232301
 31
0.0
  0
LINE
  5
7B0B
  8
1
 10
1159.5604735312691
 20
2750.7316662232301
 30
0.0
 11
1175.5454834376319
 21
2810.7316662232301
 31
0.0
  0
LINE
  5
7B0C
  8
1
 10
1489.56047353127
 20
2760.7316662232311
 30
0.0
 11
1349.56047353127
 21
2760.7316662232311
 31
0.0
  0
LINE
  5
7B0D
  8
1
 10
1489.5604735312679
 20
2800.7316662232301
 30
0.0
 11
1349.56047353127
 21
2800.7316662232301
 31
0.0
  0
LINE
  5
7B0E
  8
1
 10
1349.56047353127
 20
2810.7316662232301
 30
0.0
 11
1349.56047353127
 21
2800.7316662232301
 31
0.0
  0
LINE
  5
7B0F
  8
1
 10
1489.56047353127
 20
2810.7316662232301
 30
0.0
 11
1489.56047353127
 21
2800.7316662232301
 31
0.0
  0
LINE
  5
7B10
  8
1
 10
1349.56047353127
 20
2760.7316662232311
 30
0.0
 11
1349.5604735312679
 21
2750.7316662232301
 31
0.0
  0
LINE
  5
7B11
  8
1
 10
1489.56047353127
 20
2760.7316662232311
 30
0.0
 11
1489.56047353127
 21
2750.7316662232301
 31
0.0
  0
LINE
  5
7B12
  8
1
 10
1349.56047353127
 20
2810.7316662232301
 30
0.0
 11
1175.5454834376319
 21
2810.7316662232301
 31
0.0
  0
LINE
  5
7B13
  8
1
 10
1260.5604735312679
 20
2757.3731722548491
 30
0.0
 11
1260.5604735312679
 21
2728.2574502548491
 31
0.0
  0
LINE
  5
7B14
  8
1
 10
1578.5604735312679
 20
2757.3731722548491
 30
0.0
 11
1578.5604735312679
 21
2728.2574502548491
 31
0.0
  0
CIRCLE
  5
7B15
  8
1
 10
1419.5604735312679
 20
3010.7316662232311
 30
0.0
 40
118.0
  0
INSERT
  5
7B16
  8
0
  2
YA_N
 10
-125.28520241714951
 20
-378.20747810478872
 30
0.0
 41
25.0
 42
25.0
 43
25.0
  0
LINE
  5
7B18
  8
1
 10
5330.6400047573088
 20
2750.7316662232301
 30
0.0
 11
5330.6400047573088
 21
4395.7316662232288
 31
0.0
  0
LINE
  5
7B19
  8
1
 10
5332.9400047573099
 20
2750.7316662232301
 30
0.0
 11
5332.9400047573108
 21
4395.7316662232288
 31
0.0
  0
LINE
  5
7B1A
  8
1
 10
6182.9400047573063
 20
2750.7316662232301
 30
0.0
 11
6182.9400047573126
 21
4395.7316662232288
 31
0.0
  0
LINE
  5
7B1C
  8
1
 10
1169.5604735312691
 20
2750.7316662232301
 30
0.0
 11
1169.5604735312691
 21
2625.7316662232301
 31
0.0
  0
POINT
  5
7B21
  8
1
 10
2929.5604735312681
 20
2750.7316662232301
 30
0.0
  0
POINT
  5
7B22
  8
1
 10
2929.5604735312681
 20
2625.7316662232301
 30
0.0
  0
POINT
  5
7B23
  8
1
 10
2929.5604735312681
 20
2750.7316662232301
 30
0.0
  0
LINE
  5
7B25
  8
1
 10
2669.5604735312681
 20
2625.7316662232301
 30
0.0
 11
2669.5604735312681
 21
2750.7316662232301
 31
0.0
  0
CIRCLE
  5
7B2D
  8
1
 10
2269.5604735312681
 20
3635.7316662232311
 30
0.0
 40
203.19999999999999
  0
LINE
  5
7B37
  8
1
 10
2929.5604735312681
 20
7683.7675927715281
 30
0.0
 11
1609.5604735312679
 21
7683.7675927715281
 31
0.0
  0
LINE
  5
7B38
  8
1
 10
2929.5604735312681
 20
7683.7675927715281
 30
0.0
 11
2929.5604735312681
 21
7613.7675927715254
 31
0.0
  0
LINE
  5
7B39
  8
1
 10
1609.5604735312679
 20
7683.7675927715281
 30
0.0
 11
1609.5604735312679
 21
7666.7675927715181
 31
0.0
  0
LINE
  5
7B3A
  8
1
 10
1169.5604735312679
 20
6758.7675927715281
 30
0.0
 11
1169.5604735312679
 21
5848.7675927715281
 31
0.0
  0
LINE
  5
7B3B
  8
1
 10
2669.5604735312681
 20
5848.7675927715281
 30
0.0
 11
1169.5604735312679
 21
5848.7675927715281
 31
0.0
  0
LINE
  5
7B3C
  8
1
 10
2929.5604735312691
 20
6693.7675927715281
 30
0.0
 11
2669.5604735312681
 21
6693.7675927715281
 31
0.0
  0
LINE
  5
7B3D
  8
1
 10
2669.5604735312681
 20
6693.7675927715281
 30
0.0
 11
2669.5604735312681
 21
5848.7675927715281
 31
0.0
  0
POINT
  5
7B3E
  8
1
 10
1869.5604735312679
 20
5848.7675927715281
 30
0.0
  0
LINE
  5
7B3F
  8
1
 10
4480.940004757309
 20
3535.7316662232301
 30
0.0
 11
4480.940004757309
 21
2750.7316662232301
 31
0.0
  0
LINE
  5
7B40
  8
1
 10
4480.940004757309
 20
3535.7316662232301
 30
0.0
 11
5234.940004757309
 21
3535.7316662232301
 31
0.0
  0
LINE
  5
7B41
  8
1
 10
5234.940004757309
 20
3535.7316662232301
 30
0.0
 11
5234.9400047573072
 21
2750.7316662232301
 31
0.0
  0
LINE
  5
7B42
  8
1
 10
4327.940004757309
 20
3838.93166622323
 30
0.0
 11
4437.9400047573072
 21
3838.93166622323
 31
0.0
  0
LINE
  5
7B43
  8
1
 10
4327.9400047573117
 20
3432.5316662232308
 30
0.0
 11
4437.9400047573108
 21
3432.5316662232308
 31
0.0
  0
LINE
  5
7B44
  8
1
 10
4327.9400047573072
 20
3838.93166622323
 30
0.0
 11
4327.9400047573163
 21
2891.7316662232301
 31
0.0
  0
LINE
  5
7B45
  8
1
 10
4437.9400047573117
 20
3129.7316662232301
 30
0.0
 11
4327.9400047573117
 21
3129.7316662232301
 31
0.0
  0
LINE
  5
7B46
  8
1
 10
4437.9400047573135
 20
2891.7316662232301
 30
0.0
 11
4327.9400047573154
 21
2891.7316662232301
 31
0.0
  0
LINE
  5
7B47
  8
1
 10
4437.9400047573072
 20
3838.93166622323
 30
0.0
 11
4437.9400047573163
 21
2891.7316662232301
 31
0.0
  0
LINE
  5
7B48
  8
1
 10
4470.9400047573081
 20
3915.7316662232301
 30
0.0
 11
4470.9400047573081
 21
2790.7316662232301
 31
0.0
  0
LINE
  5
7B49
  8
1
 10
4270.940004757309
 20
3915.7316662232301
 30
0.0
 11
4270.940004757309
 21
2790.7316662232301
 31
0.0
  0
LINE
  5
7B4A
  8
1
 10
4270.940004757309
 20
3915.7316662232301
 30
0.0
 11
4470.9400047573081
 21
3915.7316662232301
 31
0.0
  0
LINE
  5
7B4B
  8
1
 10
4470.9400047573081
 20
2790.7316662232301
 30
0.0
 11
4270.940004757309
 21
2790.7316662232301
 31
0.0
  0
LINE
  5
7B4C
  8
2
 10
1681.343779466871
 20
3010.7316662232311
 30
0.0
 11
1114.6974356359481
 21
3010.7316662232311
 31
0.0
  0
LINE
  5
7B4D
  8
1
 10
4437.940004757309
 20
3675.7316662232301
 30
0.0
 11
5332.9400047573099
 21
3675.7316662232301
 31
0.0
  0
LINE
  5
7B4E
  8
1
 10
4437.9400047573099
 20
3595.7316662232311
 30
0.0
 11
5332.9400047573099
 21
3595.7316662232311
 31
0.0
  0
LINE
  5
7B50
  8
1
 10
5279.940004757309
 20
4395.7316662232288
 30
0.0
 11
6235.940004757309
 21
4395.7316662232288
 31
0.0
  0
LINE
  5
7B51
  8
1
 10
5279.940004757309
 20
4345.7316662232306
 30
0.0
 11
6235.9400047573072
 21
4345.7316662232288
 31
0.0
  0
LINE
  5
7B52
  8
1
 10
5279.940004757309
 20
4391.7316662232288
 30
0.0
 11
6235.940004757309
 21
4391.7316662232288
 31
0.0
  0
LINE
  5
7B53
  8
1
 10
6235.9400047573081
 20
4395.7316662232288
 30
0.0
 11
6235.9400047573072
 21
4345.7316662232288
 31
0.0
  0
LINE
  5
7B54
  8
1
 10
5279.940004757309
 20
4395.7316662232288
 30
0.0
 11
5279.940004757309
 21
4345.7316662232288
 31
0.0
  0
POINT
  5
7B58
  8
1
 10
2929.5604735312681
 20
2625.7316662232301
 30
0.0
  0
POINT
  5
7B59
  8
1
 10
4270.940004757309
 20
3915.7316662232301
 30
0.0
  0
ARC
  5
7B5A
  8
1
 10
2269.5604735312681
 20
3635.7316662232311
 30
0.0
 40
280.0
 50
303.06668567542681
 51
129.58696622881351
  0
ARC
  5
7B5B
  8
1
 10
1419.5604735312679
 20
3010.7316662232311
 30
0.0
 40
220.0
 50
129.58696622881351
 51
303.06668567542681
  0
LINE
  5
7B5C
  8
1
 10
2091.1308388770749
 20
3851.5159693529331
 30
0.0
 11
1279.365760588687
 21
3180.2764758251392
 31
0.0
  0
LINE
  5
7B5D
  8
1
 10
2136.3596656201698
 20
3789.184540982325
 30
0.0
 11
1342.209610669508
 21
3099.843079715225
 31
0.0
  0
LINE
  5
7B5E
  8
1
 10
2376.3208654962691
 20
3462.8373091508279
 30
0.0
 11
1481.557157841653
 21
2910.3304155611072
 31
0.0
  0
LINE
  5
7B5F
  8
1
 10
2422.332612396578
 20
3401.081557366409
 30
0.0
 11
1539.5957254968689
 21
2826.3637235500132
 31
0.0
  0
LINE
  5
7B61
  8
1
 10
1068.5604735312679
 20
6763.7675927715281
 30
0.0
 11
1068.5604735312679
 21
7613.7675927715318
 31
0.0
  0
LINE
  5
7B62
  8
1
 10
1018.560473531268
 20
6710.7675927715281
 30
0.0
 11
1018.560473531268
 21
7666.7675927715272
 31
0.0
  0
LINE
  5
7B63
  8
2
 10
2269.5604735312681
 20
5622.0116577251356
 30
0.0
 11
2269.5604735312681
 21
7720.9774112505047
 31
0.0
  0
LINE
  5
7B64
  8
1
 10
3074.5604735312681
 20
6763.7675927715281
 30
0.0
 11
1068.5604735312679
 21
6763.7675927715281
 31
0.0
  0
LINE
  5
7B65
  8
1
 10
2549.5604735312681
 20
5701.7675927715281
 30
0.0
 11
1199.5604735312679
 21
5701.7675927715281
 31
0.0
  0
LINE
  5
7B66
  8
1
 10
2549.5604735312681
 20
5901.7675927715281
 30
0.0
 11
1199.5604735312679
 21
5901.7675927715281
 31
0.0
  0
LINE
  5
7B67
  8
1
 10
2472.760473531268
 20
5868.7675927715254
 30
0.0
 11
1300.5604735312679
 21
5868.7675927715354
 31
0.0
  0
LINE
  5
7B68
  8
1
 10
2472.7604735312671
 20
5758.7675927715236
 30
0.0
 11
1300.5604735312679
 21
5758.7675927715354
 31
0.0
  0
LINE
  5
7B69
  8
1
 10
2014.5604735312679
 20
6665.7675927715272
 30
0.0
 11
2229.5604735312681
 21
6665.7675927715291
 31
0.0
  0
LINE
  5
7B6A
  8
1
 10
2524.5604735312681
 20
5911.7675927715281
 30
0.0
 11
2309.56047353127
 21
5911.7675927715281
 31
0.0
  0
LINE
  5
7B6B
  8
1
 10
1199.5604735312679
 20
5901.7675927715281
 30
0.0
 11
1199.5604735312679
 21
5701.7675927715281
 31
0.0
  0
LINE
  5
7B6C
  8
1
 10
1300.5604735312679
 20
5868.7675927715318
 30
0.0
 11
1300.5604735312679
 21
5758.7675927715318
 31
0.0
  0
LINE
  5
7B6D
  8
1
 10
2309.5604735312681
 20
5868.7675927715281
 30
0.0
 11
2309.5604735312681
 21
6763.7675927715281
 31
0.0
  0
LINE
  5
7B6E
  8
1
 10
2229.5604735312681
 20
5868.7675927715281
 30
0.0
 11
2229.5604735312681
 21
6710.7675927715281
 31
0.0
  0
LINE
  5
7B6F
  8
1
 10
1538.5604735312679
 20
5868.7675927715318
 30
0.0
 11
1538.5604735312679
 21
5758.7675927715318
 31
0.0
  0
LINE
  5
7B70
  8
1
 10
2066.3604735312688
 20
5758.7675927715318
 30
0.0
 11
2066.3604735312688
 21
5868.7675927715281
 31
0.0
  0
LINE
  5
7B71
  8
1
 10
2549.5604735312681
 20
5701.7675927715281
 30
0.0
 11
2549.5604735312681
 21
5901.7675927715281
 31
0.0
  0
LINE
  5
7B72
  8
1
 10
2472.760473531268
 20
5758.7675927715281
 30
0.0
 11
2472.760473531268
 21
5868.7675927715254
 31
0.0
  0
POINT
  5
7B73
  8
1
 10
2549.5604735312681
 20
5701.7675927715281
 30
0.0
  0
LINE
  5
7B74
  8
1
 10
1018.560473531268
 20
6710.7675927715281
 30
0.0
 11
2274.5604735312681
 21
6710.7675927715281
 31
0.0
  0
LINE
  5
7B75
  8
1
 10
3074.5604735312681
 20
7616.0675927715283
 30
0.0
 11
2274.5604735312681
 21
7616.0675927715283
 31
0.0
  0
LINE
  5
7B76
  8
1
 10
3074.5604735312681
 20
7613.7675927715254
 30
0.0
 11
2274.5604735312681
 21
7613.7675927715281
 31
0.0
  0
LINE
  5
7B77
  8
2
 10
948.53349854014948
 20
7188.7675927715263
 30
0.0
 11
3247.696241017833
 21
7188.7675927715281
 31
0.0
  0
LINE
  5
7B78
  8
1
 10
1018.560473531268
 20
7666.7675927715272
 30
0.0
 11
2274.5604735312681
 21
7666.7675927715054
 31
0.0
  0
LINE
  5
7B79
  8
1
 10
2274.5604735312681
 20
6710.7675927715281
 30
0.0
 11
2274.5604735312681
 21
7666.7675927715027
 31
0.0
  0
LINE
  5
7B7A
  8
1
 10
2221.5604735312681
 20
7613.7675927715272
 30
0.0
 11
1068.5604735312679
 21
7613.7675927715318
 31
0.0
  0
LINE
  5
7B7B
  8
1
 10
2221.5604735312681
 20
6763.7675927715291
 30
0.0
 11
2221.5604735312681
 21
7613.7675927715281
 31
0.0
  0
LINE
  5
7B7D
  8
1
 10
3074.5604735312681
 20
6763.7675927715281
 30
0.0
 11
3074.5604735312681
 21
7616.067592771532
 31
0.0
  0
LINE
  5
7B7E
  8
2
 10
1419.5604735312679
 20
6565.6400606813149
 30
0.0
 11
1419.5604735312679
 21
5596.3840879366162
 31
0.0
  0
LINE
  5
7B7F
  8
1
 10
1219.5604735312679
 20
6561.2675927725249
 30
0.0
 11
1619.5604735312661
 21
6561.2675927725231
 31
0.0
  0
LINE
  5
7B80
  8
1
 10
1219.5604735312679
 20
6031.767592772524
 30
0.0
 11
1219.5604735312679
 21
6561.2675927725249
 31
0.0
  0
LINE
  5
7B81
  8
1
 10
1619.56047353127
 20
5925.4105116901092
 30
0.0
 11
1219.5604735312679
 21
5925.4105116901092
 31
0.0
  0
LINE
  5
7B82
  8
1
 10
1219.5604735312679
 20
5925.4105116901092
 30
0.0
 11
1219.5604735312679
 21
6084.2675927725249
 31
0.0
  0
LINE
  5
7B83
  8
1
 10
1449.5604735312679
 20
5758.7675927715327
 30
0.0
 11
1449.56047353127
 21
5898.7675927676619
 31
0.0
  0
LINE
  5
7B84
  8
1
 10
1389.56047353127
 20
5758.7675927715327
 30
0.0
 11
1389.56047353127
 21
5898.7675927676619
 31
0.0
  0
LINE
  5
7B85
  8
1
 10
1358.84302454867
 20
5903.7675927725249
 30
0.0
 11
1480.277922513865
 21
5903.7675927725249
 31
0.0
  0
LINE
  5
7B86
  8
1
 10
1380.139164585421
 20
5898.7675927676619
 30
0.0
 11
1456.9817824771139
 21
5898.7675927676619
 31
0.0
  0
LINE
  5
7B87
  8
1
 10
1358.84302454867
 20
5925.4105116901092
 30
0.0
 11
1358.84302454867
 21
5903.7675927725249
 31
0.0
  0
LINE
  5
7B88
  8
1
 10
1380.139164585421
 20
5898.7675927676619
 30
0.0
 11
1380.139164585423
 21
5903.7675927725249
 31
0.0
  0
LINE
  5
7B89
  8
1
 10
1456.9817824771139
 20
5898.7675927676619
 30
0.0
 11
1456.9817824771139
 21
5903.7675927725249
 31
0.0
  0
LINE
  5
7B8A
  8
1
 10
1480.277922513865
 20
5925.4105116901092
 30
0.0
 11
1480.277922513865
 21
5903.7675927725249
 31
0.0
  0
LINE
  5
7B8B
  8
1
 10
1449.5604735312679
 20
5758.7675927715327
 30
0.0
 11
1389.5604735312679
 21
5758.7675927715327
 31
0.0
  0
LINE
  5
7B8C
  8
1
 10
1619.5604735312679
 20
5925.4105116901092
 30
0.0
 11
1619.5604735312661
 21
6561.2675927725231
 31
0.0
  0
LINE
  5
7B8F
  8
1
 10
2309.5604735312681
 20
6665.7675927715291
 30
0.0
 11
2524.5604735312681
 21
6665.7675927715272
 31
0.0
  0
LINE
  5
7B90
  8
1
 10
2229.5604735312691
 20
5911.7675927715281
 30
0.0
 11
2014.5604735312679
 21
5911.7675927715281
 31
0.0
  0
DIMENSION
  5
7BA3
  8
3
  2
*D2
 10
3556.8698919423491
 20
6693.7675927715281
 30
0.0
 11
3556.8698919423468
 21
7190.8552420415108
 31
0.0
 70
   128
 13
2929.5604735312681
 23
7683.7675927715281
 33
0.0
 14
2929.5604735312681
 24
6693.7675927715281
 34
0.0
 50
90.0
1001
ACAD
1000
DSTYLE
1002
{
1070
   287
1070
     3
1070
    40
1040
35.0
1070
   143
1040
0.039
1070
   172
1070
     1
1070
   271
1070
     0
1070
   279
1070
     0
1070
   288
1070
     1
1002
}
  0
LINE
  5
7BA4
  8
1
 10
1609.5604735312679
 20
6758.7675927715263
 30
0.0
 11
1169.5604735312679
 21
6758.7675927715263
 31
0.0
  0
LINE
  5
7BA5
  8
1
 10
1609.5604735312679
 20
6763.7675927715281
 30
0.0
 11
1609.5604735312679
 21
6758.7675927715263
 31
0.0
  0
LINE
  5
7BB1
  8
1
 10
2929.5604735312681
 20
6763.7675927715291
 30
0.0
 11
2929.5604735312681
 21
6693.7675927715281
 31
0.0
  0
LINE
  5
7BB2
  8
1
 10
1068.5604735312679
 20
7613.7675927715318
 30
0.0
 11
2221.5604735312681
 21
6763.7675927715281
 31
0.0
  0
LINE
  5
7BB3
  8
1
 10
2221.5604735312681
 20
7613.7675927715272
 30
0.0
 11
1068.5604735312679
 21
6763.7675927715281
 31
0.0
  0
DIMENSION
  5
7BBF
  8
3
  2
*D3
 10
3556.8698919423468
 20
5848.7675927715281
 30
0.0
 11
3469.3698919423468
 21
6271.2675927715291
 31
0.0
 70
     0
 13
2929.5604735312681
 23
6693.7675927715281
 33
0.0
 14
2669.5604735312681
 24
5848.7675927715281
 34
0.0
 50
90.0
1001
ACAD
1000
DSTYLE
1002
{
1070
   287
1070
     4
1070
    40
1040
35.0
1070
    75
1070
     1
1070
   143
1040
0.039
1070
   172
1070
     1
1070
   271
1070
     0
1070
   279
1070
     1
1070
   288
1070
     1
1002
}
  0
DIMENSION
  5
7BCE
  8
3
  2
*D4
 10
2669.5604735312681
 20
5386.5740510801079
 30
0.0
 11
3169.5604735312681
 21
5386.5740510801079
 31
0.0
 70
   128
 13
2929.5604735312681
 23
6693.7675927715281
 33
0.0
 14
2669.5604735312681
 24
5848.7675927715281
 34
0.0
1001
ACAD
1000
DSTYLE
1002
{
1070
   287
1070
     3
1070
    40
1040
35.0
1070
   143
1040
0.039
1070
   172
1070
     1
1070
   271
1070
     0
1070
   279
1070
     0
1070
   288
1070
     1
1002
}
  0
DIMENSION
  5
7BE6
  8
3
  2
*D5
 10
1169.5604735312679
 20
5386.5740510801079
 30
0.0
 11
1919.5604735312679
 21
5474.0740510801079
 31
0.0
 70
     0
 13
2669.5604735312681
 23
5848.7675927715281
 33
0.0
 14
1169.5604735312679
 24
5848.7675927715281
 34
0.0
1001
ACAD
1000
DSTYLE
1002
{
1070
   287
1070
     4
1070
    40
1040
35.0
1070
    75
1070
     1
1070
   143
1040
0.039
1070
   172
1070
     1
1070
   271
1070
     0
1070
   279
1070
     1
1070
   288
1070
     1
1002
}
  0
DIMENSION
  5
7BF3
  8
3
  2
*D6
 10
739.16869267066897
 20
6758.7675927715263
 30
0.0
 11
739.16869267066795
 21
6258.2074768975936
 31
0.0
 70
   128
 13
1169.5604735312679
 23
5848.7675927715281
 33
0.0
 14
1169.5604735312679
 24
6758.7675927715263
 34
0.0
 50
90.0
1001
ACAD
1000
DSTYLE
1002
{
1070
   287
1070
     3
1070
    40
1040
35.0
1070
   143
1040
0.039
1070
   172
1070
     1
1070
   271
1070
     0
1070
   279
1070
     0
1070
   288
1070
     1
1002
}
  0
DIMENSION
  5
7BFF
  8
3
  2
*D7
 10
739.16869267066795
 20
7683.7675927715281
 30
0.0
 11
651.66869267066659
 21
7221.2675927715272
 31
0.0
 70
     0
 13
1169.5604735312679
 23
6758.7675927715263
 33
0.0
 14
1609.5604735312679
 24
7683.7675927715281
 34
0.0
 50
90.0
1001
ACAD
1000
DSTYLE
1002
{
1070
   287
1070
     4
1070
    40
1040
35.0
1070
    75
1070
     1
1070
   143
1040
0.039
1070
   172
1070
     1
1070
   271
1070
     0
1070
   279
1070
     1
1070
   288
1070
     1
1002
}
  0
DIMENSION
  5
7C0E
  8
3
  2
*D8
 10
1609.5604735312679
 20
7914.311000374677
 30
0.0
 11
1389.5604735312679
 21
7914.311000374677
 31
0.0
 70
   128
 13
1169.5604735312679
 23
6758.7675927715263
 33
0.0
 14
1609.5604735312679
 24
7683.7675927715281
 34
0.0
1001
ACAD
1000
DSTYLE
1002
{
1070
   287
1070
     3
1070
    40
1040
35.0
1070
   143
1040
0.039
1070
   172
1070
     1
1070
   271
1070
     0
1070
   279
1070
     0
1070
   288
1070
     1
1002
}
  0
DIMENSION
  5
7C1A
  8
3
  2
*D9
 10
2929.5604735312681
 20
7914.311000374677
 30
0.0
 11
2269.5604735312681
 21
8001.8110003746779
 31
0.0
 70
     0
 13
1609.5604735312679
 23
7683.7675927715281
 33
0.0
 14
2929.5604735312681
 24
7683.7675927715281
 34
0.0
1001
ACAD
1000
DSTYLE
1002
{
1070
   287
1070
     4
1070
    40
1040
35.0
1070
    75
1070
     1
1070
   143
1040
0.039
1070
   172
1070
     1
1070
   271
1070
     0
1070
   279
1070
     1
1070
   288
1070
     1
1002
}
  0
DIMENSION
  5
7C3D
  8
3
  2
*D10
 10
2221.5604735312681
 20
4586.5591929576403
 30
0.0
 11
1619.8033275050909
 21
4586.5591929576403
 31
0.0
 70
   128
 13
1071.5604735312679
 23
4395.7316662232288
 33
0.0
 14
2221.5604735312681
 24
4395.7316662232288
 34
0.0
1001
ACAD
1000
DSTYLE
1002
{
1070
   287
1070
     3
1070
    40
1040
35.0
1070
   143
1040
0.039
1070
   172
1070
     1
1070
   271
1070
     0
1070
   279
1070
     0
1070
   288
1070
     1
1002
}
  0
DIMENSION
  5
7C4A
  8
3
  2
*D11
 10
2269.5604735312681
 20
4818.7671582796729
 30
0.0
 11
1608.466749201121
 21
4818.7671582796729
 31
0.0
 70
   128
 13
1071.5604735312679
 23
4413.2316662232297
 33
0.0
 14
2269.5604735312681
 24
4481.5706671219632
 34
0.0
1001
ACAD
1000
DSTYLE
1002
{
1070
   287
1070
     3
1070
    40
1040
35.0
1070
   143
1040
0.039
1070
   172
1070
     1
1070
   271
1070
     0
1070
   279
1070
     0
1070
   288
1070
     1
1002
}
  0
DIMENSION
  5
7C56
  8
3
  2
*D12
 10
3074.5604735312681
 20
4818.7671582796729
 30
0.0
 11
2672.0604735312681
 21
4906.267158279672
 31
0.0
 70
     0
 13
2269.5604735312681
 23
4481.5706671219632
 33
0.0
 14
3074.5604735312681
 24
3553.7316662232301
 34
0.0
1001
ACAD
1000
DSTYLE
1002
{
1070
   287
1070
     4
1070
    40
1040
35.0
1070
    75
1070
     1
1070
   143
1040
0.039
1070
   172
1070
     1
1070
   271
1070
     0
1070
   279
1070
     1
1070
   288
1070
     1
1002
}
  0
DIMENSION
  5
7C63
  8
3
  2
*D13
 10
3444.991607781456
 20
3635.7316662232311
 30
0.0
 11
3444.991607781456
 21
3997.5438674597858
 31
0.0
 70
   128
 13
2274.5604735312681
 23
4395.7316662232288
 33
0.0
 14
3176.3411249842452
 24
3635.7316662232311
 34
0.0
 50
90.0
1001
ACAD
1000
DSTYLE
1002
{
1070
   287
1070
     3
1070
    40
1040
35.0
1070
   143
1040
0.039
1070
   172
1070
     1
1070
   271
1070
     0
1070
   279
1070
     0
1070
   288
1070
     1
1002
}
  0
DIMENSION
  5
7C6F
  8
3
  2
*D14
 10
3444.991607781456
 20
2625.7316662232301
 30
0.0
 11
3357.4916077814551
 21
3130.731666223232
 31
0.0
 70
     0
 13
3176.3411249842452
 23
3635.7316662232311
 33
0.0
 14
2929.5604735312681
 24
2625.7316662232301
 34
0.0
 50
90.0
1001
ACAD
1000
DSTYLE
1002
{
1070
   287
1070
     4
1070
    40
1040
35.0
1070
    75
1070
     1
1070
   143
1040
0.039
1070
   172
1070
     1
1070
   271
1070
     0
1070
   279
1070
     1
1070
   288
1070
     1
1002
}
  0
DIMENSION
  5
7D01
  8
3
  2
*D15
 10
6537.8257878305094
 20
3075.7316662232301
 30
0.0
 11
6537.8257878305094
 21
3623.9063406411078
 31
0.0
 70
   128
 13
6185.2400047573092
 23
4195.7316662232297
 33
0.0
 14
6185.240004757311
 24
3075.7316662232301
 34
0.0
 50
90.0
1001
ACAD
1000
DSTYLE
1002
{
1070
   287
1070
     3
1070
     3
1000
φ<>
1070
    40
1040
35.0
1070
   143
1040
0.039
1070
   172
1070
     1
1070
   271
1070
     0
1070
   279
1070
     0
1070
   288
1070
     1
1002
}
  0
DIMENSION
  5
7D19
  8
3
  2
*D16
 10
6182.9400047573126
 20
4537.1934174266062
 30
0.0
 11
5760.7077326111694
 21
4537.1934174266062
 31
0.0
 70
   128
 13
5332.9400047573108
 23
4395.7316662232288
 33
0.0
 14
6182.9400047573126
 24
4395.7316662232288
 34
0.0
1001
ACAD
1000
DSTYLE
1002
{
1070
   287
1070
     3
1070
    40
1040
35.0
1070
   143
1040
0.039
1070
   172
1070
     1
1070
   271
1070
     0
1070
   279
1070
     0
1070
   288
1070
     1
1002
}
  0
DIMENSION
  5
7D28
  8
3
  2
*D17
 10
6193.2400047573092
 20
4798.4714673410299
 30
0.0
 11
5975.5900047573077
 21
4798.4714673410299
 31
0.0
 70
   128
 13
5757.9400047573081
 23
4688.6092411189848
 33
0.0
 14
6193.2400047573092
 24
4395.7316662232288
 34
0.0
1001
ACAD
1000
DSTYLE
1002
{
1070
   287
1070
     3
1070
    40
1040
35.0
1070
   143
1040
0.039
1070
   172
1070
     1
1070
   271
1070
     0
1070
   279
1070
     0
1070
   288
1070
     1
1002
}
  0
DIMENSION
  5
7D76
  8
3
  2
*D18
 10
4270.940004757309
 20
4798.4714673410299
 30
0.0
 11
5014.440004757309
 21
4973.4714673410308
 31
0.0
 70
     0
  1
MAX\P1530
 13
5757.9400047573081
 23
4688.6092411189848
 33
0.0
 14
4270.940004757309
 24
3915.7316662232301
 34
0.0
1001
ACAD
1000
DSTYLE
1002
{
1070
   287
1070
     4
1070
    40
1040
35.0
1070
    75
1070
     1
1070
   143
1040
0.039
1070
   172
1070
     1
1070
   271
1070
     0
1070
   279
1070
     1
1070
   288
1070
     1
1002
}
  0
LINE
  5
7D81
  8
4
 10
6475.0
 20
1750.0
 30
0.0
 11
6475.0
 21
1050.0
 31
0.0
  0
LINE
  5
7D82
  8
4
 10
4025.0
 20
1750.0
 30
0.0
 11
4025.0
 21
1050.0
 31
0.0
  0
LINE
  5
7D83
  8
4
 10
2275.0
 20
1750.0
 30
0.0
 11
2275.0
 21
1050.0
 31
0.0
  0
LINE
  5
7D86
  8
4
 10
2275.0
 20
1050.0
 30
0.0
 11
6475.0
 21
1050.0
 31
0.0
  0
LINE
  5
7D87
  8
4
 10
2275.0
 20
1400.0
 30
0.0
 11
6475.0
 21
1400.0
 31
0.0
  0
TEXT
  5
7D88
  8
4
 10
2409.7572829641558
 20
1510.4005905331451
 30
0.0
 40
175.0
  1
機器名称
  0
TEXT
  5
7D89
  8
4
 10
2401.9033710867911
 20
1125.7580485620381
 30
0.0
 40
175.0
  1
機器型番
  0
TEXT
  5
7D8A
  8
4
 10
4131.1124678485839
 20
1482.5648553767689
 30
0.0
 40
140.0
  1
ミツヤリミットロ－ﾄﾞファン
  0
TEXT
  5
7D8B
  8
4
 10
4153.2907345491822
 20
1110.0585449798009
 30
0.0
 40
175.0
  1
LL#7-1
  0
TEXT
  5
7D8D
  8
4
 10
2697.9708263690191
 20
8342.0009446638051
 30
0.0
 40
188.99999999999989
  1
床置ベット
  0
TEXT
  5
7D8E
  8
4
 10
1004.678023501895
 20
8868.5834166975455
 30
0.0
 40
252.0
  1
遠心式片吸込片持リミットロ－ﾄﾞファン
  0
LINE
  5
7D8F
  8
4
 10
875.0
 20
8642.9306399268171
 30
0.0
 11
6475.0
 21
8642.9306399268171
 31
0.0
  0
LINE
  5
7D90
  8
4
 10
875.0
 20
9342.9306399268171
 30
0.0
 11
6475.0
 21
9342.9306399268171
 31
0.0
  0
LINE
  5
7D91
  8
4
 10
2275.0
 20
1750.0
 30
0.0
 11
6475.0
 21
1750.0
 31
0.0
  0
LINE
  5
7D92
  8
4
 10
875.0
 20
9342.9306399268171
 30
0.0
 11
875.0
 21
8642.9306399268171
 31
0.0
  0
TEXT
  5
7D93
  8
4
 10
1172.4649135195609
 20
8338.1181714122031
 30
0.0
 40
188.99999999999989
  1
右回転上向
  0
TEXT
  5
7D94
  8
4
 10
5141.3934573725146
 20
9471.21378523358
 30
0.0
 40
196.0
  1
No.
  0
TEXT
  5
7D95
  8
4
 10
4589.5362191000459
 20
8342.0009446638051
 30
0.0
 40
188.99999999999989
  1
縮尺：1/35
  0
LINE
  5
7D96
  8
4
 10
6475.0
 20
9342.9306399268171
 30
0.0
 11
6475.0
 21
8642.9306399268171
 31
0.0
  0
LINE
  5
7D97
  8
4
 10
7350.0
 20
10325.0
 30
0.0
 11
7350.0
 21
10325.0
 31
0.0
  0
LINE
  5
7D98
  8
4
 10
5042.160978259526
 20
9384.4225409389055
 30
0.0
 11
5042.160978259526
 21
9753.2829154241354
 31
0.0
  0
LINE
  5
7D99
  8
4
 10
5042.160978259526
 20
9753.2829154241354
 30
0.0
 11
6475.0
 21
9753.2829154241354
 31
0.0
  0
LINE
  5
7D9A
  8
4
 10
6475.0
 20
9753.2829154241354
 30
0.0
 11
6475.0
 21
9384.4225409389055
 31
0.0
  0
LINE
  5
7D9B
  8
4
 10
6475.0
 20
9384.4225409389055
 30
0.0
 11
5042.160978259526
 21
9384.4225409389055
 31
0.0
  0
LINE
  5
7D9C
  8
4
 10
0.0
 20
0.0
 30
0.0
 11
0.0
 21
10325.0
 31
0.0
  0
LINE
  5
7D9D
  8
4
 10
0.0
 20
10325.0
 30
0.0
 11
7350.0
 21
10325.0
 31
0.0
  0
LINE
  5
7D9E
  8
4
 10
7350.0
 20
10325.0
 30
0.0
 11
7350.0
 21
0.0
 31
0.0
  0
LINE
  5
7D9F
  8
4
 10
7350.0
 20
0.0
 30
0.0
 11
0.0
 21
0.0
 31
0.0
  0
DIMENSION
  5
7E50
  8
3
  2
*D20
 10
3074.5604735312681
 20
5001.7617842140708
 30
0.0
 11
2099.2193951210638
 21
5001.7617842140708
 31
0.0
 70
   128
 13
1018.560473531268
 23
4395.7316662232288
 33
0.0
 14
3074.5604735312681
 24
4818.7671582796729
 34
0.0
1001
ACAD
1000
DSTYLE
1002
{
1070
   287
1070
     3
1070
    40
1040
35.0
1070
   143
1040
0.039
1070
   172
1070
     1
1070
   271
1070
     0
1070
   279
1070
     0
1070
   288
1070
     1
1002
}
  0
DIMENSION
  5
7E97
  8
3
  2
*D21
 10
2269.5604735312681
 20
2377.707933910609
 30
0.0
 11
1719.5604735312691
 21
2465.207933910609
 31
0.0
 70
     0
 13
1169.5604735312691
 23
2625.7316662232301
 33
0.0
 14
2269.5604735312681
 24
2625.7316662232301
 34
0.0
1001
ACAD
1000
DSTYLE
1002
{
1070
   287
1070
     3
1070
    40
1040
35.0
1070
   143
1040
0.039
1070
   172
1070
     1
1070
   271
1070
     0
1070
   279
1070
     0
1002
}
  0
DIMENSION
  5
7EA4
  8
3
  2
*D22
 10
2929.5604735312681
 20
2377.707933910609
 30
0.0
 11
2599.5604735312681
 21
2465.207933910609
 31
0.0
 70
     0
 13
2269.5604735312681
 23
2625.7316662232301
 33
0.0
 14
2929.5604735312681
 24
2625.7316662232301
 34
0.0
1001
ACAD
1000
DSTYLE
1002
{
1070
   287
1070
     3
1070
    40
1040
35.0
1070
   143
1040
0.039
1070
   172
1070
     1
1070
   271
1070
     0
1070
   279
1070
     0
1002
}
  0
DIMENSION
  5
7EB1
  8
3
  2
*D23
 10
5757.9400047573072
 20
2377.707933910609
 30
0.0
 11
5087.9400047573081
 21
2465.207933910609
 31
0.0
 70
     0
 13
4417.9400047573081
 23
2625.7316662232301
 33
0.0
 14
5757.9400047573072
 24
2625.7316662232301
 34
0.0
1001
ACAD
1000
DSTYLE
1002
{
1070
   287
1070
     3
1070
    40
1040
35.0
1070
   143
1040
0.039
1070
   172
1070
     1
1070
   271
1070
     0
1070
   279
1070
     0
1002
}
  0
DIMENSION
  5
7EBE
  8
3
  2
*D24
 10
6252.940004757309
 20
2377.707933910609
 30
0.0
 11
6005.440004757309
 21
2465.207933910609
 31
0.0
 70
     0
 13
5757.9400047573072
 23
2625.7316662232301
 33
0.0
 14
6252.940004757309
 24
2625.7316662232301
 34
0.0
1001
ACAD
1000
DSTYLE
1002
{
1070
   287
1070
     3
1070
    40
1040
35.0
1070
   143
1040
0.039
1070
   172
1070
     1
1070
   271
1070
     0
1070
   279
1070
     0
1002
}
  0
DIMENSION
  5
7ECB
  8
3
  2
*D25
 10
3704.0844146175809
 20
2625.7316662232301
 30
0.0
 11
3616.58441461758
 21
3510.7316662232311
 31
0.0
 70
     0
 13
2274.5604735312681
 23
4395.7316662232288
 33
0.0
 14
2929.5604735312681
 24
2625.7316662232301
 34
0.0
 50
90.0
1001
ACAD
1000
DSTYLE
1002
{
1070
   287
1070
     3
1070
    40
1040
35.0
1070
   143
1040
0.039
1070
   172
1070
     1
1070
   271
1070
     0
1070
   279
1070
     0
1002
}
  0
LINE
  5
7ED4
  8
1
 10
2014.5604735312679
 20
3535.7316662232301
 30
0.0
 11
2524.5604735312681
 21
3535.7316662232301
 31
0.0
  0
LINE
  5
7ED6
  8
1
 10
2524.5604735312681
 20
3535.7316662232301
 30
0.0
 11
2669.5604735312681
 21
2750.7316662232301
 31
0.0
  0
LINE
  5
7ED7
  8
1
 10
2014.5604735312679
 20
3535.7316662232301
 30
0.0
 11
1869.5604735312679
 21
2750.7316662232301
 31
0.0
  0
LINE
  5
7ED8
  8
1
 10
2014.5604735312679
 20
5911.7675927715281
 30
0.0
 11
2014.5604735312679
 21
6665.7675927715291
 31
0.0
  0
LINE
  5
7ED9
  8
1
 10
2524.5604735312681
 20
5911.7675927715281
 30
0.0
 11
2524.5604735312681
 21
6665.7675927715272
 31
0.0
  0
LINE
  5
7EDB
  8
1
 10
5262.9400047573045
 20
2750.7316662232301
 30
0.0
 11
5262.9400047573045
 21
2625.7316662232301
 31
0.0
  0
ARC
  5
7EE0
  8
1
 10
2187.5604735312681
 20
3717.7316662232301
 30
0.0
 40
1051.0
 50
236.57095352068239
 51
246.9372123999963
  0
ENDSEC
  0
EOF
