  0
SECTION
  2
HEADER
  9
$ACADVER
  1
AC1027
  9
$ACADMAINTVER
 70
   125
  9
$DWGCODEPAGE
  3
ANSI_932
  9
$LASTSAVEDBY
  1
yasukiyo.ogawa
  9
$REQUIREDVERSIONS
160
                 0
  9
$INSBASE
 10
0.0
 20
0.0
 30
0.0
  9
$EXTMIN
 10
0.0
 20
0.0
 30
0.0
  9
$EXTMAX
 10
7350.0
 20
10325.0
 30
0.0
  9
$LIMMIN
 10
0.0
 20
0.0
  9
$LIMMAX
 10
297.0
 20
210.0
  9
$ORTHOMODE
 70
     1
  9
$REGENMODE
 70
     1
  9
$FILLMODE
 70
     0
  9
$QTEXTMODE
 70
     0
  9
$MIRRTEXT
 70
     1
  9
$LTSCALE
 40
100.0
  9
$ATTMODE
 70
     1
  9
$TEXTSIZE
 40
180.0
  9
$TRACEWID
 40
0.05
  9
$TEXTSTYLE
  7
STANDARD
  9
$CLAYER
  8
3
  9
$CELTYPE
  6
BYLAYER
  9
$CECOLOR
 62
   256
  9
$CELTSCALE
 40
1.0
  9
$DISPSILH
 70
     0
  9
$DIMSCALE
 40
35.0
  9
$DIMASZ
 40
2.0
  9
$DIMEXO
 40
0.5
  9
$DIMDLI
 40
10.0
  9
$DIMRND
 40
0.0
  9
$DIMDLE
 40
0.0
  9
$DIMEXE
 40
1.0
  9
$DIMTP
 40
1.0
  9
$DIMTM
 40
1.0
  9
$DIMTXT
 40
3.0
  9
$DIMCEN
 40
0.0
  9
$DIMTSZ
 40
0.0
  9
$DIMTOL
 70
     0
  9
$DIMLIM
 70
     0
  9
$DIMTIH
 70
     0
  9
$DIMTOH
 70
     0
  9
$DIMSE1
 70
     0
  9
$DIMSE2
 70
     0
  9
$DIMTAD
 70
     1
  9
$DIMZIN
 70
     8
  9
$DIMBLK
  1

  9
$DIMASO
 70
     1
  9
$DIMSHO
 70
     1
  9
$DIMPOST
  1
(<>)
  9
$DIMAPOST
  1

  9
$DIMALT
 70
     0
  9
$DIMALTD
 70
     2
  9
$DIMALTF
 40
0.039
  9
$DIMLFAC
 40
1.0
  9
$DIMTOFL
 70
     1
  9
$DIMTVP
 40
0.0
  9
$DIMTIX
 70
     0
  9
$DIMSOXD
 70
     0
  9
$DIMSAH
 70
     1
  9
$DIMBLK1
  1
OPEN
  9
$DIMBLK2
  1
OPEN
  9
$DIMSTYLE
  2
IGA
  9
$DIMCLRD
 70
     0
  9
$DIMCLRE
 70
     0
  9
$DIMCLRT
 70
     0
  9
$DIMTFAC
 40
10.0
  9
$DIMGAP
 40
1.0
  9
$DIMJUST
 70
     0
  9
$DIMSD1
 70
     0
  9
$DIMSD2
 70
     0
  9
$DIMTOLJ
 70
     1
  9
$DIMTZIN
 70
     8
  9
$DIMALTZ
 70
     0
  9
$DIMALTTZ
 70
     0
  9
$DIMUPT
 70
     0
  9
$DIMDEC
 70
     0
  9
$DIMTDEC
 70
     0
  9
$DIMALTU
 70
     2
  9
$DIMALTTD
 70
     2
  9
$DIMTXSTY
  7
STANDARD
  9
$DIMAUNIT
 70
     0
  9
$DIMADEC
 70
     0
  9
$DIMALTRND
 40
0.0
  9
$DIMAZIN
 70
     0
  9
$DIMDSEP
 70
    46
  9
$DIMATFIT
 70
     3
  9
$DIMFRAC
 70
     0
  9
$DIMLDRBLK
  1
OPEN
  9
$DIMLUNIT
 70
     2
  9
$DIMLWD
 70
    -2
  9
$DIMLWE
 70
    -2
  9
$DIMTMOVE
 70
     2
  9
$DIMFXL
 40
1.0
  9
$DIMFXLON
 70
     0
  9
$DIMJOGANG
 40
0.7853981633974483
  9
$DIMTFILL
 70
     0
  9
$DIMTFILLCLR
 70
     0
  9
$DIMARCSYM
 70
     0
  9
$DIMLTYPE
  6

  9
$DIMLTEX1
  6

  9
$DIMLTEX2
  6

  9
$DIMTXTDIRECTION
 70
     0
  9
$LUNITS
 70
     2
  9
$LUPREC
 70
     3
  9
$SKETCHINC
 40
0.1
  9
$FILLETRAD
 40
50.0
  9
$AUNITS
 70
     0
  9
$AUPREC
 70
     0
  9
$MENU
  1
acad
  9
$ELEVATION
 40
0.0
  9
$PELEVATION
 40
0.0
  9
$THICKNESS
 40
0.0
  9
$LIMCHECK
 70
     0
  9
$CHAMFERA
 40
0.5
  9
$CHAMFERB
 40
0.5
  9
$CHAMFERC
 40
20.0
  9
$CHAMFERD
 40
0.0
  9
$SKPOLY
 70
     0
  9
$TDCREATE
 40
2451382.610937500
  9
$TDUCREATE
 40
2451382.235939931
  9
$TDUPDATE
 40
2460241.664560185
  9
$TDUUPDATE
 40
2460241.289564584
  9
$TDINDWG
 40
0.0499579398
  9
$TDUSRTIMER
 40
0.0499579398
  9
$USRTIMER
 70
     1
  9
$ANGBASE
 50
0.0
  9
$ANGDIR
 70
     0
  9
$PDMODE
 70
     0
  9
$PDSIZE
 40
0.0
  9
$PLINEWID
 40
0.0
  9
$SPLFRAME
 70
     0
  9
$SPLINETYPE
 70
     6
  9
$SPLINESEGS
 70
     8
  9
$HANDSEED
  5
837E
  9
$SURFTAB1
 70
     6
  9
$SURFTAB2
 70
     6
  9
$SURFTYPE
 70
     6
  9
$SURFU
 70
     6
  9
$SURFV
 70
     6
  9
$UCSBASE
  2

  9
$UCSNAME
  2

  9
$UCSORG
 10
0.0
 20
0.0
 30
0.0
  9
$UCSXDIR
 10
1.0
 20
0.0
 30
0.0
  9
$UCSYDIR
 10
0.0
 20
1.0
 30
0.0
  9
$UCSORTHOREF
  2

  9
$UCSORTHOVIEW
 70
     0
  9
$UCSORGTOP
 10
0.0
 20
0.0
 30
0.0
  9
$UCSORGBOTTOM
 10
0.0
 20
0.0
 30
0.0
  9
$UCSORGLEFT
 10
0.0
 20
0.0
 30
0.0
  9
$UCSORGRIGHT
 10
0.0
 20
0.0
 30
0.0
  9
$UCSORGFRONT
 10
0.0
 20
0.0
 30
0.0
  9
$UCSORGBACK
 10
0.0
 20
0.0
 30
0.0
  9
$PUCSBASE
  2

  9
$PUCSNAME
  2

  9
$PUCSORG
 10
0.0
 20
0.0
 30
0.0
  9
$PUCSXDIR
 10
1.0
 20
0.0
 30
0.0
  9
$PUCSYDIR
 10
0.0
 20
1.0
 30
0.0
  9
$PUCSORTHOREF
  2

  9
$PUCSORTHOVIEW
 70
     0
  9
$PUCSORGTOP
 10
0.0
 20
0.0
 30
0.0
  9
$PUCSORGBOTTOM
 10
0.0
 20
0.0
 30
0.0
  9
$PUCSORGLEFT
 10
0.0
 20
0.0
 30
0.0
  9
$PUCSORGRIGHT
 10
0.0
 20
0.0
 30
0.0
  9
$PUCSORGFRONT
 10
0.0
 20
0.0
 30
0.0
  9
$PUCSORGBACK
 10
0.0
 20
0.0
 30
0.0
  9
$USERI1
 70
     0
  9
$USERI2
 70
     0
  9
$USERI3
 70
     0
  9
$USERI4
 70
     0
  9
$USERI5
 70
     0
  9
$USERR1
 40
0.0
  9
$USERR2
 40
0.0
  9
$USERR3
 40
0.0
  9
$USERR4
 40
0.0
  9
$USERR5
 40
0.0
  9
$WORLDVIEW
 70
     1
  9
$SHADEDGE
 70
     3
  9
$SHADEDIF
 70
    70
  9
$TILEMODE
 70
     1
  9
$MAXACTVP
 70
    16
  9
$PINSBASE
 10
0.0
 20
0.0
 30
0.0
  9
$PLIMCHECK
 70
     0
  9
$PEXTMIN
 10
1.000000000000000E+20
 20
1.000000000000000E+20
 30
1.000000000000000E+20
  9
$PEXTMAX
 10
-1.000000000000000E+20
 20
-1.000000000000000E+20
 30
-1.000000000000000E+20
  9
$PLIMMIN
 10
0.0
 20
0.0
  9
$PLIMMAX
 10
12.0
 20
9.0
  9
$UNITMODE
 70
     0
  9
$VISRETAIN
 70
     0
  9
$PLINEGEN
 70
     0
  9
$PSLTSCALE
 70
     1
  9
$TREEDEPTH
 70
  3020
  9
$CMLSTYLE
  2
STANDARD
  9
$CMLJUST
 70
     0
  9
$CMLSCALE
 40
20.0
  9
$PROXYGRAPHICS
 70
     1
  9
$MEASUREMENT
 70
     1
  9
$CELWEIGHT
370
    -1
  9
$ENDCAPS
280
     0
  9
$JOINSTYLE
280
     0
  9
$LWDISPLAY
290
     0
  9
$INSUNITS
 70
     0
  9
$HYPERLINKBASE
  1

  9
$STYLESHEET
  1

  9
$XEDIT
290
     1
  9
$CEPSNTYPE
380
     0
  9
$PSTYLEMODE
290
     1
  9
$FINGERPRINTGUID
  2
{8C6B58BE-C566-428F-8357-79CAC44B8947}
  9
$VERSIONGUID
  2
{540FD7A4-97C1-42E4-B8C5-8CD63F36FA98}
  9
$EXTNAMES
290
     1
  9
$PSVPSCALE
 40
0.0
  9
$OLESTARTUP
290
     0
  9
$SORTENTS
280
   127
  9
$INDEXCTL
280
     0
  9
$HIDETEXT
280
     0
  9
$XCLIPFRAME
280
     2
  9
$HALOGAP
280
     0
  9
$OBSCOLOR
 70
   257
  9
$OBSLTYPE
280
     0
  9
$INTERSECTIONDISPLAY
280
     0
  9
$INTERSECTIONCOLOR
 70
   257
  9
$DIMASSOC
280
     1
  9
$PROJECTNAME
  1

  9
$CAMERADISPLAY
290
     0
  9
$LENSLENGTH
 40
50.0
  9
$CAMERAHEIGHT
 40
0.0
  9
$STEPSPERSEC
 40
2.0
  9
$STEPSIZE
 40
6.0
  9
$3DDWFPREC
 40
2.0
  9
$PSOLWIDTH
 40
0.25
  9
$PSOLHEIGHT
 40
4.0
  9
$LOFTANG1
 40
1.570796326794896
  9
$LOFTANG2
 40
1.570796326794896
  9
$LOFTMAG1
 40
0.0
  9
$LOFTMAG2
 40
0.0
  9
$LOFTPARAM
 70
     7
  9
$LOFTNORMALS
280
     1
  9
$LATITUDE
 40
37.795
  9
$LONGITUDE
 40
-122.394
  9
$NORTHDIRECTION
 40
0.0
  9
$TIMEZONE
 70
 -8000
  9
$LIGHTGLYPHDISPLAY
280
     1
  9
$TILEMODELIGHTSYNCH
280
     1
  9
$CMATERIAL
347
827E
  9
$SOLIDHIST
280
     0
  9
$SHOWHIST
280
     1
  9
$DWFFRAME
280
     2
  9
$DGNFRAME
280
     0
  9
$REALWORLDSCALE
290
     1
  9
$INTERFERECOLOR
 62
     1
  9
$INTERFEREOBJVS
345
82A0
  9
$INTERFEREVPVS
346
829D
  9
$CSHADOW
280
     0
  9
$SHADOWPLANELOCATION
 40
0.0
  0
ENDSEC
  0
SECTION
  2
CLASSES
  0
CLASS
  1
ACDBDICTIONARYWDFLT
  2
AcDbDictionaryWithDefault
  3
ObjectDBX Classes
 90
        0
 91
        1
280
     0
281
     0
  0
CLASS
  1
DICTIONARYVAR
  2
AcDbDictionaryVar
  3
ObjectDBX Classes
 90
        0
 91
       11
280
     0
281
     0
  0
CLASS
  1
MATERIAL
  2
AcDbMaterial
  3
ObjectDBX Classes
 90
     1153
 91
        3
280
     0
281
     0
  0
CLASS
  1
VISUALSTYLE
  2
AcDbVisualStyle
  3
ObjectDBX Classes
 90
     4095
 91
       24
280
     0
281
     0
  0
CLASS
  1
TABLESTYLE
  2
AcDbTableStyle
  3
ObjectDBX Classes
 90
     4095
 91
        1
280
     0
281
     0
  0
CLASS
  1
SCALE
  2
AcDbScale
  3
ObjectDBX Classes
 90
     1153
 91
       17
280
     0
281
     0
  0
CLASS
  1
MLEADERSTYLE
  2
AcDbMLeaderStyle
  3
ACDB_MLEADERSTYLE_CLASS
 90
     4095
 91
        1
280
     0
281
     0
  0
CLASS
  1
ACDBSECTIONVIEWSTYLE
  2
AcDbSectionViewStyle
  3
ObjectDBX Classes
 90
     1025
 91
        1
280
     0
281
     0
  0
CLASS
  1
ACDBDETAILVIEWSTYLE
  2
AcDbDetailViewStyle
  3
ObjectDBX Classes
 90
     1025
 91
        1
280
     0
281
     0
  0
CLASS
  1
CELLSTYLEMAP
  2
AcDbCellStyleMap
  3
ObjectDBX Classes
 90
     1152
 91
        1
280
     0
281
     0
  0
ENDSEC
  0
SECTION
  2
TABLES
  0
TABLE
  2
VPORT
  5
8
330
0
100
AcDbSymbolTable
 70
     1
1001
ACAD
1000
DbSaveVer
1071
      278
  0
VPORT
  5
827B
330
8
100
AcDbSymbolTableRecord
100
AcDbViewportTableRecord
  2
*Active
 70
     0
 10
0.0
 20
0.0
 11
1.0
 21
1.0
 12
4714.698658823925
 22
5162.500024039763
 13
0.0
 23
0.0
 14
10.0
 24
10.0
 15
10.0
 25
10.0
 16
0.0
 26
0.0
 36
1.0
 17
0.0
 27
0.0
 37
0.0
 40
10391.74948481712
 41
2.250314465408805
 42
50.0
 43
0.0
 44
0.0
 50
0.0
 51
0.0
 71
     0
 72
   100
 73
     1
 74
     0
 75
     0
 76
     0
 77
     0
 78
     0
281
     0
 65
     1
110
0.0
120
0.0
130
0.0
111
1.0
121
0.0
131
0.0
112
0.0
122
1.0
132
0.0
 79
     0
146
0.0
348
829C
 60
     3
 61
     5
292
     1
282
     1
141
0.0
142
0.0
 63
   250
421
  3355443
1001
ACAD_NAV_VCDISPLAY
1070
     3
  0
ENDTAB
  0
TABLE
  2
LTYPE
  5
5
330
0
100
AcDbSymbolTable
 70
     2
  0
LTYPE
  5
13
330
5
100
AcDbSymbolTableRecord
100
AcDbLinetypeTableRecord
  2
BYBLOCK
 70
     0
  3

 72
    65
 73
     0
 40
0.0
  0
LTYPE
  5
14
330
5
100
AcDbSymbolTableRecord
100
AcDbLinetypeTableRecord
  2
BYLAYER
 70
     0
  3

 72
    65
 73
     0
 40
0.0
  0
LTYPE
  5
15
330
5
100
AcDbSymbolTableRecord
100
AcDbLinetypeTableRecord
  2
CONTINUOUS
 70
     0
  3
Solid line
 72
    65
 73
     0
 40
0.0
  0
LTYPE
  5
1F
330
5
100
AcDbSymbolTableRecord
100
AcDbLinetypeTableRecord
  2
CENTER
 70
     0
  3
____ _ ____ _ ____ _ ____ _ ____ _ ____ _ ____ 
 72
    65
 73
     4
 40
2.0
 49
1.25
 74
     0
 49
-0.25
 74
     0
 49
0.25
 74
     0
 49
-0.25
 74
     0
  0
ENDTAB
  0
TABLE
  2
LAYER
  5
2
102
{ACAD_XDICTIONARY
360
8355
102
}
330
0
100
AcDbSymbolTable
 70
     6
  0
LAYER
  5
F
102
{ACAD_XDICTIONARY
360
8348
102
}
330
2
100
AcDbSymbolTableRecord
100
AcDbLayerTableRecord
  2
0
 70
     0
 62
     7
  6
CONTINUOUS
370
    -3
390
8185
347
828E
348
0
  0
LAYER
  5
31
102
{ACAD_XDICTIONARY
360
834A
102
}
330
2
100
AcDbSymbolTableRecord
100
AcDbLayerTableRecord
  2
3
 70
     0
 62
     2
  6
CONTINUOUS
370
    -3
390
8185
347
828E
348
0
  0
LAYER
  5
76D0
102
{ACAD_XDICTIONARY
360
834C
102
}
330
2
100
AcDbSymbolTableRecord
100
AcDbLayerTableRecord
  2
2
 70
     0
 62
     3
  6
CENTER
370
    -3
390
8185
347
828E
348
0
  0
LAYER
  5
76D1
102
{ACAD_XDICTIONARY
360
834E
102
}
330
2
100
AcDbSymbolTableRecord
100
AcDbLayerTableRecord
  2
1
 70
     0
 62
     4
  6
CONTINUOUS
370
    -3
390
8185
347
828E
348
0
  0
LAYER
  5
76D2
102
{ACAD_XDICTIONARY
360
8350
102
}
330
2
100
AcDbSymbolTableRecord
100
AcDbLayerTableRecord
  2
4
 70
     0
 62
     7
  6
CONTINUOUS
370
    -3
390
8185
347
828E
348
0
  0
LAYER
  5
7B4A
330
2
100
AcDbSymbolTableRecord
100
AcDbLayerTableRecord
  2
DEFPOINTS
 70
     0
 62
     7
  6
CONTINUOUS
290
     0
370
    -3
390
8185
347
828E
348
0
  0
ENDTAB
  0
TABLE
  2
STYLE
  5
3
330
0
100
AcDbSymbolTable
 70
     1
  0
STYLE
  5
10
330
3
100
AcDbSymbolTableRecord
100
AcDbTextStyleTableRecord
  2
STANDARD
 70
     0
 40
0.0
 41
1.0
 50
0.0
 71
     0
 42
180.0
  3
simplex.shx
  4
extfont.shx
  0
ENDTAB
  0
TABLE
  2
VIEW
  5
6
330
0
100
AcDbSymbolTable
 70
     0
  0
ENDTAB
  0
TABLE
  2
UCS
  5
7
330
0
100
AcDbSymbolTable
 70
     0
  0
ENDTAB
  0
TABLE
  2
APPID
  5
9
330
0
100
AcDbSymbolTable
 70
     4
  0
APPID
  5
11
330
9
100
AcDbSymbolTableRecord
100
AcDbRegAppTableRecord
  2
ACAD
 70
     0
  0
APPID
  5
82CD
330
9
100
AcDbSymbolTableRecord
100
AcDbRegAppTableRecord
  2
AcadAnnoMonitorAlertIconDisabled
 70
     0
  0
APPID
  5
82CE
330
9
100
AcDbSymbolTableRecord
100
AcDbRegAppTableRecord
  2
ACAD_EXEMPT_FROM_CAD_STANDARDS
 70
     0
  0
APPID
  5
835B
330
9
100
AcDbSymbolTableRecord
100
AcDbRegAppTableRecord
  2
ACAD_NAV_VCDISPLAY
 70
     0
  0
ENDTAB
  0
TABLE
  2
DIMSTYLE
  5
A
330
0
100
AcDbSymbolTable
 70
     1
100
AcDbDimStyleTable
 71
     1
340
1D
  0
DIMSTYLE
105
1D
102
{ACAD_REACTORS
330
7C3C
330
7C3E
330
7C44
330
7C6A
330
7C6B
330
7C6C
330
7C6E
330
7C71
330
7C80
330
7C89
330
7C8B
330
7C9C
330
7C9D
330
7CA6
330
7CCA
330
7CCB
330
7CDF
330
7CE2
330
7CE3
330
7CE4
330
813B
330
8157
330
8164
102
}
330
A
100
AcDbSymbolTableRecord
100
AcDbDimStyleTableRecord
  2
IGA
 70
     0
 40
2.0
 41
2.0
 42
0.5
 43
10.0
 44
1.0
 47
1.0
 48
1.0
 73
     0
 74
     0
 77
     1
 78
     8
140
3.0
141
0.0
143
0.03937
146
10.0
147
1.0
173
     1
271
     1
272
     0
279
     2
284
     8
340
10
341
7B04
343
7B04
344
7B04
  0
ENDTAB
  0
TABLE
  2
BLOCK_RECORD
  5
1
330
0
100
AcDbSymbolTable
 70
    27
  0
BLOCK_RECORD
  5
19
102
{ACAD_XDICTIONARY
360
81B3
102
}
330
1
100
AcDbSymbolTableRecord
100
AcDbBlockTableRecord
  2
*MODEL_SPACE
340
8188
 70
     0
280
     1
281
     0
  0
BLOCK_RECORD
  5
16
102
{ACAD_XDICTIONARY
360
81B1
102
}
330
1
100
AcDbSymbolTableRecord
100
AcDbBlockTableRecord
  2
*PAPER_SPACE
340
8189
 70
     0
280
     1
281
     0
  0
BLOCK_RECORD
  5
79FC
330
1
100
AcDbSymbolTableRecord
100
AcDbBlockTableRecord
  2
YA_N
340
0
102
{BLKREFS
331
7C1E
331
7C22
331
7C24
102
}
 70
     0
280
     1
281
     0
  0
BLOCK_RECORD
  5
7B04
330
1
100
AcDbSymbolTableRecord
100
AcDbBlockTableRecord
  2
_OPEN
340
0
102
{BLKREFS
331
8258
331
8260
331
8261
331
8269
331
826A
331
8134
331
8135
331
81BC
331
81BD
331
81E9
331
81EA
331
81F2
331
81F3
331
81FB
331
81FC
331
820D
331
820E
331
821F
331
8220
331
8228
331
8229
331
8231
331
8232
331
823A
331
823B
331
8243
331
8244
331
8257
331
82F7
331
82F8
331
8300
331
8301
331
8309
331
830A
331
8312
331
8313
331
831B
331
831C
331
8327
331
8334
331
8335
331
833D
331
833E
102
}
 70
     0
280
     1
281
     0
  0
BLOCK_RECORD
  5
7CE8
330
1
100
AcDbSymbolTableRecord
100
AcDbBlockTableRecord
  2
*D2
340
0
 70
     0
280
     1
281
     0
  0
BLOCK_RECORD
  5
7CF4
330
1
100
AcDbSymbolTableRecord
100
AcDbBlockTableRecord
  2
*D3
340
0
 70
     0
280
     1
281
     0
  0
BLOCK_RECORD
  5
7D0C
330
1
100
AcDbSymbolTableRecord
100
AcDbBlockTableRecord
  2
*D4
340
0
 70
     0
280
     1
281
     0
  0
BLOCK_RECORD
  5
7D18
330
1
100
AcDbSymbolTableRecord
100
AcDbBlockTableRecord
  2
*D5
340
0
 70
     0
280
     1
281
     0
  0
BLOCK_RECORD
  5
7D24
330
1
100
AcDbSymbolTableRecord
100
AcDbBlockTableRecord
  2
*D6
340
0
 70
     0
280
     1
281
     0
  0
BLOCK_RECORD
  5
7D30
330
1
100
AcDbSymbolTableRecord
100
AcDbBlockTableRecord
  2
*D7
340
0
 70
     0
280
     1
281
     0
  0
BLOCK_RECORD
  5
7D3C
330
1
100
AcDbSymbolTableRecord
100
AcDbBlockTableRecord
  2
*D8
340
0
 70
     0
280
     1
281
     0
  0
BLOCK_RECORD
  5
7D48
330
1
100
AcDbSymbolTableRecord
100
AcDbBlockTableRecord
  2
*D9
340
0
 70
     0
280
     1
281
     0
  0
BLOCK_RECORD
  5
7D54
330
1
100
AcDbSymbolTableRecord
100
AcDbBlockTableRecord
  2
*D10
340
0
 70
     0
280
     1
281
     0
  0
BLOCK_RECORD
  5
7D6C
330
1
100
AcDbSymbolTableRecord
100
AcDbBlockTableRecord
  2
*D11
340
0
 70
     0
280
     1
281
     0
  0
BLOCK_RECORD
  5
7D78
330
1
100
AcDbSymbolTableRecord
100
AcDbBlockTableRecord
  2
*D12
340
0
 70
     0
280
     1
281
     0
  0
BLOCK_RECORD
  5
7D84
330
1
100
AcDbSymbolTableRecord
100
AcDbBlockTableRecord
  2
*D13
340
0
 70
     0
280
     1
281
     0
  0
BLOCK_RECORD
  5
7D90
330
1
100
AcDbSymbolTableRecord
100
AcDbBlockTableRecord
  2
*D14
340
0
 70
     0
280
     1
281
     0
  0
BLOCK_RECORD
  5
7D9C
330
1
100
AcDbSymbolTableRecord
100
AcDbBlockTableRecord
  2
*D15
340
0
 70
     0
280
     1
281
     0
  0
BLOCK_RECORD
  5
7DA8
330
1
100
AcDbSymbolTableRecord
100
AcDbBlockTableRecord
  2
*D16
340
0
 70
     0
280
     1
281
     0
  0
BLOCK_RECORD
  5
7DB4
330
1
100
AcDbSymbolTableRecord
100
AcDbBlockTableRecord
  2
*D17
340
0
 70
     0
280
     1
281
     0
  0
BLOCK_RECORD
  5
7DCD
330
1
100
AcDbSymbolTableRecord
100
AcDbBlockTableRecord
  2
*D18
340
0
 70
     0
280
     1
281
     0
  0
BLOCK_RECORD
  5
7DDB
330
1
100
AcDbSymbolTableRecord
100
AcDbBlockTableRecord
  2
*D19
340
0
 70
     0
280
     1
281
     0
  0
BLOCK_RECORD
  5
7DE7
330
1
100
AcDbSymbolTableRecord
100
AcDbBlockTableRecord
  2
*D20
340
0
 70
     0
280
     1
281
     0
  0
BLOCK_RECORD
  5
7DF2
330
1
100
AcDbSymbolTableRecord
100
AcDbBlockTableRecord
  2
*D21
340
0
 70
     0
280
     1
281
     0
  0
BLOCK_RECORD
  5
80EA
330
1
100
AcDbSymbolTableRecord
100
AcDbBlockTableRecord
  2
_DOT
340
0
102
{BLKREFS
331
8326
102
}
 70
     0
280
     1
281
     0
  0
BLOCK_RECORD
  5
812F
330
1
100
AcDbSymbolTableRecord
100
AcDbBlockTableRecord
  2
*D23
340
0
 70
     0
280
     1
281
     0
  0
BLOCK_RECORD
  5
814B
330
1
100
AcDbSymbolTableRecord
100
AcDbBlockTableRecord
  2
_NONE
340
0
 70
     0
280
     1
281
     0
  0
BLOCK_RECORD
  5
814F
330
1
100
AcDbSymbolTableRecord
100
AcDbBlockTableRecord
  2
*D25
340
0
 70
     0
280
     1
281
     0
  0
BLOCK_RECORD
  5
8158
330
1
100
AcDbSymbolTableRecord
100
AcDbBlockTableRecord
  2
*D26
340
0
 70
     0
280
     1
281
     0
  0
ENDTAB
  0
ENDSEC
  0
SECTION
  2
BLOCKS
  0
BLOCK
  5
1A
330
19
100
AcDbEntity
  8
0
100
AcDbBlockBegin
  2
*MODEL_SPACE
 70
     0
 10
0.0
 20
0.0
 30
0.0
  3
*MODEL_SPACE
  1

  0
ENDBLK
  5
1B
330
19
100
AcDbEntity
  8
0
100
AcDbBlockEnd
  0
BLOCK
  5
17
330
16
100
AcDbEntity
 67
     1
  8
0
100
AcDbBlockBegin
  2
*PAPER_SPACE
 70
     0
 10
0.0
 20
0.0
 30
0.0
  3
*PAPER_SPACE
  1

  0
ENDBLK
  5
18
330
16
100
AcDbEntity
 67
     1
  8
0
100
AcDbBlockEnd
  0
BLOCK
  5
79FD
330
79FC
100
AcDbEntity
  8
0
100
AcDbBlockBegin
  2
YA_N
 70
     0
 10
0.0
 20
0.0
 30
0.0
  3
YA_N
  1

  0
ENDBLK
  5
79FE
330
79FC
100
AcDbEntity
  8
0
100
AcDbBlockEnd
  0
BLOCK
  5
7B08
330
7B04
100
AcDbEntity
  8
0
 48
10.0
100
AcDbBlockBegin
  2
_OPEN
 70
     0
 10
0.0
 20
0.0
 30
0.0
  3
_OPEN
  1

  0
LINE
  5
7B05
330
7B04
100
AcDbEntity
  8
0
  6
ByBlock
 62
     0
 48
10.0
100
AcDbLine
 10
-1.0
 20
0.1666666666666666
 30
0.0
 11
0.0
 21
0.0
 31
0.0
  0
LINE
  5
7B06
330
7B04
100
AcDbEntity
  8
0
  6
ByBlock
 62
     0
 48
10.0
100
AcDbLine
 10
0.0
 20
0.0
 30
0.0
 11
-1.0
 21
-0.1666666666666666
 31
0.0
  0
LINE
  5
7B07
330
7B04
100
AcDbEntity
  8
0
  6
ByBlock
 62
     0
 48
10.0
100
AcDbLine
 10
0.0
 20
0.0
 30
0.0
 11
-1.0
 21
0.0
 31
0.0
  0
ENDBLK
  5
7B09
330
7B04
100
AcDbEntity
  8
0
 48
10.0
100
AcDbBlockEnd
  0
BLOCK
  5
8014
330
7CE8
100
AcDbEntity
  8
0
100
AcDbBlockBegin
  2
*D2
 70
     1
 10
0.0
 20
0.0
 30
0.0
  3
*D2
  1

  0
LINE
  5
81B9
330
7CE8
100
AcDbEntity
  8
3
 62
     0
440
 16777216
100
AcDbLine
 10
6548.603298143844
 20
3177.289700692457
 30
0.0
 11
6986.421712160977
 21
3177.289700692457
 31
0.0
  0
LINE
  5
81BA
330
7CE8
100
AcDbEntity
  8
3
 62
     0
440
 16777216
100
AcDbLine
 10
6548.603298143844
 20
4177.289700692456
 30
0.0
 11
6986.421712160977
 21
4177.289700692456
 31
0.0
  0
LINE
  5
81BB
330
7CE8
100
AcDbEntity
  8
3
 62
     0
440
 16777216
100
AcDbLine
 10
6951.421712160976
 20
3247.289700692457
 30
0.0
 11
6951.421712160976
 21
4107.289700692457
 31
0.0
  0
INSERT
  5
81BC
330
7CE8
100
AcDbEntity
  8
3
 62
     0
440
 16777216
100
AcDbBlockReference
  2
_OPEN
 10
6951.421712160976
 20
3177.289700692457
 30
0.0
 41
70.0
 42
70.0
 43
70.0
 50
270.0
  0
INSERT
  5
81BD
330
7CE8
100
AcDbEntity
  8
3
 62
     0
440
 16777216
100
AcDbBlockReference
  2
_OPEN
 10
6951.421712160976
 20
4177.289700692456
 30
0.0
 41
70.0
 42
70.0
 43
70.0
 50
90.0
  0
MTEXT
  5
81BE
330
7CE8
100
AcDbEntity
  8
3
 62
     0
440
 16777216
100
AcDbMText
 10
6863.921712160976
 20
3677.289700692458
 30
0.0
 40
105.0
 41
0.0
 46
0.0
 71
     5
 72
     5
  1
\A1;φ1000
 11
0.0000000000000001
 21
1.0
 31
0.0
 73
     1
 44
1.0
  0
POINT
  5
81BF
330
7CE8
100
AcDbEntity
  8
DEFPOINTS
 62
     0
440
 16777216
100
AcDbPoint
 10
6531.103298143844
 20
3177.289700692457
 30
0.0
  0
POINT
  5
81C0
330
7CE8
100
AcDbEntity
  8
DEFPOINTS
 62
     0
440
 16777216
100
AcDbPoint
 10
6531.103298143844
 20
4177.289700692456
 30
0.0
  0
POINT
  5
81C1
330
7CE8
100
AcDbEntity
  8
DEFPOINTS
 62
     0
440
 16777216
100
AcDbPoint
 10
6951.421712160976
 20
4177.289700692456
 30
0.0
  0
ENDBLK
  5
801E
330
7CE8
100
AcDbEntity
  8
0
100
AcDbBlockEnd
  0
BLOCK
  5
7FFE
330
7CF4
100
AcDbEntity
  8
0
100
AcDbBlockBegin
  2
*D3
 70
     1
 10
0.0
 20
0.0
 30
0.0
  3
*D3
  1

  0
LINE
  5
833A
330
7CF4
100
AcDbEntity
  8
3
 62
     0
440
 16777216
 48
10.0
370
    -2
100
AcDbLine
 10
5865.603298143844
 20
2279.789700692457
 30
0.0
 11
5865.603298143844
 21
2062.377835280655
 31
0.0
  0
LINE
  5
833B
330
7CF4
100
AcDbEntity
  8
3
 62
     0
440
 16777216
 48
10.0
370
    -2
100
AcDbLine
 10
6593.603298143844
 20
2279.789700692457
 30
0.0
 11
6593.603298143844
 21
2062.377835280655
 31
0.0
  0
LINE
  5
833C
330
7CF4
100
AcDbEntity
  8
3
 62
     0
440
 16777216
 48
10.0
370
    -2
100
AcDbLine
 10
5935.603298143844
 20
2097.377835280655
 30
0.0
 11
6523.603298143844
 21
2097.377835280655
 31
0.0
  0
INSERT
  5
833D
330
7CF4
100
AcDbEntity
  8
3
 62
     0
440
 16777216
 48
10.0
370
    -2
100
AcDbBlockReference
  2
_OPEN
 10
5865.603298143844
 20
2097.377835280655
 30
0.0
 41
70.0
 42
70.0
 43
70.0
 50
180.0
  0
INSERT
  5
833E
330
7CF4
100
AcDbEntity
  8
3
 62
     0
440
 16777216
 48
10.0
370
    -2
100
AcDbBlockReference
  2
_OPEN
 10
6593.603298143844
 20
2097.377835280655
 30
0.0
 41
70.0
 42
70.0
 43
70.0
  0
MTEXT
  5
833F
330
7CF4
100
AcDbEntity
  8
3
 62
     0
440
 16777216
 48
10.0
100
AcDbMText
 10
6229.603298143843
 20
2184.877835280655
 30
0.0
 40
105.0
 41
0.0
 46
0.0
 71
     5
 72
     1
  1
\A1;728
 73
     1
 44
1.0
  0
POINT
  5
8340
330
7CF4
100
AcDbEntity
  8
DEFPOINTS
 62
     0
440
 16777216
 48
10.0
100
AcDbPoint
 10
5865.603298143844
 20
2297.289700692457
 30
0.0
  0
POINT
  5
8341
330
7CF4
100
AcDbEntity
  8
DEFPOINTS
 62
     0
440
 16777216
 48
10.0
100
AcDbPoint
 10
6593.603298143844
 20
2297.289700692457
 30
0.0
  0
POINT
  5
8342
330
7CF4
100
AcDbEntity
  8
DEFPOINTS
 62
     0
440
 16777216
 48
10.0
100
AcDbPoint
 10
6593.603298143844
 20
2097.377835280655
 30
0.0
  0
ENDBLK
  5
8008
330
7CF4
100
AcDbEntity
  8
0
100
AcDbBlockEnd
  0
BLOCK
  5
7FF3
330
7D0C
100
AcDbEntity
  8
0
100
AcDbBlockBegin
  2
*D4
 70
     1
 10
0.0
 20
0.0
 30
0.0
  3
*D4
  1

  0
LINE
  5
8306
330
7D0C
100
AcDbEntity
  8
3
 62
     0
440
 16777216
 48
10.0
370
    -2
100
AcDbLine
 10
4943.603298143844
 20
2279.789700692457
 30
0.0
 11
4943.603298143844
 21
2062.377835280655
 31
0.0
  0
LINE
  5
8307
330
7D0C
100
AcDbEntity
  8
3
 62
     0
440
 16777216
 48
10.0
370
    -2
100
AcDbLine
 10
5865.603298143844
 20
2279.789700692457
 30
0.0
 11
5865.603298143844
 21
2062.377835280655
 31
0.0
  0
LINE
  5
8308
330
7D0C
100
AcDbEntity
  8
3
 62
     0
440
 16777216
 48
10.0
370
    -2
100
AcDbLine
 10
5013.603298143844
 20
2097.377835280655
 30
0.0
 11
5795.603298143844
 21
2097.377835280655
 31
0.0
  0
INSERT
  5
8309
330
7D0C
100
AcDbEntity
  8
3
 62
     0
440
 16777216
 48
10.0
370
    -2
100
AcDbBlockReference
  2
_OPEN
 10
4943.603298143844
 20
2097.377835280655
 30
0.0
 41
70.0
 42
70.0
 43
70.0
 50
180.0
  0
INSERT
  5
830A
330
7D0C
100
AcDbEntity
  8
3
 62
     0
440
 16777216
 48
10.0
370
    -2
100
AcDbBlockReference
  2
_OPEN
 10
5865.603298143844
 20
2097.377835280655
 30
0.0
 41
70.0
 42
70.0
 43
70.0
  0
MTEXT
  5
830B
330
7D0C
100
AcDbEntity
  8
3
 62
     0
440
 16777216
 48
10.0
100
AcDbMText
 10
5404.603298143843
 20
2184.877835280655
 30
0.0
 40
105.0
 41
0.0
 46
0.0
 71
     5
 72
     1
  1
\A1;922
 73
     1
 44
1.0
  0
POINT
  5
830C
330
7D0C
100
AcDbEntity
  8
DEFPOINTS
 62
     0
440
 16777216
 48
10.0
100
AcDbPoint
 10
4943.603298143844
 20
2297.289700692457
 30
0.0
  0
POINT
  5
830D
330
7D0C
100
AcDbEntity
  8
DEFPOINTS
 62
     0
440
 16777216
 48
10.0
100
AcDbPoint
 10
5865.603298143844
 20
2297.289700692457
 30
0.0
  0
POINT
  5
830E
330
7D0C
100
AcDbEntity
  8
DEFPOINTS
 62
     0
440
 16777216
 48
10.0
100
AcDbPoint
 10
5865.603298143844
 20
2097.377835280655
 30
0.0
  0
ENDBLK
  5
7FFD
330
7D0C
100
AcDbEntity
  8
0
100
AcDbBlockEnd
  0
BLOCK
  5
801F
330
7D18
100
AcDbEntity
  8
0
100
AcDbBlockBegin
  2
*D5
 70
     1
 10
0.0
 20
0.0
 30
0.0
  3
*D5
  1

  0
LINE
  5
82FD
330
7D18
100
AcDbEntity
  8
3
 62
     0
440
 16777216
 48
10.0
370
    -2
100
AcDbLine
 10
6665.603298143844
 20
3652.589700692458
 30
0.0
 11
6665.603298143844
 21
4968.547879362344
 31
0.0
  0
LINE
  5
82FE
330
7D18
100
AcDbEntity
  8
3
 62
     0
440
 16777216
 48
10.0
370
    -2
100
AcDbLine
 10
5865.603298143844
 20
4775.256961805724
 30
0.0
 11
5865.603298143844
 21
4968.547879362344
 31
0.0
  0
LINE
  5
82FF
330
7D18
100
AcDbEntity
  8
3
 62
     0
440
 16777216
 48
10.0
370
    -2
100
AcDbLine
 10
6595.603298143844
 20
4933.547879362344
 30
0.0
 11
5935.603298143844
 21
4933.547879362344
 31
0.0
  0
INSERT
  5
8300
330
7D18
100
AcDbEntity
  8
3
 62
     0
440
 16777216
 48
10.0
370
    -2
100
AcDbBlockReference
  2
_OPEN
 10
6665.603298143844
 20
4933.547879362344
 30
0.0
 41
70.0
 42
70.0
 43
70.0
  0
INSERT
  5
8301
330
7D18
100
AcDbEntity
  8
3
 62
     0
440
 16777216
 48
10.0
370
    -2
100
AcDbBlockReference
  2
_OPEN
 10
5865.603298143844
 20
4933.547879362344
 30
0.0
 41
70.0
 42
70.0
 43
70.0
 50
180.0
  0
MTEXT
  5
8302
330
7D18
100
AcDbEntity
  8
3
 62
     0
440
 16777216
 48
10.0
100
AcDbMText
 10
6265.603298143844
 20
5048.547879362344
 30
0.0
 40
105.0
 41
0.0
 46
0.0
 71
     5
 72
     1
  1
\A1;(800)
 73
     1
 44
1.0
  0
POINT
  5
8303
330
7D18
100
AcDbEntity
  8
DEFPOINTS
 62
     0
440
 16777216
 48
10.0
100
AcDbPoint
 10
6665.603298143844
 20
3635.089700692457
 30
0.0
  0
POINT
  5
8304
330
7D18
100
AcDbEntity
  8
DEFPOINTS
 62
     0
440
 16777216
 48
10.0
100
AcDbPoint
 10
5865.603298143844
 20
4757.756961805724
 30
0.0
  0
POINT
  5
8305
330
7D18
100
AcDbEntity
  8
DEFPOINTS
 62
     0
440
 16777216
 48
10.0
100
AcDbPoint
 10
5865.603298143844
 20
4933.547879362344
 30
0.0
  0
ENDBLK
  5
8029
330
7D18
100
AcDbEntity
  8
0
100
AcDbBlockEnd
  0
BLOCK
  5
811B
330
7D24
100
AcDbEntity
  8
0
100
AcDbBlockBegin
  2
*D6
 70
     1
 10
0.0
 20
0.0
 30
0.0
  3
*D6
  1

  0
LINE
  5
82F4
330
7D24
100
AcDbEntity
  8
3
 62
     0
440
 16777216
 48
10.0
370
    -2
100
AcDbLine
 10
5865.603298143844
 20
4775.256961805724
 30
0.0
 11
5865.603298143844
 21
4968.547879362344
 31
0.0
  0
LINE
  5
82F5
330
7D24
100
AcDbEntity
  8
3
 62
     0
440
 16777216
 48
10.0
370
    -2
100
AcDbLine
 10
4786.103298143838
 20
3974.789700692457
 30
0.0
 11
4786.103298143838
 21
4968.547879362344
 31
0.0
  0
LINE
  5
82F6
330
7D24
100
AcDbEntity
  8
3
 62
     0
440
 16777216
 48
10.0
370
    -2
100
AcDbLine
 10
5795.603298143844
 20
4933.547879362344
 30
0.0
 11
4856.103298143839
 21
4933.547879362344
 31
0.0
  0
INSERT
  5
82F7
330
7D24
100
AcDbEntity
  8
3
 62
     0
440
 16777216
 48
10.0
370
    -2
100
AcDbBlockReference
  2
_OPEN
 10
5865.603298143844
 20
4933.547879362344
 30
0.0
 41
70.0
 42
70.0
 43
70.0
  0
INSERT
  5
82F8
330
7D24
100
AcDbEntity
  8
3
 62
     0
440
 16777216
 48
10.0
370
    -2
100
AcDbBlockReference
  2
_OPEN
 10
4786.103298143838
 20
4933.547879362344
 30
0.0
 41
70.0
 42
70.0
 43
70.0
 50
180.0
  0
MTEXT
  5
82F9
330
7D24
100
AcDbEntity
  8
3
 62
     0
440
 16777216
 48
10.0
100
AcDbMText
 10
5325.853298143841
 20
5048.547879362344
 30
0.0
 40
105.0
 41
0.0
 46
0.0
 71
     5
 72
     1
  1
\A1;(1080)
 73
     1
 44
1.0
  0
POINT
  5
82FA
330
7D24
100
AcDbEntity
  8
DEFPOINTS
 62
     0
440
 16777216
 48
10.0
100
AcDbPoint
 10
5865.603298143844
 20
4757.756961805724
 30
0.0
  0
POINT
  5
82FB
330
7D24
100
AcDbEntity
  8
DEFPOINTS
 62
     0
440
 16777216
 48
10.0
100
AcDbPoint
 10
4786.103298143838
 20
3957.289700692457
 30
0.0
  0
POINT
  5
82FC
330
7D24
100
AcDbEntity
  8
DEFPOINTS
 62
     0
440
 16777216
 48
10.0
100
AcDbPoint
 10
4786.103298143838
 20
4933.547879362344
 30
0.0
  0
ENDBLK
  5
8125
330
7D24
100
AcDbEntity
  8
0
100
AcDbBlockEnd
  0
BLOCK
  5
8035
330
7D30
100
AcDbEntity
  8
0
100
AcDbBlockBegin
  2
*D7
 70
     1
 10
0.0
 20
0.0
 30
0.0
  3
*D7
  1

  0
LINE
  5
81E6
330
7D30
100
AcDbEntity
  8
3
 62
     0
440
 16777216
100
AcDbLine
 10
5205.603298143842
 20
4414.789700692456
 30
0.0
 11
5205.603298143842
 21
4647.555048089452
 31
0.0
  0
LINE
  5
81E7
330
7D30
100
AcDbEntity
  8
3
 62
     0
440
 16777216
100
AcDbLine
 10
6525.603298143844
 20
4414.789700692456
 30
0.0
 11
6525.603298143844
 21
4647.555048089452
 31
0.0
  0
LINE
  5
81E8
330
7D30
100
AcDbEntity
  8
3
 62
     0
440
 16777216
100
AcDbLine
 10
5275.603298143843
 20
4612.555048089452
 30
0.0
 11
6455.603298143843
 21
4612.555048089452
 31
0.0
  0
INSERT
  5
81E9
330
7D30
100
AcDbEntity
  8
3
 62
     0
440
 16777216
100
AcDbBlockReference
  2
_OPEN
 10
5205.603298143842
 20
4612.555048089452
 30
0.0
 41
70.0
 42
70.0
 43
70.0
 50
180.0
  0
INSERT
  5
81EA
330
7D30
100
AcDbEntity
  8
3
 62
     0
440
 16777216
100
AcDbBlockReference
  2
_OPEN
 10
6525.603298143844
 20
4612.555048089452
 30
0.0
 41
70.0
 42
70.0
 43
70.0
  0
MTEXT
  5
81EB
330
7D30
100
AcDbEntity
  8
3
 62
     0
440
 16777216
100
AcDbMText
 10
5861.548470512079
 20
4700.055048089452
 30
0.0
 40
105.0
 41
0.0
 46
0.0
 71
     5
 72
     5
  1
\A1;1320
 73
     1
 44
1.0
  0
POINT
  5
81EC
330
7D30
100
AcDbEntity
  8
DEFPOINTS
 62
     0
440
 16777216
100
AcDbPoint
 10
5205.603298143842
 20
4397.289700692456
 30
0.0
  0
POINT
  5
81ED
330
7D30
100
AcDbEntity
  8
DEFPOINTS
 62
     0
440
 16777216
100
AcDbPoint
 10
6525.603298143844
 20
4397.289700692456
 30
0.0
  0
POINT
  5
81EE
330
7D30
100
AcDbEntity
  8
DEFPOINTS
 62
     0
440
 16777216
100
AcDbPoint
 10
6525.603298143844
 20
4612.555048089452
 30
0.0
  0
ENDBLK
  5
803F
330
7D30
100
AcDbEntity
  8
0
100
AcDbBlockEnd
  0
BLOCK
  5
7F34
330
7D3C
100
AcDbEntity
  8
0
100
AcDbBlockBegin
  2
*D8
 70
     1
 10
0.0
 20
0.0
 30
0.0
  3
*D8
  1

  0
LINE
  5
81EF
330
7D3C
100
AcDbEntity
  8
3
 62
     0
440
 16777216
100
AcDbLine
 10
1876.370282222328
 20
7421.13965356618
 30
0.0
 11
1876.370282222328
 21
7840.666301008259
 31
0.0
  0
LINE
  5
81F0
330
7D3C
100
AcDbEntity
  8
3
 62
     0
440
 16777216
100
AcDbLine
 10
3126.370282222328
 20
7421.13965356618
 30
0.0
 11
3126.370282222328
 21
7840.666301008259
 31
0.0
  0
LINE
  5
81F1
330
7D3C
100
AcDbEntity
  8
3
 62
     0
440
 16777216
100
AcDbLine
 10
1946.370282222327
 20
7805.66630100826
 30
0.0
 11
3056.370282222328
 21
7805.66630100826
 31
0.0
  0
INSERT
  5
81F2
330
7D3C
100
AcDbEntity
  8
3
 62
     0
440
 16777216
100
AcDbBlockReference
  2
_OPEN
 10
1876.370282222328
 20
7805.66630100826
 30
0.0
 41
70.0
 42
70.0
 43
70.0
 50
180.0
  0
INSERT
  5
81F3
330
7D3C
100
AcDbEntity
  8
3
 62
     0
440
 16777216
100
AcDbBlockReference
  2
_OPEN
 10
3126.370282222328
 20
7805.66630100826
 30
0.0
 41
70.0
 42
70.0
 43
70.0
  0
MTEXT
  5
81F4
330
7D3C
100
AcDbEntity
  8
3
 62
     0
440
 16777216
100
AcDbMText
 10
2501.370282222328
 20
7893.16630100826
 30
0.0
 40
105.0
 41
0.0
 46
0.0
 71
     5
 72
     5
  1
\A1;1250
 73
     1
 44
1.0
  0
POINT
  5
81F5
330
7D3C
100
AcDbEntity
  8
DEFPOINTS
 62
     0
440
 16777216
100
AcDbPoint
 10
1876.370282222328
 20
7403.63965356618
 30
0.0
  0
POINT
  5
81F6
330
7D3C
100
AcDbEntity
  8
DEFPOINTS
 62
     0
440
 16777216
100
AcDbPoint
 10
3126.370282222328
 20
7403.63965356618
 30
0.0
  0
POINT
  5
81F7
330
7D3C
100
AcDbEntity
  8
DEFPOINTS
 62
     0
440
 16777216
100
AcDbPoint
 10
3126.370282222328
 20
7805.66630100826
 30
0.0
  0
ENDBLK
  5
7F3E
330
7D3C
100
AcDbEntity
  8
0
100
AcDbBlockEnd
  0
BLOCK
  5
7F4A
330
7D48
100
AcDbEntity
  8
0
100
AcDbBlockBegin
  2
*D9
 70
     1
 10
0.0
 20
0.0
 30
0.0
  3
*D9
  1

  0
LINE
  5
81F8
330
7D48
100
AcDbEntity
  8
3
 62
     0
440
 16777216
100
AcDbLine
 10
926.3702822223267
 20
5736.139653566181
 30
0.0
 11
926.3702822223267
 21
5278.818994070989
 31
0.0
  0
LINE
  5
81F9
330
7D48
100
AcDbEntity
  8
3
 62
     0
440
 16777216
100
AcDbLine
 10
3126.370282222328
 20
5736.139653566181
 30
0.0
 11
3126.370282222328
 21
5278.818994070989
 31
0.0
  0
LINE
  5
81FA
330
7D48
100
AcDbEntity
  8
3
 62
     0
440
 16777216
100
AcDbLine
 10
996.3702822223266
 20
5313.818994070989
 30
0.0
 11
3056.370282222328
 21
5313.818994070989
 31
0.0
  0
INSERT
  5
81FB
330
7D48
100
AcDbEntity
  8
3
 62
     0
440
 16777216
100
AcDbBlockReference
  2
_OPEN
 10
926.3702822223267
 20
5313.818994070989
 30
0.0
 41
70.0
 42
70.0
 43
70.0
 50
180.0
  0
INSERT
  5
81FC
330
7D48
100
AcDbEntity
  8
3
 62
     0
440
 16777216
100
AcDbBlockReference
  2
_OPEN
 10
3126.370282222328
 20
5313.818994070989
 30
0.0
 41
70.0
 42
70.0
 43
70.0
  0
MTEXT
  5
81FD
330
7D48
100
AcDbEntity
  8
3
 62
     0
440
 16777216
100
AcDbMText
 10
2026.370282222327
 20
5401.318994070989
 30
0.0
 40
105.0
 41
0.0
 46
0.0
 71
     5
 72
     5
  1
\A1;2200
 73
     1
 44
1.0
  0
POINT
  5
81FE
330
7D48
100
AcDbEntity
  8
DEFPOINTS
 62
     0
440
 16777216
100
AcDbPoint
 10
926.3702822223267
 20
5753.639653566181
 30
0.0
  0
POINT
  5
81FF
330
7D48
100
AcDbEntity
  8
DEFPOINTS
 62
     0
440
 16777216
100
AcDbPoint
 10
3126.370282222328
 20
5753.639653566181
 30
0.0
  0
POINT
  5
8200
330
7D48
100
AcDbEntity
  8
DEFPOINTS
 62
     0
440
 16777216
100
AcDbPoint
 10
3126.370282222328
 20
5313.818994070989
 30
0.0
  0
ENDBLK
  5
7F54
330
7D48
100
AcDbEntity
  8
0
100
AcDbBlockEnd
  0
BLOCK
  5
7FDD
330
7D54
100
AcDbEntity
  8
0
100
AcDbBlockBegin
  2
*D10
 70
     1
 10
0.0
 20
0.0
 30
0.0
  3
*D10
  1

  0
LINE
  5
830F
330
7D54
100
AcDbEntity
  8
3
 62
     0
440
 16777216
 48
10.0
370
    -2
100
AcDbLine
 10
926.3702822223264
 20
2279.789700692456
 30
0.0
 11
926.3702822223264
 21
2065.895676971355
 31
0.0
  0
LINE
  5
8310
330
7D54
100
AcDbEntity
  8
3
 62
     0
440
 16777216
 48
10.0
370
    -2
100
AcDbLine
 10
2501.370282222326
 20
2279.789700692456
 30
0.0
 11
2501.370282222326
 21
2065.895676971355
 31
0.0
  0
LINE
  5
8311
330
7D54
100
AcDbEntity
  8
3
 62
     0
440
 16777216
 48
10.0
370
    -2
100
AcDbLine
 10
996.3702822223263
 20
2100.895676971355
 30
0.0
 11
2431.370282222326
 21
2100.895676971355
 31
0.0
  0
INSERT
  5
8312
330
7D54
100
AcDbEntity
  8
3
 62
     0
440
 16777216
 48
10.0
370
    -2
100
AcDbBlockReference
  2
_OPEN
 10
926.3702822223264
 20
2100.895676971355
 30
0.0
 41
70.0
 42
70.0
 43
70.0
 50
180.0
  0
INSERT
  5
8313
330
7D54
100
AcDbEntity
  8
3
 62
     0
440
 16777216
 48
10.0
370
    -2
100
AcDbBlockReference
  2
_OPEN
 10
2501.370282222326
 20
2100.895676971355
 30
0.0
 41
70.0
 42
70.0
 43
70.0
  0
MTEXT
  5
8314
330
7D54
100
AcDbEntity
  8
3
 62
     0
440
 16777216
 48
10.0
100
AcDbMText
 10
1713.870282222326
 20
2188.395676971355
 30
0.0
 40
105.0
 41
0.0
 46
0.0
 71
     5
 72
     1
  1
\A1;1575
 73
     1
 44
1.0
  0
POINT
  5
8315
330
7D54
100
AcDbEntity
  8
DEFPOINTS
 62
     0
440
 16777216
 48
10.0
100
AcDbPoint
 10
926.3702822223264
 20
2297.289700692456
 30
0.0
  0
POINT
  5
8316
330
7D54
100
AcDbEntity
  8
DEFPOINTS
 62
     0
440
 16777216
 48
10.0
100
AcDbPoint
 10
2501.370282222326
 20
2297.289700692456
 30
0.0
  0
POINT
  5
8317
330
7D54
100
AcDbEntity
  8
DEFPOINTS
 62
     0
440
 16777216
 48
10.0
100
AcDbPoint
 10
2501.370282222326
 20
2100.895676971355
 30
0.0
  0
ENDBLK
  5
7FE7
330
7D54
100
AcDbEntity
  8
0
100
AcDbBlockEnd
  0
BLOCK
  5
7FB1
330
7D6C
100
AcDbEntity
  8
0
100
AcDbBlockBegin
  2
*D11
 70
     1
 10
0.0
 20
0.0
 30
0.0
  3
*D11
  1

  0
LINE
  5
820A
330
7D6C
100
AcDbEntity
  8
3
 62
     0
440
 16777216
100
AcDbLine
 10
3258.486264719955
 20
3677.289700692456
 30
0.0
 11
3833.327618289074
 21
3677.289700692456
 31
0.0
  0
LINE
  5
820B
330
7D6C
100
AcDbEntity
  8
3
 62
     0
440
 16777216
100
AcDbLine
 10
3143.870282222327
 20
2467.289700692456
 30
0.0
 11
3833.327618289074
 21
2467.289700692456
 31
0.0
  0
LINE
  5
820C
330
7D6C
100
AcDbEntity
  8
3
 62
     0
440
 16777216
100
AcDbLine
 10
3798.327618289074
 20
3607.289700692456
 30
0.0
 11
3798.327618289074
 21
2537.289700692456
 31
0.0
  0
INSERT
  5
820D
330
7D6C
100
AcDbEntity
  8
3
 62
     0
440
 16777216
100
AcDbBlockReference
  2
_OPEN
 10
3798.327618289074
 20
3677.289700692456
 30
0.0
 41
70.0
 42
70.0
 43
70.0
 50
90.0
  0
INSERT
  5
820E
330
7D6C
100
AcDbEntity
  8
3
 62
     0
440
 16777216
100
AcDbBlockReference
  2
_OPEN
 10
3798.327618289074
 20
2467.289700692456
 30
0.0
 41
70.0
 42
70.0
 43
70.0
 50
270.0
  0
MTEXT
  5
820F
330
7D6C
100
AcDbEntity
  8
3
 62
     0
440
 16777216
100
AcDbMText
 10
3710.827618289073
 20
3072.289700692457
 30
0.0
 40
105.0
 41
0.0
 46
0.0
 71
     5
 72
     5
  1
\A1;1210
 11
0.0000000000000001
 21
1.0
 31
0.0
 73
     1
 44
1.0
  0
POINT
  5
8210
330
7D6C
100
AcDbEntity
  8
DEFPOINTS
 62
     0
440
 16777216
100
AcDbPoint
 10
3240.986264719956
 20
3677.289700692456
 30
0.0
  0
POINT
  5
8211
330
7D6C
100
AcDbEntity
  8
DEFPOINTS
 62
     0
440
 16777216
100
AcDbPoint
 10
3126.370282222327
 20
2467.289700692456
 30
0.0
  0
POINT
  5
8212
330
7D6C
100
AcDbEntity
  8
DEFPOINTS
 62
     0
440
 16777216
100
AcDbPoint
 10
3798.327618289074
 20
2467.289700692456
 30
0.0
  0
ENDBLK
  5
7FBB
330
7D6C
100
AcDbEntity
  8
0
100
AcDbBlockEnd
  0
BLOCK
  5
7FD2
330
7D78
100
AcDbEntity
  8
0
100
AcDbBlockBegin
  2
*D12
 70
     1
 10
0.0
 20
0.0
 30
0.0
  3
*D12
  1

  0
LINE
  5
8318
330
7D78
100
AcDbEntity
  8
3
 62
     0
440
 16777216
 48
10.0
370
    -2
100
AcDbLine
 10
3126.370282222327
 20
2279.789700692456
 30
0.0
 11
3126.370282222327
 21
2064.269627335773
 31
0.0
  0
LINE
  5
8319
330
7D78
100
AcDbEntity
  8
3
 62
     0
440
 16777216
 48
10.0
370
    -2
100
AcDbLine
 10
2501.370282222326
 20
2279.789700692456
 30
0.0
 11
2501.370282222326
 21
2064.269627335773
 31
0.0
  0
LINE
  5
831A
330
7D78
100
AcDbEntity
  8
3
 62
     0
440
 16777216
 48
10.0
370
    -2
100
AcDbLine
 10
3056.370282222327
 20
2099.269627335772
 30
0.0
 11
2571.370282222325
 21
2099.269627335772
 31
0.0
  0
INSERT
  5
831B
330
7D78
100
AcDbEntity
  8
3
 62
     0
440
 16777216
 48
10.0
370
    -2
100
AcDbBlockReference
  2
_OPEN
 10
3126.370282222327
 20
2099.269627335772
 30
0.0
 41
70.0
 42
70.0
 43
70.0
  0
INSERT
  5
831C
330
7D78
100
AcDbEntity
  8
3
 62
     0
440
 16777216
 48
10.0
370
    -2
100
AcDbBlockReference
  2
_OPEN
 10
2501.370282222326
 20
2099.269627335772
 30
0.0
 41
70.0
 42
70.0
 43
70.0
 50
180.0
  0
MTEXT
  5
831D
330
7D78
100
AcDbEntity
  8
3
 62
     0
440
 16777216
 48
10.0
100
AcDbMText
 10
2813.870282222326
 20
2186.769627335772
 30
0.0
 40
105.0
 41
0.0
 46
0.0
 71
     5
 72
     1
  1
\A1;625
 73
     1
 44
1.0
  0
POINT
  5
831E
330
7D78
100
AcDbEntity
  8
DEFPOINTS
 62
     0
440
 16777216
 48
10.0
100
AcDbPoint
 10
3126.370282222327
 20
2297.289700692456
 30
0.0
  0
POINT
  5
831F
330
7D78
100
AcDbEntity
  8
DEFPOINTS
 62
     0
440
 16777216
 48
10.0
100
AcDbPoint
 10
2501.370282222326
 20
2297.289700692456
 30
0.0
  0
POINT
  5
8320
330
7D78
100
AcDbEntity
  8
DEFPOINTS
 62
     0
440
 16777216
 48
10.0
100
AcDbPoint
 10
2501.370282222326
 20
2099.269627335772
 30
0.0
  0
ENDBLK
  5
7FDC
330
7D78
100
AcDbEntity
  8
0
100
AcDbBlockEnd
  0
BLOCK
  5
7FC7
330
7D84
100
AcDbEntity
  8
0
100
AcDbBlockBegin
  2
*D13
 70
     1
 10
0.0
 20
0.0
 30
0.0
  3
*D13
  1

  0
LINE
  5
821C
330
7D84
100
AcDbEntity
  8
3
 62
     0
440
 16777216
100
AcDbLine
 10
3198.870282222327
 20
2603.289700692457
 30
0.0
 11
3417.53037921647
 21
2603.289700692457
 31
0.0
  0
LINE
  5
821D
330
7D84
100
AcDbEntity
  8
3
 62
     0
440
 16777216
100
AcDbLine
 10
3198.870282222328
 20
3633.289700692456
 30
0.0
 11
3417.530379216471
 21
3633.289700692456
 31
0.0
  0
LINE
  5
821E
330
7D84
100
AcDbEntity
  8
3
 62
     0
440
 16777216
100
AcDbLine
 10
3382.530379216471
 20
2673.289700692456
 30
0.0
 11
3382.530379216471
 21
3563.289700692456
 31
0.0
  0
INSERT
  5
821F
330
7D84
100
AcDbEntity
  8
3
 62
     0
440
 16777216
100
AcDbBlockReference
  2
_OPEN
 10
3382.530379216471
 20
2603.289700692457
 30
0.0
 41
70.0
 42
70.0
 43
70.0
 50
270.0
  0
INSERT
  5
8220
330
7D84
100
AcDbEntity
  8
3
 62
     0
440
 16777216
100
AcDbBlockReference
  2
_OPEN
 10
3382.530379216471
 20
3633.289700692456
 30
0.0
 41
70.0
 42
70.0
 43
70.0
 50
90.0
  0
MTEXT
  5
8221
330
7D84
100
AcDbEntity
  8
3
 62
     0
440
 16777216
100
AcDbMText
 10
3295.03037921647
 20
3118.289700692457
 30
0.0
 40
105.0
 41
0.0
 46
0.0
 71
     5
 72
     5
  1
\A1;1030
 11
0.0000000000000001
 21
1.0
 31
0.0
 73
     1
 44
1.0
  0
POINT
  5
8222
330
7D84
100
AcDbEntity
  8
DEFPOINTS
 62
     0
440
 16777216
100
AcDbPoint
 10
3181.370282222327
 20
2603.289700692457
 30
0.0
  0
POINT
  5
8223
330
7D84
100
AcDbEntity
  8
DEFPOINTS
 62
     0
440
 16777216
100
AcDbPoint
 10
3181.370282222328
 20
3633.289700692456
 30
0.0
  0
POINT
  5
8224
330
7D84
100
AcDbEntity
  8
DEFPOINTS
 62
     0
440
 16777216
100
AcDbPoint
 10
3382.530379216471
 20
3633.289700692456
 30
0.0
  0
ENDBLK
  5
7FD1
330
7D84
100
AcDbEntity
  8
0
100
AcDbBlockEnd
  0
BLOCK
  5
7FBC
330
7D90
100
AcDbEntity
  8
0
100
AcDbBlockBegin
  2
*D14
 70
     1
 10
0.0
 20
0.0
 30
0.0
  3
*D14
  1

  0
LINE
  5
8225
330
7D90
100
AcDbEntity
  8
3
 62
     0
440
 16777216
100
AcDbLine
 10
3198.870282222327
 20
2603.289700692457
 30
0.0
 11
3618.332424675624
 21
2603.289700692457
 31
0.0
  0
LINE
  5
8226
330
7D90
100
AcDbEntity
  8
3
 62
     0
440
 16777216
100
AcDbLine
 10
3258.486264719955
 20
3677.289700692456
 30
0.0
 11
3618.332424675624
 21
3677.289700692456
 31
0.0
  0
LINE
  5
8227
330
7D90
100
AcDbEntity
  8
3
 62
     0
440
 16777216
100
AcDbLine
 10
3583.332424675623
 20
2673.289700692456
 30
0.0
 11
3583.332424675624
 21
3607.289700692456
 31
0.0
  0
INSERT
  5
8228
330
7D90
100
AcDbEntity
  8
3
 62
     0
440
 16777216
100
AcDbBlockReference
  2
_OPEN
 10
3583.332424675623
 20
2603.289700692457
 30
0.0
 41
70.0
 42
70.0
 43
70.0
 50
270.0
  0
INSERT
  5
8229
330
7D90
100
AcDbEntity
  8
3
 62
     0
440
 16777216
100
AcDbBlockReference
  2
_OPEN
 10
3583.332424675624
 20
3677.289700692456
 30
0.0
 41
70.0
 42
70.0
 43
70.0
 50
90.0
  0
MTEXT
  5
822A
330
7D90
100
AcDbEntity
  8
3
 62
     0
440
 16777216
100
AcDbMText
 10
3495.832424675623
 20
3140.289700692457
 30
0.0
 40
105.0
 41
0.0
 46
0.0
 71
     5
 72
     5
  1
\A1;1074
 11
0.0000000000000001
 21
1.0
 31
0.0
 73
     1
 44
1.0
  0
POINT
  5
822B
330
7D90
100
AcDbEntity
  8
DEFPOINTS
 62
     0
440
 16777216
100
AcDbPoint
 10
3181.370282222327
 20
2603.289700692457
 30
0.0
  0
POINT
  5
822C
330
7D90
100
AcDbEntity
  8
DEFPOINTS
 62
     0
440
 16777216
100
AcDbPoint
 10
3240.986264719956
 20
3677.289700692456
 30
0.0
  0
POINT
  5
822D
330
7D90
100
AcDbEntity
  8
DEFPOINTS
 62
     0
440
 16777216
100
AcDbPoint
 10
3583.332424675624
 20
3677.289700692456
 30
0.0
  0
ENDBLK
  5
7FC6
330
7D90
100
AcDbEntity
  8
0
100
AcDbBlockEnd
  0
BLOCK
  5
7F55
330
7D9C
100
AcDbEntity
  8
0
100
AcDbBlockBegin
  2
*D15
 70
     1
 10
0.0
 20
0.0
 30
0.0
  3
*D15
  1

  0
LINE
  5
822E
330
7D9C
100
AcDbEntity
  8
3
 62
     0
440
 16777216
100
AcDbLine
 10
3143.870282222328
 20
7403.63965356618
 30
0.0
 11
3563.03134463562
 21
7403.63965356618
 31
0.0
  0
LINE
  5
822F
330
7D9C
100
AcDbEntity
  8
3
 62
     0
440
 16777216
100
AcDbLine
 10
3143.870282222328
 20
5753.639653566181
 30
0.0
 11
3563.03134463562
 21
5753.639653566181
 31
0.0
  0
LINE
  5
8230
330
7D9C
100
AcDbEntity
  8
3
 62
     0
440
 16777216
100
AcDbLine
 10
3528.03134463562
 20
7333.63965356618
 30
0.0
 11
3528.03134463562
 21
5823.639653566181
 31
0.0
  0
INSERT
  5
8231
330
7D9C
100
AcDbEntity
  8
3
 62
     0
440
 16777216
100
AcDbBlockReference
  2
_OPEN
 10
3528.03134463562
 20
7403.63965356618
 30
0.0
 41
70.0
 42
70.0
 43
70.0
 50
90.0
  0
INSERT
  5
8232
330
7D9C
100
AcDbEntity
  8
3
 62
     0
440
 16777216
100
AcDbBlockReference
  2
_OPEN
 10
3528.03134463562
 20
5753.639653566181
 30
0.0
 41
70.0
 42
70.0
 43
70.0
 50
270.0
  0
MTEXT
  5
8233
330
7D9C
100
AcDbEntity
  8
3
 62
     0
440
 16777216
100
AcDbMText
 10
3440.531344635619
 20
6578.639653566182
 30
0.0
 40
105.0
 41
0.0
 46
0.0
 71
     5
 72
     5
  1
\A1;1650
 11
0.0000000000000001
 21
1.0
 31
0.0
 73
     1
 44
1.0
  0
POINT
  5
8234
330
7D9C
100
AcDbEntity
  8
DEFPOINTS
 62
     0
440
 16777216
100
AcDbPoint
 10
3126.370282222328
 20
7403.63965356618
 30
0.0
  0
POINT
  5
8235
330
7D9C
100
AcDbEntity
  8
DEFPOINTS
 62
     0
440
 16777216
100
AcDbPoint
 10
3126.370282222328
 20
5753.639653566181
 30
0.0
  0
POINT
  5
8236
330
7D9C
100
AcDbEntity
  8
DEFPOINTS
 62
     0
440
 16777216
100
AcDbPoint
 10
3528.03134463562
 20
5753.639653566181
 30
0.0
  0
ENDBLK
  5
7F5F
330
7D9C
100
AcDbEntity
  8
0
100
AcDbBlockEnd
  0
BLOCK
  5
7F29
330
7DA8
100
AcDbEntity
  8
0
100
AcDbBlockBegin
  2
*D16
 70
     1
 10
0.0
 20
0.0
 30
0.0
  3
*D16
  1

  0
LINE
  5
8237
330
7DA8
100
AcDbEntity
  8
3
 62
     0
440
 16777216
100
AcDbLine
 10
926.3702822223267
 20
6721.139653566182
 30
0.0
 11
926.3702822223269
 21
7840.666301008259
 31
0.0
  0
LINE
  5
8238
330
7DA8
100
AcDbEntity
  8
3
 62
     0
440
 16777216
100
AcDbLine
 10
1876.370282222328
 20
7421.13965356618
 30
0.0
 11
1876.370282222328
 21
7840.666301008259
 31
0.0
  0
LINE
  5
8239
330
7DA8
100
AcDbEntity
  8
3
 62
     0
440
 16777216
100
AcDbLine
 10
996.3702822223268
 20
7805.66630100826
 30
0.0
 11
1806.370282222328
 21
7805.66630100826
 31
0.0
  0
INSERT
  5
823A
330
7DA8
100
AcDbEntity
  8
3
 62
     0
440
 16777216
100
AcDbBlockReference
  2
_OPEN
 10
926.3702822223269
 20
7805.66630100826
 30
0.0
 41
70.0
 42
70.0
 43
70.0
 50
180.0
  0
INSERT
  5
823B
330
7DA8
100
AcDbEntity
  8
3
 62
     0
440
 16777216
100
AcDbBlockReference
  2
_OPEN
 10
1876.370282222328
 20
7805.66630100826
 30
0.0
 41
70.0
 42
70.0
 43
70.0
  0
MTEXT
  5
823C
330
7DA8
100
AcDbEntity
  8
3
 62
     0
440
 16777216
100
AcDbMText
 10
1401.370282222327
 20
7893.16630100826
 30
0.0
 40
105.0
 41
0.0
 46
0.0
 71
     5
 72
     5
  1
\A1;950
 73
     1
 44
1.0
  0
POINT
  5
823D
330
7DA8
100
AcDbEntity
  8
DEFPOINTS
 62
     0
440
 16777216
100
AcDbPoint
 10
926.3702822223267
 20
6703.639653566182
 30
0.0
  0
POINT
  5
823E
330
7DA8
100
AcDbEntity
  8
DEFPOINTS
 62
     0
440
 16777216
100
AcDbPoint
 10
1876.370282222328
 20
7403.63965356618
 30
0.0
  0
POINT
  5
823F
330
7DA8
100
AcDbEntity
  8
DEFPOINTS
 62
     0
440
 16777216
100
AcDbPoint
 10
1876.370282222328
 20
7805.66630100826
 30
0.0
  0
ENDBLK
  5
7F33
330
7DA8
100
AcDbEntity
  8
0
100
AcDbBlockEnd
  0
BLOCK
  5
7F3F
330
7DB4
100
AcDbEntity
  8
0
100
AcDbBlockBegin
  2
*D17
 70
     1
 10
0.0
 20
0.0
 30
0.0
  3
*D17
  1

  0
LINE
  5
8240
330
7DB4
100
AcDbEntity
  8
3
 62
     0
440
 16777216
100
AcDbLine
 10
908.8702822223266
 20
6703.639653566182
 30
0.0
 11
650.0573468375052
 21
6703.639653566182
 31
0.0
  0
LINE
  5
8241
330
7DB4
100
AcDbEntity
  8
3
 62
     0
440
 16777216
100
AcDbLine
 10
908.8702822223266
 20
5753.639653566181
 30
0.0
 11
650.057346837505
 21
5753.639653566181
 31
0.0
  0
LINE
  5
8242
330
7DB4
100
AcDbEntity
  8
3
 62
     0
440
 16777216
100
AcDbLine
 10
685.0573468375053
 20
6633.639653566182
 30
0.0
 11
685.057346837505
 21
5823.639653566181
 31
0.0
  0
INSERT
  5
8243
330
7DB4
100
AcDbEntity
  8
3
 62
     0
440
 16777216
100
AcDbBlockReference
  2
_OPEN
 10
685.0573468375053
 20
6703.639653566182
 30
0.0
 41
70.0
 42
70.0
 43
70.0
 50
90.0
  0
INSERT
  5
8244
330
7DB4
100
AcDbEntity
  8
3
 62
     0
440
 16777216
100
AcDbBlockReference
  2
_OPEN
 10
685.057346837505
 20
5753.639653566181
 30
0.0
 41
70.0
 42
70.0
 43
70.0
 50
270.0
  0
MTEXT
  5
8245
330
7DB4
100
AcDbEntity
  8
3
 62
     0
440
 16777216
100
AcDbMText
 10
597.5573468375041
 20
6228.63965356618
 30
0.0
 40
105.0
 41
0.0
 46
0.0
 71
     5
 72
     5
  1
\A1;950
 11
0.0000000000000001
 21
1.0
 31
0.0
 73
     1
 44
1.0
  0
POINT
  5
8246
330
7DB4
100
AcDbEntity
  8
DEFPOINTS
 62
     0
440
 16777216
100
AcDbPoint
 10
926.3702822223267
 20
6703.639653566182
 30
0.0
  0
POINT
  5
8247
330
7DB4
100
AcDbEntity
  8
DEFPOINTS
 62
     0
440
 16777216
100
AcDbPoint
 10
926.3702822223267
 20
5753.639653566181
 30
0.0
  0
POINT
  5
8248
330
7DB4
100
AcDbEntity
  8
DEFPOINTS
 62
     0
440
 16777216
100
AcDbPoint
 10
685.057346837505
 20
5753.639653566181
 30
0.0
  0
ENDBLK
  5
7F49
330
7DB4
100
AcDbEntity
  8
0
100
AcDbBlockEnd
  0
BLOCK
  5
8101
330
7DCD
100
AcDbEntity
  8
0
100
AcDbBlockBegin
  2
*D18
 70
     1
 10
0.0
 20
0.0
 30
0.0
  3
*D18
  1

  0
LINE
  5
8321
330
7DCD
100
AcDbEntity
  8
3
 62
     0
440
 16777216
 48
10.0
370
    -2
100
AcDbLine
 10
3143.870282222327
 20
2362.289700692456
 30
0.0
 11
3833.327618289074
 21
2362.289700692456
 31
0.0
  0
LINE
  5
8322
330
7DCD
100
AcDbEntity
  8
3
 62
     0
440
 16777216
 48
10.0
370
    -2
100
AcDbLine
 10
3143.870282222327
 20
2297.289700692456
 30
0.0
 11
3833.327618289074
 21
2297.289700692456
 31
0.0
  0
LINE
  5
8323
330
7DCD
100
AcDbEntity
  8
3
 62
     0
440
 16777216
 48
10.0
370
    -2
100
AcDbLine
 10
3798.327618289074
 20
2432.289700692456
 30
0.0
 11
3798.327618289074
 21
2502.289700692456
 31
0.0
  0
LINE
  5
8324
330
7DCD
100
AcDbEntity
  8
3
 62
     0
440
 16777216
 48
10.0
370
    -2
100
AcDbLine
 10
3798.327618289074
 20
2227.289700692456
 30
0.0
 11
3798.327618289074
 21
1917.289700692456
 31
0.0
  0
LINE
  5
8325
330
7DCD
100
AcDbEntity
  8
3
 62
     0
440
 16777216
 48
10.0
370
    -2
100
AcDbLine
 10
3798.327618289074
 20
2362.289700692456
 30
0.0
 11
3798.327618289074
 21
2297.289700692456
 31
0.0
  0
INSERT
  5
8326
330
7DCD
100
AcDbEntity
  8
3
 62
     0
440
 16777216
 48
10.0
370
    -2
100
AcDbBlockReference
  2
_DOT
 10
3798.327618289074
 20
2362.289700692456
 30
0.0
 41
70.0
 42
70.0
 43
70.0
 50
270.0
  0
INSERT
  5
8327
330
7DCD
100
AcDbEntity
  8
3
 62
     0
440
 16777216
 48
10.0
370
    -2
100
AcDbBlockReference
  2
_OPEN
 10
3798.327618289074
 20
2297.289700692456
 30
0.0
 41
70.0
 42
70.0
 43
70.0
 50
90.0
  0
MTEXT
  5
8328
330
7DCD
100
AcDbEntity
  8
3
 62
     0
440
 16777216
 48
10.0
100
AcDbMText
 10
3710.827618289073
 20
2037.289700692457
 30
0.0
 40
105.0
 41
0.0
 46
0.0
 71
     5
 72
     1
  1
\A1;65
 11
0.0000000000000001
 21
1.0
 31
0.0
 73
     1
 44
1.0
  0
POINT
  5
8329
330
7DCD
100
AcDbEntity
  8
DEFPOINTS
 62
     0
440
 16777216
 48
10.0
100
AcDbPoint
 10
3126.370282222327
 20
2362.289700692456
 30
0.0
  0
POINT
  5
832A
330
7DCD
100
AcDbEntity
  8
DEFPOINTS
 62
     0
440
 16777216
 48
10.0
100
AcDbPoint
 10
3126.370282222327
 20
2297.289700692456
 30
0.0
  0
POINT
  5
832B
330
7DCD
100
AcDbEntity
  8
DEFPOINTS
 62
     0
440
 16777216
 48
10.0
100
AcDbPoint
 10
3798.327618289074
 20
2297.289700692456
 30
0.0
  0
ENDBLK
  5
810D
330
7DCD
100
AcDbEntity
  8
0
100
AcDbBlockEnd
  0
BLOCK
  5
7F6B
330
7DDB
100
AcDbEntity
  8
0
100
AcDbBlockBegin
  2
*D19
 70
     1
 10
0.0
 20
0.0
 30
0.0
  3
*D19
  1

  0
LINE
  5
8254
330
7DDB
100
AcDbEntity
  8
3
 62
     0
440
 16777216
100
AcDbLine
 10
3181.370282222328
 20
3703.789700692457
 30
0.0
 11
3181.370282222328
 21
4602.192631886926
 31
0.0
  0
LINE
  5
8255
330
7DDB
100
AcDbEntity
  8
3
 62
     0
440
 16777216
100
AcDbLine
 10
2501.370282222326
 20
4537.405566329411
 30
0.0
 11
2501.370282222326
 21
4602.192631886926
 31
0.0
  0
LINE
  5
8256
330
7DDB
100
AcDbEntity
  8
3
 62
     0
440
 16777216
100
AcDbLine
 10
3111.370282222328
 20
4567.192631886927
 30
0.0
 11
2571.370282222326
 21
4567.192631886927
 31
0.0
  0
INSERT
  5
8257
330
7DDB
100
AcDbEntity
  8
3
 62
     0
440
 16777216
100
AcDbBlockReference
  2
_OPEN
 10
3181.370282222328
 20
4567.192631886927
 30
0.0
 41
70.0
 42
70.0
 43
70.0
  0
INSERT
  5
8258
330
7DDB
100
AcDbEntity
  8
3
 62
     0
440
 16777216
100
AcDbBlockReference
  2
_OPEN
 10
2501.370282222326
 20
4567.192631886927
 30
0.0
 41
70.0
 42
70.0
 43
70.0
 50
180.0
  0
MTEXT
  5
8259
330
7DDB
100
AcDbEntity
  8
3
 62
     0
440
 16777216
100
AcDbMText
 10
2841.370282222327
 20
4654.692631886926
 30
0.0
 40
105.0
 41
0.0
 46
0.0
 71
     5
 72
     5
  1
\A1;680
 73
     1
 44
1.0
  0
POINT
  5
825A
330
7DDB
100
AcDbEntity
  8
DEFPOINTS
 62
     0
440
 16777216
100
AcDbPoint
 10
3181.370282222328
 20
3686.289700692456
 30
0.0
  0
POINT
  5
825B
330
7DDB
100
AcDbEntity
  8
DEFPOINTS
 62
     0
440
 16777216
100
AcDbPoint
 10
2501.370282222326
 20
4519.905566329411
 30
0.0
  0
POINT
  5
825C
330
7DDB
100
AcDbEntity
  8
DEFPOINTS
 62
     0
440
 16777216
100
AcDbPoint
 10
2501.370282222326
 20
4567.192631886927
 30
0.0
  0
ENDBLK
  5
7F75
330
7DDB
100
AcDbEntity
  8
0
100
AcDbBlockEnd
  0
BLOCK
  5
7F76
330
7DE7
100
AcDbEntity
  8
0
100
AcDbBlockBegin
  2
*D20
 70
     1
 10
0.0
 20
0.0
 30
0.0
  3
*D20
  1

  0
LINE
  5
825D
330
7DE7
100
AcDbEntity
  8
3
 62
     0
440
 16777216
100
AcDbLine
 10
2501.370282222326
 20
4537.405566329411
 30
0.0
 11
2501.370282222326
 21
4602.192631886926
 31
0.0
  0
LINE
  5
825E
330
7DE7
100
AcDbEntity
  8
3
 62
     0
440
 16777216
100
AcDbLine
 10
1633.370282222327
 20
3620.789700692457
 30
0.0
 11
1633.370282222327
 21
4602.192631886926
 31
0.0
  0
LINE
  5
825F
330
7DE7
100
AcDbEntity
  8
3
 62
     0
440
 16777216
100
AcDbLine
 10
2431.370282222326
 20
4567.192631886927
 30
0.0
 11
1703.370282222327
 21
4567.192631886927
 31
0.0
  0
INSERT
  5
8260
330
7DE7
100
AcDbEntity
  8
3
 62
     0
440
 16777216
100
AcDbBlockReference
  2
_OPEN
 10
2501.370282222326
 20
4567.192631886927
 30
0.0
 41
70.0
 42
70.0
 43
70.0
  0
INSERT
  5
8261
330
7DE7
100
AcDbEntity
  8
3
 62
     0
440
 16777216
100
AcDbBlockReference
  2
_OPEN
 10
1633.370282222327
 20
4567.192631886927
 30
0.0
 41
70.0
 42
70.0
 43
70.0
 50
180.0
  0
MTEXT
  5
8262
330
7DE7
100
AcDbEntity
  8
3
 62
     0
440
 16777216
100
AcDbMText
 10
2067.370282222327
 20
4654.692631886926
 30
0.0
 40
105.0
 41
0.0
 46
0.0
 71
     5
 72
     5
  1
\A1;868
 73
     1
 44
1.0
  0
POINT
  5
8263
330
7DE7
100
AcDbEntity
  8
DEFPOINTS
 62
     0
440
 16777216
100
AcDbPoint
 10
2501.370282222326
 20
4519.905566329411
 30
0.0
  0
POINT
  5
8264
330
7DE7
100
AcDbEntity
  8
DEFPOINTS
 62
     0
440
 16777216
100
AcDbPoint
 10
1633.370282222327
 20
3603.289700692457
 30
0.0
  0
POINT
  5
8265
330
7DE7
100
AcDbEntity
  8
DEFPOINTS
 62
     0
440
 16777216
100
AcDbPoint
 10
1633.370282222327
 20
4567.192631886927
 30
0.0
  0
ENDBLK
  5
7F80
330
7DE7
100
AcDbEntity
  8
0
100
AcDbBlockEnd
  0
BLOCK
  5
7F60
330
7DF2
100
AcDbEntity
  8
0
100
AcDbBlockBegin
  2
*D21
 70
     1
 10
0.0
 20
0.0
 30
0.0
  3
*D21
  1

  0
LINE
  5
8266
330
7DF2
100
AcDbEntity
  8
3
 62
     0
440
 16777216
100
AcDbLine
 10
3181.370282222328
 20
3694.789700692456
 30
0.0
 11
3181.370282222328
 21
4810.344728331646
 31
0.0
  0
LINE
  5
8267
330
7DF2
100
AcDbEntity
  8
3
 62
     0
440
 16777216
100
AcDbLine
 10
926.3702822223264
 20
2609.789700692454
 30
0.0
 11
926.3702822223264
 21
4810.344728331646
 31
0.0
  0
LINE
  5
8268
330
7DF2
100
AcDbEntity
  8
3
 62
     0
440
 16777216
100
AcDbLine
 10
3111.370282222328
 20
4775.344728331645
 30
0.0
 11
996.3702822223265
 21
4775.344728331645
 31
0.0
  0
INSERT
  5
8269
330
7DF2
100
AcDbEntity
  8
3
 62
     0
440
 16777216
100
AcDbBlockReference
  2
_OPEN
 10
3181.370282222328
 20
4775.344728331645
 30
0.0
 41
70.0
 42
70.0
 43
70.0
  0
INSERT
  5
826A
330
7DF2
100
AcDbEntity
  8
3
 62
     0
440
 16777216
100
AcDbBlockReference
  2
_OPEN
 10
926.3702822223264
 20
4775.344728331645
 30
0.0
 41
70.0
 42
70.0
 43
70.0
 50
180.0
  0
MTEXT
  5
826B
330
7DF2
100
AcDbEntity
  8
3
 62
     0
440
 16777216
100
AcDbMText
 10
2053.870282222327
 20
4862.844728331645
 30
0.0
 40
105.0
 41
0.0
 46
0.0
 71
     5
 72
     5
  1
\A1;2255
 73
     1
 44
1.0
  0
POINT
  5
826C
330
7DF2
100
AcDbEntity
  8
DEFPOINTS
 62
     0
440
 16777216
100
AcDbPoint
 10
3181.370282222328
 20
3677.289700692456
 30
0.0
  0
POINT
  5
826D
330
7DF2
100
AcDbEntity
  8
DEFPOINTS
 62
     0
440
 16777216
100
AcDbPoint
 10
926.3702822223264
 20
2592.289700692454
 30
0.0
  0
POINT
  5
826E
330
7DF2
100
AcDbEntity
  8
DEFPOINTS
 62
     0
440
 16777216
100
AcDbPoint
 10
926.3702822223264
 20
4775.344728331645
 30
0.0
  0
ENDBLK
  5
7F6A
330
7DF2
100
AcDbEntity
  8
0
100
AcDbBlockEnd
  0
BLOCK
  5
80F0
330
80EA
100
AcDbEntity
  8
0
100
AcDbBlockBegin
  2
_DOT
 70
     0
 10
0.0
 20
0.0
 30
0.0
  3
_DOT
  1

  0
LWPOLYLINE
  5
80EB
330
80EA
100
AcDbEntity
  8
0
  6
ByBlock
 62
     0
100
AcDbPolyline
 90
        2
 70
     1
 43
0.25
 10
-0.125
 20
0.0
 42
1.0
 10
0.125
 20
0.0
 42
1.0
  0
LINE
  5
80EF
330
80EA
100
AcDbEntity
  8
0
  6
ByBlock
 62
     0
100
AcDbLine
 10
-0.25
 20
0.0
 30
0.0
 11
-1.0
 21
0.0
 31
0.0
  0
ENDBLK
  5
80F1
330
80EA
100
AcDbEntity
  8
0
100
AcDbBlockEnd
  0
BLOCK
  5
8130
330
812F
100
AcDbEntity
  8
0
100
AcDbBlockBegin
  2
*D23
 70
     1
 10
0.0
 20
0.0
 30
0.0
  3
*D23
  1

  0
LINE
  5
8131
330
812F
100
AcDbEntity
  8
0
  6
ByBlock
 62
     0
440
 16777216
100
AcDbLine
 10
2444.870282222328
 20
4397.289700692456
 30
0.0
 11
3834.353179667545
 21
4397.289700692456
 31
0.0
  0
LINE
  5
8132
330
812F
100
AcDbEntity
  8
0
  6
ByBlock
 62
     0
440
 16777216
100
AcDbLine
 10
3258.486264719955
 20
3677.289700692456
 30
0.0
 11
3834.353179667545
 21
3677.289700692456
 31
0.0
  0
LINE
  5
8133
330
812F
100
AcDbEntity
  8
0
  6
ByBlock
 62
     0
440
 16777216
100
AcDbLine
 10
3799.353179667546
 20
4327.289700692456
 30
0.0
 11
3799.353179667546
 21
3747.289700692456
 31
0.0
  0
INSERT
  5
8134
330
812F
100
AcDbEntity
  8
0
  6
ByBlock
 62
     0
440
 16777216
100
AcDbBlockReference
  2
_OPEN
 10
3799.353179667546
 20
4397.289700692456
 30
0.0
 41
70.0
 42
70.0
 43
70.0
 50
90.0
  0
INSERT
  5
8135
330
812F
100
AcDbEntity
  8
0
  6
ByBlock
 62
     0
440
 16777216
100
AcDbBlockReference
  2
_OPEN
 10
3799.353179667546
 20
3677.289700692456
 30
0.0
 41
70.0
 42
70.0
 43
70.0
 50
270.0
  0
MTEXT
  5
8136
330
812F
100
AcDbEntity
  8
0
  6
ByBlock
 62
     0
440
 16777216
100
AcDbMText
 10
3711.853179667546
 20
4037.289700692457
 30
0.0
 40
105.0
 41
0.0
 46
0.0
 71
     5
 72
     5
  1
\A1;720
 11
0.0
 21
1.0
 31
0.0
 73
     1
 44
1.0
  0
POINT
  5
8137
330
812F
100
AcDbEntity
  8
DEFPOINTS
  6
ByBlock
 62
     0
440
 16777216
100
AcDbPoint
 10
2427.370282222328
 20
4397.289700692456
 30
0.0
  0
POINT
  5
8138
330
812F
100
AcDbEntity
  8
DEFPOINTS
  6
ByBlock
 62
     0
440
 16777216
100
AcDbPoint
 10
3240.986264719956
 20
3677.289700692456
 30
0.0
  0
POINT
  5
8139
330
812F
100
AcDbEntity
  8
DEFPOINTS
  6
ByBlock
 62
     0
440
 16777216
100
AcDbPoint
 10
3799.353179667546
 20
3677.289700692456
 30
0.0
  0
ENDBLK
  5
813A
330
812F
100
AcDbEntity
  8
0
100
AcDbBlockEnd
  0
BLOCK
  5
814C
330
814B
100
AcDbEntity
  8
0
100
AcDbBlockBegin
  2
_NONE
 70
     0
 10
0.0
 20
0.0
 30
0.0
  3
_NONE
  1

  0
CIRCLE
  5
814D
330
814B
100
AcDbEntity
  8
0
  6
ByBlock
 62
     0
100
AcDbCircle
 10
0.0
 20
0.0
 30
0.0
 40
0.25
  0
ENDBLK
  5
814E
330
814B
100
AcDbEntity
  8
0
100
AcDbBlockEnd
  0
BLOCK
  5
8177
330
814F
100
AcDbEntity
  8
0
100
AcDbBlockBegin
  2
*D25
 70
     1
 10
0.0
 20
0.0
 30
0.0
  3
*D25
  1

  0
LINE
  5
8343
330
814F
100
AcDbEntity
  8
3
 62
     0
440
 16777216
370
    -2
100
AcDbLine
 10
3796.04115715428
 20
2362.289700692456
 30
0.0
 11
3796.04115715428
 21
2467.289700692456
 31
0.0
  0
MTEXT
  5
8344
330
814F
100
AcDbEntity
  8
3
 62
     0
440
 16777216
100
AcDbMText
 10
3932.238245193737
 20
2414.789700692456
 30
0.0
 40
105.0
 41
0.0
 46
0.0
 71
     5
 72
     1
  1
\A1;   (105)
 11
0.0000000000000001
 21
1.0
 31
0.0
 73
     1
 44
1.0
  0
POINT
  5
8345
330
814F
100
AcDbEntity
  8
DEFPOINTS
 62
     0
440
 16777216
100
AcDbPoint
 10
3126.370282222327
 20
2362.289700692456
 30
0.0
  0
POINT
  5
8346
330
814F
100
AcDbEntity
  8
DEFPOINTS
 62
     0
440
 16777216
100
AcDbPoint
 10
3126.370282222327
 20
2467.289700692456
 30
0.0
  0
POINT
  5
8347
330
814F
100
AcDbEntity
  8
DEFPOINTS
 62
     0
440
 16777216
100
AcDbPoint
 10
3796.04115715428
 20
2467.289700692456
 30
0.0
  0
ENDBLK
  5
817D
330
814F
100
AcDbEntity
  8
0
100
AcDbBlockEnd
  0
BLOCK
  5
8159
330
8158
100
AcDbEntity
  8
0
100
AcDbBlockBegin
  2
*D26
 70
     1
 10
0.0
 20
0.0
 30
0.0
  3
*D26
  1

  0
LINE
  5
8331
330
8158
100
AcDbEntity
  8
3
 62
     0
440
 16777216
370
    -2
100
AcDbLine
 10
2462.370282222329
 20
4397.289700692456
 30
0.0
 11
4108.862002465772
 21
4397.289700692456
 31
0.0
  0
LINE
  5
8332
330
8158
100
AcDbEntity
  8
3
 62
     0
440
 16777216
370
    -2
100
AcDbLine
 10
3143.870282222327
 20
2297.289700692456
 30
0.0
 11
4108.862002465772
 21
2297.289700692456
 31
0.0
  0
LINE
  5
8333
330
8158
100
AcDbEntity
  8
3
 62
     0
440
 16777216
370
    -2
100
AcDbLine
 10
4073.862002465772
 20
4327.289700692456
 30
0.0
 11
4073.862002465772
 21
2367.289700692456
 31
0.0
  0
INSERT
  5
8334
330
8158
100
AcDbEntity
  8
3
 62
     0
440
 16777216
370
    -2
100
AcDbBlockReference
  2
_OPEN
 10
4073.862002465772
 20
4397.289700692456
 30
0.0
 41
70.0
 42
70.0
 43
70.0
 50
90.0
  0
INSERT
  5
8335
330
8158
100
AcDbEntity
  8
3
 62
     0
440
 16777216
370
    -2
100
AcDbBlockReference
  2
_OPEN
 10
4073.862002465772
 20
2297.289700692456
 30
0.0
 41
70.0
 42
70.0
 43
70.0
 50
270.0
  0
MTEXT
  5
8336
330
8158
100
AcDbEntity
  8
3
 62
     0
440
 16777216
100
AcDbMText
 10
3958.862002465771
 20
3347.289700692457
 30
0.0
 40
105.0
 41
0.0
 46
0.0
 71
     5
 72
     1
  1
\A1;(2100)
 11
0.0000000000000001
 21
1.0
 31
0.0
 73
     1
 44
1.0
  0
POINT
  5
8337
330
8158
100
AcDbEntity
  8
DEFPOINTS
 62
     0
440
 16777216
100
AcDbPoint
 10
2444.870282222328
 20
4397.289700692456
 30
0.0
  0
POINT
  5
8338
330
8158
100
AcDbEntity
  8
DEFPOINTS
 62
     0
440
 16777216
100
AcDbPoint
 10
3126.370282222327
 20
2297.289700692456
 30
0.0
  0
POINT
  5
8339
330
8158
100
AcDbEntity
  8
DEFPOINTS
 62
     0
440
 16777216
100
AcDbPoint
 10
4073.862002465772
 20
2297.289700692456
 30
0.0
  0
ENDBLK
  5
8163
330
8158
100
AcDbEntity
  8
0
100
AcDbBlockEnd
  0
ENDSEC
  0
SECTION
  2
ENTITIES
  0
INSERT
  5
7C1E
330
19
100
AcDbEntity
  8
0
100
AcDbBlockReference
  2
YA_N
 10
6.0
 20
5.0
 30
0.0
  0
LINE
  5
7C20
330
19
100
AcDbEntity
  8
2
100
AcDbLine
 10
4861.657856923637
 20
3677.289700692457
 30
0.0
 11
6671.679929693145
 21
3677.289700692457
 31
0.0
  0
LINE
  5
7C21
330
19
100
AcDbEntity
  8
2
100
AcDbLine
 10
5865.603298143844
 20
4605.247775141317
 30
0.0
 11
5865.603298143844
 21
2297.289700692457
 31
0.0
  0
INSERT
  5
7C22
330
19
100
AcDbEntity
  8
0
 48
10.0
100
AcDbBlockReference
  2
YA_N
 10
-1637.209838160517
 20
-1405.432827243363
 30
0.0
 41
25.0
 42
25.0
 43
25.0
  0
INSERT
  5
7C24
330
19
100
AcDbEntity
  8
0
 48
10.0
100
AcDbBlockReference
  2
YA_N
 10
-1144.893563079055
 20
-989.0222135336152
 30
0.0
 41
25.0
 42
25.0
 43
25.0
  0
LINE
  5
7C26
330
19
100
AcDbEntity
  8
2
100
AcDbLine
 10
4861.657856923637
 20
2827.289700692457
 30
0.0
 11
5205.603298143845
 21
2827.289700692457
 31
0.0
  0
LINE
  5
7C2D
330
19
100
AcDbEntity
  8
1
 48
10.0
100
AcDbLine
 10
5005.603298143844
 20
3026.289700692457
 30
0.0
 11
5205.603298143844
 21
3026.289700692457
 31
0.0
  0
LINE
  5
7C2E
330
19
100
AcDbEntity
  8
1
 48
10.0
100
AcDbLine
 10
5005.603298143844
 20
2628.289700692457
 30
0.0
 11
5205.603298143842
 21
2628.289700692457
 31
0.0
  0
LINE
  5
7C2F
330
19
100
AcDbEntity
  8
1
 48
10.0
100
AcDbLine
 10
5005.603298143844
 20
3026.289700692457
 30
0.0
 11
5005.603298143844
 21
2628.289700692457
 31
0.0
  0
LINE
  5
7C30
330
19
100
AcDbEntity
  8
1
 48
10.0
100
AcDbLine
 10
5000.603298143843
 20
2854.789700692457
 30
0.0
 11
5005.603298143842
 21
2854.789700692457
 31
0.0
  0
LINE
  5
7C31
330
19
100
AcDbEntity
  8
1
 48
10.0
100
AcDbLine
 10
5000.603298143843
 20
2799.789700692457
 30
0.0
 11
5005.603298143844
 21
2799.789700692457
 31
0.0
  0
LINE
  5
7C32
330
19
100
AcDbEntity
  8
1
 48
10.0
100
AcDbLine
 10
4786.103298143848
 20
2607.289700692457
 30
0.0
 11
5038.103298143847
 21
2607.289700692457
 31
0.0
  0
LINE
  5
7C33
330
19
100
AcDbEntity
  8
1
 48
10.0
100
AcDbLine
 10
4786.103298143838
 20
3957.289700692457
 30
0.0
 11
5038.103298143838
 21
3957.289700692457
 31
0.0
  0
LINE
  5
7C34
330
19
100
AcDbEntity
  8
1
 48
10.0
100
AcDbLine
 10
4890.603298143845
 20
2712.989700692457
 30
0.0
 11
5000.603298143843
 21
2712.989700692457
 31
0.0
  0
LINE
  5
7C35
330
19
100
AcDbEntity
  8
1
 48
10.0
100
AcDbLine
 10
4890.603298143844
 20
2941.589700692457
 30
0.0
 11
5000.603298143843
 21
2941.589700692457
 31
0.0
  0
LINE
  5
7C36
330
19
100
AcDbEntity
  8
1
 48
10.0
100
AcDbLine
 10
4890.603298143844
 20
3512.189700692456
 30
0.0
 11
5000.603298143843
 21
3512.189700692456
 31
0.0
  0
LINE
  5
7C37
330
19
100
AcDbEntity
  8
1
 48
10.0
100
AcDbLine
 10
4890.603298143844
 20
3842.389700692457
 30
0.0
 11
5000.603298143843
 21
3842.389700692457
 31
0.0
  0
LINE
  5
7C38
330
19
100
AcDbEntity
  8
1
 48
10.0
100
AcDbLine
 10
4786.103298143838
 20
3957.289700692457
 30
0.0
 11
4786.103298143848
 21
2607.289700692457
 31
0.0
  0
LINE
  5
7C39
330
19
100
AcDbEntity
  8
1
 48
10.0
100
AcDbLine
 10
4890.603298143844
 20
3842.389700692457
 30
0.0
 11
4890.603298143844
 21
2712.989700692457
 31
0.0
  0
POINT
  5
7C3B
330
19
100
AcDbEntity
  8
1
 48
10.0
100
AcDbPoint
 10
4786.103298143838
 20
3957.289700692457
 30
0.0
  0
DIMENSION
  5
7C3C
330
19
100
AcDbEntity
  8
3
 48
10.0
100
AcDbDimension
280
     0
  2
*D2
 10
6951.421712160976
 20
4177.289700692456
 30
0.0
 11
6863.921712160976
 21
3677.289700692458
 31
0.0
 70
    32
  1
φ<>
 71
     5
 42
-1.0
 73
     0
 74
     0
 75
     0
  3
IGA
100
AcDbAlignedDimension
 13
6531.103298143844
 23
3177.289700692457
 33
0.0
 14
6531.103298143844
 24
4177.289700692456
 34
0.0
 50
90.0
100
AcDbRotatedDimension
1001
ACAD
1000
DSTYLE
1002
{
1070
   287
1070
     3
1070
    40
1040
35.0
1070
   143
1040
0.039
1070
   172
1070
     1
1070
   271
1070
     0
1070
   279
1070
     0
1070
   288
1070
     1
1002
}
  0
LINE
  5
7C3D
330
19
100
AcDbEntity
  8
1
 48
10.0
100
AcDbLine
 10
5000.603298143845
 20
3842.389700692457
 30
0.0
 11
5000.603298143842
 21
2712.989700692457
 31
0.0
  0
DIMENSION
  5
7C3E
330
19
100
AcDbEntity
  8
3
 48
10.0
100
AcDbDimension
280
     0
  2
*D3
 10
6593.603298143844
 20
2097.377835280655
 30
0.0
 11
6229.603298143843
 21
2184.877835280655
 31
0.0
 70
    32
 71
     5
 42
728.0
 73
     0
 74
     0
 75
     0
  3
IGA
100
AcDbAlignedDimension
 13
5865.603298143844
 23
2297.289700692457
 33
0.0
 14
6593.603298143844
 24
2297.289700692457
 34
0.0
100
AcDbRotatedDimension
1001
ACAD
1000
DSTYLE
1002
{
1070
   287
1070
     3
1070
    40
1040
35.0
1070
   143
1040
0.039
1070
   172
1070
     1
1070
   271
1070
     0
1070
   279
1070
     0
1070
   288
1070
     1
1002
}
  0
LINE
  5
7C40
330
19
100
AcDbEntity
  8
1
 48
10.0
100
AcDbLine
 10
4943.603298143844
 20
2297.289700692457
 30
0.0
 11
6593.603298143844
 21
2297.289700692457
 31
0.0
  0
LINE
  5
7C41
330
19
100
AcDbEntity
  8
1
 48
10.0
100
AcDbLine
 10
4943.603298143844
 20
2362.289700692457
 30
0.0
 11
6593.603298143844
 21
2362.289700692457
 31
0.0
1001
ACAD
1000
ASC_BOUNDS
1002
{
1070
    19
1002
}
  0
LINE
  5
7C42
330
19
100
AcDbEntity
  8
1
 48
10.0
100
AcDbLine
 10
4943.603298143844
 20
2592.289700692457
 30
0.0
 11
6593.603298143844
 21
2592.289700692457
 31
0.0
  0
LINE
  5
7C43
330
19
100
AcDbEntity
  8
1
 48
10.0
100
AcDbLine
 10
4943.603298143844
 20
2467.289700692457
 30
0.0
 11
6593.603298143844
 21
2467.289700692457
 31
0.0
1001
ACAD
1000
ASC_BOUNDS
1002
{
1070
    19
1002
}
  0
DIMENSION
  5
7C44
330
19
100
AcDbEntity
  8
3
 48
10.0
100
AcDbDimension
280
     0
  2
*D4
 10
5865.603298143844
 20
2097.377835280655
 30
0.0
 11
5404.603298143843
 21
2184.877835280655
 31
0.0
 70
    32
 71
     5
 42
922.0
 73
     0
 74
     0
 75
     0
  3
IGA
100
AcDbAlignedDimension
 13
4943.603298143844
 23
2297.289700692457
 33
0.0
 14
5865.603298143844
 24
2297.289700692457
 34
0.0
100
AcDbRotatedDimension
1001
ACAD
1000
DSTYLE
1002
{
1070
   287
1070
     3
1070
    40
1040
35.0
1070
   143
1040
0.039
1070
   172
1070
     1
1070
   271
1070
     0
1070
   279
1070
     0
1070
   288
1070
     1
1002
}
  0
LINE
  5
7C45
330
19
100
AcDbEntity
  8
1
 48
10.0
100
AcDbLine
 10
4943.603298143844
 20
2362.289700692457
 30
0.0
 11
4943.603298143844
 21
2297.289700692457
 31
0.0
  0
LINE
  5
7C46
330
19
100
AcDbEntity
  8
1
 48
10.0
100
AcDbLine
 10
4943.603298143844
 20
2592.289700692457
 30
0.0
 11
4943.603298143844
 21
2467.289700692457
 31
0.0
  0
LINE
  5
7C47
330
19
100
AcDbEntity
  8
1
 48
10.0
100
AcDbLine
 10
5038.103298143847
 20
2664.810452731212
 30
0.0
 11
5038.103298143847
 21
2607.289700692459
 31
0.0
  0
LINE
  5
7C48
330
19
100
AcDbEntity
  8
1
 48
10.0
100
AcDbLine
 10
6593.603298143844
 20
2362.289700692457
 30
0.0
 11
6593.603298143844
 21
2297.289700692457
 31
0.0
  0
LINE
  5
7C49
330
19
100
AcDbEntity
  8
1
 48
10.0
100
AcDbLine
 10
6593.603298143844
 20
2592.289700692457
 30
0.0
 11
6593.603298143844
 21
2467.289700692457
 31
0.0
  0
LINE
  5
7C4A
330
19
100
AcDbEntity
  8
1
 48
10.0
100
AcDbLine
 10
5205.603298143842
 20
4397.289700692456
 30
0.0
 11
5205.603298143845
 21
2603.289700692457
 31
0.0
  0
LINE
  5
7C4B
330
19
100
AcDbEntity
  8
1
 48
10.0
100
AcDbLine
 10
6525.603298143844
 20
4397.289700692456
 30
0.0
 11
6525.603298143844
 21
2603.289700692457
 31
0.0
  0
LINE
  5
7C4C
330
19
100
AcDbEntity
  8
1
 48
10.0
100
AcDbLine
 10
5865.603298143844
 20
3633.289700692457
 30
0.0
 11
5205.603298143842
 21
3633.289700692457
 31
0.0
  0
LINE
  5
7C4D
330
19
100
AcDbEntity
  8
1
 48
10.0
100
AcDbLine
 10
5049.703298143844
 20
3736.789700692457
 30
0.0
 11
5049.703298143843
 21
3617.789700692457
 31
0.0
  0
LINE
  5
7C4E
330
19
100
AcDbEntity
  8
1
 48
10.0
100
AcDbLine
 10
5048.103298143843
 20
3595.289700692457
 30
0.0
 11
5048.103298143844
 21
3465.289700692456
 31
0.0
  0
ARC
  5
7C4F
330
19
100
AcDbEntity
  8
1
 48
10.0
100
AcDbCircle
 10
5058.103298143844
 20
3465.289700692457
 30
0.0
 40
10.0
100
AcDbArc
 50
180.0000000000007
 51
270.0
  0
LINE
  5
7C50
330
19
100
AcDbEntity
  8
1
 48
10.0
100
AcDbLine
 10
5058.103298143844
 20
3455.289700692457
 30
0.0
 11
5205.603298143844
 21
3455.289700692457
 31
0.0
  0
ARC
  5
7C51
330
19
100
AcDbEntity
  8
1
 48
10.0
100
AcDbCircle
 10
5058.103298143842
 20
3595.289700692457
 30
0.0
 40
10.0
100
AcDbArc
 50
90.0
 51
180.0000000000007
  0
LINE
  5
7C52
330
19
100
AcDbEntity
  8
1
 48
10.0
100
AcDbLine
 10
5058.103298143842
 20
3605.289700692457
 30
0.0
 11
5205.603298143844
 21
3605.289700692457
 31
0.0
  0
LINE
  5
7C53
330
19
100
AcDbEntity
  8
1
 48
10.0
100
AcDbLine
 10
5049.703298143844
 20
3617.789700692457
 30
0.0
 11
5205.603298143842
 21
3617.789700692457
 31
0.0
  0
LINE
  5
7C54
330
19
100
AcDbEntity
  8
1
 48
10.0
100
AcDbLine
 10
5005.603298143844
 20
3637.289700692457
 30
0.0
 11
5049.703298143843
 21
3637.289700692457
 31
0.0
  0
LINE
  5
7C55
330
19
100
AcDbEntity
  8
1
 48
10.0
100
AcDbLine
 10
5005.603298143844
 20
3717.289700692457
 30
0.0
 11
5049.703298143843
 21
3717.289700692457
 31
0.0
  0
LINE
  5
7C56
330
19
100
AcDbEntity
  8
1
 48
10.0
100
AcDbLine
 10
5000.603298143843
 20
3647.289700692457
 30
0.0
 11
5005.603298143844
 21
3647.289700692457
 31
0.0
  0
LINE
  5
7C57
330
19
100
AcDbEntity
  8
1
 48
10.0
100
AcDbLine
 10
5000.603298143843
 20
3707.289700692457
 30
0.0
 11
5005.603298143844
 21
3707.289700692457
 31
0.0
  0
LINE
  5
7C58
330
19
100
AcDbEntity
  8
1
 48
10.0
100
AcDbLine
 10
5005.603298143844
 20
3717.289700692457
 30
0.0
 11
5005.603298143844
 21
3637.289700692457
 31
0.0
  0
LINE
  5
7C59
330
19
100
AcDbEntity
  8
1
 48
10.0
100
AcDbLine
 10
5049.703298143843
 20
3736.789700692457
 30
0.0
 11
5205.603298143842
 21
3736.789700692457
 31
0.0
  0
LINE
  5
7C5A
330
19
100
AcDbEntity
  8
1
 48
10.0
100
AcDbLine
 10
5038.103298143838
 20
3957.289700692459
 30
0.0
 11
5038.103298143838
 21
3937.289700692457
 31
0.0
  0
LINE
  5
7C5B
330
19
100
AcDbEntity
  8
1
 48
10.0
100
AcDbLine
 10
5865.603298143844
 20
3633.289700692457
 30
0.0
 11
6525.603298143844
 21
3633.289700692457
 31
0.0
  0
LINE
  5
7C5C
330
19
100
AcDbEntity
  8
1
 48
10.0
100
AcDbLine
 10
5865.603298143844
 20
4175.289700692457
 30
0.0
 11
5861.603298143844
 21
4175.289700692457
 31
0.0
  0
LINE
  5
7C5D
330
19
100
AcDbEntity
  8
1
 48
10.0
100
AcDbLine
 10
5865.603298143844
 20
4175.289700692457
 30
0.0
 11
5869.603298143844
 21
4175.289700692457
 31
0.0
  0
LINE
  5
7C5E
330
19
100
AcDbEntity
  8
1
 48
10.0
100
AcDbLine
 10
5865.603298143844
 20
2603.289700692457
 30
0.0
 11
5205.603298143842
 21
2603.289700692457
 31
0.0
  0
LINE
  5
7C5F
330
19
100
AcDbEntity
  8
1
 48
10.0
100
AcDbLine
 10
5865.603298143844
 20
2603.289700692457
 30
0.0
 11
6525.603298143844
 21
2603.289700692457
 31
0.0
  0
POINT
  5
7C62
330
19
100
AcDbEntity
  8
1
 48
10.0
100
AcDbPoint
 10
5865.603298143844
 20
4932.520397598251
 30
0.0
  0
LINE
  5
7C63
330
19
100
AcDbEntity
  8
1
 48
10.0
100
AcDbLine
 10
6665.603298143844
 20
3635.089700692457
 30
0.0
 11
6665.603298143844
 21
3505.089700692457
 31
0.0
  0
LINE
  5
7C64
330
19
100
AcDbEntity
  8
1
 48
10.0
100
AcDbLine
 10
6525.603298143844
 20
3495.089700692457
 30
0.0
 11
6655.603298143846
 21
3495.089700692457
 31
0.0
  0
ARC
  5
7C65
330
19
100
AcDbEntity
  8
1
 48
10.0
100
AcDbCircle
 10
6655.603298143846
 20
3505.089700692457
 30
0.0
 40
10.0
100
AcDbArc
 50
270.0
 51
0.0000000000006514
  0
POINT
  5
7C66
330
19
100
AcDbEntity
  8
1
 48
10.0
100
AcDbPoint
 10
6665.603298143847
 20
3635.089700692457
 30
0.0
  0
LINE
  5
7C67
330
19
100
AcDbEntity
  8
1
 48
10.0
100
AcDbLine
 10
6525.603298143844
 20
3645.089700692457
 30
0.0
 11
6655.603298143843
 21
3645.089700692457
 31
0.0
  0
LINE
  5
7C68
330
19
100
AcDbEntity
  8
1
 48
10.0
100
AcDbLine
 10
6652.203298143844
 20
3644.789700692457
 30
0.0
 11
6655.603298143843
 21
3644.789700692457
 31
0.0
  0
ARC
  5
7C69
330
19
100
AcDbEntity
  8
1
 48
10.0
100
AcDbCircle
 10
6655.603298143848
 20
3635.089700692457
 30
0.0
 40
10.0
100
AcDbArc
 50
0.0000000000006514
 51
90.0
  0
DIMENSION
  5
7C6A
330
19
100
AcDbEntity
  8
3
 48
10.0
100
AcDbDimension
280
     0
  2
*D5
 10
5865.603298143844
 20
4933.547879362344
 30
0.0
 11
6265.603298143844
 21
5048.547879362344
 31
0.0
 70
    32
  1
(<>)
 71
     5
 42
800.0
 73
     0
 74
     0
 75
     0
  3
IGA
100
AcDbAlignedDimension
 13
6665.603298143844
 23
3635.089700692457
 33
0.0
 14
5865.603298143844
 24
4757.756961805724
 34
0.0
100
AcDbRotatedDimension
1001
ACAD
1000
DSTYLE
1002
{
1070
   287
1070
     3
1070
    40
1040
35.0
1070
   143
1040
0.039
1070
   172
1070
     1
1070
   271
1070
     0
1070
   279
1070
     0
1070
   288
1070
     1
1002
}
  0
DIMENSION
  5
7C6B
330
19
100
AcDbEntity
  8
3
 48
10.0
100
AcDbDimension
280
     0
  2
*D6
 10
4786.103298143838
 20
4933.547879362344
 30
0.0
 11
5325.853298143841
 21
5048.547879362344
 31
0.0
 70
    32
  1
(<>)
 71
     5
 42
1079.500000000005
 73
     0
 74
     0
 75
     0
  3
IGA
100
AcDbAlignedDimension
 13
5865.603298143844
 23
4757.756961805724
 33
0.0
 14
4786.103298143838
 24
3957.289700692457
 34
0.0
100
AcDbRotatedDimension
1001
ACAD
1000
DSTYLE
1002
{
1070
   287
1070
     3
1070
    40
1040
35.0
1070
   143
1040
0.039
1070
   172
1070
     1
1070
   271
1070
     0
1070
   279
1070
     0
1070
   288
1070
     1
1002
}
  0
DIMENSION
  5
7C6C
330
19
100
AcDbEntity
  8
3
 48
10.0
100
AcDbDimension
280
     0
  2
*D7
 10
6525.603298143844
 20
4612.555048089452
 30
0.0
 11
5861.548470512079
 21
4612.555048089452
 31
0.0
 70
   160
 71
     5
 42
-1.0
 73
     0
 74
     0
 75
     0
  3
IGA
100
AcDbAlignedDimension
 13
5205.603298143842
 23
4397.289700692456
 33
0.0
 14
6525.603298143844
 24
4397.289700692456
 34
0.0
100
AcDbRotatedDimension
1001
ACAD
1000
DSTYLE
1002
{
1070
   287
1070
     3
1070
    40
1040
35.0
1070
   143
1040
0.039
1070
   172
1070
     1
1070
   271
1070
     0
1070
   279
1070
     0
1070
   288
1070
     1
1002
}
  0
LINE
  5
7C6D
330
19
100
AcDbEntity
  8
1
 48
10.0
100
AcDbLine
 10
1876.370282222328
 20
7403.63965356618
 30
0.0
 11
3126.370282222328
 21
7403.63965356618
 31
0.0
  0
DIMENSION
  5
7C6E
330
19
100
AcDbEntity
  8
3
 48
10.0
100
AcDbDimension
280
     0
  2
*D8
 10
3126.370282222328
 20
7805.66630100826
 30
0.0
 11
2501.370282222328
 21
7893.16630100826
 31
0.0
 70
    32
 71
     5
 42
-1.0
 73
     0
 74
     0
 75
     0
  3
IGA
100
AcDbAlignedDimension
 13
1876.370282222328
 23
7403.63965356618
 33
0.0
 14
3126.370282222328
 24
7403.63965356618
 34
0.0
100
AcDbRotatedDimension
1001
ACAD
1000
DSTYLE
1002
{
1070
   287
1070
     3
1070
    40
1040
35.0
1070
   143
1040
0.039
1070
   172
1070
     1
1070
   271
1070
     0
1070
   279
1070
     0
1070
   288
1070
     1
1002
}
  0
LINE
  5
7C6F
330
19
100
AcDbEntity
  8
1
 48
10.0
100
AcDbLine
 10
926.3702822223267
 20
5753.639653566181
 30
0.0
 11
3126.370282222328
 21
5753.639653566181
 31
0.0
  0
LINE
  5
7C70
330
19
100
AcDbEntity
  8
2
100
AcDbLine
 10
1633.370282222328
 20
6675.639653566181
 30
0.0
 11
3280.012668455365
 21
6675.639653566181
 31
0.0
  0
DIMENSION
  5
7C71
330
19
100
AcDbEntity
  8
3
 48
10.0
100
AcDbDimension
280
     0
  2
*D9
 10
3126.370282222328
 20
5313.818994070989
 30
0.0
 11
2026.370282222327
 21
5313.818994070989
 31
0.0
 70
   160
 71
     5
 42
-1.0
 73
     0
 74
     0
 75
     0
  3
IGA
100
AcDbAlignedDimension
 13
926.3702822223267
 23
5753.639653566181
 33
0.0
 14
3126.370282222328
 24
5753.639653566181
 34
0.0
100
AcDbRotatedDimension
1001
ACAD
1000
DSTYLE
1002
{
1070
   287
1070
     3
1070
    40
1040
35.0
1070
   143
1040
0.039
1070
   172
1070
     1
1070
   271
1070
     0
1070
   279
1070
     0
1070
   288
1070
     1
1002
}
  0
LINE
  5
7C72
330
19
100
AcDbEntity
  8
1
 48
10.0
100
AcDbLine
 10
1633.370282222327
 20
7335.639653566182
 30
0.0
 11
3181.370282222328
 21
7335.63965356618
 31
0.0
  0
LINE
  5
7C73
330
19
100
AcDbEntity
  8
1
 48
10.0
100
AcDbLine
 10
1633.370282222327
 20
6015.639653566182
 30
0.0
 11
3181.370282222328
 21
6015.63965356618
 31
0.0
  0
LINE
  5
7C74
330
19
100
AcDbEntity
  8
1
 48
10.0
100
AcDbLine
 10
981.3702822223277
 20
5595.639653566181
 30
0.0
 11
2781.370282222328
 21
5595.63965356618
 31
0.0
  0
LINE
  5
7C75
330
19
100
AcDbEntity
  8
1
 48
10.0
100
AcDbLine
 10
981.3702822223277
 20
5825.639653566181
 30
0.0
 11
2781.370282222328
 21
5825.639653566181
 31
0.0
  0
ARC
  5
7C76
330
19
100
AcDbEntity
  8
1
 48
10.0
100
AcDbCircle
 10
2501.370282222326
 20
3677.289700692457
 30
0.0
 40
280.0
100
AcDbArc
 50
284.1655229519219
 51
109.2329655160654
  0
CIRCLE
  5
7C77
330
19
100
AcDbEntity
  8
1
 48
10.0
100
AcDbCircle
 10
2501.370282222326
 20
3677.289700692457
 30
0.0
 40
500.0
  0
CIRCLE
  5
7C78
330
19
100
AcDbEntity
  8
1
 48
10.0
100
AcDbCircle
 10
2501.370282222326
 20
3677.289700692457
 30
0.0
 40
550.0
  0
ARC
  5
7C79
330
19
100
AcDbEntity
  8
1
 48
10.0
100
AcDbCircle
 10
2575.370282222328
 20
3603.289700692457
 30
0.0
 40
942.0
100
AcDbArc
 50
175.4944154733555
 51
265.4944154733556
  0
ARC
  5
7C7A
330
19
100
AcDbEntity
  8
1
 48
10.0
100
AcDbCircle
 10
2427.370282222328
 20
3603.289700692457
 30
0.0
 40
794.0
100
AcDbArc
 50
84.65233025016116
 51
174.6523302501612
  0
LINE
  5
7C7B
330
19
100
AcDbEntity
  8
1
 48
10.0
100
AcDbLine
 10
926.3702822223264
 20
2592.289700692454
 30
0.0
 11
3126.370282222327
 21
2592.289700692456
 31
0.0
  0
LINE
  5
7C7C
330
19
100
AcDbEntity
  8
2
100
AcDbLine
 10
3240.986264719956
 20
3677.289700692456
 30
0.0
 11
1568.855366166119
 21
3677.289700692457
 31
0.0
  0
LINE
  5
7C7E
330
19
100
AcDbEntity
  8
1
 48
10.0
100
AcDbLine
 10
926.3702822223264
 20
2362.289700692456
 30
0.0
 11
3126.370282222327
 21
2362.289700692456
 31
0.0
1001
ACAD
1000
ASC_BOUNDS
1002
{
1070
    19
1002
}
  0
LINE
  5
7C7F
330
19
100
AcDbEntity
  8
1
 48
10.0
100
AcDbLine
 10
926.3702822223264
 20
2297.289700692456
 30
0.0
 11
3126.370282222327
 21
2297.289700692456
 31
0.0
  0
DIMENSION
  5
7C80
330
19
100
AcDbEntity
  8
3
 48
10.0
100
AcDbDimension
280
     0
  2
*D10
 10
2501.370282222326
 20
2100.895676971355
 30
0.0
 11
1713.870282222326
 21
2188.395676971355
 31
0.0
 70
    32
 71
     5
 42
1574.999999999999
 73
     0
 74
     0
 75
     0
  3
IGA
100
AcDbAlignedDimension
 13
926.3702822223264
 23
2297.289700692456
 33
0.0
 14
2501.370282222326
 24
2297.289700692456
 34
0.0
100
AcDbRotatedDimension
1001
ACAD
1000
DSTYLE
1002
{
1070
   287
1070
     3
1070
    40
1040
35.0
1070
   143
1040
0.039
1070
   172
1070
     1
1070
   271
1070
     0
1070
   279
1070
     0
1070
   288
1070
     1
1002
}
  0
LINE
  5
7C82
330
19
100
AcDbEntity
  8
1
 48
10.0
100
AcDbLine
 10
2409.135497443976
 20
3941.662060210034
 30
0.0
 11
1128.900094182194
 21
3035.01084031341
 31
0.0
  0
LINE
  5
7C83
330
19
100
AcDbEntity
  8
1
 48
10.0
100
AcDbLine
 10
2569.892999251911
 20
3405.803720850249
 30
0.0
 11
1255.20955988843
 21
2613.979287959293
 31
0.0
  0
LINE
  5
7C84
330
19
100
AcDbEntity
  8
1
 48
10.0
100
AcDbLine
 10
2448.043489565213
 20
3833.540342882834
 30
0.0
 11
1164.45173345971
 21
2935.46322220887
 31
0.0
  0
LINE
  5
7C85
330
19
100
AcDbEntity
  8
1
 48
10.0
100
AcDbLine
 10
2542.859276714302
 20
3517.487719052538
 30
0.0
 11
1230.093432255233
 21
2716.657559557127
 31
0.0
  0
LINE
  5
7C86
330
19
100
AcDbEntity
  8
1
 48
10.0
100
AcDbLine
 10
3126.370282222327
 20
2592.289700692456
 30
0.0
 11
3126.370282222327
 21
2467.289700692456
 31
0.0
  0
ARC
  5
7C87
330
19
100
AcDbEntity
  8
1
 48
10.0
100
AcDbCircle
 10
2440.870282222328
 20
3737.789700692457
 30
0.0
 40
659.4999999999999
100
AcDbArc
 50
354.7365047969329
 51
84.73650479693299
  0
LINE
  5
7C88
330
19
100
AcDbEntity
  8
2
100
AcDbLine
 10
2501.370282222326
 20
4519.905566329411
 30
0.0
 11
2501.370282222326
 21
2297.289700692457
 31
0.0
  0
DIMENSION
  5
7C89
330
19
100
AcDbEntity
  8
3
 48
10.0
100
AcDbDimension
280
     0
  2
*D11
 10
3798.327618289074
 20
2467.289700692456
 30
0.0
 11
3710.827618289073
 21
3072.289700692457
 31
0.0
 70
    32
 71
     5
 42
-1.0
 73
     0
 74
     0
 75
     0
  3
IGA
100
AcDbAlignedDimension
 13
3240.986264719956
 23
3677.289700692456
 33
0.0
 14
3126.370282222327
 24
2467.289700692456
 34
0.0
 50
270.0
100
AcDbRotatedDimension
1001
ACAD
1000
DSTYLE
1002
{
1070
   287
1070
     3
1070
    40
1040
35.0
1070
   143
1040
0.039
1070
   172
1070
     1
1070
   271
1070
     0
1070
   279
1070
     0
1070
   288
1070
     1
1002
}
  0
POINT
  5
7C8A
330
19
100
AcDbEntity
  8
1
 48
10.0
100
AcDbPoint
 10
3797.159117186584
 20
2817.289700692458
 30
0.0
  0
DIMENSION
  5
7C8B
330
19
100
AcDbEntity
  8
3
 48
10.0
100
AcDbDimension
280
     0
  2
*D12
 10
2501.370282222326
 20
2099.269627335772
 30
0.0
 11
2813.870282222326
 21
2186.769627335772
 31
0.0
 70
    32
 71
     5
 42
625.0000000000018
 73
     0
 74
     0
 75
     0
  3
IGA
100
AcDbAlignedDimension
 13
3126.370282222327
 23
2297.289700692456
 33
0.0
 14
2501.370282222326
 24
2297.289700692456
 34
0.0
100
AcDbRotatedDimension
1001
ACAD
1000
DSTYLE
1002
{
1070
   287
1070
     3
1070
    40
1040
35.0
1070
   143
1040
0.039
1070
   172
1070
     1
1070
   271
1070
     0
1070
   279
1070
     0
1070
   288
1070
     1
1002
}
  0
LINE
  5
7C8C
330
19
100
AcDbEntity
  8
1
 48
10.0
100
AcDbLine
 10
3126.370282222327
 20
2362.289700692456
 30
0.0
 11
3126.370282222327
 21
2297.289700692456
 31
0.0
  0
POINT
  5
7C8D
330
19
100
AcDbEntity
  8
1
 48
10.0
100
AcDbPoint
 10
3126.370282222327
 20
2297.289700692456
 30
0.0
  0
POINT
  5
7C8E
330
19
100
AcDbEntity
  8
1
 48
10.0
100
AcDbPoint
 10
3126.370282222327
 20
2297.289700692456
 30
0.0
  0
POINT
  5
7C8F
330
19
100
AcDbEntity
  8
1
 48
10.0
100
AcDbPoint
 10
3126.370282222327
 20
2297.289700692456
 30
0.0
  0
POINT
  5
7C90
330
19
100
AcDbEntity
  8
1
 48
10.0
100
AcDbPoint
 10
3126.370282222327
 20
2467.289700692456
 30
0.0
  0
POINT
  5
7C91
330
19
100
AcDbEntity
  8
1
 48
10.0
100
AcDbPoint
 10
3126.370282222327
 20
2467.289700692456
 30
0.0
  0
POINT
  5
7C92
330
19
100
AcDbEntity
  8
1
 48
10.0
100
AcDbPoint
 10
3126.370282222327
 20
2467.289700692456
 30
0.0
  0
POINT
  5
7C93
330
19
100
AcDbEntity
  8
1
 48
10.0
100
AcDbPoint
 10
3126.370282222327
 20
2362.289700692456
 30
0.0
  0
POINT
  5
7C94
330
19
100
AcDbEntity
  8
1
 48
10.0
100
AcDbPoint
 10
3126.370282222327
 20
2362.289700692456
 30
0.0
  0
POINT
  5
7C95
330
19
100
AcDbEntity
  8
1
 48
10.0
100
AcDbPoint
 10
3126.370282222327
 20
2362.289700692456
 30
0.0
  0
POINT
  5
7C96
330
19
100
AcDbEntity
  8
1
 48
10.0
100
AcDbPoint
 10
3126.370282222327
 20
2362.289700692456
 30
0.0
  0
POINT
  5
7C97
330
19
100
AcDbEntity
  8
1
 48
10.0
100
AcDbPoint
 10
3126.370282222327
 20
2362.289700692456
 30
0.0
  0
POINT
  5
7C98
330
19
100
AcDbEntity
  8
1
 48
10.0
100
AcDbPoint
 10
3126.370282222327
 20
2362.289700692456
 30
0.0
  0
LINE
  5
7C99
330
19
100
AcDbEntity
  8
1
 48
25.0
100
AcDbLine
 10
3181.370282222327
 20
2550.289700692456
 30
0.0
 11
3181.370282222328
 21
3686.289700692456
 31
0.0
  0
LINE
  5
7C9A
330
19
100
AcDbEntity
  8
1
 48
25.0
100
AcDbLine
 10
3131.370282222327
 20
2607.768456561764
 30
0.0
 11
3131.370282222328
 21
3633.289700692456
 31
0.0
  0
LINE
  5
7C9B
330
19
100
AcDbEntity
  8
1
 48
25.0
100
AcDbLine
 10
3177.370282222325
 20
2550.289700692456
 30
0.0
 11
3177.37028222233
 21
3686.289700692456
 31
0.0
  0
DIMENSION
  5
7C9C
330
19
100
AcDbEntity
  8
3
 48
10.0
100
AcDbDimension
280
     0
  2
*D13
 10
3382.530379216471
 20
3633.289700692456
 30
0.0
 11
3295.03037921647
 21
3118.289700692457
 31
0.0
 70
    32
 71
     5
 42
-1.0
 73
     0
 74
     0
 75
     0
  3
IGA
100
AcDbAlignedDimension
 13
3181.370282222327
 23
2603.289700692457
 33
0.0
 14
3181.370282222328
 24
3633.289700692456
 34
0.0
 50
269.9999999999999
100
AcDbRotatedDimension
1001
ACAD
1000
DSTYLE
1002
{
1070
   287
1070
     3
1070
    40
1040
35.0
1070
   143
1040
0.039
1070
   172
1070
     1
1070
   271
1070
     0
1070
   279
1070
     0
1070
   288
1070
     1
1002
}
  0
DIMENSION
  5
7C9D
330
19
100
AcDbEntity
  8
3
 48
10.0
100
AcDbDimension
280
     0
  2
*D14
 10
3583.332424675624
 20
3677.289700692456
 30
0.0
 11
3495.832424675623
 21
3140.289700692457
 31
0.0
 70
    32
 71
     5
 42
-1.0
 73
     0
 74
     0
 75
     0
  3
IGA
100
AcDbAlignedDimension
 13
3181.370282222327
 23
2603.289700692457
 33
0.0
 14
3240.986264719956
 24
3677.289700692456
 34
0.0
 50
269.9999999999999
100
AcDbRotatedDimension
1001
ACAD
1000
DSTYLE
1002
{
1070
   287
1070
     3
1070
    40
1040
35.0
1070
   143
1040
0.039
1070
   172
1070
     1
1070
   271
1070
     0
1070
   279
1070
     0
1070
   288
1070
     1
1002
}
  0
CIRCLE
  5
7C9E
330
19
100
AcDbEntity
  8
1
 48
10.0
100
AcDbCircle
 10
2501.370282222326
 20
3677.289700692457
 30
0.0
 40
165.1
  0
LINE
  5
7C9F
330
19
100
AcDbEntity
  8
1
 48
25.0
100
AcDbLine
 10
3177.37028222233
 20
3686.289700692456
 30
0.0
 11
3181.370282222328
 21
3686.289700692456
 31
0.0
  0
ARC
  5
7CA0
330
19
100
AcDbEntity
  8
1
 48
10.0
100
AcDbCircle
 10
2561.870282222328
 20
3737.789700692457
 30
0.0
 40
538.4999999999999
100
AcDbArc
 50
348.8103254372374
 51
353.5492502851401
  0
LINE
  5
7CA1
330
19
100
AcDbEntity
  8
1
 48
10.0
100
AcDbLine
 10
3090.133474201477
 20
3633.289700692456
 30
0.0
 11
3181.370282222328
 21
3633.289700692456
 31
0.0
  0
LINE
  5
7CA2
330
19
100
AcDbEntity
  8
1
 48
10.0
100
AcDbLine
 10
3181.370282222327
 20
2603.289700692457
 30
0.0
 11
2501.370282222327
 21
2664.200780515034
 31
0.0
  0
LINE
  5
7CA3
330
19
100
AcDbEntity
  8
1
 48
25.0
100
AcDbLine
 10
3177.370282222325
 20
2550.289700692456
 30
0.0
 11
3181.370282222327
 21
2550.289700692456
 31
0.0
  0
LINE
  5
7CA4
330
19
100
AcDbEntity
  8
2
100
AcDbLine
 10
2501.370282222328
 20
7492.728999745228
 30
0.0
 11
2501.370282222328
 21
5595.63965356618
 31
0.0
  0
LINE
  5
7CA5
330
19
100
AcDbEntity
  8
1
 48
10.0
100
AcDbLine
 10
3126.370282222328
 20
7403.63965356618
 30
0.0
 11
3126.370282222329
 21
7335.63965356618
 31
0.0
  0
DIMENSION
  5
7CA6
330
19
100
AcDbEntity
  8
3
 48
10.0
100
AcDbDimension
280
     0
  2
*D15
 10
3528.03134463562
 20
5753.639653566181
 30
0.0
 11
3440.531344635619
 21
6578.639653566182
 31
0.0
 70
    32
 71
     5
 42
-1.0
 73
     0
 74
     0
 75
     0
  3
IGA
100
AcDbAlignedDimension
 13
3126.370282222328
 23
7403.63965356618
 33
0.0
 14
3126.370282222328
 24
5753.639653566181
 34
0.0
 50
90.0
100
AcDbRotatedDimension
1001
ACAD
1000
DSTYLE
1002
{
1070
   287
1070
     3
1070
    40
1040
35.0
1070
   143
1040
0.039
1070
   172
1070
     1
1070
   271
1070
     0
1070
   279
1070
     0
1070
   288
1070
     1
1002
}
  0
LINE
  5
7CA7
330
19
100
AcDbEntity
  8
1
 48
10.0
100
AcDbLine
 10
3181.370282222328
 20
7385.63965356618
 30
0.0
 11
3181.370282222328
 21
5965.639653566181
 31
0.0
  0
LINE
  5
7CA8
330
19
100
AcDbEntity
  8
1
 48
10.0
100
AcDbLine
 10
2781.370282222328
 20
5825.639653566181
 30
0.0
 11
2781.370282222328
 21
5595.63965356618
 31
0.0
  0
LINE
  5
7CA9
330
19
100
AcDbEntity
  8
1
 48
10.0
100
AcDbLine
 10
2666.370282222328
 20
5788.13965356618
 30
0.0
 11
2666.370282222328
 21
5678.13965356618
 31
0.0
  0
LINE
  5
7CAA
330
19
100
AcDbEntity
  8
1
 48
10.0
100
AcDbLine
 10
2336.370282222328
 20
5788.13965356618
 30
0.0
 11
2336.370282222328
 21
5678.13965356618
 31
0.0
  0
LINE
  5
7CAB
330
19
100
AcDbEntity
  8
1
 48
10.0
100
AcDbLine
 10
2336.370282222328
 20
5678.13965356618
 30
0.0
 11
2666.370282222328
 21
5678.13965356618
 31
0.0
  0
LINE
  5
7CAC
330
19
100
AcDbEntity
  8
1
 48
10.0
100
AcDbLine
 10
2336.370282222328
 20
5788.13965356618
 30
0.0
 11
2666.370282222328
 21
5788.13965356618
 31
0.0
  0
LINE
  5
7CAD
330
19
100
AcDbEntity
  8
1
 48
10.0
100
AcDbLine
 10
2541.370282222328
 20
6015.639653566182
 30
0.0
 11
2541.370282222328
 21
5788.13965356618
 31
0.0
  0
LINE
  5
7CAE
330
19
100
AcDbEntity
  8
1
 48
10.0
100
AcDbLine
 10
2461.370282222328
 20
6015.639653566182
 30
0.0
 11
2461.370282222328
 21
5788.13965356618
 31
0.0
  0
LINE
  5
7CAF
330
19
100
AcDbEntity
  8
1
 48
10.0
100
AcDbLine
 10
926.3702822223264
 20
2592.289700692456
 30
0.0
 11
926.3702822223264
 21
2467.289700692456
 31
0.0
  0
LINE
  5
7CB0
330
19
100
AcDbEntity
  8
2
100
AcDbLine
 10
1201.370282222327
 20
3091.105374692456
 30
0.0
 11
1201.370282222326
 21
2297.289700692456
 31
0.0
  0
LINE
  5
7CB6
330
19
100
AcDbEntity
  8
1
 48
10.0
100
AcDbLine
 10
926.3702822223264
 20
2362.289700692456
 30
0.0
 11
926.3702822223264
 21
2297.289700692456
 31
0.0
  0
LINE
  5
7CB7
330
19
100
AcDbEntity
  8
1
 48
10.0
100
AcDbLine
 10
976.3702822223272
 20
2592.289700692455
 30
0.0
 11
990.954269196562
 21
2647.289700692454
 31
0.0
  0
LINE
  5
7CB8
330
19
100
AcDbEntity
  8
2
100
AcDbLine
 10
834.6842039794724
 20
2827.289700692455
 30
0.0
 11
1417.449814868284
 21
2827.289700692455
 31
0.0
  0
ARC
  5
7CB9
330
19
100
AcDbEntity
  8
1
 48
10.0
100
AcDbCircle
 10
1201.370282222327
 20
2827.289700692455
 30
0.0
 40
220.0
100
AcDbArc
 50
109.2329655160654
 51
284.1655229519219
  0
ARC
  5
7CBA
330
19
100
AcDbEntity
  8
1
 48
10.0
100
AcDbCircle
 10
1201.370282222327
 20
2827.289700692455
 30
0.0
 40
185.0
100
AcDbArc
 50
287.945251
 51
252.054749
  0
CIRCLE
  5
7CBB
330
19
100
AcDbEntity
  8
1
 48
10.0
100
AcDbCircle
 10
1201.370282222327
 20
2827.289700692455
 30
0.0
 40
114.3
  0
LINE
  5
7CBC
330
19
100
AcDbEntity
  8
1
 48
10.0
100
AcDbLine
 10
1258.370297222328
 20
2651.289700692455
 30
0.0
 11
1144.370282222327
 21
2651.289700692455
 31
0.0
  0
LINE
  5
7CBE
330
19
100
AcDbEntity
  8
1
 48
10.0
100
AcDbLine
 10
1131.370282222327
 20
2637.289700692455
 30
0.0
 11
1271.370282222327
 21
2637.289700692455
 31
0.0
  0
LINE
  5
7CBF
330
19
100
AcDbEntity
  8
1
 48
10.0
100
AcDbLine
 10
1363.370297222328
 20
2722.548733692455
 30
0.0
 11
1363.370297222328
 21
2647.289700692456
 31
0.0
  0
LINE
  5
7CC0
330
19
100
AcDbEntity
  8
1
 48
10.0
100
AcDbLine
 10
1271.370282222327
 20
2647.289700692454
 30
0.0
 11
1411.585533435993
 21
2647.289700692454
 31
0.0
  0
LINE
  5
7CC1
330
19
100
AcDbEntity
  8
1
 48
10.0
100
AcDbLine
 10
1426.370282222327
 20
2592.289700692455
 30
0.0
 11
1411.585533435993
 21
2647.289700692454
 31
0.0
  0
LINE
  5
7CC2
330
19
100
AcDbEntity
  8
1
 48
10.0
100
AcDbLine
 10
1271.370282222328
 20
2647.289700692454
 30
0.0
 11
1271.370282222328
 21
2637.289700692455
 31
0.0
  0
LINE
  5
7CC4
330
19
100
AcDbEntity
  8
1
 48
10.0
100
AcDbLine
 10
1363.370297222328
 20
2722.548733692455
 30
0.0
 11
1356.986325222327
 21
2727.246487692456
 31
0.0
  0
LINE
  5
7CC5
330
19
100
AcDbEntity
  8
1
 48
10.0
100
AcDbLine
 10
1039.370282222327
 20
2722.548733692455
 30
0.0
 11
1039.370282222327
 21
2647.289700692456
 31
0.0
  0
LINE
  5
7CC6
330
19
100
AcDbEntity
  8
1
 48
10.0
100
AcDbLine
 10
990.954269196562
 20
2647.289700692454
 30
0.0
 11
1131.370282222327
 21
2647.289700692454
 31
0.0
  0
LINE
  5
7CC7
330
19
100
AcDbEntity
  8
1
 48
10.0
100
AcDbLine
 10
1131.370282222327
 20
2647.289700692454
 30
0.0
 11
1131.370282222327
 21
2637.289700692455
 31
0.0
  0
LINE
  5
7CC9
330
19
100
AcDbEntity
  8
1
 48
10.0
100
AcDbLine
 10
1039.370282222327
 20
2722.548733692455
 30
0.0
 11
1045.754254222328
 21
2727.246487692456
 31
0.0
  0
DIMENSION
  5
7CCA
330
19
100
AcDbEntity
  8
3
 48
10.0
100
AcDbDimension
280
     0
  2
*D16
 10
1876.370282222328
 20
7805.66630100826
 30
0.0
 11
1401.370282222327
 21
7893.16630100826
 31
0.0
 70
    32
 71
     5
 42
-1.0
 73
     0
 74
     0
 75
     0
  3
IGA
100
AcDbAlignedDimension
 13
926.3702822223267
 23
6703.639653566182
 33
0.0
 14
1876.370282222328
 24
7403.63965356618
 34
0.0
100
AcDbRotatedDimension
1001
ACAD
1000
DSTYLE
1002
{
1070
   287
1070
     3
1070
    40
1040
35.0
1070
   143
1040
0.039
1070
   172
1070
     1
1070
   271
1070
     0
1070
   279
1070
     0
1070
   288
1070
     1
1002
}
  0
DIMENSION
  5
7CCB
330
19
100
AcDbEntity
  8
3
 48
10.0
100
AcDbDimension
280
     0
  2
*D17
 10
685.057346837505
 20
5753.639653566181
 30
0.0
 11
685.0573468375041
 21
6228.63965356618
 31
0.0
 70
   160
 71
     5
 42
-1.0
 73
     0
 74
     0
 75
     0
  3
IGA
100
AcDbAlignedDimension
 13
926.3702822223267
 23
6703.639653566182
 33
0.0
 14
926.3702822223267
 24
5753.639653566181
 34
0.0
 50
90.0
100
AcDbRotatedDimension
1001
ACAD
1000
DSTYLE
1002
{
1070
   287
1070
     3
1070
    40
1040
35.0
1070
   143
1040
0.039
1070
   172
1070
     1
1070
   271
1070
     0
1070
   279
1070
     0
1070
   288
1070
     1
1002
}
  0
LINE
  5
7CCC
330
19
100
AcDbEntity
  8
1
 48
10.0
100
AcDbLine
 10
1876.370282222328
 20
7403.63965356618
 30
0.0
 11
1876.370282222328
 21
7335.639653566182
 31
0.0
  0
LINE
  5
7CCD
330
19
100
AcDbEntity
  8
1
 48
10.0
100
AcDbLine
 10
1386.370282222327
 20
6392.639653566182
 30
0.0
 11
1386.370282222327
 21
5793.139653566182
 31
0.0
  0
LINE
  5
7CCE
330
19
100
AcDbEntity
  8
1
 48
10.0
100
AcDbLine
 10
926.3702822223267
 20
6703.639653566182
 30
0.0
 11
926.3702822223267
 21
5753.639653566181
 31
0.0
  0
LINE
  5
7CCF
330
19
100
AcDbEntity
  8
1
 48
10.0
100
AcDbLine
 10
1016.370282222327
 20
6392.639653566182
 30
0.0
 11
1016.370282222327
 21
5793.139653566182
 31
0.0
  0
LINE
  5
7CD0
330
19
100
AcDbEntity
  8
2
100
AcDbLine
 10
1201.370282222328
 20
6392.639653566184
 30
0.0
 11
1201.370282222328
 21
5595.639653566181
 31
0.0
  0
LINE
  5
7CD1
330
19
100
AcDbEntity
  8
1
 48
10.0
100
AcDbLine
 10
1633.370282222327
 20
7335.639653566182
 30
0.0
 11
1633.370282222327
 21
6015.639653566182
 31
0.0
  0
LINE
  5
7CD2
330
19
100
AcDbEntity
  8
1
 48
10.0
100
AcDbLine
 10
1315.370282222328
 20
5788.139653566181
 30
0.0
 11
1315.370282222328
 21
5678.139653566182
 31
0.0
  0
LINE
  5
7CD3
330
19
100
AcDbEntity
  8
1
 48
10.0
100
AcDbLine
 10
1087.370282222328
 20
5788.139653566181
 30
0.0
 11
1087.370282222328
 21
5678.139653566182
 31
0.0
  0
LINE
  5
7CD4
330
19
100
AcDbEntity
  8
1
 48
10.0
100
AcDbLine
 10
1087.370282222328
 20
5678.139653566183
 30
0.0
 11
1315.370282222328
 21
5678.139653566183
 31
0.0
  0
LINE
  5
7CD5
330
19
100
AcDbEntity
  8
1
 48
10.0
100
AcDbLine
 10
1087.370282222328
 20
5788.139653566183
 30
0.0
 11
1315.370282222328
 21
5788.139653566183
 31
0.0
  0
LINE
  5
7CD6
330
19
100
AcDbEntity
  8
1
 48
10.0
100
AcDbLine
 10
1016.370282222327
 20
5793.139653566182
 30
0.0
 11
1386.370282222327
 21
5793.139653566182
 31
0.0
  0
LINE
  5
7CD7
330
19
100
AcDbEntity
  8
1
 48
10.0
100
AcDbLine
 10
1228.870282222328
 20
5793.139653566182
 30
0.0
 11
1228.870282222328
 21
5788.139653566183
 31
0.0
  0
LINE
  5
7CD8
330
19
100
AcDbEntity
  8
1
 48
10.0
100
AcDbLine
 10
1173.870282222327
 20
5793.139653566182
 30
0.0
 11
1173.870282222327
 21
5788.139653566183
 31
0.0
  0
LINE
  5
7CD9
330
19
100
AcDbEntity
  8
1
 48
10.0
100
AcDbLine
 10
981.3702822223277
 20
5825.639653566183
 30
0.0
 11
981.3702822223277
 21
5595.639653566182
 31
0.0
  0
LINE
  5
7CDA
330
19
100
AcDbEntity
  8
1
 48
10.0
100
AcDbLine
 10
926.3702822223267
 20
6703.639653566181
 30
0.0
 11
1633.370282222327
 21
6703.639653566179
 31
0.0
  0
LINE
  5
7CDB
330
19
100
AcDbEntity
  8
1
 48
10.0
100
AcDbLine
 10
1016.370282222327
 20
6392.639653566182
 30
0.0
 11
1386.370282222327
 21
6392.639653566182
 31
0.0
  0
LINE
  5
7CDC
330
19
100
AcDbEntity
  8
1
 48
10.0
100
AcDbLine
 10
6525.603298143844
 20
2603.289700692457
 30
0.0
 11
5206.453689487702
 21
3632.919898214954
 31
0.0
  0
LINE
  5
7CDD
330
19
100
AcDbEntity
  8
1
 48
10.0
100
AcDbLine
 10
5205.603298143842
 20
2603.289700692457
 30
0.0
 11
6525.603298143844
 21
3633.289700692457
 31
0.0
  0
DIMENSION
  5
7CDF
330
19
100
AcDbEntity
  8
3
 48
10.0
100
AcDbDimension
280
     0
  2
*D18
 10
3798.327618289074
 20
2297.289700692456
 30
0.0
 11
3710.827618289073
 21
2037.289700692457
 31
0.0
 70
    32
 71
     5
 42
65.0
 73
     0
 74
     0
 75
     0
  3
IGA
100
AcDbAlignedDimension
 13
3126.370282222327
 23
2362.289700692456
 33
0.0
 14
3126.370282222327
 24
2297.289700692456
 34
0.0
 50
90.0
100
AcDbRotatedDimension
1001
ACAD
1000
DSTYLE
1002
{
1070
   287
1070
     3
1070
    40
1040
35.0
1070
   143
1040
0.039
1070
   172
1070
     1
1070
   271
1070
     0
1070
   279
1070
     0
1070
   288
1070
     1
1070
     6
1000
DOT
1002
}
  0
LINE
  5
7CE0
330
19
100
AcDbEntity
  8
1
 48
10.0
100
AcDbLine
 10
3126.370282222329
 20
6015.63965356618
 30
0.0
 11
3126.370282222328
 21
5753.639653566181
 31
0.0
  0
LINE
  5
7CE1
330
19
100
AcDbEntity
  8
1
 48
10.0
100
AcDbLine
 10
3126.370282222327
 20
2467.289700692456
 30
0.0
 11
926.3702822223264
 21
2467.289700692457
 31
0.0
  0
DIMENSION
  5
7CE2
330
19
100
AcDbEntity
  8
3
 48
10.0
100
AcDbDimension
280
     0
  2
*D19
 10
2501.370282222326
 20
4567.192631886927
 30
0.0
 11
2841.370282222327
 21
4654.692631886926
 31
0.0
 70
    32
 71
     5
 42
-1.0
 73
     0
 74
     0
 75
     0
  3
IGA
100
AcDbAlignedDimension
 13
3181.370282222328
 23
3686.289700692456
 33
0.0
 14
2501.370282222326
 24
4519.905566329411
 34
0.0
100
AcDbRotatedDimension
1001
ACAD
1000
DSTYLE
1002
{
1070
   287
1070
     3
1070
    40
1040
35.0
1070
   143
1040
0.039
1070
   172
1070
     1
1070
   271
1070
     0
1070
   279
1070
     0
1070
   288
1070
     1
1002
}
  0
DIMENSION
  5
7CE3
330
19
100
AcDbEntity
  8
3
 48
10.0
100
AcDbDimension
280
     0
  2
*D20
 10
1633.370282222327
 20
4567.192631886927
 30
0.0
 11
2067.370282222327
 21
4654.692631886926
 31
0.0
 70
    32
 71
     5
 42
-1.0
 73
     0
 74
     0
 75
     0
  3
IGA
100
AcDbAlignedDimension
 13
2501.370282222326
 23
4519.905566329411
 33
0.0
 14
1633.370282222327
 24
3603.289700692457
 34
0.0
100
AcDbRotatedDimension
1001
ACAD
1000
DSTYLE
1002
{
1070
   287
1070
     3
1070
    40
1040
35.0
1070
   143
1040
0.039
1070
   172
1070
     1
1070
   271
1070
     0
1070
   279
1070
     0
1070
   288
1070
     1
1002
}
  0
DIMENSION
  5
7CE4
330
19
100
AcDbEntity
  8
3
 48
10.0
100
AcDbDimension
280
     0
  2
*D21
 10
926.3702822223264
 20
4775.344728331645
 30
0.0
 11
2053.870282222327
 21
4862.844728331645
 31
0.0
 70
    32
 71
     5
 42
-1.0
 73
     0
 74
     0
 75
     0
  3
IGA
100
AcDbAlignedDimension
 13
3181.370282222328
 23
3677.289700692456
 33
0.0
 14
926.3702822223264
 24
2592.289700692454
 34
0.0
100
AcDbRotatedDimension
1001
ACAD
1000
DSTYLE
1002
{
1070
   287
1070
     3
1070
    40
1040
35.0
1070
   143
1040
0.039
1070
   172
1070
     1
1070
   271
1070
     0
1070
   279
1070
     0
1070
   288
1070
     1
1002
}
  0
LINE
  5
7CE7
330
19
100
AcDbEntity
  8
1
 48
10.0
100
AcDbLine
 10
5205.603298143842
 20
4397.289700692456
 30
0.0
 11
6525.603298143845
 21
4397.289700692456
 31
0.0
  0
LINE
  5
8074
330
19
100
AcDbEntity
  8
4
100
AcDbLine
 10
6475.0
 20
1411.801532643661
 30
0.0
 11
6475.0
 21
711.8015326436617
 31
0.0
  0
LINE
  5
8075
330
19
100
AcDbEntity
  8
4
100
AcDbLine
 10
4025.0
 20
1411.801532643661
 30
0.0
 11
4025.0
 21
711.8015326436617
 31
0.0
  0
LINE
  5
8076
330
19
100
AcDbEntity
  8
4
100
AcDbLine
 10
2275.0
 20
1411.801532643661
 30
0.0
 11
2275.0
 21
711.8015326436617
 31
0.0
  0
LINE
  5
8079
330
19
100
AcDbEntity
  8
4
100
AcDbLine
 10
2275.0
 20
711.8015326436616
 30
0.0
 11
6475.0
 21
711.8015326436616
 31
0.0
  0
LINE
  5
807A
330
19
100
AcDbEntity
  8
4
100
AcDbLine
 10
2275.0
 20
1061.801532643661
 30
0.0
 11
6475.0
 21
1061.801532643661
 31
0.0
  0
TEXT
  5
807B
330
19
100
AcDbEntity
  8
4
100
AcDbText
 10
2409.757282964156
 20
1172.202123176806
 30
0.0
 40
175.0
  1
機器名称
100
AcDbText
  0
TEXT
  5
807C
330
19
100
AcDbEntity
  8
4
100
AcDbText
 10
2401.903371086792
 20
787.5595812056999
 30
0.0
 40
175.0
  1
機器型番
100
AcDbText
  0
TEXT
  5
807D
330
19
100
AcDbEntity
  8
4
100
AcDbText
 10
4127.321178135882
 20
1138.68316184186
 30
0.0
 40
140.0
  1
ミツヤリミットロードファン
100
AcDbText
  0
TEXT
  5
807E
330
19
100
AcDbEntity
  8
4
100
AcDbText
 10
4153.290734549182
 20
771.8600776234634
 30
0.0
 40
175.0
  1
LL#6-5
100
AcDbText
  0
TEXT
  5
8080
330
19
100
AcDbEntity
  8
4
100
AcDbText
 10
2815.601111107797
 20
8342.000944663805
 30
0.0
 40
188.9999999999999
  1
床置防振ベット
100
AcDbText
  0
TEXT
  5
8081
330
19
100
AcDbEntity
  8
4
100
AcDbText
 10
1106.586576653062
 20
8868.583416697545
 30
0.0
 40
252.0
  1
遠心式両吸込両持リミットロードファン
100
AcDbText
  0
LINE
  5
8082
330
19
100
AcDbEntity
  8
4
100
AcDbLine
 10
875.0
 20
8642.930639926817
 30
0.0
 11
6475.0
 21
8642.930639926817
 31
0.0
  0
LINE
  5
8083
330
19
100
AcDbEntity
  8
4
100
AcDbLine
 10
875.0
 20
9342.930639926818
 30
0.0
 11
6475.0
 21
9342.930639926818
 31
0.0
  0
LINE
  5
8084
330
19
100
AcDbEntity
  8
4
100
AcDbLine
 10
2275.0
 20
1411.801532643661
 30
0.0
 11
6475.0
 21
1411.801532643661
 31
0.0
  0
LINE
  5
8085
330
19
100
AcDbEntity
  8
4
100
AcDbLine
 10
875.0
 20
9342.930639926818
 30
0.0
 11
875.0
 21
8642.930639926817
 31
0.0
  0
TEXT
  5
8086
330
19
100
AcDbEntity
  8
4
100
AcDbText
 10
1290.095198258339
 20
8338.118171412203
 30
0.0
 40
188.9999999999999
  1
左回転右横向
100
AcDbText
  0
TEXT
  5
8087
330
19
100
AcDbEntity
  8
4
100
AcDbText
 10
5141.393457372515
 20
9471.21378523358
 30
0.0
 40
196.0
  1
No.
100
AcDbText
  0
TEXT
  5
8088
330
19
100
AcDbEntity
  8
4
100
AcDbText
 10
4589.536219100046
 20
8342.000944663805
 30
0.0
 40
188.9999999999999
  1
縮尺：1/35
100
AcDbText
  0
LINE
  5
8089
330
19
100
AcDbEntity
  8
4
100
AcDbLine
 10
6475.0
 20
9342.930639926818
 30
0.0
 11
6475.0
 21
8642.930639926817
 31
0.0
  0
LINE
  5
808A
330
19
100
AcDbEntity
  8
4
100
AcDbLine
 10
7350.0
 20
10325.0
 30
0.0
 11
7350.0
 21
10325.0
 31
0.0
  0
LINE
  5
808B
330
19
100
AcDbEntity
  8
4
100
AcDbLine
 10
5042.160978259526
 20
9384.422540938905
 30
0.0
 11
5042.160978259526
 21
9753.282915424135
 31
0.0
  0
LINE
  5
808C
330
19
100
AcDbEntity
  8
4
100
AcDbLine
 10
5042.160978259526
 20
9753.282915424135
 30
0.0
 11
6475.0
 21
9753.282915424135
 31
0.0
  0
LINE
  5
808D
330
19
100
AcDbEntity
  8
4
100
AcDbLine
 10
6475.0
 20
9753.282915424135
 30
0.0
 11
6475.0
 21
9384.422540938905
 31
0.0
  0
LINE
  5
808E
330
19
100
AcDbEntity
  8
4
100
AcDbLine
 10
6475.0
 20
9384.422540938905
 30
0.0
 11
5042.160978259526
 21
9384.422540938905
 31
0.0
  0
LINE
  5
808F
330
19
100
AcDbEntity
  8
4
100
AcDbLine
 10
0.0
 20
0.0
 30
0.0
 11
0.0
 21
10325.0
 31
0.0
  0
LINE
  5
8090
330
19
100
AcDbEntity
  8
4
100
AcDbLine
 10
0.0
 20
10325.0
 30
0.0
 11
7350.0
 21
10325.0
 31
0.0
  0
LINE
  5
8091
330
19
100
AcDbEntity
  8
4
100
AcDbLine
 10
7350.0
 20
10325.0
 30
0.0
 11
7350.0
 21
0.0
 31
0.0
  0
LINE
  5
8092
330
19
100
AcDbEntity
  8
4
100
AcDbLine
 10
7350.0
 20
0.0
 30
0.0
 11
0.0
 21
0.0
 31
0.0
  0
DIMENSION
  5
813B
330
19
100
AcDbEntity
  8
3
100
AcDbDimension
280
     0
  2
*D23
 10
3799.353179667546
 20
3677.289700692456
 30
0.0
 11
3711.853179667546
 21
4037.289700692457
 31
0.0
 70
    32
 71
     5
 42
-1.0
 73
     0
 74
     0
 75
     0
  3
IGA
100
AcDbAlignedDimension
 13
2427.370282222328
 23
4397.289700692456
 33
0.0
 14
3240.986264719956
 24
3677.289700692456
 34
0.0
 50
90.0
100
AcDbRotatedDimension
1001
ACAD
1000
DSTYLE
1002
{
1070
   172
1070
     1
1070
    40
1040
35.0
1070
   271
1070
     0
1070
   143
1040
0.039
1002
}
  0
DIMENSION
  5
8157
330
19
100
AcDbEntity
  8
3
100
AcDbDimension
280
     0
  2
*D25
 10
3796.04115715428
 20
2467.289700692456
 30
0.0
 11
3932.238245193737
 21
2414.789700692456
 31
0.0
 70
   160
  1
   <>
 71
     5
 42
105.0
 73
     0
 74
     0
 75
     0
  3
IGA
100
AcDbAlignedDimension
 13
3126.370282222327
 23
2362.289700692456
 33
0.0
 14
3126.370282222327
 24
2467.289700692456
 34
0.0
 50
90.0
100
AcDbRotatedDimension
1001
ACAD
1000
DSTYLE
1002
{
1070
     3
1000
(<>)
1070
    40
1040
35.0
1070
    75
1070
     1
1070
    76
1070
     1
1070
   143
1040
0.039
1070
   172
1070
     1
1070
   271
1070
     0
1070
   343
1005
814B
1070
   344
1005
814B
1002
}
  0
DIMENSION
  5
8164
330
19
100
AcDbEntity
  8
3
100
AcDbDimension
280
     0
  2
*D26
 10
4073.862002465772
 20
2297.289700692456
 30
0.0
 11
3958.862002465771
 21
3347.289700692457
 31
0.0
 70
    32
 71
     5
 42
2100.000000000001
 73
     0
 74
     0
 75
     0
  3
IGA
100
AcDbAlignedDimension
 13
2444.870282222328
 23
4397.289700692456
 33
0.0
 14
3126.370282222327
 24
2297.289700692456
 34
0.0
 50
90.0
100
AcDbRotatedDimension
1001
ACAD
1000
DSTYLE
1002
{
1070
   172
1070
     1
1070
    40
1040
35.0
1070
     3
1000
(<>)
1070
   271
1070
     0
1070
   143
1040
0.039
1002
}
  0
ENDSEC
  0
SECTION
  2
OBJECTS
  0
DICTIONARY
  5
C
330
0
100
AcDbDictionary
281
     1
  3
ACAD_CIP_PREVIOUS_PRODUCT_INFO
350
82CC
  3
ACAD_COLOR
350
82AF
  3
ACAD_DETAILVIEWSTYLE
350
82C8
  3
ACAD_GROUP
350
D
  3
ACAD_LAYOUT
350
8186
  3
ACAD_MATERIAL
350
827D
  3
ACAD_MLEADERSTYLE
350
82C4
  3
ACAD_MLINESTYLE
350
E
  3
ACAD_PLOTSETTINGS
350
8187
  3
ACAD_PLOTSTYLENAME
350
8184
  3
ACAD_SCALELIST
350
82B2
  3
ACAD_SECTIONVIEWSTYLE
350
82C6
  3
ACAD_TABLESTYLE
350
82B0
  3
ACAD_VISUALSTYLE
350
8296
  3
ACDB_RECOMPOSE_DATA
350
8371
  3
AcDbVariableDictionary
350
8274
  3
AcDsDecomposeData
350
8377
  0
DICTIONARY
  5
8355
330
2
100
AcDbDictionary
280
     1
281
     1
  3
ACAD_LAYERSTATES
360
8356
  0
DICTIONARY
  5
8348
330
F
100
AcDbDictionary
280
     1
281
     1
  3
ADSK_XREC_LAYER_RECONCILED
360
8349
  0
DICTIONARY
  5
834A
330
31
100
AcDbDictionary
280
     1
281
     1
  3
ADSK_XREC_LAYER_RECONCILED
360
834B
  0
DICTIONARY
  5
834C
330
76D0
100
AcDbDictionary
280
     1
281
     1
  3
ADSK_XREC_LAYER_RECONCILED
360
834D
  0
DICTIONARY
  5
834E
330
76D1
100
AcDbDictionary
280
     1
281
     1
  3
ADSK_XREC_LAYER_RECONCILED
360
834F
  0
DICTIONARY
  5
8350
330
76D2
100
AcDbDictionary
280
     1
281
     1
  3
ADSK_XREC_LAYER_RECONCILED
360
8351
  0
DICTIONARY
  5
81B3
330
19
100
AcDbDictionary
280
     1
281
     1
  3
ACAD_LAYOUTSELFREF
360
81B4
  0
DICTIONARY
  5
81B1
330
16
100
AcDbDictionary
280
     1
281
     1
  3
ACAD_LAYOUTSELFREF
360
81B2
  0
XRECORD
  5
82CC
102
{ACAD_REACTORS
330
C
102
}
330
C
100
AcDbXrecord
280
     1
300
ACDLT
300
2023
300

  0
DICTIONARY
  5
82AF
102
{ACAD_REACTORS
330
C
102
}
330
C
100
AcDbDictionary
281
     1
  0
DICTIONARY
  5
82C8
102
{ACAD_REACTORS
330
C
102
}
330
C
100
AcDbDictionary
281
     1
  3
Metric50
350
82C9
  0
DICTIONARY
  5
D
102
{ACAD_REACTORS
330
C
102
}
330
C
100
AcDbDictionary
281
     1
  0
DICTIONARY
  5
8186
102
{ACAD_REACTORS
330
C
102
}
330
C
100
AcDbDictionary
281
     1
  3
Model
350
8188
  3
ﾚｲｱｳﾄ1
350
8189
  0
DICTIONARY
  5
827D
102
{ACAD_REACTORS
330
C
102
}
330
C
100
AcDbDictionary
281
     1
  3
ByBlock
350
8286
  3
ByLayer
350
827E
  3
Global
350
828E
  0
DICTIONARY
  5
82C4
102
{ACAD_REACTORS
330
C
102
}
330
C
100
AcDbDictionary
281
     1
  3
Standard
350
82C5
  0
DICTIONARY
  5
E
102
{ACAD_REACTORS
330
C
102
}
330
C
100
AcDbDictionary
281
     1
  3
STANDARD
350
1C
  0
DICTIONARY
  5
8187
102
{ACAD_REACTORS
330
C
102
}
330
C
100
AcDbDictionary
281
     1
  0
ACDBDICTIONARYWDFLT
  5
8184
102
{ACAD_REACTORS
330
C
102
}
330
C
100
AcDbDictionary
281
     1
  3
Normal
350
8185
100
AcDbDictionaryWithDefault
340
8185
  0
DICTIONARY
  5
82B2
102
{ACAD_REACTORS
330
C
102
}
330
C
100
AcDbDictionary
281
     1
  3
A0
350
82B3
  3
A1
350
82B4
  3
A2
350
82B5
  3
A3
350
82B6
  3
A4
350
82B7
  3
A5
350
82B8
  3
A6
350
82B9
  3
A7
350
82BA
  3
A8
350
82BB
  3
A9
350
82BC
  3
B0
350
82BD
  3
B1
350
82BE
  3
B2
350
82BF
  3
B3
350
82C0
  3
B4
350
82C1
  3
B5
350
82C2
  3
B6
350
82C3
  0
DICTIONARY
  5
82C6
102
{ACAD_REACTORS
330
C
102
}
330
C
100
AcDbDictionary
281
     1
  3
Metric50
350
82C7
  0
DICTIONARY
  5
82B0
102
{ACAD_REACTORS
330
C
102
}
330
C
100
AcDbDictionary
281
     1
  3
Standard
350
82B1
  0
DICTIONARY
  5
8296
102
{ACAD_REACTORS
330
C
102
}
330
C
100
AcDbDictionary
281
     1
  3
2dWireframe
350
829C
  3
Basic
350
829B
  3
Brighten
350
82A2
  3
ColorChange
350
82A6
  3
Conceptual
350
829F
  3
Dim
350
82A1
  3
EdgeColorOff
350
82AE
  3
Facepattern
350
82A5
  3
Flat
350
8297
  3
FlatWithEdges
350
8298
  3
Gouraud
350
8299
  3
GouraudWithEdges
350
829A
  3
Hidden
350
829E
  3
JitterOff
350
82AC
  3
Linepattern
350
82A4
  3
OverhangOff
350
82AD
  3
Realistic
350
82A0
  3
Shaded
350
82AB
  3
Shaded with edges
350
82AA
  3
Shades of Gray
350
82A7
  3
Sketchy
350
82A8
  3
Thicken
350
82A3
  3
Wireframe
350
829D
  3
X-Ray
350
82A9
  0
XRECORD
  5
8371
102
{ACAD_REACTORS
330
C
102
}
330
C
100
AcDbXrecord
280
     1
 90
        1
330
82B1
  0
DICTIONARY
  5
8274
102
{ACAD_REACTORS
330
C
102
}
330
C
100
AcDbDictionary
281
     1
  3
CANNOSCALE
350
8366
  3
CMLEADERSTYLE
350
8362
  3
CTABLESTYLE
350
8361
  3
CVIEWDETAILSTYLE
350
8363
  3
CVIEWSECTIONSTYLE
350
8364
  3
DIMASSOC
350
8275
  3
LAYEREVAL
350
8368
  3
LAYERNOTIFY
350
8369
  3
LIGHTINGUNITS
350
8367
  3
MARKUPASSISTMODE
350
836E
  3
MSLTSCALE
350
8365
  0
DICTIONARY
  5
8377
102
{ACAD_REACTORS
330
C
102
}
330
C
100
AcDbDictionary
281
     1
  3
AcDsRecords
350
8379
  3
AcDsSchemas
350
8378
1001
ACAD
1070
     2
  0
DICTIONARY
  5
8356
102
{ACAD_REACTORS
330
8355
102
}
330
8355
100
AcDbDictionary
281
     1
  0
XRECORD
  5
8349
102
{ACAD_REACTORS
330
8348
102
}
330
8348
100
AcDbXrecord
280
     1
290
     1
  0
XRECORD
  5
834B
102
{ACAD_REACTORS
330
834A
102
}
330
834A
100
AcDbXrecord
280
     1
290
     1
  0
XRECORD
  5
834D
102
{ACAD_REACTORS
330
834C
102
}
330
834C
100
AcDbXrecord
280
     1
290
     1
  0
XRECORD
  5
834F
102
{ACAD_REACTORS
330
834E
102
}
330
834E
100
AcDbXrecord
280
     1
290
     1
  0
XRECORD
  5
8351
102
{ACAD_REACTORS
330
8350
102
}
330
8350
100
AcDbXrecord
280
     1
290
     1
  0
XRECORD
  5
81B4
102
{ACAD_REACTORS
330
81B3
102
}
330
81B3
100
AcDbXrecord
280
     1
340
19
  0
XRECORD
  5
81B2
102
{ACAD_REACTORS
330
81B1
102
}
330
81B1
100
AcDbXrecord
280
     1
340
16
  0
ACDBDETAILVIEWSTYLE
  5
82C9
102
{ACAD_XDICTIONARY
360
837C
102
}
102
{ACAD_REACTORS
330
82C8
102
}
330
82C8
100
AcDbModelDocViewStyle
 70
     0
  3
Metric50
290
     0
100
AcDbDetailViewStyle
 70
     0
 71
     0
 90
        3
 71
     1
340
10
 62
   256
 40
5.0
340
0
 62
   256
 40
5.0
300

 40
0.0
280
     1
 71
     2
340
15
 90
       25
 62
   256
 71
     3
340
10
 62
   256
 40
5.0
 90
        0
 40
15.0
 90
        1
300
%<\AcVar ViewDetailId>% (%<\AcVar ViewScale \f "%sn">%)
 71
     4
340
15
 90
       25
 62
   256
340
15
 90
       25
 62
   256
280
     0
  0
LAYOUT
  5
8188
102
{ACAD_REACTORS
330
8186
102
}
330
8186
100
AcDbPlotSettings
  1

  2
\\Txbo34x8944cqyd\EPSON LP-6100
  4

  6

 40
0.0
 41
0.0
 42
0.0
 43
0.0
 44
0.0
 45
0.0
 46
0.0
 47
0.0
 48
0.0
 49
0.0
140
0.0
141
0.0
142
1.0
143
1.0
 70
  1712
 72
     0
 73
     0
 74
     0
  7
GOD2000TABLE.ctb
 75
     0
147
1.0
 76
     0
 77
     2
 78
   300
148
0.0
149
0.0
100
AcDbLayout
  1
Model
 70
     1
 71
     0
 10
0.0
 20
0.0
 11
12.0
 21
9.0
 12
0.0
 22
0.0
 32
0.0
 14
0.0
 24
0.0
 34
0.0
 15
0.0
 25
0.0
 35
0.0
146
0.0
 13
0.0
 23
0.0
 33
0.0
 16
1.0
 26
0.0
 36
0.0
 17
0.0
 27
1.0
 37
0.0
 76
     0
330
19
331
827B
  0
LAYOUT
  5
8189
102
{ACAD_REACTORS
330
8186
102
}
330
8186
100
AcDbPlotSettings
  1

  2
\\Txbo34x8944cqyd\EPSON LP-6100
  4

  6

 40
0.0
 41
0.0
 42
0.0
 43
0.0
 44
0.0
 45
0.0
 46
0.0
 47
0.0
 48
0.0
 49
0.0
140
0.0
141
0.0
142
1.0
143
1.0
 70
   688
 72
     0
 73
     0
 74
     5
  7
GOD2000TABLE.ctb
 75
    16
147
1.0
 76
     0
 77
     2
 78
   300
148
0.0
149
0.0
100
AcDbLayout
  1
ﾚｲｱｳﾄ1
 70
     1
 71
     1
 10
0.0
 20
0.0
 11
12.0
 21
9.0
 12
0.0
 22
0.0
 32
0.0
 14
1.000000000000000E+20
 24
1.000000000000000E+20
 34
1.000000000000000E+20
 15
-1.000000000000000E+20
 25
-1.000000000000000E+20
 35
-1.000000000000000E+20
146
0.0
 13
0.0
 23
0.0
 33
0.0
 16
1.0
 26
0.0
 36
0.0
 17
0.0
 27
1.0
 37
0.0
 76
     0
330
16
  0
MATERIAL
  5
8286
102
{ACAD_XDICTIONARY
360
8287
102
}
102
{ACAD_REACTORS
330
827D
102
}
330
827D
100
AcDbMaterial
  1
ByBlock
 72
     0
 43
0.0208333333333333
 43
0.0
 43
0.0
 43
0.0
 43
0.0
 43
0.0208333333333333
 43
0.0
 43
0.0
 43
0.0
 43
0.0
 43
1.0
 43
0.0
 43
0.0
 43
0.0
 43
0.0
 43
1.0
 77
     0
 47
0.0208333333333333
 47
0.0
 47
0.0
 47
0.0
 47
0.0
 47
0.0208333333333333
 47
0.0
 47
0.0
 47
0.0
 47
0.0
 47
1.0
 47
0.0
 47
0.0
 47
0.0
 47
0.0
 47
1.0
171
     0
 49
0.0208333333333333
 49
0.0
 49
0.0
 49
0.0
 49
0.0
 49
0.0208333333333333
 49
0.0
 49
0.0
 49
0.0
 49
0.0
 49
1.0
 49
0.0
 49
0.0
 49
0.0
 49
0.0
 49
1.0
175
     0
142
0.0208333333333333
142
0.0
142
0.0
142
0.0
142
0.0
142
0.0208333333333333
142
0.0
142
0.0
142
0.0
142
0.0
142
1.0
142
0.0
142
0.0
142
0.0
142
0.0
142
1.0
179
     0
144
0.0208333333333333
144
0.0
144
0.0
144
0.0
144
0.0
144
0.0208333333333333
144
0.0
144
0.0
144
0.0
144
0.0
144
1.0
144
0.0
144
0.0
144
0.0
144
0.0
144
1.0
147
0.0208333333333333
147
0.0
147
0.0
147
0.0
147
0.0
147
0.0208333333333333
147
0.0
147
0.0
147
0.0
147
0.0
147
1.0
147
0.0
147
0.0
147
0.0
147
0.0
147
1.0
  0
MATERIAL
  5
827E
102
{ACAD_XDICTIONARY
360
827F
102
}
102
{ACAD_REACTORS
330
827D
102
}
330
827D
100
AcDbMaterial
  1
ByLayer
 72
     0
 43
0.0208333333333333
 43
0.0
 43
0.0
 43
0.0
 43
0.0
 43
0.0208333333333333
 43
0.0
 43
0.0
 43
0.0
 43
0.0
 43
1.0
 43
0.0
 43
0.0
 43
0.0
 43
0.0
 43
1.0
 77
     0
 47
0.0208333333333333
 47
0.0
 47
0.0
 47
0.0
 47
0.0
 47
0.0208333333333333
 47
0.0
 47
0.0
 47
0.0
 47
0.0
 47
1.0
 47
0.0
 47
0.0
 47
0.0
 47
0.0
 47
1.0
171
     0
 49
0.0208333333333333
 49
0.0
 49
0.0
 49
0.0
 49
0.0
 49
0.0208333333333333
 49
0.0
 49
0.0
 49
0.0
 49
0.0
 49
1.0
 49
0.0
 49
0.0
 49
0.0
 49
0.0
 49
1.0
175
     0
142
0.0208333333333333
142
0.0
142
0.0
142
0.0
142
0.0
142
0.0208333333333333
142
0.0
142
0.0
142
0.0
142
0.0
142
1.0
142
0.0
142
0.0
142
0.0
142
0.0
142
1.0
179
     0
144
0.0208333333333333
144
0.0
144
0.0
144
0.0
144
0.0
144
0.0208333333333333
144
0.0
144
0.0
144
0.0
144
0.0
144
1.0
144
0.0
144
0.0
144
0.0
144
0.0
144
1.0
147
0.0208333333333333
147
0.0
147
0.0
147
0.0
147
0.0
147
0.0208333333333333
147
0.0
147
0.0
147
0.0
147
0.0
147
1.0
147
0.0
147
0.0
147
0.0
147
0.0
147
1.0
  0
MATERIAL
  5
828E
102
{ACAD_XDICTIONARY
360
828F
102
}
102
{ACAD_REACTORS
330
827D
102
}
330
827D
100
AcDbMaterial
  1
Global
 72
     0
 43
0.0208333333333333
 43
0.0
 43
0.0
 43
0.0
 43
0.0
 43
0.0208333333333333
 43
0.0
 43
0.0
 43
0.0
 43
0.0
 43
1.0
 43
0.0
 43
0.0
 43
0.0
 43
0.0
 43
1.0
 77
     0
 47
0.0208333333333333
 47
0.0
 47
0.0
 47
0.0
 47
0.0
 47
0.0208333333333333
 47
0.0
 47
0.0
 47
0.0
 47
0.0
 47
1.0
 47
0.0
 47
0.0
 47
0.0
 47
0.0
 47
1.0
171
     0
 49
0.0208333333333333
 49
0.0
 49
0.0
 49
0.0
 49
0.0
 49
0.0208333333333333
 49
0.0
 49
0.0
 49
0.0
 49
0.0
 49
1.0
 49
0.0
 49
0.0
 49
0.0
 49
0.0
 49
1.0
175
     0
142
0.0208333333333333
142
0.0
142
0.0
142
0.0
142
0.0
142
0.0208333333333333
142
0.0
142
0.0
142
0.0
142
0.0
142
1.0
142
0.0
142
0.0
142
0.0
142
0.0
142
1.0
179
     0
144
0.0208333333333333
144
0.0
144
0.0
144
0.0
144
0.0
144
0.0208333333333333
144
0.0
144
0.0
144
0.0
144
0.0
144
1.0
144
0.0
144
0.0
144
0.0
144
0.0
144
1.0
147
0.0208333333333333
147
0.0
147
0.0
147
0.0
147
0.0
147
0.0208333333333333
147
0.0
147
0.0
147
0.0
147
0.0
147
1.0
147
0.0
147
0.0
147
0.0
147
0.0
147
1.0
  0
MLEADERSTYLE
  5
82C5
102
{ACAD_REACTORS
330
82C4
102
}
330
82C4
100
AcDbMLeaderStyle
179
     2
170
     2
171
     1
172
     0
 90
        2
 40
0.0
 41
0.0
173
     1
 91
-1056964608
340
13
 92
       -2
290
     1
 42
2.0
291
     1
 43
0.36
  3
Standard
 44
4.0
300

342
10
174
     1
178
     6
175
     1
176
     0
 93
-1056964608
 45
4.0
292
     0
297
     0
 46
4.0
 94
-1056964608
 47
1.0
 49
1.0
140
1.0
293
     1
141
0.0
294
     1
177
     0
142
1.0
295
     0
296
     0
143
0.125
271
     0
272
     9
273
     9
298
     1
  0
MLINESTYLE
  5
1C
102
{ACAD_REACTORS
330
E
102
}
330
E
100
AcDbMlineStyle
  2
STANDARD
 70
     0
  3

 62
     0
 51
90.0
 52
90.0
 71
     2
 49
0.5
 62
   256
  6
BYLAYER
 49
-0.5
 62
   256
  6
BYLAYER
  0
ACDBPLACEHOLDER
  5
8185
102
{ACAD_REACTORS
330
8184
102
}
330
8184
  0
SCALE
  5
82B3
102
{ACAD_REACTORS
330
82B2
102
}
330
82B2
100
AcDbScale
 70
     0
300
1:1
140
1.0
141
1.0
290
     1
  0
SCALE
  5
82B4
102
{ACAD_REACTORS
330
82B2
102
}
330
82B2
100
AcDbScale
 70
     0
300
1:2
140
1.0
141
2.0
290
     0
  0
SCALE
  5
82B5
102
{ACAD_REACTORS
330
82B2
102
}
330
82B2
100
AcDbScale
 70
     0
300
1:4
140
1.0
141
4.0
290
     0
  0
SCALE
  5
82B6
102
{ACAD_REACTORS
330
82B2
102
}
330
82B2
100
AcDbScale
 70
     0
300
1:5
140
1.0
141
5.0
290
     0
  0
SCALE
  5
82B7
102
{ACAD_REACTORS
330
82B2
102
}
330
82B2
100
AcDbScale
 70
     0
300
1:8
140
1.0
141
8.0
290
     0
  0
SCALE
  5
82B8
102
{ACAD_REACTORS
330
82B2
102
}
330
82B2
100
AcDbScale
 70
     0
300
1:10
140
1.0
141
10.0
290
     0
  0
SCALE
  5
82B9
102
{ACAD_REACTORS
330
82B2
102
}
330
82B2
100
AcDbScale
 70
     0
300
1:16
140
1.0
141
16.0
290
     0
  0
SCALE
  5
82BA
102
{ACAD_REACTORS
330
82B2
102
}
330
82B2
100
AcDbScale
 70
     0
300
1:20
140
1.0
141
20.0
290
     0
  0
SCALE
  5
82BB
102
{ACAD_REACTORS
330
82B2
102
}
330
82B2
100
AcDbScale
 70
     0
300
1:30
140
1.0
141
30.0
290
     0
  0
SCALE
  5
82BC
102
{ACAD_REACTORS
330
82B2
102
}
330
82B2
100
AcDbScale
 70
     0
300
1:40
140
1.0
141
40.0
290
     0
  0
SCALE
  5
82BD
102
{ACAD_REACTORS
330
82B2
102
}
330
82B2
100
AcDbScale
 70
     0
300
1:50
140
1.0
141
50.0
290
     0
  0
SCALE
  5
82BE
102
{ACAD_REACTORS
330
82B2
102
}
330
82B2
100
AcDbScale
 70
     0
300
1:100
140
1.0
141
100.0
290
     0
  0
SCALE
  5
82BF
102
{ACAD_REACTORS
330
82B2
102
}
330
82B2
100
AcDbScale
 70
     0
300
2:1
140
2.0
141
1.0
290
     0
  0
SCALE
  5
82C0
102
{ACAD_REACTORS
330
82B2
102
}
330
82B2
100
AcDbScale
 70
     0
300
4:1
140
4.0
141
1.0
290
     0
  0
SCALE
  5
82C1
102
{ACAD_REACTORS
330
82B2
102
}
330
82B2
100
AcDbScale
 70
     0
300
8:1
140
8.0
141
1.0
290
     0
  0
SCALE
  5
82C2
102
{ACAD_REACTORS
330
82B2
102
}
330
82B2
100
AcDbScale
 70
     0
300
10:1
140
10.0
141
1.0
290
     0
  0
SCALE
  5
82C3
102
{ACAD_REACTORS
330
82B2
102
}
330
82B2
100
AcDbScale
 70
     0
300
100:1
140
100.0
141
1.0
290
     0
  0
ACDBSECTIONVIEWSTYLE
  5
82C7
102
{ACAD_XDICTIONARY
360
837A
102
}
102
{ACAD_REACTORS
330
82C6
102
}
330
82C6
100
AcDbModelDocViewStyle
 70
     0
  3
Metric50
290
     0
100
AcDbSectionViewStyle
 70
     0
 71
     0
 90
      102
 71
     1
340
10
 62
   256
 40
5.0
340
0
340
0
 62
   256
 40
5.0
300
I, O, Q, S, X, Z
 40
10.0
 90
        0
 40
2.5
 90
        0
 71
     2
340
15
 90
       25
 62
   256
340
15
 90
       50
 62
   256
 40
5.0
 40
2.5
 40
5.0
 71
     3
340
10
 62
   256
 40
5.0
 90
        0
 40
15.0
 90
        1
300
%<\AcVar ViewSectionStartId>%-%<\AcVar ViewSectionEndId>% (%<\AcVar ViewScale \f "%sn">%)
 71
     4
 62
   256
 62
   257
300
ANSI31
 40
1.0
 90
        0
290
     0
290
     0
 90
        6
 40
0.0
 40
1.570796326794896
 40
0.2617993877991494
 40
1.308996938995747
 40
-0.2617993877991494
 40
1.832595714594046
  0
TABLESTYLE
  5
82B1
102
{ACAD_XDICTIONARY
360
836F
102
}
102
{ACAD_REACTORS
330
82B0
102
}
330
82B0
100
AcDbTableStyle
280
     0
  3
Standard
 70
     0
 71
     0
 40
1.5
 41
1.5
280
     0
281
     0
  7
STANDARD
140
4.5
170
     2
 62
     0
 63
     7
283
     0
 90
      512
 91
        0
  1

274
    -2
284
     1
 64
     0
275
    -2
285
     1
 65
     0
276
    -2
286
     1
 66
     0
277
    -2
287
     1
 67
     0
278
    -2
288
     1
 68
     0
279
    -2
289
     1
 69
     0
  7
STANDARD
140
6.0
170
     5
 62
     0
 63
     7
283
     0
 90
      512
 91
        0
  1

274
    -2
284
     1
 64
     0
275
    -2
285
     1
 65
     0
276
    -2
286
     1
 66
     0
277
    -2
287
     1
 67
     0
278
    -2
288
     1
 68
     0
279
    -2
289
     1
 69
     0
  7
STANDARD
140
4.5
170
     5
 62
     0
 63
     7
283
     0
 90
      512
 91
        0
  1

274
    -2
284
     1
 64
     0
275
    -2
285
     1
 65
     0
276
    -2
286
     1
 66
     0
277
    -2
287
     1
 67
     0
278
    -2
288
     1
 68
     0
279
    -2
289
     1
 69
     0
  0
VISUALSTYLE
  5
829C
102
{ACAD_REACTORS
330
8296
102
}
330
8296
100
AcDbVisualStyle
  2
2dWireframe
 70
     4
177
     3
291
     0
 70
    58
 90
        0
176
     1
 90
        2
176
     1
 90
        0
176
     1
 90
        0
176
     1
 40
0.6
176
     1
 40
30.0
176
     1
 62
     7
420
 16777215
176
     1
 90
        1
176
     1
 90
        4
176
     1
 62
     7
176
     1
 62
   257
176
     1
 90
        1
176
     1
 90
        1
176
     1
 40
1.0
176
     1
 90
        0
176
     1
 62
   257
176
     1
 40
1.0
176
     1
 90
        1
176
     1
 90
        6
176
     1
 90
        2
176
     1
 62
     7
176
     1
 90
        5
176
     1
 90
        0
176
     1
 90
        0
176
     1
290
     0
176
     1
 90
        1
176
     1
 40
0.0
176
     1
 90
        0
176
     1
290
     1
176
     1
290
     1
176
     1
290
     0
176
     1
290
     0
176
     1
290
     0
176
     1
290
     0
176
     1
290
     0
176
     1
290
     0
176
     1
290
     0
176
     1
 90
       50
176
     1
 40
0.0
176
     1
 40
1.0
176
     1
 90
        0
176
     1
 62
    18
420
        0
176
     1
 90
       50
176
     1
 90
        3
176
     1
 62
     5
420
      255
176
     1
290
     0
176
     1
 90
       50
176
     1
 90
       50
176
     1
 90
       50
176
     1
290
     0
176
     1
 90
       50
176
     1
 62
   256
176
     0
 40
1.0
176
     0
 90
        2
176
     1
  1
strokes_ogs.tif
176
     1
290
     0
176
     1
 40
1.0
176
     1
 40
1.0
176
     1
1001
ACAD
1000
AcDbSavedByObjectVersion
1070
     0
  0
VISUALSTYLE
  5
829B
102
{ACAD_REACTORS
330
8296
102
}
330
8296
100
AcDbVisualStyle
  2
Basic
 70
     7
177
     3
291
     1
 70
    58
 90
        1
176
     1
 90
        0
176
     1
 90
        1
176
     1
 90
        0
176
     1
 40
0.6
176
     1
 40
30.0
176
     1
 62
     7
420
 16777215
176
     1
 90
        0
176
     1
 90
        4
176
     1
 62
     7
176
     1
 62
   257
176
     1
 90
        1
176
     1
 90
        1
176
     1
 40
1.0
176
     1
 90
        8
176
     1
 62
     7
176
     1
 40
1.0
176
     1
 90
        1
176
     1
 90
        6
176
     1
 90
        2
176
     1
 62
     7
176
     1
 90
        5
176
     1
 90
        0
176
     1
 90
        0
176
     1
290
     0
176
     1
 90
        1
176
     1
 40
0.0
176
     1
 90
        0
176
     1
290
     0
176
     1
290
     1
176
     1
290
     1
176
     1
290
     0
176
     1
290
     0
176
     1
290
     0
176
     1
290
     0
176
     1
290
     0
176
     1
290
     0
176
     1
 90
       50
176
     1
 40
0.0
176
     1
 40
1.0
176
     1
 90
        0
176
     1
 62
    18
420
        0
176
     1
 90
       50
176
     1
 90
        3
176
     1
 62
     5
420
      255
176
     1
290
     0
176
     1
 90
       50
176
     1
 90
       50
176
     1
 90
       50
176
     1
290
     0
176
     1
 90
       50
176
     1
 62
   256
176
     0
 40
1.0
176
     0
 90
        2
176
     1
  1
strokes_ogs.tif
176
     1
290
     0
176
     1
 40
1.0
176
     1
 40
1.0
176
     1
1001
ACAD
1000
AcDbSavedByObjectVersion
1070
     0
  0
VISUALSTYLE
  5
82A2
102
{ACAD_REACTORS
330
8296
102
}
330
8296
100
AcDbVisualStyle
  2
Brighten
 70
    12
177
     3
291
     1
 70
    58
 90
        2
176
     1
 90
        2
176
     1
 90
        0
176
     1
 90
        0
176
     1
 40
0.6
176
     1
 40
30.0
176
     1
 62
     7
420
 16777215
176
     1
 90
        1
176
     1
 90
        4
176
     1
 62
     7
176
     1
 62
   257
176
     1
 90
        1
176
     1
 90
        1
176
     1
 40
1.0
176
     1
 90
        8
176
     1
 62
     7
176
     1
 40
1.0
176
     1
 90
        1
176
     1
 90
        6
176
     1
 90
        2
176
     1
 62
     7
176
     1
 90
        5
176
     1
 90
        0
176
     1
 90
        0
176
     1
290
     0
176
     1
 90
        1
176
     1
 40
50.0
176
     1
 90
        0
176
     1
290
     0
176
     1
290
     1
176
     1
290
     1
176
     1
290
     0
176
     1
290
     0
176
     1
290
     0
176
     1
290
     0
176
     1
290
     0
176
     1
290
     0
176
     1
 90
       50
176
     1
 40
0.0
176
     1
 40
1.0
176
     1
 90
        0
176
     1
 62
    18
420
        0
176
     1
 90
       50
176
     1
 90
        3
176
     1
 62
     5
420
      255
176
     1
290
     0
176
     1
 90
       50
176
     1
 90
       50
176
     1
 90
       50
176
     1
290
     0
176
     1
 90
       50
176
     1
 62
   256
176
     0
 40
1.0
176
     0
 90
        2
176
     1
  1
strokes_ogs.tif
176
     1
290
     0
176
     1
 40
1.0
176
     1
 40
1.0
176
     1
1001
ACAD
1000
AcDbSavedByObjectVersion
1070
     0
  0
VISUALSTYLE
  5
82A6
102
{ACAD_REACTORS
330
8296
102
}
330
8296
100
AcDbVisualStyle
  2
ColorChange
 70
    16
177
     3
291
     1
 70
    58
 90
        2
176
     1
 90
        2
176
     1
 90
        3
176
     1
 90
        0
176
     1
 40
0.6
176
     1
 40
30.0
176
     1
 62
     8
420
  8421504
176
     1
 90
        1
176
     1
 90
        4
176
     1
 62
     7
176
     1
 62
   257
176
     1
 90
        1
176
     1
 90
        1
176
     1
 40
1.0
176
     1
 90
        8
176
     1
 62
     8
420
  8421504
176
     1
 40
1.0
176
     1
 90
        1
176
     1
 90
        6
176
     1
 90
        2
176
     1
 62
     7
176
     1
 90
        5
176
     1
 90
        0
176
     1
 90
        0
176
     1
290
     0
176
     1
 90
        1
176
     1
 40
0.0
176
     1
 90
        0
176
     1
290
     0
176
     1
290
     1
176
     1
290
     1
176
     1
290
     0
176
     1
290
     0
176
     1
290
     0
176
     1
290
     0
176
     1
290
     0
176
     1
290
     0
176
     1
 90
       50
176
     1
 40
0.0
176
     1
 40
1.0
176
     1
 90
        0
176
     1
 62
    18
420
        0
176
     1
 90
       50
176
     1
 90
        3
176
     1
 62
     5
420
      255
176
     1
290
     0
176
     1
 90
       50
176
     1
 90
       50
176
     1
 90
       50
176
     1
290
     0
176
     1
 90
       50
176
     1
 62
   256
176
     0
 40
1.0
176
     0
 90
        2
176
     1
  1
strokes_ogs.tif
176
     1
290
     0
176
     1
 40
1.0
176
     1
 40
1.0
176
     1
1001
ACAD
1000
AcDbSavedByObjectVersion
1070
     0
  0
VISUALSTYLE
  5
829F
102
{ACAD_REACTORS
330
8296
102
}
330
8296
100
AcDbVisualStyle
  2
Conceptual
 70
     9
177
     3
291
     0
 70
    58
 90
        3
176
     1
 90
        2
176
     1
 90
        0
176
     1
 90
        0
176
     1
 40
0.6
176
     1
 40
30.0
176
     1
 62
     7
420
 16777215
176
     1
 90
        2
176
     1
 90
        2
176
     1
 62
     7
176
     1
 62
   257
176
     1
 90
        1
176
     1
 90
        1
176
     1
 40
179.0
176
     1
 90
        8
176
     1
 62
     7
176
     1
 40
1.0
176
     1
 90
        1
176
     1
 90
        6
176
     1
 90
        2
176
     1
 62
     7
176
     1
 90
        3
176
     1
 90
        0
176
     1
 90
        0
176
     1
290
     0
176
     1
 90
        1
176
     1
 40
0.0
176
     1
 90
        0
176
     1
290
     0
176
     1
290
     1
176
     1
290
     1
176
     1
290
     0
176
     1
290
     0
176
     1
290
     0
176
     1
290
     0
176
     1
290
     0
176
     1
290
     0
176
     1
 90
       50
176
     1
 40
0.0
176
     1
 40
1.0
176
     1
 90
        0
176
     1
 62
    18
420
        0
176
     1
 90
       50
176
     1
 90
        3
176
     1
 62
     5
420
      255
176
     1
290
     0
176
     1
 90
       50
176
     1
 90
       50
176
     1
 90
       50
176
     1
290
     0
176
     1
 90
       50
176
     1
 62
   256
176
     0
 40
1.0
176
     0
 90
        2
176
     1
  1
strokes_ogs.tif
176
     1
290
     0
176
     1
 40
1.0
176
     1
 40
1.0
176
     1
1001
ACAD
1000
AcDbSavedByObjectVersion
1070
     0
  0
VISUALSTYLE
  5
82A1
102
{ACAD_REACTORS
330
8296
102
}
330
8296
100
AcDbVisualStyle
  2
Dim
 70
    11
177
     3
291
     1
 70
    58
 90
        2
176
     1
 90
        2
176
     1
 90
        0
176
     1
 90
        0
176
     1
 40
0.6
176
     1
 40
30.0
176
     1
 62
     7
420
 16777215
176
     1
 90
        1
176
     1
 90
        4
176
     1
 62
     7
176
     1
 62
   257
176
     1
 90
        1
176
     1
 90
        1
176
     1
 40
1.0
176
     1
 90
        8
176
     1
 62
     7
176
     1
 40
1.0
176
     1
 90
        1
176
     1
 90
        6
176
     1
 90
        2
176
     1
 62
     7
176
     1
 90
        5
176
     1
 90
        0
176
     1
 90
        0
176
     1
290
     0
176
     1
 90
        1
176
     1
 40
-50.0
176
     1
 90
        0
176
     1
290
     0
176
     1
290
     1
176
     1
290
     1
176
     1
290
     0
176
     1
290
     0
176
     1
290
     0
176
     1
290
     0
176
     1
290
     0
176
     1
290
     0
176
     1
 90
       50
176
     1
 40
0.0
176
     1
 40
1.0
176
     1
 90
        0
176
     1
 62
    18
420
        0
176
     1
 90
       50
176
     1
 90
        3
176
     1
 62
     5
420
      255
176
     1
290
     0
176
     1
 90
       50
176
     1
 90
       50
176
     1
 90
       50
176
     1
290
     0
176
     1
 90
       50
176
     1
 62
   256
176
     0
 40
1.0
176
     0
 90
        2
176
     1
  1
strokes_ogs.tif
176
     1
290
     0
176
     1
 40
1.0
176
     1
 40
1.0
176
     1
1001
ACAD
1000
AcDbSavedByObjectVersion
1070
     0
  0
VISUALSTYLE
  5
82AE
102
{ACAD_REACTORS
330
8296
102
}
330
8296
100
AcDbVisualStyle
  2
EdgeColorOff
 70
    22
177
     3
291
     1
 70
    58
 90
        2
176
     0
 90
        2
176
     0
 90
        0
176
     0
 90
        0
176
     0
 40
0.6
176
     0
 40
30.0
176
     0
 62
     7
420
 16777215
176
     0
 90
        1
176
     0
 90
        4
176
     0
 62
     7
176
     0
 62
   257
176
     0
 90
        1
176
     0
 90
        1
176
     0
 40
1.0
176
     0
 90
        8
176
     2
 62
     7
176
     0
 40
1.0
176
     0
 90
        1
176
     0
 90
        6
176
     0
 90
        2
176
     0
 62
     7
176
     0
 90
        5
176
     0
 90
        0
176
     0
 90
        0
176
     0
290
     0
176
     0
 90
        1
176
     0
 40
0.0
176
     0
 90
        0
176
     0
290
     0
176
     0
290
     1
176
     0
290
     1
176
     0
290
     0
176
     0
290
     0
176
     0
290
     0
176
     0
290
     0
176
     0
290
     0
176
     0
290
     0
176
     0
 90
       50
176
     0
 40
0.0
176
     0
 40
1.0
176
     0
 90
        0
176
     0
 62
    18
420
        0
176
     0
 90
       50
176
     0
 90
        3
176
     0
 62
     5
420
      255
176
     0
290
     0
176
     0
 90
       50
176
     0
 90
       50
176
     0
 90
       50
176
     0
290
     0
176
     0
 90
       50
176
     0
 62
   256
176
     0
 40
1.0
176
     0
 90
        2
176
     0
  1
strokes_ogs.tif
176
     0
290
     0
176
     0
 40
1.0
176
     0
 40
1.0
176
     0
1001
ACAD
1000
AcDbSavedByObjectVersion
1070
     0
  0
VISUALSTYLE
  5
82A5
102
{ACAD_REACTORS
330
8296
102
}
330
8296
100
AcDbVisualStyle
  2
Facepattern
 70
    15
177
     3
291
     1
 70
    58
 90
        2
176
     1
 90
        2
176
     1
 90
        0
176
     1
 90
        0
176
     1
 40
0.6
176
     1
 40
30.0
176
     1
 62
     7
420
 16777215
176
     1
 90
        1
176
     1
 90
        4
176
     1
 62
     7
176
     1
 62
   257
176
     1
 90
        1
176
     1
 90
        1
176
     1
 40
1.0
176
     1
 90
        8
176
     1
 62
     7
176
     1
 40
1.0
176
     1
 90
        1
176
     1
 90
        6
176
     1
 90
        2
176
     1
 62
     7
176
     1
 90
        5
176
     1
 90
        0
176
     1
 90
        0
176
     1
290
     0
176
     1
 90
        1
176
     1
 40
0.0
176
     1
 90
        0
176
     1
290
     0
176
     1
290
     1
176
     1
290
     1
176
     1
290
     0
176
     1
290
     0
176
     1
290
     0
176
     1
290
     0
176
     1
290
     0
176
     1
290
     0
176
     1
 90
       50
176
     1
 40
0.0
176
     1
 40
1.0
176
     1
 90
        0
176
     1
 62
    18
420
        0
176
     1
 90
       50
176
     1
 90
        3
176
     1
 62
     5
420
      255
176
     1
290
     0
176
     1
 90
       50
176
     1
 90
       50
176
     1
 90
       50
176
     1
290
     0
176
     1
 90
       50
176
     1
 62
   256
176
     0
 40
1.0
176
     0
 90
        2
176
     1
  1
strokes_ogs.tif
176
     1
290
     0
176
     1
 40
1.0
176
     1
 40
1.0
176
     1
1001
ACAD
1000
AcDbSavedByObjectVersion
1070
     0
  0
VISUALSTYLE
  5
8297
102
{ACAD_REACTORS
330
8296
102
}
330
8296
100
AcDbVisualStyle
  2
Flat
 70
     0
177
     3
291
     1
 70
    58
 90
        2
176
     1
 90
        1
176
     1
 90
        1
176
     1
 90
        2
176
     1
 40
0.6
176
     1
 40
30.0
176
     1
 62
     7
420
 16777215
176
     1
 90
        0
176
     1
 90
        0
176
     1
 62
     7
176
     1
 62
   257
176
     1
 90
        1
176
     1
 90
        1
176
     1
 40
1.0
176
     1
 90
        8
176
     1
 62
     7
176
     1
 40
1.0
176
     1
 90
        1
176
     1
 90
        6
176
     1
 90
        2
176
     1
 62
     7
176
     1
 90
        5
176
     1
 90
        0
176
     1
 90
        0
176
     1
290
     0
176
     1
 90
       13
176
     1
 40
0.0
176
     1
 90
        0
176
     1
290
     0
176
     1
290
     1
176
     1
290
     1
176
     1
290
     0
176
     1
290
     0
176
     1
290
     0
176
     1
290
     0
176
     1
290
     0
176
     1
290
     0
176
     1
 90
       50
176
     1
 40
0.0
176
     1
 40
1.0
176
     1
 90
        0
176
     1
 62
    18
420
        0
176
     1
 90
       50
176
     1
 90
        3
176
     1
 62
     5
420
      255
176
     1
290
     0
176
     1
 90
       50
176
     1
 90
       50
176
     1
 90
       50
176
     1
290
     0
176
     1
 90
       50
176
     1
 62
   256
176
     0
 40
1.0
176
     0
 90
        2
176
     1
  1
strokes_ogs.tif
176
     1
290
     0
176
     1
 40
1.0
176
     1
 40
1.0
176
     1
1001
ACAD
1000
AcDbSavedByObjectVersion
1070
     0
  0
VISUALSTYLE
  5
8298
102
{ACAD_REACTORS
330
8296
102
}
330
8296
100
AcDbVisualStyle
  2
FlatWithEdges
 70
     1
177
     3
291
     1
 70
    58
 90
        2
176
     1
 90
        1
176
     1
 90
        1
176
     1
 90
        2
176
     1
 40
0.6
176
     1
 40
30.0
176
     1
 62
     7
420
 16777215
176
     1
 90
        1
176
     1
 90
        0
176
     1
 62
     7
176
     1
 62
   257
176
     1
 90
        1
176
     1
 90
        1
176
     1
 40
1.0
176
     1
 90
        0
176
     1
 62
   257
176
     1
 40
1.0
176
     1
 90
        1
176
     1
 90
        6
176
     1
 90
        2
176
     1
 62
     7
176
     1
 90
        5
176
     1
 90
        0
176
     1
 90
        0
176
     1
290
     0
176
     1
 90
       13
176
     1
 40
0.0
176
     1
 90
        0
176
     1
290
     0
176
     1
290
     1
176
     1
290
     1
176
     1
290
     0
176
     1
290
     0
176
     1
290
     0
176
     1
290
     0
176
     1
290
     0
176
     1
290
     0
176
     1
 90
       50
176
     1
 40
0.0
176
     1
 40
1.0
176
     1
 90
        0
176
     1
 62
    18
420
        0
176
     1
 90
       50
176
     1
 90
        3
176
     1
 62
     5
420
      255
176
     1
290
     0
176
     1
 90
       50
176
     1
 90
       50
176
     1
 90
       50
176
     1
290
     0
176
     1
 90
       50
176
     1
 62
   256
176
     0
 40
1.0
176
     0
 90
        2
176
     1
  1
strokes_ogs.tif
176
     1
290
     0
176
     1
 40
1.0
176
     1
 40
1.0
176
     1
1001
ACAD
1000
AcDbSavedByObjectVersion
1070
     0
  0
VISUALSTYLE
  5
8299
102
{ACAD_REACTORS
330
8296
102
}
330
8296
100
AcDbVisualStyle
  2
Gouraud
 70
     2
177
     3
291
     1
 70
    58
 90
        2
176
     1
 90
        2
176
     1
 90
        1
176
     1
 90
        2
176
     1
 40
0.6
176
     1
 40
30.0
176
     1
 62
     7
420
 16777215
176
     1
 90
        0
176
     1
 90
        0
176
     1
 62
     7
176
     1
 62
   257
176
     1
 90
        1
176
     1
 90
        1
176
     1
 40
1.0
176
     1
 90
        0
176
     1
 62
     7
176
     1
 40
1.0
176
     1
 90
        1
176
     1
 90
        6
176
     1
 90
        2
176
     1
 62
     7
176
     1
 90
        5
176
     1
 90
        0
176
     1
 90
        0
176
     1
290
     0
176
     1
 90
       13
176
     1
 40
0.0
176
     1
 90
        0
176
     1
290
     0
176
     1
290
     1
176
     1
290
     1
176
     1
290
     0
176
     1
290
     0
176
     1
290
     0
176
     1
290
     0
176
     1
290
     0
176
     1
290
     0
176
     1
 90
       50
176
     1
 40
0.0
176
     1
 40
1.0
176
     1
 90
        0
176
     1
 62
    18
420
        0
176
     1
 90
       50
176
     1
 90
        3
176
     1
 62
     5
420
      255
176
     1
290
     0
176
     1
 90
       50
176
     1
 90
       50
176
     1
 90
       50
176
     1
290
     0
176
     1
 90
       50
176
     1
 62
   256
176
     0
 40
1.0
176
     0
 90
        2
176
     1
  1
strokes_ogs.tif
176
     1
290
     0
176
     1
 40
1.0
176
     1
 40
1.0
176
     1
1001
ACAD
1000
AcDbSavedByObjectVersion
1070
     0
  0
VISUALSTYLE
  5
829A
102
{ACAD_REACTORS
330
8296
102
}
330
8296
100
AcDbVisualStyle
  2
GouraudWithEdges
 70
     3
177
     3
291
     1
 70
    58
 90
        2
176
     1
 90
        2
176
     1
 90
        1
176
     1
 90
        2
176
     1
 40
0.6
176
     1
 40
30.0
176
     1
 62
     7
420
 16777215
176
     1
 90
        1
176
     1
 90
        0
176
     1
 62
     7
176
     1
 62
   257
176
     1
 90
        1
176
     1
 90
        1
176
     1
 40
1.0
176
     1
 90
        0
176
     1
 62
   257
176
     1
 40
1.0
176
     1
 90
        1
176
     1
 90
        6
176
     1
 90
        2
176
     1
 62
     7
176
     1
 90
        5
176
     1
 90
        0
176
     1
 90
        0
176
     1
290
     0
176
     1
 90
       13
176
     1
 40
0.0
176
     1
 90
        0
176
     1
290
     0
176
     1
290
     1
176
     1
290
     1
176
     1
290
     0
176
     1
290
     0
176
     1
290
     0
176
     1
290
     0
176
     1
290
     0
176
     1
290
     0
176
     1
 90
       50
176
     1
 40
0.0
176
     1
 40
1.0
176
     1
 90
        0
176
     1
 62
    18
420
        0
176
     1
 90
       50
176
     1
 90
        3
176
     1
 62
     5
420
      255
176
     1
290
     0
176
     1
 90
       50
176
     1
 90
       50
176
     1
 90
       50
176
     1
290
     0
176
     1
 90
       50
176
     1
 62
   256
176
     0
 40
1.0
176
     0
 90
        2
176
     1
  1
strokes_ogs.tif
176
     1
290
     0
176
     1
 40
1.0
176
     1
 40
1.0
176
     1
1001
ACAD
1000
AcDbSavedByObjectVersion
1070
     0
  0
VISUALSTYLE
  5
829E
102
{ACAD_REACTORS
330
8296
102
}
330
8296
100
AcDbVisualStyle
  2
Hidden
 70
     6
177
     3
291
     0
 70
    58
 90
        1
176
     1
 90
        2
176
     1
 90
        2
176
     1
 90
        0
176
     1
 40
0.6
176
     1
 40
30.0
176
     1
 62
     7
420
 16777215
176
     1
 90
        2
176
     1
 90
        2
176
     1
 62
     7
176
     1
 62
   257
176
     1
 90
        2
176
     1
 90
        1
176
     1
 40
40.0
176
     1
 90
        0
176
     1
 62
   257
176
     1
 40
1.0
176
     1
 90
        1
176
     1
 90
        6
176
     1
 90
        2
176
     1
 62
     7
176
     1
 90
        3
176
     1
 90
        0
176
     1
 90
        0
176
     1
290
     0
176
     1
 90
        1
176
     1
 40
0.0
176
     1
 90
        0
176
     1
290
     0
176
     1
290
     1
176
     1
290
     1
176
     1
290
     0
176
     1
290
     0
176
     1
290
     0
176
     1
290
     0
176
     1
290
     0
176
     1
290
     0
176
     1
 90
       50
176
     1
 40
0.0
176
     1
 40
1.0
176
     1
 90
        0
176
     1
 62
    18
420
        0
176
     1
 90
       50
176
     1
 90
        3
176
     1
 62
     5
420
      255
176
     1
290
     0
176
     1
 90
       50
176
     1
 90
       50
176
     1
 90
       50
176
     1
290
     0
176
     1
 90
       50
176
     1
 62
   256
176
     0
 40
1.0
176
     0
 90
        2
176
     1
  1
strokes_ogs.tif
176
     1
290
     0
176
     1
 40
1.0
176
     1
 40
1.0
176
     1
1001
ACAD
1000
AcDbSavedByObjectVersion
1070
     0
  0
VISUALSTYLE
  5
82AC
102
{ACAD_REACTORS
330
8296
102
}
330
8296
100
AcDbVisualStyle
  2
JitterOff
 70
    20
177
     3
291
     1
 70
    58
 90
        2
176
     0
 90
        2
176
     0
 90
        0
176
     0
 90
        0
176
     0
 40
0.6
176
     0
 40
30.0
176
     0
 62
     7
420
 16777215
176
     0
 90
        1
176
     0
 90
        4
176
     0
 62
     7
176
     0
 62
   257
176
     0
 90
        1
176
     0
 90
        1
176
     0
 40
1.0
176
     0
 90
       10
176
     2
 62
     7
176
     0
 40
1.0
176
     0
 90
        1
176
     0
 90
        6
176
     0
 90
        2
176
     0
 62
     7
176
     0
 90
        5
176
     0
 90
        0
176
     0
 90
        0
176
     0
290
     0
176
     0
 90
        1
176
     0
 40
0.0
176
     0
 90
        0
176
     0
290
     0
176
     0
290
     1
176
     0
290
     1
176
     0
290
     0
176
     0
290
     0
176
     0
290
     0
176
     0
290
     0
176
     0
290
     0
176
     0
290
     0
176
     0
 90
       50
176
     0
 40
0.0
176
     0
 40
1.0
176
     0
 90
        0
176
     0
 62
    18
420
        0
176
     0
 90
       50
176
     0
 90
        3
176
     0
 62
     5
420
      255
176
     0
290
     0
176
     0
 90
       50
176
     0
 90
       50
176
     0
 90
       50
176
     0
290
     0
176
     0
 90
       50
176
     0
 62
   256
176
     0
 40
1.0
176
     0
 90
        2
176
     0
  1
strokes_ogs.tif
176
     0
290
     0
176
     0
 40
1.0
176
     0
 40
1.0
176
     0
1001
ACAD
1000
AcDbSavedByObjectVersion
1070
     0
  0
VISUALSTYLE
  5
82A4
102
{ACAD_REACTORS
330
8296
102
}
330
8296
100
AcDbVisualStyle
  2
Linepattern
 70
    14
177
     3
291
     1
 70
    58
 90
        2
176
     1
 90
        2
176
     1
 90
        0
176
     1
 90
        0
176
     1
 40
0.6
176
     1
 40
30.0
176
     1
 62
     7
420
 16777215
176
     1
 90
        1
176
     1
 90
        4
176
     1
 62
     7
176
     1
 62
   257
176
     1
 90
        7
176
     1
 90
        7
176
     1
 40
1.0
176
     1
 90
        8
176
     1
 62
     7
176
     1
 40
1.0
176
     1
 90
        1
176
     1
 90
        6
176
     1
 90
        2
176
     1
 62
     7
176
     1
 90
        5
176
     1
 90
        0
176
     1
 90
        0
176
     1
290
     0
176
     1
 90
        1
176
     1
 40
0.0
176
     1
 90
        0
176
     1
290
     0
176
     1
290
     1
176
     1
290
     1
176
     1
290
     0
176
     1
290
     0
176
     1
290
     0
176
     1
290
     0
176
     1
290
     0
176
     1
290
     0
176
     1
 90
       50
176
     1
 40
0.0
176
     1
 40
1.0
176
     1
 90
        0
176
     1
 62
    18
420
        0
176
     1
 90
       50
176
     1
 90
        3
176
     1
 62
     5
420
      255
176
     1
290
     0
176
     1
 90
       50
176
     1
 90
       50
176
     1
 90
       50
176
     1
290
     0
176
     1
 90
       50
176
     1
 62
   256
176
     0
 40
1.0
176
     0
 90
        2
176
     1
  1
strokes_ogs.tif
176
     1
290
     0
176
     1
 40
1.0
176
     1
 40
1.0
176
     1
1001
ACAD
1000
AcDbSavedByObjectVersion
1070
     0
  0
VISUALSTYLE
  5
82AD
102
{ACAD_REACTORS
330
8296
102
}
330
8296
100
AcDbVisualStyle
  2
OverhangOff
 70
    21
177
     3
291
     1
 70
    58
 90
        2
176
     0
 90
        2
176
     0
 90
        0
176
     0
 90
        0
176
     0
 40
0.6
176
     0
 40
30.0
176
     0
 62
     7
420
 16777215
176
     0
 90
        1
176
     0
 90
        4
176
     0
 62
     7
176
     0
 62
   257
176
     0
 90
        1
176
     0
 90
        1
176
     0
 40
1.0
176
     0
 90
        9
176
     2
 62
     7
176
     0
 40
1.0
176
     0
 90
        1
176
     0
 90
        6
176
     0
 90
        2
176
     0
 62
     7
176
     0
 90
        5
176
     0
 90
        0
176
     0
 90
        0
176
     0
290
     0
176
     0
 90
        1
176
     0
 40
0.0
176
     0
 90
        0
176
     0
290
     0
176
     0
290
     1
176
     0
290
     1
176
     0
290
     0
176
     0
290
     0
176
     0
290
     0
176
     0
290
     0
176
     0
290
     0
176
     0
290
     0
176
     0
 90
       50
176
     0
 40
0.0
176
     0
 40
1.0
176
     0
 90
        0
176
     0
 62
    18
420
        0
176
     0
 90
       50
176
     0
 90
        3
176
     0
 62
     5
420
      255
176
     0
290
     0
176
     0
 90
       50
176
     0
 90
       50
176
     0
 90
       50
176
     0
290
     0
176
     0
 90
       50
176
     0
 62
   256
176
     0
 40
1.0
176
     0
 90
        2
176
     0
  1
strokes_ogs.tif
176
     0
290
     0
176
     0
 40
1.0
176
     0
 40
1.0
176
     0
1001
ACAD
1000
AcDbSavedByObjectVersion
1070
     0
  0
VISUALSTYLE
  5
82A0
102
{ACAD_REACTORS
330
8296
102
}
330
8296
100
AcDbVisualStyle
  2
Realistic
 70
     8
177
     3
291
     0
 70
    58
 90
        2
176
     1
 90
        3
176
     1
 90
        0
176
     1
 90
        2
176
     1
 40
0.6
176
     1
 40
30.0
176
     1
 62
     7
420
 16777215
176
     1
 90
        0
176
     1
 90
        0
176
     1
 62
     7
176
     1
 62
   257
176
     1
 90
        1
176
     1
 90
        1
176
     1
 40
1.0
176
     1
 90
        8
176
     1
 62
   257
176
     1
 40
1.0
176
     1
 90
        1
176
     1
 90
        6
176
     1
 90
        2
176
     1
 62
     7
176
     1
 90
        3
176
     1
 90
        0
176
     1
 90
        0
176
     1
290
     0
176
     1
 90
       13
176
     1
 40
0.0
176
     1
 90
        0
176
     1
290
     0
176
     1
290
     1
176
     1
290
     1
176
     1
290
     0
176
     1
290
     0
176
     1
290
     0
176
     1
290
     0
176
     1
290
     0
176
     1
290
     0
176
     1
 90
       50
176
     1
 40
0.0
176
     1
 40
1.0
176
     1
 90
        0
176
     1
 62
    18
420
        0
176
     1
 90
       50
176
     1
 90
        3
176
     1
 62
     5
420
      255
176
     1
290
     0
176
     1
 90
       50
176
     1
 90
       50
176
     1
 90
       50
176
     1
290
     0
176
     1
 90
       50
176
     1
 62
   256
176
     0
 40
1.0
176
     0
 90
        2
176
     1
  1
strokes_ogs.tif
176
     1
290
     0
176
     1
 40
1.0
176
     1
 40
1.0
176
     1
1001
ACAD
1000
AcDbSavedByObjectVersion
1070
     0
  0
VISUALSTYLE
  5
82AB
102
{ACAD_REACTORS
330
8296
102
}
330
8296
100
AcDbVisualStyle
  2
Shaded
 70
    27
177
     3
291
     0
 70
    58
 90
        2
176
     1
 90
        2
176
     1
 90
        1
176
     1
 90
        2
176
     1
 40
0.6
176
     1
 40
30.0
176
     1
 62
     7
420
 16777215
176
     1
 90
        0
176
     1
 90
        4
176
     1
 62
     7
176
     1
 62
   257
176
     1
 90
        1
176
     1
 90
        1
176
     1
 40
1.0
176
     1
 90
        8
176
     1
 62
   257
176
     1
 40
1.0
176
     1
 90
        1
176
     1
 90
        6
176
     1
 90
        2
176
     1
 62
     8
420
  7895160
176
     1
 90
        3
176
     1
 90
        0
176
     1
 90
        0
176
     1
290
     0
176
     1
 90
        5
176
     1
 40
0.0
176
     1
 90
        0
176
     1
290
     0
176
     1
290
     1
176
     1
290
     1
176
     1
290
     0
176
     1
290
     0
176
     1
290
     0
176
     1
290
     0
176
     1
290
     0
176
     1
290
     0
176
     1
 90
       50
176
     1
 40
0.0
176
     1
 40
1.0
176
     1
 90
        0
176
     1
 62
    18
420
        0
176
     1
 90
       50
176
     1
 90
        3
176
     1
 62
     5
420
      255
176
     1
290
     0
176
     1
 90
       50
176
     1
 90
       50
176
     1
 90
       50
176
     1
290
     0
176
     1
 90
       50
176
     1
 62
   256
176
     0
 40
1.0
176
     0
 90
        2
176
     1
  1
strokes_ogs.tif
176
     1
290
     0
176
     1
 40
1.0
176
     1
 40
1.0
176
     1
1001
ACAD
1000
AcDbSavedByObjectVersion
1070
     0
  0
VISUALSTYLE
  5
82AA
102
{ACAD_REACTORS
330
8296
102
}
330
8296
100
AcDbVisualStyle
  2
Shaded with edges
 70
    26
177
     3
291
     0
 70
    58
 90
        2
176
     1
 90
        2
176
     1
 90
        1
176
     1
 90
        2
176
     1
 40
0.6
176
     1
 40
30.0
176
     1
 62
     7
420
 16777215
176
     1
 90
        1
176
     1
 90
        2
176
     1
 62
     7
176
     1
 62
   257
176
     1
 90
        2
176
     1
 90
        1
176
     1
 40
1.0
176
     1
 90
        8
176
     1
 62
   257
176
     1
 40
1.0
176
     1
 90
        1
176
     1
 90
        6
176
     1
 90
        2
176
     1
 62
     7
176
     1
 90
        3
176
     1
 90
        0
176
     1
 90
        0
176
     1
290
     0
176
     1
 90
        5
176
     1
 40
0.0
176
     1
 90
        0
176
     1
290
     0
176
     1
290
     1
176
     1
290
     1
176
     1
290
     0
176
     1
290
     0
176
     1
290
     0
176
     1
290
     0
176
     1
290
     0
176
     1
290
     0
176
     1
 90
       50
176
     1
 40
0.0
176
     1
 40
1.0
176
     1
 90
        0
176
     1
 62
    18
420
        0
176
     1
 90
       50
176
     1
 90
        3
176
     1
 62
     5
420
      255
176
     1
290
     0
176
     1
 90
       50
176
     1
 90
       50
176
     1
 90
       50
176
     1
290
     0
176
     1
 90
       50
176
     1
 62
   256
176
     0
 40
1.0
176
     0
 90
        2
176
     1
  1
strokes_ogs.tif
176
     1
290
     0
176
     1
 40
1.0
176
     1
 40
1.0
176
     1
1001
ACAD
1000
AcDbSavedByObjectVersion
1070
     0
  0
VISUALSTYLE
  5
82A7
102
{ACAD_REACTORS
330
8296
102
}
330
8296
100
AcDbVisualStyle
  2
Shades of Gray
 70
    23
177
     3
291
     0
 70
    58
 90
        2
176
     1
 90
        2
176
     1
 90
        3
176
     1
 90
        0
176
     1
 40
0.6
176
     1
 40
30.0
176
     1
 62
     7
420
 16777215
176
     1
 90
        2
176
     1
 90
        2
176
     1
 62
     7
176
     1
 62
     7
176
     1
 90
        1
176
     1
 90
        1
176
     1
 40
40.0
176
     1
 90
        8
176
     1
 62
     7
176
     1
 40
1.0
176
     1
 90
        1
176
     1
 90
        6
176
     1
 90
        2
176
     1
 62
     7
176
     1
 90
        3
176
     1
 90
        0
176
     1
 90
        0
176
     1
290
     0
176
     1
 90
        1
176
     1
 40
0.0
176
     1
 90
        0
176
     1
290
     0
176
     1
290
     1
176
     1
290
     1
176
     1
290
     0
176
     1
290
     0
176
     1
290
     0
176
     1
290
     0
176
     1
290
     0
176
     1
290
     0
176
     1
 90
       50
176
     1
 40
0.0
176
     1
 40
1.0
176
     1
 90
        0
176
     1
 62
    18
420
        0
176
     1
 90
       50
176
     1
 90
        3
176
     1
 62
     5
420
      255
176
     1
290
     0
176
     1
 90
       50
176
     1
 90
       50
176
     1
 90
       50
176
     1
290
     0
176
     1
 90
       50
176
     1
 62
   256
176
     0
 40
1.0
176
     0
 90
        2
176
     1
  1
strokes_ogs.tif
176
     1
290
     0
176
     1
 40
1.0
176
     1
 40
1.0
176
     1
1001
ACAD
1000
AcDbSavedByObjectVersion
1070
     0
  0
VISUALSTYLE
  5
82A8
102
{ACAD_REACTORS
330
8296
102
}
330
8296
100
AcDbVisualStyle
  2
Sketchy
 70
    24
177
     3
291
     0
 70
    58
 90
        1
176
     1
 90
        2
176
     1
 90
        2
176
     1
 90
        0
176
     1
 40
0.6
176
     1
 40
30.0
176
     1
 62
     7
420
 16777215
176
     1
 90
        2
176
     1
 90
        2
176
     1
 62
     7
176
     1
 62
     7
176
     1
 90
        1
176
     1
 90
        1
176
     1
 40
40.0
176
     1
 90
       11
176
     1
 62
     7
176
     1
 40
1.0
176
     1
 90
        1
176
     1
 90
        6
176
     1
 90
        2
176
     1
 62
     7
176
     1
 90
        6
176
     1
 90
        0
176
     1
 90
        0
176
     1
290
     0
176
     1
 90
        1
176
     1
 40
0.0
176
     1
 90
        0
176
     1
290
     0
176
     1
290
     1
176
     1
290
     1
176
     1
290
     0
176
     1
290
     0
176
     1
290
     0
176
     1
290
     0
176
     1
290
     0
176
     1
290
     0
176
     1
 90
       50
176
     1
 40
0.0
176
     1
 40
1.0
176
     1
 90
        0
176
     1
 62
    18
420
        0
176
     1
 90
       50
176
     1
 90
        3
176
     1
 62
     5
420
      255
176
     1
290
     0
176
     1
 90
       50
176
     1
 90
       50
176
     1
 90
       50
176
     1
290
     0
176
     1
 90
       50
176
     1
 62
   256
176
     0
 40
1.0
176
     0
 90
        2
176
     1
  1
strokes_ogs.tif
176
     1
290
     0
176
     1
 40
1.0
176
     1
 40
1.0
176
     1
1001
ACAD
1000
AcDbSavedByObjectVersion
1070
     0
  0
VISUALSTYLE
  5
82A3
102
{ACAD_REACTORS
330
8296
102
}
330
8296
100
AcDbVisualStyle
  2
Thicken
 70
    13
177
     3
291
     1
 70
    58
 90
        2
176
     1
 90
        2
176
     1
 90
        0
176
     1
 90
        0
176
     1
 40
0.6
176
     1
 40
30.0
176
     1
 62
     7
420
 16777215
176
     1
 90
        1
176
     1
 90
        4
176
     1
 62
     7
176
     1
 62
   257
176
     1
 90
        1
176
     1
 90
        1
176
     1
 40
1.0
176
     1
 90
       12
176
     1
 62
     7
176
     1
 40
1.0
176
     1
 90
        1
176
     1
 90
        6
176
     1
 90
        2
176
     1
 62
     7
176
     1
 90
        5
176
     1
 90
        0
176
     1
 90
        0
176
     1
290
     0
176
     1
 90
        1
176
     1
 40
0.0
176
     1
 90
        0
176
     1
290
     0
176
     1
290
     1
176
     1
290
     1
176
     1
290
     0
176
     1
290
     0
176
     1
290
     0
176
     1
290
     0
176
     1
290
     0
176
     1
290
     0
176
     1
 90
       50
176
     1
 40
0.0
176
     1
 40
1.0
176
     1
 90
        0
176
     1
 62
    18
420
        0
176
     1
 90
       50
176
     1
 90
        3
176
     1
 62
     5
420
      255
176
     1
290
     0
176
     1
 90
       50
176
     1
 90
       50
176
     1
 90
       50
176
     1
290
     0
176
     1
 90
       50
176
     1
 62
   256
176
     0
 40
1.0
176
     0
 90
        2
176
     1
  1
strokes_ogs.tif
176
     1
290
     0
176
     1
 40
1.0
176
     1
 40
1.0
176
     1
1001
ACAD
1000
AcDbSavedByObjectVersion
1070
     0
  0
VISUALSTYLE
  5
829D
102
{ACAD_REACTORS
330
8296
102
}
330
8296
100
AcDbVisualStyle
  2
Wireframe
 70
     5
177
     3
291
     0
 70
    58
 90
        0
176
     1
 90
        2
176
     1
 90
        0
176
     1
 90
        0
176
     1
 40
0.6
176
     1
 40
30.0
176
     1
 62
     7
420
 16777215
176
     1
 90
        1
176
     1
 90
        4
176
     1
 62
     7
176
     1
 62
   257
176
     1
 90
        1
176
     1
 90
        1
176
     1
 40
1.0
176
     1
 90
        0
176
     1
 62
   257
176
     1
 40
1.0
176
     1
 90
        1
176
     1
 90
        6
176
     1
 90
        2
176
     1
 62
     7
176
     1
 90
        3
176
     1
 90
        0
176
     1
 90
        0
176
     1
290
     0
176
     1
 90
        1
176
     1
 40
0.0
176
     1
 90
        0
176
     1
290
     0
176
     1
290
     1
176
     1
290
     1
176
     1
290
     0
176
     1
290
     0
176
     1
290
     0
176
     1
290
     0
176
     1
290
     0
176
     1
290
     0
176
     1
 90
       50
176
     1
 40
0.0
176
     1
 40
1.0
176
     1
 90
        0
176
     1
 62
    18
420
        0
176
     1
 90
       50
176
     1
 90
        3
176
     1
 62
     5
420
      255
176
     1
290
     0
176
     1
 90
       50
176
     1
 90
       50
176
     1
 90
       50
176
     1
290
     0
176
     1
 90
       50
176
     1
 62
   256
176
     0
 40
1.0
176
     0
 90
        2
176
     1
  1
strokes_ogs.tif
176
     1
290
     0
176
     1
 40
1.0
176
     1
 40
1.0
176
     1
1001
ACAD
1000
AcDbSavedByObjectVersion
1070
     0
  0
VISUALSTYLE
  5
82A9
102
{ACAD_REACTORS
330
8296
102
}
330
8296
100
AcDbVisualStyle
  2
X-Ray
 70
    25
177
     3
291
     0
 70
    58
 90
        2
176
     1
 90
        2
176
     1
 90
        1
176
     1
 90
        1
176
     1
 40
0.5
176
     1
 40
30.0
176
     1
 62
     7
420
 16777215
176
     1
 90
        1
176
     1
 90
        0
176
     1
 62
     7
176
     1
 62
   257
176
     1
 90
        1
176
     1
 90
        1
176
     1
 40
1.0
176
     1
 90
        8
176
     1
 62
     7
176
     1
 40
1.0
176
     1
 90
        1
176
     1
 90
        6
176
     1
 90
        2
176
     1
 62
     7
176
     1
 90
        3
176
     1
 90
        0
176
     1
 90
        0
176
     1
290
     0
176
     1
 90
       13
176
     1
 40
0.0
176
     1
 90
        0
176
     1
290
     0
176
     1
290
     1
176
     1
290
     1
176
     1
290
     0
176
     1
290
     0
176
     1
290
     0
176
     1
290
     0
176
     1
290
     0
176
     1
290
     0
176
     1
 90
       50
176
     1
 40
0.0
176
     1
 40
1.0
176
     1
 90
        0
176
     1
 62
    18
420
        0
176
     1
 90
       50
176
     1
 90
        3
176
     1
 62
     5
420
      255
176
     1
290
     0
176
     1
 90
       50
176
     1
 90
       50
176
     1
 90
       50
176
     1
290
     0
176
     1
 90
       50
176
     1
 62
   256
176
     0
 40
1.0
176
     0
 90
        2
176
     1
  1
strokes_ogs.tif
176
     1
290
     0
176
     1
 40
1.0
176
     1
 40
1.0
176
     1
1001
ACAD
1000
AcDbSavedByObjectVersion
1070
     0
  0
DICTIONARYVAR
  5
8366
102
{ACAD_REACTORS
330
8274
102
}
330
8274
100
DictionaryVariables
280
     0
  1
1:1
  0
DICTIONARYVAR
  5
8362
102
{ACAD_REACTORS
330
8274
102
}
330
8274
100
DictionaryVariables
280
     0
  1
STANDARD
  0
DICTIONARYVAR
  5
8361
102
{ACAD_REACTORS
330
8274
102
}
330
8274
100
DictionaryVariables
280
     0
  1
STANDARD
  0
DICTIONARYVAR
  5
8363
102
{ACAD_REACTORS
330
8274
102
}
330
8274
100
DictionaryVariables
280
     0
  1
Metric50
  0
DICTIONARYVAR
  5
8364
102
{ACAD_REACTORS
330
8274
102
}
330
8274
100
DictionaryVariables
280
     0
  1
Metric50
  0
DICTIONARYVAR
  5
8275
102
{ACAD_REACTORS
330
8274
102
}
330
8274
100
DictionaryVariables
280
     0
  1
1
  0
DICTIONARYVAR
  5
8368
102
{ACAD_REACTORS
330
8274
102
}
330
8274
100
DictionaryVariables
280
     0
  1
1
  0
DICTIONARYVAR
  5
8369
102
{ACAD_REACTORS
330
8274
102
}
330
8274
100
DictionaryVariables
280
     0
  1
15
  0
DICTIONARYVAR
  5
8367
102
{ACAD_REACTORS
330
8274
102
}
330
8274
100
DictionaryVariables
280
     0
  1
0
  0
DICTIONARYVAR
  5
836E
102
{ACAD_REACTORS
330
8274
102
}
330
8274
100
DictionaryVariables
280
     0
  1
0
  0
DICTIONARYVAR
  5
8365
102
{ACAD_REACTORS
330
8274
102
}
330
8274
100
DictionaryVariables
280
     0
  1
0
  0
DICTIONARY
  5
8379
102
{ACAD_REACTORS
330
8377
102
}
330
8377
100
AcDbDictionary
281
     1
  0
DICTIONARY
  5
8378
102
{ACAD_REACTORS
330
8377
102
}
330
8377
100
AcDbDictionary
281
     1
  3
2046794983584
350
8372
  3
2046794983600
350
8373
  3
2046794983616
350
8374
  3
2046794983632
350
8375
  3
2046794983648
350
8376
  0
DICTIONARY
  5
837C
330
82C9
100
AcDbDictionary
280
     1
281
     1
  3
ACAD_XREC_ROUNDTRIP
360
837D
  0
DICTIONARY
  5
8287
330
8286
100
AcDbDictionary
280
     1
281
     1
  3
BUMPTILE
360
8289
  3
DIFFUSETILE
360
8288
  3
OPACITYTILE
360
828C
  3
REFLECTIONTILE
360
828B
  3
REFRACTIONTILE
360
828D
  3
SPECULARTILE
360
828A
  0
DICTIONARY
  5
827F
330
827E
100
AcDbDictionary
280
     1
281
     1
  3
BUMPTILE
360
8281
  3
DIFFUSETILE
360
8280
  3
OPACITYTILE
360
8284
  3
REFLECTIONTILE
360
8283
  3
REFRACTIONTILE
360
8285
  3
SPECULARTILE
360
8282
  0
DICTIONARY
  5
828F
330
828E
100
AcDbDictionary
280
     1
281
     1
  3
BUMPTILE
360
8291
  3
DIFFUSETILE
360
8290
  3
OPACITYTILE
360
8294
  3
REFLECTIONTILE
360
8293
  3
REFRACTIONTILE
360
8295
  3
SPECULARTILE
360
8292
  0
DICTIONARY
  5
837A
330
82C7
100
AcDbDictionary
280
     1
281
     1
  3
ACAD_XREC_ROUNDTRIP
360
837B
  0
DICTIONARY
  5
836F
330
82B1
100
AcDbDictionary
280
     1
281
     1
  3
ACAD_ROUNDTRIP_2008_TABLESTYLE_CELLSTYLEMAP
360
8370
  0
XRECORD
  5
8372
102
{ACAD_REACTORS
330
8378
102
}
330
8378
100
AcDbXrecord
280
     1
  1
AcDb_Thumbnail_Schema
102
{ATTRRECORD
341
8373
  2
AcDbDs::TreatedAsObjectData
280
     1
291
     1
102
ATTRRECORD}
102
{ATTRRECORD
341
8374
  2
AcDbDs::Legacy
280
     1
291
     1
102
ATTRRECORD}
  2
AcDbDs::ID
280
    10
 91
        8
102
{ATTRRECORD
341
8375
  2
AcDs:Indexable
280
     1
291
     1
102
ATTRRECORD}
102
{ATTRRECORD
341
8376
  2
AcDbDs::HandleAttribute
280
     7
282
     1
102
ATTRRECORD}
  2
Thumbnail_Data
280
    15
 91
        0
  0
XRECORD
  5
8373
102
{ACAD_REACTORS
330
8378
102
}
330
8378
100
AcDbXrecord
280
     1
  1
AcDbDs::TreatedAsObjectDataSchema
  2
AcDbDs::TreatedAsObjectData
280
     1
 91
        0
  0
XRECORD
  5
8374
102
{ACAD_REACTORS
330
8378
102
}
330
8378
100
AcDbXrecord
280
     1
  1
AcDbDs::LegacySchema
  2
AcDbDs::Legacy
280
     1
 91
        0
  0
XRECORD
  5
8375
102
{ACAD_REACTORS
330
8378
102
}
330
8378
100
AcDbXrecord
280
     1
  1
AcDbDs::IndexedPropertySchema
  2
AcDs:Indexable
280
     1
 91
        0
  0
XRECORD
  5
8376
102
{ACAD_REACTORS
330
8378
102
}
330
8378
100
AcDbXrecord
280
     1
  1
AcDbDs::HandleAttributeSchema
  2
AcDbDs::HandleAttribute
280
     7
 91
        1
284
     1
  0
XRECORD
  5
837D
102
{ACAD_REACTORS
330
837C
102
}
330
837C
100
AcDbXrecord
280
     1
102
DISPLAYNAME
  1
Metric50
102
FLAGS
 90
        0
  0
XRECORD
  5
8289
102
{ACAD_REACTORS
330
8287
102
}
330
8287
100
AcDbXrecord
280
     1
270
     1
271
     1
  0
XRECORD
  5
8288
102
{ACAD_REACTORS
330
8287
102
}
330
8287
100
AcDbXrecord
280
     1
270
     1
271
     1
  0
XRECORD
  5
828C
102
{ACAD_REACTORS
330
8287
102
}
330
8287
100
AcDbXrecord
280
     1
270
     1
271
     1
  0
XRECORD
  5
828B
102
{ACAD_REACTORS
330
8287
102
}
330
8287
100
AcDbXrecord
280
     1
270
     1
271
     1
  0
XRECORD
  5
828D
102
{ACAD_REACTORS
330
8287
102
}
330
8287
100
AcDbXrecord
280
     1
270
     1
271
     1
  0
XRECORD
  5
828A
102
{ACAD_REACTORS
330
8287
102
}
330
8287
100
AcDbXrecord
280
     1
270
     1
271
     1
  0
XRECORD
  5
8281
102
{ACAD_REACTORS
330
827F
102
}
330
827F
100
AcDbXrecord
280
     1
270
     1
271
     1
  0
XRECORD
  5
8280
102
{ACAD_REACTORS
330
827F
102
}
330
827F
100
AcDbXrecord
280
     1
270
     1
271
     1
  0
XRECORD
  5
8284
102
{ACAD_REACTORS
330
827F
102
}
330
827F
100
AcDbXrecord
280
     1
270
     1
271
     1
  0
XRECORD
  5
8283
102
{ACAD_REACTORS
330
827F
102
}
330
827F
100
AcDbXrecord
280
     1
270
     1
271
     1
  0
XRECORD
  5
8285
102
{ACAD_REACTORS
330
827F
102
}
330
827F
100
AcDbXrecord
280
     1
270
     1
271
     1
  0
XRECORD
  5
8282
102
{ACAD_REACTORS
330
827F
102
}
330
827F
100
AcDbXrecord
280
     1
270
     1
271
     1
  0
XRECORD
  5
8291
102
{ACAD_REACTORS
330
828F
102
}
330
828F
100
AcDbXrecord
280
     1
270
     1
271
     1
  0
XRECORD
  5
8290
102
{ACAD_REACTORS
330
828F
102
}
330
828F
100
AcDbXrecord
280
     1
270
     1
271
     1
  0
XRECORD
  5
8294
102
{ACAD_REACTORS
330
828F
102
}
330
828F
100
AcDbXrecord
280
     1
270
     1
271
     1
  0
XRECORD
  5
8293
102
{ACAD_REACTORS
330
828F
102
}
330
828F
100
AcDbXrecord
280
     1
270
     1
271
     1
  0
XRECORD
  5
8295
102
{ACAD_REACTORS
330
828F
102
}
330
828F
100
AcDbXrecord
280
     1
270
     1
271
     1
  0
XRECORD
  5
8292
102
{ACAD_REACTORS
330
828F
102
}
330
828F
100
AcDbXrecord
280
     1
270
     1
271
     1
  0
XRECORD
  5
837B
102
{ACAD_REACTORS
330
837A
102
}
330
837A
100
AcDbXrecord
280
     1
102
DISPLAYNAME
  1
Metric50
102
FLAGS
 90
        0
  0
CELLSTYLEMAP
  5
8370
102
{ACAD_REACTORS
330
836F
102
}
330
836F
100
AcDbCellStyleMap
 90
        3
300
CELLSTYLE
  1
TABLEFORMAT_BEGIN
 90
        5
170
     1
 91
        0
 92
    32768
 62
   257
 93
        1
300
CONTENTFORMAT
  1
CONTENTFORMAT_BEGIN
 90
        0
 91
        0
 92
      512
 93
        0
300

 40
0.0
140
1.0
 94
        5
 62
     0
340
10
144
6.0
309
CONTENTFORMAT_END
171
     1
301
MARGIN
  1
CELLMARGIN_BEGIN
 40
1.5
 40
1.5
 40
1.5
 40
1.5
 40
4.5
 40
4.5
309
CELLMARGIN_END
 94
        6
 95
        1
302
GRIDFORMAT
  1
GRIDFORMAT_BEGIN
 90
        0
 91
        1
 62
     0
 92
       -2
340
0
 93
        0
 40
1.125
309
GRIDFORMAT_END
 95
        2
302
GRIDFORMAT
  1
GRIDFORMAT_BEGIN
 90
        0
 91
        1
 62
     0
 92
       -2
340
0
 93
        0
 40
1.125
309
GRIDFORMAT_END
 95
        4
302
GRIDFORMAT
  1
GRIDFORMAT_BEGIN
 90
        0
 91
        1
 62
     0
 92
       -2
340
0
 93
        0
 40
1.125
309
GRIDFORMAT_END
 95
        8
302
GRIDFORMAT
  1
GRIDFORMAT_BEGIN
 90
        0
 91
        1
 62
     0
 92
       -2
340
0
 93
        0
 40
1.125
309
GRIDFORMAT_END
 95
       16
302
GRIDFORMAT
  1
GRIDFORMAT_BEGIN
 90
        0
 91
        1
 62
     0
 92
       -2
340
0
 93
        0
 40
1.125
309
GRIDFORMAT_END
 95
       32
302
GRIDFORMAT
  1
GRIDFORMAT_BEGIN
 90
        0
 91
        1
 62
     0
 92
       -2
340
0
 93
        0
 40
1.125
309
GRIDFORMAT_END
309
TABLEFORMAT_END
  1
CELLSTYLE_BEGIN
 90
        1
 91
        1
300
_TITLE
309
CELLSTYLE_END
300
CELLSTYLE
  1
TABLEFORMAT_BEGIN
 90
        5
170
     1
 91
        0
 92
        0
 62
   257
 93
        1
300
CONTENTFORMAT
  1
CONTENTFORMAT_BEGIN
 90
        0
 91
        0
 92
      512
 93
        0
300

 40
0.0
140
1.0
 94
        5
 62
     0
340
10
144
4.5
309
CONTENTFORMAT_END
171
     1
301
MARGIN
  1
CELLMARGIN_BEGIN
 40
1.5
 40
1.5
 40
1.5
 40
1.5
 40
4.5
 40
4.5
309
CELLMARGIN_END
 94
        6
 95
        1
302
GRIDFORMAT
  1
GRIDFORMAT_BEGIN
 90
        0
 91
        1
 62
     0
 92
       -2
340
0
 93
        0
 40
1.125
309
GRIDFORMAT_END
 95
        2
302
GRIDFORMAT
  1
GRIDFORMAT_BEGIN
 90
        0
 91
        1
 62
     0
 92
       -2
340
0
 93
        0
 40
1.125
309
GRIDFORMAT_END
 95
        4
302
GRIDFORMAT
  1
GRIDFORMAT_BEGIN
 90
        0
 91
        1
 62
     0
 92
       -2
340
0
 93
        0
 40
1.125
309
GRIDFORMAT_END
 95
        8
302
GRIDFORMAT
  1
GRIDFORMAT_BEGIN
 90
        0
 91
        1
 62
     0
 92
       -2
340
0
 93
        0
 40
1.125
309
GRIDFORMAT_END
 95
       16
302
GRIDFORMAT
  1
GRIDFORMAT_BEGIN
 90
        0
 91
        1
 62
     0
 92
       -2
340
0
 93
        0
 40
1.125
309
GRIDFORMAT_END
 95
       32
302
GRIDFORMAT
  1
GRIDFORMAT_BEGIN
 90
        0
 91
        1
 62
     0
 92
       -2
340
0
 93
        0
 40
1.125
309
GRIDFORMAT_END
309
TABLEFORMAT_END
  1
CELLSTYLE_BEGIN
 90
        2
 91
        1
300
_HEADER
309
CELLSTYLE_END
300
CELLSTYLE
  1
TABLEFORMAT_BEGIN
 90
        5
170
     1
 91
        0
 92
        0
 62
   257
 93
        1
300
CONTENTFORMAT
  1
CONTENTFORMAT_BEGIN
 90
        0
 91
        0
 92
      512
 93
        0
300

 40
0.0
140
1.0
 94
        2
 62
     0
340
10
144
4.5
309
CONTENTFORMAT_END
171
     1
301
MARGIN
  1
CELLMARGIN_BEGIN
 40
1.5
 40
1.5
 40
1.5
 40
1.5
 40
4.5
 40
4.5
309
CELLMARGIN_END
 94
        6
 95
        1
302
GRIDFORMAT
  1
GRIDFORMAT_BEGIN
 90
        0
 91
        1
 62
     0
 92
       -2
340
0
 93
        0
 40
1.125
309
GRIDFORMAT_END
 95
        2
302
GRIDFORMAT
  1
GRIDFORMAT_BEGIN
 90
        0
 91
        1
 62
     0
 92
       -2
340
0
 93
        0
 40
1.125
309
GRIDFORMAT_END
 95
        4
302
GRIDFORMAT
  1
GRIDFORMAT_BEGIN
 90
        0
 91
        1
 62
     0
 92
       -2
340
0
 93
        0
 40
1.125
309
GRIDFORMAT_END
 95
        8
302
GRIDFORMAT
  1
GRIDFORMAT_BEGIN
 90
        0
 91
        1
 62
     0
 92
       -2
340
0
 93
        0
 40
1.125
309
GRIDFORMAT_END
 95
       16
302
GRIDFORMAT
  1
GRIDFORMAT_BEGIN
 90
        0
 91
        1
 62
     0
 92
       -2
340
0
 93
        0
 40
1.125
309
GRIDFORMAT_END
 95
       32
302
GRIDFORMAT
  1
GRIDFORMAT_BEGIN
 90
        0
 91
        1
 62
     0
 92
       -2
340
0
 93
        0
 40
1.125
309
GRIDFORMAT_END
309
TABLEFORMAT_END
  1
CELLSTYLE_BEGIN
 90
        3
 91
        2
300
_DATA
309
CELLSTYLE_END
  0
ENDSEC
  0
SECTION
  2
ACDSDATA
 70
     2
 71
     8
  0
ACDSSCHEMA
 90
        0
  1
AcDb_Thumbnail_Schema
  2
AcDbDs::ID
280
    10
 91
        8
  2
Thumbnail_Data
280
    15
 91
        0
101
ACDSRECORD
 95
        0
 90
        1
  2
AcDbDs::TreatedAsObjectData
280
     1
291
     1
101
ACDSRECORD
 95
        0
 90
        2
  2
AcDbDs::Legacy
280
     1
291
     1
101
ACDSRECORD
  1
AcDbDs::ID
 90
        3
  2
AcDs:Indexable
280
     1
291
     1
101
ACDSRECORD
  1
AcDbDs::ID
 90
        4
  2
AcDbDs::HandleAttribute
280
     7
282
     1
  0
ACDSSCHEMA
 90
        1
  1
AcDbDs::TreatedAsObjectDataSchema
  2
AcDbDs::TreatedAsObjectData
280
     1
 91
        0
  0
ACDSSCHEMA
 90
        2
  1
AcDbDs::LegacySchema
  2
AcDbDs::Legacy
280
     1
 91
        0
  0
ACDSSCHEMA
 90
        3
  1
AcDbDs::IndexedPropertySchema
  2
AcDs:Indexable
280
     1
 91
        0
  0
ACDSSCHEMA
 90
        4
  1
AcDbDs::HandleAttributeSchema
  2
AcDbDs::HandleAttribute
280
     7
 91
        1
284
     1
  0
ACDSRECORD
 90
        0
  2
AcDbDs::ID
280
    10
320
8188
  2
Thumbnail_Data
280
    15
 94
     1750
310
89504E470D0A1A0A0000000D49484452000001000000007C0803000000B13B9E5A00000300504C5445000000000000C8C8C80000000000000000000000000000000000000000000000000000330000660000990000CC0000FF0033000033330033660033990033CC0033FF0066000066330066660066990066CC0066FF0099
310
000099330099660099990099CC0099FF00CC0000CC3300CC6600CC9900CCCC00CCFF00FF0000FF3300FF6600FF9900FFCC00FFFF3300003300333300663300993300CC3300FF3333003333333333663333993333CC3333FF3366003366333366663366993366CC3366FF3399003399333399663399993399CC3399FF33CC00
310
33CC3333CC6633CC9933CCCC33CCFF33FF0033FF3333FF6633FF9933FFCC33FFFF6600006600336600666600996600CC6600FF6633006633336633666633996633CC6633FF6666006666336666666666996666CC6666FF6699006699336699666699996699CC6699FF66CC0066CC3366CC6666CC9966CCCC66CCFF66FF0066
310
FF3366FF6666FF9966FFCC66FFFF9900009900339900669900999900CC9900FF9933009933339933669933999933CC9933FF9966009966339966669966999966CC9966FF9999009999339999669999999999CC9999FF99CC0099CC3399CC6699CC9999CCCC99CCFF99FF0099FF3399FF6699FF9999FFCC99FFFFCC0000CC00
310
33CC0066CC0099CC00CCCC00FFCC3300CC3333CC3366CC3399CC33CCCC33FFCC6600CC6633CC6666CC6699CC66CCCC66FFCC9900CC9933CC9966CC9999CC99CCCC99FFCCCC00CCCC33CCCC66CCCC99CCCCCCCCCCFFCCFF00CCFF33CCFF66CCFF99CCFFCCCCFFFFFF0000FF0033FF0066FF0099FF00CCFF00FFFF3300FF3333
310
FF3366FF3399FF33CCFF33FFFF6600FF6633FF6666FF6699FF66CCFF66FFFF9900FF9933FF9966FF9999FF99CCFF99FFFFCC00FFCC33FFCC66FFCC99FFCCCCFFCCFFFFFF00FFFF33FFFF66FFFF99FFFFCCFFFFFF0000000D0D0D1A1A1A2828283535354343435050505D5D5D6B6B6B787878868686939393A1A1A1AEAEAEBB
310
BBBBC9C9C9D6D6D6E4E4E4F1F1F1FFFFFF00000000000000000000000000000000000000000000000000000000000008F1915C000003914944415478DAED9D5B6EEC200C86BD1C5EBCFFCD781BBC9F09D86008643A52AB33D8466A0399241A3E7E6C73690AF00729FF518253523EEAB10120000480001000BEE79B3E383F2F
310
00A6DBB34B05B807903D03987AC1D9007E75047024802F7B5800F80F0058C74AD279C88388BC5EDB7B0E9FB400006AA5A1571BB828362F678E00B26421CB6F130A809D7D6305D4BA7605A80FAC740109F2B2EE13CF75CB6104230E7038187ADB250E04B068D2D111F22DCD43683F681E8078831E30407787C60080727E238D
310
06004C02F8ADFB634E300004803301D02BE97C2F390040FBE404C032BB28068000E00540720B006B4A7C24FCD4121E0D005B4A2DF7A90CCE06D0CE2450A70240000800012000980570F979EDF36E00CCC701D45B1ED32D617205C0BD021C0228D51303E018C0ABC6E8D30B0400EF00AA1114008BE40A809E175147D700C009
310
00DCA8DF0180612C704FE4624E709804EC7382E07156784A0ED70546C907002700BCAF0E1FF0D82FFBA65A1E935202C0E1007ED0F19FAD850700CBC2D100E82337B0769A67039824A032BE00941AD77A53CD6C1560CB06D04357D801E04252EC0C006867D2432C6C1E409B06D88881E4A271E2C00C006C0DAB260468767838
310
29C00E8032115626444A5E2CDE0E403B8A464E0780754234150CD7C2D81B0083020C0028CD8ED205D02780EB2721A35801C0A28D1B000B5DA0D6BFCE89D7FCC2080E0BC916015C045269FEEEDD26007D378D290089EAA618C47228851E030C00D2BC9BC688026AED2E1B200AC03A20D041F16605C502805A69EEE6BC5AFCFA
310
90E00600A413A47ECA02002150BDC003806607256444190F9C0C80EB55FAB8F05803E08091010CABA80703E8F2BF56CBB9B01818F7E6AFCBEA08360048BF672B8F2AC4DF01287DC5C858806B2C315E1AC6387B00F72D86670290ED100883715700D68190928A010012FE0F007009406C40B9108F0790885B5264A001542F80
310
238094965EE06C05F4119EB8410560A1005471009A00A0B78961B70AF75018D4D5A981320000577F3748BC3EF06E2C703480379BC46E2B04E60028ABB72EC276C9343D3FF61C054CDBE468A1005A29804C28807A33AB19A0D2F7A7F1622FF1B5C477916D00F400002C0078B33D6036004F8BA826F7087DB25DCEE82629F700
310
20000480001000FC0070FF56D9CF6BE602807EEB28CCEF1F35060016FF3A4DBD715DDEB46E17807B1BB056C0F0627D8F36C025804DBF70A48078BB7C84C201200004800010000280410007FDEBED7F932C6E86247EC5DE0000000049454E44AE426082
  0
ENDSEC
  0
EOF
