  0
SECTION
  2
HEADER
  9
$ACADVER
  1
AC1027
  9
$ACADMAINTVER
 70
   125
  9
$DWGCODEPAGE
  3
ANSI_932
  9
$LASTSAVEDBY
  1
yasukiyo.ogawa
  9
$REQUIREDVERSIONS
160
                 0
  9
$INSBASE
 10
0.0
 20
0.0
 30
0.0
  9
$EXTMIN
 10
0.0
 20
0.0
 30
0.0
  9
$EXTMAX
 10
7350.0
 20
10325.0
 30
0.0
  9
$LIMMIN
 10
0.0
 20
0.0
  9
$LIMMAX
 10
297.0
 20
210.0
  9
$ORTHOMODE
 70
     1
  9
$REGENMODE
 70
     1
  9
$FILLMODE
 70
     0
  9
$QTEXTMODE
 70
     0
  9
$MIRRTEXT
 70
     1
  9
$LTSCALE
 40
100.0
  9
$ATTMODE
 70
     1
  9
$TEXTSIZE
 40
180.0
  9
$TRACEWID
 40
0.05
  9
$TEXTSTYLE
  7
STANDARD
  9
$CLAYER
  8
3
  9
$CELTYPE
  6
BYLAYER
  9
$CECOLOR
 62
   256
  9
$CELTSCALE
 40
1.0
  9
$DISPSILH
 70
     0
  9
$DIMSCALE
 40
35.0
  9
$DIMASZ
 40
2.0
  9
$DIMEXO
 40
0.5
  9
$DIMDLI
 40
10.0
  9
$DIMRND
 40
0.0
  9
$DIMDLE
 40
0.0
  9
$DIMEXE
 40
1.0
  9
$DIMTP
 40
1.0
  9
$DIMTM
 40
1.0
  9
$DIMTXT
 40
3.0
  9
$DIMCEN
 40
0.0
  9
$DIMTSZ
 40
0.0
  9
$DIMTOL
 70
     0
  9
$DIMLIM
 70
     0
  9
$DIMTIH
 70
     0
  9
$DIMTOH
 70
     0
  9
$DIMSE1
 70
     0
  9
$DIMSE2
 70
     0
  9
$DIMTAD
 70
     1
  9
$DIMZIN
 70
     8
  9
$DIMBLK
  1

  9
$DIMASO
 70
     1
  9
$DIMSHO
 70
     1
  9
$DIMPOST
  1
(<>)
  9
$DIMAPOST
  1

  9
$DIMALT
 70
     0
  9
$DIMALTD
 70
     2
  9
$DIMALTF
 40
0.039
  9
$DIMLFAC
 40
1.0
  9
$DIMTOFL
 70
     1
  9
$DIMTVP
 40
0.0
  9
$DIMTIX
 70
     0
  9
$DIMSOXD
 70
     0
  9
$DIMSAH
 70
     1
  9
$DIMBLK1
  1
OPEN
  9
$DIMBLK2
  1
OPEN
  9
$DIMSTYLE
  2
IGA
  9
$DIMCLRD
 70
     0
  9
$DIMCLRE
 70
     0
  9
$DIMCLRT
 70
     0
  9
$DIMTFAC
 40
10.0
  9
$DIMGAP
 40
1.0
  9
$DIMJUST
 70
     0
  9
$DIMSD1
 70
     0
  9
$DIMSD2
 70
     0
  9
$DIMTOLJ
 70
     1
  9
$DIMTZIN
 70
     8
  9
$DIMALTZ
 70
     0
  9
$DIMALTTZ
 70
     0
  9
$DIMUPT
 70
     0
  9
$DIMDEC
 70
     0
  9
$DIMTDEC
 70
     0
  9
$DIMALTU
 70
     2
  9
$DIMALTTD
 70
     2
  9
$DIMTXSTY
  7
STANDARD
  9
$DIMAUNIT
 70
     0
  9
$DIMADEC
 70
     0
  9
$DIMALTRND
 40
0.0
  9
$DIMAZIN
 70
     0
  9
$DIMDSEP
 70
    46
  9
$DIMATFIT
 70
     3
  9
$DIMFRAC
 70
     0
  9
$DIMLDRBLK
  1
OPEN
  9
$DIMLUNIT
 70
     2
  9
$DIMLWD
 70
    -2
  9
$DIMLWE
 70
    -2
  9
$DIMTMOVE
 70
     2
  9
$DIMFXL
 40
1.0
  9
$DIMFXLON
 70
     0
  9
$DIMJOGANG
 40
0.7853981633974483
  9
$DIMTFILL
 70
     0
  9
$DIMTFILLCLR
 70
     0
  9
$DIMARCSYM
 70
     0
  9
$DIMLTYPE
  6

  9
$DIMLTEX1
  6

  9
$DIMLTEX2
  6

  9
$DIMTXTDIRECTION
 70
     0
  9
$LUNITS
 70
     2
  9
$LUPREC
 70
     3
  9
$SKETCHINC
 40
0.1
  9
$FILLETRAD
 40
50.0
  9
$AUNITS
 70
     0
  9
$AUPREC
 70
     0
  9
$MENU
  1
acad
  9
$ELEVATION
 40
0.0
  9
$PELEVATION
 40
0.0
  9
$THICKNESS
 40
0.0
  9
$LIMCHECK
 70
     0
  9
$CHAMFERA
 40
0.5
  9
$CHAMFERB
 40
0.5
  9
$CHAMFERC
 40
20.0
  9
$CHAMFERD
 40
0.0
  9
$SKPOLY
 70
     0
  9
$TDCREATE
 40
2451382.580347222
  9
$TDUCREATE
 40
2451382.205353241
  9
$TDUPDATE
 40
2460241.660150463
  9
$TDUUPDATE
 40
2460241.285154780
  9
$TDINDWG
 40
0.0238619213
  9
$TDUSRTIMER
 40
0.0238619213
  9
$USRTIMER
 70
     1
  9
$ANGBASE
 50
0.0
  9
$ANGDIR
 70
     0
  9
$PDMODE
 70
     0
  9
$PDSIZE
 40
0.0
  9
$PLINEWID
 40
0.0
  9
$SPLFRAME
 70
     0
  9
$SPLINETYPE
 70
     6
  9
$SPLINESEGS
 70
     8
  9
$HANDSEED
  5
8470
  9
$SURFTAB1
 70
     6
  9
$SURFTAB2
 70
     6
  9
$SURFTYPE
 70
     6
  9
$SURFU
 70
     6
  9
$SURFV
 70
     6
  9
$UCSBASE
  2

  9
$UCSNAME
  2

  9
$UCSORG
 10
0.0
 20
0.0
 30
0.0
  9
$UCSXDIR
 10
1.0
 20
0.0
 30
0.0
  9
$UCSYDIR
 10
0.0
 20
1.0
 30
0.0
  9
$UCSORTHOREF
  2

  9
$UCSORTHOVIEW
 70
     0
  9
$UCSORGTOP
 10
0.0
 20
0.0
 30
0.0
  9
$UCSORGBOTTOM
 10
0.0
 20
0.0
 30
0.0
  9
$UCSORGLEFT
 10
0.0
 20
0.0
 30
0.0
  9
$UCSORGRIGHT
 10
0.0
 20
0.0
 30
0.0
  9
$UCSORGFRONT
 10
0.0
 20
0.0
 30
0.0
  9
$UCSORGBACK
 10
0.0
 20
0.0
 30
0.0
  9
$PUCSBASE
  2

  9
$PUCSNAME
  2

  9
$PUCSORG
 10
0.0
 20
0.0
 30
0.0
  9
$PUCSXDIR
 10
1.0
 20
0.0
 30
0.0
  9
$PUCSYDIR
 10
0.0
 20
1.0
 30
0.0
  9
$PUCSORTHOREF
  2

  9
$PUCSORTHOVIEW
 70
     0
  9
$PUCSORGTOP
 10
0.0
 20
0.0
 30
0.0
  9
$PUCSORGBOTTOM
 10
0.0
 20
0.0
 30
0.0
  9
$PUCSORGLEFT
 10
0.0
 20
0.0
 30
0.0
  9
$PUCSORGRIGHT
 10
0.0
 20
0.0
 30
0.0
  9
$PUCSORGFRONT
 10
0.0
 20
0.0
 30
0.0
  9
$PUCSORGBACK
 10
0.0
 20
0.0
 30
0.0
  9
$USERI1
 70
     0
  9
$USERI2
 70
     0
  9
$USERI3
 70
     0
  9
$USERI4
 70
     0
  9
$USERI5
 70
     0
  9
$USERR1
 40
0.0
  9
$USERR2
 40
0.0
  9
$USERR3
 40
0.0
  9
$USERR4
 40
0.0
  9
$USERR5
 40
0.0
  9
$WORLDVIEW
 70
     1
  9
$SHADEDGE
 70
     3
  9
$SHADEDIF
 70
    70
  9
$TILEMODE
 70
     1
  9
$MAXACTVP
 70
    16
  9
$PINSBASE
 10
0.0
 20
0.0
 30
0.0
  9
$PLIMCHECK
 70
     0
  9
$PEXTMIN
 10
1.000000000000000E+20
 20
1.000000000000000E+20
 30
1.000000000000000E+20
  9
$PEXTMAX
 10
-1.000000000000000E+20
 20
-1.000000000000000E+20
 30
-1.000000000000000E+20
  9
$PLIMMIN
 10
0.0
 20
0.0
  9
$PLIMMAX
 10
12.0
 20
9.0
  9
$UNITMODE
 70
     0
  9
$VISRETAIN
 70
     0
  9
$PLINEGEN
 70
     0
  9
$PSLTSCALE
 70
     1
  9
$TREEDEPTH
 70
  3020
  9
$CMLSTYLE
  2
STANDARD
  9
$CMLJUST
 70
     0
  9
$CMLSCALE
 40
20.0
  9
$PROXYGRAPHICS
 70
     1
  9
$MEASUREMENT
 70
     1
  9
$CELWEIGHT
370
    -1
  9
$ENDCAPS
280
     0
  9
$JOINSTYLE
280
     0
  9
$LWDISPLAY
290
     0
  9
$INSUNITS
 70
     0
  9
$HYPERLINKBASE
  1

  9
$STYLESHEET
  1

  9
$XEDIT
290
     1
  9
$CEPSNTYPE
380
     0
  9
$PSTYLEMODE
290
     1
  9
$FINGERPRINTGUID
  2
{60E8BA44-4986-4C6C-AD04-E8767540A69C}
  9
$VERSIONGUID
  2
{58C9AB0E-C3EC-46E0-A637-076628F2B2AD}
  9
$EXTNAMES
290
     1
  9
$PSVPSCALE
 40
0.0
  9
$OLESTARTUP
290
     0
  9
$SORTENTS
280
   127
  9
$INDEXCTL
280
     0
  9
$HIDETEXT
280
     0
  9
$XCLIPFRAME
280
     2
  9
$HALOGAP
280
     0
  9
$OBSCOLOR
 70
   257
  9
$OBSLTYPE
280
     0
  9
$INTERSECTIONDISPLAY
280
     0
  9
$INTERSECTIONCOLOR
 70
   257
  9
$DIMASSOC
280
     1
  9
$PROJECTNAME
  1

  9
$CAMERADISPLAY
290
     0
  9
$LENSLENGTH
 40
50.0
  9
$CAMERAHEIGHT
 40
0.0
  9
$STEPSPERSEC
 40
2.0
  9
$STEPSIZE
 40
6.0
  9
$3DDWFPREC
 40
2.0
  9
$PSOLWIDTH
 40
0.25
  9
$PSOLHEIGHT
 40
4.0
  9
$LOFTANG1
 40
1.570796326794896
  9
$LOFTANG2
 40
1.570796326794896
  9
$LOFTMAG1
 40
0.0
  9
$LOFTMAG2
 40
0.0
  9
$LOFTPARAM
 70
     7
  9
$LOFTNORMALS
280
     1
  9
$LATITUDE
 40
37.795
  9
$LONGITUDE
 40
-122.394
  9
$NORTHDIRECTION
 40
0.0
  9
$TIMEZONE
 70
 -8000
  9
$LIGHTGLYPHDISPLAY
280
     1
  9
$TILEMODELIGHTSYNCH
280
     1
  9
$CMATERIAL
347
839D
  9
$SOLIDHIST
280
     0
  9
$SHOWHIST
280
     1
  9
$DWFFRAME
280
     2
  9
$DGNFRAME
280
     0
  9
$REALWORLDSCALE
290
     1
  9
$INTERFERECOLOR
 62
     1
  9
$INTERFEREOBJVS
345
83BF
  9
$INTERFEREVPVS
346
83BC
  9
$CSHADOW
280
     0
  9
$SHADOWPLANELOCATION
 40
0.0
  0
ENDSEC
  0
SECTION
  2
CLASSES
  0
CLASS
  1
ACDBDICTIONARYWDFLT
  2
AcDbDictionaryWithDefault
  3
ObjectDBX Classes
 90
        0
 91
        1
280
     0
281
     0
  0
CLASS
  1
DICTIONARYVAR
  2
AcDbDictionaryVar
  3
ObjectDBX Classes
 90
        0
 91
       11
280
     0
281
     0
  0
CLASS
  1
MATERIAL
  2
AcDbMaterial
  3
ObjectDBX Classes
 90
     1153
 91
        3
280
     0
281
     0
  0
CLASS
  1
VISUALSTYLE
  2
AcDbVisualStyle
  3
ObjectDBX Classes
 90
     4095
 91
       24
280
     0
281
     0
  0
CLASS
  1
TABLESTYLE
  2
AcDbTableStyle
  3
ObjectDBX Classes
 90
     4095
 91
        1
280
     0
281
     0
  0
CLASS
  1
SCALE
  2
AcDbScale
  3
ObjectDBX Classes
 90
     1153
 91
       17
280
     0
281
     0
  0
CLASS
  1
MLEADERSTYLE
  2
AcDbMLeaderStyle
  3
ACDB_MLEADERSTYLE_CLASS
 90
     4095
 91
        1
280
     0
281
     0
  0
CLASS
  1
ACDBSECTIONVIEWSTYLE
  2
AcDbSectionViewStyle
  3
ObjectDBX Classes
 90
     1025
 91
        1
280
     0
281
     0
  0
CLASS
  1
ACDBDETAILVIEWSTYLE
  2
AcDbDetailViewStyle
  3
ObjectDBX Classes
 90
     1025
 91
        1
280
     0
281
     0
  0
CLASS
  1
CELLSTYLEMAP
  2
AcDbCellStyleMap
  3
ObjectDBX Classes
 90
     1152
 91
        1
280
     0
281
     0
  0
ENDSEC
  0
SECTION
  2
TABLES
  0
TABLE
  2
VPORT
  5
8
330
0
100
AcDbSymbolTable
 70
     1
1001
ACAD
1000
DbSaveVer
1071
      278
  0
VPORT
  5
839A
330
8
100
AcDbSymbolTableRecord
100
AcDbViewportTableRecord
  2
*Active
 70
     0
 10
0.0
 20
0.0
 11
1.0
 21
1.0
 12
4714.698658823925
 22
5162.500024039763
 13
0.0
 23
0.0
 14
10.0
 24
10.0
 15
10.0
 25
10.0
 16
0.0
 26
0.0
 36
1.0
 17
0.0
 27
0.0
 37
0.0
 40
10391.74948481712
 41
2.250314465408805
 42
50.0
 43
0.0
 44
0.0
 50
0.0
 51
0.0
 71
     0
 72
   100
 73
     1
 74
     0
 75
     0
 76
     0
 77
     0
 78
     0
281
     0
 65
     1
110
0.0
120
0.0
130
0.0
111
1.0
121
0.0
131
0.0
112
0.0
122
1.0
132
0.0
 79
     0
146
0.0
348
83BB
 60
     3
 61
     5
292
     1
282
     1
141
0.0
142
0.0
 63
   250
421
  3355443
1001
ACAD_NAV_VCDISPLAY
1070
     3
  0
ENDTAB
  0
TABLE
  2
LTYPE
  5
5
330
0
100
AcDbSymbolTable
 70
     2
  0
LTYPE
  5
13
330
5
100
AcDbSymbolTableRecord
100
AcDbLinetypeTableRecord
  2
BYBLOCK
 70
     0
  3

 72
    65
 73
     0
 40
0.0
  0
LTYPE
  5
14
330
5
100
AcDbSymbolTableRecord
100
AcDbLinetypeTableRecord
  2
BYLAYER
 70
     0
  3

 72
    65
 73
     0
 40
0.0
  0
LTYPE
  5
15
330
5
100
AcDbSymbolTableRecord
100
AcDbLinetypeTableRecord
  2
CONTINUOUS
 70
     0
  3
Solid line
 72
    65
 73
     0
 40
0.0
  0
LTYPE
  5
1F
330
5
100
AcDbSymbolTableRecord
100
AcDbLinetypeTableRecord
  2
CENTER
 70
     0
  3
____ _ ____ _ ____ _ ____ _ ____ _ ____ _ ____ 
 72
    65
 73
     4
 40
2.0
 49
1.25
 74
     0
 49
-0.25
 74
     0
 49
0.25
 74
     0
 49
-0.25
 74
     0
  0
ENDTAB
  0
TABLE
  2
LAYER
  5
2
102
{ACAD_XDICTIONARY
360
8432
102
}
330
0
100
AcDbSymbolTable
 70
     6
  0
LAYER
  5
F
102
{ACAD_XDICTIONARY
360
8425
102
}
330
2
100
AcDbSymbolTableRecord
100
AcDbLayerTableRecord
  2
0
 70
     0
 62
     7
  6
CONTINUOUS
370
    -3
390
81B8
347
83AD
348
0
  0
LAYER
  5
31
102
{ACAD_XDICTIONARY
360
8427
102
}
330
2
100
AcDbSymbolTableRecord
100
AcDbLayerTableRecord
  2
3
 70
     0
 62
     2
  6
CONTINUOUS
370
    -3
390
81B8
347
83AD
348
0
  0
LAYER
  5
76D0
102
{ACAD_XDICTIONARY
360
8429
102
}
330
2
100
AcDbSymbolTableRecord
100
AcDbLayerTableRecord
  2
2
 70
     0
 62
     3
  6
CENTER
370
    -3
390
81B8
347
83AD
348
0
  0
LAYER
  5
76D1
102
{ACAD_XDICTIONARY
360
842B
102
}
330
2
100
AcDbSymbolTableRecord
100
AcDbLayerTableRecord
  2
1
 70
     0
 62
     4
  6
CONTINUOUS
370
    -3
390
81B8
347
83AD
348
0
  0
LAYER
  5
76D2
102
{ACAD_XDICTIONARY
360
842D
102
}
330
2
100
AcDbSymbolTableRecord
100
AcDbLayerTableRecord
  2
4
 70
     0
 62
     7
  6
CONTINUOUS
370
    -3
390
81B8
347
83AD
348
0
  0
LAYER
  5
7B4A
330
2
100
AcDbSymbolTableRecord
100
AcDbLayerTableRecord
  2
DEFPOINTS
 70
     0
 62
     7
  6
CONTINUOUS
290
     0
370
    -3
390
81B8
347
83AD
348
0
  0
ENDTAB
  0
TABLE
  2
STYLE
  5
3
330
0
100
AcDbSymbolTable
 70
     1
  0
STYLE
  5
10
330
3
100
AcDbSymbolTableRecord
100
AcDbTextStyleTableRecord
  2
STANDARD
 70
     0
 40
0.0
 41
1.0
 50
0.0
 71
     0
 42
180.0
  3
simplex.shx
  4
extfont.shx
  0
ENDTAB
  0
TABLE
  2
VIEW
  5
6
330
0
100
AcDbSymbolTable
 70
     0
  0
ENDTAB
  0
TABLE
  2
UCS
  5
7
330
0
100
AcDbSymbolTable
 70
     0
  0
ENDTAB
  0
TABLE
  2
APPID
  5
9
330
0
100
AcDbSymbolTable
 70
     4
  0
APPID
  5
11
330
9
100
AcDbSymbolTableRecord
100
AcDbRegAppTableRecord
  2
ACAD
 70
     0
  0
APPID
  5
83EC
330
9
100
AcDbSymbolTableRecord
100
AcDbRegAppTableRecord
  2
AcadAnnoMonitorAlertIconDisabled
 70
     0
  0
APPID
  5
83ED
330
9
100
AcDbSymbolTableRecord
100
AcDbRegAppTableRecord
  2
ACAD_EXEMPT_FROM_CAD_STANDARDS
 70
     0
  0
APPID
  5
8438
330
9
100
AcDbSymbolTableRecord
100
AcDbRegAppTableRecord
  2
ACAD_NAV_VCDISPLAY
 70
     0
  0
ENDTAB
  0
TABLE
  2
DIMSTYLE
  5
A
330
0
100
AcDbSymbolTable
 70
     1
100
AcDbDimStyleTable
 71
     1
340
1D
  0
DIMSTYLE
105
1D
102
{ACAD_REACTORS
330
7C3E
330
7C40
330
7C46
330
7C6C
330
7C6D
330
7C6E
330
7C70
330
7C73
330
7C82
330
7C87
330
7C89
330
7C9A
330
7C9B
330
7CA4
330
7CC8
330
7CC9
330
7CDB
330
7CDC
330
7CDE
330
7CDF
330
7CE0
330
81A2
330
81AF
102
}
330
A
100
AcDbSymbolTableRecord
100
AcDbDimStyleTableRecord
  2
IGA
 70
     0
 40
2.0
 41
2.0
 42
0.5
 43
10.0
 44
1.0
 47
1.0
 48
1.0
 73
     0
 74
     0
 77
     1
 78
     8
140
3.0
141
0.0
143
0.03937
146
10.0
147
1.0
173
     1
271
     1
272
     0
279
     2
284
     8
340
10
341
7B04
343
7B04
344
7B04
  0
ENDTAB
  0
TABLE
  2
BLOCK_RECORD
  5
1
330
0
100
AcDbSymbolTable
 70
    26
  0
BLOCK_RECORD
  5
19
102
{ACAD_XDICTIONARY
360
82CF
102
}
330
1
100
AcDbSymbolTableRecord
100
AcDbBlockTableRecord
  2
*MODEL_SPACE
340
81BB
 70
     0
280
     1
281
     0
  0
BLOCK_RECORD
  5
16
102
{ACAD_XDICTIONARY
360
82CD
102
}
330
1
100
AcDbSymbolTableRecord
100
AcDbBlockTableRecord
  2
*PAPER_SPACE
340
81BC
 70
     0
280
     1
281
     0
  0
BLOCK_RECORD
  5
79FC
330
1
100
AcDbSymbolTableRecord
100
AcDbBlockTableRecord
  2
YA_N
340
0
102
{BLKREFS
331
7C20
331
7C24
331
7C26
102
}
 70
     0
280
     1
281
     0
  0
BLOCK_RECORD
  5
7B04
330
1
100
AcDbSymbolTableRecord
100
AcDbBlockTableRecord
  2
_OPEN
340
0
102
{BLKREFS
331
837C
331
837D
331
8385
331
8386
331
8167
331
819B
331
819C
331
81A8
331
81A9
331
82D8
331
82D9
331
82E1
331
82E2
331
82EA
331
82EB
331
8305
331
8306
331
830E
331
830F
331
8317
331
8318
331
8320
331
8321
331
8329
331
832A
331
8332
331
8333
331
833B
331
833C
331
8344
331
8345
331
834D
331
834E
331
8356
331
8357
331
835F
331
8360
331
836B
331
8373
331
8374
331
8416
331
8417
331
841F
331
8420
102
}
 70
     0
280
     1
281
     0
  0
BLOCK_RECORD
  5
7CEC
330
1
100
AcDbSymbolTableRecord
100
AcDbBlockTableRecord
  2
*D2
340
0
 70
     0
280
     1
281
     0
  0
BLOCK_RECORD
  5
7CF8
330
1
100
AcDbSymbolTableRecord
100
AcDbBlockTableRecord
  2
*D3
340
0
 70
     0
280
     1
281
     0
  0
BLOCK_RECORD
  5
7D10
330
1
100
AcDbSymbolTableRecord
100
AcDbBlockTableRecord
  2
*D4
340
0
 70
     0
280
     1
281
     0
  0
BLOCK_RECORD
  5
7D1C
330
1
100
AcDbSymbolTableRecord
100
AcDbBlockTableRecord
  2
*D5
340
0
 70
     0
280
     1
281
     0
  0
BLOCK_RECORD
  5
7D28
330
1
100
AcDbSymbolTableRecord
100
AcDbBlockTableRecord
  2
*D6
340
0
 70
     0
280
     1
281
     0
  0
BLOCK_RECORD
  5
7D34
330
1
100
AcDbSymbolTableRecord
100
AcDbBlockTableRecord
  2
*D7
340
0
 70
     0
280
     1
281
     0
  0
BLOCK_RECORD
  5
7D40
330
1
100
AcDbSymbolTableRecord
100
AcDbBlockTableRecord
  2
*D8
340
0
 70
     0
280
     1
281
     0
  0
BLOCK_RECORD
  5
7D4C
330
1
100
AcDbSymbolTableRecord
100
AcDbBlockTableRecord
  2
*D9
340
0
 70
     0
280
     1
281
     0
  0
BLOCK_RECORD
  5
7D58
330
1
100
AcDbSymbolTableRecord
100
AcDbBlockTableRecord
  2
*D10
340
0
 70
     0
280
     1
281
     0
  0
BLOCK_RECORD
  5
7D70
330
1
100
AcDbSymbolTableRecord
100
AcDbBlockTableRecord
  2
*D11
340
0
 70
     0
280
     1
281
     0
  0
BLOCK_RECORD
  5
7D7C
330
1
100
AcDbSymbolTableRecord
100
AcDbBlockTableRecord
  2
*D12
340
0
 70
     0
280
     1
281
     0
  0
BLOCK_RECORD
  5
7D88
330
1
100
AcDbSymbolTableRecord
100
AcDbBlockTableRecord
  2
*D13
340
0
 70
     0
280
     1
281
     0
  0
BLOCK_RECORD
  5
7D94
330
1
100
AcDbSymbolTableRecord
100
AcDbBlockTableRecord
  2
*D14
340
0
 70
     0
280
     1
281
     0
  0
BLOCK_RECORD
  5
7DA0
330
1
100
AcDbSymbolTableRecord
100
AcDbBlockTableRecord
  2
*D15
340
0
 70
     0
280
     1
281
     0
  0
BLOCK_RECORD
  5
7DAC
330
1
100
AcDbSymbolTableRecord
100
AcDbBlockTableRecord
  2
*D16
340
0
 70
     0
280
     1
281
     0
  0
BLOCK_RECORD
  5
7DB8
330
1
100
AcDbSymbolTableRecord
100
AcDbBlockTableRecord
  2
*D17
340
0
 70
     0
280
     1
281
     0
  0
BLOCK_RECORD
  5
7DC4
330
1
100
AcDbSymbolTableRecord
100
AcDbBlockTableRecord
  2
*D18
340
0
 70
     0
280
     1
281
     0
  0
BLOCK_RECORD
  5
7DD1
330
1
100
AcDbSymbolTableRecord
100
AcDbBlockTableRecord
  2
*D19
340
0
 70
     0
280
     1
281
     0
  0
BLOCK_RECORD
  5
7DDF
330
1
100
AcDbSymbolTableRecord
100
AcDbBlockTableRecord
  2
*D20
340
0
 70
     0
280
     1
281
     0
  0
BLOCK_RECORD
  5
7DEB
330
1
100
AcDbSymbolTableRecord
100
AcDbBlockTableRecord
  2
*D21
340
0
 70
     0
280
     1
281
     0
  0
BLOCK_RECORD
  5
7DF6
330
1
100
AcDbSymbolTableRecord
100
AcDbBlockTableRecord
  2
*D22
340
0
 70
     0
280
     1
281
     0
  0
BLOCK_RECORD
  5
80EE
330
1
100
AcDbSymbolTableRecord
100
AcDbBlockTableRecord
  2
_DOT
340
0
102
{BLKREFS
331
8168
331
836A
102
}
 70
     0
280
     1
281
     0
  0
BLOCK_RECORD
  5
8196
330
1
100
AcDbSymbolTableRecord
100
AcDbBlockTableRecord
  2
*D24
340
0
 70
     0
280
     1
281
     0
  0
BLOCK_RECORD
  5
81A3
330
1
100
AcDbSymbolTableRecord
100
AcDbBlockTableRecord
  2
*D25
340
0
 70
     0
280
     1
281
     0
  0
ENDTAB
  0
ENDSEC
  0
SECTION
  2
BLOCKS
  0
BLOCK
  5
1A
330
19
100
AcDbEntity
  8
0
100
AcDbBlockBegin
  2
*MODEL_SPACE
 70
     0
 10
0.0
 20
0.0
 30
0.0
  3
*MODEL_SPACE
  1

  0
ENDBLK
  5
1B
330
19
100
AcDbEntity
  8
0
100
AcDbBlockEnd
  0
BLOCK
  5
17
330
16
100
AcDbEntity
 67
     1
  8
0
100
AcDbBlockBegin
  2
*PAPER_SPACE
 70
     0
 10
0.0
 20
0.0
 30
0.0
  3
*PAPER_SPACE
  1

  0
ENDBLK
  5
18
330
16
100
AcDbEntity
 67
     1
  8
0
100
AcDbBlockEnd
  0
BLOCK
  5
79FD
330
79FC
100
AcDbEntity
  8
0
100
AcDbBlockBegin
  2
YA_N
 70
     0
 10
0.0
 20
0.0
 30
0.0
  3
YA_N
  1

  0
ENDBLK
  5
79FE
330
79FC
100
AcDbEntity
  8
0
100
AcDbBlockEnd
  0
BLOCK
  5
7B08
330
7B04
100
AcDbEntity
  8
0
 48
10.0
100
AcDbBlockBegin
  2
_OPEN
 70
     0
 10
0.0
 20
0.0
 30
0.0
  3
_OPEN
  1

  0
LINE
  5
7B05
330
7B04
100
AcDbEntity
  8
0
  6
ByBlock
 62
     0
 48
10.0
100
AcDbLine
 10
-1.0
 20
0.1666666666666666
 30
0.0
 11
0.0
 21
0.0
 31
0.0
  0
LINE
  5
7B06
330
7B04
100
AcDbEntity
  8
0
  6
ByBlock
 62
     0
 48
10.0
100
AcDbLine
 10
0.0
 20
0.0
 30
0.0
 11
-1.0
 21
-0.1666666666666666
 31
0.0
  0
LINE
  5
7B07
330
7B04
100
AcDbEntity
  8
0
  6
ByBlock
 62
     0
 48
10.0
100
AcDbLine
 10
0.0
 20
0.0
 30
0.0
 11
-1.0
 21
0.0
 31
0.0
  0
ENDBLK
  5
7B09
330
7B04
100
AcDbEntity
  8
0
 48
10.0
100
AcDbBlockEnd
  0
BLOCK
  5
8018
330
7CEC
100
AcDbEntity
  8
0
100
AcDbBlockBegin
  2
*D2
 70
     1
 10
0.0
 20
0.0
 30
0.0
  3
*D2
  1

  0
LINE
  5
82D5
330
7CEC
100
AcDbEntity
  8
3
 62
     0
440
 16777216
100
AcDbLine
 10
6710.141597036141
 20
3303.990809944047
 30
0.0
 11
7147.960011053275
 21
3303.990809944047
 31
0.0
  0
LINE
  5
82D6
330
7CEC
100
AcDbEntity
  8
3
 62
     0
440
 16777216
100
AcDbLine
 10
6710.141597036141
 20
4303.990809944046
 30
0.0
 11
7147.960011053275
 21
4303.990809944046
 31
0.0
  0
LINE
  5
82D7
330
7CEC
100
AcDbEntity
  8
3
 62
     0
440
 16777216
100
AcDbLine
 10
7112.960011053274
 20
3373.990809944046
 30
0.0
 11
7112.960011053274
 21
4233.990809944046
 31
0.0
  0
INSERT
  5
82D8
330
7CEC
100
AcDbEntity
  8
3
 62
     0
440
 16777216
100
AcDbBlockReference
  2
_OPEN
 10
7112.960011053274
 20
3303.990809944047
 30
0.0
 41
70.0
 42
70.0
 43
70.0
 50
270.0
  0
INSERT
  5
82D9
330
7CEC
100
AcDbEntity
  8
3
 62
     0
440
 16777216
100
AcDbBlockReference
  2
_OPEN
 10
7112.960011053274
 20
4303.990809944046
 30
0.0
 41
70.0
 42
70.0
 43
70.0
 50
90.0
  0
MTEXT
  5
82DA
330
7CEC
100
AcDbEntity
  8
3
 62
     0
440
 16777216
100
AcDbMText
 10
7025.460011053273
 20
3803.990809944048
 30
0.0
 40
105.0
 41
0.0
 46
0.0
 71
     5
 72
     5
  1
\A1;φ1000
 11
0.0000000000000001
 21
1.0
 31
0.0
 73
     1
 44
1.0
  0
POINT
  5
82DB
330
7CEC
100
AcDbEntity
  8
DEFPOINTS
 62
     0
440
 16777216
100
AcDbPoint
 10
6692.641597036142
 20
3303.990809944047
 30
0.0
  0
POINT
  5
82DC
330
7CEC
100
AcDbEntity
  8
DEFPOINTS
 62
     0
440
 16777216
100
AcDbPoint
 10
6692.641597036142
 20
4303.990809944046
 30
0.0
  0
POINT
  5
82DD
330
7CEC
100
AcDbEntity
  8
DEFPOINTS
 62
     0
440
 16777216
100
AcDbPoint
 10
7112.960011053274
 20
4303.990809944046
 30
0.0
  0
ENDBLK
  5
8022
330
7CEC
100
AcDbEntity
  8
0
100
AcDbBlockEnd
  0
BLOCK
  5
800D
330
7CF8
100
AcDbEntity
  8
0
100
AcDbBlockBegin
  2
*D3
 70
     1
 10
0.0
 20
0.0
 30
0.0
  3
*D3
  1

  0
LINE
  5
82DE
330
7CF8
100
AcDbEntity
  8
3
 62
     0
440
 16777216
100
AcDbLine
 10
6027.141597036141
 20
2466.490809944046
 30
0.0
 11
6027.141597036141
 21
2249.078944532245
 31
0.0
  0
LINE
  5
82DF
330
7CF8
100
AcDbEntity
  8
3
 62
     0
440
 16777216
100
AcDbLine
 10
6755.141597036142
 20
2466.490809944046
 30
0.0
 11
6755.141597036142
 21
2249.078944532245
 31
0.0
  0
LINE
  5
82E0
330
7CF8
100
AcDbEntity
  8
3
 62
     0
440
 16777216
100
AcDbLine
 10
6097.141597036142
 20
2284.078944532244
 30
0.0
 11
6685.141597036142
 21
2284.078944532244
 31
0.0
  0
INSERT
  5
82E1
330
7CF8
100
AcDbEntity
  8
3
 62
     0
440
 16777216
100
AcDbBlockReference
  2
_OPEN
 10
6027.141597036141
 20
2284.078944532244
 30
0.0
 41
70.0
 42
70.0
 43
70.0
 50
180.0
  0
INSERT
  5
82E2
330
7CF8
100
AcDbEntity
  8
3
 62
     0
440
 16777216
100
AcDbBlockReference
  2
_OPEN
 10
6755.141597036142
 20
2284.078944532244
 30
0.0
 41
70.0
 42
70.0
 43
70.0
  0
MTEXT
  5
82E3
330
7CF8
100
AcDbEntity
  8
3
 62
     0
440
 16777216
100
AcDbMText
 10
6391.141597036142
 20
2371.578944532244
 30
0.0
 40
105.0
 41
0.0
 46
0.0
 71
     5
 72
     5
  1
\A1;728
 73
     1
 44
1.0
  0
POINT
  5
82E4
330
7CF8
100
AcDbEntity
  8
DEFPOINTS
 62
     0
440
 16777216
100
AcDbPoint
 10
6027.141597036141
 20
2483.990809944046
 30
0.0
  0
POINT
  5
82E5
330
7CF8
100
AcDbEntity
  8
DEFPOINTS
 62
     0
440
 16777216
100
AcDbPoint
 10
6755.141597036142
 20
2483.990809944046
 30
0.0
  0
POINT
  5
82E6
330
7CF8
100
AcDbEntity
  8
DEFPOINTS
 62
     0
440
 16777216
100
AcDbPoint
 10
6755.141597036142
 20
2284.078944532244
 30
0.0
  0
ENDBLK
  5
8017
330
7CF8
100
AcDbEntity
  8
0
100
AcDbBlockEnd
  0
BLOCK
  5
8002
330
7D10
100
AcDbEntity
  8
0
100
AcDbBlockBegin
  2
*D4
 70
     1
 10
0.0
 20
0.0
 30
0.0
  3
*D4
  1

  0
LINE
  5
82E7
330
7D10
100
AcDbEntity
  8
3
 62
     0
440
 16777216
100
AcDbLine
 10
5105.141597036141
 20
2466.490809944046
 30
0.0
 11
5105.141597036141
 21
2249.078944532245
 31
0.0
  0
LINE
  5
82E8
330
7D10
100
AcDbEntity
  8
3
 62
     0
440
 16777216
100
AcDbLine
 10
6027.141597036141
 20
2466.490809944046
 30
0.0
 11
6027.141597036141
 21
2249.078944532245
 31
0.0
  0
LINE
  5
82E9
330
7D10
100
AcDbEntity
  8
3
 62
     0
440
 16777216
100
AcDbLine
 10
5175.141597036141
 20
2284.078944532244
 30
0.0
 11
5957.141597036141
 21
2284.078944532244
 31
0.0
  0
INSERT
  5
82EA
330
7D10
100
AcDbEntity
  8
3
 62
     0
440
 16777216
100
AcDbBlockReference
  2
_OPEN
 10
5105.141597036141
 20
2284.078944532244
 30
0.0
 41
70.0
 42
70.0
 43
70.0
 50
180.0
  0
INSERT
  5
82EB
330
7D10
100
AcDbEntity
  8
3
 62
     0
440
 16777216
100
AcDbBlockReference
  2
_OPEN
 10
6027.141597036141
 20
2284.078944532244
 30
0.0
 41
70.0
 42
70.0
 43
70.0
  0
MTEXT
  5
82EC
330
7D10
100
AcDbEntity
  8
3
 62
     0
440
 16777216
100
AcDbMText
 10
5566.141597036142
 20
2371.578944532244
 30
0.0
 40
105.0
 41
0.0
 46
0.0
 71
     5
 72
     5
  1
\A1;922
 73
     1
 44
1.0
  0
POINT
  5
82ED
330
7D10
100
AcDbEntity
  8
DEFPOINTS
 62
     0
440
 16777216
100
AcDbPoint
 10
5105.141597036141
 20
2483.990809944046
 30
0.0
  0
POINT
  5
82EE
330
7D10
100
AcDbEntity
  8
DEFPOINTS
 62
     0
440
 16777216
100
AcDbPoint
 10
6027.141597036141
 20
2483.990809944046
 30
0.0
  0
POINT
  5
82EF
330
7D10
100
AcDbEntity
  8
DEFPOINTS
 62
     0
440
 16777216
100
AcDbPoint
 10
6027.141597036141
 20
2284.078944532244
 30
0.0
  0
ENDBLK
  5
800C
330
7D10
100
AcDbEntity
  8
0
100
AcDbBlockEnd
  0
BLOCK
  5
8023
330
7D1C
100
AcDbEntity
  8
0
100
AcDbBlockBegin
  2
*D5
 70
     1
 10
0.0
 20
0.0
 30
0.0
  3
*D5
  1

  0
LINE
  5
841C
330
7D1C
100
AcDbEntity
  8
3
 62
     0
440
 16777216
 48
10.0
370
    -2
100
AcDbLine
 10
6827.141597036142
 20
3779.290809944047
 30
0.0
 11
6827.141597036142
 21
5095.248988613934
 31
0.0
  0
LINE
  5
841D
330
7D1C
100
AcDbEntity
  8
3
 62
     0
440
 16777216
 48
10.0
370
    -2
100
AcDbLine
 10
6027.141597036141
 20
4901.958071057314
 30
0.0
 11
6027.141597036141
 21
5095.248988613934
 31
0.0
  0
LINE
  5
841E
330
7D1C
100
AcDbEntity
  8
3
 62
     0
440
 16777216
 48
10.0
370
    -2
100
AcDbLine
 10
6757.141597036142
 20
5060.248988613934
 30
0.0
 11
6097.141597036142
 21
5060.248988613934
 31
0.0
  0
INSERT
  5
841F
330
7D1C
100
AcDbEntity
  8
3
 62
     0
440
 16777216
 48
10.0
370
    -2
100
AcDbBlockReference
  2
_OPEN
 10
6827.141597036142
 20
5060.248988613934
 30
0.0
 41
70.0
 42
70.0
 43
70.0
  0
INSERT
  5
8420
330
7D1C
100
AcDbEntity
  8
3
 62
     0
440
 16777216
 48
10.0
370
    -2
100
AcDbBlockReference
  2
_OPEN
 10
6027.141597036141
 20
5060.248988613934
 30
0.0
 41
70.0
 42
70.0
 43
70.0
 50
180.0
  0
MTEXT
  5
8421
330
7D1C
100
AcDbEntity
  8
3
 62
     0
440
 16777216
 48
10.0
100
AcDbMText
 10
6427.141597036142
 20
5175.248988613933
 30
0.0
 40
105.0
 41
0.0
 46
0.0
 71
     5
 72
     1
  1
\A1;(800)
 73
     1
 44
1.0
  0
POINT
  5
8422
330
7D1C
100
AcDbEntity
  8
DEFPOINTS
 62
     0
440
 16777216
 48
10.0
100
AcDbPoint
 10
6827.141597036142
 20
3761.790809944046
 30
0.0
  0
POINT
  5
8423
330
7D1C
100
AcDbEntity
  8
DEFPOINTS
 62
     0
440
 16777216
 48
10.0
100
AcDbPoint
 10
6027.141597036141
 20
4884.458071057314
 30
0.0
  0
POINT
  5
8424
330
7D1C
100
AcDbEntity
  8
DEFPOINTS
 62
     0
440
 16777216
 48
10.0
100
AcDbPoint
 10
6027.141597036141
 20
5060.248988613934
 30
0.0
  0
ENDBLK
  5
802D
330
7D1C
100
AcDbEntity
  8
0
100
AcDbBlockEnd
  0
BLOCK
  5
8182
330
7D28
100
AcDbEntity
  8
0
100
AcDbBlockBegin
  2
*D6
 70
     1
 10
0.0
 20
0.0
 30
0.0
  3
*D6
  1

  0
LINE
  5
8413
330
7D28
100
AcDbEntity
  8
3
 62
     0
440
 16777216
 48
10.0
370
    -2
100
AcDbLine
 10
6027.141597036141
 20
4901.958071057314
 30
0.0
 11
6027.141597036141
 21
5095.248988613934
 31
0.0
  0
LINE
  5
8414
330
7D28
100
AcDbEntity
  8
3
 62
     0
440
 16777216
 48
10.0
370
    -2
100
AcDbLine
 10
4947.641597036136
 20
4101.490809944046
 30
0.0
 11
4947.641597036136
 21
5095.248988613934
 31
0.0
  0
LINE
  5
8415
330
7D28
100
AcDbEntity
  8
3
 62
     0
440
 16777216
 48
10.0
370
    -2
100
AcDbLine
 10
5957.141597036141
 20
5060.248988613934
 30
0.0
 11
5017.641597036136
 21
5060.248988613934
 31
0.0
  0
INSERT
  5
8416
330
7D28
100
AcDbEntity
  8
3
 62
     0
440
 16777216
 48
10.0
370
    -2
100
AcDbBlockReference
  2
_OPEN
 10
6027.141597036141
 20
5060.248988613934
 30
0.0
 41
70.0
 42
70.0
 43
70.0
  0
INSERT
  5
8417
330
7D28
100
AcDbEntity
  8
3
 62
     0
440
 16777216
 48
10.0
370
    -2
100
AcDbBlockReference
  2
_OPEN
 10
4947.641597036136
 20
5060.248988613934
 30
0.0
 41
70.0
 42
70.0
 43
70.0
 50
180.0
  0
MTEXT
  5
8418
330
7D28
100
AcDbEntity
  8
3
 62
     0
440
 16777216
 48
10.0
100
AcDbMText
 10
5487.391597036139
 20
5175.248988613933
 30
0.0
 40
105.0
 41
0.0
 46
0.0
 71
     5
 72
     1
  1
\A1;(1080)
 73
     1
 44
1.0
  0
POINT
  5
8419
330
7D28
100
AcDbEntity
  8
DEFPOINTS
 62
     0
440
 16777216
 48
10.0
100
AcDbPoint
 10
6027.141597036141
 20
4884.458071057314
 30
0.0
  0
POINT
  5
841A
330
7D28
100
AcDbEntity
  8
DEFPOINTS
 62
     0
440
 16777216
 48
10.0
100
AcDbPoint
 10
4947.641597036136
 20
4083.990809944046
 30
0.0
  0
POINT
  5
841B
330
7D28
100
AcDbEntity
  8
DEFPOINTS
 62
     0
440
 16777216
 48
10.0
100
AcDbPoint
 10
4947.641597036136
 20
5060.248988613934
 30
0.0
  0
ENDBLK
  5
818C
330
7D28
100
AcDbEntity
  8
0
100
AcDbBlockEnd
  0
BLOCK
  5
8039
330
7D34
100
AcDbEntity
  8
0
100
AcDbBlockBegin
  2
*D7
 70
     1
 10
0.0
 20
0.0
 30
0.0
  3
*D7
  1

  0
LINE
  5
8302
330
7D34
100
AcDbEntity
  8
3
 62
     0
440
 16777216
100
AcDbLine
 10
5367.141597036141
 20
4541.490809944046
 30
0.0
 11
5367.141597036141
 21
4774.256157341041
 31
0.0
  0
LINE
  5
8303
330
7D34
100
AcDbEntity
  8
3
 62
     0
440
 16777216
100
AcDbLine
 10
6687.141597036141
 20
4541.490809944046
 30
0.0
 11
6687.141597036141
 21
4774.256157341041
 31
0.0
  0
LINE
  5
8304
330
7D34
100
AcDbEntity
  8
3
 62
     0
440
 16777216
100
AcDbLine
 10
5437.141597036141
 20
4739.256157341042
 30
0.0
 11
6617.141597036141
 21
4739.256157341042
 31
0.0
  0
INSERT
  5
8305
330
7D34
100
AcDbEntity
  8
3
 62
     0
440
 16777216
100
AcDbBlockReference
  2
_OPEN
 10
5367.141597036141
 20
4739.256157341042
 30
0.0
 41
70.0
 42
70.0
 43
70.0
 50
180.0
  0
INSERT
  5
8306
330
7D34
100
AcDbEntity
  8
3
 62
     0
440
 16777216
100
AcDbBlockReference
  2
_OPEN
 10
6687.141597036141
 20
4739.256157341042
 30
0.0
 41
70.0
 42
70.0
 43
70.0
  0
MTEXT
  5
8307
330
7D34
100
AcDbEntity
  8
3
 62
     0
440
 16777216
100
AcDbMText
 10
6023.086769404377
 20
4826.756157341042
 30
0.0
 40
105.0
 41
0.0
 46
0.0
 71
     5
 72
     5
  1
\A1;1320
 73
     1
 44
1.0
  0
POINT
  5
8308
330
7D34
100
AcDbEntity
  8
DEFPOINTS
 62
     0
440
 16777216
100
AcDbPoint
 10
5367.141597036141
 20
4523.990809944046
 30
0.0
  0
POINT
  5
8309
330
7D34
100
AcDbEntity
  8
DEFPOINTS
 62
     0
440
 16777216
100
AcDbPoint
 10
6687.141597036141
 20
4523.990809944046
 30
0.0
  0
POINT
  5
830A
330
7D34
100
AcDbEntity
  8
DEFPOINTS
 62
     0
440
 16777216
100
AcDbPoint
 10
6687.141597036141
 20
4739.256157341042
 30
0.0
  0
ENDBLK
  5
8043
330
7D34
100
AcDbEntity
  8
0
100
AcDbBlockEnd
  0
BLOCK
  5
7F38
330
7D40
100
AcDbEntity
  8
0
100
AcDbBlockBegin
  2
*D8
 70
     1
 10
0.0
 20
0.0
 30
0.0
  3
*D8
  1

  0
LINE
  5
830B
330
7D40
100
AcDbEntity
  8
3
 62
     0
440
 16777216
100
AcDbLine
 10
3285.982692113114
 20
7547.84076281777
 30
0.0
 11
3285.982692113114
 21
7967.36741025985
 31
0.0
  0
LINE
  5
830C
330
7D40
100
AcDbEntity
  8
3
 62
     0
440
 16777216
100
AcDbLine
 10
2035.982692113114
 20
7547.84076281777
 30
0.0
 11
2035.982692113114
 21
7967.36741025985
 31
0.0
  0
LINE
  5
830D
330
7D40
100
AcDbEntity
  8
3
 62
     0
440
 16777216
100
AcDbLine
 10
3215.982692113114
 20
7932.367410259849
 30
0.0
 11
2105.982692113113
 21
7932.367410259849
 31
0.0
  0
INSERT
  5
830E
330
7D40
100
AcDbEntity
  8
3
 62
     0
440
 16777216
100
AcDbBlockReference
  2
_OPEN
 10
3285.982692113114
 20
7932.367410259849
 30
0.0
 41
70.0
 42
70.0
 43
70.0
  0
INSERT
  5
830F
330
7D40
100
AcDbEntity
  8
3
 62
     0
440
 16777216
100
AcDbBlockReference
  2
_OPEN
 10
2035.982692113114
 20
7932.367410259849
 30
0.0
 41
70.0
 42
70.0
 43
70.0
 50
180.0
  0
MTEXT
  5
8310
330
7D40
100
AcDbEntity
  8
3
 62
     0
440
 16777216
100
AcDbMText
 10
2660.982692113114
 20
8019.867410259848
 30
0.0
 40
105.0
 41
0.0
 46
0.0
 71
     5
 72
     5
  1
\A1;1250
 73
     1
 44
1.0
  0
POINT
  5
8311
330
7D40
100
AcDbEntity
  8
DEFPOINTS
 62
     0
440
 16777216
100
AcDbPoint
 10
3285.982692113114
 20
7530.340762817771
 30
0.0
  0
POINT
  5
8312
330
7D40
100
AcDbEntity
  8
DEFPOINTS
 62
     0
440
 16777216
100
AcDbPoint
 10
2035.982692113114
 20
7530.340762817771
 30
0.0
  0
POINT
  5
8313
330
7D40
100
AcDbEntity
  8
DEFPOINTS
 62
     0
440
 16777216
100
AcDbPoint
 10
2035.982692113114
 20
7932.367410259849
 30
0.0
  0
ENDBLK
  5
7F42
330
7D40
100
AcDbEntity
  8
0
100
AcDbBlockEnd
  0
BLOCK
  5
7F59
330
7D4C
100
AcDbEntity
  8
0
100
AcDbBlockBegin
  2
*D9
 70
     1
 10
0.0
 20
0.0
 30
0.0
  3
*D9
  1

  0
LINE
  5
8314
330
7D4C
100
AcDbEntity
  8
3
 62
     0
440
 16777216
100
AcDbLine
 10
4235.982692113114
 20
5862.840762817771
 30
0.0
 11
4235.982692113114
 21
5405.520103322579
 31
0.0
  0
LINE
  5
8315
330
7D4C
100
AcDbEntity
  8
3
 62
     0
440
 16777216
100
AcDbLine
 10
2035.982692113114
 20
5862.840762817771
 30
0.0
 11
2035.982692113114
 21
5405.520103322579
 31
0.0
  0
LINE
  5
8316
330
7D4C
100
AcDbEntity
  8
3
 62
     0
440
 16777216
100
AcDbLine
 10
4165.982692113114
 20
5440.520103322579
 30
0.0
 11
2105.982692113113
 21
5440.520103322579
 31
0.0
  0
INSERT
  5
8317
330
7D4C
100
AcDbEntity
  8
3
 62
     0
440
 16777216
100
AcDbBlockReference
  2
_OPEN
 10
4235.982692113114
 20
5440.520103322579
 30
0.0
 41
70.0
 42
70.0
 43
70.0
  0
INSERT
  5
8318
330
7D4C
100
AcDbEntity
  8
3
 62
     0
440
 16777216
100
AcDbBlockReference
  2
_OPEN
 10
2035.982692113114
 20
5440.520103322579
 30
0.0
 41
70.0
 42
70.0
 43
70.0
 50
180.0
  0
MTEXT
  5
8319
330
7D4C
100
AcDbEntity
  8
3
 62
     0
440
 16777216
100
AcDbMText
 10
3135.982692113114
 20
5528.020103322578
 30
0.0
 40
105.0
 41
0.0
 46
0.0
 71
     5
 72
     5
  1
\A1;2200
 73
     1
 44
1.0
  0
POINT
  5
831A
330
7D4C
100
AcDbEntity
  8
DEFPOINTS
 62
     0
440
 16777216
100
AcDbPoint
 10
4235.982692113114
 20
5880.34076281777
 30
0.0
  0
POINT
  5
831B
330
7D4C
100
AcDbEntity
  8
DEFPOINTS
 62
     0
440
 16777216
100
AcDbPoint
 10
2035.982692113114
 20
5880.34076281777
 30
0.0
  0
POINT
  5
831C
330
7D4C
100
AcDbEntity
  8
DEFPOINTS
 62
     0
440
 16777216
100
AcDbPoint
 10
2035.982692113114
 20
5440.520103322579
 30
0.0
  0
ENDBLK
  5
7F63
330
7D4C
100
AcDbEntity
  8
0
100
AcDbBlockEnd
  0
BLOCK
  5
7FEC
330
7D58
100
AcDbEntity
  8
0
100
AcDbBlockBegin
  2
*D10
 70
     1
 10
0.0
 20
0.0
 30
0.0
  3
*D10
  1

  0
LINE
  5
831D
330
7D58
100
AcDbEntity
  8
3
 62
     0
440
 16777216
100
AcDbLine
 10
4235.982692113114
 20
2466.490809944045
 30
0.0
 11
4235.982692113114
 21
2252.596786222945
 31
0.0
  0
LINE
  5
831E
330
7D58
100
AcDbEntity
  8
3
 62
     0
440
 16777216
100
AcDbLine
 10
2660.982692113115
 20
2466.490809944045
 30
0.0
 11
2660.982692113115
 21
2252.596786222945
 31
0.0
  0
LINE
  5
831F
330
7D58
100
AcDbEntity
  8
3
 62
     0
440
 16777216
100
AcDbLine
 10
4165.982692113114
 20
2287.596786222945
 30
0.0
 11
2730.982692113114
 21
2287.596786222945
 31
0.0
  0
INSERT
  5
8320
330
7D58
100
AcDbEntity
  8
3
 62
     0
440
 16777216
100
AcDbBlockReference
  2
_OPEN
 10
4235.982692113114
 20
2287.596786222945
 30
0.0
 41
70.0
 42
70.0
 43
70.0
  0
INSERT
  5
8321
330
7D58
100
AcDbEntity
  8
3
 62
     0
440
 16777216
100
AcDbBlockReference
  2
_OPEN
 10
2660.982692113115
 20
2287.596786222945
 30
0.0
 41
70.0
 42
70.0
 43
70.0
 50
180.0
  0
MTEXT
  5
8322
330
7D58
100
AcDbEntity
  8
3
 62
     0
440
 16777216
100
AcDbMText
 10
3448.482692113114
 20
2375.096786222945
 30
0.0
 40
105.0
 41
0.0
 46
0.0
 71
     5
 72
     5
  1
\A1;1575
 73
     1
 44
1.0
  0
POINT
  5
8323
330
7D58
100
AcDbEntity
  8
DEFPOINTS
 62
     0
440
 16777216
100
AcDbPoint
 10
4235.982692113114
 20
2483.990809944045
 30
0.0
  0
POINT
  5
8324
330
7D58
100
AcDbEntity
  8
DEFPOINTS
 62
     0
440
 16777216
100
AcDbPoint
 10
2660.982692113115
 20
2483.990809944045
 30
0.0
  0
POINT
  5
8325
330
7D58
100
AcDbEntity
  8
DEFPOINTS
 62
     0
440
 16777216
100
AcDbPoint
 10
2660.982692113115
 20
2287.596786222945
 30
0.0
  0
ENDBLK
  5
7FF6
330
7D58
100
AcDbEntity
  8
0
100
AcDbBlockEnd
  0
BLOCK
  5
7F90
330
7D70
100
AcDbEntity
  8
0
100
AcDbBlockBegin
  2
*D11
 70
     1
 10
0.0
 20
0.0
 30
0.0
  3
*D11
  1

  0
LINE
  5
8326
330
7D70
100
AcDbEntity
  8
3
 62
     0
440
 16777216
100
AcDbLine
 10
1903.866709615485
 20
3803.990809944045
 30
0.0
 11
1329.025356046366
 21
3803.990809944045
 31
0.0
  0
LINE
  5
8327
330
7D70
100
AcDbEntity
  8
3
 62
     0
440
 16777216
100
AcDbLine
 10
2018.482692113113
 20
2593.990809944046
 30
0.0
 11
1329.025356046366
 21
2593.990809944046
 31
0.0
  0
LINE
  5
8328
330
7D70
100
AcDbEntity
  8
3
 62
     0
440
 16777216
100
AcDbLine
 10
1364.025356046366
 20
3733.990809944046
 30
0.0
 11
1364.025356046366
 21
2663.990809944046
 31
0.0
  0
INSERT
  5
8329
330
7D70
100
AcDbEntity
  8
3
 62
     0
440
 16777216
100
AcDbBlockReference
  2
_OPEN
 10
1364.025356046366
 20
3803.990809944045
 30
0.0
 41
70.0
 42
70.0
 43
70.0
 50
90.0
  0
INSERT
  5
832A
330
7D70
100
AcDbEntity
  8
3
 62
     0
440
 16777216
100
AcDbBlockReference
  2
_OPEN
 10
1364.025356046366
 20
2593.990809944046
 30
0.0
 41
70.0
 42
70.0
 43
70.0
 50
270.0
  0
MTEXT
  5
832B
330
7D70
100
AcDbEntity
  8
3
 62
     0
440
 16777216
100
AcDbMText
 10
1276.525356046366
 20
3198.990809944046
 30
0.0
 40
105.0
 41
0.0
 46
0.0
 71
     5
 72
     5
  1
\A1;1210
 11
0.0000000000000001
 21
1.0
 31
0.0
 73
     1
 44
1.0
  0
POINT
  5
832C
330
7D70
100
AcDbEntity
  8
DEFPOINTS
 62
     0
440
 16777216
100
AcDbPoint
 10
1921.366709615485
 20
3803.990809944045
 30
0.0
  0
POINT
  5
832D
330
7D70
100
AcDbEntity
  8
DEFPOINTS
 62
     0
440
 16777216
100
AcDbPoint
 10
2035.982692113113
 20
2593.990809944046
 30
0.0
  0
POINT
  5
832E
330
7D70
100
AcDbEntity
  8
DEFPOINTS
 62
     0
440
 16777216
100
AcDbPoint
 10
1364.025356046366
 20
2593.990809944046
 30
0.0
  0
ENDBLK
  5
7F9A
330
7D70
100
AcDbEntity
  8
0
100
AcDbBlockEnd
  0
BLOCK
  5
7FE1
330
7D7C
100
AcDbEntity
  8
0
100
AcDbBlockBegin
  2
*D12
 70
     1
 10
0.0
 20
0.0
 30
0.0
  3
*D12
  1

  0
LINE
  5
832F
330
7D7C
100
AcDbEntity
  8
3
 62
     0
440
 16777216
100
AcDbLine
 10
2035.982692113113
 20
2466.490809944045
 30
0.0
 11
2035.982692113113
 21
2250.970736587362
 31
0.0
  0
LINE
  5
8330
330
7D7C
100
AcDbEntity
  8
3
 62
     0
440
 16777216
100
AcDbLine
 10
2660.982692113115
 20
2466.490809944045
 30
0.0
 11
2660.982692113115
 21
2250.970736587362
 31
0.0
  0
LINE
  5
8331
330
7D7C
100
AcDbEntity
  8
3
 62
     0
440
 16777216
100
AcDbLine
 10
2105.982692113113
 20
2285.970736587362
 30
0.0
 11
2590.982692113115
 21
2285.970736587362
 31
0.0
  0
INSERT
  5
8332
330
7D7C
100
AcDbEntity
  8
3
 62
     0
440
 16777216
100
AcDbBlockReference
  2
_OPEN
 10
2035.982692113113
 20
2285.970736587362
 30
0.0
 41
70.0
 42
70.0
 43
70.0
 50
180.0
  0
INSERT
  5
8333
330
7D7C
100
AcDbEntity
  8
3
 62
     0
440
 16777216
100
AcDbBlockReference
  2
_OPEN
 10
2660.982692113115
 20
2285.970736587362
 30
0.0
 41
70.0
 42
70.0
 43
70.0
  0
MTEXT
  5
8334
330
7D7C
100
AcDbEntity
  8
3
 62
     0
440
 16777216
100
AcDbMText
 10
2348.482692113114
 20
2373.470736587362
 30
0.0
 40
105.0
 41
0.0
 46
0.0
 71
     5
 72
     5
  1
\A1;625
 73
     1
 44
1.0
  0
POINT
  5
8335
330
7D7C
100
AcDbEntity
  8
DEFPOINTS
 62
     0
440
 16777216
100
AcDbPoint
 10
2035.982692113113
 20
2483.990809944045
 30
0.0
  0
POINT
  5
8336
330
7D7C
100
AcDbEntity
  8
DEFPOINTS
 62
     0
440
 16777216
100
AcDbPoint
 10
2660.982692113115
 20
2483.990809944045
 30
0.0
  0
POINT
  5
8337
330
7D7C
100
AcDbEntity
  8
DEFPOINTS
 62
     0
440
 16777216
100
AcDbPoint
 10
2660.982692113115
 20
2285.970736587362
 30
0.0
  0
ENDBLK
  5
7FEB
330
7D7C
100
AcDbEntity
  8
0
100
AcDbBlockEnd
  0
BLOCK
  5
7FA6
330
7D88
100
AcDbEntity
  8
0
100
AcDbBlockBegin
  2
*D13
 70
     1
 10
0.0
 20
0.0
 30
0.0
  3
*D13
  1

  0
LINE
  5
8338
330
7D88
100
AcDbEntity
  8
3
 62
     0
440
 16777216
100
AcDbLine
 10
1963.482692113113
 20
2729.990809944045
 30
0.0
 11
1744.822595118969
 21
2729.990809944045
 31
0.0
  0
LINE
  5
8339
330
7D88
100
AcDbEntity
  8
3
 62
     0
440
 16777216
100
AcDbLine
 10
1963.482692113112
 20
3759.990809944046
 30
0.0
 11
1744.82259511897
 21
3759.990809944046
 31
0.0
  0
LINE
  5
833A
330
7D88
100
AcDbEntity
  8
3
 62
     0
440
 16777216
100
AcDbLine
 10
1779.822595118969
 20
2799.990809944045
 30
0.0
 11
1779.822595118969
 21
3689.990809944045
 31
0.0
  0
INSERT
  5
833B
330
7D88
100
AcDbEntity
  8
3
 62
     0
440
 16777216
100
AcDbBlockReference
  2
_OPEN
 10
1779.822595118969
 20
2729.990809944045
 30
0.0
 41
70.0
 42
70.0
 43
70.0
 50
270.0
  0
INSERT
  5
833C
330
7D88
100
AcDbEntity
  8
3
 62
     0
440
 16777216
100
AcDbBlockReference
  2
_OPEN
 10
1779.822595118969
 20
3759.990809944046
 30
0.0
 41
70.0
 42
70.0
 43
70.0
 50
90.0
  0
MTEXT
  5
833D
330
7D88
100
AcDbEntity
  8
3
 62
     0
440
 16777216
100
AcDbMText
 10
1692.322595118969
 20
3244.990809944046
 30
0.0
 40
105.0
 41
0.0
 46
0.0
 71
     5
 72
     5
  1
\A1;1030
 11
0.0000000000000001
 21
1.0
 31
0.0
 73
     1
 44
1.0
  0
POINT
  5
833E
330
7D88
100
AcDbEntity
  8
DEFPOINTS
 62
     0
440
 16777216
100
AcDbPoint
 10
1980.982692113113
 20
2729.990809944045
 30
0.0
  0
POINT
  5
833F
330
7D88
100
AcDbEntity
  8
DEFPOINTS
 62
     0
440
 16777216
100
AcDbPoint
 10
1980.982692113112
 20
3759.990809944046
 30
0.0
  0
POINT
  5
8340
330
7D88
100
AcDbEntity
  8
DEFPOINTS
 62
     0
440
 16777216
100
AcDbPoint
 10
1779.822595118969
 20
3759.990809944046
 30
0.0
  0
ENDBLK
  5
7FB0
330
7D88
100
AcDbEntity
  8
0
100
AcDbBlockEnd
  0
BLOCK
  5
7F9B
330
7D94
100
AcDbEntity
  8
0
100
AcDbBlockBegin
  2
*D14
 70
     1
 10
0.0
 20
0.0
 30
0.0
  3
*D14
  1

  0
LINE
  5
8341
330
7D94
100
AcDbEntity
  8
3
 62
     0
440
 16777216
100
AcDbLine
 10
1963.482692113113
 20
2729.990809944045
 30
0.0
 11
1544.020549659816
 21
2729.990809944045
 31
0.0
  0
LINE
  5
8342
330
7D94
100
AcDbEntity
  8
3
 62
     0
440
 16777216
100
AcDbLine
 10
1903.866709615485
 20
3803.990809944045
 30
0.0
 11
1544.020549659816
 21
3803.990809944045
 31
0.0
  0
LINE
  5
8343
330
7D94
100
AcDbEntity
  8
3
 62
     0
440
 16777216
100
AcDbLine
 10
1579.020549659816
 20
2799.990809944045
 30
0.0
 11
1579.020549659816
 21
3733.990809944046
 31
0.0
  0
INSERT
  5
8344
330
7D94
100
AcDbEntity
  8
3
 62
     0
440
 16777216
100
AcDbBlockReference
  2
_OPEN
 10
1579.020549659816
 20
2729.990809944045
 30
0.0
 41
70.0
 42
70.0
 43
70.0
 50
270.0
  0
INSERT
  5
8345
330
7D94
100
AcDbEntity
  8
3
 62
     0
440
 16777216
100
AcDbBlockReference
  2
_OPEN
 10
1579.020549659816
 20
3803.990809944045
 30
0.0
 41
70.0
 42
70.0
 43
70.0
 50
90.0
  0
MTEXT
  5
8346
330
7D94
100
AcDbEntity
  8
3
 62
     0
440
 16777216
100
AcDbMText
 10
1491.520549659816
 20
3266.990809944046
 30
0.0
 40
105.0
 41
0.0
 46
0.0
 71
     5
 72
     5
  1
\A1;1074
 11
0.0000000000000001
 21
1.0
 31
0.0
 73
     1
 44
1.0
  0
POINT
  5
8347
330
7D94
100
AcDbEntity
  8
DEFPOINTS
 62
     0
440
 16777216
100
AcDbPoint
 10
1980.982692113113
 20
2729.990809944045
 30
0.0
  0
POINT
  5
8348
330
7D94
100
AcDbEntity
  8
DEFPOINTS
 62
     0
440
 16777216
100
AcDbPoint
 10
1921.366709615485
 20
3803.990809944045
 30
0.0
  0
POINT
  5
8349
330
7D94
100
AcDbEntity
  8
DEFPOINTS
 62
     0
440
 16777216
100
AcDbPoint
 10
1579.020549659816
 20
3803.990809944045
 30
0.0
  0
ENDBLK
  5
7FA5
330
7D94
100
AcDbEntity
  8
0
100
AcDbBlockEnd
  0
BLOCK
  5
7F2D
330
7DA0
100
AcDbEntity
  8
0
100
AcDbBlockBegin
  2
*D15
 70
     1
 10
0.0
 20
0.0
 30
0.0
  3
*D15
  1

  0
LINE
  5
834A
330
7DA0
100
AcDbEntity
  8
3
 62
     0
440
 16777216
100
AcDbLine
 10
2018.482692113114
 20
7530.340762817771
 30
0.0
 11
1599.321629699822
 21
7530.340762817771
 31
0.0
  0
LINE
  5
834B
330
7DA0
100
AcDbEntity
  8
3
 62
     0
440
 16777216
100
AcDbLine
 10
2018.482692113114
 20
5880.34076281777
 30
0.0
 11
1599.321629699822
 21
5880.34076281777
 31
0.0
  0
LINE
  5
834C
330
7DA0
100
AcDbEntity
  8
3
 62
     0
440
 16777216
100
AcDbLine
 10
1634.321629699822
 20
7460.340762817771
 30
0.0
 11
1634.321629699822
 21
5950.34076281777
 31
0.0
  0
INSERT
  5
834D
330
7DA0
100
AcDbEntity
  8
3
 62
     0
440
 16777216
100
AcDbBlockReference
  2
_OPEN
 10
1634.321629699822
 20
7530.340762817771
 30
0.0
 41
70.0
 42
70.0
 43
70.0
 50
90.0
  0
INSERT
  5
834E
330
7DA0
100
AcDbEntity
  8
3
 62
     0
440
 16777216
100
AcDbBlockReference
  2
_OPEN
 10
1634.321629699822
 20
5880.34076281777
 30
0.0
 41
70.0
 42
70.0
 43
70.0
 50
270.0
  0
MTEXT
  5
834F
330
7DA0
100
AcDbEntity
  8
3
 62
     0
440
 16777216
100
AcDbMText
 10
1546.82162969982
 20
6705.340762817771
 30
0.0
 40
105.0
 41
0.0
 46
0.0
 71
     5
 72
     5
  1
\A1;1650
 11
0.0000000000000001
 21
1.0
 31
0.0
 73
     1
 44
1.0
  0
POINT
  5
8350
330
7DA0
100
AcDbEntity
  8
DEFPOINTS
 62
     0
440
 16777216
100
AcDbPoint
 10
2035.982692113114
 20
7530.340762817771
 30
0.0
  0
POINT
  5
8351
330
7DA0
100
AcDbEntity
  8
DEFPOINTS
 62
     0
440
 16777216
100
AcDbPoint
 10
2035.982692113114
 20
5880.34076281777
 30
0.0
  0
POINT
  5
8352
330
7DA0
100
AcDbEntity
  8
DEFPOINTS
 62
     0
440
 16777216
100
AcDbPoint
 10
1634.321629699822
 20
5880.34076281777
 30
0.0
  0
ENDBLK
  5
7F37
330
7DA0
100
AcDbEntity
  8
0
100
AcDbBlockEnd
  0
BLOCK
  5
7F43
330
7DAC
100
AcDbEntity
  8
0
100
AcDbBlockBegin
  2
*D16
 70
     1
 10
0.0
 20
0.0
 30
0.0
  3
*D16
  1

  0
LINE
  5
8353
330
7DAC
100
AcDbEntity
  8
3
 62
     0
440
 16777216
100
AcDbLine
 10
4235.982692113114
 20
6847.840762817771
 30
0.0
 11
4235.982692113114
 21
7967.36741025985
 31
0.0
  0
LINE
  5
8354
330
7DAC
100
AcDbEntity
  8
3
 62
     0
440
 16777216
100
AcDbLine
 10
3285.982692113114
 20
7547.84076281777
 30
0.0
 11
3285.982692113114
 21
7967.36741025985
 31
0.0
  0
LINE
  5
8355
330
7DAC
100
AcDbEntity
  8
3
 62
     0
440
 16777216
100
AcDbLine
 10
4165.982692113114
 20
7932.367410259849
 30
0.0
 11
3355.982692113113
 21
7932.367410259849
 31
0.0
  0
INSERT
  5
8356
330
7DAC
100
AcDbEntity
  8
3
 62
     0
440
 16777216
100
AcDbBlockReference
  2
_OPEN
 10
4235.982692113114
 20
7932.367410259849
 30
0.0
 41
70.0
 42
70.0
 43
70.0
  0
INSERT
  5
8357
330
7DAC
100
AcDbEntity
  8
3
 62
     0
440
 16777216
100
AcDbBlockReference
  2
_OPEN
 10
3285.982692113114
 20
7932.367410259849
 30
0.0
 41
70.0
 42
70.0
 43
70.0
 50
180.0
  0
MTEXT
  5
8358
330
7DAC
100
AcDbEntity
  8
3
 62
     0
440
 16777216
100
AcDbMText
 10
3760.982692113114
 20
8019.867410259848
 30
0.0
 40
105.0
 41
0.0
 46
0.0
 71
     5
 72
     5
  1
\A1;950
 73
     1
 44
1.0
  0
POINT
  5
8359
330
7DAC
100
AcDbEntity
  8
DEFPOINTS
 62
     0
440
 16777216
100
AcDbPoint
 10
4235.982692113114
 20
6830.340762817771
 30
0.0
  0
POINT
  5
835A
330
7DAC
100
AcDbEntity
  8
DEFPOINTS
 62
     0
440
 16777216
100
AcDbPoint
 10
3285.982692113114
 20
7530.340762817771
 30
0.0
  0
POINT
  5
835B
330
7DAC
100
AcDbEntity
  8
DEFPOINTS
 62
     0
440
 16777216
100
AcDbPoint
 10
3285.982692113114
 20
7932.367410259849
 30
0.0
  0
ENDBLK
  5
7F4D
330
7DAC
100
AcDbEntity
  8
0
100
AcDbBlockEnd
  0
BLOCK
  5
7F4E
330
7DB8
100
AcDbEntity
  8
0
100
AcDbBlockBegin
  2
*D17
 70
     1
 10
0.0
 20
0.0
 30
0.0
  3
*D17
  1

  0
LINE
  5
835C
330
7DB8
100
AcDbEntity
  8
3
 62
     0
440
 16777216
100
AcDbLine
 10
4253.482692113114
 20
6830.340762817771
 30
0.0
 11
4512.295627497938
 21
6830.340762817771
 31
0.0
  0
LINE
  5
835D
330
7DB8
100
AcDbEntity
  8
3
 62
     0
440
 16777216
100
AcDbLine
 10
4253.482692113113
 20
5880.34076281777
 30
0.0
 11
4512.295627497937
 21
5880.34076281777
 31
0.0
  0
LINE
  5
835E
330
7DB8
100
AcDbEntity
  8
3
 62
     0
440
 16777216
100
AcDbLine
 10
4477.295627497938
 20
6760.34076281777
 30
0.0
 11
4477.295627497937
 21
5950.34076281777
 31
0.0
  0
INSERT
  5
835F
330
7DB8
100
AcDbEntity
  8
3
 62
     0
440
 16777216
100
AcDbBlockReference
  2
_OPEN
 10
4477.295627497938
 20
6830.340762817771
 30
0.0
 41
70.0
 42
70.0
 43
70.0
 50
90.0
  0
INSERT
  5
8360
330
7DB8
100
AcDbEntity
  8
3
 62
     0
440
 16777216
100
AcDbBlockReference
  2
_OPEN
 10
4477.295627497937
 20
5880.34076281777
 30
0.0
 41
70.0
 42
70.0
 43
70.0
 50
270.0
  0
MTEXT
  5
8361
330
7DB8
100
AcDbEntity
  8
3
 62
     0
440
 16777216
100
AcDbMText
 10
4389.795627497937
 20
6355.34076281777
 30
0.0
 40
105.0
 41
0.0
 46
0.0
 71
     5
 72
     5
  1
\A1;950
 11
0.0000000000000001
 21
1.0
 31
0.0
 73
     1
 44
1.0
  0
POINT
  5
8362
330
7DB8
100
AcDbEntity
  8
DEFPOINTS
 62
     0
440
 16777216
100
AcDbPoint
 10
4235.982692113114
 20
6830.340762817771
 30
0.0
  0
POINT
  5
8363
330
7DB8
100
AcDbEntity
  8
DEFPOINTS
 62
     0
440
 16777216
100
AcDbPoint
 10
4235.982692113114
 20
5880.34076281777
 30
0.0
  0
POINT
  5
8364
330
7DB8
100
AcDbEntity
  8
DEFPOINTS
 62
     0
440
 16777216
100
AcDbPoint
 10
4477.295627497937
 20
5880.34076281777
 30
0.0
  0
ENDBLK
  5
7F58
330
7DB8
100
AcDbEntity
  8
0
100
AcDbBlockEnd
  0
BLOCK
  5
8160
330
7DC4
100
AcDbEntity
  8
0
100
AcDbBlockBegin
  2
*D18
 70
     1
 10
0.0
 20
0.0
 30
0.0
  3
*D18
  1

  0
LINE
  5
8161
330
7DC4
100
AcDbEntity
  8
0
  6
ByBlock
 62
     0
440
 16777216
100
AcDbLine
 10
1537.962928119191
 20
2593.990809944046
 30
0.0
 11
848.5202956122375
 21
2593.990809944046
 31
0.0
  0
LINE
  5
8162
330
7DC4
100
AcDbEntity
  8
0
  6
ByBlock
 62
     0
440
 16777216
100
AcDbLine
 10
1537.962928119191
 20
2548.990809944046
 30
0.0
 11
848.5202956122375
 21
2548.990809944046
 31
0.0
  0
LINE
  5
8163
330
7DC4
100
AcDbEntity
  8
0
  6
ByBlock
 62
     0
440
 16777216
100
AcDbLine
 10
883.5202956122374
 20
2663.990809944046
 30
0.0
 11
883.5202956122374
 21
2733.990809944045
 31
0.0
  0
LINE
  5
8164
330
7DC4
100
AcDbEntity
  8
0
  6
ByBlock
 62
     0
440
 16777216
100
AcDbLine
 10
883.5202956122374
 20
2478.990809944046
 30
0.0
 11
883.5202956122374
 21
2408.990809944045
 31
0.0
  0
MTEXT
  5
8165
330
7DC4
100
AcDbEntity
  8
0
  6
ByBlock
 62
     0
440
 16777216
100
AcDbMText
 10
716.0202956122375
 20
2658.450668202426
 30
0.0
 40
105.0
 41
0.0
 46
0.0
 71
     5
 72
     5
  1
\A1;(45)
 11
0.0
 21
1.0
 31
0.0
 73
     1
 44
1.0
  0
LINE
  5
8166
330
7DC4
100
AcDbEntity
  8
0
  6
ByBlock
 62
     0
440
 16777216
100
AcDbLine
 10
883.5202956122374
 20
2593.990809944046
 30
0.0
 11
883.5202956122374
 21
2548.990809944046
 31
0.0
  0
INSERT
  5
8167
330
7DC4
100
AcDbEntity
  8
0
  6
ByBlock
 62
     0
440
 16777216
100
AcDbBlockReference
  2
_OPEN
 10
883.5202956122374
 20
2593.990809944046
 30
0.0
 41
70.0
 42
70.0
 43
70.0
 50
270.0
  0
INSERT
  5
8168
330
7DC4
100
AcDbEntity
  8
0
  6
ByBlock
 62
     0
440
 16777216
100
AcDbBlockReference
  2
_DOT
 10
883.5202956122374
 20
2548.990809944046
 30
0.0
 41
70.0
 42
70.0
 43
70.0
 50
90.0
  0
POINT
  5
8169
330
7DC4
100
AcDbEntity
  8
DEFPOINTS
  6
ByBlock
 62
     0
440
 16777216
100
AcDbPoint
 10
1555.462928119191
 20
2593.990809944046
 30
0.0
  0
POINT
  5
816A
330
7DC4
100
AcDbEntity
  8
DEFPOINTS
  6
ByBlock
 62
     0
440
 16777216
100
AcDbPoint
 10
1555.462928119191
 20
2548.990809944046
 30
0.0
  0
POINT
  5
816B
330
7DC4
100
AcDbEntity
  8
DEFPOINTS
  6
ByBlock
 62
     0
440
 16777216
100
AcDbPoint
 10
883.5202956122374
 20
2548.990809944046
 30
0.0
  0
ENDBLK
  5
816C
330
7DC4
100
AcDbEntity
  8
0
100
AcDbBlockEnd
  0
BLOCK
  5
80F8
330
7DD1
100
AcDbEntity
  8
0
100
AcDbBlockBegin
  2
*D19
 70
     1
 10
0.0
 20
0.0
 30
0.0
  3
*D19
  1

  0
LINE
  5
8365
330
7DD1
100
AcDbEntity
  8
3
 62
     0
440
 16777216
100
AcDbLine
 10
2018.482692113113
 20
2548.990809944046
 30
0.0
 11
1329.025356046366
 21
2548.990809944046
 31
0.0
  0
LINE
  5
8366
330
7DD1
100
AcDbEntity
  8
3
 62
     0
440
 16777216
100
AcDbLine
 10
2018.482692113113
 20
2483.990809944045
 30
0.0
 11
1329.025356046366
 21
2483.990809944045
 31
0.0
  0
LINE
  5
8367
330
7DD1
100
AcDbEntity
  8
3
 62
     0
440
 16777216
100
AcDbLine
 10
1364.025356046366
 20
2618.990809944046
 30
0.0
 11
1364.025356046366
 21
2688.990809944046
 31
0.0
  0
LINE
  5
8368
330
7DD1
100
AcDbEntity
  8
3
 62
     0
440
 16777216
100
AcDbLine
 10
1364.025356046366
 20
2413.990809944046
 30
0.0
 11
1364.025356046366
 21
2103.990809944045
 31
0.0
  0
LINE
  5
8369
330
7DD1
100
AcDbEntity
  8
3
 62
     0
440
 16777216
100
AcDbLine
 10
1364.025356046366
 20
2548.990809944046
 30
0.0
 11
1364.025356046366
 21
2483.990809944045
 31
0.0
  0
INSERT
  5
836A
330
7DD1
100
AcDbEntity
  8
3
 62
     0
440
 16777216
100
AcDbBlockReference
  2
_DOT
 10
1364.025356046366
 20
2548.990809944046
 30
0.0
 41
70.0
 42
70.0
 43
70.0
 50
270.0
  0
INSERT
  5
836B
330
7DD1
100
AcDbEntity
  8
3
 62
     0
440
 16777216
100
AcDbBlockReference
  2
_OPEN
 10
1364.025356046366
 20
2483.990809944045
 30
0.0
 41
70.0
 42
70.0
 43
70.0
 50
90.0
  0
MTEXT
  5
836C
330
7DD1
100
AcDbEntity
  8
3
 62
     0
440
 16777216
100
AcDbMText
 10
1276.525356046366
 20
2223.990809944046
 30
0.0
 40
105.0
 41
0.0
 46
0.0
 71
     5
 72
     5
  1
\A1;65
 11
0.0000000000000001
 21
1.0
 31
0.0
 73
     1
 44
1.0
  0
POINT
  5
836D
330
7DD1
100
AcDbEntity
  8
DEFPOINTS
 62
     0
440
 16777216
100
AcDbPoint
 10
2035.982692113113
 20
2548.990809944046
 30
0.0
  0
POINT
  5
836E
330
7DD1
100
AcDbEntity
  8
DEFPOINTS
 62
     0
440
 16777216
100
AcDbPoint
 10
2035.982692113113
 20
2483.990809944045
 30
0.0
  0
POINT
  5
836F
330
7DD1
100
AcDbEntity
  8
DEFPOINTS
 62
     0
440
 16777216
100
AcDbPoint
 10
1364.025356046366
 20
2483.990809944045
 30
0.0
  0
ENDBLK
  5
8104
330
7DD1
100
AcDbEntity
  8
0
100
AcDbBlockEnd
  0
BLOCK
  5
7F7A
330
7DDF
100
AcDbEntity
  8
0
100
AcDbBlockBegin
  2
*D20
 70
     1
 10
0.0
 20
0.0
 30
0.0
  3
*D20
  1

  0
LINE
  5
8370
330
7DDF
100
AcDbEntity
  8
3
 62
     0
440
 16777216
100
AcDbLine
 10
1980.982692113111
 20
3830.490809944046
 30
0.0
 11
1980.982692113111
 21
4728.893741138516
 31
0.0
  0
LINE
  5
8371
330
7DDF
100
AcDbEntity
  8
3
 62
     0
440
 16777216
100
AcDbLine
 10
2660.982692113115
 20
4664.106675581001
 30
0.0
 11
2660.982692113115
 21
4728.893741138516
 31
0.0
  0
LINE
  5
8372
330
7DDF
100
AcDbEntity
  8
3
 62
     0
440
 16777216
100
AcDbLine
 10
2050.982692113112
 20
4693.893741138515
 30
0.0
 11
2590.982692113115
 21
4693.893741138515
 31
0.0
  0
INSERT
  5
8373
330
7DDF
100
AcDbEntity
  8
3
 62
     0
440
 16777216
100
AcDbBlockReference
  2
_OPEN
 10
1980.982692113111
 20
4693.893741138515
 30
0.0
 41
70.0
 42
70.0
 43
70.0
 50
180.0
  0
INSERT
  5
8374
330
7DDF
100
AcDbEntity
  8
3
 62
     0
440
 16777216
100
AcDbBlockReference
  2
_OPEN
 10
2660.982692113115
 20
4693.893741138515
 30
0.0
 41
70.0
 42
70.0
 43
70.0
  0
MTEXT
  5
8375
330
7DDF
100
AcDbEntity
  8
3
 62
     0
440
 16777216
100
AcDbMText
 10
2320.982692113113
 20
4781.393741138516
 30
0.0
 40
105.0
 41
0.0
 46
0.0
 71
     5
 72
     5
  1
\A1;680
 73
     1
 44
1.0
  0
POINT
  5
8376
330
7DDF
100
AcDbEntity
  8
DEFPOINTS
 62
     0
440
 16777216
100
AcDbPoint
 10
1980.982692113111
 20
3812.990809944047
 30
0.0
  0
POINT
  5
8377
330
7DDF
100
AcDbEntity
  8
DEFPOINTS
 62
     0
440
 16777216
100
AcDbPoint
 10
2660.982692113115
 20
4646.606675581
 30
0.0
  0
POINT
  5
8378
330
7DDF
100
AcDbEntity
  8
DEFPOINTS
 62
     0
440
 16777216
100
AcDbPoint
 10
2660.982692113115
 20
4693.893741138515
 30
0.0
  0
ENDBLK
  5
7F84
330
7DDF
100
AcDbEntity
  8
0
100
AcDbBlockEnd
  0
BLOCK
  5
7F6F
330
7DEB
100
AcDbEntity
  8
0
100
AcDbBlockBegin
  2
*D21
 70
     1
 10
0.0
 20
0.0
 30
0.0
  3
*D21
  1

  0
LINE
  5
8379
330
7DEB
100
AcDbEntity
  8
3
 62
     0
440
 16777216
100
AcDbLine
 10
2660.982692113115
 20
4664.106675581001
 30
0.0
 11
2660.982692113115
 21
4728.893741138516
 31
0.0
  0
LINE
  5
837A
330
7DEB
100
AcDbEntity
  8
3
 62
     0
440
 16777216
100
AcDbLine
 10
3528.982692113113
 20
3747.490809944046
 30
0.0
 11
3528.982692113113
 21
4728.893741138516
 31
0.0
  0
LINE
  5
837B
330
7DEB
100
AcDbEntity
  8
3
 62
     0
440
 16777216
100
AcDbLine
 10
2730.982692113114
 20
4693.893741138515
 30
0.0
 11
3458.982692113113
 21
4693.893741138515
 31
0.0
  0
INSERT
  5
837C
330
7DEB
100
AcDbEntity
  8
3
 62
     0
440
 16777216
100
AcDbBlockReference
  2
_OPEN
 10
2660.982692113115
 20
4693.893741138515
 30
0.0
 41
70.0
 42
70.0
 43
70.0
 50
180.0
  0
INSERT
  5
837D
330
7DEB
100
AcDbEntity
  8
3
 62
     0
440
 16777216
100
AcDbBlockReference
  2
_OPEN
 10
3528.982692113113
 20
4693.893741138515
 30
0.0
 41
70.0
 42
70.0
 43
70.0
  0
MTEXT
  5
837E
330
7DEB
100
AcDbEntity
  8
3
 62
     0
440
 16777216
100
AcDbMText
 10
3094.982692113113
 20
4781.393741138516
 30
0.0
 40
105.0
 41
0.0
 46
0.0
 71
     5
 72
     5
  1
\A1;868
 73
     1
 44
1.0
  0
POINT
  5
837F
330
7DEB
100
AcDbEntity
  8
DEFPOINTS
 62
     0
440
 16777216
100
AcDbPoint
 10
2660.982692113115
 20
4646.606675581
 30
0.0
  0
POINT
  5
8380
330
7DEB
100
AcDbEntity
  8
DEFPOINTS
 62
     0
440
 16777216
100
AcDbPoint
 10
3528.982692113113
 20
3729.990809944047
 30
0.0
  0
POINT
  5
8381
330
7DEB
100
AcDbEntity
  8
DEFPOINTS
 62
     0
440
 16777216
100
AcDbPoint
 10
3528.982692113113
 20
4693.893741138515
 30
0.0
  0
ENDBLK
  5
7F79
330
7DEB
100
AcDbEntity
  8
0
100
AcDbBlockEnd
  0
BLOCK
  5
7F64
330
7DF6
100
AcDbEntity
  8
0
100
AcDbBlockBegin
  2
*D22
 70
     1
 10
0.0
 20
0.0
 30
0.0
  3
*D22
  1

  0
LINE
  5
8382
330
7DF6
100
AcDbEntity
  8
3
 62
     0
440
 16777216
100
AcDbLine
 10
1980.982692113111
 20
3821.490809944046
 30
0.0
 11
1980.982692113111
 21
4937.045837583235
 31
0.0
  0
LINE
  5
8383
330
7DF6
100
AcDbEntity
  8
3
 62
     0
440
 16777216
100
AcDbLine
 10
4235.982692113114
 20
2736.490809944044
 30
0.0
 11
4235.982692113114
 21
4937.045837583235
 31
0.0
  0
LINE
  5
8384
330
7DF6
100
AcDbEntity
  8
3
 62
     0
440
 16777216
100
AcDbLine
 10
2050.982692113112
 20
4902.045837583234
 30
0.0
 11
4165.982692113114
 21
4902.045837583234
 31
0.0
  0
INSERT
  5
8385
330
7DF6
100
AcDbEntity
  8
3
 62
     0
440
 16777216
100
AcDbBlockReference
  2
_OPEN
 10
1980.982692113111
 20
4902.045837583234
 30
0.0
 41
70.0
 42
70.0
 43
70.0
 50
180.0
  0
INSERT
  5
8386
330
7DF6
100
AcDbEntity
  8
3
 62
     0
440
 16777216
100
AcDbBlockReference
  2
_OPEN
 10
4235.982692113114
 20
4902.045837583234
 30
0.0
 41
70.0
 42
70.0
 43
70.0
  0
MTEXT
  5
8387
330
7DF6
100
AcDbEntity
  8
3
 62
     0
440
 16777216
100
AcDbMText
 10
3108.482692113113
 20
4989.545837583235
 30
0.0
 40
105.0
 41
0.0
 46
0.0
 71
     5
 72
     5
  1
\A1;2255
 73
     1
 44
1.0
  0
POINT
  5
8388
330
7DF6
100
AcDbEntity
  8
DEFPOINTS
 62
     0
440
 16777216
100
AcDbPoint
 10
1980.982692113111
 20
3803.990809944045
 30
0.0
  0
POINT
  5
8389
330
7DF6
100
AcDbEntity
  8
DEFPOINTS
 62
     0
440
 16777216
100
AcDbPoint
 10
4235.982692113114
 20
2718.990809944044
 30
0.0
  0
POINT
  5
838A
330
7DF6
100
AcDbEntity
  8
DEFPOINTS
 62
     0
440
 16777216
100
AcDbPoint
 10
4235.982692113114
 20
4902.045837583234
 30
0.0
  0
ENDBLK
  5
7F6E
330
7DF6
100
AcDbEntity
  8
0
100
AcDbBlockEnd
  0
BLOCK
  5
80F4
330
80EE
100
AcDbEntity
  8
0
100
AcDbBlockBegin
  2
_DOT
 70
     0
 10
0.0
 20
0.0
 30
0.0
  3
_DOT
  1

  0
LWPOLYLINE
  5
80EF
330
80EE
100
AcDbEntity
  8
0
  6
ByBlock
 62
     0
100
AcDbPolyline
 90
        2
 70
     1
 43
0.25
 10
-0.125
 20
0.0
 42
1.0
 10
0.125
 20
0.0
 42
1.0
  0
LINE
  5
80F3
330
80EE
100
AcDbEntity
  8
0
  6
ByBlock
 62
     0
100
AcDbLine
 10
-0.25
 20
0.0
 30
0.0
 11
-1.0
 21
0.0
 31
0.0
  0
ENDBLK
  5
80F5
330
80EE
100
AcDbEntity
  8
0
100
AcDbBlockEnd
  0
BLOCK
  5
8197
330
8196
100
AcDbEntity
  8
0
100
AcDbBlockBegin
  2
*D24
 70
     1
 10
0.0
 20
0.0
 30
0.0
  3
*D24
  1

  0
LINE
  5
8198
330
8196
100
AcDbEntity
  8
0
  6
ByBlock
 62
     0
440
 16777216
100
AcDbLine
 10
1903.866709615485
 20
3803.990809944045
 30
0.0
 11
1331.123289304261
 21
3803.990809944045
 31
0.0
  0
LINE
  5
8199
330
8196
100
AcDbEntity
  8
0
  6
ByBlock
 62
     0
440
 16777216
100
AcDbLine
 10
2717.482692113112
 20
4523.990809944046
 30
0.0
 11
1331.123289304261
 21
4523.990809944046
 31
0.0
  0
LINE
  5
819A
330
8196
100
AcDbEntity
  8
0
  6
ByBlock
 62
     0
440
 16777216
100
AcDbLine
 10
1366.123289304261
 20
3873.990809944046
 30
0.0
 11
1366.123289304261
 21
4453.990809944047
 31
0.0
  0
INSERT
  5
819B
330
8196
100
AcDbEntity
  8
0
  6
ByBlock
 62
     0
440
 16777216
100
AcDbBlockReference
  2
_OPEN
 10
1366.123289304261
 20
3803.990809944045
 30
0.0
 41
70.0
 42
70.0
 43
70.0
 50
270.0
  0
INSERT
  5
819C
330
8196
100
AcDbEntity
  8
0
  6
ByBlock
 62
     0
440
 16777216
100
AcDbBlockReference
  2
_OPEN
 10
1366.123289304261
 20
4523.990809944046
 30
0.0
 41
70.0
 42
70.0
 43
70.0
 50
90.0
  0
MTEXT
  5
819D
330
8196
100
AcDbEntity
  8
0
  6
ByBlock
 62
     0
440
 16777216
100
AcDbMText
 10
1278.623289304261
 20
4163.990809944045
 30
0.0
 40
105.0
 41
0.0
 46
0.0
 71
     5
 72
     5
  1
\A1;720
 11
0.0
 21
1.0
 31
0.0
 73
     1
 44
1.0
  0
POINT
  5
819E
330
8196
100
AcDbEntity
  8
DEFPOINTS
  6
ByBlock
 62
     0
440
 16777216
100
AcDbPoint
 10
1921.366709615485
 20
3803.990809944045
 30
0.0
  0
POINT
  5
819F
330
8196
100
AcDbEntity
  8
DEFPOINTS
  6
ByBlock
 62
     0
440
 16777216
100
AcDbPoint
 10
2734.982692113112
 20
4523.990809944046
 30
0.0
  0
POINT
  5
81A0
330
8196
100
AcDbEntity
  8
DEFPOINTS
  6
ByBlock
 62
     0
440
 16777216
100
AcDbPoint
 10
1366.123289304261
 20
4523.990809944046
 30
0.0
  0
ENDBLK
  5
81A1
330
8196
100
AcDbEntity
  8
0
100
AcDbBlockEnd
  0
BLOCK
  5
81A4
330
81A3
100
AcDbEntity
  8
0
100
AcDbBlockBegin
  2
*D25
 70
     1
 10
0.0
 20
0.0
 30
0.0
  3
*D25
  1

  0
LINE
  5
81A5
330
81A3
100
AcDbEntity
  8
0
  6
ByBlock
 62
     0
440
 16777216
100
AcDbLine
 10
2699.982692113112
 20
4523.990809944046
 30
0.0
 11
1027.073065355202
 21
4523.990809944046
 31
0.0
  0
LINE
  5
81A6
330
81A3
100
AcDbEntity
  8
0
  6
ByBlock
 62
     0
440
 16777216
100
AcDbLine
 10
2018.482692113113
 20
2483.990809944045
 30
0.0
 11
1027.073065355202
 21
2483.990809944045
 31
0.0
  0
LINE
  5
81A7
330
81A3
100
AcDbEntity
  8
0
  6
ByBlock
 62
     0
440
 16777216
100
AcDbLine
 10
1062.073065355201
 20
4453.990809944047
 30
0.0
 11
1062.073065355201
 21
2553.990809944045
 31
0.0
  0
INSERT
  5
81A8
330
81A3
100
AcDbEntity
  8
0
  6
ByBlock
 62
     0
440
 16777216
100
AcDbBlockReference
  2
_OPEN
 10
1062.073065355201
 20
4523.990809944046
 30
0.0
 41
70.0
 42
70.0
 43
70.0
 50
90.0
  0
INSERT
  5
81A9
330
81A3
100
AcDbEntity
  8
0
  6
ByBlock
 62
     0
440
 16777216
100
AcDbBlockReference
  2
_OPEN
 10
1062.073065355201
 20
2483.990809944045
 30
0.0
 41
70.0
 42
70.0
 43
70.0
 50
270.0
  0
MTEXT
  5
81AA
330
81A3
100
AcDbEntity
  8
0
  6
ByBlock
 62
     0
440
 16777216
100
AcDbMText
 10
947.0730653552019
 20
3503.990809944046
 30
0.0
 40
105.0
 41
0.0
 46
0.0
 71
     5
 72
     5
  1
\A1;(2040)
 11
0.0
 21
1.0
 31
0.0
 73
     1
 44
1.0
  0
POINT
  5
81AB
330
81A3
100
AcDbEntity
  8
DEFPOINTS
  6
ByBlock
 62
     0
440
 16777216
100
AcDbPoint
 10
2717.482692113112
 20
4523.990809944046
 30
0.0
  0
POINT
  5
81AC
330
81A3
100
AcDbEntity
  8
DEFPOINTS
  6
ByBlock
 62
     0
440
 16777216
100
AcDbPoint
 10
2035.982692113113
 20
2483.990809944045
 30
0.0
  0
POINT
  5
81AD
330
81A3
100
AcDbEntity
  8
DEFPOINTS
  6
ByBlock
 62
     0
440
 16777216
100
AcDbPoint
 10
1062.073065355201
 20
2483.990809944045
 30
0.0
  0
ENDBLK
  5
81AE
330
81A3
100
AcDbEntity
  8
0
100
AcDbBlockEnd
  0
ENDSEC
  0
SECTION
  2
ENTITIES
  0
INSERT
  5
7C20
330
19
100
AcDbEntity
  8
0
100
AcDbBlockReference
  2
YA_N
 10
6.0
 20
5.0
 30
0.0
  0
LINE
  5
7C22
330
19
100
AcDbEntity
  8
2
100
AcDbLine
 10
5023.196155815934
 20
3803.990809944047
 30
0.0
 11
6833.218228585443
 21
3803.990809944047
 31
0.0
  0
LINE
  5
7C23
330
19
100
AcDbEntity
  8
2
100
AcDbLine
 10
6027.141597036141
 20
4731.948884392906
 30
0.0
 11
6027.141597036141
 21
2483.990809944046
 31
0.0
  0
INSERT
  5
7C24
330
19
100
AcDbEntity
  8
0
 48
10.0
100
AcDbBlockReference
  2
YA_N
 10
-1637.209838160517
 20
-1405.432827243363
 30
0.0
 41
25.0
 42
25.0
 43
25.0
  0
INSERT
  5
7C26
330
19
100
AcDbEntity
  8
0
 48
10.0
100
AcDbBlockReference
  2
YA_N
 10
-1144.893563079055
 20
-989.0222135336152
 30
0.0
 41
25.0
 42
25.0
 43
25.0
  0
LINE
  5
7C28
330
19
100
AcDbEntity
  8
2
100
AcDbLine
 10
5023.196155815934
 20
2953.990809944047
 30
0.0
 11
5766.641597036141
 21
2953.990809944047
 31
0.0
  0
LINE
  5
7C2F
330
19
100
AcDbEntity
  8
1
 48
10.0
100
AcDbLine
 10
5167.141597036142
 20
3152.990809944047
 30
0.0
 11
5766.641597036141
 21
3152.990809944046
 31
0.0
  0
LINE
  5
7C30
330
19
100
AcDbEntity
  8
1
 48
10.0
100
AcDbLine
 10
5167.141597036142
 20
2754.990809944047
 30
0.0
 11
5766.641597036141
 21
2754.990809944047
 31
0.0
  0
LINE
  5
7C31
330
19
100
AcDbEntity
  8
1
 48
10.0
100
AcDbLine
 10
5167.141597036142
 20
3152.990809944047
 30
0.0
 11
5167.141597036142
 21
2754.990809944047
 31
0.0
  0
LINE
  5
7C32
330
19
100
AcDbEntity
  8
1
 48
10.0
100
AcDbLine
 10
5162.141597036141
 20
2981.490809944046
 30
0.0
 11
5167.141597036142
 21
2981.490809944046
 31
0.0
  0
LINE
  5
7C33
330
19
100
AcDbEntity
  8
1
 48
10.0
100
AcDbLine
 10
5162.141597036141
 20
2926.490809944047
 30
0.0
 11
5167.141597036142
 21
2926.490809944047
 31
0.0
  0
LINE
  5
7C34
330
19
100
AcDbEntity
  8
1
 48
10.0
100
AcDbLine
 10
4947.641597036145
 20
2733.990809944046
 30
0.0
 11
5199.641597036145
 21
2733.990809944046
 31
0.0
  0
LINE
  5
7C35
330
19
100
AcDbEntity
  8
1
 48
10.0
100
AcDbLine
 10
4947.641597036136
 20
4083.990809944046
 30
0.0
 11
5199.641597036136
 21
4083.990809944046
 31
0.0
  0
LINE
  5
7C36
330
19
100
AcDbEntity
  8
1
 48
10.0
100
AcDbLine
 10
5052.141597036142
 20
2839.690809944046
 30
0.0
 11
5162.141597036141
 21
2839.690809944046
 31
0.0
  0
LINE
  5
7C37
330
19
100
AcDbEntity
  8
1
 48
10.0
100
AcDbLine
 10
5052.141597036142
 20
3068.290809944047
 30
0.0
 11
5162.141597036141
 21
3068.290809944047
 31
0.0
  0
LINE
  5
7C38
330
19
100
AcDbEntity
  8
1
 48
10.0
100
AcDbLine
 10
5052.141597036142
 20
3638.890809944046
 30
0.0
 11
5162.141597036141
 21
3638.890809944046
 31
0.0
  0
LINE
  5
7C39
330
19
100
AcDbEntity
  8
1
 48
10.0
100
AcDbLine
 10
5052.141597036142
 20
3969.090809944047
 30
0.0
 11
5162.141597036141
 21
3969.090809944047
 31
0.0
  0
LINE
  5
7C3A
330
19
100
AcDbEntity
  8
1
 48
10.0
100
AcDbLine
 10
4947.641597036136
 20
4083.990809944046
 30
0.0
 11
4947.641597036145
 21
2733.990809944046
 31
0.0
  0
LINE
  5
7C3B
330
19
100
AcDbEntity
  8
1
 48
10.0
100
AcDbLine
 10
5052.141597036142
 20
3969.090809944047
 30
0.0
 11
5052.141597036142
 21
2839.690809944046
 31
0.0
  0
POINT
  5
7C3D
330
19
100
AcDbEntity
  8
1
 48
10.0
100
AcDbPoint
 10
4947.641597036136
 20
4083.990809944046
 30
0.0
  0
DIMENSION
  5
7C3E
330
19
100
AcDbEntity
  8
3
 48
10.0
100
AcDbDimension
280
     0
  2
*D2
 10
7112.960011053274
 20
4303.990809944046
 30
0.0
 11
7025.460011053273
 21
3803.990809944048
 31
0.0
 70
    32
  1
φ<>
 71
     5
 42
-1.0
 73
     0
 74
     0
 75
     0
  3
IGA
100
AcDbAlignedDimension
 13
6692.641597036142
 23
3303.990809944047
 33
0.0
 14
6692.641597036142
 24
4303.990809944046
 34
0.0
 50
90.0
100
AcDbRotatedDimension
1001
ACAD
1000
DSTYLE
1002
{
1070
   287
1070
     3
1070
    40
1040
35.0
1070
   143
1040
0.039
1070
   172
1070
     1
1070
   271
1070
     0
1070
   279
1070
     0
1070
   288
1070
     1
1002
}
  0
LINE
  5
7C3F
330
19
100
AcDbEntity
  8
1
 48
10.0
100
AcDbLine
 10
5162.141597036141
 20
3969.090809944047
 30
0.0
 11
5162.141597036139
 21
2839.690809944046
 31
0.0
  0
DIMENSION
  5
7C40
330
19
100
AcDbEntity
  8
3
 48
10.0
100
AcDbDimension
280
     0
  2
*D3
 10
6755.141597036142
 20
2284.078944532244
 30
0.0
 11
6391.141597036142
 21
2371.578944532244
 31
0.0
 70
    32
 71
     5
 42
-1.0
 73
     0
 74
     0
 75
     0
  3
IGA
100
AcDbAlignedDimension
 13
6027.141597036141
 23
2483.990809944046
 33
0.0
 14
6755.141597036142
 24
2483.990809944046
 34
0.0
100
AcDbRotatedDimension
1001
ACAD
1000
DSTYLE
1002
{
1070
   287
1070
     3
1070
    40
1040
35.0
1070
   143
1040
0.039
1070
   172
1070
     1
1070
   271
1070
     0
1070
   279
1070
     0
1070
   288
1070
     1
1002
}
  0
LINE
  5
7C42
330
19
100
AcDbEntity
  8
1
 48
10.0
100
AcDbLine
 10
5105.141597036141
 20
2483.990809944046
 30
0.0
 11
6755.141597036142
 21
2483.990809944046
 31
0.0
  0
LINE
  5
7C43
330
19
100
AcDbEntity
  8
1
 48
10.0
100
AcDbLine
 10
5105.141597036141
 20
2548.990809944046
 30
0.0
 11
6755.141597036142
 21
2548.990809944046
 31
0.0
1001
ACAD
1000
ASC_BOUNDS
1002
{
1070
    19
1002
}
  0
LINE
  5
7C44
330
19
100
AcDbEntity
  8
1
 48
10.0
100
AcDbLine
 10
5105.141597036141
 20
2718.990809944046
 30
0.0
 11
6755.141597036142
 21
2718.990809944046
 31
0.0
  0
LINE
  5
7C45
330
19
100
AcDbEntity
  8
1
 48
10.0
100
AcDbLine
 10
5105.141597036141
 20
2593.990809944046
 30
0.0
 11
6755.141597036142
 21
2593.990809944046
 31
0.0
1001
ACAD
1000
ASC_BOUNDS
1002
{
1070
    19
1002
}
  0
DIMENSION
  5
7C46
330
19
100
AcDbEntity
  8
3
 48
10.0
100
AcDbDimension
280
     0
  2
*D4
 10
6027.141597036141
 20
2284.078944532244
 30
0.0
 11
5566.141597036142
 21
2371.578944532244
 31
0.0
 70
    32
 71
     5
 42
-1.0
 73
     0
 74
     0
 75
     0
  3
IGA
100
AcDbAlignedDimension
 13
5105.141597036141
 23
2483.990809944046
 33
0.0
 14
6027.141597036141
 24
2483.990809944046
 34
0.0
100
AcDbRotatedDimension
1001
ACAD
1000
DSTYLE
1002
{
1070
   287
1070
     3
1070
    40
1040
35.0
1070
   143
1040
0.039
1070
   172
1070
     1
1070
   271
1070
     0
1070
   279
1070
     0
1070
   288
1070
     1
1002
}
  0
LINE
  5
7C47
330
19
100
AcDbEntity
  8
1
 48
10.0
100
AcDbLine
 10
5105.141597036141
 20
2548.990809944046
 30
0.0
 11
5105.141597036141
 21
2483.990809944046
 31
0.0
  0
LINE
  5
7C48
330
19
100
AcDbEntity
  8
1
 48
10.0
100
AcDbLine
 10
5105.141597036141
 20
2718.990809944046
 30
0.0
 11
5105.141597036141
 21
2593.990809944046
 31
0.0
  0
LINE
  5
7C49
330
19
100
AcDbEntity
  8
1
 48
10.0
100
AcDbLine
 10
5199.641597036145
 20
2791.511561982801
 30
0.0
 11
5199.641597036145
 21
2733.990809944049
 31
0.0
  0
LINE
  5
7C4A
330
19
100
AcDbEntity
  8
1
 48
10.0
100
AcDbLine
 10
6755.141597036142
 20
2548.990809944046
 30
0.0
 11
6755.141597036142
 21
2483.990809944046
 31
0.0
  0
LINE
  5
7C4B
330
19
100
AcDbEntity
  8
1
 48
10.0
100
AcDbLine
 10
6755.141597036142
 20
2718.990809944046
 30
0.0
 11
6755.141597036142
 21
2593.990809944046
 31
0.0
  0
LINE
  5
7C4C
330
19
100
AcDbEntity
  8
1
 48
10.0
100
AcDbLine
 10
5367.141597036141
 20
4523.990809944046
 30
0.0
 11
5367.141597036141
 21
3152.990809944046
 31
0.0
  0
LINE
  5
7C4D
330
19
100
AcDbEntity
  8
1
 48
10.0
100
AcDbLine
 10
6687.141597036141
 20
4523.990809944046
 30
0.0
 11
6687.141597036141
 21
2729.990809944047
 31
0.0
  0
LINE
  5
7C4F
330
19
100
AcDbEntity
  8
1
 48
10.0
100
AcDbLine
 10
5211.241597036142
 20
3863.490809944046
 30
0.0
 11
5211.241597036139
 21
3744.490809944046
 31
0.0
  0
LINE
  5
7C50
330
19
100
AcDbEntity
  8
1
 48
10.0
100
AcDbLine
 10
5209.64159703614
 20
3721.990809944046
 30
0.0
 11
5209.641597036141
 21
3591.990809944046
 31
0.0
  0
ARC
  5
7C51
330
19
100
AcDbEntity
  8
1
 48
10.0
100
AcDbCircle
 10
5219.641597036141
 20
3591.990809944046
 30
0.0
 40
10.0
100
AcDbArc
 50
180.0000000000007
 51
270.0
  0
LINE
  5
7C52
330
19
100
AcDbEntity
  8
1
 48
10.0
100
AcDbLine
 10
5219.641597036141
 20
3581.990809944046
 30
0.0
 11
5367.141597036141
 21
3581.990809944046
 31
0.0
  0
ARC
  5
7C53
330
19
100
AcDbEntity
  8
1
 48
10.0
100
AcDbCircle
 10
5219.641597036139
 20
3721.990809944047
 30
0.0
 40
10.0
100
AcDbArc
 50
90.0
 51
180.0000000000007
  0
LINE
  5
7C54
330
19
100
AcDbEntity
  8
1
 48
10.0
100
AcDbLine
 10
5219.641597036139
 20
3731.990809944046
 30
0.0
 11
5367.141597036141
 21
3731.990809944046
 31
0.0
  0
LINE
  5
7C55
330
19
100
AcDbEntity
  8
1
 48
10.0
100
AcDbLine
 10
5211.241597036142
 20
3744.490809944046
 30
0.0
 11
5367.141597036141
 21
3744.490809944046
 31
0.0
  0
LINE
  5
7C56
330
19
100
AcDbEntity
  8
1
 48
10.0
100
AcDbLine
 10
5167.141597036142
 20
3763.990809944046
 30
0.0
 11
5211.241597036139
 21
3763.990809944046
 31
0.0
  0
LINE
  5
7C57
330
19
100
AcDbEntity
  8
1
 48
10.0
100
AcDbLine
 10
5167.141597036142
 20
3843.990809944047
 30
0.0
 11
5211.241597036139
 21
3843.990809944047
 31
0.0
  0
LINE
  5
7C58
330
19
100
AcDbEntity
  8
1
 48
10.0
100
AcDbLine
 10
5162.141597036141
 20
3773.990809944046
 30
0.0
 11
5167.141597036142
 21
3773.990809944046
 31
0.0
  0
LINE
  5
7C59
330
19
100
AcDbEntity
  8
1
 48
10.0
100
AcDbLine
 10
5162.141597036141
 20
3833.990809944046
 30
0.0
 11
5167.141597036142
 21
3833.990809944046
 31
0.0
  0
LINE
  5
7C5A
330
19
100
AcDbEntity
  8
1
 48
10.0
100
AcDbLine
 10
5167.141597036142
 20
3843.990809944047
 30
0.0
 11
5167.141597036142
 21
3763.990809944046
 31
0.0
  0
LINE
  5
7C5B
330
19
100
AcDbEntity
  8
1
 48
10.0
100
AcDbLine
 10
5211.241597036139
 20
3863.490809944046
 30
0.0
 11
5367.141597036141
 21
3863.490809944046
 31
0.0
  0
LINE
  5
7C5C
330
19
100
AcDbEntity
  8
1
 48
10.0
100
AcDbLine
 10
5199.641597036136
 20
4083.990809944048
 30
0.0
 11
5199.641597036136
 21
4063.990809944046
 31
0.0
  0
LINE
  5
7C60
330
19
100
AcDbEntity
  8
1
 48
10.0
100
AcDbLine
 10
6027.141597036141
 20
2729.990809944047
 30
0.0
 11
5698.385229876531
 21
2729.990809944047
 31
0.0
  0
LINE
  5
7C61
330
19
100
AcDbEntity
  8
1
 48
10.0
100
AcDbLine
 10
6027.141597036141
 20
2729.990809944047
 30
0.0
 11
6687.141597036141
 21
2729.990809944047
 31
0.0
  0
POINT
  5
7C64
330
19
100
AcDbEntity
  8
1
 48
10.0
100
AcDbPoint
 10
6027.141597036141
 20
5059.221506849841
 30
0.0
  0
LINE
  5
7C65
330
19
100
AcDbEntity
  8
1
 48
10.0
100
AcDbLine
 10
6827.141597036142
 20
3761.790809944046
 30
0.0
 11
6827.141597036142
 21
3631.790809944047
 31
0.0
  0
LINE
  5
7C66
330
19
100
AcDbEntity
  8
1
 48
10.0
100
AcDbLine
 10
6687.141597036141
 20
3621.790809944047
 30
0.0
 11
6817.141597036144
 21
3621.790809944047
 31
0.0
  0
ARC
  5
7C67
330
19
100
AcDbEntity
  8
1
 48
10.0
100
AcDbCircle
 10
6817.141597036144
 20
3631.790809944047
 30
0.0
 40
10.0
100
AcDbArc
 50
270.0
 51
0.0000000000006514
  0
POINT
  5
7C68
330
19
100
AcDbEntity
  8
1
 48
10.0
100
AcDbPoint
 10
6827.141597036145
 20
3761.790809944046
 30
0.0
  0
LINE
  5
7C69
330
19
100
AcDbEntity
  8
1
 48
10.0
100
AcDbLine
 10
6687.141597036141
 20
3771.790809944047
 30
0.0
 11
6817.14159703614
 21
3771.790809944047
 31
0.0
  0
LINE
  5
7C6A
330
19
100
AcDbEntity
  8
1
 48
10.0
100
AcDbLine
 10
6813.741597036141
 20
3771.490809944046
 30
0.0
 11
6817.14159703614
 21
3771.490809944046
 31
0.0
  0
ARC
  5
7C6B
330
19
100
AcDbEntity
  8
1
 48
10.0
100
AcDbCircle
 10
6817.141597036145
 20
3761.790809944046
 30
0.0
 40
10.0
100
AcDbArc
 50
0.0000000000006514
 51
90.0
  0
DIMENSION
  5
7C6C
330
19
100
AcDbEntity
  8
3
 48
10.0
100
AcDbDimension
280
     0
  2
*D5
 10
6027.141597036141
 20
5060.248988613934
 30
0.0
 11
6427.141597036142
 21
5175.248988613933
 31
0.0
 70
    32
  1
(<>)
 71
     5
 42
800.0
 73
     0
 74
     0
 75
     0
  3
IGA
100
AcDbAlignedDimension
 13
6827.141597036142
 23
3761.790809944046
 33
0.0
 14
6027.141597036141
 24
4884.458071057314
 34
0.0
100
AcDbRotatedDimension
1001
ACAD
1000
DSTYLE
1002
{
1070
   287
1070
     3
1070
    40
1040
35.0
1070
   143
1040
0.039
1070
   172
1070
     1
1070
   271
1070
     0
1070
   279
1070
     0
1070
   288
1070
     1
1002
}
  0
DIMENSION
  5
7C6D
330
19
100
AcDbEntity
  8
3
 48
10.0
100
AcDbDimension
280
     0
  2
*D6
 10
4947.641597036136
 20
5060.248988613934
 30
0.0
 11
5487.391597036139
 21
5175.248988613933
 31
0.0
 70
    32
  1
(<>)
 71
     5
 42
1079.500000000005
 73
     0
 74
     0
 75
     0
  3
IGA
100
AcDbAlignedDimension
 13
6027.141597036141
 23
4884.458071057314
 33
0.0
 14
4947.641597036136
 24
4083.990809944046
 34
0.0
100
AcDbRotatedDimension
1001
ACAD
1000
DSTYLE
1002
{
1070
   287
1070
     3
1070
    40
1040
35.0
1070
   143
1040
0.039
1070
   172
1070
     1
1070
   271
1070
     0
1070
   279
1070
     0
1070
   288
1070
     1
1002
}
  0
DIMENSION
  5
7C6E
330
19
100
AcDbEntity
  8
3
 48
10.0
100
AcDbDimension
280
     0
  2
*D7
 10
6687.141597036141
 20
4739.256157341042
 30
0.0
 11
6023.086769404377
 21
4739.256157341042
 31
0.0
 70
   160
 71
     5
 42
-1.0
 73
     0
 74
     0
 75
     0
  3
IGA
100
AcDbAlignedDimension
 13
5367.141597036141
 23
4523.990809944046
 33
0.0
 14
6687.141597036141
 24
4523.990809944046
 34
0.0
100
AcDbRotatedDimension
1001
ACAD
1000
DSTYLE
1002
{
1070
   287
1070
     3
1070
    40
1040
35.0
1070
   143
1040
0.039
1070
   172
1070
     1
1070
   271
1070
     0
1070
   279
1070
     0
1070
   288
1070
     1
1002
}
  0
LINE
  5
7C6F
330
19
100
AcDbEntity
  8
1
 48
10.0
100
AcDbLine
 10
3285.982692113114
 20
7530.340762817771
 30
0.0
 11
2035.982692113114
 21
7530.340762817771
 31
0.0
  0
DIMENSION
  5
7C70
330
19
100
AcDbEntity
  8
3
 48
10.0
100
AcDbDimension
280
     0
  2
*D8
 10
2035.982692113114
 20
7932.367410259849
 30
0.0
 11
2660.982692113114
 21
8019.867410259848
 31
0.0
 70
    32
 71
     5
 42
-1.0
 73
     0
 74
     0
 75
     0
  3
IGA
100
AcDbAlignedDimension
 13
3285.982692113114
 23
7530.340762817771
 33
0.0
 14
2035.982692113114
 24
7530.340762817771
 34
0.0
100
AcDbRotatedDimension
1001
ACAD
1000
DSTYLE
1002
{
1070
   287
1070
     3
1070
    40
1040
35.0
1070
   143
1040
0.039
1070
   172
1070
     1
1070
   271
1070
     0
1070
   279
1070
     0
1070
   288
1070
     1
1002
}
  0
LINE
  5
7C71
330
19
100
AcDbEntity
  8
1
 48
10.0
100
AcDbLine
 10
4235.982692113114
 20
5880.34076281777
 30
0.0
 11
2035.982692113114
 21
5880.34076281777
 31
0.0
  0
LINE
  5
7C72
330
19
100
AcDbEntity
  8
2
100
AcDbLine
 10
3528.982692113114
 20
6802.34076281777
 30
0.0
 11
1882.340305880076
 21
6802.34076281777
 31
0.0
  0
DIMENSION
  5
7C73
330
19
100
AcDbEntity
  8
3
 48
10.0
100
AcDbDimension
280
     0
  2
*D9
 10
2035.982692113114
 20
5440.520103322579
 30
0.0
 11
3135.982692113114
 21
5440.520103322579
 31
0.0
 70
   160
 71
     5
 42
-1.0
 73
     0
 74
     0
 75
     0
  3
IGA
100
AcDbAlignedDimension
 13
4235.982692113114
 23
5880.34076281777
 33
0.0
 14
2035.982692113114
 24
5880.34076281777
 34
0.0
100
AcDbRotatedDimension
1001
ACAD
1000
DSTYLE
1002
{
1070
   287
1070
     3
1070
    40
1040
35.0
1070
   143
1040
0.039
1070
   172
1070
     1
1070
   271
1070
     0
1070
   279
1070
     0
1070
   288
1070
     1
1002
}
  0
LINE
  5
7C74
330
19
100
AcDbEntity
  8
1
 48
10.0
100
AcDbLine
 10
3528.982692113114
 20
7462.340762817771
 30
0.0
 11
1980.982692113113
 21
7462.34076281777
 31
0.0
  0
LINE
  5
7C75
330
19
100
AcDbEntity
  8
1
 48
10.0
100
AcDbLine
 10
3528.982692113114
 20
6142.340762817771
 30
0.0
 11
1980.982692113113
 21
6142.34076281777
 31
0.0
  0
LINE
  5
7C76
330
19
100
AcDbEntity
  8
1
 48
10.0
100
AcDbLine
 10
4180.982692113113
 20
5722.34076281777
 30
0.0
 11
2380.982692113113
 21
5722.34076281777
 31
0.0
  0
LINE
  5
7C77
330
19
100
AcDbEntity
  8
1
 48
10.0
100
AcDbLine
 10
4180.982692113113
 20
5952.34076281777
 30
0.0
 11
2380.982692113113
 21
5952.34076281777
 31
0.0
  0
ARC
  5
7C78
330
19
100
AcDbEntity
  8
1
 48
10.0
100
AcDbCircle
 10
2660.982692113115
 20
3803.990809944046
 30
0.0
 40
280.0
100
AcDbArc
 50
54.60763782985956
 51
239.0353388513548
  0
CIRCLE
  5
7C79
330
19
100
AcDbEntity
  8
1
 48
10.0
100
AcDbCircle
 10
2660.982692113115
 20
3803.990809944046
 30
0.0
 40
500.0
  0
CIRCLE
  5
7C7A
330
19
100
AcDbEntity
  8
1
 48
10.0
100
AcDbCircle
 10
2660.982692113115
 20
3803.990809944046
 30
0.0
 40
550.0
  0
ARC
  5
7C7B
330
19
100
AcDbEntity
  8
1
 48
10.0
100
AcDbCircle
 10
2586.982692113112
 20
3729.990809944047
 30
0.0
 40
942.0
100
AcDbArc
 50
274.5055845266445
 51
4.505584526644465
  0
ARC
  5
7C7C
330
19
100
AcDbEntity
  8
1
 48
10.0
100
AcDbCircle
 10
2734.982692113113
 20
3729.990809944047
 30
0.0
 40
794.0
100
AcDbArc
 50
5.347669749838796
 51
95.34766974983881
  0
LINE
  5
7C7D
330
19
100
AcDbEntity
  8
1
 48
10.0
100
AcDbLine
 10
4235.982692113114
 20
2718.990809944044
 30
0.0
 11
2035.982692113113
 21
2718.990809944046
 31
0.0
  0
LINE
  5
7C7E
330
19
100
AcDbEntity
  8
2
100
AcDbLine
 10
1921.366709615485
 20
3803.990809944045
 30
0.0
 11
3593.497608169322
 21
3803.990809944047
 31
0.0
  0
LINE
  5
7C7F
330
19
100
AcDbEntity
  8
1
 48
10.0
100
AcDbLine
 10
4235.982692113114
 20
2593.990809944046
 30
0.0
 11
2035.982692113113
 21
2593.990809944046
 31
0.0
1001
ACAD
1000
ASC_BOUNDS
1002
{
1070
    19
1002
}
  0
LINE
  5
7C80
330
19
100
AcDbEntity
  8
1
 48
10.0
100
AcDbLine
 10
4235.982692113114
 20
2548.990809944046
 30
0.0
 11
2035.982692113113
 21
2548.990809944046
 31
0.0
1001
ACAD
1000
ASC_BOUNDS
1002
{
1070
    19
1002
}
  0
LINE
  5
7C81
330
19
100
AcDbEntity
  8
1
 48
10.0
100
AcDbLine
 10
4235.982692113114
 20
2483.990809944045
 30
0.0
 11
2035.982692113113
 21
2483.990809944045
 31
0.0
  0
DIMENSION
  5
7C82
330
19
100
AcDbEntity
  8
3
 48
10.0
100
AcDbDimension
280
     0
  2
*D10
 10
2660.982692113115
 20
2287.596786222945
 30
0.0
 11
3448.482692113114
 21
2375.096786222945
 31
0.0
 70
    32
 71
     5
 42
-1.0
 73
     0
 74
     0
 75
     0
  3
IGA
100
AcDbAlignedDimension
 13
4235.982692113114
 23
2483.990809944045
 33
0.0
 14
2660.982692113115
 24
2483.990809944045
 34
0.0
100
AcDbRotatedDimension
1001
ACAD
1000
DSTYLE
1002
{
1070
   287
1070
     3
1070
    40
1040
35.0
1070
   143
1040
0.039
1070
   172
1070
     1
1070
   271
1070
     0
1070
   279
1070
     0
1070
   288
1070
     1
1002
}
  0
LINE
  5
7C84
330
19
100
AcDbEntity
  8
1
 48
10.0
100
AcDbLine
 10
2035.982692113113
 20
2718.990809944046
 30
0.0
 11
2035.982692113113
 21
2593.990809944046
 31
0.0
  0
ARC
  5
7C85
330
19
100
AcDbEntity
  8
1
 48
10.0
100
AcDbCircle
 10
2721.482692113113
 20
3864.490809944046
 30
0.0
 40
659.4999999999999
100
AcDbArc
 50
95.26349520306697
 51
185.263495203067
  0
LINE
  5
7C86
330
19
100
AcDbEntity
  8
2
100
AcDbLine
 10
2660.982692113115
 20
4646.606675581
 30
0.0
 11
2660.982692113115
 21
2483.990809944045
 31
0.0
  0
DIMENSION
  5
7C87
330
19
100
AcDbEntity
  8
3
 48
10.0
100
AcDbDimension
280
     0
  2
*D11
 10
1364.025356046366
 20
2593.990809944046
 30
0.0
 11
1276.525356046366
 21
3198.990809944046
 31
0.0
 70
    32
 71
     5
 42
-1.0
 73
     0
 74
     0
 75
     0
  3
IGA
100
AcDbAlignedDimension
 13
1921.366709615485
 23
3803.990809944045
 33
0.0
 14
2035.982692113113
 24
2593.990809944046
 34
0.0
 50
90.0
100
AcDbRotatedDimension
1001
ACAD
1000
DSTYLE
1002
{
1070
   287
1070
     3
1070
    40
1040
35.0
1070
   143
1040
0.039
1070
   172
1070
     1
1070
   271
1070
     0
1070
   279
1070
     0
1070
   288
1070
     1
1002
}
  0
POINT
  5
7C88
330
19
100
AcDbEntity
  8
1
 48
10.0
100
AcDbPoint
 10
1365.193857148856
 20
2943.990809944047
 30
0.0
  0
DIMENSION
  5
7C89
330
19
100
AcDbEntity
  8
3
 48
10.0
100
AcDbDimension
280
     0
  2
*D12
 10
2660.982692113115
 20
2285.970736587362
 30
0.0
 11
2348.482692113114
 21
2373.470736587362
 31
0.0
 70
    32
 71
     5
 42
-1.0
 73
     0
 74
     0
 75
     0
  3
IGA
100
AcDbAlignedDimension
 13
2035.982692113113
 23
2483.990809944045
 33
0.0
 14
2660.982692113115
 24
2483.990809944045
 34
0.0
100
AcDbRotatedDimension
1001
ACAD
1000
DSTYLE
1002
{
1070
   287
1070
     3
1070
    40
1040
35.0
1070
   143
1040
0.039
1070
   172
1070
     1
1070
   271
1070
     0
1070
   279
1070
     0
1070
   288
1070
     1
1002
}
  0
LINE
  5
7C8A
330
19
100
AcDbEntity
  8
1
 48
10.0
100
AcDbLine
 10
2035.982692113113
 20
2548.990809944046
 30
0.0
 11
2035.982692113113
 21
2483.990809944045
 31
0.0
  0
POINT
  5
7C8B
330
19
100
AcDbEntity
  8
1
 48
10.0
100
AcDbPoint
 10
2035.982692113113
 20
2483.990809944045
 30
0.0
  0
POINT
  5
7C8C
330
19
100
AcDbEntity
  8
1
 48
10.0
100
AcDbPoint
 10
2035.982692113113
 20
2483.990809944045
 30
0.0
  0
POINT
  5
7C8D
330
19
100
AcDbEntity
  8
1
 48
10.0
100
AcDbPoint
 10
2035.982692113113
 20
2483.990809944045
 30
0.0
  0
POINT
  5
7C8E
330
19
100
AcDbEntity
  8
1
 48
10.0
100
AcDbPoint
 10
2035.982692113113
 20
2593.990809944046
 30
0.0
  0
POINT
  5
7C8F
330
19
100
AcDbEntity
  8
1
 48
10.0
100
AcDbPoint
 10
2035.982692113113
 20
2593.990809944046
 30
0.0
  0
POINT
  5
7C90
330
19
100
AcDbEntity
  8
1
 48
10.0
100
AcDbPoint
 10
2035.982692113113
 20
2593.990809944046
 30
0.0
  0
POINT
  5
7C91
330
19
100
AcDbEntity
  8
1
 48
10.0
100
AcDbPoint
 10
2035.982692113113
 20
2548.990809944046
 30
0.0
  0
POINT
  5
7C92
330
19
100
AcDbEntity
  8
1
 48
10.0
100
AcDbPoint
 10
2035.982692113113
 20
2548.990809944046
 30
0.0
  0
POINT
  5
7C93
330
19
100
AcDbEntity
  8
1
 48
10.0
100
AcDbPoint
 10
2035.982692113113
 20
2548.990809944046
 30
0.0
  0
POINT
  5
7C94
330
19
100
AcDbEntity
  8
1
 48
10.0
100
AcDbPoint
 10
2035.982692113113
 20
2548.990809944046
 30
0.0
  0
POINT
  5
7C95
330
19
100
AcDbEntity
  8
1
 48
10.0
100
AcDbPoint
 10
2035.982692113113
 20
2548.990809944046
 30
0.0
  0
POINT
  5
7C96
330
19
100
AcDbEntity
  8
1
 48
10.0
100
AcDbPoint
 10
2035.982692113113
 20
2548.990809944046
 30
0.0
  0
LINE
  5
7C97
330
19
100
AcDbEntity
  8
1
 48
25.0
100
AcDbLine
 10
1980.982692113113
 20
2676.990809944046
 30
0.0
 11
1980.982692113111
 21
3812.990809944047
 31
0.0
  0
LINE
  5
7C98
330
19
100
AcDbEntity
  8
1
 48
25.0
100
AcDbLine
 10
2030.982692113113
 20
2734.469565813353
 30
0.0
 11
2030.982692113113
 21
3759.990809944046
 31
0.0
  0
LINE
  5
7C99
330
19
100
AcDbEntity
  8
1
 48
25.0
100
AcDbLine
 10
1984.982692113115
 20
2676.990809944046
 30
0.0
 11
1984.98269211311
 21
3812.990809944047
 31
0.0
  0
DIMENSION
  5
7C9A
330
19
100
AcDbEntity
  8
3
 48
10.0
100
AcDbDimension
280
     0
  2
*D13
 10
1779.822595118969
 20
3759.990809944046
 30
0.0
 11
1692.322595118969
 21
3244.990809944046
 31
0.0
 70
    32
 71
     5
 42
-1.0
 73
     0
 74
     0
 75
     0
  3
IGA
100
AcDbAlignedDimension
 13
1980.982692113113
 23
2729.990809944045
 33
0.0
 14
1980.982692113112
 24
3759.990809944046
 34
0.0
 50
90.00000000000007
100
AcDbRotatedDimension
1001
ACAD
1000
DSTYLE
1002
{
1070
   287
1070
     3
1070
    40
1040
35.0
1070
   143
1040
0.039
1070
   172
1070
     1
1070
   271
1070
     0
1070
   279
1070
     0
1070
   288
1070
     1
1002
}
  0
DIMENSION
  5
7C9B
330
19
100
AcDbEntity
  8
3
 48
10.0
100
AcDbDimension
280
     0
  2
*D14
 10
1579.020549659816
 20
3803.990809944045
 30
0.0
 11
1491.520549659816
 21
3266.990809944046
 31
0.0
 70
    32
 71
     5
 42
-1.0
 73
     0
 74
     0
 75
     0
  3
IGA
100
AcDbAlignedDimension
 13
1980.982692113113
 23
2729.990809944045
 33
0.0
 14
1921.366709615485
 24
3803.990809944045
 34
0.0
 50
90.00000000000007
100
AcDbRotatedDimension
1001
ACAD
1000
DSTYLE
1002
{
1070
   287
1070
     3
1070
    40
1040
35.0
1070
   143
1040
0.039
1070
   172
1070
     1
1070
   271
1070
     0
1070
   279
1070
     0
1070
   288
1070
     1
1002
}
  0
CIRCLE
  5
7C9C
330
19
100
AcDbEntity
  8
1
 48
10.0
100
AcDbCircle
 10
2660.982692113115
 20
3803.990809944046
 30
0.0
 40
165.1
  0
LINE
  5
7C9D
330
19
100
AcDbEntity
  8
1
 48
25.0
100
AcDbLine
 10
1984.98269211311
 20
3812.990809944047
 30
0.0
 11
1980.982692113111
 21
3812.990809944047
 31
0.0
  0
ARC
  5
7C9E
330
19
100
AcDbEntity
  8
1
 48
10.0
100
AcDbCircle
 10
2600.482692113113
 20
3864.490809944046
 30
0.0
 40
538.4999999999999
100
AcDbArc
 50
186.4507497148599
 51
191.1896745627625
  0
LINE
  5
7C9F
330
19
100
AcDbEntity
  8
1
 48
10.0
100
AcDbLine
 10
2072.219500133963
 20
3759.990809944046
 30
0.0
 11
1980.982692113112
 21
3759.990809944046
 31
0.0
  0
LINE
  5
7CA0
330
19
100
AcDbEntity
  8
1
 48
10.0
100
AcDbLine
 10
1980.982692113113
 20
2729.990809944045
 30
0.0
 11
2660.982692113114
 21
2790.901889766623
 31
0.0
  0
LINE
  5
7CA1
330
19
100
AcDbEntity
  8
1
 48
25.0
100
AcDbLine
 10
1984.982692113115
 20
2676.990809944046
 30
0.0
 11
1980.982692113113
 21
2676.990809944046
 31
0.0
  0
LINE
  5
7CA2
330
19
100
AcDbEntity
  8
2
100
AcDbLine
 10
2660.982692113114
 20
7619.430108996818
 30
0.0
 11
2660.982692113114
 21
5722.34076281777
 31
0.0
  0
LINE
  5
7CA3
330
19
100
AcDbEntity
  8
1
 48
10.0
100
AcDbLine
 10
2035.982692113114
 20
7530.340762817771
 30
0.0
 11
2035.982692113114
 21
7462.34076281777
 31
0.0
  0
DIMENSION
  5
7CA4
330
19
100
AcDbEntity
  8
3
 48
10.0
100
AcDbDimension
280
     0
  2
*D15
 10
1634.321629699822
 20
5880.34076281777
 30
0.0
 11
1546.82162969982
 21
6705.340762817771
 31
0.0
 70
    32
 71
     5
 42
-1.0
 73
     0
 74
     0
 75
     0
  3
IGA
100
AcDbAlignedDimension
 13
2035.982692113114
 23
7530.340762817771
 33
0.0
 14
2035.982692113114
 24
5880.34076281777
 34
0.0
 50
270.0
100
AcDbRotatedDimension
1001
ACAD
1000
DSTYLE
1002
{
1070
   287
1070
     3
1070
    40
1040
35.0
1070
   143
1040
0.039
1070
   172
1070
     1
1070
   271
1070
     0
1070
   279
1070
     0
1070
   288
1070
     1
1002
}
  0
LINE
  5
7CA5
330
19
100
AcDbEntity
  8
1
 48
10.0
100
AcDbLine
 10
1980.982692113113
 20
7512.34076281777
 30
0.0
 11
1980.982692113113
 21
6092.340762817771
 31
0.0
  0
LINE
  5
7CA6
330
19
100
AcDbEntity
  8
1
 48
10.0
100
AcDbLine
 10
2380.982692113113
 20
5952.34076281777
 30
0.0
 11
2380.982692113113
 21
5722.34076281777
 31
0.0
  0
LINE
  5
7CA7
330
19
100
AcDbEntity
  8
1
 48
10.0
100
AcDbLine
 10
2495.982692113114
 20
5914.84076281777
 30
0.0
 11
2495.982692113114
 21
5804.84076281777
 31
0.0
  0
LINE
  5
7CA8
330
19
100
AcDbEntity
  8
1
 48
10.0
100
AcDbLine
 10
2825.982692113114
 20
5914.84076281777
 30
0.0
 11
2825.982692113114
 21
5804.84076281777
 31
0.0
  0
LINE
  5
7CA9
330
19
100
AcDbEntity
  8
1
 48
10.0
100
AcDbLine
 10
2825.982692113113
 20
5804.84076281777
 30
0.0
 11
2495.982692113114
 21
5804.84076281777
 31
0.0
  0
LINE
  5
7CAA
330
19
100
AcDbEntity
  8
1
 48
10.0
100
AcDbLine
 10
2825.982692113114
 20
5914.84076281777
 30
0.0
 11
2495.982692113114
 21
5914.84076281777
 31
0.0
  0
LINE
  5
7CAB
330
19
100
AcDbEntity
  8
1
 48
10.0
100
AcDbLine
 10
2620.982692113114
 20
6142.340762817772
 30
0.0
 11
2620.982692113114
 21
5914.84076281777
 31
0.0
  0
LINE
  5
7CAC
330
19
100
AcDbEntity
  8
1
 48
10.0
100
AcDbLine
 10
2700.982692113114
 20
6142.340762817772
 30
0.0
 11
2700.982692113114
 21
5914.84076281777
 31
0.0
  0
LINE
  5
7CAD
330
19
100
AcDbEntity
  8
1
 48
10.0
100
AcDbLine
 10
4235.982692113114
 20
2718.990809944046
 30
0.0
 11
4235.982692113114
 21
2593.990809944046
 31
0.0
  0
LINE
  5
7CAE
330
19
100
AcDbEntity
  8
2
100
AcDbLine
 10
3960.982692113113
 20
3217.806483944045
 30
0.0
 11
3960.982692113114
 21
2483.990809944045
 31
0.0
  0
POINT
  5
7CAF
330
19
100
AcDbEntity
  8
1
 48
10.0
100
AcDbPoint
 10
3180.982692113115
 20
2593.990809944046
 30
0.0
  0
POINT
  5
7CB0
330
19
100
AcDbEntity
  8
1
 48
10.0
100
AcDbPoint
 10
3180.982692113115
 20
2593.990809944046
 30
0.0
  0
LINE
  5
7CB4
330
19
100
AcDbEntity
  8
1
 48
10.0
100
AcDbLine
 10
4235.982692113114
 20
2548.990809944046
 30
0.0
 11
4235.982692113114
 21
2483.990809944045
 31
0.0
  0
LINE
  5
7CB5
330
19
100
AcDbEntity
  8
1
 48
10.0
100
AcDbLine
 10
4185.982692113112
 20
2718.990809944044
 30
0.0
 11
4171.398705138877
 21
2773.990809944044
 31
0.0
  0
LINE
  5
7CB6
330
19
100
AcDbEntity
  8
2
100
AcDbLine
 10
4327.668770355967
 20
2953.990809944045
 30
0.0
 11
3744.903159467156
 21
2953.990809944045
 31
0.0
  0
ARC
  5
7CB7
330
19
100
AcDbEntity
  8
1
 48
10.0
100
AcDbCircle
 10
3960.982692113113
 20
2953.990809944045
 30
0.0
 40
220.0
100
AcDbArc
 50
239.0353388513548
 51
54.60763782985956
  0
ARC
  5
7CB8
330
19
100
AcDbEntity
  8
1
 48
10.0
100
AcDbCircle
 10
3960.982692113113
 20
2953.990809944045
 30
0.0
 40
185.0
100
AcDbArc
 50
287.9452509999999
 51
252.054749
  0
CIRCLE
  5
7CB9
330
19
100
AcDbEntity
  8
1
 48
10.0
100
AcDbCircle
 10
3960.982692113113
 20
2953.990809944045
 30
0.0
 40
114.3
  0
LINE
  5
7CBA
330
19
100
AcDbEntity
  8
1
 48
10.0
100
AcDbLine
 10
3903.982677113112
 20
2777.990809944045
 30
0.0
 11
4017.982692113112
 21
2777.990809944045
 31
0.0
  0
LINE
  5
7CBC
330
19
100
AcDbEntity
  8
1
 48
10.0
100
AcDbLine
 10
4030.982692113112
 20
2763.990809944044
 30
0.0
 11
3890.982692113113
 21
2763.990809944044
 31
0.0
  0
LINE
  5
7CBD
330
19
100
AcDbEntity
  8
1
 48
10.0
100
AcDbLine
 10
3798.982677113112
 20
2849.249842944044
 30
0.0
 11
3798.982677113112
 21
2773.990809944045
 31
0.0
  0
LINE
  5
7CBE
330
19
100
AcDbEntity
  8
1
 48
10.0
100
AcDbLine
 10
3890.982692113113
 20
2773.990809944044
 30
0.0
 11
3750.767440899446
 21
2773.990809944044
 31
0.0
  0
LINE
  5
7CBF
330
19
100
AcDbEntity
  8
1
 48
10.0
100
AcDbLine
 10
3735.982692113112
 20
2718.990809944044
 30
0.0
 11
3750.767440899446
 21
2773.990809944044
 31
0.0
  0
LINE
  5
7CC0
330
19
100
AcDbEntity
  8
1
 48
10.0
100
AcDbLine
 10
3890.982692113112
 20
2773.990809944044
 30
0.0
 11
3890.982692113112
 21
2763.990809944044
 31
0.0
  0
LINE
  5
7CC2
330
19
100
AcDbEntity
  8
1
 48
10.0
100
AcDbLine
 10
3798.982677113112
 20
2849.249842944044
 30
0.0
 11
3805.366649113113
 21
2853.947596944045
 31
0.0
  0
LINE
  5
7CC3
330
19
100
AcDbEntity
  8
1
 48
10.0
100
AcDbLine
 10
4122.982692113112
 20
2849.249842944044
 30
0.0
 11
4122.982692113112
 21
2773.990809944045
 31
0.0
  0
LINE
  5
7CC4
330
19
100
AcDbEntity
  8
1
 48
10.0
100
AcDbLine
 10
4171.398705138877
 20
2773.990809944044
 30
0.0
 11
4030.982692113112
 21
2773.990809944044
 31
0.0
  0
LINE
  5
7CC5
330
19
100
AcDbEntity
  8
1
 48
10.0
100
AcDbLine
 10
4030.982692113112
 20
2773.990809944044
 30
0.0
 11
4030.982692113112
 21
2763.990809944044
 31
0.0
  0
LINE
  5
7CC7
330
19
100
AcDbEntity
  8
1
 48
10.0
100
AcDbLine
 10
4122.982692113112
 20
2849.249842944044
 30
0.0
 11
4116.598720113112
 21
2853.947596944045
 31
0.0
  0
DIMENSION
  5
7CC8
330
19
100
AcDbEntity
  8
3
 48
10.0
100
AcDbDimension
280
     0
  2
*D16
 10
3285.982692113114
 20
7932.367410259849
 30
0.0
 11
3760.982692113114
 21
8019.867410259848
 31
0.0
 70
    32
 71
     5
 42
-1.0
 73
     0
 74
     0
 75
     0
  3
IGA
100
AcDbAlignedDimension
 13
4235.982692113114
 23
6830.340762817771
 33
0.0
 14
3285.982692113114
 24
7530.340762817771
 34
0.0
100
AcDbRotatedDimension
1001
ACAD
1000
DSTYLE
1002
{
1070
   287
1070
     3
1070
    40
1040
35.0
1070
   143
1040
0.039
1070
   172
1070
     1
1070
   271
1070
     0
1070
   279
1070
     0
1070
   288
1070
     1
1002
}
  0
DIMENSION
  5
7CC9
330
19
100
AcDbEntity
  8
3
 48
10.0
100
AcDbDimension
280
     0
  2
*D17
 10
4477.295627497937
 20
5880.34076281777
 30
0.0
 11
4477.295627497936
 21
6355.34076281777
 31
0.0
 70
   160
 71
     5
 42
-1.0
 73
     0
 74
     0
 75
     0
  3
IGA
100
AcDbAlignedDimension
 13
4235.982692113114
 23
6830.340762817771
 33
0.0
 14
4235.982692113114
 24
5880.34076281777
 34
0.0
 50
270.0
100
AcDbRotatedDimension
1001
ACAD
1000
DSTYLE
1002
{
1070
   287
1070
     3
1070
    40
1040
35.0
1070
   143
1040
0.039
1070
   172
1070
     1
1070
   271
1070
     0
1070
   279
1070
     0
1070
   288
1070
     1
1002
}
  0
LINE
  5
7CCA
330
19
100
AcDbEntity
  8
1
 48
10.0
100
AcDbLine
 10
3285.982692113114
 20
7530.340762817771
 30
0.0
 11
3285.982692113114
 21
7462.340762817771
 31
0.0
  0
LINE
  5
7CCB
330
19
100
AcDbEntity
  8
1
 48
10.0
100
AcDbLine
 10
3775.982692113114
 20
6519.340762817773
 30
0.0
 11
3775.982692113114
 21
5919.840762817772
 31
0.0
  0
LINE
  5
7CCC
330
19
100
AcDbEntity
  8
1
 48
10.0
100
AcDbLine
 10
4235.982692113114
 20
6830.340762817771
 30
0.0
 11
4235.982692113114
 21
5880.34076281777
 31
0.0
  0
LINE
  5
7CCD
330
19
100
AcDbEntity
  8
1
 48
10.0
100
AcDbLine
 10
4145.982692113113
 20
6519.340762817773
 30
0.0
 11
4145.982692113113
 21
5919.840762817772
 31
0.0
  0
LINE
  5
7CCE
330
19
100
AcDbEntity
  8
2
100
AcDbLine
 10
3960.982692113114
 20
6519.340762817771
 30
0.0
 11
3960.982692113114
 21
5722.340762817771
 31
0.0
  0
LINE
  5
7CCF
330
19
100
AcDbEntity
  8
1
 48
10.0
100
AcDbLine
 10
3528.982692113114
 20
7462.340762817771
 30
0.0
 11
3528.982692113114
 21
6142.340762817772
 31
0.0
  0
LINE
  5
7CD0
330
19
100
AcDbEntity
  8
1
 48
10.0
100
AcDbLine
 10
3846.982692113114
 20
5914.84076281777
 30
0.0
 11
3846.982692113114
 21
5804.84076281777
 31
0.0
  0
LINE
  5
7CD1
330
19
100
AcDbEntity
  8
1
 48
10.0
100
AcDbLine
 10
4074.982692113113
 20
5914.84076281777
 30
0.0
 11
4074.982692113113
 21
5804.84076281777
 31
0.0
  0
LINE
  5
7CD2
330
19
100
AcDbEntity
  8
1
 48
10.0
100
AcDbLine
 10
4074.982692113113
 20
5804.840762817772
 30
0.0
 11
3846.982692113114
 21
5804.840762817772
 31
0.0
  0
LINE
  5
7CD3
330
19
100
AcDbEntity
  8
1
 48
10.0
100
AcDbLine
 10
4074.982692113113
 20
5914.840762817771
 30
0.0
 11
3846.982692113114
 21
5914.840762817771
 31
0.0
  0
LINE
  5
7CD4
330
19
100
AcDbEntity
  8
1
 48
10.0
100
AcDbLine
 10
4145.982692113113
 20
5919.840762817772
 30
0.0
 11
3775.982692113114
 21
5919.840762817772
 31
0.0
  0
LINE
  5
7CD5
330
19
100
AcDbEntity
  8
1
 48
10.0
100
AcDbLine
 10
3933.482692113113
 20
5919.840762817772
 30
0.0
 11
3933.482692113113
 21
5914.840762817771
 31
0.0
  0
LINE
  5
7CD6
330
19
100
AcDbEntity
  8
1
 48
10.0
100
AcDbLine
 10
3988.482692113114
 20
5919.840762817772
 30
0.0
 11
3988.482692113114
 21
5914.840762817771
 31
0.0
  0
LINE
  5
7CD7
330
19
100
AcDbEntity
  8
1
 48
10.0
100
AcDbLine
 10
4180.982692113113
 20
5952.340762817772
 30
0.0
 11
4180.982692113113
 21
5722.340762817771
 31
0.0
  0
LINE
  5
7CD8
330
19
100
AcDbEntity
  8
1
 48
10.0
100
AcDbLine
 10
4235.982692113114
 20
6830.340762817771
 30
0.0
 11
3528.982692113114
 21
6830.340762817769
 31
0.0
  0
LINE
  5
7CD9
330
19
100
AcDbEntity
  8
1
 48
10.0
100
AcDbLine
 10
4145.982692113113
 20
6519.340762817773
 30
0.0
 11
3775.982692113114
 21
6519.340762817773
 31
0.0
  0
DIMENSION
  5
7CDB
330
19
100
AcDbEntity
  8
3
 48
10.0
100
AcDbDimension
280
     0
  2
*D18
 10
1364.040059606159
 20
2548.990809944046
 30
0.0
 11
1196.540059606159
 21
2658.450668202426
 31
0.0
 12
480.5197639939215
 22
0.0
 32
0.0
 70
   160
  1
(<>)
 71
     5
 42
-1.0
 73
     0
 74
     0
 75
     0
  3
IGA
100
AcDbAlignedDimension
 13
2035.982692113113
 23
2593.990809944046
 33
0.0
 14
2035.982692113113
 24
2548.990809944046
 34
0.0
 50
270.0
100
AcDbRotatedDimension
1001
ACAD
1000
DSTYLE
1002
{
1070
   288
1070
     1
1070
   172
1070
     1
1070
    40
1040
35.0
1070
   271
1070
     0
1070
     7
1000
_DOT
1070
   143
1040
0.039
1002
}
  0
DIMENSION
  5
7CDC
330
19
100
AcDbEntity
  8
3
 48
10.0
100
AcDbDimension
280
     0
  2
*D19
 10
1364.025356046366
 20
2483.990809944045
 30
0.0
 11
1276.525356046366
 21
2223.990809944046
 31
0.0
 70
    32
 71
     5
 42
-1.0
 73
     0
 74
     0
 75
     0
  3
IGA
100
AcDbAlignedDimension
 13
2035.982692113113
 23
2548.990809944046
 33
0.0
 14
2035.982692113113
 24
2483.990809944045
 34
0.0
 50
270.0
100
AcDbRotatedDimension
1001
ACAD
1000
DSTYLE
1002
{
1070
   287
1070
     3
1070
    40
1040
35.0
1070
   143
1040
0.039
1070
   172
1070
     1
1070
   271
1070
     0
1070
   279
1070
     0
1070
   288
1070
     1
1070
     6
1000
DOT
1002
}
  0
LINE
  5
7CDD
330
19
100
AcDbEntity
  8
1
 48
10.0
100
AcDbLine
 10
2035.982692113113
 20
6142.34076281777
 30
0.0
 11
2035.982692113114
 21
5880.34076281777
 31
0.0
  0
DIMENSION
  5
7CDE
330
19
100
AcDbEntity
  8
3
 48
10.0
100
AcDbDimension
280
     0
  2
*D20
 10
2660.982692113115
 20
4693.893741138515
 30
0.0
 11
2320.982692113113
 21
4781.393741138516
 31
0.0
 70
    32
 71
     5
 42
-1.0
 73
     0
 74
     0
 75
     0
  3
IGA
100
AcDbAlignedDimension
 13
1980.982692113111
 23
3812.990809944047
 33
0.0
 14
2660.982692113115
 24
4646.606675581
 34
0.0
100
AcDbRotatedDimension
1001
ACAD
1000
DSTYLE
1002
{
1070
   287
1070
     3
1070
    40
1040
35.0
1070
   143
1040
0.039
1070
   172
1070
     1
1070
   271
1070
     0
1070
   279
1070
     0
1070
   288
1070
     1
1002
}
  0
DIMENSION
  5
7CDF
330
19
100
AcDbEntity
  8
3
 48
10.0
100
AcDbDimension
280
     0
  2
*D21
 10
3528.982692113113
 20
4693.893741138515
 30
0.0
 11
3094.982692113113
 21
4781.393741138516
 31
0.0
 70
    32
 71
     5
 42
-1.0
 73
     0
 74
     0
 75
     0
  3
IGA
100
AcDbAlignedDimension
 13
2660.982692113115
 23
4646.606675581
 33
0.0
 14
3528.982692113113
 24
3729.990809944047
 34
0.0
100
AcDbRotatedDimension
1001
ACAD
1000
DSTYLE
1002
{
1070
   287
1070
     3
1070
    40
1040
35.0
1070
   143
1040
0.039
1070
   172
1070
     1
1070
   271
1070
     0
1070
   279
1070
     0
1070
   288
1070
     1
1002
}
  0
DIMENSION
  5
7CE0
330
19
100
AcDbEntity
  8
3
 48
10.0
100
AcDbDimension
280
     0
  2
*D22
 10
4235.982692113114
 20
4902.045837583234
 30
0.0
 11
3108.482692113113
 21
4989.545837583235
 31
0.0
 70
    32
 71
     5
 42
-1.0
 73
     0
 74
     0
 75
     0
  3
IGA
100
AcDbAlignedDimension
 13
1980.982692113111
 23
3803.990809944045
 33
0.0
 14
4235.982692113114
 24
2718.990809944044
 34
0.0
100
AcDbRotatedDimension
1001
ACAD
1000
DSTYLE
1002
{
1070
   287
1070
     3
1070
    40
1040
35.0
1070
   143
1040
0.039
1070
   172
1070
     1
1070
   271
1070
     0
1070
   279
1070
     0
1070
   288
1070
     1
1002
}
  0
LINE
  5
7CE3
330
19
100
AcDbEntity
  8
1
 48
10.0
100
AcDbLine
 10
5367.141597036141
 20
4523.990809944046
 30
0.0
 11
6687.141597036141
 21
4523.990809944046
 31
0.0
  0
LINE
  5
7CE4
330
19
100
AcDbEntity
  8
1
 48
10.0
100
AcDbLine
 10
5766.641597036141
 20
3152.990809944047
 30
0.0
 11
5766.641597036141
 21
2754.990809944047
 31
0.0
  0
LINE
  5
7CE6
330
19
100
AcDbEntity
  8
1
 48
10.0
100
AcDbLine
 10
5698.385229876531
 20
2754.990809944047
 30
0.0
 11
5698.385229876531
 21
2718.990809944046
 31
0.0
  0
LINE
  5
7CE7
330
19
100
AcDbEntity
  8
1
 48
10.0
100
AcDbLine
 10
5255.93415085239
 20
2754.990809944047
 30
0.0
 11
5255.93415085239
 21
2718.990809944046
 31
0.0
  0
LINE
  5
7CE8
330
19
100
AcDbEntity
  8
1
 48
10.0
100
AcDbLine
 10
2823.150993893346
 20
4032.248212666751
 30
0.0
 11
4088.400643511866
 21
3133.335912083314
 31
0.0
  0
LINE
  5
7CE9
330
19
100
AcDbEntity
  8
1
 48
10.0
100
AcDbLine
 10
2516.920089814748
 20
3563.895065252427
 30
0.0
 11
3847.790647450111
 21
2765.344153400631
 31
0.0
  0
LINE
  5
7CEA
330
19
100
AcDbEntity
  8
1
 48
10.0
100
AcDbLine
 10
2755.804687857528
 20
3939.145532847267
 30
0.0
 11
4026.628689166937
 21
3047.559464261659
 31
0.0
  0
LINE
  5
7CEB
330
19
100
AcDbEntity
  8
1
 48
10.0
100
AcDbLine
 10
2575.199621964555
 20
3662.926020305074
 30
0.0
 11
3901.594412779495
 21
2856.330570963218
 31
0.0
  0
LINE
  5
809F
330
19
100
AcDbEntity
  8
4
100
AcDbLine
 10
6475.0
 20
1750.0
 30
0.0
 11
6475.0
 21
1050.0
 31
0.0
  0
LINE
  5
80A0
330
19
100
AcDbEntity
  8
4
100
AcDbLine
 10
4025.0
 20
1750.0
 30
0.0
 11
4025.0
 21
1050.0
 31
0.0
  0
LINE
  5
80A1
330
19
100
AcDbEntity
  8
4
100
AcDbLine
 10
2275.0
 20
1750.0
 30
0.0
 11
2275.0
 21
1050.0
 31
0.0
  0
LINE
  5
80A4
330
19
100
AcDbEntity
  8
4
100
AcDbLine
 10
2275.0
 20
1050.0
 30
0.0
 11
6475.0
 21
1050.0
 31
0.0
  0
LINE
  5
80A5
330
19
100
AcDbEntity
  8
4
100
AcDbLine
 10
2275.0
 20
1400.0
 30
0.0
 11
6475.0
 21
1400.0
 31
0.0
  0
TEXT
  5
80A6
330
19
100
AcDbEntity
  8
4
100
AcDbText
 10
2409.757282964156
 20
1510.400590533145
 30
0.0
 40
175.0
  1
機器名称
100
AcDbText
  0
TEXT
  5
80A7
330
19
100
AcDbEntity
  8
4
100
AcDbText
 10
2401.903371086792
 20
1125.758048562038
 30
0.0
 40
175.0
  1
機器型番
100
AcDbText
  0
TEXT
  5
80A8
330
19
100
AcDbEntity
  8
4
100
AcDbText
 10
4127.321178135882
 20
1476.881629198199
 30
0.0
 40
140.0
  1
ミツヤリミットロードファン
100
AcDbText
  0
TEXT
  5
80A9
330
19
100
AcDbEntity
  8
4
100
AcDbText
 10
4153.290734549182
 20
1110.058544979802
 30
0.0
 40
175.0
  1
LL#6-5
100
AcDbText
  0
TEXT
  5
80AB
330
19
100
AcDbEntity
  8
4
100
AcDbText
 10
2760.156527120351
 20
8342.000944663805
 30
0.0
 40
188.9999999999999
  1
床置防振ベット
100
AcDbText
  0
TEXT
  5
80AC
330
19
100
AcDbEntity
  8
4
100
AcDbText
 10
1106.586576653062
 20
8868.583416697545
 30
0.0
 40
252.0
  1
遠心式両吸込両持リミットロードファン
100
AcDbText
  0
LINE
  5
80AD
330
19
100
AcDbEntity
  8
4
100
AcDbLine
 10
875.0
 20
8642.930639926817
 30
0.0
 11
6475.0
 21
8642.930639926817
 31
0.0
  0
LINE
  5
80AE
330
19
100
AcDbEntity
  8
4
100
AcDbLine
 10
875.0
 20
9342.930639926818
 30
0.0
 11
6475.0
 21
9342.930639926818
 31
0.0
  0
LINE
  5
80AF
330
19
100
AcDbEntity
  8
4
100
AcDbLine
 10
2275.0
 20
1750.0
 30
0.0
 11
6475.0
 21
1750.0
 31
0.0
  0
LINE
  5
80B0
330
19
100
AcDbEntity
  8
4
100
AcDbLine
 10
875.0
 20
9342.930639926818
 30
0.0
 11
875.0
 21
8642.930639926817
 31
0.0
  0
TEXT
  5
80B1
330
19
100
AcDbEntity
  8
4
100
AcDbText
 10
1234.650614270893
 20
8338.118171412203
 30
0.0
 40
188.9999999999999
  1
右回転左横向
100
AcDbText
  0
TEXT
  5
80B2
330
19
100
AcDbEntity
  8
4
100
AcDbText
 10
5141.393457372515
 20
9471.21378523358
 30
0.0
 40
196.0
  1
No.
100
AcDbText
  0
TEXT
  5
80B3
330
19
100
AcDbEntity
  8
4
100
AcDbText
 10
4589.536219100046
 20
8342.000944663805
 30
0.0
 40
188.9999999999999
  1
縮尺：1/35
100
AcDbText
  0
LINE
  5
80B4
330
19
100
AcDbEntity
  8
4
100
AcDbLine
 10
6475.0
 20
9342.930639926818
 30
0.0
 11
6475.0
 21
8642.930639926817
 31
0.0
  0
LINE
  5
80B5
330
19
100
AcDbEntity
  8
4
100
AcDbLine
 10
7350.0
 20
10325.0
 30
0.0
 11
7350.0
 21
10325.0
 31
0.0
  0
LINE
  5
80B6
330
19
100
AcDbEntity
  8
4
100
AcDbLine
 10
5042.160978259526
 20
9384.422540938905
 30
0.0
 11
5042.160978259526
 21
9753.282915424135
 31
0.0
  0
LINE
  5
80B7
330
19
100
AcDbEntity
  8
4
100
AcDbLine
 10
5042.160978259526
 20
9753.282915424135
 30
0.0
 11
6475.0
 21
9753.282915424135
 31
0.0
  0
LINE
  5
80B8
330
19
100
AcDbEntity
  8
4
100
AcDbLine
 10
6475.0
 20
9753.282915424135
 30
0.0
 11
6475.0
 21
9384.422540938905
 31
0.0
  0
LINE
  5
80B9
330
19
100
AcDbEntity
  8
4
100
AcDbLine
 10
6475.0
 20
9384.422540938905
 30
0.0
 11
5042.160978259526
 21
9384.422540938905
 31
0.0
  0
LINE
  5
80BA
330
19
100
AcDbEntity
  8
4
100
AcDbLine
 10
0.0
 20
0.0
 30
0.0
 11
0.0
 21
10325.0
 31
0.0
  0
LINE
  5
80BB
330
19
100
AcDbEntity
  8
4
100
AcDbLine
 10
0.0
 20
10325.0
 30
0.0
 11
7350.0
 21
10325.0
 31
0.0
  0
LINE
  5
80BC
330
19
100
AcDbEntity
  8
4
100
AcDbLine
 10
7350.0
 20
10325.0
 30
0.0
 11
7350.0
 21
0.0
 31
0.0
  0
LINE
  5
80BD
330
19
100
AcDbEntity
  8
4
100
AcDbLine
 10
7350.0
 20
0.0
 30
0.0
 11
0.0
 21
0.0
 31
0.0
  0
DIMENSION
  5
81A2
330
19
100
AcDbEntity
  8
3
100
AcDbDimension
280
     0
  2
*D24
 10
1366.123289304261
 20
4523.990809944046
 30
0.0
 11
1278.623289304261
 21
4163.990809944045
 31
0.0
 70
    32
 71
     5
 42
-1.0
 73
     0
 74
     0
 75
     0
  3
IGA
100
AcDbAlignedDimension
 13
1921.366709615485
 23
3803.990809944045
 33
0.0
 14
2734.982692113112
 24
4523.990809944046
 34
0.0
 50
90.0
100
AcDbRotatedDimension
1001
ACAD
1000
DSTYLE
1002
{
1070
   172
1070
     1
1070
    40
1040
35.0
1070
   271
1070
     0
1070
   143
1040
0.039
1002
}
  0
DIMENSION
  5
81AF
330
19
100
AcDbEntity
  8
3
100
AcDbDimension
280
     0
  2
*D25
 10
1062.073065355201
 20
2483.990809944045
 30
0.0
 11
947.0730653552019
 21
3503.990809944046
 31
0.0
 70
    32
 71
     5
 42
-1.0
 73
     0
 74
     0
 75
     0
  3
IGA
100
AcDbAlignedDimension
 13
2717.482692113112
 23
4523.990809944046
 33
0.0
 14
2035.982692113113
 24
2483.990809944045
 34
0.0
 50
90.0
100
AcDbRotatedDimension
1001
ACAD
1000
DSTYLE
1002
{
1070
   172
1070
     1
1070
    40
1040
35.0
1070
     3
1000
(<>)
1070
   271
1070
     0
1070
   143
1040
0.039
1002
}
  0
ENDSEC
  0
SECTION
  2
OBJECTS
  0
DICTIONARY
  5
C
330
0
100
AcDbDictionary
281
     1
  3
ACAD_CIP_PREVIOUS_PRODUCT_INFO
350
83EB
  3
ACAD_COLOR
350
83CE
  3
ACAD_DETAILVIEWSTYLE
350
83E7
  3
ACAD_GROUP
350
D
  3
ACAD_LAYOUT
350
81B9
  3
ACAD_MATERIAL
350
839C
  3
ACAD_MLEADERSTYLE
350
83E3
  3
ACAD_MLINESTYLE
350
E
  3
ACAD_PLOTSETTINGS
350
81BA
  3
ACAD_PLOTSTYLENAME
350
81B7
  3
ACAD_SCALELIST
350
83D1
  3
ACAD_SECTIONVIEWSTYLE
350
83E5
  3
ACAD_TABLESTYLE
350
83CF
  3
ACAD_VISUALSTYLE
350
83B5
  3
ACDB_RECOMPOSE_DATA
350
8463
  3
AcDbVariableDictionary
350
8390
  3
AcDsDecomposeData
350
8469
  0
DICTIONARY
  5
8432
330
2
100
AcDbDictionary
280
     1
281
     1
  3
ACAD_LAYERSTATES
360
8433
  0
DICTIONARY
  5
8425
330
F
100
AcDbDictionary
280
     1
281
     1
  3
ADSK_XREC_LAYER_RECONCILED
360
8426
  0
DICTIONARY
  5
8427
330
31
100
AcDbDictionary
280
     1
281
     1
  3
ADSK_XREC_LAYER_RECONCILED
360
8428
  0
DICTIONARY
  5
8429
330
76D0
100
AcDbDictionary
280
     1
281
     1
  3
ADSK_XREC_LAYER_RECONCILED
360
842A
  0
DICTIONARY
  5
842B
330
76D1
100
AcDbDictionary
280
     1
281
     1
  3
ADSK_XREC_LAYER_RECONCILED
360
842C
  0
DICTIONARY
  5
842D
330
76D2
100
AcDbDictionary
280
     1
281
     1
  3
ADSK_XREC_LAYER_RECONCILED
360
842E
  0
DICTIONARY
  5
82CF
330
19
100
AcDbDictionary
280
     1
281
     1
  3
ACAD_LAYOUTSELFREF
360
82D0
  0
DICTIONARY
  5
82CD
330
16
100
AcDbDictionary
280
     1
281
     1
  3
ACAD_LAYOUTSELFREF
360
82CE
  0
XRECORD
  5
83EB
102
{ACAD_REACTORS
330
C
102
}
330
C
100
AcDbXrecord
280
     1
300
ACDLT
300
2023
300

  0
DICTIONARY
  5
83CE
102
{ACAD_REACTORS
330
C
102
}
330
C
100
AcDbDictionary
281
     1
  0
DICTIONARY
  5
83E7
102
{ACAD_REACTORS
330
C
102
}
330
C
100
AcDbDictionary
281
     1
  3
Metric50
350
83E8
  0
DICTIONARY
  5
D
102
{ACAD_REACTORS
330
C
102
}
330
C
100
AcDbDictionary
281
     1
  0
DICTIONARY
  5
81B9
102
{ACAD_REACTORS
330
C
102
}
330
C
100
AcDbDictionary
281
     1
  3
Model
350
81BB
  3
ﾚｲｱｳﾄ1
350
81BC
  0
DICTIONARY
  5
839C
102
{ACAD_REACTORS
330
C
102
}
330
C
100
AcDbDictionary
281
     1
  3
ByBlock
350
83A5
  3
ByLayer
350
839D
  3
Global
350
83AD
  0
DICTIONARY
  5
83E3
102
{ACAD_REACTORS
330
C
102
}
330
C
100
AcDbDictionary
281
     1
  3
Standard
350
83E4
  0
DICTIONARY
  5
E
102
{ACAD_REACTORS
330
C
102
}
330
C
100
AcDbDictionary
281
     1
  3
STANDARD
350
1C
  0
DICTIONARY
  5
81BA
102
{ACAD_REACTORS
330
C
102
}
330
C
100
AcDbDictionary
281
     1
  0
ACDBDICTIONARYWDFLT
  5
81B7
102
{ACAD_REACTORS
330
C
102
}
330
C
100
AcDbDictionary
281
     1
  3
Normal
350
81B8
100
AcDbDictionaryWithDefault
340
81B8
  0
DICTIONARY
  5
83D1
102
{ACAD_REACTORS
330
C
102
}
330
C
100
AcDbDictionary
281
     1
  3
A0
350
83D2
  3
A1
350
83D3
  3
A2
350
83D4
  3
A3
350
83D5
  3
A4
350
83D6
  3
A5
350
83D7
  3
A6
350
83D8
  3
A7
350
83D9
  3
A8
350
83DA
  3
A9
350
83DB
  3
B0
350
83DC
  3
B1
350
83DD
  3
B2
350
83DE
  3
B3
350
83DF
  3
B4
350
83E0
  3
B5
350
83E1
  3
B6
350
83E2
  0
DICTIONARY
  5
83E5
102
{ACAD_REACTORS
330
C
102
}
330
C
100
AcDbDictionary
281
     1
  3
Metric50
350
83E6
  0
DICTIONARY
  5
83CF
102
{ACAD_REACTORS
330
C
102
}
330
C
100
AcDbDictionary
281
     1
  3
Standard
350
83D0
  0
DICTIONARY
  5
83B5
102
{ACAD_REACTORS
330
C
102
}
330
C
100
AcDbDictionary
281
     1
  3
2dWireframe
350
83BB
  3
Basic
350
83BA
  3
Brighten
350
83C1
  3
ColorChange
350
83C5
  3
Conceptual
350
83BE
  3
Dim
350
83C0
  3
EdgeColorOff
350
83CD
  3
Facepattern
350
83C4
  3
Flat
350
83B6
  3
FlatWithEdges
350
83B7
  3
Gouraud
350
83B8
  3
GouraudWithEdges
350
83B9
  3
Hidden
350
83BD
  3
JitterOff
350
83CB
  3
Linepattern
350
83C3
  3
OverhangOff
350
83CC
  3
Realistic
350
83BF
  3
Shaded
350
83CA
  3
Shaded with edges
350
83C9
  3
Shades of Gray
350
83C6
  3
Sketchy
350
83C7
  3
Thicken
350
83C2
  3
Wireframe
350
83BC
  3
X-Ray
350
83C8
  0
XRECORD
  5
8463
102
{ACAD_REACTORS
330
C
102
}
330
C
100
AcDbXrecord
280
     1
 90
        1
330
83D0
  0
DICTIONARY
  5
8390
102
{ACAD_REACTORS
330
C
102
}
330
C
100
AcDbDictionary
281
     1
  3
CANNOSCALE
350
8458
  3
CMLEADERSTYLE
350
8454
  3
CTABLESTYLE
350
8453
  3
CVIEWDETAILSTYLE
350
8455
  3
CVIEWSECTIONSTYLE
350
8456
  3
DIMASSOC
350
8391
  3
LAYEREVAL
350
845A
  3
LAYERNOTIFY
350
845B
  3
LIGHTINGUNITS
350
8459
  3
MARKUPASSISTMODE
350
8460
  3
MSLTSCALE
350
8457
  0
DICTIONARY
  5
8469
102
{ACAD_REACTORS
330
C
102
}
330
C
100
AcDbDictionary
281
     1
  3
AcDsRecords
350
846B
  3
AcDsSchemas
350
846A
1001
ACAD
1070
     2
  0
DICTIONARY
  5
8433
102
{ACAD_REACTORS
330
8432
102
}
330
8432
100
AcDbDictionary
281
     1
  0
XRECORD
  5
8426
102
{ACAD_REACTORS
330
8425
102
}
330
8425
100
AcDbXrecord
280
     1
290
     1
  0
XRECORD
  5
8428
102
{ACAD_REACTORS
330
8427
102
}
330
8427
100
AcDbXrecord
280
     1
290
     1
  0
XRECORD
  5
842A
102
{ACAD_REACTORS
330
8429
102
}
330
8429
100
AcDbXrecord
280
     1
290
     1
  0
XRECORD
  5
842C
102
{ACAD_REACTORS
330
842B
102
}
330
842B
100
AcDbXrecord
280
     1
290
     1
  0
XRECORD
  5
842E
102
{ACAD_REACTORS
330
842D
102
}
330
842D
100
AcDbXrecord
280
     1
290
     1
  0
XRECORD
  5
82D0
102
{ACAD_REACTORS
330
82CF
102
}
330
82CF
100
AcDbXrecord
280
     1
340
19
  0
XRECORD
  5
82CE
102
{ACAD_REACTORS
330
82CD
102
}
330
82CD
100
AcDbXrecord
280
     1
340
16
  0
ACDBDETAILVIEWSTYLE
  5
83E8
102
{ACAD_XDICTIONARY
360
846E
102
}
102
{ACAD_REACTORS
330
83E7
102
}
330
83E7
100
AcDbModelDocViewStyle
 70
     0
  3
Metric50
290
     0
100
AcDbDetailViewStyle
 70
     0
 71
     0
 90
        3
 71
     1
340
10
 62
   256
 40
5.0
340
0
 62
   256
 40
5.0
300

 40
0.0
280
     1
 71
     2
340
15
 90
       25
 62
   256
 71
     3
340
10
 62
   256
 40
5.0
 90
        0
 40
15.0
 90
        1
300
%<\AcVar ViewDetailId>% (%<\AcVar ViewScale \f "%sn">%)
 71
     4
340
15
 90
       25
 62
   256
340
15
 90
       25
 62
   256
280
     0
  0
LAYOUT
  5
81BB
102
{ACAD_REACTORS
330
81B9
102
}
330
81B9
100
AcDbPlotSettings
  1

  2
\\Txbo34x8944cqyd\EPSON LP-6100
  4

  6

 40
0.0
 41
0.0
 42
0.0
 43
0.0
 44
0.0
 45
0.0
 46
0.0
 47
0.0
 48
0.0
 49
0.0
140
0.0
141
0.0
142
1.0
143
1.0
 70
  1712
 72
     0
 73
     0
 74
     0
  7
GOD2000TABLE.ctb
 75
     0
147
1.0
 76
     0
 77
     2
 78
   300
148
0.0
149
0.0
100
AcDbLayout
  1
Model
 70
     1
 71
     0
 10
0.0
 20
0.0
 11
12.0
 21
9.0
 12
0.0
 22
0.0
 32
0.0
 14
0.0
 24
0.0
 34
0.0
 15
0.0
 25
0.0
 35
0.0
146
0.0
 13
0.0
 23
0.0
 33
0.0
 16
1.0
 26
0.0
 36
0.0
 17
0.0
 27
1.0
 37
0.0
 76
     0
330
19
331
839A
  0
LAYOUT
  5
81BC
102
{ACAD_REACTORS
330
81B9
102
}
330
81B9
100
AcDbPlotSettings
  1

  2
\\Txbo34x8944cqyd\EPSON LP-6100
  4

  6

 40
0.0
 41
0.0
 42
0.0
 43
0.0
 44
0.0
 45
0.0
 46
0.0
 47
0.0
 48
0.0
 49
0.0
140
0.0
141
0.0
142
1.0
143
1.0
 70
   688
 72
     0
 73
     0
 74
     5
  7
GOD2000TABLE.ctb
 75
    16
147
1.0
 76
     0
 77
     2
 78
   300
148
0.0
149
0.0
100
AcDbLayout
  1
ﾚｲｱｳﾄ1
 70
     1
 71
     1
 10
0.0
 20
0.0
 11
12.0
 21
9.0
 12
0.0
 22
0.0
 32
0.0
 14
1.000000000000000E+20
 24
1.000000000000000E+20
 34
1.000000000000000E+20
 15
-1.000000000000000E+20
 25
-1.000000000000000E+20
 35
-1.000000000000000E+20
146
0.0
 13
0.0
 23
0.0
 33
0.0
 16
1.0
 26
0.0
 36
0.0
 17
0.0
 27
1.0
 37
0.0
 76
     0
330
16
  0
MATERIAL
  5
83A5
102
{ACAD_XDICTIONARY
360
83A6
102
}
102
{ACAD_REACTORS
330
839C
102
}
330
839C
100
AcDbMaterial
  1
ByBlock
 72
     0
 43
0.0208333333333333
 43
0.0
 43
0.0
 43
0.0
 43
0.0
 43
0.0208333333333333
 43
0.0
 43
0.0
 43
0.0
 43
0.0
 43
1.0
 43
0.0
 43
0.0
 43
0.0
 43
0.0
 43
1.0
 77
     0
 47
0.0208333333333333
 47
0.0
 47
0.0
 47
0.0
 47
0.0
 47
0.0208333333333333
 47
0.0
 47
0.0
 47
0.0
 47
0.0
 47
1.0
 47
0.0
 47
0.0
 47
0.0
 47
0.0
 47
1.0
171
     0
 49
0.0208333333333333
 49
0.0
 49
0.0
 49
0.0
 49
0.0
 49
0.0208333333333333
 49
0.0
 49
0.0
 49
0.0
 49
0.0
 49
1.0
 49
0.0
 49
0.0
 49
0.0
 49
0.0
 49
1.0
175
     0
142
0.0208333333333333
142
0.0
142
0.0
142
0.0
142
0.0
142
0.0208333333333333
142
0.0
142
0.0
142
0.0
142
0.0
142
1.0
142
0.0
142
0.0
142
0.0
142
0.0
142
1.0
179
     0
144
0.0208333333333333
144
0.0
144
0.0
144
0.0
144
0.0
144
0.0208333333333333
144
0.0
144
0.0
144
0.0
144
0.0
144
1.0
144
0.0
144
0.0
144
0.0
144
0.0
144
1.0
147
0.0208333333333333
147
0.0
147
0.0
147
0.0
147
0.0
147
0.0208333333333333
147
0.0
147
0.0
147
0.0
147
0.0
147
1.0
147
0.0
147
0.0
147
0.0
147
0.0
147
1.0
  0
MATERIAL
  5
839D
102
{ACAD_XDICTIONARY
360
839E
102
}
102
{ACAD_REACTORS
330
839C
102
}
330
839C
100
AcDbMaterial
  1
ByLayer
 72
     0
 43
0.0208333333333333
 43
0.0
 43
0.0
 43
0.0
 43
0.0
 43
0.0208333333333333
 43
0.0
 43
0.0
 43
0.0
 43
0.0
 43
1.0
 43
0.0
 43
0.0
 43
0.0
 43
0.0
 43
1.0
 77
     0
 47
0.0208333333333333
 47
0.0
 47
0.0
 47
0.0
 47
0.0
 47
0.0208333333333333
 47
0.0
 47
0.0
 47
0.0
 47
0.0
 47
1.0
 47
0.0
 47
0.0
 47
0.0
 47
0.0
 47
1.0
171
     0
 49
0.0208333333333333
 49
0.0
 49
0.0
 49
0.0
 49
0.0
 49
0.0208333333333333
 49
0.0
 49
0.0
 49
0.0
 49
0.0
 49
1.0
 49
0.0
 49
0.0
 49
0.0
 49
0.0
 49
1.0
175
     0
142
0.0208333333333333
142
0.0
142
0.0
142
0.0
142
0.0
142
0.0208333333333333
142
0.0
142
0.0
142
0.0
142
0.0
142
1.0
142
0.0
142
0.0
142
0.0
142
0.0
142
1.0
179
     0
144
0.0208333333333333
144
0.0
144
0.0
144
0.0
144
0.0
144
0.0208333333333333
144
0.0
144
0.0
144
0.0
144
0.0
144
1.0
144
0.0
144
0.0
144
0.0
144
0.0
144
1.0
147
0.0208333333333333
147
0.0
147
0.0
147
0.0
147
0.0
147
0.0208333333333333
147
0.0
147
0.0
147
0.0
147
0.0
147
1.0
147
0.0
147
0.0
147
0.0
147
0.0
147
1.0
  0
MATERIAL
  5
83AD
102
{ACAD_XDICTIONARY
360
83AE
102
}
102
{ACAD_REACTORS
330
839C
102
}
330
839C
100
AcDbMaterial
  1
Global
 72
     0
 43
0.0208333333333333
 43
0.0
 43
0.0
 43
0.0
 43
0.0
 43
0.0208333333333333
 43
0.0
 43
0.0
 43
0.0
 43
0.0
 43
1.0
 43
0.0
 43
0.0
 43
0.0
 43
0.0
 43
1.0
 77
     0
 47
0.0208333333333333
 47
0.0
 47
0.0
 47
0.0
 47
0.0
 47
0.0208333333333333
 47
0.0
 47
0.0
 47
0.0
 47
0.0
 47
1.0
 47
0.0
 47
0.0
 47
0.0
 47
0.0
 47
1.0
171
     0
 49
0.0208333333333333
 49
0.0
 49
0.0
 49
0.0
 49
0.0
 49
0.0208333333333333
 49
0.0
 49
0.0
 49
0.0
 49
0.0
 49
1.0
 49
0.0
 49
0.0
 49
0.0
 49
0.0
 49
1.0
175
     0
142
0.0208333333333333
142
0.0
142
0.0
142
0.0
142
0.0
142
0.0208333333333333
142
0.0
142
0.0
142
0.0
142
0.0
142
1.0
142
0.0
142
0.0
142
0.0
142
0.0
142
1.0
179
     0
144
0.0208333333333333
144
0.0
144
0.0
144
0.0
144
0.0
144
0.0208333333333333
144
0.0
144
0.0
144
0.0
144
0.0
144
1.0
144
0.0
144
0.0
144
0.0
144
0.0
144
1.0
147
0.0208333333333333
147
0.0
147
0.0
147
0.0
147
0.0
147
0.0208333333333333
147
0.0
147
0.0
147
0.0
147
0.0
147
1.0
147
0.0
147
0.0
147
0.0
147
0.0
147
1.0
  0
MLEADERSTYLE
  5
83E4
102
{ACAD_REACTORS
330
83E3
102
}
330
83E3
100
AcDbMLeaderStyle
179
     2
170
     2
171
     1
172
     0
 90
        2
 40
0.0
 41
0.0
173
     1
 91
-1056964608
340
13
 92
       -2
290
     1
 42
2.0
291
     1
 43
0.36
  3
Standard
 44
4.0
300

342
10
174
     1
178
     6
175
     1
176
     0
 93
-1056964608
 45
4.0
292
     0
297
     0
 46
4.0
 94
-1056964608
 47
1.0
 49
1.0
140
1.0
293
     1
141
0.0
294
     1
177
     0
142
1.0
295
     0
296
     0
143
0.125
271
     0
272
     9
273
     9
298
     1
  0
MLINESTYLE
  5
1C
102
{ACAD_REACTORS
330
E
102
}
330
E
100
AcDbMlineStyle
  2
STANDARD
 70
     0
  3

 62
     0
 51
90.0
 52
90.0
 71
     2
 49
0.5
 62
   256
  6
BYLAYER
 49
-0.5
 62
   256
  6
BYLAYER
  0
ACDBPLACEHOLDER
  5
81B8
102
{ACAD_REACTORS
330
81B7
102
}
330
81B7
  0
SCALE
  5
83D2
102
{ACAD_REACTORS
330
83D1
102
}
330
83D1
100
AcDbScale
 70
     0
300
1:1
140
1.0
141
1.0
290
     1
  0
SCALE
  5
83D3
102
{ACAD_REACTORS
330
83D1
102
}
330
83D1
100
AcDbScale
 70
     0
300
1:2
140
1.0
141
2.0
290
     0
  0
SCALE
  5
83D4
102
{ACAD_REACTORS
330
83D1
102
}
330
83D1
100
AcDbScale
 70
     0
300
1:4
140
1.0
141
4.0
290
     0
  0
SCALE
  5
83D5
102
{ACAD_REACTORS
330
83D1
102
}
330
83D1
100
AcDbScale
 70
     0
300
1:5
140
1.0
141
5.0
290
     0
  0
SCALE
  5
83D6
102
{ACAD_REACTORS
330
83D1
102
}
330
83D1
100
AcDbScale
 70
     0
300
1:8
140
1.0
141
8.0
290
     0
  0
SCALE
  5
83D7
102
{ACAD_REACTORS
330
83D1
102
}
330
83D1
100
AcDbScale
 70
     0
300
1:10
140
1.0
141
10.0
290
     0
  0
SCALE
  5
83D8
102
{ACAD_REACTORS
330
83D1
102
}
330
83D1
100
AcDbScale
 70
     0
300
1:16
140
1.0
141
16.0
290
     0
  0
SCALE
  5
83D9
102
{ACAD_REACTORS
330
83D1
102
}
330
83D1
100
AcDbScale
 70
     0
300
1:20
140
1.0
141
20.0
290
     0
  0
SCALE
  5
83DA
102
{ACAD_REACTORS
330
83D1
102
}
330
83D1
100
AcDbScale
 70
     0
300
1:30
140
1.0
141
30.0
290
     0
  0
SCALE
  5
83DB
102
{ACAD_REACTORS
330
83D1
102
}
330
83D1
100
AcDbScale
 70
     0
300
1:40
140
1.0
141
40.0
290
     0
  0
SCALE
  5
83DC
102
{ACAD_REACTORS
330
83D1
102
}
330
83D1
100
AcDbScale
 70
     0
300
1:50
140
1.0
141
50.0
290
     0
  0
SCALE
  5
83DD
102
{ACAD_REACTORS
330
83D1
102
}
330
83D1
100
AcDbScale
 70
     0
300
1:100
140
1.0
141
100.0
290
     0
  0
SCALE
  5
83DE
102
{ACAD_REACTORS
330
83D1
102
}
330
83D1
100
AcDbScale
 70
     0
300
2:1
140
2.0
141
1.0
290
     0
  0
SCALE
  5
83DF
102
{ACAD_REACTORS
330
83D1
102
}
330
83D1
100
AcDbScale
 70
     0
300
4:1
140
4.0
141
1.0
290
     0
  0
SCALE
  5
83E0
102
{ACAD_REACTORS
330
83D1
102
}
330
83D1
100
AcDbScale
 70
     0
300
8:1
140
8.0
141
1.0
290
     0
  0
SCALE
  5
83E1
102
{ACAD_REACTORS
330
83D1
102
}
330
83D1
100
AcDbScale
 70
     0
300
10:1
140
10.0
141
1.0
290
     0
  0
SCALE
  5
83E2
102
{ACAD_REACTORS
330
83D1
102
}
330
83D1
100
AcDbScale
 70
     0
300
100:1
140
100.0
141
1.0
290
     0
  0
ACDBSECTIONVIEWSTYLE
  5
83E6
102
{ACAD_XDICTIONARY
360
846C
102
}
102
{ACAD_REACTORS
330
83E5
102
}
330
83E5
100
AcDbModelDocViewStyle
 70
     0
  3
Metric50
290
     0
100
AcDbSectionViewStyle
 70
     0
 71
     0
 90
      102
 71
     1
340
10
 62
   256
 40
5.0
340
0
340
0
 62
   256
 40
5.0
300
I, O, Q, S, X, Z
 40
10.0
 90
        0
 40
2.5
 90
        0
 71
     2
340
15
 90
       25
 62
   256
340
15
 90
       50
 62
   256
 40
5.0
 40
2.5
 40
5.0
 71
     3
340
10
 62
   256
 40
5.0
 90
        0
 40
15.0
 90
        1
300
%<\AcVar ViewSectionStartId>%-%<\AcVar ViewSectionEndId>% (%<\AcVar ViewScale \f "%sn">%)
 71
     4
 62
   256
 62
   257
300
ANSI31
 40
1.0
 90
        0
290
     0
290
     0
 90
        6
 40
0.0
 40
1.570796326794896
 40
0.2617993877991494
 40
1.308996938995747
 40
-0.2617993877991494
 40
1.832595714594046
  0
TABLESTYLE
  5
83D0
102
{ACAD_XDICTIONARY
360
8461
102
}
102
{ACAD_REACTORS
330
83CF
102
}
330
83CF
100
AcDbTableStyle
280
     0
  3
Standard
 70
     0
 71
     0
 40
1.5
 41
1.5
280
     0
281
     0
  7
STANDARD
140
4.5
170
     2
 62
     0
 63
     7
283
     0
 90
      512
 91
        0
  1

274
    -2
284
     1
 64
     0
275
    -2
285
     1
 65
     0
276
    -2
286
     1
 66
     0
277
    -2
287
     1
 67
     0
278
    -2
288
     1
 68
     0
279
    -2
289
     1
 69
     0
  7
STANDARD
140
6.0
170
     5
 62
     0
 63
     7
283
     0
 90
      512
 91
        0
  1

274
    -2
284
     1
 64
     0
275
    -2
285
     1
 65
     0
276
    -2
286
     1
 66
     0
277
    -2
287
     1
 67
     0
278
    -2
288
     1
 68
     0
279
    -2
289
     1
 69
     0
  7
STANDARD
140
4.5
170
     5
 62
     0
 63
     7
283
     0
 90
      512
 91
        0
  1

274
    -2
284
     1
 64
     0
275
    -2
285
     1
 65
     0
276
    -2
286
     1
 66
     0
277
    -2
287
     1
 67
     0
278
    -2
288
     1
 68
     0
279
    -2
289
     1
 69
     0
  0
VISUALSTYLE
  5
83BB
102
{ACAD_REACTORS
330
83B5
102
}
330
83B5
100
AcDbVisualStyle
  2
2dWireframe
 70
     4
177
     3
291
     0
 70
    58
 90
        0
176
     1
 90
        2
176
     1
 90
        0
176
     1
 90
        0
176
     1
 40
0.6
176
     1
 40
30.0
176
     1
 62
     7
420
 16777215
176
     1
 90
        1
176
     1
 90
        4
176
     1
 62
     7
176
     1
 62
   257
176
     1
 90
        1
176
     1
 90
        1
176
     1
 40
1.0
176
     1
 90
        0
176
     1
 62
   257
176
     1
 40
1.0
176
     1
 90
        1
176
     1
 90
        6
176
     1
 90
        2
176
     1
 62
     7
176
     1
 90
        5
176
     1
 90
        0
176
     1
 90
        0
176
     1
290
     0
176
     1
 90
        1
176
     1
 40
0.0
176
     1
 90
        0
176
     1
290
     1
176
     1
290
     1
176
     1
290
     0
176
     1
290
     0
176
     1
290
     0
176
     1
290
     0
176
     1
290
     0
176
     1
290
     0
176
     1
290
     0
176
     1
 90
       50
176
     1
 40
0.0
176
     1
 40
1.0
176
     1
 90
        0
176
     1
 62
    18
420
        0
176
     1
 90
       50
176
     1
 90
        3
176
     1
 62
     5
420
      255
176
     1
290
     0
176
     1
 90
       50
176
     1
 90
       50
176
     1
 90
       50
176
     1
290
     0
176
     1
 90
       50
176
     1
 62
   256
176
     0
 40
1.0
176
     0
 90
        2
176
     1
  1
strokes_ogs.tif
176
     1
290
     0
176
     1
 40
1.0
176
     1
 40
1.0
176
     1
1001
ACAD
1000
AcDbSavedByObjectVersion
1070
     0
  0
VISUALSTYLE
  5
83BA
102
{ACAD_REACTORS
330
83B5
102
}
330
83B5
100
AcDbVisualStyle
  2
Basic
 70
     7
177
     3
291
     1
 70
    58
 90
        1
176
     1
 90
        0
176
     1
 90
        1
176
     1
 90
        0
176
     1
 40
0.6
176
     1
 40
30.0
176
     1
 62
     7
420
 16777215
176
     1
 90
        0
176
     1
 90
        4
176
     1
 62
     7
176
     1
 62
   257
176
     1
 90
        1
176
     1
 90
        1
176
     1
 40
1.0
176
     1
 90
        8
176
     1
 62
     7
176
     1
 40
1.0
176
     1
 90
        1
176
     1
 90
        6
176
     1
 90
        2
176
     1
 62
     7
176
     1
 90
        5
176
     1
 90
        0
176
     1
 90
        0
176
     1
290
     0
176
     1
 90
        1
176
     1
 40
0.0
176
     1
 90
        0
176
     1
290
     0
176
     1
290
     1
176
     1
290
     1
176
     1
290
     0
176
     1
290
     0
176
     1
290
     0
176
     1
290
     0
176
     1
290
     0
176
     1
290
     0
176
     1
 90
       50
176
     1
 40
0.0
176
     1
 40
1.0
176
     1
 90
        0
176
     1
 62
    18
420
        0
176
     1
 90
       50
176
     1
 90
        3
176
     1
 62
     5
420
      255
176
     1
290
     0
176
     1
 90
       50
176
     1
 90
       50
176
     1
 90
       50
176
     1
290
     0
176
     1
 90
       50
176
     1
 62
   256
176
     0
 40
1.0
176
     0
 90
        2
176
     1
  1
strokes_ogs.tif
176
     1
290
     0
176
     1
 40
1.0
176
     1
 40
1.0
176
     1
1001
ACAD
1000
AcDbSavedByObjectVersion
1070
     0
  0
VISUALSTYLE
  5
83C1
102
{ACAD_REACTORS
330
83B5
102
}
330
83B5
100
AcDbVisualStyle
  2
Brighten
 70
    12
177
     3
291
     1
 70
    58
 90
        2
176
     1
 90
        2
176
     1
 90
        0
176
     1
 90
        0
176
     1
 40
0.6
176
     1
 40
30.0
176
     1
 62
     7
420
 16777215
176
     1
 90
        1
176
     1
 90
        4
176
     1
 62
     7
176
     1
 62
   257
176
     1
 90
        1
176
     1
 90
        1
176
     1
 40
1.0
176
     1
 90
        8
176
     1
 62
     7
176
     1
 40
1.0
176
     1
 90
        1
176
     1
 90
        6
176
     1
 90
        2
176
     1
 62
     7
176
     1
 90
        5
176
     1
 90
        0
176
     1
 90
        0
176
     1
290
     0
176
     1
 90
        1
176
     1
 40
50.0
176
     1
 90
        0
176
     1
290
     0
176
     1
290
     1
176
     1
290
     1
176
     1
290
     0
176
     1
290
     0
176
     1
290
     0
176
     1
290
     0
176
     1
290
     0
176
     1
290
     0
176
     1
 90
       50
176
     1
 40
0.0
176
     1
 40
1.0
176
     1
 90
        0
176
     1
 62
    18
420
        0
176
     1
 90
       50
176
     1
 90
        3
176
     1
 62
     5
420
      255
176
     1
290
     0
176
     1
 90
       50
176
     1
 90
       50
176
     1
 90
       50
176
     1
290
     0
176
     1
 90
       50
176
     1
 62
   256
176
     0
 40
1.0
176
     0
 90
        2
176
     1
  1
strokes_ogs.tif
176
     1
290
     0
176
     1
 40
1.0
176
     1
 40
1.0
176
     1
1001
ACAD
1000
AcDbSavedByObjectVersion
1070
     0
  0
VISUALSTYLE
  5
83C5
102
{ACAD_REACTORS
330
83B5
102
}
330
83B5
100
AcDbVisualStyle
  2
ColorChange
 70
    16
177
     3
291
     1
 70
    58
 90
        2
176
     1
 90
        2
176
     1
 90
        3
176
     1
 90
        0
176
     1
 40
0.6
176
     1
 40
30.0
176
     1
 62
     8
420
  8421504
176
     1
 90
        1
176
     1
 90
        4
176
     1
 62
     7
176
     1
 62
   257
176
     1
 90
        1
176
     1
 90
        1
176
     1
 40
1.0
176
     1
 90
        8
176
     1
 62
     8
420
  8421504
176
     1
 40
1.0
176
     1
 90
        1
176
     1
 90
        6
176
     1
 90
        2
176
     1
 62
     7
176
     1
 90
        5
176
     1
 90
        0
176
     1
 90
        0
176
     1
290
     0
176
     1
 90
        1
176
     1
 40
0.0
176
     1
 90
        0
176
     1
290
     0
176
     1
290
     1
176
     1
290
     1
176
     1
290
     0
176
     1
290
     0
176
     1
290
     0
176
     1
290
     0
176
     1
290
     0
176
     1
290
     0
176
     1
 90
       50
176
     1
 40
0.0
176
     1
 40
1.0
176
     1
 90
        0
176
     1
 62
    18
420
        0
176
     1
 90
       50
176
     1
 90
        3
176
     1
 62
     5
420
      255
176
     1
290
     0
176
     1
 90
       50
176
     1
 90
       50
176
     1
 90
       50
176
     1
290
     0
176
     1
 90
       50
176
     1
 62
   256
176
     0
 40
1.0
176
     0
 90
        2
176
     1
  1
strokes_ogs.tif
176
     1
290
     0
176
     1
 40
1.0
176
     1
 40
1.0
176
     1
1001
ACAD
1000
AcDbSavedByObjectVersion
1070
     0
  0
VISUALSTYLE
  5
83BE
102
{ACAD_REACTORS
330
83B5
102
}
330
83B5
100
AcDbVisualStyle
  2
Conceptual
 70
     9
177
     3
291
     0
 70
    58
 90
        3
176
     1
 90
        2
176
     1
 90
        0
176
     1
 90
        0
176
     1
 40
0.6
176
     1
 40
30.0
176
     1
 62
     7
420
 16777215
176
     1
 90
        2
176
     1
 90
        2
176
     1
 62
     7
176
     1
 62
   257
176
     1
 90
        1
176
     1
 90
        1
176
     1
 40
179.0
176
     1
 90
        8
176
     1
 62
     7
176
     1
 40
1.0
176
     1
 90
        1
176
     1
 90
        6
176
     1
 90
        2
176
     1
 62
     7
176
     1
 90
        3
176
     1
 90
        0
176
     1
 90
        0
176
     1
290
     0
176
     1
 90
        1
176
     1
 40
0.0
176
     1
 90
        0
176
     1
290
     0
176
     1
290
     1
176
     1
290
     1
176
     1
290
     0
176
     1
290
     0
176
     1
290
     0
176
     1
290
     0
176
     1
290
     0
176
     1
290
     0
176
     1
 90
       50
176
     1
 40
0.0
176
     1
 40
1.0
176
     1
 90
        0
176
     1
 62
    18
420
        0
176
     1
 90
       50
176
     1
 90
        3
176
     1
 62
     5
420
      255
176
     1
290
     0
176
     1
 90
       50
176
     1
 90
       50
176
     1
 90
       50
176
     1
290
     0
176
     1
 90
       50
176
     1
 62
   256
176
     0
 40
1.0
176
     0
 90
        2
176
     1
  1
strokes_ogs.tif
176
     1
290
     0
176
     1
 40
1.0
176
     1
 40
1.0
176
     1
1001
ACAD
1000
AcDbSavedByObjectVersion
1070
     0
  0
VISUALSTYLE
  5
83C0
102
{ACAD_REACTORS
330
83B5
102
}
330
83B5
100
AcDbVisualStyle
  2
Dim
 70
    11
177
     3
291
     1
 70
    58
 90
        2
176
     1
 90
        2
176
     1
 90
        0
176
     1
 90
        0
176
     1
 40
0.6
176
     1
 40
30.0
176
     1
 62
     7
420
 16777215
176
     1
 90
        1
176
     1
 90
        4
176
     1
 62
     7
176
     1
 62
   257
176
     1
 90
        1
176
     1
 90
        1
176
     1
 40
1.0
176
     1
 90
        8
176
     1
 62
     7
176
     1
 40
1.0
176
     1
 90
        1
176
     1
 90
        6
176
     1
 90
        2
176
     1
 62
     7
176
     1
 90
        5
176
     1
 90
        0
176
     1
 90
        0
176
     1
290
     0
176
     1
 90
        1
176
     1
 40
-50.0
176
     1
 90
        0
176
     1
290
     0
176
     1
290
     1
176
     1
290
     1
176
     1
290
     0
176
     1
290
     0
176
     1
290
     0
176
     1
290
     0
176
     1
290
     0
176
     1
290
     0
176
     1
 90
       50
176
     1
 40
0.0
176
     1
 40
1.0
176
     1
 90
        0
176
     1
 62
    18
420
        0
176
     1
 90
       50
176
     1
 90
        3
176
     1
 62
     5
420
      255
176
     1
290
     0
176
     1
 90
       50
176
     1
 90
       50
176
     1
 90
       50
176
     1
290
     0
176
     1
 90
       50
176
     1
 62
   256
176
     0
 40
1.0
176
     0
 90
        2
176
     1
  1
strokes_ogs.tif
176
     1
290
     0
176
     1
 40
1.0
176
     1
 40
1.0
176
     1
1001
ACAD
1000
AcDbSavedByObjectVersion
1070
     0
  0
VISUALSTYLE
  5
83CD
102
{ACAD_REACTORS
330
83B5
102
}
330
83B5
100
AcDbVisualStyle
  2
EdgeColorOff
 70
    22
177
     3
291
     1
 70
    58
 90
        2
176
     0
 90
        2
176
     0
 90
        0
176
     0
 90
        0
176
     0
 40
0.6
176
     0
 40
30.0
176
     0
 62
     7
420
 16777215
176
     0
 90
        1
176
     0
 90
        4
176
     0
 62
     7
176
     0
 62
   257
176
     0
 90
        1
176
     0
 90
        1
176
     0
 40
1.0
176
     0
 90
        8
176
     2
 62
     7
176
     0
 40
1.0
176
     0
 90
        1
176
     0
 90
        6
176
     0
 90
        2
176
     0
 62
     7
176
     0
 90
        5
176
     0
 90
        0
176
     0
 90
        0
176
     0
290
     0
176
     0
 90
        1
176
     0
 40
0.0
176
     0
 90
        0
176
     0
290
     0
176
     0
290
     1
176
     0
290
     1
176
     0
290
     0
176
     0
290
     0
176
     0
290
     0
176
     0
290
     0
176
     0
290
     0
176
     0
290
     0
176
     0
 90
       50
176
     0
 40
0.0
176
     0
 40
1.0
176
     0
 90
        0
176
     0
 62
    18
420
        0
176
     0
 90
       50
176
     0
 90
        3
176
     0
 62
     5
420
      255
176
     0
290
     0
176
     0
 90
       50
176
     0
 90
       50
176
     0
 90
       50
176
     0
290
     0
176
     0
 90
       50
176
     0
 62
   256
176
     0
 40
1.0
176
     0
 90
        2
176
     0
  1
strokes_ogs.tif
176
     0
290
     0
176
     0
 40
1.0
176
     0
 40
1.0
176
     0
1001
ACAD
1000
AcDbSavedByObjectVersion
1070
     0
  0
VISUALSTYLE
  5
83C4
102
{ACAD_REACTORS
330
83B5
102
}
330
83B5
100
AcDbVisualStyle
  2
Facepattern
 70
    15
177
     3
291
     1
 70
    58
 90
        2
176
     1
 90
        2
176
     1
 90
        0
176
     1
 90
        0
176
     1
 40
0.6
176
     1
 40
30.0
176
     1
 62
     7
420
 16777215
176
     1
 90
        1
176
     1
 90
        4
176
     1
 62
     7
176
     1
 62
   257
176
     1
 90
        1
176
     1
 90
        1
176
     1
 40
1.0
176
     1
 90
        8
176
     1
 62
     7
176
     1
 40
1.0
176
     1
 90
        1
176
     1
 90
        6
176
     1
 90
        2
176
     1
 62
     7
176
     1
 90
        5
176
     1
 90
        0
176
     1
 90
        0
176
     1
290
     0
176
     1
 90
        1
176
     1
 40
0.0
176
     1
 90
        0
176
     1
290
     0
176
     1
290
     1
176
     1
290
     1
176
     1
290
     0
176
     1
290
     0
176
     1
290
     0
176
     1
290
     0
176
     1
290
     0
176
     1
290
     0
176
     1
 90
       50
176
     1
 40
0.0
176
     1
 40
1.0
176
     1
 90
        0
176
     1
 62
    18
420
        0
176
     1
 90
       50
176
     1
 90
        3
176
     1
 62
     5
420
      255
176
     1
290
     0
176
     1
 90
       50
176
     1
 90
       50
176
     1
 90
       50
176
     1
290
     0
176
     1
 90
       50
176
     1
 62
   256
176
     0
 40
1.0
176
     0
 90
        2
176
     1
  1
strokes_ogs.tif
176
     1
290
     0
176
     1
 40
1.0
176
     1
 40
1.0
176
     1
1001
ACAD
1000
AcDbSavedByObjectVersion
1070
     0
  0
VISUALSTYLE
  5
83B6
102
{ACAD_REACTORS
330
83B5
102
}
330
83B5
100
AcDbVisualStyle
  2
Flat
 70
     0
177
     3
291
     1
 70
    58
 90
        2
176
     1
 90
        1
176
     1
 90
        1
176
     1
 90
        2
176
     1
 40
0.6
176
     1
 40
30.0
176
     1
 62
     7
420
 16777215
176
     1
 90
        0
176
     1
 90
        0
176
     1
 62
     7
176
     1
 62
   257
176
     1
 90
        1
176
     1
 90
        1
176
     1
 40
1.0
176
     1
 90
        8
176
     1
 62
     7
176
     1
 40
1.0
176
     1
 90
        1
176
     1
 90
        6
176
     1
 90
        2
176
     1
 62
     7
176
     1
 90
        5
176
     1
 90
        0
176
     1
 90
        0
176
     1
290
     0
176
     1
 90
       13
176
     1
 40
0.0
176
     1
 90
        0
176
     1
290
     0
176
     1
290
     1
176
     1
290
     1
176
     1
290
     0
176
     1
290
     0
176
     1
290
     0
176
     1
290
     0
176
     1
290
     0
176
     1
290
     0
176
     1
 90
       50
176
     1
 40
0.0
176
     1
 40
1.0
176
     1
 90
        0
176
     1
 62
    18
420
        0
176
     1
 90
       50
176
     1
 90
        3
176
     1
 62
     5
420
      255
176
     1
290
     0
176
     1
 90
       50
176
     1
 90
       50
176
     1
 90
       50
176
     1
290
     0
176
     1
 90
       50
176
     1
 62
   256
176
     0
 40
1.0
176
     0
 90
        2
176
     1
  1
strokes_ogs.tif
176
     1
290
     0
176
     1
 40
1.0
176
     1
 40
1.0
176
     1
1001
ACAD
1000
AcDbSavedByObjectVersion
1070
     0
  0
VISUALSTYLE
  5
83B7
102
{ACAD_REACTORS
330
83B5
102
}
330
83B5
100
AcDbVisualStyle
  2
FlatWithEdges
 70
     1
177
     3
291
     1
 70
    58
 90
        2
176
     1
 90
        1
176
     1
 90
        1
176
     1
 90
        2
176
     1
 40
0.6
176
     1
 40
30.0
176
     1
 62
     7
420
 16777215
176
     1
 90
        1
176
     1
 90
        0
176
     1
 62
     7
176
     1
 62
   257
176
     1
 90
        1
176
     1
 90
        1
176
     1
 40
1.0
176
     1
 90
        0
176
     1
 62
   257
176
     1
 40
1.0
176
     1
 90
        1
176
     1
 90
        6
176
     1
 90
        2
176
     1
 62
     7
176
     1
 90
        5
176
     1
 90
        0
176
     1
 90
        0
176
     1
290
     0
176
     1
 90
       13
176
     1
 40
0.0
176
     1
 90
        0
176
     1
290
     0
176
     1
290
     1
176
     1
290
     1
176
     1
290
     0
176
     1
290
     0
176
     1
290
     0
176
     1
290
     0
176
     1
290
     0
176
     1
290
     0
176
     1
 90
       50
176
     1
 40
0.0
176
     1
 40
1.0
176
     1
 90
        0
176
     1
 62
    18
420
        0
176
     1
 90
       50
176
     1
 90
        3
176
     1
 62
     5
420
      255
176
     1
290
     0
176
     1
 90
       50
176
     1
 90
       50
176
     1
 90
       50
176
     1
290
     0
176
     1
 90
       50
176
     1
 62
   256
176
     0
 40
1.0
176
     0
 90
        2
176
     1
  1
strokes_ogs.tif
176
     1
290
     0
176
     1
 40
1.0
176
     1
 40
1.0
176
     1
1001
ACAD
1000
AcDbSavedByObjectVersion
1070
     0
  0
VISUALSTYLE
  5
83B8
102
{ACAD_REACTORS
330
83B5
102
}
330
83B5
100
AcDbVisualStyle
  2
Gouraud
 70
     2
177
     3
291
     1
 70
    58
 90
        2
176
     1
 90
        2
176
     1
 90
        1
176
     1
 90
        2
176
     1
 40
0.6
176
     1
 40
30.0
176
     1
 62
     7
420
 16777215
176
     1
 90
        0
176
     1
 90
        0
176
     1
 62
     7
176
     1
 62
   257
176
     1
 90
        1
176
     1
 90
        1
176
     1
 40
1.0
176
     1
 90
        0
176
     1
 62
     7
176
     1
 40
1.0
176
     1
 90
        1
176
     1
 90
        6
176
     1
 90
        2
176
     1
 62
     7
176
     1
 90
        5
176
     1
 90
        0
176
     1
 90
        0
176
     1
290
     0
176
     1
 90
       13
176
     1
 40
0.0
176
     1
 90
        0
176
     1
290
     0
176
     1
290
     1
176
     1
290
     1
176
     1
290
     0
176
     1
290
     0
176
     1
290
     0
176
     1
290
     0
176
     1
290
     0
176
     1
290
     0
176
     1
 90
       50
176
     1
 40
0.0
176
     1
 40
1.0
176
     1
 90
        0
176
     1
 62
    18
420
        0
176
     1
 90
       50
176
     1
 90
        3
176
     1
 62
     5
420
      255
176
     1
290
     0
176
     1
 90
       50
176
     1
 90
       50
176
     1
 90
       50
176
     1
290
     0
176
     1
 90
       50
176
     1
 62
   256
176
     0
 40
1.0
176
     0
 90
        2
176
     1
  1
strokes_ogs.tif
176
     1
290
     0
176
     1
 40
1.0
176
     1
 40
1.0
176
     1
1001
ACAD
1000
AcDbSavedByObjectVersion
1070
     0
  0
VISUALSTYLE
  5
83B9
102
{ACAD_REACTORS
330
83B5
102
}
330
83B5
100
AcDbVisualStyle
  2
GouraudWithEdges
 70
     3
177
     3
291
     1
 70
    58
 90
        2
176
     1
 90
        2
176
     1
 90
        1
176
     1
 90
        2
176
     1
 40
0.6
176
     1
 40
30.0
176
     1
 62
     7
420
 16777215
176
     1
 90
        1
176
     1
 90
        0
176
     1
 62
     7
176
     1
 62
   257
176
     1
 90
        1
176
     1
 90
        1
176
     1
 40
1.0
176
     1
 90
        0
176
     1
 62
   257
176
     1
 40
1.0
176
     1
 90
        1
176
     1
 90
        6
176
     1
 90
        2
176
     1
 62
     7
176
     1
 90
        5
176
     1
 90
        0
176
     1
 90
        0
176
     1
290
     0
176
     1
 90
       13
176
     1
 40
0.0
176
     1
 90
        0
176
     1
290
     0
176
     1
290
     1
176
     1
290
     1
176
     1
290
     0
176
     1
290
     0
176
     1
290
     0
176
     1
290
     0
176
     1
290
     0
176
     1
290
     0
176
     1
 90
       50
176
     1
 40
0.0
176
     1
 40
1.0
176
     1
 90
        0
176
     1
 62
    18
420
        0
176
     1
 90
       50
176
     1
 90
        3
176
     1
 62
     5
420
      255
176
     1
290
     0
176
     1
 90
       50
176
     1
 90
       50
176
     1
 90
       50
176
     1
290
     0
176
     1
 90
       50
176
     1
 62
   256
176
     0
 40
1.0
176
     0
 90
        2
176
     1
  1
strokes_ogs.tif
176
     1
290
     0
176
     1
 40
1.0
176
     1
 40
1.0
176
     1
1001
ACAD
1000
AcDbSavedByObjectVersion
1070
     0
  0
VISUALSTYLE
  5
83BD
102
{ACAD_REACTORS
330
83B5
102
}
330
83B5
100
AcDbVisualStyle
  2
Hidden
 70
     6
177
     3
291
     0
 70
    58
 90
        1
176
     1
 90
        2
176
     1
 90
        2
176
     1
 90
        0
176
     1
 40
0.6
176
     1
 40
30.0
176
     1
 62
     7
420
 16777215
176
     1
 90
        2
176
     1
 90
        2
176
     1
 62
     7
176
     1
 62
   257
176
     1
 90
        2
176
     1
 90
        1
176
     1
 40
40.0
176
     1
 90
        0
176
     1
 62
   257
176
     1
 40
1.0
176
     1
 90
        1
176
     1
 90
        6
176
     1
 90
        2
176
     1
 62
     7
176
     1
 90
        3
176
     1
 90
        0
176
     1
 90
        0
176
     1
290
     0
176
     1
 90
        1
176
     1
 40
0.0
176
     1
 90
        0
176
     1
290
     0
176
     1
290
     1
176
     1
290
     1
176
     1
290
     0
176
     1
290
     0
176
     1
290
     0
176
     1
290
     0
176
     1
290
     0
176
     1
290
     0
176
     1
 90
       50
176
     1
 40
0.0
176
     1
 40
1.0
176
     1
 90
        0
176
     1
 62
    18
420
        0
176
     1
 90
       50
176
     1
 90
        3
176
     1
 62
     5
420
      255
176
     1
290
     0
176
     1
 90
       50
176
     1
 90
       50
176
     1
 90
       50
176
     1
290
     0
176
     1
 90
       50
176
     1
 62
   256
176
     0
 40
1.0
176
     0
 90
        2
176
     1
  1
strokes_ogs.tif
176
     1
290
     0
176
     1
 40
1.0
176
     1
 40
1.0
176
     1
1001
ACAD
1000
AcDbSavedByObjectVersion
1070
     0
  0
VISUALSTYLE
  5
83CB
102
{ACAD_REACTORS
330
83B5
102
}
330
83B5
100
AcDbVisualStyle
  2
JitterOff
 70
    20
177
     3
291
     1
 70
    58
 90
        2
176
     0
 90
        2
176
     0
 90
        0
176
     0
 90
        0
176
     0
 40
0.6
176
     0
 40
30.0
176
     0
 62
     7
420
 16777215
176
     0
 90
        1
176
     0
 90
        4
176
     0
 62
     7
176
     0
 62
   257
176
     0
 90
        1
176
     0
 90
        1
176
     0
 40
1.0
176
     0
 90
       10
176
     2
 62
     7
176
     0
 40
1.0
176
     0
 90
        1
176
     0
 90
        6
176
     0
 90
        2
176
     0
 62
     7
176
     0
 90
        5
176
     0
 90
        0
176
     0
 90
        0
176
     0
290
     0
176
     0
 90
        1
176
     0
 40
0.0
176
     0
 90
        0
176
     0
290
     0
176
     0
290
     1
176
     0
290
     1
176
     0
290
     0
176
     0
290
     0
176
     0
290
     0
176
     0
290
     0
176
     0
290
     0
176
     0
290
     0
176
     0
 90
       50
176
     0
 40
0.0
176
     0
 40
1.0
176
     0
 90
        0
176
     0
 62
    18
420
        0
176
     0
 90
       50
176
     0
 90
        3
176
     0
 62
     5
420
      255
176
     0
290
     0
176
     0
 90
       50
176
     0
 90
       50
176
     0
 90
       50
176
     0
290
     0
176
     0
 90
       50
176
     0
 62
   256
176
     0
 40
1.0
176
     0
 90
        2
176
     0
  1
strokes_ogs.tif
176
     0
290
     0
176
     0
 40
1.0
176
     0
 40
1.0
176
     0
1001
ACAD
1000
AcDbSavedByObjectVersion
1070
     0
  0
VISUALSTYLE
  5
83C3
102
{ACAD_REACTORS
330
83B5
102
}
330
83B5
100
AcDbVisualStyle
  2
Linepattern
 70
    14
177
     3
291
     1
 70
    58
 90
        2
176
     1
 90
        2
176
     1
 90
        0
176
     1
 90
        0
176
     1
 40
0.6
176
     1
 40
30.0
176
     1
 62
     7
420
 16777215
176
     1
 90
        1
176
     1
 90
        4
176
     1
 62
     7
176
     1
 62
   257
176
     1
 90
        7
176
     1
 90
        7
176
     1
 40
1.0
176
     1
 90
        8
176
     1
 62
     7
176
     1
 40
1.0
176
     1
 90
        1
176
     1
 90
        6
176
     1
 90
        2
176
     1
 62
     7
176
     1
 90
        5
176
     1
 90
        0
176
     1
 90
        0
176
     1
290
     0
176
     1
 90
        1
176
     1
 40
0.0
176
     1
 90
        0
176
     1
290
     0
176
     1
290
     1
176
     1
290
     1
176
     1
290
     0
176
     1
290
     0
176
     1
290
     0
176
     1
290
     0
176
     1
290
     0
176
     1
290
     0
176
     1
 90
       50
176
     1
 40
0.0
176
     1
 40
1.0
176
     1
 90
        0
176
     1
 62
    18
420
        0
176
     1
 90
       50
176
     1
 90
        3
176
     1
 62
     5
420
      255
176
     1
290
     0
176
     1
 90
       50
176
     1
 90
       50
176
     1
 90
       50
176
     1
290
     0
176
     1
 90
       50
176
     1
 62
   256
176
     0
 40
1.0
176
     0
 90
        2
176
     1
  1
strokes_ogs.tif
176
     1
290
     0
176
     1
 40
1.0
176
     1
 40
1.0
176
     1
1001
ACAD
1000
AcDbSavedByObjectVersion
1070
     0
  0
VISUALSTYLE
  5
83CC
102
{ACAD_REACTORS
330
83B5
102
}
330
83B5
100
AcDbVisualStyle
  2
OverhangOff
 70
    21
177
     3
291
     1
 70
    58
 90
        2
176
     0
 90
        2
176
     0
 90
        0
176
     0
 90
        0
176
     0
 40
0.6
176
     0
 40
30.0
176
     0
 62
     7
420
 16777215
176
     0
 90
        1
176
     0
 90
        4
176
     0
 62
     7
176
     0
 62
   257
176
     0
 90
        1
176
     0
 90
        1
176
     0
 40
1.0
176
     0
 90
        9
176
     2
 62
     7
176
     0
 40
1.0
176
     0
 90
        1
176
     0
 90
        6
176
     0
 90
        2
176
     0
 62
     7
176
     0
 90
        5
176
     0
 90
        0
176
     0
 90
        0
176
     0
290
     0
176
     0
 90
        1
176
     0
 40
0.0
176
     0
 90
        0
176
     0
290
     0
176
     0
290
     1
176
     0
290
     1
176
     0
290
     0
176
     0
290
     0
176
     0
290
     0
176
     0
290
     0
176
     0
290
     0
176
     0
290
     0
176
     0
 90
       50
176
     0
 40
0.0
176
     0
 40
1.0
176
     0
 90
        0
176
     0
 62
    18
420
        0
176
     0
 90
       50
176
     0
 90
        3
176
     0
 62
     5
420
      255
176
     0
290
     0
176
     0
 90
       50
176
     0
 90
       50
176
     0
 90
       50
176
     0
290
     0
176
     0
 90
       50
176
     0
 62
   256
176
     0
 40
1.0
176
     0
 90
        2
176
     0
  1
strokes_ogs.tif
176
     0
290
     0
176
     0
 40
1.0
176
     0
 40
1.0
176
     0
1001
ACAD
1000
AcDbSavedByObjectVersion
1070
     0
  0
VISUALSTYLE
  5
83BF
102
{ACAD_REACTORS
330
83B5
102
}
330
83B5
100
AcDbVisualStyle
  2
Realistic
 70
     8
177
     3
291
     0
 70
    58
 90
        2
176
     1
 90
        3
176
     1
 90
        0
176
     1
 90
        2
176
     1
 40
0.6
176
     1
 40
30.0
176
     1
 62
     7
420
 16777215
176
     1
 90
        0
176
     1
 90
        0
176
     1
 62
     7
176
     1
 62
   257
176
     1
 90
        1
176
     1
 90
        1
176
     1
 40
1.0
176
     1
 90
        8
176
     1
 62
   257
176
     1
 40
1.0
176
     1
 90
        1
176
     1
 90
        6
176
     1
 90
        2
176
     1
 62
     7
176
     1
 90
        3
176
     1
 90
        0
176
     1
 90
        0
176
     1
290
     0
176
     1
 90
       13
176
     1
 40
0.0
176
     1
 90
        0
176
     1
290
     0
176
     1
290
     1
176
     1
290
     1
176
     1
290
     0
176
     1
290
     0
176
     1
290
     0
176
     1
290
     0
176
     1
290
     0
176
     1
290
     0
176
     1
 90
       50
176
     1
 40
0.0
176
     1
 40
1.0
176
     1
 90
        0
176
     1
 62
    18
420
        0
176
     1
 90
       50
176
     1
 90
        3
176
     1
 62
     5
420
      255
176
     1
290
     0
176
     1
 90
       50
176
     1
 90
       50
176
     1
 90
       50
176
     1
290
     0
176
     1
 90
       50
176
     1
 62
   256
176
     0
 40
1.0
176
     0
 90
        2
176
     1
  1
strokes_ogs.tif
176
     1
290
     0
176
     1
 40
1.0
176
     1
 40
1.0
176
     1
1001
ACAD
1000
AcDbSavedByObjectVersion
1070
     0
  0
VISUALSTYLE
  5
83CA
102
{ACAD_REACTORS
330
83B5
102
}
330
83B5
100
AcDbVisualStyle
  2
Shaded
 70
    27
177
     3
291
     0
 70
    58
 90
        2
176
     1
 90
        2
176
     1
 90
        1
176
     1
 90
        2
176
     1
 40
0.6
176
     1
 40
30.0
176
     1
 62
     7
420
 16777215
176
     1
 90
        0
176
     1
 90
        4
176
     1
 62
     7
176
     1
 62
   257
176
     1
 90
        1
176
     1
 90
        1
176
     1
 40
1.0
176
     1
 90
        8
176
     1
 62
   257
176
     1
 40
1.0
176
     1
 90
        1
176
     1
 90
        6
176
     1
 90
        2
176
     1
 62
     8
420
  7895160
176
     1
 90
        3
176
     1
 90
        0
176
     1
 90
        0
176
     1
290
     0
176
     1
 90
        5
176
     1
 40
0.0
176
     1
 90
        0
176
     1
290
     0
176
     1
290
     1
176
     1
290
     1
176
     1
290
     0
176
     1
290
     0
176
     1
290
     0
176
     1
290
     0
176
     1
290
     0
176
     1
290
     0
176
     1
 90
       50
176
     1
 40
0.0
176
     1
 40
1.0
176
     1
 90
        0
176
     1
 62
    18
420
        0
176
     1
 90
       50
176
     1
 90
        3
176
     1
 62
     5
420
      255
176
     1
290
     0
176
     1
 90
       50
176
     1
 90
       50
176
     1
 90
       50
176
     1
290
     0
176
     1
 90
       50
176
     1
 62
   256
176
     0
 40
1.0
176
     0
 90
        2
176
     1
  1
strokes_ogs.tif
176
     1
290
     0
176
     1
 40
1.0
176
     1
 40
1.0
176
     1
1001
ACAD
1000
AcDbSavedByObjectVersion
1070
     0
  0
VISUALSTYLE
  5
83C9
102
{ACAD_REACTORS
330
83B5
102
}
330
83B5
100
AcDbVisualStyle
  2
Shaded with edges
 70
    26
177
     3
291
     0
 70
    58
 90
        2
176
     1
 90
        2
176
     1
 90
        1
176
     1
 90
        2
176
     1
 40
0.6
176
     1
 40
30.0
176
     1
 62
     7
420
 16777215
176
     1
 90
        1
176
     1
 90
        2
176
     1
 62
     7
176
     1
 62
   257
176
     1
 90
        2
176
     1
 90
        1
176
     1
 40
1.0
176
     1
 90
        8
176
     1
 62
   257
176
     1
 40
1.0
176
     1
 90
        1
176
     1
 90
        6
176
     1
 90
        2
176
     1
 62
     7
176
     1
 90
        3
176
     1
 90
        0
176
     1
 90
        0
176
     1
290
     0
176
     1
 90
        5
176
     1
 40
0.0
176
     1
 90
        0
176
     1
290
     0
176
     1
290
     1
176
     1
290
     1
176
     1
290
     0
176
     1
290
     0
176
     1
290
     0
176
     1
290
     0
176
     1
290
     0
176
     1
290
     0
176
     1
 90
       50
176
     1
 40
0.0
176
     1
 40
1.0
176
     1
 90
        0
176
     1
 62
    18
420
        0
176
     1
 90
       50
176
     1
 90
        3
176
     1
 62
     5
420
      255
176
     1
290
     0
176
     1
 90
       50
176
     1
 90
       50
176
     1
 90
       50
176
     1
290
     0
176
     1
 90
       50
176
     1
 62
   256
176
     0
 40
1.0
176
     0
 90
        2
176
     1
  1
strokes_ogs.tif
176
     1
290
     0
176
     1
 40
1.0
176
     1
 40
1.0
176
     1
1001
ACAD
1000
AcDbSavedByObjectVersion
1070
     0
  0
VISUALSTYLE
  5
83C6
102
{ACAD_REACTORS
330
83B5
102
}
330
83B5
100
AcDbVisualStyle
  2
Shades of Gray
 70
    23
177
     3
291
     0
 70
    58
 90
        2
176
     1
 90
        2
176
     1
 90
        3
176
     1
 90
        0
176
     1
 40
0.6
176
     1
 40
30.0
176
     1
 62
     7
420
 16777215
176
     1
 90
        2
176
     1
 90
        2
176
     1
 62
     7
176
     1
 62
     7
176
     1
 90
        1
176
     1
 90
        1
176
     1
 40
40.0
176
     1
 90
        8
176
     1
 62
     7
176
     1
 40
1.0
176
     1
 90
        1
176
     1
 90
        6
176
     1
 90
        2
176
     1
 62
     7
176
     1
 90
        3
176
     1
 90
        0
176
     1
 90
        0
176
     1
290
     0
176
     1
 90
        1
176
     1
 40
0.0
176
     1
 90
        0
176
     1
290
     0
176
     1
290
     1
176
     1
290
     1
176
     1
290
     0
176
     1
290
     0
176
     1
290
     0
176
     1
290
     0
176
     1
290
     0
176
     1
290
     0
176
     1
 90
       50
176
     1
 40
0.0
176
     1
 40
1.0
176
     1
 90
        0
176
     1
 62
    18
420
        0
176
     1
 90
       50
176
     1
 90
        3
176
     1
 62
     5
420
      255
176
     1
290
     0
176
     1
 90
       50
176
     1
 90
       50
176
     1
 90
       50
176
     1
290
     0
176
     1
 90
       50
176
     1
 62
   256
176
     0
 40
1.0
176
     0
 90
        2
176
     1
  1
strokes_ogs.tif
176
     1
290
     0
176
     1
 40
1.0
176
     1
 40
1.0
176
     1
1001
ACAD
1000
AcDbSavedByObjectVersion
1070
     0
  0
VISUALSTYLE
  5
83C7
102
{ACAD_REACTORS
330
83B5
102
}
330
83B5
100
AcDbVisualStyle
  2
Sketchy
 70
    24
177
     3
291
     0
 70
    58
 90
        1
176
     1
 90
        2
176
     1
 90
        2
176
     1
 90
        0
176
     1
 40
0.6
176
     1
 40
30.0
176
     1
 62
     7
420
 16777215
176
     1
 90
        2
176
     1
 90
        2
176
     1
 62
     7
176
     1
 62
     7
176
     1
 90
        1
176
     1
 90
        1
176
     1
 40
40.0
176
     1
 90
       11
176
     1
 62
     7
176
     1
 40
1.0
176
     1
 90
        1
176
     1
 90
        6
176
     1
 90
        2
176
     1
 62
     7
176
     1
 90
        6
176
     1
 90
        0
176
     1
 90
        0
176
     1
290
     0
176
     1
 90
        1
176
     1
 40
0.0
176
     1
 90
        0
176
     1
290
     0
176
     1
290
     1
176
     1
290
     1
176
     1
290
     0
176
     1
290
     0
176
     1
290
     0
176
     1
290
     0
176
     1
290
     0
176
     1
290
     0
176
     1
 90
       50
176
     1
 40
0.0
176
     1
 40
1.0
176
     1
 90
        0
176
     1
 62
    18
420
        0
176
     1
 90
       50
176
     1
 90
        3
176
     1
 62
     5
420
      255
176
     1
290
     0
176
     1
 90
       50
176
     1
 90
       50
176
     1
 90
       50
176
     1
290
     0
176
     1
 90
       50
176
     1
 62
   256
176
     0
 40
1.0
176
     0
 90
        2
176
     1
  1
strokes_ogs.tif
176
     1
290
     0
176
     1
 40
1.0
176
     1
 40
1.0
176
     1
1001
ACAD
1000
AcDbSavedByObjectVersion
1070
     0
  0
VISUALSTYLE
  5
83C2
102
{ACAD_REACTORS
330
83B5
102
}
330
83B5
100
AcDbVisualStyle
  2
Thicken
 70
    13
177
     3
291
     1
 70
    58
 90
        2
176
     1
 90
        2
176
     1
 90
        0
176
     1
 90
        0
176
     1
 40
0.6
176
     1
 40
30.0
176
     1
 62
     7
420
 16777215
176
     1
 90
        1
176
     1
 90
        4
176
     1
 62
     7
176
     1
 62
   257
176
     1
 90
        1
176
     1
 90
        1
176
     1
 40
1.0
176
     1
 90
       12
176
     1
 62
     7
176
     1
 40
1.0
176
     1
 90
        1
176
     1
 90
        6
176
     1
 90
        2
176
     1
 62
     7
176
     1
 90
        5
176
     1
 90
        0
176
     1
 90
        0
176
     1
290
     0
176
     1
 90
        1
176
     1
 40
0.0
176
     1
 90
        0
176
     1
290
     0
176
     1
290
     1
176
     1
290
     1
176
     1
290
     0
176
     1
290
     0
176
     1
290
     0
176
     1
290
     0
176
     1
290
     0
176
     1
290
     0
176
     1
 90
       50
176
     1
 40
0.0
176
     1
 40
1.0
176
     1
 90
        0
176
     1
 62
    18
420
        0
176
     1
 90
       50
176
     1
 90
        3
176
     1
 62
     5
420
      255
176
     1
290
     0
176
     1
 90
       50
176
     1
 90
       50
176
     1
 90
       50
176
     1
290
     0
176
     1
 90
       50
176
     1
 62
   256
176
     0
 40
1.0
176
     0
 90
        2
176
     1
  1
strokes_ogs.tif
176
     1
290
     0
176
     1
 40
1.0
176
     1
 40
1.0
176
     1
1001
ACAD
1000
AcDbSavedByObjectVersion
1070
     0
  0
VISUALSTYLE
  5
83BC
102
{ACAD_REACTORS
330
83B5
102
}
330
83B5
100
AcDbVisualStyle
  2
Wireframe
 70
     5
177
     3
291
     0
 70
    58
 90
        0
176
     1
 90
        2
176
     1
 90
        0
176
     1
 90
        0
176
     1
 40
0.6
176
     1
 40
30.0
176
     1
 62
     7
420
 16777215
176
     1
 90
        1
176
     1
 90
        4
176
     1
 62
     7
176
     1
 62
   257
176
     1
 90
        1
176
     1
 90
        1
176
     1
 40
1.0
176
     1
 90
        0
176
     1
 62
   257
176
     1
 40
1.0
176
     1
 90
        1
176
     1
 90
        6
176
     1
 90
        2
176
     1
 62
     7
176
     1
 90
        3
176
     1
 90
        0
176
     1
 90
        0
176
     1
290
     0
176
     1
 90
        1
176
     1
 40
0.0
176
     1
 90
        0
176
     1
290
     0
176
     1
290
     1
176
     1
290
     1
176
     1
290
     0
176
     1
290
     0
176
     1
290
     0
176
     1
290
     0
176
     1
290
     0
176
     1
290
     0
176
     1
 90
       50
176
     1
 40
0.0
176
     1
 40
1.0
176
     1
 90
        0
176
     1
 62
    18
420
        0
176
     1
 90
       50
176
     1
 90
        3
176
     1
 62
     5
420
      255
176
     1
290
     0
176
     1
 90
       50
176
     1
 90
       50
176
     1
 90
       50
176
     1
290
     0
176
     1
 90
       50
176
     1
 62
   256
176
     0
 40
1.0
176
     0
 90
        2
176
     1
  1
strokes_ogs.tif
176
     1
290
     0
176
     1
 40
1.0
176
     1
 40
1.0
176
     1
1001
ACAD
1000
AcDbSavedByObjectVersion
1070
     0
  0
VISUALSTYLE
  5
83C8
102
{ACAD_REACTORS
330
83B5
102
}
330
83B5
100
AcDbVisualStyle
  2
X-Ray
 70
    25
177
     3
291
     0
 70
    58
 90
        2
176
     1
 90
        2
176
     1
 90
        1
176
     1
 90
        1
176
     1
 40
0.5
176
     1
 40
30.0
176
     1
 62
     7
420
 16777215
176
     1
 90
        1
176
     1
 90
        0
176
     1
 62
     7
176
     1
 62
   257
176
     1
 90
        1
176
     1
 90
        1
176
     1
 40
1.0
176
     1
 90
        8
176
     1
 62
     7
176
     1
 40
1.0
176
     1
 90
        1
176
     1
 90
        6
176
     1
 90
        2
176
     1
 62
     7
176
     1
 90
        3
176
     1
 90
        0
176
     1
 90
        0
176
     1
290
     0
176
     1
 90
       13
176
     1
 40
0.0
176
     1
 90
        0
176
     1
290
     0
176
     1
290
     1
176
     1
290
     1
176
     1
290
     0
176
     1
290
     0
176
     1
290
     0
176
     1
290
     0
176
     1
290
     0
176
     1
290
     0
176
     1
 90
       50
176
     1
 40
0.0
176
     1
 40
1.0
176
     1
 90
        0
176
     1
 62
    18
420
        0
176
     1
 90
       50
176
     1
 90
        3
176
     1
 62
     5
420
      255
176
     1
290
     0
176
     1
 90
       50
176
     1
 90
       50
176
     1
 90
       50
176
     1
290
     0
176
     1
 90
       50
176
     1
 62
   256
176
     0
 40
1.0
176
     0
 90
        2
176
     1
  1
strokes_ogs.tif
176
     1
290
     0
176
     1
 40
1.0
176
     1
 40
1.0
176
     1
1001
ACAD
1000
AcDbSavedByObjectVersion
1070
     0
  0
DICTIONARYVAR
  5
8458
102
{ACAD_REACTORS
330
8390
102
}
330
8390
100
DictionaryVariables
280
     0
  1
1:1
  0
DICTIONARYVAR
  5
8454
102
{ACAD_REACTORS
330
8390
102
}
330
8390
100
DictionaryVariables
280
     0
  1
STANDARD
  0
DICTIONARYVAR
  5
8453
102
{ACAD_REACTORS
330
8390
102
}
330
8390
100
DictionaryVariables
280
     0
  1
STANDARD
  0
DICTIONARYVAR
  5
8455
102
{ACAD_REACTORS
330
8390
102
}
330
8390
100
DictionaryVariables
280
     0
  1
Metric50
  0
DICTIONARYVAR
  5
8456
102
{ACAD_REACTORS
330
8390
102
}
330
8390
100
DictionaryVariables
280
     0
  1
Metric50
  0
DICTIONARYVAR
  5
8391
102
{ACAD_REACTORS
330
8390
102
}
330
8390
100
DictionaryVariables
280
     0
  1
1
  0
DICTIONARYVAR
  5
845A
102
{ACAD_REACTORS
330
8390
102
}
330
8390
100
DictionaryVariables
280
     0
  1
1
  0
DICTIONARYVAR
  5
845B
102
{ACAD_REACTORS
330
8390
102
}
330
8390
100
DictionaryVariables
280
     0
  1
15
  0
DICTIONARYVAR
  5
8459
102
{ACAD_REACTORS
330
8390
102
}
330
8390
100
DictionaryVariables
280
     0
  1
0
  0
DICTIONARYVAR
  5
8460
102
{ACAD_REACTORS
330
8390
102
}
330
8390
100
DictionaryVariables
280
     0
  1
0
  0
DICTIONARYVAR
  5
8457
102
{ACAD_REACTORS
330
8390
102
}
330
8390
100
DictionaryVariables
280
     0
  1
0
  0
DICTIONARY
  5
846B
102
{ACAD_REACTORS
330
8469
102
}
330
8469
100
AcDbDictionary
281
     1
  0
DICTIONARY
  5
846A
102
{ACAD_REACTORS
330
8469
102
}
330
8469
100
AcDbDictionary
281
     1
  3
2046637915328
350
8464
  3
2046637915344
350
8465
  3
2046637915360
350
8466
  3
2046637915376
350
8467
  3
2046637915392
350
8468
  0
DICTIONARY
  5
846E
330
83E8
100
AcDbDictionary
280
     1
281
     1
  3
ACAD_XREC_ROUNDTRIP
360
846F
  0
DICTIONARY
  5
83A6
330
83A5
100
AcDbDictionary
280
     1
281
     1
  3
BUMPTILE
360
83A8
  3
DIFFUSETILE
360
83A7
  3
OPACITYTILE
360
83AB
  3
REFLECTIONTILE
360
83AA
  3
REFRACTIONTILE
360
83AC
  3
SPECULARTILE
360
83A9
  0
DICTIONARY
  5
839E
330
839D
100
AcDbDictionary
280
     1
281
     1
  3
BUMPTILE
360
83A0
  3
DIFFUSETILE
360
839F
  3
OPACITYTILE
360
83A3
  3
REFLECTIONTILE
360
83A2
  3
REFRACTIONTILE
360
83A4
  3
SPECULARTILE
360
83A1
  0
DICTIONARY
  5
83AE
330
83AD
100
AcDbDictionary
280
     1
281
     1
  3
BUMPTILE
360
83B0
  3
DIFFUSETILE
360
83AF
  3
OPACITYTILE
360
83B3
  3
REFLECTIONTILE
360
83B2
  3
REFRACTIONTILE
360
83B4
  3
SPECULARTILE
360
83B1
  0
DICTIONARY
  5
846C
330
83E6
100
AcDbDictionary
280
     1
281
     1
  3
ACAD_XREC_ROUNDTRIP
360
846D
  0
DICTIONARY
  5
8461
330
83D0
100
AcDbDictionary
280
     1
281
     1
  3
ACAD_ROUNDTRIP_2008_TABLESTYLE_CELLSTYLEMAP
360
8462
  0
XRECORD
  5
8464
102
{ACAD_REACTORS
330
846A
102
}
330
846A
100
AcDbXrecord
280
     1
  1
AcDb_Thumbnail_Schema
102
{ATTRRECORD
341
8465
  2
AcDbDs::TreatedAsObjectData
280
     1
291
     1
102
ATTRRECORD}
102
{ATTRRECORD
341
8466
  2
AcDbDs::Legacy
280
     1
291
     1
102
ATTRRECORD}
  2
AcDbDs::ID
280
    10
 91
        8
102
{ATTRRECORD
341
8467
  2
AcDs:Indexable
280
     1
291
     1
102
ATTRRECORD}
102
{ATTRRECORD
341
8468
  2
AcDbDs::HandleAttribute
280
     7
282
     1
102
ATTRRECORD}
  2
Thumbnail_Data
280
    15
 91
        0
  0
XRECORD
  5
8465
102
{ACAD_REACTORS
330
846A
102
}
330
846A
100
AcDbXrecord
280
     1
  1
AcDbDs::TreatedAsObjectDataSchema
  2
AcDbDs::TreatedAsObjectData
280
     1
 91
        0
  0
XRECORD
  5
8466
102
{ACAD_REACTORS
330
846A
102
}
330
846A
100
AcDbXrecord
280
     1
  1
AcDbDs::LegacySchema
  2
AcDbDs::Legacy
280
     1
 91
        0
  0
XRECORD
  5
8467
102
{ACAD_REACTORS
330
846A
102
}
330
846A
100
AcDbXrecord
280
     1
  1
AcDbDs::IndexedPropertySchema
  2
AcDs:Indexable
280
     1
 91
        0
  0
XRECORD
  5
8468
102
{ACAD_REACTORS
330
846A
102
}
330
846A
100
AcDbXrecord
280
     1
  1
AcDbDs::HandleAttributeSchema
  2
AcDbDs::HandleAttribute
280
     7
 91
        1
284
     1
  0
XRECORD
  5
846F
102
{ACAD_REACTORS
330
846E
102
}
330
846E
100
AcDbXrecord
280
     1
102
DISPLAYNAME
  1
Metric50
102
FLAGS
 90
        0
  0
XRECORD
  5
83A8
102
{ACAD_REACTORS
330
83A6
102
}
330
83A6
100
AcDbXrecord
280
     1
270
     1
271
     1
  0
XRECORD
  5
83A7
102
{ACAD_REACTORS
330
83A6
102
}
330
83A6
100
AcDbXrecord
280
     1
270
     1
271
     1
  0
XRECORD
  5
83AB
102
{ACAD_REACTORS
330
83A6
102
}
330
83A6
100
AcDbXrecord
280
     1
270
     1
271
     1
  0
XRECORD
  5
83AA
102
{ACAD_REACTORS
330
83A6
102
}
330
83A6
100
AcDbXrecord
280
     1
270
     1
271
     1
  0
XRECORD
  5
83AC
102
{ACAD_REACTORS
330
83A6
102
}
330
83A6
100
AcDbXrecord
280
     1
270
     1
271
     1
  0
XRECORD
  5
83A9
102
{ACAD_REACTORS
330
83A6
102
}
330
83A6
100
AcDbXrecord
280
     1
270
     1
271
     1
  0
XRECORD
  5
83A0
102
{ACAD_REACTORS
330
839E
102
}
330
839E
100
AcDbXrecord
280
     1
270
     1
271
     1
  0
XRECORD
  5
839F
102
{ACAD_REACTORS
330
839E
102
}
330
839E
100
AcDbXrecord
280
     1
270
     1
271
     1
  0
XRECORD
  5
83A3
102
{ACAD_REACTORS
330
839E
102
}
330
839E
100
AcDbXrecord
280
     1
270
     1
271
     1
  0
XRECORD
  5
83A2
102
{ACAD_REACTORS
330
839E
102
}
330
839E
100
AcDbXrecord
280
     1
270
     1
271
     1
  0
XRECORD
  5
83A4
102
{ACAD_REACTORS
330
839E
102
}
330
839E
100
AcDbXrecord
280
     1
270
     1
271
     1
  0
XRECORD
  5
83A1
102
{ACAD_REACTORS
330
839E
102
}
330
839E
100
AcDbXrecord
280
     1
270
     1
271
     1
  0
XRECORD
  5
83B0
102
{ACAD_REACTORS
330
83AE
102
}
330
83AE
100
AcDbXrecord
280
     1
270
     1
271
     1
  0
XRECORD
  5
83AF
102
{ACAD_REACTORS
330
83AE
102
}
330
83AE
100
AcDbXrecord
280
     1
270
     1
271
     1
  0
XRECORD
  5
83B3
102
{ACAD_REACTORS
330
83AE
102
}
330
83AE
100
AcDbXrecord
280
     1
270
     1
271
     1
  0
XRECORD
  5
83B2
102
{ACAD_REACTORS
330
83AE
102
}
330
83AE
100
AcDbXrecord
280
     1
270
     1
271
     1
  0
XRECORD
  5
83B4
102
{ACAD_REACTORS
330
83AE
102
}
330
83AE
100
AcDbXrecord
280
     1
270
     1
271
     1
  0
XRECORD
  5
83B1
102
{ACAD_REACTORS
330
83AE
102
}
330
83AE
100
AcDbXrecord
280
     1
270
     1
271
     1
  0
XRECORD
  5
846D
102
{ACAD_REACTORS
330
846C
102
}
330
846C
100
AcDbXrecord
280
     1
102
DISPLAYNAME
  1
Metric50
102
FLAGS
 90
        0
  0
CELLSTYLEMAP
  5
8462
102
{ACAD_REACTORS
330
8461
102
}
330
8461
100
AcDbCellStyleMap
 90
        3
300
CELLSTYLE
  1
TABLEFORMAT_BEGIN
 90
        5
170
     1
 91
        0
 92
    32768
 62
   257
 93
        1
300
CONTENTFORMAT
  1
CONTENTFORMAT_BEGIN
 90
        0
 91
        0
 92
      512
 93
        0
300

 40
0.0
140
1.0
 94
        5
 62
     0
340
10
144
6.0
309
CONTENTFORMAT_END
171
     1
301
MARGIN
  1
CELLMARGIN_BEGIN
 40
1.5
 40
1.5
 40
1.5
 40
1.5
 40
4.5
 40
4.5
309
CELLMARGIN_END
 94
        6
 95
        1
302
GRIDFORMAT
  1
GRIDFORMAT_BEGIN
 90
        0
 91
        1
 62
     0
 92
       -2
340
0
 93
        0
 40
1.125
309
GRIDFORMAT_END
 95
        2
302
GRIDFORMAT
  1
GRIDFORMAT_BEGIN
 90
        0
 91
        1
 62
     0
 92
       -2
340
0
 93
        0
 40
1.125
309
GRIDFORMAT_END
 95
        4
302
GRIDFORMAT
  1
GRIDFORMAT_BEGIN
 90
        0
 91
        1
 62
     0
 92
       -2
340
0
 93
        0
 40
1.125
309
GRIDFORMAT_END
 95
        8
302
GRIDFORMAT
  1
GRIDFORMAT_BEGIN
 90
        0
 91
        1
 62
     0
 92
       -2
340
0
 93
        0
 40
1.125
309
GRIDFORMAT_END
 95
       16
302
GRIDFORMAT
  1
GRIDFORMAT_BEGIN
 90
        0
 91
        1
 62
     0
 92
       -2
340
0
 93
        0
 40
1.125
309
GRIDFORMAT_END
 95
       32
302
GRIDFORMAT
  1
GRIDFORMAT_BEGIN
 90
        0
 91
        1
 62
     0
 92
       -2
340
0
 93
        0
 40
1.125
309
GRIDFORMAT_END
309
TABLEFORMAT_END
  1
CELLSTYLE_BEGIN
 90
        1
 91
        1
300
_TITLE
309
CELLSTYLE_END
300
CELLSTYLE
  1
TABLEFORMAT_BEGIN
 90
        5
170
     1
 91
        0
 92
        0
 62
   257
 93
        1
300
CONTENTFORMAT
  1
CONTENTFORMAT_BEGIN
 90
        0
 91
        0
 92
      512
 93
        0
300

 40
0.0
140
1.0
 94
        5
 62
     0
340
10
144
4.5
309
CONTENTFORMAT_END
171
     1
301
MARGIN
  1
CELLMARGIN_BEGIN
 40
1.5
 40
1.5
 40
1.5
 40
1.5
 40
4.5
 40
4.5
309
CELLMARGIN_END
 94
        6
 95
        1
302
GRIDFORMAT
  1
GRIDFORMAT_BEGIN
 90
        0
 91
        1
 62
     0
 92
       -2
340
0
 93
        0
 40
1.125
309
GRIDFORMAT_END
 95
        2
302
GRIDFORMAT
  1
GRIDFORMAT_BEGIN
 90
        0
 91
        1
 62
     0
 92
       -2
340
0
 93
        0
 40
1.125
309
GRIDFORMAT_END
 95
        4
302
GRIDFORMAT
  1
GRIDFORMAT_BEGIN
 90
        0
 91
        1
 62
     0
 92
       -2
340
0
 93
        0
 40
1.125
309
GRIDFORMAT_END
 95
        8
302
GRIDFORMAT
  1
GRIDFORMAT_BEGIN
 90
        0
 91
        1
 62
     0
 92
       -2
340
0
 93
        0
 40
1.125
309
GRIDFORMAT_END
 95
       16
302
GRIDFORMAT
  1
GRIDFORMAT_BEGIN
 90
        0
 91
        1
 62
     0
 92
       -2
340
0
 93
        0
 40
1.125
309
GRIDFORMAT_END
 95
       32
302
GRIDFORMAT
  1
GRIDFORMAT_BEGIN
 90
        0
 91
        1
 62
     0
 92
       -2
340
0
 93
        0
 40
1.125
309
GRIDFORMAT_END
309
TABLEFORMAT_END
  1
CELLSTYLE_BEGIN
 90
        2
 91
        1
300
_HEADER
309
CELLSTYLE_END
300
CELLSTYLE
  1
TABLEFORMAT_BEGIN
 90
        5
170
     1
 91
        0
 92
        0
 62
   257
 93
        1
300
CONTENTFORMAT
  1
CONTENTFORMAT_BEGIN
 90
        0
 91
        0
 92
      512
 93
        0
300

 40
0.0
140
1.0
 94
        2
 62
     0
340
10
144
4.5
309
CONTENTFORMAT_END
171
     1
301
MARGIN
  1
CELLMARGIN_BEGIN
 40
1.5
 40
1.5
 40
1.5
 40
1.5
 40
4.5
 40
4.5
309
CELLMARGIN_END
 94
        6
 95
        1
302
GRIDFORMAT
  1
GRIDFORMAT_BEGIN
 90
        0
 91
        1
 62
     0
 92
       -2
340
0
 93
        0
 40
1.125
309
GRIDFORMAT_END
 95
        2
302
GRIDFORMAT
  1
GRIDFORMAT_BEGIN
 90
        0
 91
        1
 62
     0
 92
       -2
340
0
 93
        0
 40
1.125
309
GRIDFORMAT_END
 95
        4
302
GRIDFORMAT
  1
GRIDFORMAT_BEGIN
 90
        0
 91
        1
 62
     0
 92
       -2
340
0
 93
        0
 40
1.125
309
GRIDFORMAT_END
 95
        8
302
GRIDFORMAT
  1
GRIDFORMAT_BEGIN
 90
        0
 91
        1
 62
     0
 92
       -2
340
0
 93
        0
 40
1.125
309
GRIDFORMAT_END
 95
       16
302
GRIDFORMAT
  1
GRIDFORMAT_BEGIN
 90
        0
 91
        1
 62
     0
 92
       -2
340
0
 93
        0
 40
1.125
309
GRIDFORMAT_END
 95
       32
302
GRIDFORMAT
  1
GRIDFORMAT_BEGIN
 90
        0
 91
        1
 62
     0
 92
       -2
340
0
 93
        0
 40
1.125
309
GRIDFORMAT_END
309
TABLEFORMAT_END
  1
CELLSTYLE_BEGIN
 90
        3
 91
        2
300
_DATA
309
CELLSTYLE_END
  0
ENDSEC
  0
SECTION
  2
ACDSDATA
 70
     2
 71
     8
  0
ACDSSCHEMA
 90
        0
  1
AcDb_Thumbnail_Schema
  2
AcDbDs::ID
280
    10
 91
        8
  2
Thumbnail_Data
280
    15
 91
        0
101
ACDSRECORD
 95
        0
 90
        1
  2
AcDbDs::TreatedAsObjectData
280
     1
291
     1
101
ACDSRECORD
 95
        0
 90
        2
  2
AcDbDs::Legacy
280
     1
291
     1
101
ACDSRECORD
  1
AcDbDs::ID
 90
        3
  2
AcDs:Indexable
280
     1
291
     1
101
ACDSRECORD
  1
AcDbDs::ID
 90
        4
  2
AcDbDs::HandleAttribute
280
     7
282
     1
  0
ACDSSCHEMA
 90
        1
  1
AcDbDs::TreatedAsObjectDataSchema
  2
AcDbDs::TreatedAsObjectData
280
     1
 91
        0
  0
ACDSSCHEMA
 90
        2
  1
AcDbDs::LegacySchema
  2
AcDbDs::Legacy
280
     1
 91
        0
  0
ACDSSCHEMA
 90
        3
  1
AcDbDs::IndexedPropertySchema
  2
AcDs:Indexable
280
     1
 91
        0
  0
ACDSSCHEMA
 90
        4
  1
AcDbDs::HandleAttributeSchema
  2
AcDbDs::HandleAttribute
280
     7
 91
        1
284
     1
  0
ACDSRECORD
 90
        0
  2
AcDbDs::ID
280
    10
320
81BB
  2
Thumbnail_Data
280
    15
 94
     1732
310
89504E470D0A1A0A0000000D49484452000001000000007C0803000000B13B9E5A00000300504C5445000000000000C8C8C80000000000000000000000000000000000000000000000000000330000660000990000CC0000FF0033000033330033660033990033CC0033FF0066000066330066660066990066CC0066FF0099
310
000099330099660099990099CC0099FF00CC0000CC3300CC6600CC9900CCCC00CCFF00FF0000FF3300FF6600FF9900FFCC00FFFF3300003300333300663300993300CC3300FF3333003333333333663333993333CC3333FF3366003366333366663366993366CC3366FF3399003399333399663399993399CC3399FF33CC00
310
33CC3333CC6633CC9933CCCC33CCFF33FF0033FF3333FF6633FF9933FFCC33FFFF6600006600336600666600996600CC6600FF6633006633336633666633996633CC6633FF6666006666336666666666996666CC6666FF6699006699336699666699996699CC6699FF66CC0066CC3366CC6666CC9966CCCC66CCFF66FF0066
310
FF3366FF6666FF9966FFCC66FFFF9900009900339900669900999900CC9900FF9933009933339933669933999933CC9933FF9966009966339966669966999966CC9966FF9999009999339999669999999999CC9999FF99CC0099CC3399CC6699CC9999CCCC99CCFF99FF0099FF3399FF6699FF9999FFCC99FFFFCC0000CC00
310
33CC0066CC0099CC00CCCC00FFCC3300CC3333CC3366CC3399CC33CCCC33FFCC6600CC6633CC6666CC6699CC66CCCC66FFCC9900CC9933CC9966CC9999CC99CCCC99FFCCCC00CCCC33CCCC66CCCC99CCCCCCCCCCFFCCFF00CCFF33CCFF66CCFF99CCFFCCCCFFFFFF0000FF0033FF0066FF0099FF00CCFF00FFFF3300FF3333
310
FF3366FF3399FF33CCFF33FFFF6600FF6633FF6666FF6699FF66CCFF66FFFF9900FF9933FF9966FF9999FF99CCFF99FFFFCC00FFCC33FFCC66FFCC99FFCCCCFFCCFFFFFF00FFFF33FFFF66FFFF99FFFFCCFFFFFF0000000D0D0D1A1A1A2828283535354343435050505D5D5D6B6B6B787878868686939393A1A1A1AEAEAEBB
310
BBBBC9C9C9D6D6D6E4E4E4F1F1F1FFFFFF00000000000000000000000000000000000000000000000000000000000008F1915C0000037F4944415478DAED9D6D8E03210886398E7FB8FF65BC86FFB75550709C8F26DDEC0A98B4193B6DB33CF3028AEE14E0175AF9A506BBB4B2D5D70680001000024000F83F7FE945F2F302
310
60FA7871A900F7008A67009317EC0DE0AB33802D01FCB32F0B007F0080742C245DD431B0C8DB7B87E7D08B160040331A86D9405D8E79A5D008A0F021147E36A100388B6FA48066EB50803861C505789057A44F5CDB562208C638C0E164E8D625F603B00C7DD3152E23F99511399D00A00C002345C21422777781C95A0D8052
310
05BD0D4C02F8D6E7A3266803407E37D5F303206B9BF3E8642700CE9B2705ACBA01C01580E41140F374AC2D213557005E0FB6BB03180C9C0000ED02E2A500100002400008008601B4C1BE770009D3A1F5F1C09309916505E0131104009B0078486C1AC05516C057BFC6800010000280937A00AA7A4003E02208B2046429C81F
310
80850A928B34384A82CB667C287C0804CA075E5D343F1D9600D2D205BC00F8F48C5500D382602C8E860BB800F0B0E581A46D217006403A85F20F1700B204901940B607E02CF25DC5C8ED01E4D334380EF332349A01709F06D78CAC00903BC4B4076800392B00865CE0F4CACF008CC68085CCD700A8937488D813C0D2E3FBF4
310
6F0DE0582DD819C0308F8C6B17B62138013029C0120031FF472F0064327B177F5A4104D482E01D801A086D00C0661711F840012600B42B9FB0133802901542A3003001133802A82B250B003BBBC00882CDFE7A8DF10C405B2C320C00AB0290BC610560D4880D00A8F21FE39FBA2DA83EB0ED18CA690960DE49B43900A8158D
310
0CB418FA4E83C09D95028E2E80660000024BBC759EB980190094FC9A020001F15910846DD32001682339527E5D0E6712E800409FD3F3854F5DE7DDDFEFD260DED905140019046993DC43056C3D199200BA5D3D18E2210892428C03001108B402D86A2B0044161000BA1FBC5DC234009AF66A0074CC1B24B250050FFFAC00A8
310
2B5BF56900103B4264D1CFA60272CF04577BA41641F0F0DF853B2BA07BBD0C8230B29DD82384EA8411058872F8ED2629830A9801E4A700B20500A0CA1E62B57FB1FA392A286A7F009FDD15805801E4883803C84B005C4CB106E06697D8F9D9FD017CD9B3F68B016E014000080001804F79BFA3E4E796B90020EFB9ACEFC36B
310
0F002C7E3649DC6D99EFB26C1780FB18B05680BAA9B6C718E012C0895F385240DC593A86C2012000048000100002400008000120001803B0D14F6FFF00446571C4E70B76FA0000000049454E44AE426082
  0
ENDSEC
  0
EOF
