  0
SECTION
  2
HEADER
  9
$ACADVER
  1
AC1027
  9
$ACADMAINTVER
 70
   125
  9
$DWGCODEPAGE
  3
ANSI_932
  9
$LASTSAVEDBY
  1
yasukiyo.ogawa
  9
$REQUIREDVERSIONS
160
                 0
  9
$INSBASE
 10
0.0
 20
0.0
 30
0.0
  9
$EXTMIN
 10
0.0
 20
0.0
 30
0.0
  9
$EXTMAX
 10
7350.0
 20
10325.0
 30
0.0
  9
$LIMMIN
 10
0.0
 20
0.0
  9
$LIMMAX
 10
297.0
 20
210.0
  9
$ORTHOMODE
 70
     1
  9
$REGENMODE
 70
     1
  9
$FILLMODE
 70
     0
  9
$QTEXTMODE
 70
     0
  9
$MIRRTEXT
 70
     1
  9
$LTSCALE
 40
100.0
  9
$ATTMODE
 70
     1
  9
$TEXTSIZE
 40
180.0
  9
$TRACEWID
 40
0.05
  9
$TEXTSTYLE
  7
STANDARD
  9
$CLAYER
  8
3
  9
$CELTYPE
  6
BYLAYER
  9
$CECOLOR
 62
   256
  9
$CELTSCALE
 40
1.0
  9
$DISPSILH
 70
     0
  9
$DIMSCALE
 40
35.0
  9
$DIMASZ
 40
2.0
  9
$DIMEXO
 40
0.5
  9
$DIMDLI
 40
10.0
  9
$DIMRND
 40
0.0
  9
$DIMDLE
 40
0.0
  9
$DIMEXE
 40
1.0
  9
$DIMTP
 40
1.0
  9
$DIMTM
 40
1.0
  9
$DIMTXT
 40
3.0
  9
$DIMCEN
 40
0.0
  9
$DIMTSZ
 40
0.0
  9
$DIMTOL
 70
     0
  9
$DIMLIM
 70
     0
  9
$DIMTIH
 70
     0
  9
$DIMTOH
 70
     0
  9
$DIMSE1
 70
     0
  9
$DIMSE2
 70
     0
  9
$DIMTAD
 70
     1
  9
$DIMZIN
 70
     8
  9
$DIMBLK
  1

  9
$DIMASO
 70
     1
  9
$DIMSHO
 70
     1
  9
$DIMPOST
  1
(<>)
  9
$DIMAPOST
  1

  9
$DIMALT
 70
     0
  9
$DIMALTD
 70
     2
  9
$DIMALTF
 40
0.039
  9
$DIMLFAC
 40
1.0
  9
$DIMTOFL
 70
     1
  9
$DIMTVP
 40
0.0
  9
$DIMTIX
 70
     0
  9
$DIMSOXD
 70
     0
  9
$DIMSAH
 70
     1
  9
$DIMBLK1
  1
OPEN
  9
$DIMBLK2
  1
OPEN
  9
$DIMSTYLE
  2
IGA
  9
$DIMCLRD
 70
     0
  9
$DIMCLRE
 70
     0
  9
$DIMCLRT
 70
     0
  9
$DIMTFAC
 40
10.0
  9
$DIMGAP
 40
1.0
  9
$DIMJUST
 70
     0
  9
$DIMSD1
 70
     0
  9
$DIMSD2
 70
     0
  9
$DIMTOLJ
 70
     1
  9
$DIMTZIN
 70
     8
  9
$DIMALTZ
 70
     0
  9
$DIMALTTZ
 70
     0
  9
$DIMUPT
 70
     0
  9
$DIMDEC
 70
     0
  9
$DIMTDEC
 70
     0
  9
$DIMALTU
 70
     2
  9
$DIMALTTD
 70
     2
  9
$DIMTXSTY
  7
STANDARD
  9
$DIMAUNIT
 70
     0
  9
$DIMADEC
 70
     0
  9
$DIMALTRND
 40
0.0
  9
$DIMAZIN
 70
     0
  9
$DIMDSEP
 70
    46
  9
$DIMATFIT
 70
     3
  9
$DIMFRAC
 70
     0
  9
$DIMLDRBLK
  1
OPEN
  9
$DIMLUNIT
 70
     2
  9
$DIMLWD
 70
    -2
  9
$DIMLWE
 70
    -2
  9
$DIMTMOVE
 70
     2
  9
$DIMFXL
 40
1.0
  9
$DIMFXLON
 70
     0
  9
$DIMJOGANG
 40
0.7853981633974483
  9
$DIMTFILL
 70
     0
  9
$DIMTFILLCLR
 70
     0
  9
$DIMARCSYM
 70
     0
  9
$DIMLTYPE
  6

  9
$DIMLTEX1
  6

  9
$DIMLTEX2
  6

  9
$DIMTXTDIRECTION
 70
     0
  9
$LUNITS
 70
     2
  9
$LUPREC
 70
     3
  9
$SKETCHINC
 40
0.1
  9
$FILLETRAD
 40
50.0
  9
$AUNITS
 70
     0
  9
$AUPREC
 70
     0
  9
$MENU
  1
acad
  9
$ELEVATION
 40
0.0
  9
$PELEVATION
 40
0.0
  9
$THICKNESS
 40
0.0
  9
$LIMCHECK
 70
     0
  9
$CHAMFERA
 40
0.5
  9
$CHAMFERB
 40
0.5
  9
$CHAMFERC
 40
20.0
  9
$CHAMFERD
 40
0.0
  9
$SKPOLY
 70
     0
  9
$TDCREATE
 40
2451382.600578704
  9
$TDUCREATE
 40
2451382.225587269
  9
$TDUPDATE
 40
2460241.651863426
  9
$TDUUPDATE
 40
2460241.276863496
  9
$TDINDWG
 40
0.0155944444
  9
$TDUSRTIMER
 40
0.0155944444
  9
$USRTIMER
 70
     1
  9
$ANGBASE
 50
0.0
  9
$ANGDIR
 70
     0
  9
$PDMODE
 70
     0
  9
$PDSIZE
 40
0.0
  9
$PLINEWID
 40
0.0
  9
$SPLFRAME
 70
     0
  9
$SPLINETYPE
 70
     6
  9
$SPLINESEGS
 70
     8
  9
$HANDSEED
  5
8323
  9
$SURFTAB1
 70
     6
  9
$SURFTAB2
 70
     6
  9
$SURFTYPE
 70
     6
  9
$SURFU
 70
     6
  9
$SURFV
 70
     6
  9
$UCSBASE
  2

  9
$UCSNAME
  2

  9
$UCSORG
 10
0.0
 20
0.0
 30
0.0
  9
$UCSXDIR
 10
1.0
 20
0.0
 30
0.0
  9
$UCSYDIR
 10
0.0
 20
1.0
 30
0.0
  9
$UCSORTHOREF
  2

  9
$UCSORTHOVIEW
 70
     0
  9
$UCSORGTOP
 10
0.0
 20
0.0
 30
0.0
  9
$UCSORGBOTTOM
 10
0.0
 20
0.0
 30
0.0
  9
$UCSORGLEFT
 10
0.0
 20
0.0
 30
0.0
  9
$UCSORGRIGHT
 10
0.0
 20
0.0
 30
0.0
  9
$UCSORGFRONT
 10
0.0
 20
0.0
 30
0.0
  9
$UCSORGBACK
 10
0.0
 20
0.0
 30
0.0
  9
$PUCSBASE
  2

  9
$PUCSNAME
  2

  9
$PUCSORG
 10
0.0
 20
0.0
 30
0.0
  9
$PUCSXDIR
 10
1.0
 20
0.0
 30
0.0
  9
$PUCSYDIR
 10
0.0
 20
1.0
 30
0.0
  9
$PUCSORTHOREF
  2

  9
$PUCSORTHOVIEW
 70
     0
  9
$PUCSORGTOP
 10
0.0
 20
0.0
 30
0.0
  9
$PUCSORGBOTTOM
 10
0.0
 20
0.0
 30
0.0
  9
$PUCSORGLEFT
 10
0.0
 20
0.0
 30
0.0
  9
$PUCSORGRIGHT
 10
0.0
 20
0.0
 30
0.0
  9
$PUCSORGFRONT
 10
0.0
 20
0.0
 30
0.0
  9
$PUCSORGBACK
 10
0.0
 20
0.0
 30
0.0
  9
$USERI1
 70
     0
  9
$USERI2
 70
     0
  9
$USERI3
 70
     0
  9
$USERI4
 70
     0
  9
$USERI5
 70
     0
  9
$USERR1
 40
0.0
  9
$USERR2
 40
0.0
  9
$USERR3
 40
0.0
  9
$USERR4
 40
0.0
  9
$USERR5
 40
0.0
  9
$WORLDVIEW
 70
     1
  9
$SHADEDGE
 70
     3
  9
$SHADEDIF
 70
    70
  9
$TILEMODE
 70
     1
  9
$MAXACTVP
 70
    16
  9
$PINSBASE
 10
0.0
 20
0.0
 30
0.0
  9
$PLIMCHECK
 70
     0
  9
$PEXTMIN
 10
1.000000000000000E+20
 20
1.000000000000000E+20
 30
1.000000000000000E+20
  9
$PEXTMAX
 10
-1.000000000000000E+20
 20
-1.000000000000000E+20
 30
-1.000000000000000E+20
  9
$PLIMMIN
 10
0.0
 20
0.0
  9
$PLIMMAX
 10
12.0
 20
9.0
  9
$UNITMODE
 70
     0
  9
$VISRETAIN
 70
     0
  9
$PLINEGEN
 70
     0
  9
$PSLTSCALE
 70
     1
  9
$TREEDEPTH
 70
  3020
  9
$CMLSTYLE
  2
STANDARD
  9
$CMLJUST
 70
     0
  9
$CMLSCALE
 40
20.0
  9
$PROXYGRAPHICS
 70
     1
  9
$MEASUREMENT
 70
     1
  9
$CELWEIGHT
370
    -1
  9
$ENDCAPS
280
     0
  9
$JOINSTYLE
280
     0
  9
$LWDISPLAY
290
     0
  9
$INSUNITS
 70
     0
  9
$HYPERLINKBASE
  1

  9
$STYLESHEET
  1

  9
$XEDIT
290
     1
  9
$CEPSNTYPE
380
     0
  9
$PSTYLEMODE
290
     1
  9
$FINGERPRINTGUID
  2
{76A0B25B-6D1D-4E4E-87BA-B0878E40A9A1}
  9
$VERSIONGUID
  2
{BF00434B-A10C-4D68-AA48-EF4750DB075E}
  9
$EXTNAMES
290
     1
  9
$PSVPSCALE
 40
0.0
  9
$OLESTARTUP
290
     0
  9
$SORTENTS
280
   127
  9
$INDEXCTL
280
     0
  9
$HIDETEXT
280
     0
  9
$XCLIPFRAME
280
     2
  9
$HALOGAP
280
     0
  9
$OBSCOLOR
 70
   257
  9
$OBSLTYPE
280
     0
  9
$INTERSECTIONDISPLAY
280
     0
  9
$INTERSECTIONCOLOR
 70
   257
  9
$DIMASSOC
280
     1
  9
$PROJECTNAME
  1

  9
$CAMERADISPLAY
290
     0
  9
$LENSLENGTH
 40
50.0
  9
$CAMERAHEIGHT
 40
0.0
  9
$STEPSPERSEC
 40
2.0
  9
$STEPSIZE
 40
6.0
  9
$3DDWFPREC
 40
2.0
  9
$PSOLWIDTH
 40
0.25
  9
$PSOLHEIGHT
 40
4.0
  9
$LOFTANG1
 40
1.570796326794896
  9
$LOFTANG2
 40
1.570796326794896
  9
$LOFTMAG1
 40
0.0
  9
$LOFTMAG2
 40
0.0
  9
$LOFTPARAM
 70
     7
  9
$LOFTNORMALS
280
     1
  9
$LATITUDE
 40
37.795
  9
$LONGITUDE
 40
-122.394
  9
$NORTHDIRECTION
 40
0.0
  9
$TIMEZONE
 70
 -8000
  9
$LIGHTGLYPHDISPLAY
280
     1
  9
$TILEMODELIGHTSYNCH
280
     1
  9
$CMATERIAL
347
8265
  9
$SOLIDHIST
280
     0
  9
$SHOWHIST
280
     1
  9
$DWFFRAME
280
     2
  9
$DGNFRAME
280
     0
  9
$REALWORLDSCALE
290
     1
  9
$INTERFERECOLOR
 62
     1
  9
$INTERFEREOBJVS
345
8287
  9
$INTERFEREVPVS
346
8284
  9
$CSHADOW
280
     0
  9
$SHADOWPLANELOCATION
 40
0.0
  0
ENDSEC
  0
SECTION
  2
CLASSES
  0
CLASS
  1
ACDBDICTIONARYWDFLT
  2
AcDbDictionaryWithDefault
  3
ObjectDBX Classes
 90
        0
 91
        1
280
     0
281
     0
  0
CLASS
  1
DICTIONARYVAR
  2
AcDbDictionaryVar
  3
ObjectDBX Classes
 90
        0
 91
       11
280
     0
281
     0
  0
CLASS
  1
MATERIAL
  2
AcDbMaterial
  3
ObjectDBX Classes
 90
     1153
 91
        3
280
     0
281
     0
  0
CLASS
  1
VISUALSTYLE
  2
AcDbVisualStyle
  3
ObjectDBX Classes
 90
     4095
 91
       24
280
     0
281
     0
  0
CLASS
  1
TABLESTYLE
  2
AcDbTableStyle
  3
ObjectDBX Classes
 90
     4095
 91
        1
280
     0
281
     0
  0
CLASS
  1
SCALE
  2
AcDbScale
  3
ObjectDBX Classes
 90
     1153
 91
       17
280
     0
281
     0
  0
CLASS
  1
MLEADERSTYLE
  2
AcDbMLeaderStyle
  3
ACDB_MLEADERSTYLE_CLASS
 90
     4095
 91
        1
280
     0
281
     0
  0
CLASS
  1
ACDBSECTIONVIEWSTYLE
  2
AcDbSectionViewStyle
  3
ObjectDBX Classes
 90
     1025
 91
        1
280
     0
281
     0
  0
CLASS
  1
ACDBDETAILVIEWSTYLE
  2
AcDbDetailViewStyle
  3
ObjectDBX Classes
 90
     1025
 91
        1
280
     0
281
     0
  0
CLASS
  1
CELLSTYLEMAP
  2
AcDbCellStyleMap
  3
ObjectDBX Classes
 90
     1152
 91
        1
280
     0
281
     0
  0
ENDSEC
  0
SECTION
  2
TABLES
  0
TABLE
  2
VPORT
  5
8
330
0
100
AcDbSymbolTable
 70
     1
1001
ACAD
1000
DbSaveVer
1071
      278
  0
VPORT
  5
8262
330
8
100
AcDbSymbolTableRecord
100
AcDbViewportTableRecord
  2
*Active
 70
     0
 10
0.0
 20
0.0
 11
1.0
 21
1.0
 12
4714.698658823925
 22
5162.500024039763
 13
0.0
 23
0.0
 14
10.0
 24
10.0
 15
10.0
 25
10.0
 16
0.0
 26
0.0
 36
1.0
 17
0.0
 27
0.0
 37
0.0
 40
10391.74948481712
 41
2.250314465408805
 42
50.0
 43
0.0
 44
0.0
 50
0.0
 51
0.0
 71
     0
 72
   100
 73
     1
 74
     0
 75
     0
 76
     0
 77
     0
 78
     0
281
     0
 65
     1
110
0.0
120
0.0
130
0.0
111
1.0
121
0.0
131
0.0
112
0.0
122
1.0
132
0.0
 79
     0
146
0.0
348
8283
 60
     3
 61
     5
292
     1
282
     1
141
0.0
142
0.0
 63
   250
421
  3355443
1001
ACAD_NAV_VCDISPLAY
1070
     3
  0
ENDTAB
  0
TABLE
  2
LTYPE
  5
5
330
0
100
AcDbSymbolTable
 70
     2
  0
LTYPE
  5
13
330
5
100
AcDbSymbolTableRecord
100
AcDbLinetypeTableRecord
  2
BYBLOCK
 70
     0
  3

 72
    65
 73
     0
 40
0.0
  0
LTYPE
  5
14
330
5
100
AcDbSymbolTableRecord
100
AcDbLinetypeTableRecord
  2
BYLAYER
 70
     0
  3

 72
    65
 73
     0
 40
0.0
  0
LTYPE
  5
15
330
5
100
AcDbSymbolTableRecord
100
AcDbLinetypeTableRecord
  2
CONTINUOUS
 70
     0
  3
Solid line
 72
    65
 73
     0
 40
0.0
  0
LTYPE
  5
1F
330
5
100
AcDbSymbolTableRecord
100
AcDbLinetypeTableRecord
  2
CENTER
 70
     0
  3
____ _ ____ _ ____ _ ____ _ ____ _ ____ _ ____ 
 72
    65
 73
     4
 40
2.0
 49
1.25
 74
     0
 49
-0.25
 74
     0
 49
0.25
 74
     0
 49
-0.25
 74
     0
  0
ENDTAB
  0
TABLE
  2
LAYER
  5
2
102
{ACAD_XDICTIONARY
360
82FA
102
}
330
0
100
AcDbSymbolTable
 70
     6
  0
LAYER
  5
F
102
{ACAD_XDICTIONARY
360
82ED
102
}
330
2
100
AcDbSymbolTableRecord
100
AcDbLayerTableRecord
  2
0
 70
     0
 62
     7
  6
CONTINUOUS
370
    -3
390
816C
347
8275
348
0
  0
LAYER
  5
31
102
{ACAD_XDICTIONARY
360
82EF
102
}
330
2
100
AcDbSymbolTableRecord
100
AcDbLayerTableRecord
  2
3
 70
     0
 62
     2
  6
CONTINUOUS
370
    -3
390
816C
347
8275
348
0
  0
LAYER
  5
76D0
102
{ACAD_XDICTIONARY
360
82F1
102
}
330
2
100
AcDbSymbolTableRecord
100
AcDbLayerTableRecord
  2
2
 70
     0
 62
     3
  6
CENTER
370
    -3
390
816C
347
8275
348
0
  0
LAYER
  5
76D1
102
{ACAD_XDICTIONARY
360
82F3
102
}
330
2
100
AcDbSymbolTableRecord
100
AcDbLayerTableRecord
  2
1
 70
     0
 62
     4
  6
CONTINUOUS
370
    -3
390
816C
347
8275
348
0
  0
LAYER
  5
76D2
102
{ACAD_XDICTIONARY
360
82F5
102
}
330
2
100
AcDbSymbolTableRecord
100
AcDbLayerTableRecord
  2
4
 70
     0
 62
     7
  6
CONTINUOUS
370
    -3
390
816C
347
8275
348
0
  0
LAYER
  5
7B3A
330
2
100
AcDbSymbolTableRecord
100
AcDbLayerTableRecord
  2
DEFPOINTS
 70
     0
 62
     7
  6
CONTINUOUS
290
     0
370
    -3
390
816C
347
8275
348
0
  0
ENDTAB
  0
TABLE
  2
STYLE
  5
3
330
0
100
AcDbSymbolTable
 70
     1
  0
STYLE
  5
10
330
3
100
AcDbSymbolTableRecord
100
AcDbTextStyleTableRecord
  2
STANDARD
 70
     0
 40
0.0
 41
1.0
 50
0.0
 71
     0
 42
180.0
  3
simplex.shx
  4
extfont.shx
  0
ENDTAB
  0
TABLE
  2
VIEW
  5
6
330
0
100
AcDbSymbolTable
 70
     0
  0
ENDTAB
  0
TABLE
  2
UCS
  5
7
330
0
100
AcDbSymbolTable
 70
     0
  0
ENDTAB
  0
TABLE
  2
APPID
  5
9
330
0
100
AcDbSymbolTable
 70
     4
  0
APPID
  5
11
330
9
100
AcDbSymbolTableRecord
100
AcDbRegAppTableRecord
  2
ACAD
 70
     0
  0
APPID
  5
82B4
330
9
100
AcDbSymbolTableRecord
100
AcDbRegAppTableRecord
  2
AcadAnnoMonitorAlertIconDisabled
 70
     0
  0
APPID
  5
82B5
330
9
100
AcDbSymbolTableRecord
100
AcDbRegAppTableRecord
  2
ACAD_EXEMPT_FROM_CAD_STANDARDS
 70
     0
  0
APPID
  5
8300
330
9
100
AcDbSymbolTableRecord
100
AcDbRegAppTableRecord
  2
ACAD_NAV_VCDISPLAY
 70
     0
  0
ENDTAB
  0
TABLE
  2
DIMSTYLE
  5
A
330
0
100
AcDbSymbolTable
 70
     1
100
AcDbDimStyleTable
 71
     1
340
1D
  0
DIMSTYLE
105
1D
102
{ACAD_REACTORS
330
7C25
330
7C27
330
7C4A
330
7C4E
330
7C5D
330
7C5E
330
7C62
330
7C68
330
7C8D
330
7C95
330
7CAB
330
7CAC
330
7CB7
330
7CBC
330
7CC0
330
7CD3
330
7CDC
330
7CE1
330
7CE2
330
7CE3
330
7CE4
330
8162
102
}
330
A
100
AcDbSymbolTableRecord
100
AcDbDimStyleTableRecord
  2
IGA
 70
     0
 40
2.0
 41
2.0
 42
0.5
 43
10.0
 44
1.0
 47
1.0
 48
1.0
 73
     0
 74
     0
 77
     1
 78
     8
140
3.0
141
0.0
143
0.03937
146
10.0
147
1.0
173
     1
271
     1
272
     0
279
     2
284
     8
340
10
341
79FC
343
79FC
344
79FC
  0
ENDTAB
  0
TABLE
  2
BLOCK_RECORD
  5
1
330
0
100
AcDbSymbolTable
 70
    25
  0
BLOCK_RECORD
  5
19
102
{ACAD_XDICTIONARY
360
819A
102
}
330
1
100
AcDbSymbolTableRecord
100
AcDbBlockTableRecord
  2
*MODEL_SPACE
340
816F
 70
     0
280
     1
281
     0
  0
BLOCK_RECORD
  5
16
102
{ACAD_XDICTIONARY
360
8198
102
}
330
1
100
AcDbSymbolTableRecord
100
AcDbBlockTableRecord
  2
*PAPER_SPACE
340
8170
 70
     0
280
     1
281
     0
  0
BLOCK_RECORD
  5
79FC
330
1
100
AcDbSymbolTableRecord
100
AcDbBlockTableRecord
  2
_OPEN
340
0
102
{BLKREFS
331
8124
331
81D0
331
81D1
331
81D9
331
81DA
331
81E2
331
81E3
331
81EB
331
81EC
331
81F4
331
81F5
331
81FD
331
81FE
331
8206
331
8207
331
820F
331
8210
331
8218
331
8219
331
8221
331
8222
331
822A
331
822B
331
8233
331
8234
331
823F
331
815B
331
815C
331
81A3
331
81A4
331
81AC
331
81AD
331
81B5
331
81B6
331
81BE
331
81BF
331
81C7
331
81C8
331
82DE
331
82DF
331
82E7
331
82E8
102
}
 70
     0
280
     1
281
     0
  0
BLOCK_RECORD
  5
7A0A
330
1
100
AcDbSymbolTableRecord
100
AcDbBlockTableRecord
  2
YA_N
340
0
102
{BLKREFS
331
7C13
331
7C1B
331
7C22
102
}
 70
     0
280
     1
281
     0
  0
BLOCK_RECORD
  5
7CE5
330
1
100
AcDbSymbolTableRecord
100
AcDbBlockTableRecord
  2
*D2
340
0
 70
     0
280
     1
281
     0
  0
BLOCK_RECORD
  5
7CFD
330
1
100
AcDbSymbolTableRecord
100
AcDbBlockTableRecord
  2
*D3
340
0
 70
     0
280
     1
281
     0
  0
BLOCK_RECORD
  5
7D09
330
1
100
AcDbSymbolTableRecord
100
AcDbBlockTableRecord
  2
*D4
340
0
 70
     0
280
     1
281
     0
  0
BLOCK_RECORD
  5
7D15
330
1
100
AcDbSymbolTableRecord
100
AcDbBlockTableRecord
  2
*D5
340
0
 70
     0
280
     1
281
     0
  0
BLOCK_RECORD
  5
7D2D
330
1
100
AcDbSymbolTableRecord
100
AcDbBlockTableRecord
  2
*D6
340
0
 70
     0
280
     1
281
     0
  0
BLOCK_RECORD
  5
7D39
330
1
100
AcDbSymbolTableRecord
100
AcDbBlockTableRecord
  2
*D7
340
0
 70
     0
280
     1
281
     0
  0
BLOCK_RECORD
  5
7D45
330
1
100
AcDbSymbolTableRecord
100
AcDbBlockTableRecord
  2
*D8
340
0
 70
     0
280
     1
281
     0
  0
BLOCK_RECORD
  5
7D51
330
1
100
AcDbSymbolTableRecord
100
AcDbBlockTableRecord
  2
*D9
340
0
 70
     0
280
     1
281
     0
  0
BLOCK_RECORD
  5
7D69
330
1
100
AcDbSymbolTableRecord
100
AcDbBlockTableRecord
  2
*D10
340
0
 70
     0
280
     1
281
     0
  0
BLOCK_RECORD
  5
7D75
330
1
100
AcDbSymbolTableRecord
100
AcDbBlockTableRecord
  2
*D11
340
0
 70
     0
280
     1
281
     0
  0
BLOCK_RECORD
  5
7D81
330
1
100
AcDbSymbolTableRecord
100
AcDbBlockTableRecord
  2
*D12
340
0
 70
     0
280
     1
281
     0
  0
BLOCK_RECORD
  5
7D8D
330
1
100
AcDbSymbolTableRecord
100
AcDbBlockTableRecord
  2
*D13
340
0
 70
     0
280
     1
281
     0
  0
BLOCK_RECORD
  5
7D99
330
1
100
AcDbSymbolTableRecord
100
AcDbBlockTableRecord
  2
*D14
340
0
 70
     0
280
     1
281
     0
  0
BLOCK_RECORD
  5
7DA5
330
1
100
AcDbSymbolTableRecord
100
AcDbBlockTableRecord
  2
*D15
340
0
 70
     0
280
     1
281
     0
  0
BLOCK_RECORD
  5
7DB1
330
1
100
AcDbSymbolTableRecord
100
AcDbBlockTableRecord
  2
*D16
340
0
 70
     0
280
     1
281
     0
  0
BLOCK_RECORD
  5
7DBD
330
1
100
AcDbSymbolTableRecord
100
AcDbBlockTableRecord
  2
*D17
340
0
 70
     0
280
     1
281
     0
  0
BLOCK_RECORD
  5
7DC9
330
1
100
AcDbSymbolTableRecord
100
AcDbBlockTableRecord
  2
*D18
340
0
 70
     0
280
     1
281
     0
  0
BLOCK_RECORD
  5
7DD5
330
1
100
AcDbSymbolTableRecord
100
AcDbBlockTableRecord
  2
*D19
340
0
 70
     0
280
     1
281
     0
  0
BLOCK_RECORD
  5
7DE2
330
1
100
AcDbSymbolTableRecord
100
AcDbBlockTableRecord
  2
*D20
340
0
 70
     0
280
     1
281
     0
  0
BLOCK_RECORD
  5
7DF0
330
1
100
AcDbSymbolTableRecord
100
AcDbBlockTableRecord
  2
*D21
340
0
 70
     0
280
     1
281
     0
  0
BLOCK_RECORD
  5
7DFC
330
1
100
AcDbSymbolTableRecord
100
AcDbBlockTableRecord
  2
*D22
340
0
 70
     0
280
     1
281
     0
  0
BLOCK_RECORD
  5
8106
330
1
100
AcDbSymbolTableRecord
100
AcDbBlockTableRecord
  2
_DOT
340
0
102
{BLKREFS
331
8125
331
823E
102
}
 70
     0
280
     1
281
     0
  0
BLOCK_RECORD
  5
8156
330
1
100
AcDbSymbolTableRecord
100
AcDbBlockTableRecord
  2
*D24
340
0
 70
     0
280
     1
281
     0
  0
ENDTAB
  0
ENDSEC
  0
SECTION
  2
BLOCKS
  0
BLOCK
  5
1A
330
19
100
AcDbEntity
  8
0
100
AcDbBlockBegin
  2
*MODEL_SPACE
 70
     0
 10
0.0
 20
0.0
 30
0.0
  3
*MODEL_SPACE
  1

  0
ENDBLK
  5
1B
330
19
100
AcDbEntity
  8
0
100
AcDbBlockEnd
  0
BLOCK
  5
17
330
16
100
AcDbEntity
 67
     1
  8
0
100
AcDbBlockBegin
  2
*PAPER_SPACE
 70
     0
 10
0.0
 20
0.0
 30
0.0
  3
*PAPER_SPACE
  1

  0
ENDBLK
  5
18
330
16
100
AcDbEntity
 67
     1
  8
0
100
AcDbBlockEnd
  0
BLOCK
  5
7A00
330
79FC
100
AcDbEntity
  8
0
100
AcDbBlockBegin
  2
_OPEN
 70
     0
 10
0.0
 20
0.0
 30
0.0
  3
_OPEN
  1

  0
LINE
  5
79FD
330
79FC
100
AcDbEntity
  8
0
  6
ByBlock
 62
     0
100
AcDbLine
 10
-1.0
 20
0.1666666666666666
 30
0.0
 11
0.0
 21
0.0
 31
0.0
  0
LINE
  5
79FE
330
79FC
100
AcDbEntity
  8
0
  6
ByBlock
 62
     0
100
AcDbLine
 10
0.0
 20
0.0
 30
0.0
 11
-1.0
 21
-0.1666666666666666
 31
0.0
  0
LINE
  5
79FF
330
79FC
100
AcDbEntity
  8
0
  6
ByBlock
 62
     0
100
AcDbLine
 10
0.0
 20
0.0
 30
0.0
 11
-1.0
 21
0.0
 31
0.0
  0
ENDBLK
  5
7A01
330
79FC
100
AcDbEntity
  8
0
100
AcDbBlockEnd
  0
BLOCK
  5
7A0B
330
7A0A
100
AcDbEntity
  8
0
100
AcDbBlockBegin
  2
YA_N
 70
     0
 10
0.0
 20
0.0
 30
0.0
  3
YA_N
  1

  0
ENDBLK
  5
7A0C
330
7A0A
100
AcDbEntity
  8
0
100
AcDbBlockEnd
  0
BLOCK
  5
7FDB
330
7CE5
100
AcDbEntity
  8
0
100
AcDbBlockBegin
  2
*D2
 70
     1
 10
0.0
 20
0.0
 30
0.0
  3
*D2
  1

  0
LINE
  5
81A0
330
7CE5
100
AcDbEntity
  8
3
 62
     0
440
 16777216
100
AcDbLine
 10
4513.379202701377
 20
2329.195634060684
 30
0.0
 11
4513.379202701377
 21
2088.911574005344
 31
0.0
  0
LINE
  5
81A1
330
7CE5
100
AcDbEntity
  8
3
 62
     0
440
 16777216
100
AcDbLine
 10
5435.379202701376
 20
2329.195634060684
 30
0.0
 11
5435.379202701376
 21
2088.911574005344
 31
0.0
  0
LINE
  5
81A2
330
7CE5
100
AcDbEntity
  8
3
 62
     0
440
 16777216
100
AcDbLine
 10
4583.379202701377
 20
2123.911574005344
 30
0.0
 11
5365.379202701377
 21
2123.911574005344
 31
0.0
  0
INSERT
  5
81A3
330
7CE5
100
AcDbEntity
  8
3
 62
     0
440
 16777216
100
AcDbBlockReference
  2
_OPEN
 10
4513.379202701377
 20
2123.911574005344
 30
0.0
 41
70.0
 42
70.0
 43
70.0
 50
180.0
  0
INSERT
  5
81A4
330
7CE5
100
AcDbEntity
  8
3
 62
     0
440
 16777216
100
AcDbBlockReference
  2
_OPEN
 10
5435.379202701376
 20
2123.911574005344
 30
0.0
 41
70.0
 42
70.0
 43
70.0
  0
MTEXT
  5
81A5
330
7CE5
100
AcDbEntity
  8
3
 62
     0
440
 16777216
100
AcDbMText
 10
4974.379202701377
 20
2211.411574005344
 30
0.0
 40
105.0
 41
0.0
 46
0.0
 71
     5
 72
     5
  1
\A1;922
 73
     1
 44
1.0
  0
POINT
  5
81A6
330
7CE5
100
AcDbEntity
  8
DEFPOINTS
 62
     0
440
 16777216
100
AcDbPoint
 10
4513.379202701377
 20
2346.695634060684
 30
0.0
  0
POINT
  5
81A7
330
7CE5
100
AcDbEntity
  8
DEFPOINTS
 62
     0
440
 16777216
100
AcDbPoint
 10
5435.379202701376
 20
2346.695634060684
 30
0.0
  0
POINT
  5
81A8
330
7CE5
100
AcDbEntity
  8
DEFPOINTS
 62
     0
440
 16777216
100
AcDbPoint
 10
5435.379202701376
 20
2123.911574005344
 30
0.0
  0
ENDBLK
  5
7FE5
330
7CE5
100
AcDbEntity
  8
0
100
AcDbBlockEnd
  0
BLOCK
  5
7FF1
330
7CFD
100
AcDbEntity
  8
0
100
AcDbBlockBegin
  2
*D3
 70
     1
 10
0.0
 20
0.0
 30
0.0
  3
*D3
  1

  0
LINE
  5
81A9
330
7CFD
100
AcDbEntity
  8
3
 62
     0
440
 16777216
100
AcDbLine
 10
5435.379202701376
 20
2329.195634060684
 30
0.0
 11
5435.379202701376
 21
2088.911574005344
 31
0.0
  0
LINE
  5
81AA
330
7CFD
100
AcDbEntity
  8
3
 62
     0
440
 16777216
100
AcDbLine
 10
6163.379202701377
 20
2329.195634060684
 30
0.0
 11
6163.379202701377
 21
2088.911574005344
 31
0.0
  0
LINE
  5
81AB
330
7CFD
100
AcDbEntity
  8
3
 62
     0
440
 16777216
100
AcDbLine
 10
5505.379202701377
 20
2123.911574005344
 30
0.0
 11
6093.379202701378
 21
2123.911574005344
 31
0.0
  0
INSERT
  5
81AC
330
7CFD
100
AcDbEntity
  8
3
 62
     0
440
 16777216
100
AcDbBlockReference
  2
_OPEN
 10
5435.379202701376
 20
2123.911574005344
 30
0.0
 41
70.0
 42
70.0
 43
70.0
 50
180.0
  0
INSERT
  5
81AD
330
7CFD
100
AcDbEntity
  8
3
 62
     0
440
 16777216
100
AcDbBlockReference
  2
_OPEN
 10
6163.379202701377
 20
2123.911574005344
 30
0.0
 41
70.0
 42
70.0
 43
70.0
  0
MTEXT
  5
81AE
330
7CFD
100
AcDbEntity
  8
3
 62
     0
440
 16777216
100
AcDbMText
 10
5799.379202701377
 20
2211.411574005344
 30
0.0
 40
105.0
 41
0.0
 46
0.0
 71
     5
 72
     5
  1
\A1;728
 73
     1
 44
1.0
  0
POINT
  5
81AF
330
7CFD
100
AcDbEntity
  8
DEFPOINTS
 62
     0
440
 16777216
100
AcDbPoint
 10
5435.379202701376
 20
2346.695634060684
 30
0.0
  0
POINT
  5
81B0
330
7CFD
100
AcDbEntity
  8
DEFPOINTS
 62
     0
440
 16777216
100
AcDbPoint
 10
6163.379202701377
 20
2346.695634060684
 30
0.0
  0
POINT
  5
81B1
330
7CFD
100
AcDbEntity
  8
DEFPOINTS
 62
     0
440
 16777216
100
AcDbPoint
 10
6163.379202701377
 20
2123.911574005344
 30
0.0
  0
ENDBLK
  5
7FFB
330
7CFD
100
AcDbEntity
  8
0
100
AcDbBlockEnd
  0
BLOCK
  5
7FFC
330
7D09
100
AcDbEntity
  8
0
100
AcDbBlockBegin
  2
*D4
 70
     1
 10
0.0
 20
0.0
 30
0.0
  3
*D4
  1

  0
LINE
  5
81B2
330
7D09
100
AcDbEntity
  8
3
 62
     0
440
 16777216
100
AcDbLine
 10
6118.379202701377
 20
2851.695634060684
 30
0.0
 11
6554.051036687059
 21
2851.695634060684
 31
0.0
  0
LINE
  5
81B3
330
7D09
100
AcDbEntity
  8
3
 62
     0
440
 16777216
100
AcDbLine
 10
6118.379202701377
 20
3851.695634060684
 30
0.0
 11
6554.051036687059
 21
3851.695634060684
 31
0.0
  0
LINE
  5
81B4
330
7D09
100
AcDbEntity
  8
3
 62
     0
440
 16777216
100
AcDbLine
 10
6519.051036687058
 20
2921.695634060684
 30
0.0
 11
6519.051036687058
 21
3781.695634060684
 31
0.0
  0
INSERT
  5
81B5
330
7D09
100
AcDbEntity
  8
3
 62
     0
440
 16777216
100
AcDbBlockReference
  2
_OPEN
 10
6519.051036687058
 20
2851.695634060684
 30
0.0
 41
70.0
 42
70.0
 43
70.0
 50
270.0
  0
INSERT
  5
81B6
330
7D09
100
AcDbEntity
  8
3
 62
     0
440
 16777216
100
AcDbBlockReference
  2
_OPEN
 10
6519.051036687058
 20
3851.695634060684
 30
0.0
 41
70.0
 42
70.0
 43
70.0
 50
90.0
  0
MTEXT
  5
81B7
330
7D09
100
AcDbEntity
  8
3
 62
     0
440
 16777216
100
AcDbMText
 10
6431.551036687058
 20
3351.695634060685
 30
0.0
 40
105.0
 41
0.0
 46
0.0
 71
     5
 72
     5
  1
\A1;φ1000
 11
0.0000000000000001
 21
1.0
 31
0.0
 73
     1
 44
1.0
  0
POINT
  5
81B8
330
7D09
100
AcDbEntity
  8
DEFPOINTS
 62
     0
440
 16777216
100
AcDbPoint
 10
6100.879202701377
 20
2851.695634060684
 30
0.0
  0
POINT
  5
81B9
330
7D09
100
AcDbEntity
  8
DEFPOINTS
 62
     0
440
 16777216
100
AcDbPoint
 10
6100.879202701377
 20
3851.695634060684
 30
0.0
  0
POINT
  5
81BA
330
7D09
100
AcDbEntity
  8
DEFPOINTS
 62
     0
440
 16777216
100
AcDbPoint
 10
6519.051036687058
 20
3851.695634060684
 30
0.0
  0
ENDBLK
  5
8006
330
7D09
100
AcDbEntity
  8
0
100
AcDbBlockEnd
  0
BLOCK
  5
801D
330
7D15
100
AcDbEntity
  8
0
100
AcDbBlockBegin
  2
*D5
 70
     1
 10
0.0
 20
0.0
 30
0.0
  3
*D5
  1

  0
LINE
  5
81BB
330
7D15
100
AcDbEntity
  8
3
 62
     0
440
 16777216
100
AcDbLine
 10
4775.379202701377
 20
4049.195634060684
 30
0.0
 11
4775.379202701377
 21
4249.410636383898
 31
0.0
  0
LINE
  5
81BC
330
7D15
100
AcDbEntity
  8
3
 62
     0
440
 16777216
100
AcDbLine
 10
6095.379202701376
 20
4049.195634060684
 30
0.0
 11
6095.379202701376
 21
4249.410636383898
 31
0.0
  0
LINE
  5
81BD
330
7D15
100
AcDbEntity
  8
3
 62
     0
440
 16777216
100
AcDbLine
 10
4845.379202701376
 20
4214.410636383898
 30
0.0
 11
6025.379202701377
 21
4214.410636383898
 31
0.0
  0
INSERT
  5
81BE
330
7D15
100
AcDbEntity
  8
3
 62
     0
440
 16777216
100
AcDbBlockReference
  2
_OPEN
 10
4775.379202701377
 20
4214.410636383898
 30
0.0
 41
70.0
 42
70.0
 43
70.0
 50
180.0
  0
INSERT
  5
81BF
330
7D15
100
AcDbEntity
  8
3
 62
     0
440
 16777216
100
AcDbBlockReference
  2
_OPEN
 10
6095.379202701376
 20
4214.410636383898
 30
0.0
 41
70.0
 42
70.0
 43
70.0
  0
MTEXT
  5
81C0
330
7D15
100
AcDbEntity
  8
3
 62
     0
440
 16777216
100
AcDbMText
 10
5435.379202701376
 20
4301.910636383898
 30
0.0
 40
105.0
 41
0.0
 46
0.0
 71
     5
 72
     5
  1
\A1;1320
 73
     1
 44
1.0
  0
POINT
  5
81C1
330
7D15
100
AcDbEntity
  8
DEFPOINTS
 62
     0
440
 16777216
100
AcDbPoint
 10
4775.379202701377
 20
4031.695634060684
 30
0.0
  0
POINT
  5
81C2
330
7D15
100
AcDbEntity
  8
DEFPOINTS
 62
     0
440
 16777216
100
AcDbPoint
 10
6095.379202701376
 20
4031.695634060684
 30
0.0
  0
POINT
  5
81C3
330
7D15
100
AcDbEntity
  8
DEFPOINTS
 62
     0
440
 16777216
100
AcDbPoint
 10
6095.379202701376
 20
4214.410636383898
 30
0.0
  0
ENDBLK
  5
8027
330
7D15
100
AcDbEntity
  8
0
100
AcDbBlockEnd
  0
BLOCK
  5
7F5E
330
7D2D
100
AcDbEntity
  8
0
100
AcDbBlockBegin
  2
*D6
 70
     1
 10
0.0
 20
0.0
 30
0.0
  3
*D6
  1

  0
LINE
  5
81C4
330
7D2D
100
AcDbEntity
  8
3
 62
     0
440
 16777216
100
AcDbLine
 10
2984.389207672693
 20
4049.195634060685
 30
0.0
 11
2984.389207672693
 21
4525.838255680652
 31
0.0
  0
LINE
  5
81C5
330
7D2D
100
AcDbEntity
  8
3
 62
     0
440
 16777216
100
AcDbLine
 10
1910.389207672693
 20
4108.811616558312
 30
0.0
 11
1910.389207672693
 21
4525.838255680652
 31
0.0
  0
LINE
  5
81C6
330
7D2D
100
AcDbEntity
  8
3
 62
     0
440
 16777216
100
AcDbLine
 10
2914.389207672693
 20
4490.838255680652
 30
0.0
 11
1980.389207672693
 21
4490.838255680652
 31
0.0
  0
INSERT
  5
81C7
330
7D2D
100
AcDbEntity
  8
3
 62
     0
440
 16777216
100
AcDbBlockReference
  2
_OPEN
 10
2984.389207672693
 20
4490.838255680652
 30
0.0
 41
70.0
 42
70.0
 43
70.0
  0
INSERT
  5
81C8
330
7D2D
100
AcDbEntity
  8
3
 62
     0
440
 16777216
100
AcDbBlockReference
  2
_OPEN
 10
1910.389207672693
 20
4490.838255680652
 30
0.0
 41
70.0
 42
70.0
 43
70.0
 50
180.0
  0
MTEXT
  5
81C9
330
7D2D
100
AcDbEntity
  8
3
 62
     0
440
 16777216
100
AcDbMText
 10
2447.389207672693
 20
4578.338255680652
 30
0.0
 40
105.0
 41
0.0
 46
0.0
 71
     5
 72
     5
  1
\A1;1074
 73
     1
 44
1.0
  0
POINT
  5
81CA
330
7D2D
100
AcDbEntity
  8
DEFPOINTS
 62
     0
440
 16777216
100
AcDbPoint
 10
2984.389207672693
 20
4031.695634060684
 30
0.0
  0
POINT
  5
81CB
330
7D2D
100
AcDbEntity
  8
DEFPOINTS
 62
     0
440
 16777216
100
AcDbPoint
 10
1910.389207672693
 20
4091.311616558312
 30
0.0
  0
POINT
  5
81CC
330
7D2D
100
AcDbEntity
  8
DEFPOINTS
 62
     0
440
 16777216
100
AcDbPoint
 10
1910.389207672693
 20
4490.838255680652
 30
0.0
  0
ENDBLK
  5
7F68
330
7D2D
100
AcDbEntity
  8
0
100
AcDbBlockEnd
  0
BLOCK
  5
7F69
330
7D39
100
AcDbEntity
  8
0
100
AcDbBlockBegin
  2
*D7
 70
     1
 10
0.0
 20
0.0
 30
0.0
  3
*D7
  1

  0
LINE
  5
81CD
330
7D39
100
AcDbEntity
  8
3
 62
     0
440
 16777216
100
AcDbLine
 10
2984.389207672693
 20
4049.195634060685
 30
0.0
 11
2984.389207672693
 21
4267.855731054828
 31
0.0
  0
LINE
  5
81CE
330
7D39
100
AcDbEntity
  8
3
 62
     0
440
 16777216
100
AcDbLine
 10
1954.389207672693
 20
4049.195634060685
 30
0.0
 11
1954.389207672693
 21
4267.855731054828
 31
0.0
  0
LINE
  5
81CF
330
7D39
100
AcDbEntity
  8
3
 62
     0
440
 16777216
100
AcDbLine
 10
2914.389207672693
 20
4232.855731054828
 30
0.0
 11
2024.389207672693
 21
4232.855731054828
 31
0.0
  0
INSERT
  5
81D0
330
7D39
100
AcDbEntity
  8
3
 62
     0
440
 16777216
100
AcDbBlockReference
  2
_OPEN
 10
2984.389207672693
 20
4232.855731054828
 30
0.0
 41
70.0
 42
70.0
 43
70.0
  0
INSERT
  5
81D1
330
7D39
100
AcDbEntity
  8
3
 62
     0
440
 16777216
100
AcDbBlockReference
  2
_OPEN
 10
1954.389207672693
 20
4232.855731054828
 30
0.0
 41
70.0
 42
70.0
 43
70.0
 50
180.0
  0
MTEXT
  5
81D2
330
7D39
100
AcDbEntity
  8
3
 62
     0
440
 16777216
100
AcDbMText
 10
2469.389207672693
 20
4320.355731054827
 30
0.0
 40
105.0
 41
0.0
 46
0.0
 71
     5
 72
     5
  1
\A1;1030
 73
     1
 44
1.0
  0
POINT
  5
81D3
330
7D39
100
AcDbEntity
  8
DEFPOINTS
 62
     0
440
 16777216
100
AcDbPoint
 10
2984.389207672693
 20
4031.695634060684
 30
0.0
  0
POINT
  5
81D4
330
7D39
100
AcDbEntity
  8
DEFPOINTS
 62
     0
440
 16777216
100
AcDbPoint
 10
1954.389207672693
 20
4031.695634060684
 30
0.0
  0
POINT
  5
81D5
330
7D39
100
AcDbEntity
  8
DEFPOINTS
 62
     0
440
 16777216
100
AcDbPoint
 10
1954.389207672693
 20
4232.855731054828
 30
0.0
  0
ENDBLK
  5
7F73
330
7D39
100
AcDbEntity
  8
0
100
AcDbBlockEnd
  0
BLOCK
  5
7FC5
330
7D45
100
AcDbEntity
  8
0
100
AcDbBlockBegin
  2
*D8
 70
     1
 10
0.0
 20
0.0
 30
0.0
  3
*D8
  1

  0
LINE
  5
81D6
330
7D45
100
AcDbEntity
  8
3
 62
     0
440
 16777216
100
AcDbLine
 10
3485.389207672693
 20
2329.195634060685
 30
0.0
 11
3485.389207672693
 21
2080.993325816451
 31
0.0
  0
LINE
  5
81D7
330
7D45
100
AcDbEntity
  8
3
 62
     0
440
 16777216
100
AcDbLine
 10
1910.389207672693
 20
2329.195634060685
 30
0.0
 11
1910.389207672693
 21
2080.993325816451
 31
0.0
  0
LINE
  5
81D8
330
7D45
100
AcDbEntity
  8
3
 62
     0
440
 16777216
100
AcDbLine
 10
3415.389207672693
 20
2115.993325816451
 30
0.0
 11
1980.389207672693
 21
2115.993325816451
 31
0.0
  0
INSERT
  5
81D9
330
7D45
100
AcDbEntity
  8
3
 62
     0
440
 16777216
100
AcDbBlockReference
  2
_OPEN
 10
3485.389207672693
 20
2115.993325816451
 30
0.0
 41
70.0
 42
70.0
 43
70.0
  0
INSERT
  5
81DA
330
7D45
100
AcDbEntity
  8
3
 62
     0
440
 16777216
100
AcDbBlockReference
  2
_OPEN
 10
1910.389207672693
 20
2115.993325816451
 30
0.0
 41
70.0
 42
70.0
 43
70.0
 50
180.0
  0
MTEXT
  5
81DB
330
7D45
100
AcDbEntity
  8
3
 62
     0
440
 16777216
100
AcDbMText
 10
2697.889207672693
 20
2203.493325816451
 30
0.0
 40
105.0
 41
0.0
 46
0.0
 71
     5
 72
     5
  1
\A1;1575
 73
     1
 44
1.0
  0
POINT
  5
81DC
330
7D45
100
AcDbEntity
  8
DEFPOINTS
 62
     0
440
 16777216
100
AcDbPoint
 10
3485.389207672693
 20
2346.695634060685
 30
0.0
  0
POINT
  5
81DD
330
7D45
100
AcDbEntity
  8
DEFPOINTS
 62
     0
440
 16777216
100
AcDbPoint
 10
1910.389207672693
 20
2346.695634060685
 30
0.0
  0
POINT
  5
81DE
330
7D45
100
AcDbEntity
  8
DEFPOINTS
 62
     0
440
 16777216
100
AcDbPoint
 10
1910.389207672693
 20
2115.993325816451
 30
0.0
  0
ENDBLK
  5
7FCF
330
7D45
100
AcDbEntity
  8
0
100
AcDbBlockEnd
  0
BLOCK
  5
7F53
330
7D51
100
AcDbEntity
  8
0
100
AcDbBlockBegin
  2
*D9
 70
     1
 10
0.0
 20
0.0
 30
0.0
  3
*D9
  1

  0
LINE
  5
81DF
330
7D51
100
AcDbEntity
  8
3
 62
     0
440
 16777216
100
AcDbLine
 10
3485.389207672693
 20
2599.195634060683
 30
0.0
 11
3485.389207672693
 21
4755.044246680072
 31
0.0
  0
LINE
  5
81E0
330
7D51
100
AcDbEntity
  8
3
 62
     0
440
 16777216
100
AcDbLine
 10
1190.389207672692
 20
3295.195634060686
 30
0.0
 11
1190.389207672692
 21
4755.044246680072
 31
0.0
  0
LINE
  5
81E1
330
7D51
100
AcDbEntity
  8
3
 62
     0
440
 16777216
100
AcDbLine
 10
3415.389207672693
 20
4720.044246680072
 30
0.0
 11
1260.389207672692
 21
4720.044246680072
 31
0.0
  0
INSERT
  5
81E2
330
7D51
100
AcDbEntity
  8
3
 62
     0
440
 16777216
100
AcDbBlockReference
  2
_OPEN
 10
3485.389207672693
 20
4720.044246680072
 30
0.0
 41
70.0
 42
70.0
 43
70.0
  0
INSERT
  5
81E3
330
7D51
100
AcDbEntity
  8
3
 62
     0
440
 16777216
100
AcDbBlockReference
  2
_OPEN
 10
1190.389207672692
 20
4720.044246680072
 30
0.0
 41
70.0
 42
70.0
 43
70.0
 50
180.0
  0
MTEXT
  5
81E4
330
7D51
100
AcDbEntity
  8
3
 62
     0
440
 16777216
100
AcDbMText
 10
2337.889207672692
 20
4807.544246680072
 30
0.0
 40
105.0
 41
0.0
 46
0.0
 71
     5
 72
     5
  1
\A1;2295
 73
     1
 44
1.0
  0
POINT
  5
81E5
330
7D51
100
AcDbEntity
  8
DEFPOINTS
 62
     0
440
 16777216
100
AcDbPoint
 10
3485.389207672693
 20
2581.695634060683
 30
0.0
  0
POINT
  5
81E6
330
7D51
100
AcDbEntity
  8
DEFPOINTS
 62
     0
440
 16777216
100
AcDbPoint
 10
1190.389207672692
 20
3277.695634060685
 30
0.0
  0
POINT
  5
81E7
330
7D51
100
AcDbEntity
  8
DEFPOINTS
 62
     0
440
 16777216
100
AcDbPoint
 10
1190.389207672692
 20
4720.044246680072
 30
0.0
  0
ENDBLK
  5
7F5D
330
7D51
100
AcDbEntity
  8
0
100
AcDbBlockEnd
  0
BLOCK
  5
7F8A
330
7D69
100
AcDbEntity
  8
0
100
AcDbBlockBegin
  2
*D10
 70
     1
 10
0.0
 20
0.0
 30
0.0
  3
*D10
  1

  0
LINE
  5
81E8
330
7D69
100
AcDbEntity
  8
3
 62
     0
440
 16777216
100
AcDbLine
 10
1078.036512058748
 20
3351.695634060683
 30
0.0
 11
916.6366271651025
 21
3351.695634060683
 31
0.0
  0
LINE
  5
81E9
330
7D69
100
AcDbEntity
  8
3
 62
     0
440
 16777216
100
AcDbLine
 10
1267.889207672691
 20
2456.695634060685
 30
0.0
 11
916.6366271651023
 21
2456.695634060686
 31
0.0
  0
LINE
  5
81EA
330
7D69
100
AcDbEntity
  8
3
 62
     0
440
 16777216
100
AcDbLine
 10
951.6366271651023
 20
3281.695634060684
 30
0.0
 11
951.6366271651023
 21
2526.695634060685
 31
0.0
  0
INSERT
  5
81EB
330
7D69
100
AcDbEntity
  8
3
 62
     0
440
 16777216
100
AcDbBlockReference
  2
_OPEN
 10
951.6366271651024
 20
3351.695634060683
 30
0.0
 41
70.0
 42
70.0
 43
70.0
 50
90.0
  0
INSERT
  5
81EC
330
7D69
100
AcDbEntity
  8
3
 62
     0
440
 16777216
100
AcDbBlockReference
  2
_OPEN
 10
951.6366271651023
 20
2456.695634060686
 30
0.0
 41
70.0
 42
70.0
 43
70.0
 50
270.0
  0
MTEXT
  5
81ED
330
7D69
100
AcDbEntity
  8
3
 62
     0
440
 16777216
100
AcDbMText
 10
864.1366271651019
 20
2904.195634060684
 30
0.0
 40
105.0
 41
0.0
 46
0.0
 71
     5
 72
     5
  1
\A1;895
 11
0.0000000000000001
 21
1.0
 31
0.0
 73
     1
 44
1.0
  0
POINT
  5
81EE
330
7D69
100
AcDbEntity
  8
DEFPOINTS
 62
     0
440
 16777216
100
AcDbPoint
 10
1095.536512058748
 20
3351.695634060683
 30
0.0
  0
POINT
  5
81EF
330
7D69
100
AcDbEntity
  8
DEFPOINTS
 62
     0
440
 16777216
100
AcDbPoint
 10
1285.389207672692
 20
2456.695634060685
 30
0.0
  0
POINT
  5
81F0
330
7D69
100
AcDbEntity
  8
DEFPOINTS
 62
     0
440
 16777216
100
AcDbPoint
 10
951.6366271651023
 20
2456.695634060686
 30
0.0
  0
ENDBLK
  5
7F94
330
7D69
100
AcDbEntity
  8
0
100
AcDbBlockEnd
  0
BLOCK
  5
7FBA
330
7D75
100
AcDbEntity
  8
0
100
AcDbBlockBegin
  2
*D11
 70
     1
 10
0.0
 20
0.0
 30
0.0
  3
*D11
  1

  0
LINE
  5
81F1
330
7D75
100
AcDbEntity
  8
3
 62
     0
440
 16777216
100
AcDbLine
 10
1285.389207672692
 20
2329.195634060685
 30
0.0
 11
1285.389207672692
 21
2079.367276180869
 31
0.0
  0
LINE
  5
81F2
330
7D75
100
AcDbEntity
  8
3
 62
     0
440
 16777216
100
AcDbLine
 10
1910.389207672693
 20
2329.195634060685
 30
0.0
 11
1910.389207672693
 21
2079.367276180869
 31
0.0
  0
LINE
  5
81F3
330
7D75
100
AcDbEntity
  8
3
 62
     0
440
 16777216
100
AcDbLine
 10
1355.389207672691
 20
2114.367276180868
 30
0.0
 11
1840.389207672693
 21
2114.367276180868
 31
0.0
  0
INSERT
  5
81F4
330
7D75
100
AcDbEntity
  8
3
 62
     0
440
 16777216
100
AcDbBlockReference
  2
_OPEN
 10
1285.389207672692
 20
2114.367276180868
 30
0.0
 41
70.0
 42
70.0
 43
70.0
 50
180.0
  0
INSERT
  5
81F5
330
7D75
100
AcDbEntity
  8
3
 62
     0
440
 16777216
100
AcDbBlockReference
  2
_OPEN
 10
1910.389207672693
 20
2114.367276180868
 30
0.0
 41
70.0
 42
70.0
 43
70.0
  0
MTEXT
  5
81F6
330
7D75
100
AcDbEntity
  8
3
 62
     0
440
 16777216
100
AcDbMText
 10
1597.889207672692
 20
2201.867276180868
 30
0.0
 40
105.0
 41
0.0
 46
0.0
 71
     5
 72
     5
  1
\A1;625
 73
     1
 44
1.0
  0
POINT
  5
81F7
330
7D75
100
AcDbEntity
  8
DEFPOINTS
 62
     0
440
 16777216
100
AcDbPoint
 10
1285.389207672692
 20
2346.695634060685
 30
0.0
  0
POINT
  5
81F8
330
7D75
100
AcDbEntity
  8
DEFPOINTS
 62
     0
440
 16777216
100
AcDbPoint
 10
1910.389207672693
 20
2346.695634060685
 30
0.0
  0
POINT
  5
81F9
330
7D75
100
AcDbEntity
  8
DEFPOINTS
 62
     0
440
 16777216
100
AcDbPoint
 10
1910.389207672693
 20
2114.367276180868
 30
0.0
  0
ENDBLK
  5
7FC4
330
7D75
100
AcDbEntity
  8
0
100
AcDbBlockEnd
  0
BLOCK
  5
7F74
330
7D81
100
AcDbEntity
  8
0
100
AcDbBlockBegin
  2
*D12
 70
     1
 10
0.0
 20
0.0
 30
0.0
  3
*D12
  1

  0
LINE
  5
81FA
330
7D81
100
AcDbEntity
  8
3
 62
     0
440
 16777216
100
AcDbLine
 10
1910.389207672693
 20
4108.811616558312
 30
0.0
 11
1910.389207672693
 21
4525.838255680652
 31
0.0
  0
LINE
  5
81FB
330
7D81
100
AcDbEntity
  8
3
 62
     0
440
 16777216
100
AcDbLine
 10
1190.389207672692
 20
3295.195634060686
 30
0.0
 11
1190.389207672692
 21
4525.838255680652
 31
0.0
  0
LINE
  5
81FC
330
7D81
100
AcDbEntity
  8
3
 62
     0
440
 16777216
100
AcDbLine
 10
1840.389207672693
 20
4490.838255680652
 30
0.0
 11
1260.389207672692
 21
4490.838255680652
 31
0.0
  0
INSERT
  5
81FD
330
7D81
100
AcDbEntity
  8
3
 62
     0
440
 16777216
100
AcDbBlockReference
  2
_OPEN
 10
1910.389207672693
 20
4490.838255680652
 30
0.0
 41
70.0
 42
70.0
 43
70.0
  0
INSERT
  5
81FE
330
7D81
100
AcDbEntity
  8
3
 62
     0
440
 16777216
100
AcDbBlockReference
  2
_OPEN
 10
1190.389207672692
 20
4490.838255680652
 30
0.0
 41
70.0
 42
70.0
 43
70.0
 50
180.0
  0
MTEXT
  5
81FF
330
7D81
100
AcDbEntity
  8
3
 62
     0
440
 16777216
100
AcDbMText
 10
1550.389207672693
 20
4578.338255680652
 30
0.0
 40
105.0
 41
0.0
 46
0.0
 71
     5
 72
     5
  1
\A1;720
 73
     1
 44
1.0
  0
POINT
  5
8200
330
7D81
100
AcDbEntity
  8
DEFPOINTS
 62
     0
440
 16777216
100
AcDbPoint
 10
1910.389207672693
 20
4091.311616558312
 30
0.0
  0
POINT
  5
8201
330
7D81
100
AcDbEntity
  8
DEFPOINTS
 62
     0
440
 16777216
100
AcDbPoint
 10
1190.389207672692
 20
3277.695634060685
 30
0.0
  0
POINT
  5
8202
330
7D81
100
AcDbEntity
  8
DEFPOINTS
 62
     0
440
 16777216
100
AcDbPoint
 10
1190.389207672692
 20
4490.838255680652
 30
0.0
  0
ENDBLK
  5
7F7E
330
7D81
100
AcDbEntity
  8
0
100
AcDbBlockEnd
  0
BLOCK
  5
7F7F
330
7D8D
100
AcDbEntity
  8
0
100
AcDbBlockBegin
  2
*D13
 70
     1
 10
0.0
 20
0.0
 30
0.0
  3
*D13
  1

  0
LINE
  5
8203
330
7D8D
100
AcDbEntity
  8
3
 62
     0
440
 16777216
100
AcDbLine
 10
1883.889207672692
 20
4031.695634060684
 30
0.0
 11
916.6366271651023
 21
4031.695634060685
 31
0.0
  0
LINE
  5
8204
330
7D8D
100
AcDbEntity
  8
3
 62
     0
440
 16777216
100
AcDbLine
 10
1078.036512058748
 20
3351.695634060683
 30
0.0
 11
916.6366271651023
 21
3351.695634060683
 31
0.0
  0
LINE
  5
8205
330
7D8D
100
AcDbEntity
  8
3
 62
     0
440
 16777216
100
AcDbLine
 10
951.6366271651023
 20
3961.695634060685
 30
0.0
 11
951.6366271651023
 21
3421.695634060684
 31
0.0
  0
INSERT
  5
8206
330
7D8D
100
AcDbEntity
  8
3
 62
     0
440
 16777216
100
AcDbBlockReference
  2
_OPEN
 10
951.6366271651023
 20
4031.695634060685
 30
0.0
 41
70.0
 42
70.0
 43
70.0
 50
90.0
  0
INSERT
  5
8207
330
7D8D
100
AcDbEntity
  8
3
 62
     0
440
 16777216
100
AcDbBlockReference
  2
_OPEN
 10
951.6366271651023
 20
3351.695634060683
 30
0.0
 41
70.0
 42
70.0
 43
70.0
 50
270.0
  0
MTEXT
  5
8208
330
7D8D
100
AcDbEntity
  8
3
 62
     0
440
 16777216
100
AcDbMText
 10
864.1366271651017
 20
3691.695634060685
 30
0.0
 40
105.0
 41
0.0
 46
0.0
 71
     5
 72
     5
  1
\A1;680
 11
0.0000000000000001
 21
1.0
 31
0.0
 73
     1
 44
1.0
  0
POINT
  5
8209
330
7D8D
100
AcDbEntity
  8
DEFPOINTS
 62
     0
440
 16777216
100
AcDbPoint
 10
1901.389207672692
 20
4031.695634060684
 30
0.0
  0
POINT
  5
820A
330
7D8D
100
AcDbEntity
  8
DEFPOINTS
 62
     0
440
 16777216
100
AcDbPoint
 10
1095.536512058748
 20
3351.695634060683
 30
0.0
  0
POINT
  5
820B
330
7D8D
100
AcDbEntity
  8
DEFPOINTS
 62
     0
440
 16777216
100
AcDbPoint
 10
951.6366271651023
 20
3351.695634060683
 30
0.0
  0
ENDBLK
  5
7F89
330
7D8D
100
AcDbEntity
  8
0
100
AcDbBlockEnd
  0
BLOCK
  5
7F1C
330
7D99
100
AcDbEntity
  8
0
100
AcDbBlockBegin
  2
*D14
 70
     1
 10
0.0
 20
0.0
 30
0.0
  3
*D14
  1

  0
LINE
  5
820C
330
7D99
100
AcDbEntity
  8
3
 62
     0
440
 16777216
100
AcDbLine
 10
3485.389207672693
 20
6740.570024192547
 30
0.0
 11
3485.389207672693
 21
7860.096671634626
 31
0.0
  0
LINE
  5
820D
330
7D99
100
AcDbEntity
  8
3
 62
     0
440
 16777216
100
AcDbLine
 10
2535.389207672692
 20
7440.570024192549
 30
0.0
 11
2535.389207672692
 21
7860.096671634626
 31
0.0
  0
LINE
  5
820E
330
7D99
100
AcDbEntity
  8
3
 62
     0
440
 16777216
100
AcDbLine
 10
3415.389207672693
 20
7825.096671634627
 30
0.0
 11
2605.389207672692
 21
7825.096671634627
 31
0.0
  0
INSERT
  5
820F
330
7D99
100
AcDbEntity
  8
3
 62
     0
440
 16777216
100
AcDbBlockReference
  2
_OPEN
 10
3485.389207672693
 20
7825.096671634627
 30
0.0
 41
70.0
 42
70.0
 43
70.0
  0
INSERT
  5
8210
330
7D99
100
AcDbEntity
  8
3
 62
     0
440
 16777216
100
AcDbBlockReference
  2
_OPEN
 10
2535.389207672692
 20
7825.096671634627
 30
0.0
 41
70.0
 42
70.0
 43
70.0
 50
180.0
  0
MTEXT
  5
8211
330
7D99
100
AcDbEntity
  8
3
 62
     0
440
 16777216
100
AcDbMText
 10
3010.389207672692
 20
7912.596671634627
 30
0.0
 40
105.0
 41
0.0
 46
0.0
 71
     5
 72
     5
  1
\A1;950
 73
     1
 44
1.0
  0
POINT
  5
8212
330
7D99
100
AcDbEntity
  8
DEFPOINTS
 62
     0
440
 16777216
100
AcDbPoint
 10
3485.389207672693
 20
6723.070024192548
 30
0.0
  0
POINT
  5
8213
330
7D99
100
AcDbEntity
  8
DEFPOINTS
 62
     0
440
 16777216
100
AcDbPoint
 10
2535.389207672692
 20
7423.070024192547
 30
0.0
  0
POINT
  5
8214
330
7D99
100
AcDbEntity
  8
DEFPOINTS
 62
     0
440
 16777216
100
AcDbPoint
 10
2535.389207672692
 20
7825.096671634627
 30
0.0
  0
ENDBLK
  5
7F26
330
7D99
100
AcDbEntity
  8
0
100
AcDbBlockEnd
  0
BLOCK
  5
7F3D
330
7DA5
100
AcDbEntity
  8
0
100
AcDbBlockBegin
  2
*D15
 70
     1
 10
0.0
 20
0.0
 30
0.0
  3
*D15
  1

  0
LINE
  5
8215
330
7DA5
100
AcDbEntity
  8
3
 62
     0
440
 16777216
100
AcDbLine
 10
3485.389207672693
 20
5755.570024192548
 30
0.0
 11
3485.389207672693
 21
5298.249364697356
 31
0.0
  0
LINE
  5
8216
330
7DA5
100
AcDbEntity
  8
3
 62
     0
440
 16777216
100
AcDbLine
 10
1285.389207672692
 20
5755.570024192548
 30
0.0
 11
1285.389207672692
 21
5298.249364697356
 31
0.0
  0
LINE
  5
8217
330
7DA5
100
AcDbEntity
  8
3
 62
     0
440
 16777216
100
AcDbLine
 10
3415.389207672693
 20
5333.249364697356
 30
0.0
 11
1355.389207672691
 21
5333.249364697356
 31
0.0
  0
INSERT
  5
8218
330
7DA5
100
AcDbEntity
  8
3
 62
     0
440
 16777216
100
AcDbBlockReference
  2
_OPEN
 10
3485.389207672693
 20
5333.249364697356
 30
0.0
 41
70.0
 42
70.0
 43
70.0
  0
INSERT
  5
8219
330
7DA5
100
AcDbEntity
  8
3
 62
     0
440
 16777216
100
AcDbBlockReference
  2
_OPEN
 10
1285.389207672692
 20
5333.249364697356
 30
0.0
 41
70.0
 42
70.0
 43
70.0
 50
180.0
  0
MTEXT
  5
821A
330
7DA5
100
AcDbEntity
  8
3
 62
     0
440
 16777216
100
AcDbMText
 10
2385.389207672691
 20
5420.749364697356
 30
0.0
 40
105.0
 41
0.0
 46
0.0
 71
     5
 72
     5
  1
\A1;2200
 73
     1
 44
1.0
  0
POINT
  5
821B
330
7DA5
100
AcDbEntity
  8
DEFPOINTS
 62
     0
440
 16777216
100
AcDbPoint
 10
3485.389207672693
 20
5773.070024192548
 30
0.0
  0
POINT
  5
821C
330
7DA5
100
AcDbEntity
  8
DEFPOINTS
 62
     0
440
 16777216
100
AcDbPoint
 10
1285.389207672692
 20
5773.070024192548
 30
0.0
  0
POINT
  5
821D
330
7DA5
100
AcDbEntity
  8
DEFPOINTS
 62
     0
440
 16777216
100
AcDbPoint
 10
1285.389207672692
 20
5333.249364697356
 30
0.0
  0
ENDBLK
  5
7F47
330
7DA5
100
AcDbEntity
  8
0
100
AcDbBlockEnd
  0
BLOCK
  5
7F48
330
7DB1
100
AcDbEntity
  8
0
100
AcDbBlockBegin
  2
*D16
 70
     1
 10
0.0
 20
0.0
 30
0.0
  3
*D16
  1

  0
LINE
  5
821E
330
7DB1
100
AcDbEntity
  8
3
 62
     0
440
 16777216
100
AcDbLine
 10
3502.889207672693
 20
6723.070024192548
 30
0.0
 11
3921.980698866843
 21
6723.070024192548
 31
0.0
  0
LINE
  5
821F
330
7DB1
100
AcDbEntity
  8
3
 62
     0
440
 16777216
100
AcDbLine
 10
3502.889207672693
 20
5773.070024192548
 30
0.0
 11
3921.980698866843
 21
5773.070024192548
 31
0.0
  0
LINE
  5
8220
330
7DB1
100
AcDbEntity
  8
3
 62
     0
440
 16777216
100
AcDbLine
 10
3886.980698866842
 20
6653.070024192548
 30
0.0
 11
3886.980698866842
 21
5843.070024192548
 31
0.0
  0
INSERT
  5
8221
330
7DB1
100
AcDbEntity
  8
3
 62
     0
440
 16777216
100
AcDbBlockReference
  2
_OPEN
 10
3886.980698866842
 20
6723.070024192548
 30
0.0
 41
70.0
 42
70.0
 43
70.0
 50
90.0
  0
INSERT
  5
8222
330
7DB1
100
AcDbEntity
  8
3
 62
     0
440
 16777216
100
AcDbBlockReference
  2
_OPEN
 10
3886.980698866842
 20
5773.070024192548
 30
0.0
 41
70.0
 42
70.0
 43
70.0
 50
270.0
  0
MTEXT
  5
8223
330
7DB1
100
AcDbEntity
  8
3
 62
     0
440
 16777216
100
AcDbMText
 10
3799.480698866842
 20
6248.070024192549
 30
0.0
 40
105.0
 41
0.0
 46
0.0
 71
     5
 72
     5
  1
\A1;950
 11
0.0000000000000001
 21
1.0
 31
0.0
 73
     1
 44
1.0
  0
POINT
  5
8224
330
7DB1
100
AcDbEntity
  8
DEFPOINTS
 62
     0
440
 16777216
100
AcDbPoint
 10
3485.389207672693
 20
6723.070024192548
 30
0.0
  0
POINT
  5
8225
330
7DB1
100
AcDbEntity
  8
DEFPOINTS
 62
     0
440
 16777216
100
AcDbPoint
 10
3485.389207672693
 20
5773.070024192548
 30
0.0
  0
POINT
  5
8226
330
7DB1
100
AcDbEntity
  8
DEFPOINTS
 62
     0
440
 16777216
100
AcDbPoint
 10
3886.980698866842
 20
5773.070024192548
 30
0.0
  0
ENDBLK
  5
7F52
330
7DB1
100
AcDbEntity
  8
0
100
AcDbBlockEnd
  0
BLOCK
  5
7F32
330
7DBD
100
AcDbEntity
  8
0
100
AcDbBlockBegin
  2
*D17
 70
     1
 10
0.0
 20
0.0
 30
0.0
  3
*D17
  1

  0
LINE
  5
8227
330
7DBD
100
AcDbEntity
  8
3
 62
     0
440
 16777216
100
AcDbLine
 10
1267.889207672691
 20
7423.070024192547
 30
0.0
 11
848.7281452594
 21
7423.070024192547
 31
0.0
  0
LINE
  5
8228
330
7DBD
100
AcDbEntity
  8
3
 62
     0
440
 16777216
100
AcDbLine
 10
1267.889207672691
 20
5773.070024192548
 30
0.0
 11
848.7281452593997
 21
5773.070024192548
 31
0.0
  0
LINE
  5
8229
330
7DBD
100
AcDbEntity
  8
3
 62
     0
440
 16777216
100
AcDbLine
 10
883.7281452594
 20
7353.070024192549
 30
0.0
 11
883.7281452593996
 21
5843.070024192548
 31
0.0
  0
INSERT
  5
822A
330
7DBD
100
AcDbEntity
  8
3
 62
     0
440
 16777216
100
AcDbBlockReference
  2
_OPEN
 10
883.7281452594
 20
7423.070024192547
 30
0.0
 41
70.0
 42
70.0
 43
70.0
 50
90.0
  0
INSERT
  5
822B
330
7DBD
100
AcDbEntity
  8
3
 62
     0
440
 16777216
100
AcDbBlockReference
  2
_OPEN
 10
883.7281452593996
 20
5773.070024192548
 30
0.0
 41
70.0
 42
70.0
 43
70.0
 50
270.0
  0
MTEXT
  5
822C
330
7DBD
100
AcDbEntity
  8
3
 62
     0
440
 16777216
100
AcDbMText
 10
796.2281452593989
 20
6598.070024192548
 30
0.0
 40
105.0
 41
0.0
 46
0.0
 71
     5
 72
     5
  1
\A1;1650
 11
0.0000000000000001
 21
1.0
 31
0.0
 73
     1
 44
1.0
  0
POINT
  5
822D
330
7DBD
100
AcDbEntity
  8
DEFPOINTS
 62
     0
440
 16777216
100
AcDbPoint
 10
1285.389207672692
 20
7423.070024192547
 30
0.0
  0
POINT
  5
822E
330
7DBD
100
AcDbEntity
  8
DEFPOINTS
 62
     0
440
 16777216
100
AcDbPoint
 10
1285.389207672692
 20
5773.070024192548
 30
0.0
  0
POINT
  5
822F
330
7DBD
100
AcDbEntity
  8
DEFPOINTS
 62
     0
440
 16777216
100
AcDbPoint
 10
883.7281452593996
 20
5773.070024192548
 30
0.0
  0
ENDBLK
  5
7F3C
330
7DBD
100
AcDbEntity
  8
0
100
AcDbBlockEnd
  0
BLOCK
  5
7F27
330
7DC9
100
AcDbEntity
  8
0
100
AcDbBlockBegin
  2
*D18
 70
     1
 10
0.0
 20
0.0
 30
0.0
  3
*D18
  1

  0
LINE
  5
8230
330
7DC9
100
AcDbEntity
  8
3
 62
     0
440
 16777216
100
AcDbLine
 10
2535.389207672692
 20
7440.570024192549
 30
0.0
 11
2535.389207672692
 21
7860.096671634626
 31
0.0
  0
LINE
  5
8231
330
7DC9
100
AcDbEntity
  8
3
 62
     0
440
 16777216
100
AcDbLine
 10
1285.389207672692
 20
7440.570024192549
 30
0.0
 11
1285.389207672692
 21
7860.096671634626
 31
0.0
  0
LINE
  5
8232
330
7DC9
100
AcDbEntity
  8
3
 62
     0
440
 16777216
100
AcDbLine
 10
2465.389207672691
 20
7825.096671634627
 30
0.0
 11
1355.389207672691
 21
7825.096671634627
 31
0.0
  0
INSERT
  5
8233
330
7DC9
100
AcDbEntity
  8
3
 62
     0
440
 16777216
100
AcDbBlockReference
  2
_OPEN
 10
2535.389207672692
 20
7825.096671634627
 30
0.0
 41
70.0
 42
70.0
 43
70.0
  0
INSERT
  5
8234
330
7DC9
100
AcDbEntity
  8
3
 62
     0
440
 16777216
100
AcDbBlockReference
  2
_OPEN
 10
1285.389207672692
 20
7825.096671634627
 30
0.0
 41
70.0
 42
70.0
 43
70.0
 50
180.0
  0
MTEXT
  5
8235
330
7DC9
100
AcDbEntity
  8
3
 62
     0
440
 16777216
100
AcDbMText
 10
1910.389207672691
 20
7912.596671634627
 30
0.0
 40
105.0
 41
0.0
 46
0.0
 71
     5
 72
     5
  1
\A1;1250
 73
     1
 44
1.0
  0
POINT
  5
8236
330
7DC9
100
AcDbEntity
  8
DEFPOINTS
 62
     0
440
 16777216
100
AcDbPoint
 10
2535.389207672692
 20
7423.070024192547
 30
0.0
  0
POINT
  5
8237
330
7DC9
100
AcDbEntity
  8
DEFPOINTS
 62
     0
440
 16777216
100
AcDbPoint
 10
1285.389207672692
 20
7423.070024192547
 30
0.0
  0
POINT
  5
8238
330
7DC9
100
AcDbEntity
  8
DEFPOINTS
 62
     0
440
 16777216
100
AcDbPoint
 10
1285.389207672692
 20
7825.096671634627
 30
0.0
  0
ENDBLK
  5
7F31
330
7DC9
100
AcDbEntity
  8
0
100
AcDbBlockEnd
  0
BLOCK
  5
811D
330
7DD5
100
AcDbEntity
  8
0
100
AcDbBlockBegin
  2
*D19
 70
     1
 10
0.0
 20
0.0
 30
0.0
  3
*D19
  1

  0
LINE
  5
811E
330
7DD5
100
AcDbEntity
  8
0
  6
ByBlock
 62
     0
440
 16777216
100
AcDbLine
 10
1267.889207672691
 20
2456.695634060685
 30
0.0
 11
916.6405112920584
 21
2456.695634060685
 31
0.0
  0
LINE
  5
811F
330
7DD5
100
AcDbEntity
  8
0
  6
ByBlock
 62
     0
440
 16777216
100
AcDbLine
 10
1267.889207672691
 20
2411.695634060685
 30
0.0
 11
916.6405112920584
 21
2411.695634060685
 31
0.0
  0
LINE
  5
8120
330
7DD5
100
AcDbEntity
  8
0
  6
ByBlock
 62
     0
440
 16777216
100
AcDbLine
 10
951.6405112920583
 20
2526.695634060685
 30
0.0
 11
951.6405112920583
 21
2596.695634060685
 31
0.0
  0
LINE
  5
8121
330
7DD5
100
AcDbEntity
  8
0
  6
ByBlock
 62
     0
440
 16777216
100
AcDbLine
 10
951.6405112920583
 20
2341.695634060685
 30
0.0
 11
951.6405112920583
 21
2271.695634060685
 31
0.0
  0
MTEXT
  5
8122
330
7DD5
100
AcDbEntity
  8
0
  6
ByBlock
 62
     0
440
 16777216
100
AcDbMText
 10
784.1405112920583
 20
2527.713681206995
 30
0.0
 40
105.0
 41
0.0
 46
0.0
 71
     5
 72
     5
  1
\A1;(45)
 11
0.0
 21
1.0
 31
0.0
 73
     1
 44
1.0
  0
LINE
  5
8123
330
7DD5
100
AcDbEntity
  8
0
  6
ByBlock
 62
     0
440
 16777216
100
AcDbLine
 10
951.6405112920583
 20
2456.695634060685
 30
0.0
 11
951.6405112920583
 21
2411.695634060685
 31
0.0
  0
INSERT
  5
8124
330
7DD5
100
AcDbEntity
  8
0
  6
ByBlock
 62
     0
440
 16777216
100
AcDbBlockReference
  2
_OPEN
 10
951.6405112920583
 20
2456.695634060685
 30
0.0
 41
70.0
 42
70.0
 43
70.0
 50
270.0
  0
INSERT
  5
8125
330
7DD5
100
AcDbEntity
  8
0
  6
ByBlock
 62
     0
440
 16777216
100
AcDbBlockReference
  2
_DOT
 10
951.6405112920583
 20
2411.695634060685
 30
0.0
 41
70.0
 42
70.0
 43
70.0
 50
90.0
  0
POINT
  5
8126
330
7DD5
100
AcDbEntity
  8
DEFPOINTS
  6
ByBlock
 62
     0
440
 16777216
100
AcDbPoint
 10
1285.389207672692
 20
2456.695634060685
 30
0.0
  0
POINT
  5
8127
330
7DD5
100
AcDbEntity
  8
DEFPOINTS
  6
ByBlock
 62
     0
440
 16777216
100
AcDbPoint
 10
1285.389207672692
 20
2411.695634060685
 30
0.0
  0
POINT
  5
8128
330
7DD5
100
AcDbEntity
  8
DEFPOINTS
  6
ByBlock
 62
     0
440
 16777216
100
AcDbPoint
 10
951.6405112920583
 20
2411.695634060685
 30
0.0
  0
ENDBLK
  5
8129
330
7DD5
100
AcDbEntity
  8
0
100
AcDbBlockEnd
  0
BLOCK
  5
8110
330
7DE2
100
AcDbEntity
  8
0
100
AcDbBlockBegin
  2
*D20
 70
     1
 10
0.0
 20
0.0
 30
0.0
  3
*D20
  1

  0
LINE
  5
8239
330
7DE2
100
AcDbEntity
  8
3
 62
     0
440
 16777216
100
AcDbLine
 10
1267.889207672691
 20
2411.695634060685
 30
0.0
 11
916.6366271651023
 21
2411.695634060686
 31
0.0
  0
LINE
  5
823A
330
7DE2
100
AcDbEntity
  8
3
 62
     0
440
 16777216
100
AcDbLine
 10
1267.889207672691
 20
2346.695634060685
 30
0.0
 11
916.6366271651023
 21
2346.695634060685
 31
0.0
  0
LINE
  5
823B
330
7DE2
100
AcDbEntity
  8
3
 62
     0
440
 16777216
100
AcDbLine
 10
951.6366271651023
 20
2481.695634060685
 30
0.0
 11
951.6366271651023
 21
2551.695634060685
 31
0.0
  0
LINE
  5
823C
330
7DE2
100
AcDbEntity
  8
3
 62
     0
440
 16777216
100
AcDbLine
 10
951.6366271651021
 20
2276.695634060685
 30
0.0
 11
951.6366271651021
 21
1966.695634060685
 31
0.0
  0
LINE
  5
823D
330
7DE2
100
AcDbEntity
  8
3
 62
     0
440
 16777216
100
AcDbLine
 10
951.6366271651023
 20
2411.695634060686
 30
0.0
 11
951.6366271651023
 21
2346.695634060685
 31
0.0
  0
INSERT
  5
823E
330
7DE2
100
AcDbEntity
  8
3
 62
     0
440
 16777216
100
AcDbBlockReference
  2
_DOT
 10
951.6366271651023
 20
2411.695634060686
 30
0.0
 41
70.0
 42
70.0
 43
70.0
 50
270.0
  0
INSERT
  5
823F
330
7DE2
100
AcDbEntity
  8
3
 62
     0
440
 16777216
100
AcDbBlockReference
  2
_OPEN
 10
951.6366271651023
 20
2346.695634060685
 30
0.0
 41
70.0
 42
70.0
 43
70.0
 50
90.0
  0
MTEXT
  5
8240
330
7DE2
100
AcDbEntity
  8
3
 62
     0
440
 16777216
100
AcDbMText
 10
864.1366271651017
 20
2086.695634060685
 30
0.0
 40
105.0
 41
0.0
 46
0.0
 71
     5
 72
     5
  1
\A1;65
 11
0.0000000000000001
 21
1.0
 31
0.0
 73
     1
 44
1.0
  0
POINT
  5
8241
330
7DE2
100
AcDbEntity
  8
DEFPOINTS
 62
     0
440
 16777216
100
AcDbPoint
 10
1285.389207672692
 20
2411.695634060685
 30
0.0
  0
POINT
  5
8242
330
7DE2
100
AcDbEntity
  8
DEFPOINTS
 62
     0
440
 16777216
100
AcDbPoint
 10
1285.389207672692
 20
2346.695634060685
 30
0.0
  0
POINT
  5
8243
330
7DE2
100
AcDbEntity
  8
DEFPOINTS
 62
     0
440
 16777216
100
AcDbPoint
 10
951.6366271651023
 20
2346.695634060685
 30
0.0
  0
ENDBLK
  5
811C
330
7DE2
100
AcDbEntity
  8
0
100
AcDbBlockEnd
  0
BLOCK
  5
8007
330
7DF0
100
AcDbEntity
  8
0
100
AcDbBlockBegin
  2
*D21
 70
     1
 10
0.0
 20
0.0
 30
0.0
  3
*D21
  1

  0
LINE
  5
82E4
330
7DF0
100
AcDbEntity
  8
3
 62
     0
440
 16777216
370
    -2
100
AcDbLine
 10
6235.379202701377
 20
3326.995634060684
 30
0.0
 11
6235.379202701377
 21
4481.678532444512
 31
0.0
  0
LINE
  5
82E5
330
7DF0
100
AcDbEntity
  8
3
 62
     0
440
 16777216
370
    -2
100
AcDbLine
 10
5435.379202701376
 20
4398.563146331727
 30
0.0
 11
5435.379202701376
 21
4481.678532444512
 31
0.0
  0
LINE
  5
82E6
330
7DF0
100
AcDbEntity
  8
3
 62
     0
440
 16777216
370
    -2
100
AcDbLine
 10
6165.379202701377
 20
4446.678532444511
 30
0.0
 11
5505.379202701377
 21
4446.678532444511
 31
0.0
  0
INSERT
  5
82E7
330
7DF0
100
AcDbEntity
  8
3
 62
     0
440
 16777216
370
    -2
100
AcDbBlockReference
  2
_OPEN
 10
6235.379202701377
 20
4446.678532444511
 30
0.0
 41
70.0
 42
70.0
 43
70.0
  0
INSERT
  5
82E8
330
7DF0
100
AcDbEntity
  8
3
 62
     0
440
 16777216
370
    -2
100
AcDbBlockReference
  2
_OPEN
 10
5435.379202701376
 20
4446.678532444511
 30
0.0
 41
70.0
 42
70.0
 43
70.0
 50
180.0
  0
MTEXT
  5
82E9
330
7DF0
100
AcDbEntity
  8
3
 62
     0
440
 16777216
100
AcDbMText
 10
5835.379202701377
 20
4561.678532444512
 30
0.0
 40
105.0
 41
0.0
 46
0.0
 71
     5
 72
     1
  1
\A1;(800)
 73
     1
 44
1.0
  0
POINT
  5
82EA
330
7DF0
100
AcDbEntity
  8
DEFPOINTS
 62
     0
440
 16777216
100
AcDbPoint
 10
6235.379202701377
 20
3309.495634060684
 30
0.0
  0
POINT
  5
82EB
330
7DF0
100
AcDbEntity
  8
DEFPOINTS
 62
     0
440
 16777216
100
AcDbPoint
 10
5435.379202701376
 20
4381.063146331728
 30
0.0
  0
POINT
  5
82EC
330
7DF0
100
AcDbEntity
  8
DEFPOINTS
 62
     0
440
 16777216
100
AcDbPoint
 10
5435.379202701376
 20
4446.678532444511
 30
0.0
  0
ENDBLK
  5
8011
330
7DF0
100
AcDbEntity
  8
0
100
AcDbBlockEnd
  0
BLOCK
  5
8136
330
7DFC
100
AcDbEntity
  8
0
100
AcDbBlockBegin
  2
*D22
 70
     1
 10
0.0
 20
0.0
 30
0.0
  3
*D22
  1

  0
LINE
  5
82DB
330
7DFC
100
AcDbEntity
  8
3
 62
     0
440
 16777216
370
    -2
100
AcDbLine
 10
5435.379202701376
 20
4398.563146331727
 30
0.0
 11
5435.379202701376
 21
4481.678532444512
 31
0.0
  0
LINE
  5
82DC
330
7DFC
100
AcDbEntity
  8
3
 62
     0
440
 16777216
370
    -2
100
AcDbLine
 10
4355.879202701371
 20
3649.195634060684
 30
0.0
 11
4355.879202701371
 21
4481.678532444512
 31
0.0
  0
LINE
  5
82DD
330
7DFC
100
AcDbEntity
  8
3
 62
     0
440
 16777216
370
    -2
100
AcDbLine
 10
5365.379202701377
 20
4446.678532444511
 30
0.0
 11
4425.879202701372
 21
4446.678532444511
 31
0.0
  0
INSERT
  5
82DE
330
7DFC
100
AcDbEntity
  8
3
 62
     0
440
 16777216
370
    -2
100
AcDbBlockReference
  2
_OPEN
 10
5435.379202701376
 20
4446.678532444511
 30
0.0
 41
70.0
 42
70.0
 43
70.0
  0
INSERT
  5
82DF
330
7DFC
100
AcDbEntity
  8
3
 62
     0
440
 16777216
370
    -2
100
AcDbBlockReference
  2
_OPEN
 10
4355.879202701371
 20
4446.678532444511
 30
0.0
 41
70.0
 42
70.0
 43
70.0
 50
180.0
  0
MTEXT
  5
82E0
330
7DFC
100
AcDbEntity
  8
3
 62
     0
440
 16777216
100
AcDbMText
 10
4895.629202701375
 20
4561.678532444512
 30
0.0
 40
105.0
 41
0.0
 46
0.0
 71
     5
 72
     1
  1
\A1;(1080)
 73
     1
 44
1.0
  0
POINT
  5
82E1
330
7DFC
100
AcDbEntity
  8
DEFPOINTS
 62
     0
440
 16777216
100
AcDbPoint
 10
5435.379202701376
 20
4381.063146331728
 30
0.0
  0
POINT
  5
82E2
330
7DFC
100
AcDbEntity
  8
DEFPOINTS
 62
     0
440
 16777216
100
AcDbPoint
 10
4355.879202701371
 20
3631.695634060684
 30
0.0
  0
POINT
  5
82E3
330
7DFC
100
AcDbEntity
  8
DEFPOINTS
 62
     0
440
 16777216
100
AcDbPoint
 10
4355.879202701371
 20
4446.678532444511
 30
0.0
  0
ENDBLK
  5
8140
330
7DFC
100
AcDbEntity
  8
0
100
AcDbBlockEnd
  0
BLOCK
  5
810C
330
8106
100
AcDbEntity
  8
0
100
AcDbBlockBegin
  2
_DOT
 70
     0
 10
0.0
 20
0.0
 30
0.0
  3
_DOT
  1

  0
LWPOLYLINE
  5
8107
330
8106
100
AcDbEntity
  8
0
  6
ByBlock
 62
     0
100
AcDbPolyline
 90
        2
 70
     1
 43
0.25
 10
-0.125
 20
0.0
 42
1.0
 10
0.125
 20
0.0
 42
1.0
  0
LINE
  5
810B
330
8106
100
AcDbEntity
  8
0
  6
ByBlock
 62
     0
100
AcDbLine
 10
-0.25
 20
0.0
 30
0.0
 11
-1.0
 21
0.0
 31
0.0
  0
ENDBLK
  5
810D
330
8106
100
AcDbEntity
  8
0
100
AcDbBlockEnd
  0
BLOCK
  5
8157
330
8156
100
AcDbEntity
  8
0
100
AcDbBlockBegin
  2
*D24
 70
     1
 10
0.0
 20
0.0
 30
0.0
  3
*D24
  1

  0
LINE
  5
8158
330
8156
100
AcDbEntity
  8
0
  6
ByBlock
 62
     0
440
 16777216
100
AcDbLine
 10
1883.889207672692
 20
4031.695634060684
 30
0.0
 11
621.4012046720454
 21
4031.695634060684
 31
0.0
  0
LINE
  5
8159
330
8156
100
AcDbEntity
  8
0
  6
ByBlock
 62
     0
440
 16777216
100
AcDbLine
 10
1267.889207672691
 20
2346.695634060685
 30
0.0
 11
621.4012046720454
 21
2346.695634060685
 31
0.0
  0
LINE
  5
815A
330
8156
100
AcDbEntity
  8
0
  6
ByBlock
 62
     0
440
 16777216
100
AcDbLine
 10
656.4012046720454
 20
3961.695634060685
 30
0.0
 11
656.4012046720454
 21
2416.695634060685
 31
0.0
  0
INSERT
  5
815B
330
8156
100
AcDbEntity
  8
0
  6
ByBlock
 62
     0
440
 16777216
100
AcDbBlockReference
  2
_OPEN
 10
656.4012046720454
 20
4031.695634060684
 30
0.0
 41
70.0
 42
70.0
 43
70.0
 50
90.0
  0
INSERT
  5
815C
330
8156
100
AcDbEntity
  8
0
  6
ByBlock
 62
     0
440
 16777216
100
AcDbBlockReference
  2
_OPEN
 10
656.4012046720454
 20
2346.695634060685
 30
0.0
 41
70.0
 42
70.0
 43
70.0
 50
270.0
  0
MTEXT
  5
815D
330
8156
100
AcDbEntity
  8
0
  6
ByBlock
 62
     0
440
 16777216
100
AcDbMText
 10
541.4012046720454
 20
3189.195634060685
 30
0.0
 40
105.0
 41
0.0
 46
0.0
 71
     5
 72
     5
  1
\A1;(1685)
 11
0.0
 21
1.0
 31
0.0
 73
     1
 44
1.0
  0
POINT
  5
815E
330
8156
100
AcDbEntity
  8
DEFPOINTS
  6
ByBlock
 62
     0
440
 16777216
100
AcDbPoint
 10
1901.389207672692
 20
4031.695634060684
 30
0.0
  0
POINT
  5
815F
330
8156
100
AcDbEntity
  8
DEFPOINTS
  6
ByBlock
 62
     0
440
 16777216
100
AcDbPoint
 10
1285.389207672692
 20
2346.695634060685
 30
0.0
  0
POINT
  5
8160
330
8156
100
AcDbEntity
  8
DEFPOINTS
  6
ByBlock
 62
     0
440
 16777216
100
AcDbPoint
 10
656.4012046720454
 20
2346.695634060685
 30
0.0
  0
ENDBLK
  5
8161
330
8156
100
AcDbEntity
  8
0
100
AcDbBlockEnd
  0
ENDSEC
  0
SECTION
  2
ENTITIES
  0
INSERT
  5
7C13
330
19
100
AcDbEntity
  8
0
100
AcDbBlockReference
  2
YA_N
 10
6.0
 20
5.0
 30
0.0
  0
LINE
  5
7C15
330
19
100
AcDbEntity
  8
2
100
AcDbLine
 10
4431.43376148117
 20
3351.695634060684
 30
0.0
 11
6241.455834250679
 21
3351.695634060684
 31
0.0
  0
LINE
  5
7C16
330
19
100
AcDbEntity
  8
2
100
AcDbLine
 10
5435.379202701376
 20
4186.663756097778
 30
0.0
 11
5435.379202701376
 21
2346.695634060684
 31
0.0
  0
LINE
  5
7C17
330
19
100
AcDbEntity
  8
1
100
AcDbLine
 10
4513.379202701377
 20
2456.695634060684
 30
0.0
 11
6163.379202701377
 21
2456.695634060684
 31
0.0
1001
ACAD
1000
ASC_BOUNDS
1002
{
1070
    19
1002
}
  0
LINE
  5
7C18
330
19
100
AcDbEntity
  8
1
100
AcDbLine
 10
4513.379202701377
 20
2581.695634060684
 30
0.0
 11
6163.379202701377
 21
2581.695634060684
 31
0.0
  0
LINE
  5
7C19
330
19
100
AcDbEntity
  8
1
100
AcDbLine
 10
4513.379202701377
 20
2581.695634060684
 30
0.0
 11
4513.379202701377
 21
2456.695634060684
 31
0.0
  0
LINE
  5
7C1A
330
19
100
AcDbEntity
  8
1
100
AcDbLine
 10
6163.379202701377
 20
2581.695634060684
 30
0.0
 11
6163.379202701377
 21
2456.695634060684
 31
0.0
  0
INSERT
  5
7C1B
330
19
100
AcDbEntity
  8
0
100
AcDbBlockReference
  2
YA_N
 10
-1637.209838160517
 20
-1405.432827243363
 30
0.0
 41
25.0
 42
25.0
 43
25.0
  0
LINE
  5
7C1D
330
19
100
AcDbEntity
  8
1
100
AcDbLine
 10
4513.379202701377
 20
2411.695634060684
 30
0.0
 11
6163.379202701377
 21
2411.695634060684
 31
0.0
1001
ACAD
1000
ASC_BOUNDS
1002
{
1070
    19
1002
}
  0
LINE
  5
7C1E
330
19
100
AcDbEntity
  8
1
100
AcDbLine
 10
4513.379202701377
 20
2346.695634060684
 30
0.0
 11
6163.379202701377
 21
2346.695634060684
 31
0.0
  0
LINE
  5
7C1F
330
19
100
AcDbEntity
  8
1
100
AcDbLine
 10
6163.379202701377
 20
2411.695634060684
 30
0.0
 11
6163.379202701377
 21
2346.695634060684
 31
0.0
  0
LINE
  5
7C20
330
19
100
AcDbEntity
  8
1
100
AcDbLine
 10
4513.379202701377
 20
2411.695634060684
 30
0.0
 11
4513.379202701377
 21
2346.695634060684
 31
0.0
  0
LINE
  5
7C21
330
19
100
AcDbEntity
  8
1
100
AcDbLine
 10
6148.379202701377
 20
4031.695634060684
 30
0.0
 11
6148.379202701377
 21
4027.695634060683
 31
0.0
  0
INSERT
  5
7C22
330
19
100
AcDbEntity
  8
0
100
AcDbBlockReference
  2
YA_N
 10
-1144.893563079055
 20
-989.0222135336152
 30
0.0
 41
25.0
 42
25.0
 43
25.0
  0
LINE
  5
7C24
330
19
100
AcDbEntity
  8
1
100
AcDbLine
 10
6095.379202701376
 20
4031.695634060684
 30
0.0
 11
6095.379202701376
 21
2581.695634060684
 31
0.0
  0
DIMENSION
  5
7C25
330
19
100
AcDbEntity
  8
3
100
AcDbDimension
280
     0
  2
*D2
 10
5435.379202701376
 20
2123.911574005344
 30
0.0
 11
4974.379202701377
 21
2211.411574005344
 31
0.0
 70
    32
 71
     5
 42
-1.0
 73
     0
 74
     0
 75
     0
  3
IGA
100
AcDbAlignedDimension
 13
4513.379202701377
 23
2346.695634060684
 33
0.0
 14
5435.379202701376
 24
2346.695634060684
 34
0.0
100
AcDbRotatedDimension
1001
ACAD
1000
DSTYLE
1002
{
1070
   287
1070
     3
1070
    40
1040
35.0
1070
   143
1040
0.039
1070
   172
1070
     1
1070
   271
1070
     0
1070
   279
1070
     0
1070
   288
1070
     1
1002
}
  0
DIMENSION
  5
7C27
330
19
100
AcDbEntity
  8
3
100
AcDbDimension
280
     0
  2
*D3
 10
6163.379202701377
 20
2123.911574005344
 30
0.0
 11
5799.379202701377
 21
2211.411574005344
 31
0.0
 70
    32
 71
     5
 42
-1.0
 73
     0
 74
     0
 75
     0
  3
IGA
100
AcDbAlignedDimension
 13
5435.379202701376
 23
2346.695634060684
 33
0.0
 14
6163.379202701377
 24
2346.695634060684
 34
0.0
100
AcDbRotatedDimension
1001
ACAD
1000
DSTYLE
1002
{
1070
   287
1070
     3
1070
    40
1040
35.0
1070
   143
1040
0.039
1070
   172
1070
     1
1070
   271
1070
     0
1070
   279
1070
     0
1070
   288
1070
     1
1002
}
  0
LINE
  5
7C28
330
19
100
AcDbEntity
  8
1
100
AcDbLine
 10
4722.379202701377
 20
4031.695634060684
 30
0.0
 11
4722.379202701377
 21
4027.695634060683
 31
0.0
  0
LINE
  5
7C29
330
19
100
AcDbEntity
  8
1
100
AcDbLine
 10
4775.379202701377
 20
4031.695634060684
 30
0.0
 11
4775.379202701377
 21
3001.695634060684
 31
0.0
  0
LINE
  5
7C2A
330
19
100
AcDbEntity
  8
1
100
AcDbLine
 10
4619.479202701377
 20
3411.195634060684
 30
0.0
 11
4619.479202701375
 21
3292.195634060684
 31
0.0
  0
LINE
  5
7C2B
330
19
100
AcDbEntity
  8
1
100
AcDbLine
 10
4619.479202701375
 20
3411.195634060684
 30
0.0
 11
4775.379202701377
 21
3411.195634060684
 31
0.0
  0
LINE
  5
7C2C
330
19
100
AcDbEntity
  8
1
100
AcDbLine
 10
4619.479202701377
 20
3292.195634060684
 30
0.0
 11
4775.379202701377
 21
3292.195634060684
 31
0.0
  0
LINE
  5
7C2D
330
19
100
AcDbEntity
  8
1
100
AcDbLine
 10
4617.879202701375
 20
3269.695634060683
 30
0.0
 11
4617.879202701376
 21
3139.695634060684
 31
0.0
  0
LINE
  5
7C2E
330
19
100
AcDbEntity
  8
1
100
AcDbLine
 10
4627.879202701374
 20
3279.695634060684
 30
0.0
 11
4775.379202701375
 21
3279.695634060684
 31
0.0
  0
LINE
  5
7C2F
330
19
100
AcDbEntity
  8
1
100
AcDbLine
 10
4627.879202701377
 20
3129.695634060684
 30
0.0
 11
4775.379202701377
 21
3129.695634060684
 31
0.0
  0
ARC
  5
7C30
330
19
100
AcDbEntity
  8
1
100
AcDbCircle
 10
4627.879202701374
 20
3269.695634060684
 30
0.0
 40
10.0
100
AcDbArc
 50
90.0
 51
180.0000000000007
  0
ARC
  5
7C31
330
19
100
AcDbEntity
  8
1
100
AcDbCircle
 10
4627.879202701377
 20
3139.695634060684
 30
0.0
 40
10.0
100
AcDbArc
 50
180.0000000000007
 51
270.0
  0
LINE
  5
7C32
330
19
100
AcDbEntity
  8
1
100
AcDbLine
 10
4575.379202701377
 20
3391.695634060684
 30
0.0
 11
4575.379202701377
 21
3311.695634060684
 31
0.0
  0
LINE
  5
7C33
330
19
100
AcDbEntity
  8
1
100
AcDbLine
 10
4570.379202701377
 20
3381.695634060684
 30
0.0
 11
4575.379202701377
 21
3381.695634060684
 31
0.0
  0
LINE
  5
7C34
330
19
100
AcDbEntity
  8
1
100
AcDbLine
 10
4570.379202701377
 20
3321.695634060684
 30
0.0
 11
4575.379202701377
 21
3321.695634060684
 31
0.0
  0
LINE
  5
7C35
330
19
100
AcDbEntity
  8
1
100
AcDbLine
 10
4575.379202701377
 20
3391.695634060684
 30
0.0
 11
4619.479202701375
 21
3391.695634060684
 31
0.0
  0
LINE
  5
7C36
330
19
100
AcDbEntity
  8
1
100
AcDbLine
 10
4575.379202701377
 20
3311.695634060684
 30
0.0
 11
4619.479202701375
 21
3311.695634060684
 31
0.0
  0
LINE
  5
7C37
330
19
100
AcDbEntity
  8
1
100
AcDbLine
 10
6235.379202701377
 20
3309.495634060684
 30
0.0
 11
6235.379202701377
 21
3179.495634060684
 31
0.0
  0
ARC
  5
7C38
330
19
100
AcDbEntity
  8
1
100
AcDbCircle
 10
6225.379202701381
 20
3309.495634060684
 30
0.0
 40
10.0
100
AcDbArc
 50
0.0000000000006514
 51
90.0
  0
ARC
  5
7C39
330
19
100
AcDbEntity
  8
1
100
AcDbCircle
 10
6225.379202701379
 20
3179.495634060684
 30
0.0
 40
10.0
100
AcDbArc
 50
270.0
 51
0.0000000000006514
  0
LINE
  5
7C3A
330
19
100
AcDbEntity
  8
1
100
AcDbLine
 10
6221.979202701377
 20
3319.195634060684
 30
0.0
 11
6225.379202701377
 21
3319.195634060684
 31
0.0
  0
LINE
  5
7C3B
330
19
100
AcDbEntity
  8
1
100
AcDbLine
 10
6095.379202701376
 20
3319.495634060685
 30
0.0
 11
6225.379202701377
 21
3319.495634060685
 31
0.0
  0
LINE
  5
7C3C
330
19
100
AcDbEntity
  8
1
100
AcDbLine
 10
6095.379202701376
 20
3169.495634060684
 30
0.0
 11
6225.379202701379
 21
3169.495634060684
 31
0.0
  0
LINE
  5
7C3D
330
19
100
AcDbEntity
  8
1
100
AcDbLine
 10
4460.379202701377
 20
3516.795634060684
 30
0.0
 11
4570.379202701377
 21
3516.795634060684
 31
0.0
  0
LINE
  5
7C3E
330
19
100
AcDbEntity
  8
1
100
AcDbLine
 10
4460.379202701377
 20
3186.595634060684
 30
0.0
 11
4570.379202701377
 21
3186.595634060684
 31
0.0
  0
LINE
  5
7C3F
330
19
100
AcDbEntity
  8
2
100
AcDbLine
 10
4355.879202701381
 20
2816.695634060684
 30
0.0
 11
5174.879202701381
 21
2816.695634060684
 31
0.0
  0
LINE
  5
7C40
330
19
100
AcDbEntity
  8
1
100
AcDbLine
 10
4460.379202701377
 20
2930.995634060684
 30
0.0
 11
4570.379202701377
 21
2930.995634060684
 31
0.0
  0
LINE
  5
7C41
330
19
100
AcDbEntity
  8
1
100
AcDbLine
 10
4460.379202701377
 20
2702.395634060684
 30
0.0
 11
4570.379202701377
 21
2702.395634060684
 31
0.0
  0
LINE
  5
7C42
330
19
100
AcDbEntity
  8
1
100
AcDbLine
 10
4460.379202701377
 20
3516.795634060684
 30
0.0
 11
4460.379202701377
 21
2702.395634060684
 31
0.0
  0
LINE
  5
7C43
330
19
100
AcDbEntity
  8
1
100
AcDbLine
 10
4570.379202701377
 20
3516.795634060684
 30
0.0
 11
4570.379202701377
 21
2702.395634060684
 31
0.0
  0
LINE
  5
7C44
330
19
100
AcDbEntity
  8
1
100
AcDbLine
 10
4355.879202701371
 20
3631.695634060684
 30
0.0
 11
4355.879202701382
 21
2596.695634060684
 31
0.0
  0
LINE
  5
7C45
330
19
100
AcDbEntity
  8
1
100
AcDbLine
 10
4355.879202701371
 20
3631.695634060684
 30
0.0
 11
4607.879202701371
 21
3631.695634060684
 31
0.0
  0
LINE
  5
7C46
330
19
100
AcDbEntity
  8
1
100
AcDbLine
 10
4355.87920270138
 20
2596.695634060684
 30
0.0
 11
4607.87920270138
 21
2596.695634060684
 31
0.0
  0
LINE
  5
7C47
330
19
100
AcDbEntity
  8
1
100
AcDbLine
 10
4607.879202701371
 20
3631.695634060686
 30
0.0
 11
4607.879202701371
 21
3611.695634060684
 31
0.0
  0
LINE
  5
7C48
330
19
100
AcDbEntity
  8
1
100
AcDbLine
 10
4607.87920270138
 20
2616.695634060684
 30
0.0
 11
4607.87920270138
 21
2596.695634060687
 31
0.0
  0
POINT
  5
7C49
330
19
100
AcDbEntity
  8
1
100
AcDbPoint
 10
6235.379202701381
 20
3309.495634060684
 30
0.0
  0
DIMENSION
  5
7C4A
330
19
100
AcDbEntity
  8
3
100
AcDbDimension
280
     0
  2
*D4
 10
6519.051036687058
 20
3851.695634060684
 30
0.0
 11
6431.551036687058
 21
3351.695634060685
 31
0.0
 70
    32
  1
φ<>
 71
     5
 42
-1.0
 73
     0
 74
     0
 75
     0
  3
IGA
100
AcDbAlignedDimension
 13
6100.879202701377
 23
2851.695634060684
 33
0.0
 14
6100.879202701377
 24
3851.695634060684
 34
0.0
 50
90.0
100
AcDbRotatedDimension
1001
ACAD
1000
DSTYLE
1002
{
1070
   287
1070
     3
1070
    40
1040
35.0
1070
   143
1040
0.039
1070
   172
1070
     1
1070
   271
1070
     0
1070
   279
1070
     0
1070
   288
1070
     1
1002
}
  0
LINE
  5
7C4B
330
19
100
AcDbEntity
  8
1
100
AcDbLine
 10
4722.379202701377
 20
4031.695634060684
 30
0.0
 11
6148.379202701377
 21
4031.695634060684
 31
0.0
  0
LINE
  5
7C4C
330
19
100
AcDbEntity
  8
1
100
AcDbLine
 10
4775.379202701377
 20
3981.695634060685
 30
0.0
 11
6095.379202701376
 21
3981.695634060685
 31
0.0
  0
LINE
  5
7C4D
330
19
100
AcDbEntity
  8
1
100
AcDbLine
 10
4722.379202701377
 20
4027.695634060683
 30
0.0
 11
6148.379202701377
 21
4027.695634060683
 31
0.0
  0
DIMENSION
  5
7C4E
330
19
100
AcDbEntity
  8
3
100
AcDbDimension
280
     0
  2
*D5
 10
6095.379202701376
 20
4214.410636383898
 30
0.0
 11
5435.379202701376
 21
4301.910636383898
 31
0.0
 70
    32
 71
     5
 42
-1.0
 73
     0
 74
     0
 75
     0
  3
IGA
100
AcDbAlignedDimension
 13
4775.379202701377
 23
4031.695634060684
 33
0.0
 14
6095.379202701376
 24
4031.695634060684
 34
0.0
100
AcDbRotatedDimension
1001
ACAD
1000
DSTYLE
1002
{
1070
   287
1070
     3
1070
    40
1040
35.0
1070
   143
1040
0.039
1070
   172
1070
     1
1070
   271
1070
     0
1070
   279
1070
     0
1070
   288
1070
     1
1002
}
  0
POINT
  5
7C4F
330
19
100
AcDbEntity
  8
1
100
AcDbPoint
 10
4355.879202701371
 20
3631.695634060684
 30
0.0
  0
POINT
  5
7C50
330
19
100
AcDbEntity
  8
1
100
AcDbPoint
 10
6235.379202701381
 20
3309.495634060684
 30
0.0
  0
LINE
  5
7C57
330
19
100
AcDbEntity
  8
1
100
AcDbLine
 10
5174.87920270138
 20
3001.695634060684
 30
0.0
 11
4575.37920270138
 21
3001.695634060684
 31
0.0
  0
LINE
  5
7C58
330
19
100
AcDbEntity
  8
1
100
AcDbLine
 10
5174.87920270138
 20
2631.695634060684
 30
0.0
 11
4575.37920270138
 21
2631.695634060684
 31
0.0
  0
LINE
  5
7C59
330
19
100
AcDbEntity
  8
1
100
AcDbLine
 10
4575.37920270138
 20
3001.695634060684
 30
0.0
 11
4575.37920270138
 21
2631.695634060684
 31
0.0
  0
LINE
  5
7C5A
330
19
100
AcDbEntity
  8
1
100
AcDbLine
 10
4575.37920270138
 20
2789.195634060684
 30
0.0
 11
4570.379202701379
 21
2789.195634060684
 31
0.0
  0
LINE
  5
7C5B
330
19
100
AcDbEntity
  8
1
100
AcDbLine
 10
4575.37920270138
 20
2844.195634060684
 30
0.0
 11
4570.379202701379
 21
2844.195634060684
 31
0.0
  0
DIMENSION
  5
7C5D
330
19
100
AcDbEntity
  8
3
100
AcDbDimension
280
     0
  2
*D6
 10
1910.389207672693
 20
4490.838255680652
 30
0.0
 11
2447.389207672693
 21
4578.338255680652
 31
0.0
 70
    32
 71
     5
 42
-1.0
 73
     0
 74
     0
 75
     0
  3
IGA
100
AcDbAlignedDimension
 13
2984.389207672693
 23
4031.695634060684
 33
0.0
 14
1910.389207672693
 24
4091.311616558312
 34
0.0
100
AcDbRotatedDimension
1001
ACAD
1000
DSTYLE
1002
{
1070
   287
1070
     3
1070
    40
1040
35.0
1070
   143
1040
0.039
1070
   172
1070
     1
1070
   271
1070
     0
1070
   279
1070
     0
1070
   288
1070
     1
1002
}
  0
DIMENSION
  5
7C5E
330
19
100
AcDbEntity
  8
3
100
AcDbDimension
280
     0
  2
*D7
 10
1954.389207672693
 20
4232.855731054828
 30
0.0
 11
2469.389207672693
 21
4320.355731054827
 31
0.0
 70
    32
 71
     5
 42
-1.0
 73
     0
 74
     0
 75
     0
  3
IGA
100
AcDbAlignedDimension
 13
2984.389207672693
 23
4031.695634060684
 33
0.0
 14
1954.389207672693
 24
4031.695634060684
 34
0.0
100
AcDbRotatedDimension
1001
ACAD
1000
DSTYLE
1002
{
1070
   287
1070
     3
1070
    40
1040
35.0
1070
   143
1040
0.039
1070
   172
1070
     1
1070
   271
1070
     0
1070
   279
1070
     0
1070
   288
1070
     1
1002
}
  0
LINE
  5
7C5F
330
19
100
AcDbEntity
  8
1
100
AcDbLine
 10
3037.389207672694
 20
4027.695634060683
 30
0.0
 11
1901.389207672692
 21
4027.695634060687
 31
0.0
  0
LINE
  5
7C60
330
19
100
AcDbEntity
  8
1
100
AcDbLine
 10
2979.910451803386
 20
3981.695634060686
 30
0.0
 11
1954.389207672693
 21
3981.695634060685
 31
0.0
  0
LINE
  5
7C61
330
19
100
AcDbEntity
  8
1
100
AcDbLine
 10
3037.389207672694
 20
4031.695634060684
 30
0.0
 11
1901.389207672692
 21
4031.695634060684
 31
0.0
  0
DIMENSION
  5
7C62
330
19
100
AcDbEntity
  8
3
100
AcDbDimension
280
     0
  2
*D8
 10
1910.389207672693
 20
2115.993325816451
 30
0.0
 11
2697.889207672693
 21
2203.493325816451
 31
0.0
 70
    32
 71
     5
 42
-1.0
 73
     0
 74
     0
 75
     0
  3
IGA
100
AcDbAlignedDimension
 13
3485.389207672693
 23
2346.695634060685
 33
0.0
 14
1910.389207672693
 24
2346.695634060685
 34
0.0
100
AcDbRotatedDimension
1001
ACAD
1000
DSTYLE
1002
{
1070
   287
1070
     3
1070
    40
1040
35.0
1070
   143
1040
0.039
1070
   172
1070
     1
1070
   271
1070
     0
1070
   279
1070
     0
1070
   288
1070
     1
1002
}
  0
LINE
  5
7C63
330
19
100
AcDbEntity
  8
1
100
AcDbLine
 10
1814.977828244424
 20
3088.453029842455
 30
0.0
 11
3135.423123836196
 21
2609.862159317791
 31
0.0
  0
LINE
  5
7C64
330
19
100
AcDbEntity
  8
1
100
AcDbLine
 10
1853.115176109344
 20
3196.848305028245
 30
0.0
 11
3170.737955051913
 21
2709.493637038226
 31
0.0
  0
LINE
  5
7C65
330
19
100
AcDbEntity
  8
1
100
AcDbLine
 10
1978.697614370452
 20
3502.001893326269
 30
0.0
 11
3257.679643078834
 21
2920.753813552244
 31
0.0
  0
LINE
  5
7C66
330
19
100
AcDbEntity
  8
1
100
AcDbLine
 10
2027.903333498767
 20
3605.842108030585
 30
0.0
 11
3302.721735107464
 21
3016.382149322749
 31
0.0
  0
ARC
  5
7C67
330
19
100
AcDbEntity
  8
1
100
AcDbCircle
 10
1984.389207672693
 20
3425.695634060686
 30
0.0
 40
942.0
100
AcDbArc
 50
296.3672158861317
 51
355.4944154733556
  0
DIMENSION
  5
7C68
330
19
100
AcDbEntity
  8
3
100
AcDbDimension
280
     0
  2
*D9
 10
1190.389207672692
 20
4720.044246680072
 30
0.0
 11
2337.889207672692
 21
4807.544246680072
 31
0.0
 70
    32
 71
     5
 42
-1.0
 73
     0
 74
     0
 75
     0
  3
IGA
100
AcDbAlignedDimension
 13
3485.389207672693
 23
2581.695634060683
 33
0.0
 14
1190.389207672692
 24
3277.695634060685
 34
0.0
100
AcDbRotatedDimension
1001
ACAD
1000
DSTYLE
1002
{
1070
   287
1070
     3
1070
    40
1040
35.0
1070
   143
1040
0.039
1070
   172
1070
     1
1070
   271
1070
     0
1070
   279
1070
     0
1070
   288
1070
     1
1002
}
  0
LINE
  5
7C6A
330
19
100
AcDbEntity
  8
1
100
AcDbLine
 10
3485.389207672693
 20
2346.695634060685
 30
0.0
 11
1285.389207672692
 21
2346.695634060685
 31
0.0
  0
LINE
  5
7C6B
330
19
100
AcDbEntity
  8
1
100
AcDbLine
 10
3485.389207672693
 20
2411.695634060685
 30
0.0
 11
1285.389207672692
 21
2411.695634060685
 31
0.0
1001
ACAD
1000
ASC_BOUNDS
1002
{
1070
    19
1002
}
  0
LINE
  5
7C6C
330
19
100
AcDbEntity
  8
1
100
AcDbLine
 10
3485.389207672693
 20
2456.695634060685
 30
0.0
 11
1285.389207672692
 21
2456.695634060685
 31
0.0
1001
ACAD
1000
ASC_BOUNDS
1002
{
1070
    19
1002
}
  0
LINE
  5
7C6D
330
19
100
AcDbEntity
  8
2
100
AcDbLine
 10
1095.536512058748
 20
3351.695634060683
 30
0.0
 11
3058.186628778032
 21
3351.695634060684
 31
0.0
  0
LINE
  5
7C6E
330
19
100
AcDbEntity
  8
1
100
AcDbLine
 10
3485.389207672693
 20
2581.695634060683
 30
0.0
 11
1285.389207672692
 21
2581.695634060685
 31
0.0
  0
CIRCLE
  5
7C6F
330
19
100
AcDbEntity
  8
1
100
AcDbCircle
 10
3210.389207672692
 20
2816.695634060684
 30
0.0
 40
114.3
  0
ARC
  5
7C70
330
19
100
AcDbEntity
  8
1
100
AcDbCircle
 10
3210.389207672692
 20
2816.695634060684
 30
0.0
 40
220.0
100
AcDbArc
 50
250.077125061029
 51
65.1847738343935
  0
LINE
  5
7C71
330
19
100
AcDbEntity
  8
1
100
AcDbLine
 10
3420.805220698458
 20
2636.695634060683
 30
0.0
 11
3280.389207672693
 21
2636.695634060683
 31
0.0
  0
LINE
  5
7C72
330
19
100
AcDbEntity
  8
2
100
AcDbLine
 10
3577.075285915547
 20
2816.695634060684
 30
0.0
 11
2994.309675026736
 21
2816.695634060684
 31
0.0
  0
ARC
  5
7C73
330
19
100
AcDbEntity
  8
1
100
AcDbCircle
 10
3210.389207672692
 20
2816.695634060684
 30
0.0
 40
185.0
100
AcDbArc
 50
287.945251
 51
252.054749
  0
LINE
  5
7C74
330
19
100
AcDbEntity
  8
1
100
AcDbLine
 10
3485.389207672693
 20
2581.695634060685
 30
0.0
 11
3485.389207672693
 21
2456.695634060685
 31
0.0
  0
LINE
  5
7C75
330
19
100
AcDbEntity
  8
1
100
AcDbLine
 10
3485.389207672693
 20
2411.695634060685
 30
0.0
 11
3485.389207672693
 21
2346.695634060685
 31
0.0
  0
LINE
  5
7C78
330
19
100
AcDbEntity
  8
1
100
AcDbLine
 10
3372.389207672693
 20
2711.954667060683
 30
0.0
 11
3372.389207672693
 21
2636.695634060684
 31
0.0
  0
LINE
  5
7C79
330
19
100
AcDbEntity
  8
1
100
AcDbLine
 10
3435.389207672693
 20
2581.695634060683
 30
0.0
 11
3420.805220698458
 21
2636.695634060683
 31
0.0
  0
LINE
  5
7C7A
330
19
100
AcDbEntity
  8
1
100
AcDbLine
 10
3372.389207672693
 20
2711.954667060683
 30
0.0
 11
3366.005235672692
 21
2716.652421060684
 31
0.0
  0
LINE
  5
7C7B
330
19
100
AcDbEntity
  8
2
100
AcDbLine
 10
3210.389207672692
 20
3080.511308060684
 30
0.0
 11
3210.389207672692
 21
2346.695634060685
 31
0.0
  0
LINE
  5
7C7D
330
19
100
AcDbEntity
  8
1
100
AcDbLine
 10
3140.389207672693
 20
2636.695634060683
 30
0.0
 11
3000.173956459026
 21
2636.695634060683
 31
0.0
  0
LINE
  5
7C7E
330
19
100
AcDbEntity
  8
1
100
AcDbLine
 10
3280.389207672693
 20
2626.695634060683
 30
0.0
 11
3140.389207672693
 21
2626.695634060683
 31
0.0
  0
LINE
  5
7C80
330
19
100
AcDbEntity
  8
1
100
AcDbLine
 10
3153.389192672692
 20
2640.695634060684
 30
0.0
 11
3267.389207672692
 21
2640.695634060684
 31
0.0
  0
LINE
  5
7C82
330
19
100
AcDbEntity
  8
1
100
AcDbLine
 10
3280.389207672693
 20
2636.695634060683
 30
0.0
 11
3280.389207672693
 21
2626.695634060683
 31
0.0
  0
LINE
  5
7C83
330
19
100
AcDbEntity
  8
1
100
AcDbLine
 10
3048.389192672692
 20
2711.954667060683
 30
0.0
 11
3048.389192672692
 21
2636.695634060684
 31
0.0
  0
LINE
  5
7C85
330
19
100
AcDbEntity
  8
1
100
AcDbLine
 10
3140.389207672692
 20
2636.695634060683
 30
0.0
 11
3140.389207672692
 21
2626.695634060683
 31
0.0
  0
LINE
  5
7C86
330
19
100
AcDbEntity
  8
1
100
AcDbLine
 10
3048.389192672692
 20
2711.954667060683
 30
0.0
 11
3054.773164672693
 21
2716.652421060684
 31
0.0
  0
LINE
  5
7C87
330
19
100
AcDbEntity
  8
1
100
AcDbLine
 10
2985.389207672693
 20
2581.695634060683
 30
0.0
 11
3000.173956459026
 21
2636.695634060683
 31
0.0
  0
LINE
  5
7C88
330
19
100
AcDbEntity
  8
1
100
AcDbLine
 10
2984.389207672693
 20
4031.695634060684
 30
0.0
 11
2923.478127850116
 21
3351.695634060686
 31
0.0
  0
LINE
  5
7C89
330
19
100
AcDbEntity
  8
1
100
AcDbLine
 10
3037.389207672694
 20
4027.695634060683
 30
0.0
 11
3037.389207672694
 21
4031.695634060684
 31
0.0
  0
ARC
  5
7C8A
330
19
100
AcDbEntity
  8
1
100
AcDbCircle
 10
1910.389207672693
 20
3351.695634060683
 30
0.0
 40
550.0
100
AcDbArc
 50
294.1477399170222
 51
0.0000000000000254
  0
ARC
  5
7C8B
330
19
100
AcDbEntity
  8
1
100
AcDbCircle
 10
1910.389207672693
 20
3351.695634060683
 30
0.0
 40
500.0
100
AcDbArc
 50
296.743683950403
 51
0.0000000000000254
  0
LINE
  5
7C8C
330
19
100
AcDbEntity
  8
2
100
AcDbLine
 10
1910.389207672693
 20
4091.311616558312
 30
0.0
 11
1910.389207672693
 21
2346.695634060685
 31
0.0
  0
DIMENSION
  5
7C8D
330
19
100
AcDbEntity
  8
3
100
AcDbDimension
280
     0
  2
*D10
 10
951.6366271651023
 20
2456.695634060686
 30
0.0
 11
864.1366271651019
 21
2904.195634060684
 31
0.0
 70
    32
 71
     5
 42
-1.0
 73
     0
 74
     0
 75
     0
  3
IGA
100
AcDbAlignedDimension
 13
1095.536512058748
 23
3351.695634060683
 33
0.0
 14
1285.389207672692
 24
2456.695634060685
 34
0.0
 50
90.0
100
AcDbRotatedDimension
1001
ACAD
1000
DSTYLE
1002
{
1070
   287
1070
     3
1070
    40
1040
35.0
1070
   143
1040
0.039
1070
   172
1070
     1
1070
   271
1070
     0
1070
   279
1070
     0
1070
   288
1070
     1
1002
}
  0
ARC
  5
7C8E
330
19
100
AcDbEntity
  8
1
100
AcDbCircle
 10
1910.389207672693
 20
3351.695634060683
 30
0.0
 40
500.0
100
AcDbArc
 50
180.0
 51
243.256316049597
  0
ARC
  5
7C8F
330
19
100
AcDbEntity
  8
1
100
AcDbCircle
 10
1910.389207672693
 20
3351.695634060683
 30
0.0
 40
550.0
100
AcDbArc
 50
180.0
 51
245.8522600829777
  0
ARC
  5
7C90
330
19
100
AcDbEntity
  8
1
100
AcDbCircle
 10
1910.389207672693
 20
3351.695634060683
 30
0.0
 40
280.0
100
AcDbArc
 50
65.18477383439346
 51
250.077125061029
  0
ARC
  5
7C91
330
19
100
AcDbEntity
  8
1
100
AcDbCircle
 10
1910.389207672693
 20
3351.695634060683
 30
0.0
 40
500.0
100
AcDbArc
 50
0.0000000000000254
 51
180.0
  0
ARC
  5
7C92
330
19
100
AcDbEntity
  8
1
100
AcDbCircle
 10
1984.389207672692
 20
3277.695634060685
 30
0.0
 40
794.0
100
AcDbArc
 50
174.6523302501612
 51
241.231845462626
  0
ARC
  5
7C93
330
19
100
AcDbEntity
  8
1
100
AcDbCircle
 10
1910.389207672693
 20
3351.695634060683
 30
0.0
 40
550.0
100
AcDbArc
 50
247.2150933853279
 51
292.7849066146721
  0
ARC
  5
7C94
330
19
100
AcDbEntity
  8
1
100
AcDbCircle
 10
1910.389207672693
 20
3351.695634060683
 30
0.0
 40
500.0
100
AcDbArc
 50
244.7860234198974
 51
295.2139765801025
  0
DIMENSION
  5
7C95
330
19
100
AcDbEntity
  8
3
100
AcDbDimension
280
     0
  2
*D11
 10
1910.389207672693
 20
2114.367276180868
 30
0.0
 11
1597.889207672692
 21
2201.867276180868
 31
0.0
 70
    32
 71
     5
 42
-1.0
 73
     0
 74
     0
 75
     0
  3
IGA
100
AcDbAlignedDimension
 13
1285.389207672692
 23
2346.695634060685
 33
0.0
 14
1910.389207672693
 24
2346.695634060685
 34
0.0
100
AcDbRotatedDimension
1001
ACAD
1000
DSTYLE
1002
{
1070
   287
1070
     3
1070
    40
1040
35.0
1070
   143
1040
0.039
1070
   172
1070
     1
1070
   271
1070
     0
1070
   279
1070
     0
1070
   288
1070
     1
1002
}
  0
POINT
  5
7C96
330
19
100
AcDbEntity
  8
1
100
AcDbPoint
 10
2430.389207672694
 20
2456.695634060685
 30
0.0
  0
POINT
  5
7C97
330
19
100
AcDbEntity
  8
1
100
AcDbPoint
 10
2430.389207672694
 20
2456.695634060685
 30
0.0
  0
LINE
  5
7C98
330
19
100
AcDbEntity
  8
1
100
AcDbLine
 10
1285.389207672692
 20
2581.695634060685
 30
0.0
 11
1285.389207672692
 21
2456.695634060685
 31
0.0
  0
POINT
  5
7C99
330
19
100
AcDbEntity
  8
1
100
AcDbPoint
 10
1285.389207672692
 20
2411.695634060685
 30
0.0
  0
POINT
  5
7C9A
330
19
100
AcDbEntity
  8
1
100
AcDbPoint
 10
1285.389207672692
 20
2346.695634060685
 30
0.0
  0
POINT
  5
7C9B
330
19
100
AcDbEntity
  8
1
100
AcDbPoint
 10
1285.389207672692
 20
2411.695634060685
 30
0.0
  0
POINT
  5
7C9C
330
19
100
AcDbEntity
  8
1
100
AcDbPoint
 10
1285.389207672692
 20
2411.695634060685
 30
0.0
  0
POINT
  5
7C9D
330
19
100
AcDbEntity
  8
1
100
AcDbPoint
 10
1285.389207672692
 20
2346.695634060685
 30
0.0
  0
POINT
  5
7C9E
330
19
100
AcDbEntity
  8
1
100
AcDbPoint
 10
1285.389207672692
 20
2411.695634060685
 30
0.0
  0
POINT
  5
7C9F
330
19
100
AcDbEntity
  8
1
100
AcDbPoint
 10
1285.389207672692
 20
2411.695634060685
 30
0.0
  0
POINT
  5
7CA0
330
19
100
AcDbEntity
  8
1
100
AcDbPoint
 10
1285.389207672692
 20
2346.695634060685
 30
0.0
  0
POINT
  5
7CA1
330
19
100
AcDbEntity
  8
1
100
AcDbPoint
 10
1285.389207672692
 20
2411.695634060685
 30
0.0
  0
POINT
  5
7CA2
330
19
100
AcDbEntity
  8
1
100
AcDbPoint
 10
1285.389207672692
 20
2346.695634060685
 30
0.0
  0
POINT
  5
7CA3
330
19
100
AcDbEntity
  8
1
100
AcDbPoint
 10
1285.389207672692
 20
2411.695634060685
 30
0.0
  0
POINT
  5
7CA4
330
19
100
AcDbEntity
  8
1
100
AcDbPoint
 10
1285.389207672692
 20
2411.695634060685
 30
0.0
  0
LINE
  5
7CA5
330
19
100
AcDbEntity
  8
1
100
AcDbLine
 10
1285.389207672692
 20
2411.695634060685
 30
0.0
 11
1285.389207672692
 21
2346.695634060685
 31
0.0
  0
POINT
  5
7CA6
330
19
100
AcDbEntity
  8
1
100
AcDbPoint
 10
1285.389207672692
 20
2456.695634060685
 30
0.0
  0
POINT
  5
7CA7
330
19
100
AcDbEntity
  8
1
100
AcDbPoint
 10
1285.389207672692
 20
2456.695634060685
 30
0.0
  0
POINT
  5
7CA8
330
19
100
AcDbEntity
  8
1
100
AcDbPoint
 10
1285.389207672692
 20
2456.695634060685
 30
0.0
  0
POINT
  5
7CA9
330
19
100
AcDbEntity
  8
1
100
AcDbPoint
 10
1285.389207672692
 20
2456.695634060685
 30
0.0
  0
POINT
  5
7CAA
330
19
100
AcDbEntity
  8
1
100
AcDbPoint
 10
952.1842588969484
 20
2346.695634060685
 30
0.0
  0
DIMENSION
  5
7CAB
330
19
100
AcDbEntity
  8
3
100
AcDbDimension
280
     0
  2
*D12
 10
1190.389207672692
 20
4490.838255680652
 30
0.0
 11
1550.389207672693
 21
4578.338255680652
 31
0.0
 70
    32
 71
     5
 42
-1.0
 73
     0
 74
     0
 75
     0
  3
IGA
100
AcDbAlignedDimension
 13
1910.389207672693
 23
4091.311616558312
 33
0.0
 14
1190.389207672692
 24
3277.695634060685
 34
0.0
100
AcDbRotatedDimension
1001
ACAD
1000
DSTYLE
1002
{
1070
   287
1070
     3
1070
    40
1040
35.0
1070
   143
1040
0.039
1070
   172
1070
     1
1070
   271
1070
     0
1070
   279
1070
     0
1070
   288
1070
     1
1002
}
  0
DIMENSION
  5
7CAC
330
19
100
AcDbEntity
  8
3
100
AcDbDimension
280
     0
  2
*D13
 10
951.6366271651023
 20
3351.695634060683
 30
0.0
 11
864.1366271651017
 21
3691.695634060685
 31
0.0
 70
    32
 71
     5
 42
-1.0
 73
     0
 74
     0
 75
     0
  3
IGA
100
AcDbAlignedDimension
 13
1901.389207672692
 23
4031.695634060684
 33
0.0
 14
1095.536512058748
 24
3351.695634060683
 34
0.0
 50
90.0
100
AcDbRotatedDimension
1001
ACAD
1000
DSTYLE
1002
{
1070
   287
1070
     3
1070
    40
1040
35.0
1070
   143
1040
0.039
1070
   172
1070
     1
1070
   271
1070
     0
1070
   279
1070
     0
1070
   288
1070
     1
1002
}
  0
ARC
  5
7CAD
330
19
100
AcDbEntity
  8
1
100
AcDbCircle
 10
1910.389207672693
 20
3351.695634060683
 30
0.0
 40
550.0
100
AcDbArc
 50
0.0000000000000254
 51
180.0
  0
ARC
  5
7CAE
330
19
100
AcDbEntity
  8
1
100
AcDbCircle
 10
1849.889207672693
 20
3291.195634060686
 30
0.0
 40
659.4999999999999
100
AcDbArc
 50
84.73650479693302
 51
174.736504796933
  0
CIRCLE
  5
7CAF
330
19
100
AcDbEntity
  8
1
100
AcDbCircle
 10
1910.389207672693
 20
3351.695634060683
 30
0.0
 40
165.1
  0
LINE
  5
7CB0
330
19
100
AcDbEntity
  8
1
100
AcDbLine
 10
1954.389207672693
 20
3940.458826039835
 30
0.0
 11
1954.389207672693
 21
4031.695634060684
 31
0.0
  0
ARC
  5
7CB1
330
19
100
AcDbEntity
  8
1
100
AcDbCircle
 10
1849.889207672693
 20
3412.195634060685
 30
0.0
 40
538.4999999999999
100
AcDbArc
 50
78.81032543723749
 51
83.54925028514012
  0
LINE
  5
7CB2
330
19
100
AcDbEntity
  8
1
100
AcDbLine
 10
1901.389207672692
 20
4027.695634060687
 30
0.0
 11
1901.389207672692
 21
4031.695634060684
 31
0.0
  0
LINE
  5
7CB4
330
19
100
AcDbEntity
  8
1
100
AcDbLine
 10
3485.389207672693
 20
6723.070024192548
 30
0.0
 11
2984.389207672692
 21
6723.070024192548
 31
0.0
  0
LINE
  5
7CB5
330
19
100
AcDbEntity
  8
1
100
AcDbLine
 10
2984.389207672692
 20
7355.070024192548
 30
0.0
 11
1954.389207672691
 21
6035.070024192549
 31
0.0
  0
LINE
  5
7CB6
330
19
100
AcDbEntity
  8
1
100
AcDbLine
 10
1954.389207672691
 20
7355.070024192548
 30
0.0
 11
2984.389207672692
 21
6035.070024192548
 31
0.0
  0
DIMENSION
  5
7CB7
330
19
100
AcDbEntity
  8
3
100
AcDbDimension
280
     0
  2
*D14
 10
2535.389207672692
 20
7825.096671634627
 30
0.0
 11
3010.389207672692
 21
7912.596671634627
 31
0.0
 70
    32
 71
     5
 42
-1.0
 73
     0
 74
     0
 75
     0
  3
IGA
100
AcDbAlignedDimension
 13
3485.389207672693
 23
6723.070024192548
 33
0.0
 14
2535.389207672692
 24
7423.070024192547
 34
0.0
100
AcDbRotatedDimension
1001
ACAD
1000
DSTYLE
1002
{
1070
   287
1070
     3
1070
    40
1040
35.0
1070
   143
1040
0.039
1070
   172
1070
     1
1070
   271
1070
     0
1070
   279
1070
     0
1070
   288
1070
     1
1002
}
  0
LINE
  5
7CB8
330
19
100
AcDbEntity
  8
1
100
AcDbLine
 10
2984.389207672692
 20
6035.070024192548
 30
0.0
 11
1190.389207672691
 21
6035.070024192549
 31
0.0
  0
LINE
  5
7CB9
330
19
100
AcDbEntity
  8
1
100
AcDbLine
 10
2984.389207672692
 20
7355.070024192548
 30
0.0
 11
1190.389207672691
 21
7355.070024192547
 31
0.0
  0
LINE
  5
7CBA
330
19
100
AcDbEntity
  8
1
100
AcDbLine
 10
3485.389207672693
 20
5773.070024192548
 30
0.0
 11
1285.389207672692
 21
5773.070024192548
 31
0.0
  0
LINE
  5
7CBB
330
19
100
AcDbEntity
  8
2
100
AcDbLine
 10
2984.389207672692
 20
6695.070024192547
 30
0.0
 11
1131.746821439654
 21
6695.070024192547
 31
0.0
  0
DIMENSION
  5
7CBC
330
19
100
AcDbEntity
  8
3
100
AcDbDimension
280
     0
  2
*D15
 10
1285.389207672692
 20
5333.249364697356
 30
0.0
 11
2385.389207672691
 21
5333.249364697356
 31
0.0
 70
   160
 71
     5
 42
-1.0
 73
     0
 74
     0
 75
     0
  3
IGA
100
AcDbAlignedDimension
 13
3485.389207672693
 23
5773.070024192548
 33
0.0
 14
1285.389207672692
 24
5773.070024192548
 34
0.0
100
AcDbRotatedDimension
1001
ACAD
1000
DSTYLE
1002
{
1070
   287
1070
     3
1070
    40
1040
35.0
1070
   143
1040
0.039
1070
   172
1070
     1
1070
   271
1070
     0
1070
   279
1070
     0
1070
   288
1070
     1
1002
}
  0
LINE
  5
7CBD
330
19
100
AcDbEntity
  8
1
100
AcDbLine
 10
3430.389207672692
 20
5615.070024192547
 30
0.0
 11
1630.389207672692
 21
5615.070024192547
 31
0.0
  0
LINE
  5
7CBE
330
19
100
AcDbEntity
  8
1
100
AcDbLine
 10
3430.389207672692
 20
5845.070024192548
 30
0.0
 11
1630.389207672692
 21
5845.070024192548
 31
0.0
  0
LINE
  5
7CBF
330
19
100
AcDbEntity
  8
1
100
AcDbLine
 10
2984.389207672692
 20
7355.070024192548
 30
0.0
 11
2984.389207672692
 21
6035.070024192548
 31
0.0
  0
DIMENSION
  5
7CC0
330
19
100
AcDbEntity
  8
3
100
AcDbDimension
280
     0
  2
*D16
 10
3886.980698866842
 20
5773.070024192548
 30
0.0
 11
3799.480698866842
 21
6248.070024192549
 31
0.0
 70
    32
 71
     5
 42
-1.0
 73
     0
 74
     0
 75
     0
  3
IGA
100
AcDbAlignedDimension
 13
3485.389207672693
 23
6723.070024192548
 33
0.0
 14
3485.389207672693
 24
5773.070024192548
 34
0.0
 50
270.0
100
AcDbRotatedDimension
1001
ACAD
1000
DSTYLE
1002
{
1070
   287
1070
     3
1070
    40
1040
35.0
1070
   143
1040
0.039
1070
   172
1070
     1
1070
   271
1070
     0
1070
   279
1070
     0
1070
   288
1070
     1
1002
}
  0
LINE
  5
7CC1
330
19
100
AcDbEntity
  8
2
100
AcDbLine
 10
3210.389207672692
 20
6412.070024192551
 30
0.0
 11
3210.389207672692
 21
5615.070024192547
 31
0.0
  0
LINE
  5
7CC2
330
19
100
AcDbEntity
  8
1
100
AcDbLine
 10
3096.389207672692
 20
5807.570024192548
 30
0.0
 11
3096.389207672692
 21
5697.570024192548
 31
0.0
  0
LINE
  5
7CC3
330
19
100
AcDbEntity
  8
1
100
AcDbLine
 10
3324.389207672691
 20
5807.570024192548
 30
0.0
 11
3324.389207672691
 21
5697.570024192548
 31
0.0
  0
LINE
  5
7CC4
330
19
100
AcDbEntity
  8
1
100
AcDbLine
 10
3430.389207672692
 20
5845.070024192549
 30
0.0
 11
3430.389207672692
 21
5615.070024192549
 31
0.0
  0
LINE
  5
7CC5
330
19
100
AcDbEntity
  8
1
100
AcDbLine
 10
3324.389207672691
 20
5697.570024192549
 30
0.0
 11
3096.389207672692
 21
5697.570024192549
 31
0.0
  0
LINE
  5
7CC6
330
19
100
AcDbEntity
  8
1
100
AcDbLine
 10
3324.389207672691
 20
5807.570024192549
 30
0.0
 11
3096.389207672692
 21
5807.570024192549
 31
0.0
  0
LINE
  5
7CC7
330
19
100
AcDbEntity
  8
1
100
AcDbLine
 10
3395.389207672692
 20
5812.57002419255
 30
0.0
 11
3025.389207672692
 21
5812.57002419255
 31
0.0
  0
LINE
  5
7CC8
330
19
100
AcDbEntity
  8
1
100
AcDbLine
 10
3395.389207672692
 20
6412.070024192551
 30
0.0
 11
3025.389207672692
 21
6412.070024192551
 31
0.0
  0
LINE
  5
7CC9
330
19
100
AcDbEntity
  8
1
100
AcDbLine
 10
3485.389207672693
 20
6723.070024192548
 30
0.0
 11
3485.389207672693
 21
5773.070024192548
 31
0.0
  0
LINE
  5
7CCA
330
19
100
AcDbEntity
  8
1
100
AcDbLine
 10
3395.389207672692
 20
6412.070024192551
 30
0.0
 11
3395.389207672692
 21
5812.57002419255
 31
0.0
  0
LINE
  5
7CCB
330
19
100
AcDbEntity
  8
1
100
AcDbLine
 10
3025.389207672692
 20
6412.070024192551
 30
0.0
 11
3025.389207672692
 21
5812.57002419255
 31
0.0
  0
LINE
  5
7CCC
330
19
100
AcDbEntity
  8
1
100
AcDbLine
 10
3237.889207672691
 20
5812.57002419255
 30
0.0
 11
3237.889207672691
 21
5807.570024192549
 31
0.0
  0
LINE
  5
7CCD
330
19
100
AcDbEntity
  8
1
100
AcDbLine
 10
3182.889207672692
 20
5812.57002419255
 30
0.0
 11
3182.889207672692
 21
5807.570024192549
 31
0.0
  0
LINE
  5
7CCE
330
19
100
AcDbEntity
  8
1
100
AcDbLine
 10
1954.389207672691
 20
7355.070024192548
 30
0.0
 11
1954.389207672691
 21
6035.070024192548
 31
0.0
  0
LINE
  5
7CCF
330
19
100
AcDbEntity
  8
2
100
AcDbLine
 10
1910.389207672691
 20
7512.159370371596
 30
0.0
 11
1910.389207672692
 21
5615.070024192547
 31
0.0
  0
LINE
  5
7CD0
330
19
100
AcDbEntity
  8
1
100
AcDbLine
 10
2535.389207672692
 20
7423.070024192547
 30
0.0
 11
2535.389207672692
 21
7355.070024192548
 31
0.0
  0
LINE
  5
7CD1
330
19
100
AcDbEntity
  8
1
100
AcDbLine
 10
1190.389207672691
 20
7355.070024192547
 30
0.0
 11
1190.389207672691
 21
6035.070024192549
 31
0.0
  0
LINE
  5
7CD2
330
19
100
AcDbEntity
  8
1
100
AcDbLine
 10
1285.389207672692
 20
7423.070024192547
 30
0.0
 11
1285.389207672692
 21
7355.070024192547
 31
0.0
  0
DIMENSION
  5
7CD3
330
19
100
AcDbEntity
  8
3
100
AcDbDimension
280
     0
  2
*D17
 10
883.7281452593996
 20
5773.070024192548
 30
0.0
 11
796.2281452593989
 21
6598.070024192548
 31
0.0
 70
    32
 71
     5
 42
-1.0
 73
     0
 74
     0
 75
     0
  3
IGA
100
AcDbAlignedDimension
 13
1285.389207672692
 23
7423.070024192547
 33
0.0
 14
1285.389207672692
 24
5773.070024192548
 34
0.0
 50
270.0
100
AcDbRotatedDimension
1001
ACAD
1000
DSTYLE
1002
{
1070
   287
1070
     3
1070
    40
1040
35.0
1070
   143
1040
0.039
1070
   172
1070
     1
1070
   271
1070
     0
1070
   279
1070
     0
1070
   288
1070
     1
1002
}
  0
LINE
  5
7CD4
330
19
100
AcDbEntity
  8
1
100
AcDbLine
 10
2075.389207672692
 20
5807.570024192546
 30
0.0
 11
2075.389207672692
 21
5697.570024192548
 31
0.0
  0
LINE
  5
7CD5
330
19
100
AcDbEntity
  8
1
100
AcDbLine
 10
1745.389207672691
 20
5807.570024192546
 30
0.0
 11
1745.389207672691
 21
5697.570024192548
 31
0.0
  0
LINE
  5
7CD6
330
19
100
AcDbEntity
  8
1
100
AcDbLine
 10
2075.389207672692
 20
5697.570024192548
 30
0.0
 11
1745.389207672691
 21
5697.570024192548
 31
0.0
  0
LINE
  5
7CD7
330
19
100
AcDbEntity
  8
1
100
AcDbLine
 10
2075.389207672692
 20
5807.570024192548
 30
0.0
 11
1745.389207672691
 21
5807.570024192548
 31
0.0
  0
LINE
  5
7CD8
330
19
100
AcDbEntity
  8
1
100
AcDbLine
 10
1870.389207672691
 20
6035.070024192549
 30
0.0
 11
1870.389207672691
 21
5807.570024192548
 31
0.0
  0
LINE
  5
7CD9
330
19
100
AcDbEntity
  8
1
100
AcDbLine
 10
1950.389207672692
 20
6035.070024192549
 30
0.0
 11
1950.389207672692
 21
5807.570024192548
 31
0.0
  0
LINE
  5
7CDA
330
19
100
AcDbEntity
  8
1
100
AcDbLine
 10
1630.389207672692
 20
5845.070024192548
 30
0.0
 11
1630.389207672692
 21
5615.070024192547
 31
0.0
  0
LINE
  5
7CDB
330
19
100
AcDbEntity
  8
1
100
AcDbLine
 10
2535.389207672692
 20
7423.070024192547
 30
0.0
 11
1285.389207672692
 21
7423.070024192547
 31
0.0
  0
DIMENSION
  5
7CDC
330
19
100
AcDbEntity
  8
3
100
AcDbDimension
280
     0
  2
*D18
 10
1285.389207672692
 20
7825.096671634627
 30
0.0
 11
1910.389207672691
 21
7912.596671634627
 31
0.0
 70
    32
 71
     5
 42
-1.0
 73
     0
 74
     0
 75
     0
  3
IGA
100
AcDbAlignedDimension
 13
2535.389207672692
 23
7423.070024192547
 33
0.0
 14
1285.389207672692
 24
7423.070024192547
 34
0.0
100
AcDbRotatedDimension
1001
ACAD
1000
DSTYLE
1002
{
1070
   287
1070
     3
1070
    40
1040
35.0
1070
   143
1040
0.039
1070
   172
1070
     1
1070
   271
1070
     0
1070
   279
1070
     0
1070
   288
1070
     1
1002
}
  0
LINE
  5
7CDD
330
19
100
AcDbEntity
  8
1
100
AcDbLine
 10
5174.87920270138
 20
3001.695634060684
 30
0.0
 11
5174.87920270138
 21
2631.695634060684
 31
0.0
  0
LINE
  5
7CDE
330
19
100
AcDbEntity
  8
1
100
AcDbLine
 10
5055.879202701381
 20
2631.695634060684
 30
0.0
 11
5055.879202701381
 21
2581.695634060684
 31
0.0
  0
LINE
  5
7CDF
330
19
100
AcDbEntity
  8
1
100
AcDbLine
 10
4605.87920270138
 20
2631.695634060684
 30
0.0
 11
4605.87920270138
 21
2581.695634060684
 31
0.0
  0
LINE
  5
7CE0
330
19
100
AcDbEntity
  8
1
100
AcDbLine
 10
1285.389207672692
 20
6035.070024192549
 30
0.0
 11
1285.389207672692
 21
5773.070024192548
 31
0.0
  0
DIMENSION
  5
7CE1
330
19
100
AcDbEntity
  8
3
100
AcDbDimension
280
     0
  2
*D19
 10
951.6405112920583
 20
2411.695634060685
 30
0.0
 11
784.1405112920583
 21
2527.713681206995
 31
0.0
 70
   160
  1
(<>)
 71
     5
 42
-1.0
 73
     0
 74
     0
 75
     0
  3
IGA
100
AcDbAlignedDimension
 13
1285.389207672692
 23
2456.695634060685
 33
0.0
 14
1285.389207672692
 24
2411.695634060685
 34
0.0
 50
90.0
100
AcDbRotatedDimension
1001
ACAD
1000
DSTYLE
1002
{
1070
   288
1070
     1
1070
   172
1070
     1
1070
    40
1040
35.0
1070
   271
1070
     0
1070
     7
1000
_DOT
1070
   143
1040
0.039
1002
}
  0
DIMENSION
  5
7CE2
330
19
100
AcDbEntity
  8
3
100
AcDbDimension
280
     0
  2
*D20
 10
951.6366271651023
 20
2346.695634060685
 30
0.0
 11
864.1366271651017
 21
2086.695634060685
 31
0.0
 70
    32
 71
     5
 42
-1.0
 73
     0
 74
     0
 75
     0
  3
IGA
100
AcDbAlignedDimension
 13
1285.389207672692
 23
2411.695634060685
 33
0.0
 14
1285.389207672692
 24
2346.695634060685
 34
0.0
 50
90.0
100
AcDbRotatedDimension
1001
ACAD
1000
DSTYLE
1002
{
1070
   287
1070
     3
1070
    40
1040
35.0
1070
   143
1040
0.039
1070
   172
1070
     1
1070
   271
1070
     0
1070
   279
1070
     0
1070
   288
1070
     1
1070
     6
1000
DOT
1002
}
  0
DIMENSION
  5
7CE3
330
19
100
AcDbEntity
  8
3
100
AcDbDimension
280
     0
  2
*D21
 10
5435.379202701376
 20
4446.678532444511
 30
0.0
 11
5835.379202701377
 21
4561.678532444512
 31
0.0
 70
    32
  1
(<>)
 71
     5
 42
800.0
 73
     0
 74
     0
 75
     0
  3
IGA
100
AcDbAlignedDimension
 13
6235.379202701377
 23
3309.495634060684
 33
0.0
 14
5435.379202701376
 24
4381.063146331728
 34
0.0
100
AcDbRotatedDimension
1001
ACAD
1000
DSTYLE
1002
{
1070
   287
1070
     3
1070
    40
1040
35.0
1070
   143
1040
0.039
1070
   172
1070
     1
1070
   271
1070
     0
1070
   279
1070
     0
1070
   288
1070
     1
1002
}
  0
DIMENSION
  5
7CE4
330
19
100
AcDbEntity
  8
3
100
AcDbDimension
280
     0
  2
*D22
 10
4355.879202701371
 20
4446.678532444511
 30
0.0
 11
4895.629202701375
 21
4561.678532444512
 31
0.0
 70
    32
  1
(<>)
 71
     5
 42
1079.500000000005
 73
     0
 74
     0
 75
     0
  3
IGA
100
AcDbAlignedDimension
 13
5435.379202701376
 23
4381.063146331728
 33
0.0
 14
4355.879202701371
 24
3631.695634060684
 34
0.0
100
AcDbRotatedDimension
1001
ACAD
1000
DSTYLE
1002
{
1070
   287
1070
     3
1070
    40
1040
35.0
1070
   143
1040
0.039
1070
   172
1070
     1
1070
   271
1070
     0
1070
   279
1070
     0
1070
   288
1070
     1
1002
}
  0
LINE
  5
8090
330
19
100
AcDbEntity
  8
4
100
AcDbLine
 10
6475.0
 20
1411.801532643661
 30
0.0
 11
6475.0
 21
711.8015326436617
 31
0.0
  0
LINE
  5
8091
330
19
100
AcDbEntity
  8
4
100
AcDbLine
 10
4025.0
 20
1411.801532643661
 30
0.0
 11
4025.0
 21
711.8015326436617
 31
0.0
  0
LINE
  5
8092
330
19
100
AcDbEntity
  8
4
100
AcDbLine
 10
2275.0
 20
1411.801532643661
 30
0.0
 11
2275.0
 21
711.8015326436617
 31
0.0
  0
LINE
  5
8095
330
19
100
AcDbEntity
  8
4
100
AcDbLine
 10
2275.0
 20
711.8015326436616
 30
0.0
 11
6475.0
 21
711.8015326436616
 31
0.0
  0
LINE
  5
8096
330
19
100
AcDbEntity
  8
4
100
AcDbLine
 10
2275.0
 20
1061.801532643661
 30
0.0
 11
6475.0
 21
1061.801532643661
 31
0.0
  0
TEXT
  5
8097
330
19
100
AcDbEntity
  8
4
100
AcDbText
 10
2409.757282964156
 20
1172.202123176806
 30
0.0
 40
175.0
  1
機器名称
100
AcDbText
  0
TEXT
  5
8098
330
19
100
AcDbEntity
  8
4
100
AcDbText
 10
2401.903371086792
 20
787.5595812056999
 30
0.0
 40
175.0
  1
機器型番
100
AcDbText
  0
TEXT
  5
8099
330
19
100
AcDbEntity
  8
4
100
AcDbText
 10
4131.017483735045
 20
1138.68316184186
 30
0.0
 40
140.0
  1
ミツヤリミットロードファン
100
AcDbText
  0
TEXT
  5
809A
330
19
100
AcDbEntity
  8
4
100
AcDbText
 10
4153.290734549182
 20
771.8600776234634
 30
0.0
 40
175.0
  1
LL#6-5
100
AcDbText
  0
TEXT
  5
809C
330
19
100
AcDbEntity
  8
4
100
AcDbText
 10
2834.08263910361
 20
8342.000944663805
 30
0.0
 40
188.9999999999999
  1
床置防振ベット
100
AcDbText
  0
TEXT
  5
809D
330
19
100
AcDbEntity
  8
4
100
AcDbText
 10
1106.586576653062
 20
8868.583416697545
 30
0.0
 40
252.0
  1
遠心式両吸込両持リミットロードファン
100
AcDbText
  0
LINE
  5
809E
330
19
100
AcDbEntity
  8
4
100
AcDbLine
 10
875.0
 20
8642.930639926817
 30
0.0
 11
6475.0
 21
8642.930639926817
 31
0.0
  0
LINE
  5
809F
330
19
100
AcDbEntity
  8
4
100
AcDbLine
 10
875.0
 20
9342.930639926818
 30
0.0
 11
6475.0
 21
9342.930639926818
 31
0.0
  0
LINE
  5
80A0
330
19
100
AcDbEntity
  8
4
100
AcDbLine
 10
2275.0
 20
1411.801532643661
 30
0.0
 11
6475.0
 21
1411.801532643661
 31
0.0
  0
LINE
  5
80A1
330
19
100
AcDbEntity
  8
4
100
AcDbLine
 10
875.0
 20
9342.930639926818
 30
0.0
 11
875.0
 21
8642.930639926817
 31
0.0
  0
TEXT
  5
80A2
330
19
100
AcDbEntity
  8
4
100
AcDbText
 10
1308.576726254152
 20
8338.118171412203
 30
0.0
 40
188.9999999999999
  1
左回転上向
100
AcDbText
  0
TEXT
  5
80A3
330
19
100
AcDbEntity
  8
4
100
AcDbText
 10
5141.393457372515
 20
9471.21378523358
 30
0.0
 40
196.0
  1
No.
100
AcDbText
  0
TEXT
  5
80A4
330
19
100
AcDbEntity
  8
4
100
AcDbText
 10
4589.536219100046
 20
8342.000944663805
 30
0.0
 40
188.9999999999999
  1
縮尺：1/35
100
AcDbText
  0
LINE
  5
80A5
330
19
100
AcDbEntity
  8
4
100
AcDbLine
 10
6475.0
 20
9342.930639926818
 30
0.0
 11
6475.0
 21
8642.930639926817
 31
0.0
  0
LINE
  5
80A6
330
19
100
AcDbEntity
  8
4
100
AcDbLine
 10
7350.0
 20
10325.0
 30
0.0
 11
7350.0
 21
10325.0
 31
0.0
  0
LINE
  5
80A7
330
19
100
AcDbEntity
  8
4
100
AcDbLine
 10
5042.160978259526
 20
9384.422540938905
 30
0.0
 11
5042.160978259526
 21
9753.282915424135
 31
0.0
  0
LINE
  5
80A8
330
19
100
AcDbEntity
  8
4
100
AcDbLine
 10
5042.160978259526
 20
9753.282915424135
 30
0.0
 11
6475.0
 21
9753.282915424135
 31
0.0
  0
LINE
  5
80A9
330
19
100
AcDbEntity
  8
4
100
AcDbLine
 10
6475.0
 20
9753.282915424135
 30
0.0
 11
6475.0
 21
9384.422540938905
 31
0.0
  0
LINE
  5
80AA
330
19
100
AcDbEntity
  8
4
100
AcDbLine
 10
6475.0
 20
9384.422540938905
 30
0.0
 11
5042.160978259526
 21
9384.422540938905
 31
0.0
  0
LINE
  5
80AB
330
19
100
AcDbEntity
  8
4
100
AcDbLine
 10
0.0
 20
0.0
 30
0.0
 11
0.0
 21
10325.0
 31
0.0
  0
LINE
  5
80AC
330
19
100
AcDbEntity
  8
4
100
AcDbLine
 10
0.0
 20
10325.0
 30
0.0
 11
7350.0
 21
10325.0
 31
0.0
  0
LINE
  5
80AD
330
19
100
AcDbEntity
  8
4
100
AcDbLine
 10
7350.0
 20
10325.0
 30
0.0
 11
7350.0
 21
0.0
 31
0.0
  0
LINE
  5
80AE
330
19
100
AcDbEntity
  8
4
100
AcDbLine
 10
7350.0
 20
0.0
 30
0.0
 11
0.0
 21
0.0
 31
0.0
  0
DIMENSION
  5
8162
330
19
100
AcDbEntity
  8
3
100
AcDbDimension
280
     0
  2
*D24
 10
656.4012046720454
 20
2346.695634060685
 30
0.0
 11
541.4012046720454
 21
3189.195634060685
 31
0.0
 70
    32
 71
     5
 42
-1.0
 73
     0
 74
     0
 75
     0
  3
IGA
100
AcDbAlignedDimension
 13
1901.389207672692
 23
4031.695634060684
 33
0.0
 14
1285.389207672692
 24
2346.695634060685
 34
0.0
 50
90.0
100
AcDbRotatedDimension
1001
ACAD
1000
DSTYLE
1002
{
1070
   172
1070
     1
1070
    40
1040
35.0
1070
     3
1000
(<>)
1070
   271
1070
     0
1070
   143
1040
0.039
1002
}
  0
ENDSEC
  0
SECTION
  2
OBJECTS
  0
DICTIONARY
  5
C
330
0
100
AcDbDictionary
281
     1
  3
ACAD_CIP_PREVIOUS_PRODUCT_INFO
350
82B3
  3
ACAD_COLOR
350
8296
  3
ACAD_DETAILVIEWSTYLE
350
82AF
  3
ACAD_GROUP
350
D
  3
ACAD_LAYOUT
350
816D
  3
ACAD_MATERIAL
350
8264
  3
ACAD_MLEADERSTYLE
350
82AB
  3
ACAD_MLINESTYLE
350
E
  3
ACAD_PLOTSETTINGS
350
816E
  3
ACAD_PLOTSTYLENAME
350
816B
  3
ACAD_SCALELIST
350
8299
  3
ACAD_SECTIONVIEWSTYLE
350
82AD
  3
ACAD_TABLESTYLE
350
8297
  3
ACAD_VISUALSTYLE
350
827D
  3
ACDB_RECOMPOSE_DATA
350
8316
  3
AcDbVariableDictionary
350
825B
  3
AcDsDecomposeData
350
831C
  0
DICTIONARY
  5
82FA
330
2
100
AcDbDictionary
280
     1
281
     1
  3
ACAD_LAYERSTATES
360
82FB
  0
DICTIONARY
  5
82ED
330
F
100
AcDbDictionary
280
     1
281
     1
  3
ADSK_XREC_LAYER_RECONCILED
360
82EE
  0
DICTIONARY
  5
82EF
330
31
100
AcDbDictionary
280
     1
281
     1
  3
ADSK_XREC_LAYER_RECONCILED
360
82F0
  0
DICTIONARY
  5
82F1
330
76D0
100
AcDbDictionary
280
     1
281
     1
  3
ADSK_XREC_LAYER_RECONCILED
360
82F2
  0
DICTIONARY
  5
82F3
330
76D1
100
AcDbDictionary
280
     1
281
     1
  3
ADSK_XREC_LAYER_RECONCILED
360
82F4
  0
DICTIONARY
  5
82F5
330
76D2
100
AcDbDictionary
280
     1
281
     1
  3
ADSK_XREC_LAYER_RECONCILED
360
82F6
  0
DICTIONARY
  5
819A
330
19
100
AcDbDictionary
280
     1
281
     1
  3
ACAD_LAYOUTSELFREF
360
819B
  0
DICTIONARY
  5
8198
330
16
100
AcDbDictionary
280
     1
281
     1
  3
ACAD_LAYOUTSELFREF
360
8199
  0
XRECORD
  5
82B3
102
{ACAD_REACTORS
330
C
102
}
330
C
100
AcDbXrecord
280
     1
300
ACDLT
300
2023
300

  0
DICTIONARY
  5
8296
102
{ACAD_REACTORS
330
C
102
}
330
C
100
AcDbDictionary
281
     1
  0
DICTIONARY
  5
82AF
102
{ACAD_REACTORS
330
C
102
}
330
C
100
AcDbDictionary
281
     1
  3
Metric50
350
82B0
  0
DICTIONARY
  5
D
102
{ACAD_REACTORS
330
C
102
}
330
C
100
AcDbDictionary
281
     1
  0
DICTIONARY
  5
816D
102
{ACAD_REACTORS
330
C
102
}
330
C
100
AcDbDictionary
281
     1
  3
Model
350
816F
  3
ﾚｲｱｳﾄ1
350
8170
  0
DICTIONARY
  5
8264
102
{ACAD_REACTORS
330
C
102
}
330
C
100
AcDbDictionary
281
     1
  3
ByBlock
350
826D
  3
ByLayer
350
8265
  3
Global
350
8275
  0
DICTIONARY
  5
82AB
102
{ACAD_REACTORS
330
C
102
}
330
C
100
AcDbDictionary
281
     1
  3
Standard
350
82AC
  0
DICTIONARY
  5
E
102
{ACAD_REACTORS
330
C
102
}
330
C
100
AcDbDictionary
281
     1
  3
STANDARD
350
1C
  0
DICTIONARY
  5
816E
102
{ACAD_REACTORS
330
C
102
}
330
C
100
AcDbDictionary
281
     1
  0
ACDBDICTIONARYWDFLT
  5
816B
102
{ACAD_REACTORS
330
C
102
}
330
C
100
AcDbDictionary
281
     1
  3
Normal
350
816C
100
AcDbDictionaryWithDefault
340
816C
  0
DICTIONARY
  5
8299
102
{ACAD_REACTORS
330
C
102
}
330
C
100
AcDbDictionary
281
     1
  3
A0
350
829A
  3
A1
350
829B
  3
A2
350
829C
  3
A3
350
829D
  3
A4
350
829E
  3
A5
350
829F
  3
A6
350
82A0
  3
A7
350
82A1
  3
A8
350
82A2
  3
A9
350
82A3
  3
B0
350
82A4
  3
B1
350
82A5
  3
B2
350
82A6
  3
B3
350
82A7
  3
B4
350
82A8
  3
B5
350
82A9
  3
B6
350
82AA
  0
DICTIONARY
  5
82AD
102
{ACAD_REACTORS
330
C
102
}
330
C
100
AcDbDictionary
281
     1
  3
Metric50
350
82AE
  0
DICTIONARY
  5
8297
102
{ACAD_REACTORS
330
C
102
}
330
C
100
AcDbDictionary
281
     1
  3
Standard
350
8298
  0
DICTIONARY
  5
827D
102
{ACAD_REACTORS
330
C
102
}
330
C
100
AcDbDictionary
281
     1
  3
2dWireframe
350
8283
  3
Basic
350
8282
  3
Brighten
350
8289
  3
ColorChange
350
828D
  3
Conceptual
350
8286
  3
Dim
350
8288
  3
EdgeColorOff
350
8295
  3
Facepattern
350
828C
  3
Flat
350
827E
  3
FlatWithEdges
350
827F
  3
Gouraud
350
8280
  3
GouraudWithEdges
350
8281
  3
Hidden
350
8285
  3
JitterOff
350
8293
  3
Linepattern
350
828B
  3
OverhangOff
350
8294
  3
Realistic
350
8287
  3
Shaded
350
8292
  3
Shaded with edges
350
8291
  3
Shades of Gray
350
828E
  3
Sketchy
350
828F
  3
Thicken
350
828A
  3
Wireframe
350
8284
  3
X-Ray
350
8290
  0
XRECORD
  5
8316
102
{ACAD_REACTORS
330
C
102
}
330
C
100
AcDbXrecord
280
     1
 90
        1
330
8298
  0
DICTIONARY
  5
825B
102
{ACAD_REACTORS
330
C
102
}
330
C
100
AcDbDictionary
281
     1
  3
CANNOSCALE
350
830B
  3
CMLEADERSTYLE
350
8307
  3
CTABLESTYLE
350
8306
  3
CVIEWDETAILSTYLE
350
8308
  3
CVIEWSECTIONSTYLE
350
8309
  3
DIMASSOC
350
825C
  3
LAYEREVAL
350
830D
  3
LAYERNOTIFY
350
830E
  3
LIGHTINGUNITS
350
830C
  3
MARKUPASSISTMODE
350
8313
  3
MSLTSCALE
350
830A
  0
DICTIONARY
  5
831C
102
{ACAD_REACTORS
330
C
102
}
330
C
100
AcDbDictionary
281
     1
  3
AcDsRecords
350
831E
  3
AcDsSchemas
350
831D
1001
ACAD
1070
     2
  0
DICTIONARY
  5
82FB
102
{ACAD_REACTORS
330
82FA
102
}
330
82FA
100
AcDbDictionary
281
     1
  0
XRECORD
  5
82EE
102
{ACAD_REACTORS
330
82ED
102
}
330
82ED
100
AcDbXrecord
280
     1
290
     1
  0
XRECORD
  5
82F0
102
{ACAD_REACTORS
330
82EF
102
}
330
82EF
100
AcDbXrecord
280
     1
290
     1
  0
XRECORD
  5
82F2
102
{ACAD_REACTORS
330
82F1
102
}
330
82F1
100
AcDbXrecord
280
     1
290
     1
  0
XRECORD
  5
82F4
102
{ACAD_REACTORS
330
82F3
102
}
330
82F3
100
AcDbXrecord
280
     1
290
     1
  0
XRECORD
  5
82F6
102
{ACAD_REACTORS
330
82F5
102
}
330
82F5
100
AcDbXrecord
280
     1
290
     1
  0
XRECORD
  5
819B
102
{ACAD_REACTORS
330
819A
102
}
330
819A
100
AcDbXrecord
280
     1
340
19
  0
XRECORD
  5
8199
102
{ACAD_REACTORS
330
8198
102
}
330
8198
100
AcDbXrecord
280
     1
340
16
  0
ACDBDETAILVIEWSTYLE
  5
82B0
102
{ACAD_XDICTIONARY
360
8321
102
}
102
{ACAD_REACTORS
330
82AF
102
}
330
82AF
100
AcDbModelDocViewStyle
 70
     0
  3
Metric50
290
     0
100
AcDbDetailViewStyle
 70
     0
 71
     0
 90
        3
 71
     1
340
10
 62
   256
 40
5.0
340
0
 62
   256
 40
5.0
300

 40
0.0
280
     1
 71
     2
340
15
 90
       25
 62
   256
 71
     3
340
10
 62
   256
 40
5.0
 90
        0
 40
15.0
 90
        1
300
%<\AcVar ViewDetailId>% (%<\AcVar ViewScale \f "%sn">%)
 71
     4
340
15
 90
       25
 62
   256
340
15
 90
       25
 62
   256
280
     0
  0
LAYOUT
  5
816F
102
{ACAD_REACTORS
330
816D
102
}
330
816D
100
AcDbPlotSettings
  1

  2
\\Txbo34x8944cqyd\EPSON LP-6100
  4

  6

 40
0.0
 41
0.0
 42
0.0
 43
0.0
 44
0.0
 45
0.0
 46
0.0
 47
0.0
 48
0.0
 49
0.0
140
0.0
141
0.0
142
1.0
143
1.0
 70
  1712
 72
     0
 73
     0
 74
     0
  7
GOD2000TABLE.ctb
 75
     0
147
1.0
 76
     0
 77
     2
 78
   300
148
0.0
149
0.0
100
AcDbLayout
  1
Model
 70
     1
 71
     0
 10
0.0
 20
0.0
 11
12.0
 21
9.0
 12
0.0
 22
0.0
 32
0.0
 14
0.0
 24
0.0
 34
0.0
 15
0.0
 25
0.0
 35
0.0
146
0.0
 13
0.0
 23
0.0
 33
0.0
 16
1.0
 26
0.0
 36
0.0
 17
0.0
 27
1.0
 37
0.0
 76
     0
330
19
331
8262
  0
LAYOUT
  5
8170
102
{ACAD_REACTORS
330
816D
102
}
330
816D
100
AcDbPlotSettings
  1

  2
\\Txbo34x8944cqyd\EPSON LP-6100
  4

  6

 40
0.0
 41
0.0
 42
0.0
 43
0.0
 44
0.0
 45
0.0
 46
0.0
 47
0.0
 48
0.0
 49
0.0
140
0.0
141
0.0
142
1.0
143
1.0
 70
   688
 72
     0
 73
     0
 74
     5
  7
GOD2000TABLE.ctb
 75
    16
147
1.0
 76
     0
 77
     2
 78
   300
148
0.0
149
0.0
100
AcDbLayout
  1
ﾚｲｱｳﾄ1
 70
     1
 71
     1
 10
0.0
 20
0.0
 11
12.0
 21
9.0
 12
0.0
 22
0.0
 32
0.0
 14
1.000000000000000E+20
 24
1.000000000000000E+20
 34
1.000000000000000E+20
 15
-1.000000000000000E+20
 25
-1.000000000000000E+20
 35
-1.000000000000000E+20
146
0.0
 13
0.0
 23
0.0
 33
0.0
 16
1.0
 26
0.0
 36
0.0
 17
0.0
 27
1.0
 37
0.0
 76
     0
330
16
  0
MATERIAL
  5
826D
102
{ACAD_XDICTIONARY
360
826E
102
}
102
{ACAD_REACTORS
330
8264
102
}
330
8264
100
AcDbMaterial
  1
ByBlock
 72
     0
 43
0.0208333333333333
 43
0.0
 43
0.0
 43
0.0
 43
0.0
 43
0.0208333333333333
 43
0.0
 43
0.0
 43
0.0
 43
0.0
 43
1.0
 43
0.0
 43
0.0
 43
0.0
 43
0.0
 43
1.0
 77
     0
 47
0.0208333333333333
 47
0.0
 47
0.0
 47
0.0
 47
0.0
 47
0.0208333333333333
 47
0.0
 47
0.0
 47
0.0
 47
0.0
 47
1.0
 47
0.0
 47
0.0
 47
0.0
 47
0.0
 47
1.0
171
     0
 49
0.0208333333333333
 49
0.0
 49
0.0
 49
0.0
 49
0.0
 49
0.0208333333333333
 49
0.0
 49
0.0
 49
0.0
 49
0.0
 49
1.0
 49
0.0
 49
0.0
 49
0.0
 49
0.0
 49
1.0
175
     0
142
0.0208333333333333
142
0.0
142
0.0
142
0.0
142
0.0
142
0.0208333333333333
142
0.0
142
0.0
142
0.0
142
0.0
142
1.0
142
0.0
142
0.0
142
0.0
142
0.0
142
1.0
179
     0
144
0.0208333333333333
144
0.0
144
0.0
144
0.0
144
0.0
144
0.0208333333333333
144
0.0
144
0.0
144
0.0
144
0.0
144
1.0
144
0.0
144
0.0
144
0.0
144
0.0
144
1.0
147
0.0208333333333333
147
0.0
147
0.0
147
0.0
147
0.0
147
0.0208333333333333
147
0.0
147
0.0
147
0.0
147
0.0
147
1.0
147
0.0
147
0.0
147
0.0
147
0.0
147
1.0
  0
MATERIAL
  5
8265
102
{ACAD_XDICTIONARY
360
8266
102
}
102
{ACAD_REACTORS
330
8264
102
}
330
8264
100
AcDbMaterial
  1
ByLayer
 72
     0
 43
0.0208333333333333
 43
0.0
 43
0.0
 43
0.0
 43
0.0
 43
0.0208333333333333
 43
0.0
 43
0.0
 43
0.0
 43
0.0
 43
1.0
 43
0.0
 43
0.0
 43
0.0
 43
0.0
 43
1.0
 77
     0
 47
0.0208333333333333
 47
0.0
 47
0.0
 47
0.0
 47
0.0
 47
0.0208333333333333
 47
0.0
 47
0.0
 47
0.0
 47
0.0
 47
1.0
 47
0.0
 47
0.0
 47
0.0
 47
0.0
 47
1.0
171
     0
 49
0.0208333333333333
 49
0.0
 49
0.0
 49
0.0
 49
0.0
 49
0.0208333333333333
 49
0.0
 49
0.0
 49
0.0
 49
0.0
 49
1.0
 49
0.0
 49
0.0
 49
0.0
 49
0.0
 49
1.0
175
     0
142
0.0208333333333333
142
0.0
142
0.0
142
0.0
142
0.0
142
0.0208333333333333
142
0.0
142
0.0
142
0.0
142
0.0
142
1.0
142
0.0
142
0.0
142
0.0
142
0.0
142
1.0
179
     0
144
0.0208333333333333
144
0.0
144
0.0
144
0.0
144
0.0
144
0.0208333333333333
144
0.0
144
0.0
144
0.0
144
0.0
144
1.0
144
0.0
144
0.0
144
0.0
144
0.0
144
1.0
147
0.0208333333333333
147
0.0
147
0.0
147
0.0
147
0.0
147
0.0208333333333333
147
0.0
147
0.0
147
0.0
147
0.0
147
1.0
147
0.0
147
0.0
147
0.0
147
0.0
147
1.0
  0
MATERIAL
  5
8275
102
{ACAD_XDICTIONARY
360
8276
102
}
102
{ACAD_REACTORS
330
8264
102
}
330
8264
100
AcDbMaterial
  1
Global
 72
     0
 43
0.0208333333333333
 43
0.0
 43
0.0
 43
0.0
 43
0.0
 43
0.0208333333333333
 43
0.0
 43
0.0
 43
0.0
 43
0.0
 43
1.0
 43
0.0
 43
0.0
 43
0.0
 43
0.0
 43
1.0
 77
     0
 47
0.0208333333333333
 47
0.0
 47
0.0
 47
0.0
 47
0.0
 47
0.0208333333333333
 47
0.0
 47
0.0
 47
0.0
 47
0.0
 47
1.0
 47
0.0
 47
0.0
 47
0.0
 47
0.0
 47
1.0
171
     0
 49
0.0208333333333333
 49
0.0
 49
0.0
 49
0.0
 49
0.0
 49
0.0208333333333333
 49
0.0
 49
0.0
 49
0.0
 49
0.0
 49
1.0
 49
0.0
 49
0.0
 49
0.0
 49
0.0
 49
1.0
175
     0
142
0.0208333333333333
142
0.0
142
0.0
142
0.0
142
0.0
142
0.0208333333333333
142
0.0
142
0.0
142
0.0
142
0.0
142
1.0
142
0.0
142
0.0
142
0.0
142
0.0
142
1.0
179
     0
144
0.0208333333333333
144
0.0
144
0.0
144
0.0
144
0.0
144
0.0208333333333333
144
0.0
144
0.0
144
0.0
144
0.0
144
1.0
144
0.0
144
0.0
144
0.0
144
0.0
144
1.0
147
0.0208333333333333
147
0.0
147
0.0
147
0.0
147
0.0
147
0.0208333333333333
147
0.0
147
0.0
147
0.0
147
0.0
147
1.0
147
0.0
147
0.0
147
0.0
147
0.0
147
1.0
  0
MLEADERSTYLE
  5
82AC
102
{ACAD_REACTORS
330
82AB
102
}
330
82AB
100
AcDbMLeaderStyle
179
     2
170
     2
171
     1
172
     0
 90
        2
 40
0.0
 41
0.0
173
     1
 91
-1056964608
340
13
 92
       -2
290
     1
 42
2.0
291
     1
 43
0.36
  3
Standard
 44
4.0
300

342
10
174
     1
178
     6
175
     1
176
     0
 93
-1056964608
 45
4.0
292
     0
297
     0
 46
4.0
 94
-1056964608
 47
1.0
 49
1.0
140
1.0
293
     1
141
0.0
294
     1
177
     0
142
1.0
295
     0
296
     0
143
0.125
271
     0
272
     9
273
     9
298
     1
  0
MLINESTYLE
  5
1C
102
{ACAD_REACTORS
330
E
102
}
330
E
100
AcDbMlineStyle
  2
STANDARD
 70
     0
  3

 62
     0
 51
90.0
 52
90.0
 71
     2
 49
0.5
 62
   256
  6
BYLAYER
 49
-0.5
 62
   256
  6
BYLAYER
  0
ACDBPLACEHOLDER
  5
816C
102
{ACAD_REACTORS
330
816B
102
}
330
816B
  0
SCALE
  5
829A
102
{ACAD_REACTORS
330
8299
102
}
330
8299
100
AcDbScale
 70
     0
300
1:1
140
1.0
141
1.0
290
     1
  0
SCALE
  5
829B
102
{ACAD_REACTORS
330
8299
102
}
330
8299
100
AcDbScale
 70
     0
300
1:2
140
1.0
141
2.0
290
     0
  0
SCALE
  5
829C
102
{ACAD_REACTORS
330
8299
102
}
330
8299
100
AcDbScale
 70
     0
300
1:4
140
1.0
141
4.0
290
     0
  0
SCALE
  5
829D
102
{ACAD_REACTORS
330
8299
102
}
330
8299
100
AcDbScale
 70
     0
300
1:5
140
1.0
141
5.0
290
     0
  0
SCALE
  5
829E
102
{ACAD_REACTORS
330
8299
102
}
330
8299
100
AcDbScale
 70
     0
300
1:8
140
1.0
141
8.0
290
     0
  0
SCALE
  5
829F
102
{ACAD_REACTORS
330
8299
102
}
330
8299
100
AcDbScale
 70
     0
300
1:10
140
1.0
141
10.0
290
     0
  0
SCALE
  5
82A0
102
{ACAD_REACTORS
330
8299
102
}
330
8299
100
AcDbScale
 70
     0
300
1:16
140
1.0
141
16.0
290
     0
  0
SCALE
  5
82A1
102
{ACAD_REACTORS
330
8299
102
}
330
8299
100
AcDbScale
 70
     0
300
1:20
140
1.0
141
20.0
290
     0
  0
SCALE
  5
82A2
102
{ACAD_REACTORS
330
8299
102
}
330
8299
100
AcDbScale
 70
     0
300
1:30
140
1.0
141
30.0
290
     0
  0
SCALE
  5
82A3
102
{ACAD_REACTORS
330
8299
102
}
330
8299
100
AcDbScale
 70
     0
300
1:40
140
1.0
141
40.0
290
     0
  0
SCALE
  5
82A4
102
{ACAD_REACTORS
330
8299
102
}
330
8299
100
AcDbScale
 70
     0
300
1:50
140
1.0
141
50.0
290
     0
  0
SCALE
  5
82A5
102
{ACAD_REACTORS
330
8299
102
}
330
8299
100
AcDbScale
 70
     0
300
1:100
140
1.0
141
100.0
290
     0
  0
SCALE
  5
82A6
102
{ACAD_REACTORS
330
8299
102
}
330
8299
100
AcDbScale
 70
     0
300
2:1
140
2.0
141
1.0
290
     0
  0
SCALE
  5
82A7
102
{ACAD_REACTORS
330
8299
102
}
330
8299
100
AcDbScale
 70
     0
300
4:1
140
4.0
141
1.0
290
     0
  0
SCALE
  5
82A8
102
{ACAD_REACTORS
330
8299
102
}
330
8299
100
AcDbScale
 70
     0
300
8:1
140
8.0
141
1.0
290
     0
  0
SCALE
  5
82A9
102
{ACAD_REACTORS
330
8299
102
}
330
8299
100
AcDbScale
 70
     0
300
10:1
140
10.0
141
1.0
290
     0
  0
SCALE
  5
82AA
102
{ACAD_REACTORS
330
8299
102
}
330
8299
100
AcDbScale
 70
     0
300
100:1
140
100.0
141
1.0
290
     0
  0
ACDBSECTIONVIEWSTYLE
  5
82AE
102
{ACAD_XDICTIONARY
360
831F
102
}
102
{ACAD_REACTORS
330
82AD
102
}
330
82AD
100
AcDbModelDocViewStyle
 70
     0
  3
Metric50
290
     0
100
AcDbSectionViewStyle
 70
     0
 71
     0
 90
      102
 71
     1
340
10
 62
   256
 40
5.0
340
0
340
0
 62
   256
 40
5.0
300
I, O, Q, S, X, Z
 40
10.0
 90
        0
 40
2.5
 90
        0
 71
     2
340
15
 90
       25
 62
   256
340
15
 90
       50
 62
   256
 40
5.0
 40
2.5
 40
5.0
 71
     3
340
10
 62
   256
 40
5.0
 90
        0
 40
15.0
 90
        1
300
%<\AcVar ViewSectionStartId>%-%<\AcVar ViewSectionEndId>% (%<\AcVar ViewScale \f "%sn">%)
 71
     4
 62
   256
 62
   257
300
ANSI31
 40
1.0
 90
        0
290
     0
290
     0
 90
        6
 40
0.0
 40
1.570796326794896
 40
0.2617993877991494
 40
1.308996938995747
 40
-0.2617993877991494
 40
1.832595714594046
  0
TABLESTYLE
  5
8298
102
{ACAD_XDICTIONARY
360
8314
102
}
102
{ACAD_REACTORS
330
8297
102
}
330
8297
100
AcDbTableStyle
280
     0
  3
Standard
 70
     0
 71
     0
 40
1.5
 41
1.5
280
     0
281
     0
  7
STANDARD
140
4.5
170
     2
 62
     0
 63
     7
283
     0
 90
      512
 91
        0
  1

274
    -2
284
     1
 64
     0
275
    -2
285
     1
 65
     0
276
    -2
286
     1
 66
     0
277
    -2
287
     1
 67
     0
278
    -2
288
     1
 68
     0
279
    -2
289
     1
 69
     0
  7
STANDARD
140
6.0
170
     5
 62
     0
 63
     7
283
     0
 90
      512
 91
        0
  1

274
    -2
284
     1
 64
     0
275
    -2
285
     1
 65
     0
276
    -2
286
     1
 66
     0
277
    -2
287
     1
 67
     0
278
    -2
288
     1
 68
     0
279
    -2
289
     1
 69
     0
  7
STANDARD
140
4.5
170
     5
 62
     0
 63
     7
283
     0
 90
      512
 91
        0
  1

274
    -2
284
     1
 64
     0
275
    -2
285
     1
 65
     0
276
    -2
286
     1
 66
     0
277
    -2
287
     1
 67
     0
278
    -2
288
     1
 68
     0
279
    -2
289
     1
 69
     0
  0
VISUALSTYLE
  5
8283
102
{ACAD_REACTORS
330
827D
102
}
330
827D
100
AcDbVisualStyle
  2
2dWireframe
 70
     4
177
     3
291
     0
 70
    58
 90
        0
176
     1
 90
        2
176
     1
 90
        0
176
     1
 90
        0
176
     1
 40
0.6
176
     1
 40
30.0
176
     1
 62
     7
420
 16777215
176
     1
 90
        1
176
     1
 90
        4
176
     1
 62
     7
176
     1
 62
   257
176
     1
 90
        1
176
     1
 90
        1
176
     1
 40
1.0
176
     1
 90
        0
176
     1
 62
   257
176
     1
 40
1.0
176
     1
 90
        1
176
     1
 90
        6
176
     1
 90
        2
176
     1
 62
     7
176
     1
 90
        5
176
     1
 90
        0
176
     1
 90
        0
176
     1
290
     0
176
     1
 90
        1
176
     1
 40
0.0
176
     1
 90
        0
176
     1
290
     1
176
     1
290
     1
176
     1
290
     0
176
     1
290
     0
176
     1
290
     0
176
     1
290
     0
176
     1
290
     0
176
     1
290
     0
176
     1
290
     0
176
     1
 90
       50
176
     1
 40
0.0
176
     1
 40
1.0
176
     1
 90
        0
176
     1
 62
    18
420
        0
176
     1
 90
       50
176
     1
 90
        3
176
     1
 62
     5
420
      255
176
     1
290
     0
176
     1
 90
       50
176
     1
 90
       50
176
     1
 90
       50
176
     1
290
     0
176
     1
 90
       50
176
     1
 62
   256
176
     0
 40
1.0
176
     0
 90
        2
176
     1
  1
strokes_ogs.tif
176
     1
290
     0
176
     1
 40
1.0
176
     1
 40
1.0
176
     1
1001
ACAD
1000
AcDbSavedByObjectVersion
1070
     0
  0
VISUALSTYLE
  5
8282
102
{ACAD_REACTORS
330
827D
102
}
330
827D
100
AcDbVisualStyle
  2
Basic
 70
     7
177
     3
291
     1
 70
    58
 90
        1
176
     1
 90
        0
176
     1
 90
        1
176
     1
 90
        0
176
     1
 40
0.6
176
     1
 40
30.0
176
     1
 62
     7
420
 16777215
176
     1
 90
        0
176
     1
 90
        4
176
     1
 62
     7
176
     1
 62
   257
176
     1
 90
        1
176
     1
 90
        1
176
     1
 40
1.0
176
     1
 90
        8
176
     1
 62
     7
176
     1
 40
1.0
176
     1
 90
        1
176
     1
 90
        6
176
     1
 90
        2
176
     1
 62
     7
176
     1
 90
        5
176
     1
 90
        0
176
     1
 90
        0
176
     1
290
     0
176
     1
 90
        1
176
     1
 40
0.0
176
     1
 90
        0
176
     1
290
     0
176
     1
290
     1
176
     1
290
     1
176
     1
290
     0
176
     1
290
     0
176
     1
290
     0
176
     1
290
     0
176
     1
290
     0
176
     1
290
     0
176
     1
 90
       50
176
     1
 40
0.0
176
     1
 40
1.0
176
     1
 90
        0
176
     1
 62
    18
420
        0
176
     1
 90
       50
176
     1
 90
        3
176
     1
 62
     5
420
      255
176
     1
290
     0
176
     1
 90
       50
176
     1
 90
       50
176
     1
 90
       50
176
     1
290
     0
176
     1
 90
       50
176
     1
 62
   256
176
     0
 40
1.0
176
     0
 90
        2
176
     1
  1
strokes_ogs.tif
176
     1
290
     0
176
     1
 40
1.0
176
     1
 40
1.0
176
     1
1001
ACAD
1000
AcDbSavedByObjectVersion
1070
     0
  0
VISUALSTYLE
  5
8289
102
{ACAD_REACTORS
330
827D
102
}
330
827D
100
AcDbVisualStyle
  2
Brighten
 70
    12
177
     3
291
     1
 70
    58
 90
        2
176
     1
 90
        2
176
     1
 90
        0
176
     1
 90
        0
176
     1
 40
0.6
176
     1
 40
30.0
176
     1
 62
     7
420
 16777215
176
     1
 90
        1
176
     1
 90
        4
176
     1
 62
     7
176
     1
 62
   257
176
     1
 90
        1
176
     1
 90
        1
176
     1
 40
1.0
176
     1
 90
        8
176
     1
 62
     7
176
     1
 40
1.0
176
     1
 90
        1
176
     1
 90
        6
176
     1
 90
        2
176
     1
 62
     7
176
     1
 90
        5
176
     1
 90
        0
176
     1
 90
        0
176
     1
290
     0
176
     1
 90
        1
176
     1
 40
50.0
176
     1
 90
        0
176
     1
290
     0
176
     1
290
     1
176
     1
290
     1
176
     1
290
     0
176
     1
290
     0
176
     1
290
     0
176
     1
290
     0
176
     1
290
     0
176
     1
290
     0
176
     1
 90
       50
176
     1
 40
0.0
176
     1
 40
1.0
176
     1
 90
        0
176
     1
 62
    18
420
        0
176
     1
 90
       50
176
     1
 90
        3
176
     1
 62
     5
420
      255
176
     1
290
     0
176
     1
 90
       50
176
     1
 90
       50
176
     1
 90
       50
176
     1
290
     0
176
     1
 90
       50
176
     1
 62
   256
176
     0
 40
1.0
176
     0
 90
        2
176
     1
  1
strokes_ogs.tif
176
     1
290
     0
176
     1
 40
1.0
176
     1
 40
1.0
176
     1
1001
ACAD
1000
AcDbSavedByObjectVersion
1070
     0
  0
VISUALSTYLE
  5
828D
102
{ACAD_REACTORS
330
827D
102
}
330
827D
100
AcDbVisualStyle
  2
ColorChange
 70
    16
177
     3
291
     1
 70
    58
 90
        2
176
     1
 90
        2
176
     1
 90
        3
176
     1
 90
        0
176
     1
 40
0.6
176
     1
 40
30.0
176
     1
 62
     8
420
  8421504
176
     1
 90
        1
176
     1
 90
        4
176
     1
 62
     7
176
     1
 62
   257
176
     1
 90
        1
176
     1
 90
        1
176
     1
 40
1.0
176
     1
 90
        8
176
     1
 62
     8
420
  8421504
176
     1
 40
1.0
176
     1
 90
        1
176
     1
 90
        6
176
     1
 90
        2
176
     1
 62
     7
176
     1
 90
        5
176
     1
 90
        0
176
     1
 90
        0
176
     1
290
     0
176
     1
 90
        1
176
     1
 40
0.0
176
     1
 90
        0
176
     1
290
     0
176
     1
290
     1
176
     1
290
     1
176
     1
290
     0
176
     1
290
     0
176
     1
290
     0
176
     1
290
     0
176
     1
290
     0
176
     1
290
     0
176
     1
 90
       50
176
     1
 40
0.0
176
     1
 40
1.0
176
     1
 90
        0
176
     1
 62
    18
420
        0
176
     1
 90
       50
176
     1
 90
        3
176
     1
 62
     5
420
      255
176
     1
290
     0
176
     1
 90
       50
176
     1
 90
       50
176
     1
 90
       50
176
     1
290
     0
176
     1
 90
       50
176
     1
 62
   256
176
     0
 40
1.0
176
     0
 90
        2
176
     1
  1
strokes_ogs.tif
176
     1
290
     0
176
     1
 40
1.0
176
     1
 40
1.0
176
     1
1001
ACAD
1000
AcDbSavedByObjectVersion
1070
     0
  0
VISUALSTYLE
  5
8286
102
{ACAD_REACTORS
330
827D
102
}
330
827D
100
AcDbVisualStyle
  2
Conceptual
 70
     9
177
     3
291
     0
 70
    58
 90
        3
176
     1
 90
        2
176
     1
 90
        0
176
     1
 90
        0
176
     1
 40
0.6
176
     1
 40
30.0
176
     1
 62
     7
420
 16777215
176
     1
 90
        2
176
     1
 90
        2
176
     1
 62
     7
176
     1
 62
   257
176
     1
 90
        1
176
     1
 90
        1
176
     1
 40
179.0
176
     1
 90
        8
176
     1
 62
     7
176
     1
 40
1.0
176
     1
 90
        1
176
     1
 90
        6
176
     1
 90
        2
176
     1
 62
     7
176
     1
 90
        3
176
     1
 90
        0
176
     1
 90
        0
176
     1
290
     0
176
     1
 90
        1
176
     1
 40
0.0
176
     1
 90
        0
176
     1
290
     0
176
     1
290
     1
176
     1
290
     1
176
     1
290
     0
176
     1
290
     0
176
     1
290
     0
176
     1
290
     0
176
     1
290
     0
176
     1
290
     0
176
     1
 90
       50
176
     1
 40
0.0
176
     1
 40
1.0
176
     1
 90
        0
176
     1
 62
    18
420
        0
176
     1
 90
       50
176
     1
 90
        3
176
     1
 62
     5
420
      255
176
     1
290
     0
176
     1
 90
       50
176
     1
 90
       50
176
     1
 90
       50
176
     1
290
     0
176
     1
 90
       50
176
     1
 62
   256
176
     0
 40
1.0
176
     0
 90
        2
176
     1
  1
strokes_ogs.tif
176
     1
290
     0
176
     1
 40
1.0
176
     1
 40
1.0
176
     1
1001
ACAD
1000
AcDbSavedByObjectVersion
1070
     0
  0
VISUALSTYLE
  5
8288
102
{ACAD_REACTORS
330
827D
102
}
330
827D
100
AcDbVisualStyle
  2
Dim
 70
    11
177
     3
291
     1
 70
    58
 90
        2
176
     1
 90
        2
176
     1
 90
        0
176
     1
 90
        0
176
     1
 40
0.6
176
     1
 40
30.0
176
     1
 62
     7
420
 16777215
176
     1
 90
        1
176
     1
 90
        4
176
     1
 62
     7
176
     1
 62
   257
176
     1
 90
        1
176
     1
 90
        1
176
     1
 40
1.0
176
     1
 90
        8
176
     1
 62
     7
176
     1
 40
1.0
176
     1
 90
        1
176
     1
 90
        6
176
     1
 90
        2
176
     1
 62
     7
176
     1
 90
        5
176
     1
 90
        0
176
     1
 90
        0
176
     1
290
     0
176
     1
 90
        1
176
     1
 40
-50.0
176
     1
 90
        0
176
     1
290
     0
176
     1
290
     1
176
     1
290
     1
176
     1
290
     0
176
     1
290
     0
176
     1
290
     0
176
     1
290
     0
176
     1
290
     0
176
     1
290
     0
176
     1
 90
       50
176
     1
 40
0.0
176
     1
 40
1.0
176
     1
 90
        0
176
     1
 62
    18
420
        0
176
     1
 90
       50
176
     1
 90
        3
176
     1
 62
     5
420
      255
176
     1
290
     0
176
     1
 90
       50
176
     1
 90
       50
176
     1
 90
       50
176
     1
290
     0
176
     1
 90
       50
176
     1
 62
   256
176
     0
 40
1.0
176
     0
 90
        2
176
     1
  1
strokes_ogs.tif
176
     1
290
     0
176
     1
 40
1.0
176
     1
 40
1.0
176
     1
1001
ACAD
1000
AcDbSavedByObjectVersion
1070
     0
  0
VISUALSTYLE
  5
8295
102
{ACAD_REACTORS
330
827D
102
}
330
827D
100
AcDbVisualStyle
  2
EdgeColorOff
 70
    22
177
     3
291
     1
 70
    58
 90
        2
176
     0
 90
        2
176
     0
 90
        0
176
     0
 90
        0
176
     0
 40
0.6
176
     0
 40
30.0
176
     0
 62
     7
420
 16777215
176
     0
 90
        1
176
     0
 90
        4
176
     0
 62
     7
176
     0
 62
   257
176
     0
 90
        1
176
     0
 90
        1
176
     0
 40
1.0
176
     0
 90
        8
176
     2
 62
     7
176
     0
 40
1.0
176
     0
 90
        1
176
     0
 90
        6
176
     0
 90
        2
176
     0
 62
     7
176
     0
 90
        5
176
     0
 90
        0
176
     0
 90
        0
176
     0
290
     0
176
     0
 90
        1
176
     0
 40
0.0
176
     0
 90
        0
176
     0
290
     0
176
     0
290
     1
176
     0
290
     1
176
     0
290
     0
176
     0
290
     0
176
     0
290
     0
176
     0
290
     0
176
     0
290
     0
176
     0
290
     0
176
     0
 90
       50
176
     0
 40
0.0
176
     0
 40
1.0
176
     0
 90
        0
176
     0
 62
    18
420
        0
176
     0
 90
       50
176
     0
 90
        3
176
     0
 62
     5
420
      255
176
     0
290
     0
176
     0
 90
       50
176
     0
 90
       50
176
     0
 90
       50
176
     0
290
     0
176
     0
 90
       50
176
     0
 62
   256
176
     0
 40
1.0
176
     0
 90
        2
176
     0
  1
strokes_ogs.tif
176
     0
290
     0
176
     0
 40
1.0
176
     0
 40
1.0
176
     0
1001
ACAD
1000
AcDbSavedByObjectVersion
1070
     0
  0
VISUALSTYLE
  5
828C
102
{ACAD_REACTORS
330
827D
102
}
330
827D
100
AcDbVisualStyle
  2
Facepattern
 70
    15
177
     3
291
     1
 70
    58
 90
        2
176
     1
 90
        2
176
     1
 90
        0
176
     1
 90
        0
176
     1
 40
0.6
176
     1
 40
30.0
176
     1
 62
     7
420
 16777215
176
     1
 90
        1
176
     1
 90
        4
176
     1
 62
     7
176
     1
 62
   257
176
     1
 90
        1
176
     1
 90
        1
176
     1
 40
1.0
176
     1
 90
        8
176
     1
 62
     7
176
     1
 40
1.0
176
     1
 90
        1
176
     1
 90
        6
176
     1
 90
        2
176
     1
 62
     7
176
     1
 90
        5
176
     1
 90
        0
176
     1
 90
        0
176
     1
290
     0
176
     1
 90
        1
176
     1
 40
0.0
176
     1
 90
        0
176
     1
290
     0
176
     1
290
     1
176
     1
290
     1
176
     1
290
     0
176
     1
290
     0
176
     1
290
     0
176
     1
290
     0
176
     1
290
     0
176
     1
290
     0
176
     1
 90
       50
176
     1
 40
0.0
176
     1
 40
1.0
176
     1
 90
        0
176
     1
 62
    18
420
        0
176
     1
 90
       50
176
     1
 90
        3
176
     1
 62
     5
420
      255
176
     1
290
     0
176
     1
 90
       50
176
     1
 90
       50
176
     1
 90
       50
176
     1
290
     0
176
     1
 90
       50
176
     1
 62
   256
176
     0
 40
1.0
176
     0
 90
        2
176
     1
  1
strokes_ogs.tif
176
     1
290
     0
176
     1
 40
1.0
176
     1
 40
1.0
176
     1
1001
ACAD
1000
AcDbSavedByObjectVersion
1070
     0
  0
VISUALSTYLE
  5
827E
102
{ACAD_REACTORS
330
827D
102
}
330
827D
100
AcDbVisualStyle
  2
Flat
 70
     0
177
     3
291
     1
 70
    58
 90
        2
176
     1
 90
        1
176
     1
 90
        1
176
     1
 90
        2
176
     1
 40
0.6
176
     1
 40
30.0
176
     1
 62
     7
420
 16777215
176
     1
 90
        0
176
     1
 90
        0
176
     1
 62
     7
176
     1
 62
   257
176
     1
 90
        1
176
     1
 90
        1
176
     1
 40
1.0
176
     1
 90
        8
176
     1
 62
     7
176
     1
 40
1.0
176
     1
 90
        1
176
     1
 90
        6
176
     1
 90
        2
176
     1
 62
     7
176
     1
 90
        5
176
     1
 90
        0
176
     1
 90
        0
176
     1
290
     0
176
     1
 90
       13
176
     1
 40
0.0
176
     1
 90
        0
176
     1
290
     0
176
     1
290
     1
176
     1
290
     1
176
     1
290
     0
176
     1
290
     0
176
     1
290
     0
176
     1
290
     0
176
     1
290
     0
176
     1
290
     0
176
     1
 90
       50
176
     1
 40
0.0
176
     1
 40
1.0
176
     1
 90
        0
176
     1
 62
    18
420
        0
176
     1
 90
       50
176
     1
 90
        3
176
     1
 62
     5
420
      255
176
     1
290
     0
176
     1
 90
       50
176
     1
 90
       50
176
     1
 90
       50
176
     1
290
     0
176
     1
 90
       50
176
     1
 62
   256
176
     0
 40
1.0
176
     0
 90
        2
176
     1
  1
strokes_ogs.tif
176
     1
290
     0
176
     1
 40
1.0
176
     1
 40
1.0
176
     1
1001
ACAD
1000
AcDbSavedByObjectVersion
1070
     0
  0
VISUALSTYLE
  5
827F
102
{ACAD_REACTORS
330
827D
102
}
330
827D
100
AcDbVisualStyle
  2
FlatWithEdges
 70
     1
177
     3
291
     1
 70
    58
 90
        2
176
     1
 90
        1
176
     1
 90
        1
176
     1
 90
        2
176
     1
 40
0.6
176
     1
 40
30.0
176
     1
 62
     7
420
 16777215
176
     1
 90
        1
176
     1
 90
        0
176
     1
 62
     7
176
     1
 62
   257
176
     1
 90
        1
176
     1
 90
        1
176
     1
 40
1.0
176
     1
 90
        0
176
     1
 62
   257
176
     1
 40
1.0
176
     1
 90
        1
176
     1
 90
        6
176
     1
 90
        2
176
     1
 62
     7
176
     1
 90
        5
176
     1
 90
        0
176
     1
 90
        0
176
     1
290
     0
176
     1
 90
       13
176
     1
 40
0.0
176
     1
 90
        0
176
     1
290
     0
176
     1
290
     1
176
     1
290
     1
176
     1
290
     0
176
     1
290
     0
176
     1
290
     0
176
     1
290
     0
176
     1
290
     0
176
     1
290
     0
176
     1
 90
       50
176
     1
 40
0.0
176
     1
 40
1.0
176
     1
 90
        0
176
     1
 62
    18
420
        0
176
     1
 90
       50
176
     1
 90
        3
176
     1
 62
     5
420
      255
176
     1
290
     0
176
     1
 90
       50
176
     1
 90
       50
176
     1
 90
       50
176
     1
290
     0
176
     1
 90
       50
176
     1
 62
   256
176
     0
 40
1.0
176
     0
 90
        2
176
     1
  1
strokes_ogs.tif
176
     1
290
     0
176
     1
 40
1.0
176
     1
 40
1.0
176
     1
1001
ACAD
1000
AcDbSavedByObjectVersion
1070
     0
  0
VISUALSTYLE
  5
8280
102
{ACAD_REACTORS
330
827D
102
}
330
827D
100
AcDbVisualStyle
  2
Gouraud
 70
     2
177
     3
291
     1
 70
    58
 90
        2
176
     1
 90
        2
176
     1
 90
        1
176
     1
 90
        2
176
     1
 40
0.6
176
     1
 40
30.0
176
     1
 62
     7
420
 16777215
176
     1
 90
        0
176
     1
 90
        0
176
     1
 62
     7
176
     1
 62
   257
176
     1
 90
        1
176
     1
 90
        1
176
     1
 40
1.0
176
     1
 90
        0
176
     1
 62
     7
176
     1
 40
1.0
176
     1
 90
        1
176
     1
 90
        6
176
     1
 90
        2
176
     1
 62
     7
176
     1
 90
        5
176
     1
 90
        0
176
     1
 90
        0
176
     1
290
     0
176
     1
 90
       13
176
     1
 40
0.0
176
     1
 90
        0
176
     1
290
     0
176
     1
290
     1
176
     1
290
     1
176
     1
290
     0
176
     1
290
     0
176
     1
290
     0
176
     1
290
     0
176
     1
290
     0
176
     1
290
     0
176
     1
 90
       50
176
     1
 40
0.0
176
     1
 40
1.0
176
     1
 90
        0
176
     1
 62
    18
420
        0
176
     1
 90
       50
176
     1
 90
        3
176
     1
 62
     5
420
      255
176
     1
290
     0
176
     1
 90
       50
176
     1
 90
       50
176
     1
 90
       50
176
     1
290
     0
176
     1
 90
       50
176
     1
 62
   256
176
     0
 40
1.0
176
     0
 90
        2
176
     1
  1
strokes_ogs.tif
176
     1
290
     0
176
     1
 40
1.0
176
     1
 40
1.0
176
     1
1001
ACAD
1000
AcDbSavedByObjectVersion
1070
     0
  0
VISUALSTYLE
  5
8281
102
{ACAD_REACTORS
330
827D
102
}
330
827D
100
AcDbVisualStyle
  2
GouraudWithEdges
 70
     3
177
     3
291
     1
 70
    58
 90
        2
176
     1
 90
        2
176
     1
 90
        1
176
     1
 90
        2
176
     1
 40
0.6
176
     1
 40
30.0
176
     1
 62
     7
420
 16777215
176
     1
 90
        1
176
     1
 90
        0
176
     1
 62
     7
176
     1
 62
   257
176
     1
 90
        1
176
     1
 90
        1
176
     1
 40
1.0
176
     1
 90
        0
176
     1
 62
   257
176
     1
 40
1.0
176
     1
 90
        1
176
     1
 90
        6
176
     1
 90
        2
176
     1
 62
     7
176
     1
 90
        5
176
     1
 90
        0
176
     1
 90
        0
176
     1
290
     0
176
     1
 90
       13
176
     1
 40
0.0
176
     1
 90
        0
176
     1
290
     0
176
     1
290
     1
176
     1
290
     1
176
     1
290
     0
176
     1
290
     0
176
     1
290
     0
176
     1
290
     0
176
     1
290
     0
176
     1
290
     0
176
     1
 90
       50
176
     1
 40
0.0
176
     1
 40
1.0
176
     1
 90
        0
176
     1
 62
    18
420
        0
176
     1
 90
       50
176
     1
 90
        3
176
     1
 62
     5
420
      255
176
     1
290
     0
176
     1
 90
       50
176
     1
 90
       50
176
     1
 90
       50
176
     1
290
     0
176
     1
 90
       50
176
     1
 62
   256
176
     0
 40
1.0
176
     0
 90
        2
176
     1
  1
strokes_ogs.tif
176
     1
290
     0
176
     1
 40
1.0
176
     1
 40
1.0
176
     1
1001
ACAD
1000
AcDbSavedByObjectVersion
1070
     0
  0
VISUALSTYLE
  5
8285
102
{ACAD_REACTORS
330
827D
102
}
330
827D
100
AcDbVisualStyle
  2
Hidden
 70
     6
177
     3
291
     0
 70
    58
 90
        1
176
     1
 90
        2
176
     1
 90
        2
176
     1
 90
        0
176
     1
 40
0.6
176
     1
 40
30.0
176
     1
 62
     7
420
 16777215
176
     1
 90
        2
176
     1
 90
        2
176
     1
 62
     7
176
     1
 62
   257
176
     1
 90
        2
176
     1
 90
        1
176
     1
 40
40.0
176
     1
 90
        0
176
     1
 62
   257
176
     1
 40
1.0
176
     1
 90
        1
176
     1
 90
        6
176
     1
 90
        2
176
     1
 62
     7
176
     1
 90
        3
176
     1
 90
        0
176
     1
 90
        0
176
     1
290
     0
176
     1
 90
        1
176
     1
 40
0.0
176
     1
 90
        0
176
     1
290
     0
176
     1
290
     1
176
     1
290
     1
176
     1
290
     0
176
     1
290
     0
176
     1
290
     0
176
     1
290
     0
176
     1
290
     0
176
     1
290
     0
176
     1
 90
       50
176
     1
 40
0.0
176
     1
 40
1.0
176
     1
 90
        0
176
     1
 62
    18
420
        0
176
     1
 90
       50
176
     1
 90
        3
176
     1
 62
     5
420
      255
176
     1
290
     0
176
     1
 90
       50
176
     1
 90
       50
176
     1
 90
       50
176
     1
290
     0
176
     1
 90
       50
176
     1
 62
   256
176
     0
 40
1.0
176
     0
 90
        2
176
     1
  1
strokes_ogs.tif
176
     1
290
     0
176
     1
 40
1.0
176
     1
 40
1.0
176
     1
1001
ACAD
1000
AcDbSavedByObjectVersion
1070
     0
  0
VISUALSTYLE
  5
8293
102
{ACAD_REACTORS
330
827D
102
}
330
827D
100
AcDbVisualStyle
  2
JitterOff
 70
    20
177
     3
291
     1
 70
    58
 90
        2
176
     0
 90
        2
176
     0
 90
        0
176
     0
 90
        0
176
     0
 40
0.6
176
     0
 40
30.0
176
     0
 62
     7
420
 16777215
176
     0
 90
        1
176
     0
 90
        4
176
     0
 62
     7
176
     0
 62
   257
176
     0
 90
        1
176
     0
 90
        1
176
     0
 40
1.0
176
     0
 90
       10
176
     2
 62
     7
176
     0
 40
1.0
176
     0
 90
        1
176
     0
 90
        6
176
     0
 90
        2
176
     0
 62
     7
176
     0
 90
        5
176
     0
 90
        0
176
     0
 90
        0
176
     0
290
     0
176
     0
 90
        1
176
     0
 40
0.0
176
     0
 90
        0
176
     0
290
     0
176
     0
290
     1
176
     0
290
     1
176
     0
290
     0
176
     0
290
     0
176
     0
290
     0
176
     0
290
     0
176
     0
290
     0
176
     0
290
     0
176
     0
 90
       50
176
     0
 40
0.0
176
     0
 40
1.0
176
     0
 90
        0
176
     0
 62
    18
420
        0
176
     0
 90
       50
176
     0
 90
        3
176
     0
 62
     5
420
      255
176
     0
290
     0
176
     0
 90
       50
176
     0
 90
       50
176
     0
 90
       50
176
     0
290
     0
176
     0
 90
       50
176
     0
 62
   256
176
     0
 40
1.0
176
     0
 90
        2
176
     0
  1
strokes_ogs.tif
176
     0
290
     0
176
     0
 40
1.0
176
     0
 40
1.0
176
     0
1001
ACAD
1000
AcDbSavedByObjectVersion
1070
     0
  0
VISUALSTYLE
  5
828B
102
{ACAD_REACTORS
330
827D
102
}
330
827D
100
AcDbVisualStyle
  2
Linepattern
 70
    14
177
     3
291
     1
 70
    58
 90
        2
176
     1
 90
        2
176
     1
 90
        0
176
     1
 90
        0
176
     1
 40
0.6
176
     1
 40
30.0
176
     1
 62
     7
420
 16777215
176
     1
 90
        1
176
     1
 90
        4
176
     1
 62
     7
176
     1
 62
   257
176
     1
 90
        7
176
     1
 90
        7
176
     1
 40
1.0
176
     1
 90
        8
176
     1
 62
     7
176
     1
 40
1.0
176
     1
 90
        1
176
     1
 90
        6
176
     1
 90
        2
176
     1
 62
     7
176
     1
 90
        5
176
     1
 90
        0
176
     1
 90
        0
176
     1
290
     0
176
     1
 90
        1
176
     1
 40
0.0
176
     1
 90
        0
176
     1
290
     0
176
     1
290
     1
176
     1
290
     1
176
     1
290
     0
176
     1
290
     0
176
     1
290
     0
176
     1
290
     0
176
     1
290
     0
176
     1
290
     0
176
     1
 90
       50
176
     1
 40
0.0
176
     1
 40
1.0
176
     1
 90
        0
176
     1
 62
    18
420
        0
176
     1
 90
       50
176
     1
 90
        3
176
     1
 62
     5
420
      255
176
     1
290
     0
176
     1
 90
       50
176
     1
 90
       50
176
     1
 90
       50
176
     1
290
     0
176
     1
 90
       50
176
     1
 62
   256
176
     0
 40
1.0
176
     0
 90
        2
176
     1
  1
strokes_ogs.tif
176
     1
290
     0
176
     1
 40
1.0
176
     1
 40
1.0
176
     1
1001
ACAD
1000
AcDbSavedByObjectVersion
1070
     0
  0
VISUALSTYLE
  5
8294
102
{ACAD_REACTORS
330
827D
102
}
330
827D
100
AcDbVisualStyle
  2
OverhangOff
 70
    21
177
     3
291
     1
 70
    58
 90
        2
176
     0
 90
        2
176
     0
 90
        0
176
     0
 90
        0
176
     0
 40
0.6
176
     0
 40
30.0
176
     0
 62
     7
420
 16777215
176
     0
 90
        1
176
     0
 90
        4
176
     0
 62
     7
176
     0
 62
   257
176
     0
 90
        1
176
     0
 90
        1
176
     0
 40
1.0
176
     0
 90
        9
176
     2
 62
     7
176
     0
 40
1.0
176
     0
 90
        1
176
     0
 90
        6
176
     0
 90
        2
176
     0
 62
     7
176
     0
 90
        5
176
     0
 90
        0
176
     0
 90
        0
176
     0
290
     0
176
     0
 90
        1
176
     0
 40
0.0
176
     0
 90
        0
176
     0
290
     0
176
     0
290
     1
176
     0
290
     1
176
     0
290
     0
176
     0
290
     0
176
     0
290
     0
176
     0
290
     0
176
     0
290
     0
176
     0
290
     0
176
     0
 90
       50
176
     0
 40
0.0
176
     0
 40
1.0
176
     0
 90
        0
176
     0
 62
    18
420
        0
176
     0
 90
       50
176
     0
 90
        3
176
     0
 62
     5
420
      255
176
     0
290
     0
176
     0
 90
       50
176
     0
 90
       50
176
     0
 90
       50
176
     0
290
     0
176
     0
 90
       50
176
     0
 62
   256
176
     0
 40
1.0
176
     0
 90
        2
176
     0
  1
strokes_ogs.tif
176
     0
290
     0
176
     0
 40
1.0
176
     0
 40
1.0
176
     0
1001
ACAD
1000
AcDbSavedByObjectVersion
1070
     0
  0
VISUALSTYLE
  5
8287
102
{ACAD_REACTORS
330
827D
102
}
330
827D
100
AcDbVisualStyle
  2
Realistic
 70
     8
177
     3
291
     0
 70
    58
 90
        2
176
     1
 90
        3
176
     1
 90
        0
176
     1
 90
        2
176
     1
 40
0.6
176
     1
 40
30.0
176
     1
 62
     7
420
 16777215
176
     1
 90
        0
176
     1
 90
        0
176
     1
 62
     7
176
     1
 62
   257
176
     1
 90
        1
176
     1
 90
        1
176
     1
 40
1.0
176
     1
 90
        8
176
     1
 62
   257
176
     1
 40
1.0
176
     1
 90
        1
176
     1
 90
        6
176
     1
 90
        2
176
     1
 62
     7
176
     1
 90
        3
176
     1
 90
        0
176
     1
 90
        0
176
     1
290
     0
176
     1
 90
       13
176
     1
 40
0.0
176
     1
 90
        0
176
     1
290
     0
176
     1
290
     1
176
     1
290
     1
176
     1
290
     0
176
     1
290
     0
176
     1
290
     0
176
     1
290
     0
176
     1
290
     0
176
     1
290
     0
176
     1
 90
       50
176
     1
 40
0.0
176
     1
 40
1.0
176
     1
 90
        0
176
     1
 62
    18
420
        0
176
     1
 90
       50
176
     1
 90
        3
176
     1
 62
     5
420
      255
176
     1
290
     0
176
     1
 90
       50
176
     1
 90
       50
176
     1
 90
       50
176
     1
290
     0
176
     1
 90
       50
176
     1
 62
   256
176
     0
 40
1.0
176
     0
 90
        2
176
     1
  1
strokes_ogs.tif
176
     1
290
     0
176
     1
 40
1.0
176
     1
 40
1.0
176
     1
1001
ACAD
1000
AcDbSavedByObjectVersion
1070
     0
  0
VISUALSTYLE
  5
8292
102
{ACAD_REACTORS
330
827D
102
}
330
827D
100
AcDbVisualStyle
  2
Shaded
 70
    27
177
     3
291
     0
 70
    58
 90
        2
176
     1
 90
        2
176
     1
 90
        1
176
     1
 90
        2
176
     1
 40
0.6
176
     1
 40
30.0
176
     1
 62
     7
420
 16777215
176
     1
 90
        0
176
     1
 90
        4
176
     1
 62
     7
176
     1
 62
   257
176
     1
 90
        1
176
     1
 90
        1
176
     1
 40
1.0
176
     1
 90
        8
176
     1
 62
   257
176
     1
 40
1.0
176
     1
 90
        1
176
     1
 90
        6
176
     1
 90
        2
176
     1
 62
     8
420
  7895160
176
     1
 90
        3
176
     1
 90
        0
176
     1
 90
        0
176
     1
290
     0
176
     1
 90
        5
176
     1
 40
0.0
176
     1
 90
        0
176
     1
290
     0
176
     1
290
     1
176
     1
290
     1
176
     1
290
     0
176
     1
290
     0
176
     1
290
     0
176
     1
290
     0
176
     1
290
     0
176
     1
290
     0
176
     1
 90
       50
176
     1
 40
0.0
176
     1
 40
1.0
176
     1
 90
        0
176
     1
 62
    18
420
        0
176
     1
 90
       50
176
     1
 90
        3
176
     1
 62
     5
420
      255
176
     1
290
     0
176
     1
 90
       50
176
     1
 90
       50
176
     1
 90
       50
176
     1
290
     0
176
     1
 90
       50
176
     1
 62
   256
176
     0
 40
1.0
176
     0
 90
        2
176
     1
  1
strokes_ogs.tif
176
     1
290
     0
176
     1
 40
1.0
176
     1
 40
1.0
176
     1
1001
ACAD
1000
AcDbSavedByObjectVersion
1070
     0
  0
VISUALSTYLE
  5
8291
102
{ACAD_REACTORS
330
827D
102
}
330
827D
100
AcDbVisualStyle
  2
Shaded with edges
 70
    26
177
     3
291
     0
 70
    58
 90
        2
176
     1
 90
        2
176
     1
 90
        1
176
     1
 90
        2
176
     1
 40
0.6
176
     1
 40
30.0
176
     1
 62
     7
420
 16777215
176
     1
 90
        1
176
     1
 90
        2
176
     1
 62
     7
176
     1
 62
   257
176
     1
 90
        2
176
     1
 90
        1
176
     1
 40
1.0
176
     1
 90
        8
176
     1
 62
   257
176
     1
 40
1.0
176
     1
 90
        1
176
     1
 90
        6
176
     1
 90
        2
176
     1
 62
     7
176
     1
 90
        3
176
     1
 90
        0
176
     1
 90
        0
176
     1
290
     0
176
     1
 90
        5
176
     1
 40
0.0
176
     1
 90
        0
176
     1
290
     0
176
     1
290
     1
176
     1
290
     1
176
     1
290
     0
176
     1
290
     0
176
     1
290
     0
176
     1
290
     0
176
     1
290
     0
176
     1
290
     0
176
     1
 90
       50
176
     1
 40
0.0
176
     1
 40
1.0
176
     1
 90
        0
176
     1
 62
    18
420
        0
176
     1
 90
       50
176
     1
 90
        3
176
     1
 62
     5
420
      255
176
     1
290
     0
176
     1
 90
       50
176
     1
 90
       50
176
     1
 90
       50
176
     1
290
     0
176
     1
 90
       50
176
     1
 62
   256
176
     0
 40
1.0
176
     0
 90
        2
176
     1
  1
strokes_ogs.tif
176
     1
290
     0
176
     1
 40
1.0
176
     1
 40
1.0
176
     1
1001
ACAD
1000
AcDbSavedByObjectVersion
1070
     0
  0
VISUALSTYLE
  5
828E
102
{ACAD_REACTORS
330
827D
102
}
330
827D
100
AcDbVisualStyle
  2
Shades of Gray
 70
    23
177
     3
291
     0
 70
    58
 90
        2
176
     1
 90
        2
176
     1
 90
        3
176
     1
 90
        0
176
     1
 40
0.6
176
     1
 40
30.0
176
     1
 62
     7
420
 16777215
176
     1
 90
        2
176
     1
 90
        2
176
     1
 62
     7
176
     1
 62
     7
176
     1
 90
        1
176
     1
 90
        1
176
     1
 40
40.0
176
     1
 90
        8
176
     1
 62
     7
176
     1
 40
1.0
176
     1
 90
        1
176
     1
 90
        6
176
     1
 90
        2
176
     1
 62
     7
176
     1
 90
        3
176
     1
 90
        0
176
     1
 90
        0
176
     1
290
     0
176
     1
 90
        1
176
     1
 40
0.0
176
     1
 90
        0
176
     1
290
     0
176
     1
290
     1
176
     1
290
     1
176
     1
290
     0
176
     1
290
     0
176
     1
290
     0
176
     1
290
     0
176
     1
290
     0
176
     1
290
     0
176
     1
 90
       50
176
     1
 40
0.0
176
     1
 40
1.0
176
     1
 90
        0
176
     1
 62
    18
420
        0
176
     1
 90
       50
176
     1
 90
        3
176
     1
 62
     5
420
      255
176
     1
290
     0
176
     1
 90
       50
176
     1
 90
       50
176
     1
 90
       50
176
     1
290
     0
176
     1
 90
       50
176
     1
 62
   256
176
     0
 40
1.0
176
     0
 90
        2
176
     1
  1
strokes_ogs.tif
176
     1
290
     0
176
     1
 40
1.0
176
     1
 40
1.0
176
     1
1001
ACAD
1000
AcDbSavedByObjectVersion
1070
     0
  0
VISUALSTYLE
  5
828F
102
{ACAD_REACTORS
330
827D
102
}
330
827D
100
AcDbVisualStyle
  2
Sketchy
 70
    24
177
     3
291
     0
 70
    58
 90
        1
176
     1
 90
        2
176
     1
 90
        2
176
     1
 90
        0
176
     1
 40
0.6
176
     1
 40
30.0
176
     1
 62
     7
420
 16777215
176
     1
 90
        2
176
     1
 90
        2
176
     1
 62
     7
176
     1
 62
     7
176
     1
 90
        1
176
     1
 90
        1
176
     1
 40
40.0
176
     1
 90
       11
176
     1
 62
     7
176
     1
 40
1.0
176
     1
 90
        1
176
     1
 90
        6
176
     1
 90
        2
176
     1
 62
     7
176
     1
 90
        6
176
     1
 90
        0
176
     1
 90
        0
176
     1
290
     0
176
     1
 90
        1
176
     1
 40
0.0
176
     1
 90
        0
176
     1
290
     0
176
     1
290
     1
176
     1
290
     1
176
     1
290
     0
176
     1
290
     0
176
     1
290
     0
176
     1
290
     0
176
     1
290
     0
176
     1
290
     0
176
     1
 90
       50
176
     1
 40
0.0
176
     1
 40
1.0
176
     1
 90
        0
176
     1
 62
    18
420
        0
176
     1
 90
       50
176
     1
 90
        3
176
     1
 62
     5
420
      255
176
     1
290
     0
176
     1
 90
       50
176
     1
 90
       50
176
     1
 90
       50
176
     1
290
     0
176
     1
 90
       50
176
     1
 62
   256
176
     0
 40
1.0
176
     0
 90
        2
176
     1
  1
strokes_ogs.tif
176
     1
290
     0
176
     1
 40
1.0
176
     1
 40
1.0
176
     1
1001
ACAD
1000
AcDbSavedByObjectVersion
1070
     0
  0
VISUALSTYLE
  5
828A
102
{ACAD_REACTORS
330
827D
102
}
330
827D
100
AcDbVisualStyle
  2
Thicken
 70
    13
177
     3
291
     1
 70
    58
 90
        2
176
     1
 90
        2
176
     1
 90
        0
176
     1
 90
        0
176
     1
 40
0.6
176
     1
 40
30.0
176
     1
 62
     7
420
 16777215
176
     1
 90
        1
176
     1
 90
        4
176
     1
 62
     7
176
     1
 62
   257
176
     1
 90
        1
176
     1
 90
        1
176
     1
 40
1.0
176
     1
 90
       12
176
     1
 62
     7
176
     1
 40
1.0
176
     1
 90
        1
176
     1
 90
        6
176
     1
 90
        2
176
     1
 62
     7
176
     1
 90
        5
176
     1
 90
        0
176
     1
 90
        0
176
     1
290
     0
176
     1
 90
        1
176
     1
 40
0.0
176
     1
 90
        0
176
     1
290
     0
176
     1
290
     1
176
     1
290
     1
176
     1
290
     0
176
     1
290
     0
176
     1
290
     0
176
     1
290
     0
176
     1
290
     0
176
     1
290
     0
176
     1
 90
       50
176
     1
 40
0.0
176
     1
 40
1.0
176
     1
 90
        0
176
     1
 62
    18
420
        0
176
     1
 90
       50
176
     1
 90
        3
176
     1
 62
     5
420
      255
176
     1
290
     0
176
     1
 90
       50
176
     1
 90
       50
176
     1
 90
       50
176
     1
290
     0
176
     1
 90
       50
176
     1
 62
   256
176
     0
 40
1.0
176
     0
 90
        2
176
     1
  1
strokes_ogs.tif
176
     1
290
     0
176
     1
 40
1.0
176
     1
 40
1.0
176
     1
1001
ACAD
1000
AcDbSavedByObjectVersion
1070
     0
  0
VISUALSTYLE
  5
8284
102
{ACAD_REACTORS
330
827D
102
}
330
827D
100
AcDbVisualStyle
  2
Wireframe
 70
     5
177
     3
291
     0
 70
    58
 90
        0
176
     1
 90
        2
176
     1
 90
        0
176
     1
 90
        0
176
     1
 40
0.6
176
     1
 40
30.0
176
     1
 62
     7
420
 16777215
176
     1
 90
        1
176
     1
 90
        4
176
     1
 62
     7
176
     1
 62
   257
176
     1
 90
        1
176
     1
 90
        1
176
     1
 40
1.0
176
     1
 90
        0
176
     1
 62
   257
176
     1
 40
1.0
176
     1
 90
        1
176
     1
 90
        6
176
     1
 90
        2
176
     1
 62
     7
176
     1
 90
        3
176
     1
 90
        0
176
     1
 90
        0
176
     1
290
     0
176
     1
 90
        1
176
     1
 40
0.0
176
     1
 90
        0
176
     1
290
     0
176
     1
290
     1
176
     1
290
     1
176
     1
290
     0
176
     1
290
     0
176
     1
290
     0
176
     1
290
     0
176
     1
290
     0
176
     1
290
     0
176
     1
 90
       50
176
     1
 40
0.0
176
     1
 40
1.0
176
     1
 90
        0
176
     1
 62
    18
420
        0
176
     1
 90
       50
176
     1
 90
        3
176
     1
 62
     5
420
      255
176
     1
290
     0
176
     1
 90
       50
176
     1
 90
       50
176
     1
 90
       50
176
     1
290
     0
176
     1
 90
       50
176
     1
 62
   256
176
     0
 40
1.0
176
     0
 90
        2
176
     1
  1
strokes_ogs.tif
176
     1
290
     0
176
     1
 40
1.0
176
     1
 40
1.0
176
     1
1001
ACAD
1000
AcDbSavedByObjectVersion
1070
     0
  0
VISUALSTYLE
  5
8290
102
{ACAD_REACTORS
330
827D
102
}
330
827D
100
AcDbVisualStyle
  2
X-Ray
 70
    25
177
     3
291
     0
 70
    58
 90
        2
176
     1
 90
        2
176
     1
 90
        1
176
     1
 90
        1
176
     1
 40
0.5
176
     1
 40
30.0
176
     1
 62
     7
420
 16777215
176
     1
 90
        1
176
     1
 90
        0
176
     1
 62
     7
176
     1
 62
   257
176
     1
 90
        1
176
     1
 90
        1
176
     1
 40
1.0
176
     1
 90
        8
176
     1
 62
     7
176
     1
 40
1.0
176
     1
 90
        1
176
     1
 90
        6
176
     1
 90
        2
176
     1
 62
     7
176
     1
 90
        3
176
     1
 90
        0
176
     1
 90
        0
176
     1
290
     0
176
     1
 90
       13
176
     1
 40
0.0
176
     1
 90
        0
176
     1
290
     0
176
     1
290
     1
176
     1
290
     1
176
     1
290
     0
176
     1
290
     0
176
     1
290
     0
176
     1
290
     0
176
     1
290
     0
176
     1
290
     0
176
     1
 90
       50
176
     1
 40
0.0
176
     1
 40
1.0
176
     1
 90
        0
176
     1
 62
    18
420
        0
176
     1
 90
       50
176
     1
 90
        3
176
     1
 62
     5
420
      255
176
     1
290
     0
176
     1
 90
       50
176
     1
 90
       50
176
     1
 90
       50
176
     1
290
     0
176
     1
 90
       50
176
     1
 62
   256
176
     0
 40
1.0
176
     0
 90
        2
176
     1
  1
strokes_ogs.tif
176
     1
290
     0
176
     1
 40
1.0
176
     1
 40
1.0
176
     1
1001
ACAD
1000
AcDbSavedByObjectVersion
1070
     0
  0
DICTIONARYVAR
  5
830B
102
{ACAD_REACTORS
330
825B
102
}
330
825B
100
DictionaryVariables
280
     0
  1
1:1
  0
DICTIONARYVAR
  5
8307
102
{ACAD_REACTORS
330
825B
102
}
330
825B
100
DictionaryVariables
280
     0
  1
STANDARD
  0
DICTIONARYVAR
  5
8306
102
{ACAD_REACTORS
330
825B
102
}
330
825B
100
DictionaryVariables
280
     0
  1
STANDARD
  0
DICTIONARYVAR
  5
8308
102
{ACAD_REACTORS
330
825B
102
}
330
825B
100
DictionaryVariables
280
     0
  1
Metric50
  0
DICTIONARYVAR
  5
8309
102
{ACAD_REACTORS
330
825B
102
}
330
825B
100
DictionaryVariables
280
     0
  1
Metric50
  0
DICTIONARYVAR
  5
825C
102
{ACAD_REACTORS
330
825B
102
}
330
825B
100
DictionaryVariables
280
     0
  1
1
  0
DICTIONARYVAR
  5
830D
102
{ACAD_REACTORS
330
825B
102
}
330
825B
100
DictionaryVariables
280
     0
  1
1
  0
DICTIONARYVAR
  5
830E
102
{ACAD_REACTORS
330
825B
102
}
330
825B
100
DictionaryVariables
280
     0
  1
15
  0
DICTIONARYVAR
  5
830C
102
{ACAD_REACTORS
330
825B
102
}
330
825B
100
DictionaryVariables
280
     0
  1
0
  0
DICTIONARYVAR
  5
8313
102
{ACAD_REACTORS
330
825B
102
}
330
825B
100
DictionaryVariables
280
     0
  1
0
  0
DICTIONARYVAR
  5
830A
102
{ACAD_REACTORS
330
825B
102
}
330
825B
100
DictionaryVariables
280
     0
  1
0
  0
DICTIONARY
  5
831E
102
{ACAD_REACTORS
330
831C
102
}
330
831C
100
AcDbDictionary
281
     1
  0
DICTIONARY
  5
831D
102
{ACAD_REACTORS
330
831C
102
}
330
831C
100
AcDbDictionary
281
     1
  3
2046388214384
350
8317
  3
2046388214400
350
8318
  3
2046388214416
350
8319
  3
2046388214432
350
831A
  3
2046388214448
350
831B
  0
DICTIONARY
  5
8321
330
82B0
100
AcDbDictionary
280
     1
281
     1
  3
ACAD_XREC_ROUNDTRIP
360
8322
  0
DICTIONARY
  5
826E
330
826D
100
AcDbDictionary
280
     1
281
     1
  3
BUMPTILE
360
8270
  3
DIFFUSETILE
360
826F
  3
OPACITYTILE
360
8273
  3
REFLECTIONTILE
360
8272
  3
REFRACTIONTILE
360
8274
  3
SPECULARTILE
360
8271
  0
DICTIONARY
  5
8266
330
8265
100
AcDbDictionary
280
     1
281
     1
  3
BUMPTILE
360
8268
  3
DIFFUSETILE
360
8267
  3
OPACITYTILE
360
826B
  3
REFLECTIONTILE
360
826A
  3
REFRACTIONTILE
360
826C
  3
SPECULARTILE
360
8269
  0
DICTIONARY
  5
8276
330
8275
100
AcDbDictionary
280
     1
281
     1
  3
BUMPTILE
360
8278
  3
DIFFUSETILE
360
8277
  3
OPACITYTILE
360
827B
  3
REFLECTIONTILE
360
827A
  3
REFRACTIONTILE
360
827C
  3
SPECULARTILE
360
8279
  0
DICTIONARY
  5
831F
330
82AE
100
AcDbDictionary
280
     1
281
     1
  3
ACAD_XREC_ROUNDTRIP
360
8320
  0
DICTIONARY
  5
8314
330
8298
100
AcDbDictionary
280
     1
281
     1
  3
ACAD_ROUNDTRIP_2008_TABLESTYLE_CELLSTYLEMAP
360
8315
  0
XRECORD
  5
8317
102
{ACAD_REACTORS
330
831D
102
}
330
831D
100
AcDbXrecord
280
     1
  1
AcDb_Thumbnail_Schema
102
{ATTRRECORD
341
8318
  2
AcDbDs::TreatedAsObjectData
280
     1
291
     1
102
ATTRRECORD}
102
{ATTRRECORD
341
8319
  2
AcDbDs::Legacy
280
     1
291
     1
102
ATTRRECORD}
  2
AcDbDs::ID
280
    10
 91
        8
102
{ATTRRECORD
341
831A
  2
AcDs:Indexable
280
     1
291
     1
102
ATTRRECORD}
102
{ATTRRECORD
341
831B
  2
AcDbDs::HandleAttribute
280
     7
282
     1
102
ATTRRECORD}
  2
Thumbnail_Data
280
    15
 91
        0
  0
XRECORD
  5
8318
102
{ACAD_REACTORS
330
831D
102
}
330
831D
100
AcDbXrecord
280
     1
  1
AcDbDs::TreatedAsObjectDataSchema
  2
AcDbDs::TreatedAsObjectData
280
     1
 91
        0
  0
XRECORD
  5
8319
102
{ACAD_REACTORS
330
831D
102
}
330
831D
100
AcDbXrecord
280
     1
  1
AcDbDs::LegacySchema
  2
AcDbDs::Legacy
280
     1
 91
        0
  0
XRECORD
  5
831A
102
{ACAD_REACTORS
330
831D
102
}
330
831D
100
AcDbXrecord
280
     1
  1
AcDbDs::IndexedPropertySchema
  2
AcDs:Indexable
280
     1
 91
        0
  0
XRECORD
  5
831B
102
{ACAD_REACTORS
330
831D
102
}
330
831D
100
AcDbXrecord
280
     1
  1
AcDbDs::HandleAttributeSchema
  2
AcDbDs::HandleAttribute
280
     7
 91
        1
284
     1
  0
XRECORD
  5
8322
102
{ACAD_REACTORS
330
8321
102
}
330
8321
100
AcDbXrecord
280
     1
102
DISPLAYNAME
  1
Metric50
102
FLAGS
 90
        0
  0
XRECORD
  5
8270
102
{ACAD_REACTORS
330
826E
102
}
330
826E
100
AcDbXrecord
280
     1
270
     1
271
     1
  0
XRECORD
  5
826F
102
{ACAD_REACTORS
330
826E
102
}
330
826E
100
AcDbXrecord
280
     1
270
     1
271
     1
  0
XRECORD
  5
8273
102
{ACAD_REACTORS
330
826E
102
}
330
826E
100
AcDbXrecord
280
     1
270
     1
271
     1
  0
XRECORD
  5
8272
102
{ACAD_REACTORS
330
826E
102
}
330
826E
100
AcDbXrecord
280
     1
270
     1
271
     1
  0
XRECORD
  5
8274
102
{ACAD_REACTORS
330
826E
102
}
330
826E
100
AcDbXrecord
280
     1
270
     1
271
     1
  0
XRECORD
  5
8271
102
{ACAD_REACTORS
330
826E
102
}
330
826E
100
AcDbXrecord
280
     1
270
     1
271
     1
  0
XRECORD
  5
8268
102
{ACAD_REACTORS
330
8266
102
}
330
8266
100
AcDbXrecord
280
     1
270
     1
271
     1
  0
XRECORD
  5
8267
102
{ACAD_REACTORS
330
8266
102
}
330
8266
100
AcDbXrecord
280
     1
270
     1
271
     1
  0
XRECORD
  5
826B
102
{ACAD_REACTORS
330
8266
102
}
330
8266
100
AcDbXrecord
280
     1
270
     1
271
     1
  0
XRECORD
  5
826A
102
{ACAD_REACTORS
330
8266
102
}
330
8266
100
AcDbXrecord
280
     1
270
     1
271
     1
  0
XRECORD
  5
826C
102
{ACAD_REACTORS
330
8266
102
}
330
8266
100
AcDbXrecord
280
     1
270
     1
271
     1
  0
XRECORD
  5
8269
102
{ACAD_REACTORS
330
8266
102
}
330
8266
100
AcDbXrecord
280
     1
270
     1
271
     1
  0
XRECORD
  5
8278
102
{ACAD_REACTORS
330
8276
102
}
330
8276
100
AcDbXrecord
280
     1
270
     1
271
     1
  0
XRECORD
  5
8277
102
{ACAD_REACTORS
330
8276
102
}
330
8276
100
AcDbXrecord
280
     1
270
     1
271
     1
  0
XRECORD
  5
827B
102
{ACAD_REACTORS
330
8276
102
}
330
8276
100
AcDbXrecord
280
     1
270
     1
271
     1
  0
XRECORD
  5
827A
102
{ACAD_REACTORS
330
8276
102
}
330
8276
100
AcDbXrecord
280
     1
270
     1
271
     1
  0
XRECORD
  5
827C
102
{ACAD_REACTORS
330
8276
102
}
330
8276
100
AcDbXrecord
280
     1
270
     1
271
     1
  0
XRECORD
  5
8279
102
{ACAD_REACTORS
330
8276
102
}
330
8276
100
AcDbXrecord
280
     1
270
     1
271
     1
  0
XRECORD
  5
8320
102
{ACAD_REACTORS
330
831F
102
}
330
831F
100
AcDbXrecord
280
     1
102
DISPLAYNAME
  1
Metric50
102
FLAGS
 90
        0
  0
CELLSTYLEMAP
  5
8315
102
{ACAD_REACTORS
330
8314
102
}
330
8314
100
AcDbCellStyleMap
 90
        3
300
CELLSTYLE
  1
TABLEFORMAT_BEGIN
 90
        5
170
     1
 91
        0
 92
    32768
 62
   257
 93
        1
300
CONTENTFORMAT
  1
CONTENTFORMAT_BEGIN
 90
        0
 91
        0
 92
      512
 93
        0
300

 40
0.0
140
1.0
 94
        5
 62
     0
340
10
144
6.0
309
CONTENTFORMAT_END
171
     1
301
MARGIN
  1
CELLMARGIN_BEGIN
 40
1.5
 40
1.5
 40
1.5
 40
1.5
 40
4.5
 40
4.5
309
CELLMARGIN_END
 94
        6
 95
        1
302
GRIDFORMAT
  1
GRIDFORMAT_BEGIN
 90
        0
 91
        1
 62
     0
 92
       -2
340
0
 93
        0
 40
1.125
309
GRIDFORMAT_END
 95
        2
302
GRIDFORMAT
  1
GRIDFORMAT_BEGIN
 90
        0
 91
        1
 62
     0
 92
       -2
340
0
 93
        0
 40
1.125
309
GRIDFORMAT_END
 95
        4
302
GRIDFORMAT
  1
GRIDFORMAT_BEGIN
 90
        0
 91
        1
 62
     0
 92
       -2
340
0
 93
        0
 40
1.125
309
GRIDFORMAT_END
 95
        8
302
GRIDFORMAT
  1
GRIDFORMAT_BEGIN
 90
        0
 91
        1
 62
     0
 92
       -2
340
0
 93
        0
 40
1.125
309
GRIDFORMAT_END
 95
       16
302
GRIDFORMAT
  1
GRIDFORMAT_BEGIN
 90
        0
 91
        1
 62
     0
 92
       -2
340
0
 93
        0
 40
1.125
309
GRIDFORMAT_END
 95
       32
302
GRIDFORMAT
  1
GRIDFORMAT_BEGIN
 90
        0
 91
        1
 62
     0
 92
       -2
340
0
 93
        0
 40
1.125
309
GRIDFORMAT_END
309
TABLEFORMAT_END
  1
CELLSTYLE_BEGIN
 90
        1
 91
        1
300
_TITLE
309
CELLSTYLE_END
300
CELLSTYLE
  1
TABLEFORMAT_BEGIN
 90
        5
170
     1
 91
        0
 92
        0
 62
   257
 93
        1
300
CONTENTFORMAT
  1
CONTENTFORMAT_BEGIN
 90
        0
 91
        0
 92
      512
 93
        0
300

 40
0.0
140
1.0
 94
        5
 62
     0
340
10
144
4.5
309
CONTENTFORMAT_END
171
     1
301
MARGIN
  1
CELLMARGIN_BEGIN
 40
1.5
 40
1.5
 40
1.5
 40
1.5
 40
4.5
 40
4.5
309
CELLMARGIN_END
 94
        6
 95
        1
302
GRIDFORMAT
  1
GRIDFORMAT_BEGIN
 90
        0
 91
        1
 62
     0
 92
       -2
340
0
 93
        0
 40
1.125
309
GRIDFORMAT_END
 95
        2
302
GRIDFORMAT
  1
GRIDFORMAT_BEGIN
 90
        0
 91
        1
 62
     0
 92
       -2
340
0
 93
        0
 40
1.125
309
GRIDFORMAT_END
 95
        4
302
GRIDFORMAT
  1
GRIDFORMAT_BEGIN
 90
        0
 91
        1
 62
     0
 92
       -2
340
0
 93
        0
 40
1.125
309
GRIDFORMAT_END
 95
        8
302
GRIDFORMAT
  1
GRIDFORMAT_BEGIN
 90
        0
 91
        1
 62
     0
 92
       -2
340
0
 93
        0
 40
1.125
309
GRIDFORMAT_END
 95
       16
302
GRIDFORMAT
  1
GRIDFORMAT_BEGIN
 90
        0
 91
        1
 62
     0
 92
       -2
340
0
 93
        0
 40
1.125
309
GRIDFORMAT_END
 95
       32
302
GRIDFORMAT
  1
GRIDFORMAT_BEGIN
 90
        0
 91
        1
 62
     0
 92
       -2
340
0
 93
        0
 40
1.125
309
GRIDFORMAT_END
309
TABLEFORMAT_END
  1
CELLSTYLE_BEGIN
 90
        2
 91
        1
300
_HEADER
309
CELLSTYLE_END
300
CELLSTYLE
  1
TABLEFORMAT_BEGIN
 90
        5
170
     1
 91
        0
 92
        0
 62
   257
 93
        1
300
CONTENTFORMAT
  1
CONTENTFORMAT_BEGIN
 90
        0
 91
        0
 92
      512
 93
        0
300

 40
0.0
140
1.0
 94
        2
 62
     0
340
10
144
4.5
309
CONTENTFORMAT_END
171
     1
301
MARGIN
  1
CELLMARGIN_BEGIN
 40
1.5
 40
1.5
 40
1.5
 40
1.5
 40
4.5
 40
4.5
309
CELLMARGIN_END
 94
        6
 95
        1
302
GRIDFORMAT
  1
GRIDFORMAT_BEGIN
 90
        0
 91
        1
 62
     0
 92
       -2
340
0
 93
        0
 40
1.125
309
GRIDFORMAT_END
 95
        2
302
GRIDFORMAT
  1
GRIDFORMAT_BEGIN
 90
        0
 91
        1
 62
     0
 92
       -2
340
0
 93
        0
 40
1.125
309
GRIDFORMAT_END
 95
        4
302
GRIDFORMAT
  1
GRIDFORMAT_BEGIN
 90
        0
 91
        1
 62
     0
 92
       -2
340
0
 93
        0
 40
1.125
309
GRIDFORMAT_END
 95
        8
302
GRIDFORMAT
  1
GRIDFORMAT_BEGIN
 90
        0
 91
        1
 62
     0
 92
       -2
340
0
 93
        0
 40
1.125
309
GRIDFORMAT_END
 95
       16
302
GRIDFORMAT
  1
GRIDFORMAT_BEGIN
 90
        0
 91
        1
 62
     0
 92
       -2
340
0
 93
        0
 40
1.125
309
GRIDFORMAT_END
 95
       32
302
GRIDFORMAT
  1
GRIDFORMAT_BEGIN
 90
        0
 91
        1
 62
     0
 92
       -2
340
0
 93
        0
 40
1.125
309
GRIDFORMAT_END
309
TABLEFORMAT_END
  1
CELLSTYLE_BEGIN
 90
        3
 91
        2
300
_DATA
309
CELLSTYLE_END
  0
ENDSEC
  0
SECTION
  2
ACDSDATA
 70
     2
 71
     8
  0
ACDSSCHEMA
 90
        0
  1
AcDb_Thumbnail_Schema
  2
AcDbDs::ID
280
    10
 91
        8
  2
Thumbnail_Data
280
    15
 91
        0
101
ACDSRECORD
 95
        0
 90
        1
  2
AcDbDs::TreatedAsObjectData
280
     1
291
     1
101
ACDSRECORD
 95
        0
 90
        2
  2
AcDbDs::Legacy
280
     1
291
     1
101
ACDSRECORD
  1
AcDbDs::ID
 90
        3
  2
AcDs:Indexable
280
     1
291
     1
101
ACDSRECORD
  1
AcDbDs::ID
 90
        4
  2
AcDbDs::HandleAttribute
280
     7
282
     1
  0
ACDSSCHEMA
 90
        1
  1
AcDbDs::TreatedAsObjectDataSchema
  2
AcDbDs::TreatedAsObjectData
280
     1
 91
        0
  0
ACDSSCHEMA
 90
        2
  1
AcDbDs::LegacySchema
  2
AcDbDs::Legacy
280
     1
 91
        0
  0
ACDSSCHEMA
 90
        3
  1
AcDbDs::IndexedPropertySchema
  2
AcDs:Indexable
280
     1
 91
        0
  0
ACDSSCHEMA
 90
        4
  1
AcDbDs::HandleAttributeSchema
  2
AcDbDs::HandleAttribute
280
     7
 91
        1
284
     1
  0
ACDSRECORD
 90
        0
  2
AcDbDs::ID
280
    10
320
816F
  2
Thumbnail_Data
280
    15
 94
     1750
310
89504E470D0A1A0A0000000D49484452000001000000007C0803000000B13B9E5A00000300504C5445000000000000C8C8C80000000000000000000000000000000000000000000000000000330000660000990000CC0000FF0033000033330033660033990033CC0033FF0066000066330066660066990066CC0066FF0099
310
000099330099660099990099CC0099FF00CC0000CC3300CC6600CC9900CCCC00CCFF00FF0000FF3300FF6600FF9900FFCC00FFFF3300003300333300663300993300CC3300FF3333003333333333663333993333CC3333FF3366003366333366663366993366CC3366FF3399003399333399663399993399CC3399FF33CC00
310
33CC3333CC6633CC9933CCCC33CCFF33FF0033FF3333FF6633FF9933FFCC33FFFF6600006600336600666600996600CC6600FF6633006633336633666633996633CC6633FF6666006666336666666666996666CC6666FF6699006699336699666699996699CC6699FF66CC0066CC3366CC6666CC9966CCCC66CCFF66FF0066
310
FF3366FF6666FF9966FFCC66FFFF9900009900339900669900999900CC9900FF9933009933339933669933999933CC9933FF9966009966339966669966999966CC9966FF9999009999339999669999999999CC9999FF99CC0099CC3399CC6699CC9999CCCC99CCFF99FF0099FF3399FF6699FF9999FFCC99FFFFCC0000CC00
310
33CC0066CC0099CC00CCCC00FFCC3300CC3333CC3366CC3399CC33CCCC33FFCC6600CC6633CC6666CC6699CC66CCCC66FFCC9900CC9933CC9966CC9999CC99CCCC99FFCCCC00CCCC33CCCC66CCCC99CCCCCCCCCCFFCCFF00CCFF33CCFF66CCFF99CCFFCCCCFFFFFF0000FF0033FF0066FF0099FF00CCFF00FFFF3300FF3333
310
FF3366FF3399FF33CCFF33FFFF6600FF6633FF6666FF6699FF66CCFF66FFFF9900FF9933FF9966FF9999FF99CCFF99FFFFCC00FFCC33FFCC66FFCC99FFCCCCFFCCFFFFFF00FFFF33FFFF66FFFF99FFFFCCFFFFFF0000000D0D0D1A1A1A2828283535354343435050505D5D5D6B6B6B787878868686939393A1A1A1AEAEAEBB
310
BBBBC9C9C9D6D6D6E4E4E4F1F1F1FFFFFF00000000000000000000000000000000000000000000000000000000000008F1915C000003914944415478DAED9D5B9622210C86B31C5EB2FFCDB00DDE47A90009172DE7B4339D0B7DB4B14A3DF2F9E702A4AB01BED0CA971A686945D5DB0680001000024000F83D9FF445F0F302
310
607A7971A900F7008A67009315E806F0A3330095007ED99B0580FF008074CC245D441F9AC8AFE70ECBA1831600C0356818C3067AD87C5E29940194D685D2EE4D28004EFE8D14708D7528809DB062022DC92BDC265E8FAD84138C3CC0E164E8AD4928042023E0AA8CF6921E21781CB405A06C018C10D0004C2ED2120028CB11
310
1603FBF06D01F8A9D7C79A6000500D203FDAFE810F00D931807C6E4E001C1F068000E00940F208E07275289A2F008F5B1B7812183C01A07E42ECC79D02E8DDD60B00DE0050BF77FC01007E7300202F009AFA7D00A8B39D84895AEF3CFB94137C3223520A6052002CF7CE0008137008403A41EB00562738C2604B884DFB8057
310
89103E668701C01B003E19F20460DF08806D27780D0EC514B85B812F001B0924F400605D1193CB63D9B80F981C81B0011C51C107807430011F00F6CDDFC6C864F35E00B8DF1C3D8DD30B805FFEB601200004807FF649FFC2F51B0090CF007C4481EC3D0FC83CFF9BAAE576A48EC6624B01AE00AC79DF0AE0868D687782999B
310
C00A60EB296D01788E8A0697F700B2F413D91C80173E20EFECC01A80E5E05E01BDA4503B80F9FBC4A54E6E02807345216A0750C7752D8D4F6BA2B855004A05A0760590DF03B62DF01900190A1503A8234FC07687EE2BC00280EB9B4FC0087C6002FA01D41D90660147007CA38401D06D0255BFB51880BC201E15C0E9D800D0
310
53DE0AE0F193AEDD303C02183ED20E801AFE9F0582885428884835831B00A292B03ED784023299406AFBE48078570168C604A00D0F79523401587C001A017011B82A427008FE86024039805E2959132116059EBD842B006429C3E2293503A8F5012473242449FCFD9408901C80FE4C901709F5DF89A2020740AEDFDC5CA049
310
398DB152D0BBA500EDEB01D06700DDB50F83BFE5035403E073E1B4AB96DC00D89F570D00A4098C5837954EF2531B09E85D12DB2B20AD7573F614C001E43700325F0C5C7C04285D15CE2D1A64B93C0E732A4CB3E7963FE6BE9AA61A000D87D6F897FD51B9F3F576F7583980B75B7F7C730C3680F402F88265E9F10110000240
310
0008000120008C53DEAF2AFBF9C87C00E0579D15D7E2B6070036FF3A8D5D71BD5F7AB73DB2AC009F3E60AF0071617D873EC02780835D3852405C5D3E52E1001000024000080001C0200045FF7AFB0FB9F443438733C34C0000000049454E44AE426082
  0
ENDSEC
  0
EOF
