  0
SECTION
  2
HEADER
  9
$ACADVER
  1
AC1027
  9
$ACADMAINTVER
 70
   125
  9
$DWGCODEPAGE
  3
ANSI_932
  9
$LASTSAVEDBY
  1
yasukiyo.ogawa
  9
$REQUIREDVERSIONS
160
                 0
  9
$INSBASE
 10
0.0
 20
0.0
 30
0.0
  9
$EXTMIN
 10
0.0
 20
0.0
 30
0.0
  9
$EXTMAX
 10
7350.0
 20
10325.0
 30
0.0
  9
$LIMMIN
 10
0.0
 20
0.0
  9
$LIMMAX
 10
297.0
 20
210.0
  9
$ORTHOMODE
 70
     1
  9
$REGENMODE
 70
     1
  9
$FILLMODE
 70
     0
  9
$QTEXTMODE
 70
     0
  9
$MIRRTEXT
 70
     1
  9
$LTSCALE
 40
100.0
  9
$ATTMODE
 70
     1
  9
$TEXTSIZE
 40
180.0
  9
$TRACEWID
 40
0.05
  9
$TEXTSTYLE
  7
STANDARD
  9
$CLAYER
  8
3
  9
$CELTYPE
  6
BYLAYER
  9
$CECOLOR
 62
   256
  9
$CELTSCALE
 40
1.0
  9
$DISPSILH
 70
     0
  9
$DIMSCALE
 40
35.0
  9
$DIMASZ
 40
2.0
  9
$DIMEXO
 40
0.5
  9
$DIMDLI
 40
10.0
  9
$DIMRND
 40
0.0
  9
$DIMDLE
 40
0.0
  9
$DIMEXE
 40
1.0
  9
$DIMTP
 40
1.0
  9
$DIMTM
 40
1.0
  9
$DIMTXT
 40
3.0
  9
$DIMCEN
 40
0.0
  9
$DIMTSZ
 40
0.0
  9
$DIMTOL
 70
     0
  9
$DIMLIM
 70
     0
  9
$DIMTIH
 70
     0
  9
$DIMTOH
 70
     0
  9
$DIMSE1
 70
     0
  9
$DIMSE2
 70
     0
  9
$DIMTAD
 70
     1
  9
$DIMZIN
 70
     8
  9
$DIMBLK
  1

  9
$DIMASO
 70
     1
  9
$DIMSHO
 70
     1
  9
$DIMPOST
  1

  9
$DIMAPOST
  1

  9
$DIMALT
 70
     0
  9
$DIMALTD
 70
     2
  9
$DIMALTF
 40
0.039
  9
$DIMLFAC
 40
1.0
  9
$DIMTOFL
 70
     1
  9
$DIMTVP
 40
0.0
  9
$DIMTIX
 70
     0
  9
$DIMSOXD
 70
     0
  9
$DIMSAH
 70
     1
  9
$DIMBLK1
  1
OPEN
  9
$DIMBLK2
  1
OPEN
  9
$DIMSTYLE
  2
IGA
  9
$DIMCLRD
 70
     0
  9
$DIMCLRE
 70
     0
  9
$DIMCLRT
 70
     0
  9
$DIMTFAC
 40
10.0
  9
$DIMGAP
 40
1.0
  9
$DIMJUST
 70
     0
  9
$DIMSD1
 70
     0
  9
$DIMSD2
 70
     0
  9
$DIMTOLJ
 70
     1
  9
$DIMTZIN
 70
     8
  9
$DIMALTZ
 70
     0
  9
$DIMALTTZ
 70
     0
  9
$DIMUPT
 70
     0
  9
$DIMDEC
 70
     0
  9
$DIMTDEC
 70
     0
  9
$DIMALTU
 70
     2
  9
$DIMALTTD
 70
     2
  9
$DIMTXSTY
  7
STANDARD
  9
$DIMAUNIT
 70
     0
  9
$DIMADEC
 70
     0
  9
$DIMALTRND
 40
0.0
  9
$DIMAZIN
 70
     0
  9
$DIMDSEP
 70
    46
  9
$DIMATFIT
 70
     3
  9
$DIMFRAC
 70
     0
  9
$DIMLDRBLK
  1
OPEN
  9
$DIMLUNIT
 70
     2
  9
$DIMLWD
 70
    -2
  9
$DIMLWE
 70
    -2
  9
$DIMTMOVE
 70
     2
  9
$DIMFXL
 40
1.0
  9
$DIMFXLON
 70
     0
  9
$DIMJOGANG
 40
0.7853981633974483
  9
$DIMTFILL
 70
     0
  9
$DIMTFILLCLR
 70
     0
  9
$DIMARCSYM
 70
     0
  9
$DIMLTYPE
  6

  9
$DIMLTEX1
  6

  9
$DIMLTEX2
  6

  9
$DIMTXTDIRECTION
 70
     0
  9
$LUNITS
 70
     2
  9
$LUPREC
 70
     3
  9
$SKETCHINC
 40
0.1
  9
$FILLETRAD
 40
50.0
  9
$AUNITS
 70
     0
  9
$AUPREC
 70
     0
  9
$MENU
  1
acad
  9
$ELEVATION
 40
0.0
  9
$PELEVATION
 40
0.0
  9
$THICKNESS
 40
0.0
  9
$LIMCHECK
 70
     0
  9
$CHAMFERA
 40
0.5
  9
$CHAMFERB
 40
0.5
  9
$CHAMFERC
 40
20.0
  9
$CHAMFERD
 40
0.0
  9
$SKPOLY
 70
     0
  9
$TDCREATE
 40
2451382.589016204
  9
$TDUCREATE
 40
2451382.214021875
  9
$TDUPDATE
 40
2460241.650937500
  9
$TDUUPDATE
 40
2460241.275946354
  9
$TDINDWG
 40
0.1334145023
  9
$TDUSRTIMER
 40
0.1334145023
  9
$USRTIMER
 70
     1
  9
$ANGBASE
 50
0.0
  9
$ANGDIR
 70
     0
  9
$PDMODE
 70
     0
  9
$PDSIZE
 40
0.0
  9
$PLINEWID
 40
0.0
  9
$SPLFRAME
 70
     0
  9
$SPLINETYPE
 70
     6
  9
$SPLINESEGS
 70
     8
  9
$HANDSEED
  5
843D
  9
$SURFTAB1
 70
     6
  9
$SURFTAB2
 70
     6
  9
$SURFTYPE
 70
     6
  9
$SURFU
 70
     6
  9
$SURFV
 70
     6
  9
$UCSBASE
  2

  9
$UCSNAME
  2

  9
$UCSORG
 10
0.0
 20
0.0
 30
0.0
  9
$UCSXDIR
 10
1.0
 20
0.0
 30
0.0
  9
$UCSYDIR
 10
0.0
 20
1.0
 30
0.0
  9
$UCSORTHOREF
  2

  9
$UCSORTHOVIEW
 70
     0
  9
$UCSORGTOP
 10
0.0
 20
0.0
 30
0.0
  9
$UCSORGBOTTOM
 10
0.0
 20
0.0
 30
0.0
  9
$UCSORGLEFT
 10
0.0
 20
0.0
 30
0.0
  9
$UCSORGRIGHT
 10
0.0
 20
0.0
 30
0.0
  9
$UCSORGFRONT
 10
0.0
 20
0.0
 30
0.0
  9
$UCSORGBACK
 10
0.0
 20
0.0
 30
0.0
  9
$PUCSBASE
  2

  9
$PUCSNAME
  2

  9
$PUCSORG
 10
0.0
 20
0.0
 30
0.0
  9
$PUCSXDIR
 10
1.0
 20
0.0
 30
0.0
  9
$PUCSYDIR
 10
0.0
 20
1.0
 30
0.0
  9
$PUCSORTHOREF
  2

  9
$PUCSORTHOVIEW
 70
     0
  9
$PUCSORGTOP
 10
0.0
 20
0.0
 30
0.0
  9
$PUCSORGBOTTOM
 10
0.0
 20
0.0
 30
0.0
  9
$PUCSORGLEFT
 10
0.0
 20
0.0
 30
0.0
  9
$PUCSORGRIGHT
 10
0.0
 20
0.0
 30
0.0
  9
$PUCSORGFRONT
 10
0.0
 20
0.0
 30
0.0
  9
$PUCSORGBACK
 10
0.0
 20
0.0
 30
0.0
  9
$USERI1
 70
     0
  9
$USERI2
 70
     0
  9
$USERI3
 70
     0
  9
$USERI4
 70
     0
  9
$USERI5
 70
     0
  9
$USERR1
 40
0.0
  9
$USERR2
 40
0.0
  9
$USERR3
 40
0.0
  9
$USERR4
 40
0.0
  9
$USERR5
 40
0.0
  9
$WORLDVIEW
 70
     1
  9
$SHADEDGE
 70
     3
  9
$SHADEDIF
 70
    70
  9
$TILEMODE
 70
     1
  9
$MAXACTVP
 70
    16
  9
$PINSBASE
 10
0.0
 20
0.0
 30
0.0
  9
$PLIMCHECK
 70
     0
  9
$PEXTMIN
 10
1.000000000000000E+20
 20
1.000000000000000E+20
 30
1.000000000000000E+20
  9
$PEXTMAX
 10
-1.000000000000000E+20
 20
-1.000000000000000E+20
 30
-1.000000000000000E+20
  9
$PLIMMIN
 10
0.0
 20
0.0
  9
$PLIMMAX
 10
12.0
 20
9.0
  9
$UNITMODE
 70
     0
  9
$VISRETAIN
 70
     0
  9
$PLINEGEN
 70
     0
  9
$PSLTSCALE
 70
     1
  9
$TREEDEPTH
 70
  3020
  9
$CMLSTYLE
  2
STANDARD
  9
$CMLJUST
 70
     0
  9
$CMLSCALE
 40
20.0
  9
$PROXYGRAPHICS
 70
     1
  9
$MEASUREMENT
 70
     1
  9
$CELWEIGHT
370
    -1
  9
$ENDCAPS
280
     0
  9
$JOINSTYLE
280
     0
  9
$LWDISPLAY
290
     0
  9
$INSUNITS
 70
     0
  9
$HYPERLINKBASE
  1

  9
$STYLESHEET
  1

  9
$XEDIT
290
     1
  9
$CEPSNTYPE
380
     0
  9
$PSTYLEMODE
290
     1
  9
$FINGERPRINTGUID
  2
{7F870933-48B5-4D74-9792-236A357BB78B}
  9
$VERSIONGUID
  2
{C8030363-A008-41AB-998D-EA3400C6EFBC}
  9
$EXTNAMES
290
     1
  9
$PSVPSCALE
 40
0.0
  9
$OLESTARTUP
290
     0
  9
$SORTENTS
280
   127
  9
$INDEXCTL
280
     0
  9
$HIDETEXT
280
     0
  9
$XCLIPFRAME
280
     2
  9
$HALOGAP
280
     0
  9
$OBSCOLOR
 70
   257
  9
$OBSLTYPE
280
     0
  9
$INTERSECTIONDISPLAY
280
     0
  9
$INTERSECTIONCOLOR
 70
   257
  9
$DIMASSOC
280
     1
  9
$PROJECTNAME
  1

  9
$CAMERADISPLAY
290
     0
  9
$LENSLENGTH
 40
50.0
  9
$CAMERAHEIGHT
 40
0.0
  9
$STEPSPERSEC
 40
2.0
  9
$STEPSIZE
 40
6.0
  9
$3DDWFPREC
 40
2.0
  9
$PSOLWIDTH
 40
0.25
  9
$PSOLHEIGHT
 40
4.0
  9
$LOFTANG1
 40
1.570796326794896
  9
$LOFTANG2
 40
1.570796326794896
  9
$LOFTMAG1
 40
0.0
  9
$LOFTMAG2
 40
0.0
  9
$LOFTPARAM
 70
     7
  9
$LOFTNORMALS
280
     1
  9
$LATITUDE
 40
37.795
  9
$LONGITUDE
 40
-122.394
  9
$NORTHDIRECTION
 40
0.0
  9
$TIMEZONE
 70
 -8000
  9
$LIGHTGLYPHDISPLAY
280
     1
  9
$TILEMODELIGHTSYNCH
280
     1
  9
$CMATERIAL
347
837F
  9
$SOLIDHIST
280
     0
  9
$SHOWHIST
280
     1
  9
$DWFFRAME
280
     2
  9
$DGNFRAME
280
     0
  9
$REALWORLDSCALE
290
     1
  9
$INTERFERECOLOR
 62
     1
  9
$INTERFEREOBJVS
345
83A1
  9
$INTERFEREVPVS
346
839E
  9
$CSHADOW
280
     0
  9
$SHADOWPLANELOCATION
 40
0.0
  0
ENDSEC
  0
SECTION
  2
CLASSES
  0
CLASS
  1
ACDBDICTIONARYWDFLT
  2
AcDbDictionaryWithDefault
  3
ObjectDBX Classes
 90
        0
 91
        1
280
     0
281
     0
  0
CLASS
  1
DICTIONARYVAR
  2
AcDbDictionaryVar
  3
ObjectDBX Classes
 90
        0
 91
       11
280
     0
281
     0
  0
CLASS
  1
MATERIAL
  2
AcDbMaterial
  3
ObjectDBX Classes
 90
     1153
 91
        3
280
     0
281
     0
  0
CLASS
  1
VISUALSTYLE
  2
AcDbVisualStyle
  3
ObjectDBX Classes
 90
     4095
 91
       24
280
     0
281
     0
  0
CLASS
  1
TABLESTYLE
  2
AcDbTableStyle
  3
ObjectDBX Classes
 90
     4095
 91
        1
280
     0
281
     0
  0
CLASS
  1
SCALE
  2
AcDbScale
  3
ObjectDBX Classes
 90
     1153
 91
       17
280
     0
281
     0
  0
CLASS
  1
MLEADERSTYLE
  2
AcDbMLeaderStyle
  3
ACDB_MLEADERSTYLE_CLASS
 90
     4095
 91
        1
280
     0
281
     0
  0
CLASS
  1
ACDBSECTIONVIEWSTYLE
  2
AcDbSectionViewStyle
  3
ObjectDBX Classes
 90
     1025
 91
        1
280
     0
281
     0
  0
CLASS
  1
ACDBDETAILVIEWSTYLE
  2
AcDbDetailViewStyle
  3
ObjectDBX Classes
 90
     1025
 91
        1
280
     0
281
     0
  0
CLASS
  1
CELLSTYLEMAP
  2
AcDbCellStyleMap
  3
ObjectDBX Classes
 90
     1152
 91
        1
280
     0
281
     0
  0
ENDSEC
  0
SECTION
  2
TABLES
  0
TABLE
  2
VPORT
  5
8
330
0
100
AcDbSymbolTable
 70
     1
1001
ACAD
1000
DbSaveVer
1071
      278
  0
VPORT
  5
837C
330
8
100
AcDbSymbolTableRecord
100
AcDbViewportTableRecord
  2
*Active
 70
     0
 10
0.0
 20
0.0
 11
1.0
 21
1.0
 12
4714.698658823925
 22
5162.500024039763
 13
0.0
 23
0.0
 14
10.0
 24
10.0
 15
10.0
 25
10.0
 16
0.0
 26
0.0
 36
1.0
 17
0.0
 27
0.0
 37
0.0
 40
10391.74948481712
 41
2.250314465408805
 42
50.0
 43
0.0
 44
0.0
 50
0.0
 51
0.0
 71
     0
 72
   100
 73
     1
 74
     0
 75
     0
 76
     0
 77
     0
 78
     0
281
     0
 65
     1
110
0.0
120
0.0
130
0.0
111
1.0
121
0.0
131
0.0
112
0.0
122
1.0
132
0.0
 79
     0
146
0.0
348
839D
 60
     3
 61
     5
292
     1
282
     1
141
0.0
142
0.0
 63
   250
421
  3355443
1001
ACAD_NAV_VCDISPLAY
1070
     3
  0
ENDTAB
  0
TABLE
  2
LTYPE
  5
5
330
0
100
AcDbSymbolTable
 70
     2
  0
LTYPE
  5
13
330
5
100
AcDbSymbolTableRecord
100
AcDbLinetypeTableRecord
  2
BYBLOCK
 70
     0
  3

 72
    65
 73
     0
 40
0.0
  0
LTYPE
  5
14
330
5
100
AcDbSymbolTableRecord
100
AcDbLinetypeTableRecord
  2
BYLAYER
 70
     0
  3

 72
    65
 73
     0
 40
0.0
  0
LTYPE
  5
15
330
5
100
AcDbSymbolTableRecord
100
AcDbLinetypeTableRecord
  2
CONTINUOUS
 70
     0
  3
Solid line
 72
    65
 73
     0
 40
0.0
  0
LTYPE
  5
1F
330
5
100
AcDbSymbolTableRecord
100
AcDbLinetypeTableRecord
  2
CENTER
 70
     0
  3
____ _ ____ _ ____ _ ____ _ ____ _ ____ _ ____ 
 72
    65
 73
     4
 40
2.0
 49
1.25
 74
     0
 49
-0.25
 74
     0
 49
0.25
 74
     0
 49
-0.25
 74
     0
  0
ENDTAB
  0
TABLE
  2
LAYER
  5
2
102
{ACAD_XDICTIONARY
360
8414
102
}
330
0
100
AcDbSymbolTable
 70
     6
  0
LAYER
  5
F
102
{ACAD_XDICTIONARY
360
8407
102
}
330
2
100
AcDbSymbolTableRecord
100
AcDbLayerTableRecord
  2
0
 70
     0
 62
     7
  6
CONTINUOUS
370
    -3
390
81AE
347
838F
348
0
  0
LAYER
  5
31
102
{ACAD_XDICTIONARY
360
8409
102
}
330
2
100
AcDbSymbolTableRecord
100
AcDbLayerTableRecord
  2
3
 70
     0
 62
     2
  6
CONTINUOUS
370
    -3
390
81AE
347
838F
348
0
  0
LAYER
  5
76D0
102
{ACAD_XDICTIONARY
360
840B
102
}
330
2
100
AcDbSymbolTableRecord
100
AcDbLayerTableRecord
  2
2
 70
     0
 62
     3
  6
CENTER
370
    -3
390
81AE
347
838F
348
0
  0
LAYER
  5
76D1
102
{ACAD_XDICTIONARY
360
840D
102
}
330
2
100
AcDbSymbolTableRecord
100
AcDbLayerTableRecord
  2
1
 70
     0
 62
     4
  6
CONTINUOUS
370
    -3
390
81AE
347
838F
348
0
  0
LAYER
  5
76D2
102
{ACAD_XDICTIONARY
360
840F
102
}
330
2
100
AcDbSymbolTableRecord
100
AcDbLayerTableRecord
  2
4
 70
     0
 62
     7
  6
CONTINUOUS
370
    -3
390
81AE
347
838F
348
0
  0
LAYER
  5
7B41
330
2
100
AcDbSymbolTableRecord
100
AcDbLayerTableRecord
  2
DEFPOINTS
 70
     0
 62
     7
  6
CONTINUOUS
290
     0
370
    -3
390
81AE
347
838F
348
0
  0
ENDTAB
  0
TABLE
  2
STYLE
  5
3
330
0
100
AcDbSymbolTable
 70
     1
  0
STYLE
  5
10
330
3
100
AcDbSymbolTableRecord
100
AcDbTextStyleTableRecord
  2
STANDARD
 70
     0
 40
0.0
 41
1.0
 50
0.0
 71
     0
 42
180.0
  3
simplex.shx
  4
extfont.shx
  0
ENDTAB
  0
TABLE
  2
VIEW
  5
6
330
0
100
AcDbSymbolTable
 70
     0
  0
ENDTAB
  0
TABLE
  2
UCS
  5
7
330
0
100
AcDbSymbolTable
 70
     0
  0
ENDTAB
  0
TABLE
  2
APPID
  5
9
330
0
100
AcDbSymbolTable
 70
     4
  0
APPID
  5
11
330
9
100
AcDbSymbolTableRecord
100
AcDbRegAppTableRecord
  2
ACAD
 70
     0
  0
APPID
  5
83CE
330
9
100
AcDbSymbolTableRecord
100
AcDbRegAppTableRecord
  2
AcadAnnoMonitorAlertIconDisabled
 70
     0
  0
APPID
  5
83CF
330
9
100
AcDbSymbolTableRecord
100
AcDbRegAppTableRecord
  2
ACAD_EXEMPT_FROM_CAD_STANDARDS
 70
     0
  0
APPID
  5
841A
330
9
100
AcDbSymbolTableRecord
100
AcDbRegAppTableRecord
  2
ACAD_NAV_VCDISPLAY
 70
     0
  0
ENDTAB
  0
TABLE
  2
DIMSTYLE
  5
A
330
0
100
AcDbSymbolTable
 70
     1
100
AcDbDimStyleTable
 71
     1
340
1D
  0
DIMSTYLE
105
1D
102
{ACAD_REACTORS
330
7C2D
330
7C2F
330
7C35
330
7C59
330
7C5A
330
7C5B
330
7C5F
330
7C64
330
7C8A
330
7C8E
330
7CA0
330
7CA2
330
7CA3
330
7CAF
330
7CB0
330
7CB5
330
7CC4
330
7CCF
330
7CD8
330
7CD9
330
8197
330
81A6
102
}
330
A
100
AcDbSymbolTableRecord
100
AcDbDimStyleTableRecord
  2
IGA
 70
     0
 40
2.0
 41
2.0
 42
0.5
 43
10.0
 44
1.0
 47
1.0
 48
1.0
 73
     0
 74
     0
 77
     1
 78
     8
140
3.0
141
0.0
143
0.03937
146
10.0
147
1.0
173
     1
271
     1
272
     0
279
     2
284
     8
340
10
341
79FC
343
79FC
344
79FC
  0
ENDTAB
  0
TABLE
  2
BLOCK_RECORD
  5
1
330
0
100
AcDbSymbolTable
 70
    25
  0
BLOCK_RECORD
  5
19
102
{ACAD_XDICTIONARY
360
82BC
102
}
330
1
100
AcDbSymbolTableRecord
100
AcDbBlockTableRecord
  2
*MODEL_SPACE
340
81B1
 70
     0
280
     1
281
     0
  0
BLOCK_RECORD
  5
16
102
{ACAD_XDICTIONARY
360
82BA
102
}
330
1
100
AcDbSymbolTableRecord
100
AcDbBlockTableRecord
  2
*PAPER_SPACE
340
81B2
 70
     0
280
     1
281
     0
  0
BLOCK_RECORD
  5
79FC
330
1
100
AcDbSymbolTableRecord
100
AcDbBlockTableRecord
  2
_OPEN
340
0
102
{BLKREFS
331
8304
331
8305
331
830D
331
830E
331
8316
331
8317
331
831F
331
8320
331
8328
331
8329
331
8331
331
8332
331
833A
331
833B
331
8343
331
8344
331
834C
331
834D
331
8355
331
8356
331
835E
331
835F
331
836A
331
814F
331
8190
331
8191
331
819F
331
81A0
331
82C5
331
82C6
331
82CE
331
82CF
331
82D7
331
82D8
331
82F2
331
82F3
331
82FB
331
82FC
331
83F8
331
83F9
331
8401
331
8402
102
}
 70
     0
280
     1
281
     0
  0
BLOCK_RECORD
  5
7A0A
330
1
100
AcDbSymbolTableRecord
100
AcDbBlockTableRecord
  2
YA_N
340
0
102
{BLKREFS
331
7C12
331
7C16
331
7C18
102
}
 70
     0
280
     1
281
     0
  0
BLOCK_RECORD
  5
7CDB
330
1
100
AcDbSymbolTableRecord
100
AcDbBlockTableRecord
  2
*D2
340
0
 70
     0
280
     1
281
     0
  0
BLOCK_RECORD
  5
7CE7
330
1
100
AcDbSymbolTableRecord
100
AcDbBlockTableRecord
  2
*D3
340
0
 70
     0
280
     1
281
     0
  0
BLOCK_RECORD
  5
7CFF
330
1
100
AcDbSymbolTableRecord
100
AcDbBlockTableRecord
  2
*D4
340
0
 70
     0
280
     1
281
     0
  0
BLOCK_RECORD
  5
7D0B
330
1
100
AcDbSymbolTableRecord
100
AcDbBlockTableRecord
  2
*D5
340
0
 70
     0
280
     1
281
     0
  0
BLOCK_RECORD
  5
7D17
330
1
100
AcDbSymbolTableRecord
100
AcDbBlockTableRecord
  2
*D6
340
0
 70
     0
280
     1
281
     0
  0
BLOCK_RECORD
  5
7D23
330
1
100
AcDbSymbolTableRecord
100
AcDbBlockTableRecord
  2
*D7
340
0
 70
     0
280
     1
281
     0
  0
BLOCK_RECORD
  5
7D3B
330
1
100
AcDbSymbolTableRecord
100
AcDbBlockTableRecord
  2
*D8
340
0
 70
     0
280
     1
281
     0
  0
BLOCK_RECORD
  5
7D5F
330
1
100
AcDbSymbolTableRecord
100
AcDbBlockTableRecord
  2
*D9
340
0
 70
     0
280
     1
281
     0
  0
BLOCK_RECORD
  5
7D6B
330
1
100
AcDbSymbolTableRecord
100
AcDbBlockTableRecord
  2
*D10
340
0
 70
     0
280
     1
281
     0
  0
BLOCK_RECORD
  5
7D77
330
1
100
AcDbSymbolTableRecord
100
AcDbBlockTableRecord
  2
*D11
340
0
 70
     0
280
     1
281
     0
  0
BLOCK_RECORD
  5
7D83
330
1
100
AcDbSymbolTableRecord
100
AcDbBlockTableRecord
  2
*D12
340
0
 70
     0
280
     1
281
     0
  0
BLOCK_RECORD
  5
7D8F
330
1
100
AcDbSymbolTableRecord
100
AcDbBlockTableRecord
  2
*D13
340
0
 70
     0
280
     1
281
     0
  0
BLOCK_RECORD
  5
7D9B
330
1
100
AcDbSymbolTableRecord
100
AcDbBlockTableRecord
  2
*D14
340
0
 70
     0
280
     1
281
     0
  0
BLOCK_RECORD
  5
7DA7
330
1
100
AcDbSymbolTableRecord
100
AcDbBlockTableRecord
  2
*D15
340
0
 70
     0
280
     1
281
     0
  0
BLOCK_RECORD
  5
7DB3
330
1
100
AcDbSymbolTableRecord
100
AcDbBlockTableRecord
  2
*D16
340
0
 70
     0
280
     1
281
     0
  0
BLOCK_RECORD
  5
7DBF
330
1
100
AcDbSymbolTableRecord
100
AcDbBlockTableRecord
  2
*D17
340
0
 70
     0
280
     1
281
     0
  0
BLOCK_RECORD
  5
7DCB
330
1
100
AcDbSymbolTableRecord
100
AcDbBlockTableRecord
  2
*D18
340
0
 70
     0
280
     1
281
     0
  0
BLOCK_RECORD
  5
7DD7
330
1
100
AcDbSymbolTableRecord
100
AcDbBlockTableRecord
  2
*D19
340
0
 70
     0
280
     1
281
     0
  0
BLOCK_RECORD
  5
7DE3
330
1
100
AcDbSymbolTableRecord
100
AcDbBlockTableRecord
  2
*D20
340
0
 70
     0
280
     1
281
     0
  0
BLOCK_RECORD
  5
7DF0
330
1
100
AcDbSymbolTableRecord
100
AcDbBlockTableRecord
  2
*D21
340
0
 70
     0
280
     1
281
     0
  0
BLOCK_RECORD
  5
80B3
330
1
100
AcDbSymbolTableRecord
100
AcDbBlockTableRecord
  2
_DOT
340
0
102
{BLKREFS
331
8369
331
8150
102
}
 70
     0
280
     1
281
     0
  0
BLOCK_RECORD
  5
818B
330
1
100
AcDbSymbolTableRecord
100
AcDbBlockTableRecord
  2
*D23
340
0
 70
     0
280
     1
281
     0
  0
BLOCK_RECORD
  5
819A
330
1
100
AcDbSymbolTableRecord
100
AcDbBlockTableRecord
  2
*D24
340
0
 70
     0
280
     1
281
     0
  0
ENDTAB
  0
ENDSEC
  0
SECTION
  2
BLOCKS
  0
BLOCK
  5
1A
330
19
100
AcDbEntity
  8
0
100
AcDbBlockBegin
  2
*MODEL_SPACE
 70
     0
 10
0.0
 20
0.0
 30
0.0
  3
*MODEL_SPACE
  1

  0
ENDBLK
  5
1B
330
19
100
AcDbEntity
  8
0
100
AcDbBlockEnd
  0
BLOCK
  5
17
330
16
100
AcDbEntity
 67
     1
  8
0
100
AcDbBlockBegin
  2
*PAPER_SPACE
 70
     0
 10
0.0
 20
0.0
 30
0.0
  3
*PAPER_SPACE
  1

  0
ENDBLK
  5
18
330
16
100
AcDbEntity
 67
     1
  8
0
100
AcDbBlockEnd
  0
BLOCK
  5
7A00
330
79FC
100
AcDbEntity
  8
0
100
AcDbBlockBegin
  2
_OPEN
 70
     0
 10
0.0
 20
0.0
 30
0.0
  3
_OPEN
  1

  0
LINE
  5
79FD
330
79FC
100
AcDbEntity
  8
0
  6
ByBlock
 62
     0
100
AcDbLine
 10
-1.0
 20
0.1666666666666666
 30
0.0
 11
0.0
 21
0.0
 31
0.0
  0
LINE
  5
79FE
330
79FC
100
AcDbEntity
  8
0
  6
ByBlock
 62
     0
100
AcDbLine
 10
0.0
 20
0.0
 30
0.0
 11
-1.0
 21
-0.1666666666666666
 31
0.0
  0
LINE
  5
79FF
330
79FC
100
AcDbEntity
  8
0
  6
ByBlock
 62
     0
100
AcDbLine
 10
0.0
 20
0.0
 30
0.0
 11
-1.0
 21
0.0
 31
0.0
  0
ENDBLK
  5
7A01
330
79FC
100
AcDbEntity
  8
0
100
AcDbBlockEnd
  0
BLOCK
  5
7A0B
330
7A0A
100
AcDbEntity
  8
0
100
AcDbBlockBegin
  2
YA_N
 70
     0
 10
0.0
 20
0.0
 30
0.0
  3
YA_N
  1

  0
ENDBLK
  5
7A0C
330
7A0A
100
AcDbEntity
  8
0
100
AcDbBlockEnd
  0
BLOCK
  5
7FE9
330
7CDB
100
AcDbEntity
  8
0
100
AcDbBlockBegin
  2
*D2
 70
     1
 10
0.0
 20
0.0
 30
0.0
  3
*D2
  1

  0
LINE
  5
82C2
330
7CDB
100
AcDbEntity
  8
3
 62
     0
440
 16777216
100
AcDbLine
 10
6309.696634885692
 20
2741.885170193512
 30
0.0
 11
6747.515048902823
 21
2741.885170193512
 31
0.0
  0
LINE
  5
82C3
330
7CDB
100
AcDbEntity
  8
3
 62
     0
440
 16777216
100
AcDbLine
 10
6309.696634885692
 20
3741.885170193512
 30
0.0
 11
6747.515048902823
 21
3741.885170193512
 31
0.0
  0
LINE
  5
82C4
330
7CDB
100
AcDbEntity
  8
3
 62
     0
440
 16777216
100
AcDbLine
 10
6712.515048902824
 20
2811.885170193512
 30
0.0
 11
6712.515048902824
 21
3671.885170193512
 31
0.0
  0
INSERT
  5
82C5
330
7CDB
100
AcDbEntity
  8
3
 62
     0
440
 16777216
100
AcDbBlockReference
  2
_OPEN
 10
6712.515048902824
 20
2741.885170193512
 30
0.0
 41
70.0
 42
70.0
 43
70.0
 50
270.0
  0
INSERT
  5
82C6
330
7CDB
100
AcDbEntity
  8
3
 62
     0
440
 16777216
100
AcDbBlockReference
  2
_OPEN
 10
6712.515048902824
 20
3741.885170193512
 30
0.0
 41
70.0
 42
70.0
 43
70.0
 50
90.0
  0
MTEXT
  5
82C7
330
7CDB
100
AcDbEntity
  8
3
 62
     0
440
 16777216
100
AcDbMText
 10
6625.015048902823
 20
3241.885170193512
 30
0.0
 40
105.0
 41
0.0
 46
0.0
 71
     5
 72
     5
  1
\A1;φ1000
 11
0.0000000000000001
 21
1.0
 31
0.0
 73
     1
 44
1.0
  0
POINT
  5
82C8
330
7CDB
100
AcDbEntity
  8
DEFPOINTS
 62
     0
440
 16777216
100
AcDbPoint
 10
6292.196634885691
 20
2741.885170193512
 30
0.0
  0
POINT
  5
82C9
330
7CDB
100
AcDbEntity
  8
DEFPOINTS
 62
     0
440
 16777216
100
AcDbPoint
 10
6292.196634885691
 20
3741.885170193512
 30
0.0
  0
POINT
  5
82CA
330
7CDB
100
AcDbEntity
  8
DEFPOINTS
 62
     0
440
 16777216
100
AcDbPoint
 10
6712.515048902824
 20
3741.885170193512
 30
0.0
  0
ENDBLK
  5
7FF3
330
7CDB
100
AcDbEntity
  8
0
100
AcDbBlockEnd
  0
BLOCK
  5
7FD3
330
7CE7
100
AcDbEntity
  8
0
100
AcDbBlockBegin
  2
*D3
 70
     1
 10
0.0
 20
0.0
 30
0.0
  3
*D3
  1

  0
LINE
  5
82CB
330
7CE7
100
AcDbEntity
  8
3
 62
     0
440
 16777216
100
AcDbLine
 10
5626.696634885691
 20
2364.385170193512
 30
0.0
 11
5626.696634885691
 21
2146.97330478171
 31
0.0
  0
LINE
  5
82CC
330
7CE7
100
AcDbEntity
  8
3
 62
     0
440
 16777216
100
AcDbLine
 10
6354.696634885691
 20
2364.385170193512
 30
0.0
 11
6354.696634885691
 21
2146.97330478171
 31
0.0
  0
LINE
  5
82CD
330
7CE7
100
AcDbEntity
  8
3
 62
     0
440
 16777216
100
AcDbLine
 10
5696.696634885691
 20
2181.97330478171
 30
0.0
 11
6284.696634885691
 21
2181.97330478171
 31
0.0
  0
INSERT
  5
82CE
330
7CE7
100
AcDbEntity
  8
3
 62
     0
440
 16777216
100
AcDbBlockReference
  2
_OPEN
 10
5626.696634885691
 20
2181.97330478171
 30
0.0
 41
70.0
 42
70.0
 43
70.0
 50
180.0
  0
INSERT
  5
82CF
330
7CE7
100
AcDbEntity
  8
3
 62
     0
440
 16777216
100
AcDbBlockReference
  2
_OPEN
 10
6354.696634885691
 20
2181.97330478171
 30
0.0
 41
70.0
 42
70.0
 43
70.0
  0
MTEXT
  5
82D0
330
7CE7
100
AcDbEntity
  8
3
 62
     0
440
 16777216
100
AcDbMText
 10
5990.696634885691
 20
2269.47330478171
 30
0.0
 40
105.0
 41
0.0
 46
0.0
 71
     5
 72
     5
  1
\A1;728
 73
     1
 44
1.0
  0
POINT
  5
82D1
330
7CE7
100
AcDbEntity
  8
DEFPOINTS
 62
     0
440
 16777216
100
AcDbPoint
 10
5626.696634885691
 20
2381.885170193512
 30
0.0
  0
POINT
  5
82D2
330
7CE7
100
AcDbEntity
  8
DEFPOINTS
 62
     0
440
 16777216
100
AcDbPoint
 10
6354.696634885691
 20
2381.885170193512
 30
0.0
  0
POINT
  5
82D3
330
7CE7
100
AcDbEntity
  8
DEFPOINTS
 62
     0
440
 16777216
100
AcDbPoint
 10
6354.696634885691
 20
2181.97330478171
 30
0.0
  0
ENDBLK
  5
7FDD
330
7CE7
100
AcDbEntity
  8
0
100
AcDbBlockEnd
  0
BLOCK
  5
7FC8
330
7CFF
100
AcDbEntity
  8
0
100
AcDbBlockBegin
  2
*D4
 70
     1
 10
0.0
 20
0.0
 30
0.0
  3
*D4
  1

  0
LINE
  5
82D4
330
7CFF
100
AcDbEntity
  8
3
 62
     0
440
 16777216
100
AcDbLine
 10
4704.696634885691
 20
2364.385170193512
 30
0.0
 11
4704.696634885691
 21
2146.97330478171
 31
0.0
  0
LINE
  5
82D5
330
7CFF
100
AcDbEntity
  8
3
 62
     0
440
 16777216
100
AcDbLine
 10
5626.696634885691
 20
2364.385170193512
 30
0.0
 11
5626.696634885691
 21
2146.97330478171
 31
0.0
  0
LINE
  5
82D6
330
7CFF
100
AcDbEntity
  8
3
 62
     0
440
 16777216
100
AcDbLine
 10
4774.696634885692
 20
2181.97330478171
 30
0.0
 11
5556.696634885692
 21
2181.97330478171
 31
0.0
  0
INSERT
  5
82D7
330
7CFF
100
AcDbEntity
  8
3
 62
     0
440
 16777216
100
AcDbBlockReference
  2
_OPEN
 10
4704.696634885691
 20
2181.97330478171
 30
0.0
 41
70.0
 42
70.0
 43
70.0
 50
180.0
  0
INSERT
  5
82D8
330
7CFF
100
AcDbEntity
  8
3
 62
     0
440
 16777216
100
AcDbBlockReference
  2
_OPEN
 10
5626.696634885691
 20
2181.97330478171
 30
0.0
 41
70.0
 42
70.0
 43
70.0
  0
MTEXT
  5
82D9
330
7CFF
100
AcDbEntity
  8
3
 62
     0
440
 16777216
100
AcDbMText
 10
5165.696634885691
 20
2269.47330478171
 30
0.0
 40
105.0
 41
0.0
 46
0.0
 71
     5
 72
     5
  1
\A1;922
 73
     1
 44
1.0
  0
POINT
  5
82DA
330
7CFF
100
AcDbEntity
  8
DEFPOINTS
 62
     0
440
 16777216
100
AcDbPoint
 10
4704.696634885691
 20
2381.885170193512
 30
0.0
  0
POINT
  5
82DB
330
7CFF
100
AcDbEntity
  8
DEFPOINTS
 62
     0
440
 16777216
100
AcDbPoint
 10
5626.696634885691
 20
2381.885170193512
 30
0.0
  0
POINT
  5
82DC
330
7CFF
100
AcDbEntity
  8
DEFPOINTS
 62
     0
440
 16777216
100
AcDbPoint
 10
5626.696634885691
 20
2181.97330478171
 30
0.0
  0
ENDBLK
  5
7FD2
330
7CFF
100
AcDbEntity
  8
0
100
AcDbBlockEnd
  0
BLOCK
  5
7FF4
330
7D0B
100
AcDbEntity
  8
0
100
AcDbBlockBegin
  2
*D5
 70
     1
 10
0.0
 20
0.0
 30
0.0
  3
*D5
  1

  0
LINE
  5
83FE
330
7D0B
100
AcDbEntity
  8
3
 62
     0
440
 16777216
370
    -2
100
AcDbLine
 10
6426.696634885691
 20
3217.185170193512
 30
0.0
 11
6426.696634885691
 21
4887.1433488634
 31
0.0
  0
LINE
  5
83FF
330
7D0B
100
AcDbEntity
  8
3
 62
     0
440
 16777216
370
    -2
100
AcDbLine
 10
5626.696634885691
 20
4693.852431306779
 30
0.0
 11
5626.696634885691
 21
4887.1433488634
 31
0.0
  0
LINE
  5
8400
330
7D0B
100
AcDbEntity
  8
3
 62
     0
440
 16777216
370
    -2
100
AcDbLine
 10
6356.696634885691
 20
4852.1433488634
 30
0.0
 11
5696.696634885691
 21
4852.1433488634
 31
0.0
  0
INSERT
  5
8401
330
7D0B
100
AcDbEntity
  8
3
 62
     0
440
 16777216
370
    -2
100
AcDbBlockReference
  2
_OPEN
 10
6426.696634885691
 20
4852.1433488634
 30
0.0
 41
70.0
 42
70.0
 43
70.0
  0
INSERT
  5
8402
330
7D0B
100
AcDbEntity
  8
3
 62
     0
440
 16777216
370
    -2
100
AcDbBlockReference
  2
_OPEN
 10
5626.696634885691
 20
4852.1433488634
 30
0.0
 41
70.0
 42
70.0
 43
70.0
 50
180.0
  0
MTEXT
  5
8403
330
7D0B
100
AcDbEntity
  8
3
 62
     0
440
 16777216
100
AcDbMText
 10
6026.696634885691
 20
4967.143348863399
 30
0.0
 40
105.0
 41
0.0
 46
0.0
 71
     5
 72
     1
  1
\A1;(800)
 73
     1
 44
1.0
  0
POINT
  5
8404
330
7D0B
100
AcDbEntity
  8
DEFPOINTS
 62
     0
440
 16777216
100
AcDbPoint
 10
6426.696634885691
 20
3199.685170193512
 30
0.0
  0
POINT
  5
8405
330
7D0B
100
AcDbEntity
  8
DEFPOINTS
 62
     0
440
 16777216
100
AcDbPoint
 10
5626.696634885691
 20
4676.352431306779
 30
0.0
  0
POINT
  5
8406
330
7D0B
100
AcDbEntity
  8
DEFPOINTS
 62
     0
440
 16777216
100
AcDbPoint
 10
5626.696634885691
 20
4852.1433488634
 30
0.0
  0
ENDBLK
  5
7FFE
330
7D0B
100
AcDbEntity
  8
0
100
AcDbBlockEnd
  0
BLOCK
  5
816A
330
7D17
100
AcDbEntity
  8
0
100
AcDbBlockBegin
  2
*D6
 70
     1
 10
0.0
 20
0.0
 30
0.0
  3
*D6
  1

  0
LINE
  5
83F5
330
7D17
100
AcDbEntity
  8
3
 62
     0
440
 16777216
370
    -2
100
AcDbLine
 10
5626.696634885691
 20
4693.852431306779
 30
0.0
 11
5626.696634885691
 21
4887.1433488634
 31
0.0
  0
LINE
  5
83F6
330
7D17
100
AcDbEntity
  8
3
 62
     0
440
 16777216
370
    -2
100
AcDbLine
 10
4547.196634885685
 20
3539.385170193512
 30
0.0
 11
4547.196634885685
 21
4887.1433488634
 31
0.0
  0
LINE
  5
83F7
330
7D17
100
AcDbEntity
  8
3
 62
     0
440
 16777216
370
    -2
100
AcDbLine
 10
5556.696634885692
 20
4852.1433488634
 30
0.0
 11
4617.196634885686
 21
4852.1433488634
 31
0.0
  0
INSERT
  5
83F8
330
7D17
100
AcDbEntity
  8
3
 62
     0
440
 16777216
370
    -2
100
AcDbBlockReference
  2
_OPEN
 10
5626.696634885691
 20
4852.1433488634
 30
0.0
 41
70.0
 42
70.0
 43
70.0
  0
INSERT
  5
83F9
330
7D17
100
AcDbEntity
  8
3
 62
     0
440
 16777216
370
    -2
100
AcDbBlockReference
  2
_OPEN
 10
4547.196634885685
 20
4852.1433488634
 30
0.0
 41
70.0
 42
70.0
 43
70.0
 50
180.0
  0
MTEXT
  5
83FA
330
7D17
100
AcDbEntity
  8
3
 62
     0
440
 16777216
100
AcDbMText
 10
5086.946634885689
 20
4967.143348863399
 30
0.0
 40
105.0
 41
0.0
 46
0.0
 71
     5
 72
     1
  1
\A1;(1080)
 73
     1
 44
1.0
  0
POINT
  5
83FB
330
7D17
100
AcDbEntity
  8
DEFPOINTS
 62
     0
440
 16777216
100
AcDbPoint
 10
5626.696634885691
 20
4676.352431306779
 30
0.0
  0
POINT
  5
83FC
330
7D17
100
AcDbEntity
  8
DEFPOINTS
 62
     0
440
 16777216
100
AcDbPoint
 10
4547.196634885685
 20
3521.885170193512
 30
0.0
  0
POINT
  5
83FD
330
7D17
100
AcDbEntity
  8
DEFPOINTS
 62
     0
440
 16777216
100
AcDbPoint
 10
4547.196634885685
 20
4852.1433488634
 30
0.0
  0
ENDBLK
  5
8174
330
7D17
100
AcDbEntity
  8
0
100
AcDbBlockEnd
  0
BLOCK
  5
800A
330
7D23
100
AcDbEntity
  8
0
100
AcDbBlockBegin
  2
*D7
 70
     1
 10
0.0
 20
0.0
 30
0.0
  3
*D7
  1

  0
LINE
  5
82EF
330
7D23
100
AcDbEntity
  8
3
 62
     0
440
 16777216
100
AcDbLine
 10
4966.69663488569
 20
4333.385170193511
 30
0.0
 11
4966.69663488569
 21
4566.150517590507
 31
0.0
  0
LINE
  5
82F0
330
7D23
100
AcDbEntity
  8
3
 62
     0
440
 16777216
100
AcDbLine
 10
6286.696634885691
 20
4333.385170193511
 30
0.0
 11
6286.696634885691
 21
4566.150517590507
 31
0.0
  0
LINE
  5
82F1
330
7D23
100
AcDbEntity
  8
3
 62
     0
440
 16777216
100
AcDbLine
 10
5036.69663488569
 20
4531.150517590507
 30
0.0
 11
6216.696634885692
 21
4531.150517590507
 31
0.0
  0
INSERT
  5
82F2
330
7D23
100
AcDbEntity
  8
3
 62
     0
440
 16777216
100
AcDbBlockReference
  2
_OPEN
 10
4966.69663488569
 20
4531.150517590507
 30
0.0
 41
70.0
 42
70.0
 43
70.0
 50
180.0
  0
INSERT
  5
82F3
330
7D23
100
AcDbEntity
  8
3
 62
     0
440
 16777216
100
AcDbBlockReference
  2
_OPEN
 10
6286.696634885691
 20
4531.150517590507
 30
0.0
 41
70.0
 42
70.0
 43
70.0
  0
MTEXT
  5
82F4
330
7D23
100
AcDbEntity
  8
3
 62
     0
440
 16777216
100
AcDbMText
 10
5622.641807253927
 20
4618.650517590507
 30
0.0
 40
105.0
 41
0.0
 46
0.0
 71
     5
 72
     5
  1
\A1;1320
 73
     1
 44
1.0
  0
POINT
  5
82F5
330
7D23
100
AcDbEntity
  8
DEFPOINTS
 62
     0
440
 16777216
100
AcDbPoint
 10
4966.69663488569
 20
4315.885170193512
 30
0.0
  0
POINT
  5
82F6
330
7D23
100
AcDbEntity
  8
DEFPOINTS
 62
     0
440
 16777216
100
AcDbPoint
 10
6286.696634885691
 20
4315.885170193512
 30
0.0
  0
POINT
  5
82F7
330
7D23
100
AcDbEntity
  8
DEFPOINTS
 62
     0
440
 16777216
100
AcDbPoint
 10
6286.696634885691
 20
4531.150517590507
 30
0.0
  0
ENDBLK
  5
8014
330
7D23
100
AcDbEntity
  8
0
100
AcDbBlockEnd
  0
BLOCK
  5
7F40
330
7D3B
100
AcDbEntity
  8
0
100
AcDbBlockBegin
  2
*D8
 70
     1
 10
0.0
 20
0.0
 30
0.0
  3
*D8
  1

  0
LINE
  5
82F8
330
7D3B
100
AcDbEntity
  8
3
 62
     0
440
 16777216
100
AcDbLine
 10
2468.166367524917
 20
4424.301062533952
 30
0.0
 11
2468.166367524917
 21
4604.659843536487
 31
0.0
  0
LINE
  5
82F9
330
7D3B
100
AcDbEntity
  8
3
 62
     0
440
 16777216
100
AcDbLine
 10
3336.166367524915
 20
3333.385170193511
 30
0.0
 11
3336.166367524915
 21
4604.659843536487
 31
0.0
  0
LINE
  5
82FA
330
7D3B
100
AcDbEntity
  8
3
 62
     0
440
 16777216
100
AcDbLine
 10
2538.166367524917
 20
4569.659843536487
 30
0.0
 11
3266.166367524915
 21
4569.659843536487
 31
0.0
  0
INSERT
  5
82FB
330
7D3B
100
AcDbEntity
  8
3
 62
     0
440
 16777216
100
AcDbBlockReference
  2
_OPEN
 10
2468.166367524917
 20
4569.659843536487
 30
0.0
 41
70.0
 42
70.0
 43
70.0
 50
180.0
  0
INSERT
  5
82FC
330
7D3B
100
AcDbEntity
  8
3
 62
     0
440
 16777216
100
AcDbBlockReference
  2
_OPEN
 10
3336.166367524915
 20
4569.659843536487
 30
0.0
 41
70.0
 42
70.0
 43
70.0
  0
MTEXT
  5
82FD
330
7D3B
100
AcDbEntity
  8
3
 62
     0
440
 16777216
100
AcDbMText
 10
2902.166367524916
 20
4657.159843536486
 30
0.0
 40
105.0
 41
0.0
 46
0.0
 71
     5
 72
     5
  1
\A1;868
 73
     1
 44
1.0
  0
POINT
  5
82FE
330
7D3B
100
AcDbEntity
  8
DEFPOINTS
 62
     0
440
 16777216
100
AcDbPoint
 10
2468.166367524917
 20
4406.801062533951
 30
0.0
  0
POINT
  5
82FF
330
7D3B
100
AcDbEntity
  8
DEFPOINTS
 62
     0
440
 16777216
100
AcDbPoint
 10
3336.166367524915
 20
3315.885170193511
 30
0.0
  0
POINT
  5
8300
330
7D3B
100
AcDbEntity
  8
DEFPOINTS
 62
     0
440
 16777216
100
AcDbPoint
 10
3336.166367524915
 20
4569.659843536487
 30
0.0
  0
ENDBLK
  5
7F4A
330
7D3B
100
AcDbEntity
  8
0
100
AcDbBlockEnd
  0
BLOCK
  5
7FB2
330
7D5F
100
AcDbEntity
  8
0
100
AcDbBlockBegin
  2
*D9
 70
     1
 10
0.0
 20
0.0
 30
0.0
  3
*D9
  1

  0
LINE
  5
8301
330
7D5F
100
AcDbEntity
  8
3
 62
     0
440
 16777216
100
AcDbLine
 10
4043.166367524915
 20
2364.385170193513
 30
0.0
 11
4043.166367524915
 21
2150.491146472412
 31
0.0
  0
LINE
  5
8302
330
7D5F
100
AcDbEntity
  8
3
 62
     0
440
 16777216
100
AcDbLine
 10
2468.166367524917
 20
2364.385170193513
 30
0.0
 11
2468.166367524917
 21
2150.491146472412
 31
0.0
  0
LINE
  5
8303
330
7D5F
100
AcDbEntity
  8
3
 62
     0
440
 16777216
100
AcDbLine
 10
3973.166367524916
 20
2185.491146472412
 30
0.0
 11
2538.166367524917
 21
2185.491146472412
 31
0.0
  0
INSERT
  5
8304
330
7D5F
100
AcDbEntity
  8
3
 62
     0
440
 16777216
100
AcDbBlockReference
  2
_OPEN
 10
4043.166367524915
 20
2185.491146472412
 30
0.0
 41
70.0
 42
70.0
 43
70.0
  0
INSERT
  5
8305
330
7D5F
100
AcDbEntity
  8
3
 62
     0
440
 16777216
100
AcDbBlockReference
  2
_OPEN
 10
2468.166367524917
 20
2185.491146472412
 30
0.0
 41
70.0
 42
70.0
 43
70.0
 50
180.0
  0
MTEXT
  5
8306
330
7D5F
100
AcDbEntity
  8
3
 62
     0
440
 16777216
100
AcDbMText
 10
3255.666367524916
 20
2272.991146472412
 30
0.0
 40
105.0
 41
0.0
 46
0.0
 71
     5
 72
     5
  1
\A1;1575
 73
     1
 44
1.0
  0
POINT
  5
8307
330
7D5F
100
AcDbEntity
  8
DEFPOINTS
 62
     0
440
 16777216
100
AcDbPoint
 10
4043.166367524915
 20
2381.885170193513
 30
0.0
  0
POINT
  5
8308
330
7D5F
100
AcDbEntity
  8
DEFPOINTS
 62
     0
440
 16777216
100
AcDbPoint
 10
2468.166367524917
 20
2381.885170193513
 30
0.0
  0
POINT
  5
8309
330
7D5F
100
AcDbEntity
  8
DEFPOINTS
 62
     0
440
 16777216
100
AcDbPoint
 10
2468.166367524917
 20
2185.491146472412
 30
0.0
  0
ENDBLK
  5
7FBC
330
7D5F
100
AcDbEntity
  8
0
100
AcDbBlockEnd
  0
BLOCK
  5
7F77
330
7D6B
100
AcDbEntity
  8
0
100
AcDbBlockBegin
  2
*D10
 70
     1
 10
0.0
 20
0.0
 30
0.0
  3
*D10
  1

  0
LINE
  5
830A
330
7D6B
100
AcDbEntity
  8
3
 62
     0
440
 16777216
100
AcDbLine
 10
1711.050385027287
 20
3241.885170193511
 30
0.0
 11
1351.204225071619
 21
3241.885170193511
 31
0.0
  0
LINE
  5
830B
330
7D6B
100
AcDbEntity
  8
3
 62
     0
440
 16777216
100
AcDbLine
 10
1825.666367524915
 20
2491.885170193513
 30
0.0
 11
1351.204225071618
 21
2491.885170193513
 31
0.0
  0
LINE
  5
830C
330
7D6B
100
AcDbEntity
  8
3
 62
     0
440
 16777216
100
AcDbLine
 10
1386.204225071619
 20
3171.885170193511
 30
0.0
 11
1386.204225071619
 21
2561.885170193513
 31
0.0
  0
INSERT
  5
830D
330
7D6B
100
AcDbEntity
  8
3
 62
     0
440
 16777216
100
AcDbBlockReference
  2
_OPEN
 10
1386.204225071619
 20
3241.885170193511
 30
0.0
 41
70.0
 42
70.0
 43
70.0
 50
90.0
  0
INSERT
  5
830E
330
7D6B
100
AcDbEntity
  8
3
 62
     0
440
 16777216
100
AcDbBlockReference
  2
_OPEN
 10
1386.204225071618
 20
2491.885170193513
 30
0.0
 41
70.0
 42
70.0
 43
70.0
 50
270.0
  0
MTEXT
  5
830F
330
7D6B
100
AcDbEntity
  8
3
 62
     0
440
 16777216
100
AcDbMText
 10
1298.704225071618
 20
2866.885170193512
 30
0.0
 40
105.0
 41
0.0
 46
0.0
 71
     5
 72
     5
  1
\A1;750
 11
0.0000000000000001
 21
1.0
 31
0.0
 73
     1
 44
1.0
  0
POINT
  5
8310
330
7D6B
100
AcDbEntity
  8
DEFPOINTS
 62
     0
440
 16777216
100
AcDbPoint
 10
1728.550385027287
 20
3241.885170193511
 30
0.0
  0
POINT
  5
8311
330
7D6B
100
AcDbEntity
  8
DEFPOINTS
 62
     0
440
 16777216
100
AcDbPoint
 10
1843.166367524915
 20
2491.885170193513
 30
0.0
  0
POINT
  5
8312
330
7D6B
100
AcDbEntity
  8
DEFPOINTS
 62
     0
440
 16777216
100
AcDbPoint
 10
1386.204225071618
 20
2491.885170193513
 30
0.0
  0
ENDBLK
  5
7F81
330
7D6B
100
AcDbEntity
  8
0
100
AcDbBlockEnd
  0
BLOCK
  5
7FA7
330
7D77
100
AcDbEntity
  8
0
100
AcDbBlockBegin
  2
*D11
 70
     1
 10
0.0
 20
0.0
 30
0.0
  3
*D11
  1

  0
LINE
  5
8313
330
7D77
100
AcDbEntity
  8
3
 62
     0
440
 16777216
100
AcDbLine
 10
1843.166367524915
 20
2364.385170193513
 30
0.0
 11
1843.166367524915
 21
2148.865096836829
 31
0.0
  0
LINE
  5
8314
330
7D77
100
AcDbEntity
  8
3
 62
     0
440
 16777216
100
AcDbLine
 10
2468.166367524917
 20
2364.385170193513
 30
0.0
 11
2468.166367524917
 21
2148.865096836829
 31
0.0
  0
LINE
  5
8315
330
7D77
100
AcDbEntity
  8
3
 62
     0
440
 16777216
100
AcDbLine
 10
1913.166367524915
 20
2183.865096836829
 30
0.0
 11
2398.166367524916
 21
2183.865096836829
 31
0.0
  0
INSERT
  5
8316
330
7D77
100
AcDbEntity
  8
3
 62
     0
440
 16777216
100
AcDbBlockReference
  2
_OPEN
 10
1843.166367524915
 20
2183.865096836829
 30
0.0
 41
70.0
 42
70.0
 43
70.0
 50
180.0
  0
INSERT
  5
8317
330
7D77
100
AcDbEntity
  8
3
 62
     0
440
 16777216
100
AcDbBlockReference
  2
_OPEN
 10
2468.166367524917
 20
2183.865096836829
 30
0.0
 41
70.0
 42
70.0
 43
70.0
  0
MTEXT
  5
8318
330
7D77
100
AcDbEntity
  8
3
 62
     0
440
 16777216
100
AcDbMText
 10
2155.666367524915
 20
2271.365096836829
 30
0.0
 40
105.0
 41
0.0
 46
0.0
 71
     5
 72
     5
  1
\A1;625
 73
     1
 44
1.0
  0
POINT
  5
8319
330
7D77
100
AcDbEntity
  8
DEFPOINTS
 62
     0
440
 16777216
100
AcDbPoint
 10
1843.166367524915
 20
2381.885170193513
 30
0.0
  0
POINT
  5
831A
330
7D77
100
AcDbEntity
  8
DEFPOINTS
 62
     0
440
 16777216
100
AcDbPoint
 10
2468.166367524917
 20
2381.885170193513
 30
0.0
  0
POINT
  5
831B
330
7D77
100
AcDbEntity
  8
DEFPOINTS
 62
     0
440
 16777216
100
AcDbPoint
 10
2468.166367524917
 20
2183.865096836829
 30
0.0
  0
ENDBLK
  5
7FB1
330
7D77
100
AcDbEntity
  8
0
100
AcDbBlockEnd
  0
BLOCK
  5
7F56
330
7D83
100
AcDbEntity
  8
0
100
AcDbBlockBegin
  2
*D12
 70
     1
 10
0.0
 20
0.0
 30
0.0
  3
*D12
  1

  0
LINE
  5
831C
330
7D83
100
AcDbEntity
  8
3
 62
     0
440
 16777216
100
AcDbLine
 10
1788.166367524915
 20
4386.385170193511
 30
0.0
 11
1788.166367524915
 21
4604.659843536487
 31
0.0
  0
LINE
  5
831D
330
7D83
100
AcDbEntity
  8
3
 62
     0
440
 16777216
100
AcDbLine
 10
2468.166367524917
 20
4424.301062533952
 30
0.0
 11
2468.166367524917
 21
4604.659843536487
 31
0.0
  0
LINE
  5
831E
330
7D83
100
AcDbEntity
  8
3
 62
     0
440
 16777216
100
AcDbLine
 10
1858.166367524914
 20
4569.659843536487
 30
0.0
 11
2398.166367524916
 21
4569.659843536487
 31
0.0
  0
INSERT
  5
831F
330
7D83
100
AcDbEntity
  8
3
 62
     0
440
 16777216
100
AcDbBlockReference
  2
_OPEN
 10
1788.166367524915
 20
4569.659843536487
 30
0.0
 41
70.0
 42
70.0
 43
70.0
 50
180.0
  0
INSERT
  5
8320
330
7D83
100
AcDbEntity
  8
3
 62
     0
440
 16777216
100
AcDbBlockReference
  2
_OPEN
 10
2468.166367524917
 20
4569.659843536487
 30
0.0
 41
70.0
 42
70.0
 43
70.0
  0
MTEXT
  5
8321
330
7D83
100
AcDbEntity
  8
3
 62
     0
440
 16777216
100
AcDbMText
 10
2128.166367524916
 20
4657.159843536486
 30
0.0
 40
105.0
 41
0.0
 46
0.0
 71
     5
 72
     5
  1
\A1;680
 73
     1
 44
1.0
  0
POINT
  5
8322
330
7D83
100
AcDbEntity
  8
DEFPOINTS
 62
     0
440
 16777216
100
AcDbPoint
 10
1788.166367524915
 20
4368.88517019351
 30
0.0
  0
POINT
  5
8323
330
7D83
100
AcDbEntity
  8
DEFPOINTS
 62
     0
440
 16777216
100
AcDbPoint
 10
2468.166367524917
 20
4406.801062533951
 30
0.0
  0
POINT
  5
8324
330
7D83
100
AcDbEntity
  8
DEFPOINTS
 62
     0
440
 16777216
100
AcDbPoint
 10
2468.166367524917
 20
4569.659843536487
 30
0.0
  0
ENDBLK
  5
7F60
330
7D83
100
AcDbEntity
  8
0
100
AcDbBlockEnd
  0
BLOCK
  5
7F6C
330
7D8F
100
AcDbEntity
  8
0
100
AcDbBlockBegin
  2
*D13
 70
     1
 10
0.0
 20
0.0
 30
0.0
  3
*D13
  1

  0
LINE
  5
8325
330
7D8F
100
AcDbEntity
  8
3
 62
     0
440
 16777216
100
AcDbLine
 10
1770.666367524914
 20
4315.885170193511
 30
0.0
 11
1351.204225071619
 21
4315.885170193511
 31
0.0
  0
LINE
  5
8326
330
7D8F
100
AcDbEntity
  8
3
 62
     0
440
 16777216
100
AcDbLine
 10
1711.050385027287
 20
3241.885170193511
 30
0.0
 11
1351.204225071618
 21
3241.885170193511
 31
0.0
  0
LINE
  5
8327
330
7D8F
100
AcDbEntity
  8
3
 62
     0
440
 16777216
100
AcDbLine
 10
1386.204225071619
 20
4245.885170193511
 30
0.0
 11
1386.204225071618
 21
3311.885170193511
 31
0.0
  0
INSERT
  5
8328
330
7D8F
100
AcDbEntity
  8
3
 62
     0
440
 16777216
100
AcDbBlockReference
  2
_OPEN
 10
1386.204225071619
 20
4315.885170193511
 30
0.0
 41
70.0
 42
70.0
 43
70.0
 50
90.0
  0
INSERT
  5
8329
330
7D8F
100
AcDbEntity
  8
3
 62
     0
440
 16777216
100
AcDbBlockReference
  2
_OPEN
 10
1386.204225071618
 20
3241.885170193511
 30
0.0
 41
70.0
 42
70.0
 43
70.0
 50
270.0
  0
MTEXT
  5
832A
330
7D8F
100
AcDbEntity
  8
3
 62
     0
440
 16777216
100
AcDbMText
 10
1298.704225071618
 20
3778.885170193511
 30
0.0
 40
105.0
 41
0.0
 46
0.0
 71
     5
 72
     5
  1
\A1;1074
 11
0.0000000000000001
 21
1.0
 31
0.0
 73
     1
 44
1.0
  0
POINT
  5
832B
330
7D8F
100
AcDbEntity
  8
DEFPOINTS
 62
     0
440
 16777216
100
AcDbPoint
 10
1788.166367524915
 20
4315.885170193511
 30
0.0
  0
POINT
  5
832C
330
7D8F
100
AcDbEntity
  8
DEFPOINTS
 62
     0
440
 16777216
100
AcDbPoint
 10
1728.550385027287
 20
3241.885170193511
 30
0.0
  0
POINT
  5
832D
330
7D8F
100
AcDbEntity
  8
DEFPOINTS
 62
     0
440
 16777216
100
AcDbPoint
 10
1386.204225071618
 20
3241.885170193511
 30
0.0
  0
ENDBLK
  5
7F76
330
7D8F
100
AcDbEntity
  8
0
100
AcDbBlockEnd
  0
BLOCK
  5
7F61
330
7D9B
100
AcDbEntity
  8
0
100
AcDbBlockBegin
  2
*D14
 70
     1
 10
0.0
 20
0.0
 30
0.0
  3
*D14
  1

  0
LINE
  5
832E
330
7D9B
100
AcDbEntity
  8
3
 62
     0
440
 16777216
100
AcDbLine
 10
1770.666367524914
 20
4315.885170193511
 30
0.0
 11
1552.006270530772
 21
4315.885170193511
 31
0.0
  0
LINE
  5
832F
330
7D9B
100
AcDbEntity
  8
3
 62
     0
440
 16777216
100
AcDbLine
 10
1770.666367524914
 20
3285.885170193512
 30
0.0
 11
1552.006270530772
 21
3285.885170193512
 31
0.0
  0
LINE
  5
8330
330
7D9B
100
AcDbEntity
  8
3
 62
     0
440
 16777216
100
AcDbLine
 10
1587.006270530772
 20
4245.885170193511
 30
0.0
 11
1587.006270530772
 21
3355.885170193511
 31
0.0
  0
INSERT
  5
8331
330
7D9B
100
AcDbEntity
  8
3
 62
     0
440
 16777216
100
AcDbBlockReference
  2
_OPEN
 10
1587.006270530772
 20
4315.885170193511
 30
0.0
 41
70.0
 42
70.0
 43
70.0
 50
90.0
  0
INSERT
  5
8332
330
7D9B
100
AcDbEntity
  8
3
 62
     0
440
 16777216
100
AcDbBlockReference
  2
_OPEN
 10
1587.006270530772
 20
3285.885170193512
 30
0.0
 41
70.0
 42
70.0
 43
70.0
 50
270.0
  0
MTEXT
  5
8333
330
7D9B
100
AcDbEntity
  8
3
 62
     0
440
 16777216
100
AcDbMText
 10
1499.506270530771
 20
3800.885170193512
 30
0.0
 40
105.0
 41
0.0
 46
0.0
 71
     5
 72
     5
  1
\A1;1030
 11
0.0000000000000001
 21
1.0
 31
0.0
 73
     1
 44
1.0
  0
POINT
  5
8334
330
7D9B
100
AcDbEntity
  8
DEFPOINTS
 62
     0
440
 16777216
100
AcDbPoint
 10
1788.166367524915
 20
4315.885170193511
 30
0.0
  0
POINT
  5
8335
330
7D9B
100
AcDbEntity
  8
DEFPOINTS
 62
     0
440
 16777216
100
AcDbPoint
 10
1788.166367524915
 20
3285.885170193512
 30
0.0
  0
POINT
  5
8336
330
7D9B
100
AcDbEntity
  8
DEFPOINTS
 62
     0
440
 16777216
100
AcDbPoint
 10
1587.006270530772
 20
3285.885170193512
 30
0.0
  0
ENDBLK
  5
7F6B
330
7D9B
100
AcDbEntity
  8
0
100
AcDbBlockEnd
  0
BLOCK
  5
7F2A
330
7DA7
100
AcDbEntity
  8
0
100
AcDbBlockBegin
  2
*D15
 70
     1
 10
0.0
 20
0.0
 30
0.0
  3
*D15
  1

  0
LINE
  5
8337
330
7DA7
100
AcDbEntity
  8
3
 62
     0
440
 16777216
100
AcDbLine
 10
4043.166367524915
 20
5711.725552947573
 30
0.0
 11
4043.166367524915
 21
5254.404893452381
 31
0.0
  0
LINE
  5
8338
330
7DA7
100
AcDbEntity
  8
3
 62
     0
440
 16777216
100
AcDbLine
 10
1843.166367524915
 20
5711.725552947573
 30
0.0
 11
1843.166367524915
 21
5254.404893452381
 31
0.0
  0
LINE
  5
8339
330
7DA7
100
AcDbEntity
  8
3
 62
     0
440
 16777216
100
AcDbLine
 10
3973.166367524916
 20
5289.404893452381
 30
0.0
 11
1913.166367524915
 21
5289.404893452381
 31
0.0
  0
INSERT
  5
833A
330
7DA7
100
AcDbEntity
  8
3
 62
     0
440
 16777216
100
AcDbBlockReference
  2
_OPEN
 10
4043.166367524915
 20
5289.404893452381
 30
0.0
 41
70.0
 42
70.0
 43
70.0
  0
INSERT
  5
833B
330
7DA7
100
AcDbEntity
  8
3
 62
     0
440
 16777216
100
AcDbBlockReference
  2
_OPEN
 10
1843.166367524915
 20
5289.404893452381
 30
0.0
 41
70.0
 42
70.0
 43
70.0
 50
180.0
  0
MTEXT
  5
833C
330
7DA7
100
AcDbEntity
  8
3
 62
     0
440
 16777216
100
AcDbMText
 10
2943.166367524915
 20
5376.904893452381
 30
0.0
 40
105.0
 41
0.0
 46
0.0
 71
     5
 72
     5
  1
\A1;2200
 73
     1
 44
1.0
  0
POINT
  5
833D
330
7DA7
100
AcDbEntity
  8
DEFPOINTS
 62
     0
440
 16777216
100
AcDbPoint
 10
4043.166367524915
 20
5729.225552947573
 30
0.0
  0
POINT
  5
833E
330
7DA7
100
AcDbEntity
  8
DEFPOINTS
 62
     0
440
 16777216
100
AcDbPoint
 10
1843.166367524915
 20
5729.225552947573
 30
0.0
  0
POINT
  5
833F
330
7DA7
100
AcDbEntity
  8
DEFPOINTS
 62
     0
440
 16777216
100
AcDbPoint
 10
1843.166367524915
 20
5289.404893452381
 30
0.0
  0
ENDBLK
  5
7F34
330
7DA7
100
AcDbEntity
  8
0
100
AcDbBlockEnd
  0
BLOCK
  5
7F09
330
7DB3
100
AcDbEntity
  8
0
100
AcDbBlockBegin
  2
*D16
 70
     1
 10
0.0
 20
0.0
 30
0.0
  3
*D16
  1

  0
LINE
  5
8340
330
7DB3
100
AcDbEntity
  8
3
 62
     0
440
 16777216
100
AcDbLine
 10
4043.166367524915
 20
6696.725552947575
 30
0.0
 11
4043.166367524915
 21
7816.252200389652
 31
0.0
  0
LINE
  5
8341
330
7DB3
100
AcDbEntity
  8
3
 62
     0
440
 16777216
100
AcDbLine
 10
3093.166367524915
 20
7396.725552947573
 30
0.0
 11
3093.166367524915
 21
7816.252200389652
 31
0.0
  0
LINE
  5
8342
330
7DB3
100
AcDbEntity
  8
3
 62
     0
440
 16777216
100
AcDbLine
 10
3973.166367524916
 20
7781.252200389651
 30
0.0
 11
3163.166367524915
 21
7781.252200389651
 31
0.0
  0
INSERT
  5
8343
330
7DB3
100
AcDbEntity
  8
3
 62
     0
440
 16777216
100
AcDbBlockReference
  2
_OPEN
 10
4043.166367524915
 20
7781.252200389651
 30
0.0
 41
70.0
 42
70.0
 43
70.0
  0
INSERT
  5
8344
330
7DB3
100
AcDbEntity
  8
3
 62
     0
440
 16777216
100
AcDbBlockReference
  2
_OPEN
 10
3093.166367524915
 20
7781.252200389651
 30
0.0
 41
70.0
 42
70.0
 43
70.0
 50
180.0
  0
MTEXT
  5
8345
330
7DB3
100
AcDbEntity
  8
3
 62
     0
440
 16777216
100
AcDbMText
 10
3568.166367524916
 20
7868.752200389652
 30
0.0
 40
105.0
 41
0.0
 46
0.0
 71
     5
 72
     5
  1
\A1;950
 73
     1
 44
1.0
  0
POINT
  5
8346
330
7DB3
100
AcDbEntity
  8
DEFPOINTS
 62
     0
440
 16777216
100
AcDbPoint
 10
4043.166367524915
 20
6679.225552947574
 30
0.0
  0
POINT
  5
8347
330
7DB3
100
AcDbEntity
  8
DEFPOINTS
 62
     0
440
 16777216
100
AcDbPoint
 10
3093.166367524915
 20
7379.225552947573
 30
0.0
  0
POINT
  5
8348
330
7DB3
100
AcDbEntity
  8
DEFPOINTS
 62
     0
440
 16777216
100
AcDbPoint
 10
3093.166367524915
 20
7781.252200389651
 30
0.0
  0
ENDBLK
  5
7F13
330
7DB3
100
AcDbEntity
  8
0
100
AcDbBlockEnd
  0
BLOCK
  5
7F35
330
7DBF
100
AcDbEntity
  8
0
100
AcDbBlockBegin
  2
*D17
 70
     1
 10
0.0
 20
0.0
 30
0.0
  3
*D17
  1

  0
LINE
  5
8349
330
7DBF
100
AcDbEntity
  8
3
 62
     0
440
 16777216
100
AcDbLine
 10
4060.666367524915
 20
6679.225552947574
 30
0.0
 11
4479.757858719066
 21
6679.225552947574
 31
0.0
  0
LINE
  5
834A
330
7DBF
100
AcDbEntity
  8
3
 62
     0
440
 16777216
100
AcDbLine
 10
4060.666367524915
 20
5729.225552947573
 30
0.0
 11
4479.757858719065
 21
5729.225552947573
 31
0.0
  0
LINE
  5
834B
330
7DBF
100
AcDbEntity
  8
3
 62
     0
440
 16777216
100
AcDbLine
 10
4444.757858719066
 20
6609.225552947575
 30
0.0
 11
4444.757858719065
 21
5799.225552947573
 31
0.0
  0
INSERT
  5
834C
330
7DBF
100
AcDbEntity
  8
3
 62
     0
440
 16777216
100
AcDbBlockReference
  2
_OPEN
 10
4444.757858719066
 20
6679.225552947574
 30
0.0
 41
70.0
 42
70.0
 43
70.0
 50
90.0
  0
INSERT
  5
834D
330
7DBF
100
AcDbEntity
  8
3
 62
     0
440
 16777216
100
AcDbBlockReference
  2
_OPEN
 10
4444.757858719065
 20
5729.225552947573
 30
0.0
 41
70.0
 42
70.0
 43
70.0
 50
270.0
  0
MTEXT
  5
834E
330
7DBF
100
AcDbEntity
  8
3
 62
     0
440
 16777216
100
AcDbMText
 10
4357.257858719065
 20
6204.225552947575
 30
0.0
 40
105.0
 41
0.0
 46
0.0
 71
     5
 72
     5
  1
\A1;950
 11
0.0000000000000001
 21
1.0
 31
0.0
 73
     1
 44
1.0
  0
POINT
  5
834F
330
7DBF
100
AcDbEntity
  8
DEFPOINTS
 62
     0
440
 16777216
100
AcDbPoint
 10
4043.166367524915
 20
6679.225552947574
 30
0.0
  0
POINT
  5
8350
330
7DBF
100
AcDbEntity
  8
DEFPOINTS
 62
     0
440
 16777216
100
AcDbPoint
 10
4043.166367524915
 20
5729.225552947573
 30
0.0
  0
POINT
  5
8351
330
7DBF
100
AcDbEntity
  8
DEFPOINTS
 62
     0
440
 16777216
100
AcDbPoint
 10
4444.757858719065
 20
5729.225552947573
 30
0.0
  0
ENDBLK
  5
7F3F
330
7DBF
100
AcDbEntity
  8
0
100
AcDbBlockEnd
  0
BLOCK
  5
7F1F
330
7DCB
100
AcDbEntity
  8
0
100
AcDbBlockBegin
  2
*D18
 70
     1
 10
0.0
 20
0.0
 30
0.0
  3
*D18
  1

  0
LINE
  5
8352
330
7DCB
100
AcDbEntity
  8
3
 62
     0
440
 16777216
100
AcDbLine
 10
1825.666367524915
 20
7379.225552947573
 30
0.0
 11
1406.505305111623
 21
7379.225552947573
 31
0.0
  0
LINE
  5
8353
330
7DCB
100
AcDbEntity
  8
3
 62
     0
440
 16777216
100
AcDbLine
 10
1825.666367524915
 20
5729.225552947573
 30
0.0
 11
1406.505305111623
 21
5729.225552947573
 31
0.0
  0
LINE
  5
8354
330
7DCB
100
AcDbEntity
  8
3
 62
     0
440
 16777216
100
AcDbLine
 10
1441.505305111623
 20
7309.225552947573
 30
0.0
 11
1441.505305111623
 21
5799.225552947573
 31
0.0
  0
INSERT
  5
8355
330
7DCB
100
AcDbEntity
  8
3
 62
     0
440
 16777216
100
AcDbBlockReference
  2
_OPEN
 10
1441.505305111623
 20
7379.225552947573
 30
0.0
 41
70.0
 42
70.0
 43
70.0
 50
90.0
  0
INSERT
  5
8356
330
7DCB
100
AcDbEntity
  8
3
 62
     0
440
 16777216
100
AcDbBlockReference
  2
_OPEN
 10
1441.505305111623
 20
5729.225552947573
 30
0.0
 41
70.0
 42
70.0
 43
70.0
 50
270.0
  0
MTEXT
  5
8357
330
7DCB
100
AcDbEntity
  8
3
 62
     0
440
 16777216
100
AcDbMText
 10
1354.005305111622
 20
6554.225552947574
 30
0.0
 40
105.0
 41
0.0
 46
0.0
 71
     5
 72
     5
  1
\A1;1650
 11
0.0000000000000001
 21
1.0
 31
0.0
 73
     1
 44
1.0
  0
POINT
  5
8358
330
7DCB
100
AcDbEntity
  8
DEFPOINTS
 62
     0
440
 16777216
100
AcDbPoint
 10
1843.166367524915
 20
7379.225552947573
 30
0.0
  0
POINT
  5
8359
330
7DCB
100
AcDbEntity
  8
DEFPOINTS
 62
     0
440
 16777216
100
AcDbPoint
 10
1843.166367524915
 20
5729.225552947573
 30
0.0
  0
POINT
  5
835A
330
7DCB
100
AcDbEntity
  8
DEFPOINTS
 62
     0
440
 16777216
100
AcDbPoint
 10
1441.505305111623
 20
5729.225552947573
 30
0.0
  0
ENDBLK
  5
7F29
330
7DCB
100
AcDbEntity
  8
0
100
AcDbBlockEnd
  0
BLOCK
  5
7F14
330
7DD7
100
AcDbEntity
  8
0
100
AcDbBlockBegin
  2
*D19
 70
     1
 10
0.0
 20
0.0
 30
0.0
  3
*D19
  1

  0
LINE
  5
835B
330
7DD7
100
AcDbEntity
  8
3
 62
     0
440
 16777216
100
AcDbLine
 10
3093.166367524915
 20
7396.725552947573
 30
0.0
 11
3093.166367524915
 21
7816.252200389652
 31
0.0
  0
LINE
  5
835C
330
7DD7
100
AcDbEntity
  8
3
 62
     0
440
 16777216
100
AcDbLine
 10
1843.166367524915
 20
7396.725552947573
 30
0.0
 11
1843.166367524915
 21
7816.252200389652
 31
0.0
  0
LINE
  5
835D
330
7DD7
100
AcDbEntity
  8
3
 62
     0
440
 16777216
100
AcDbLine
 10
3023.166367524915
 20
7781.252200389651
 30
0.0
 11
1913.166367524915
 21
7781.252200389651
 31
0.0
  0
INSERT
  5
835E
330
7DD7
100
AcDbEntity
  8
3
 62
     0
440
 16777216
100
AcDbBlockReference
  2
_OPEN
 10
3093.166367524915
 20
7781.252200389651
 30
0.0
 41
70.0
 42
70.0
 43
70.0
  0
INSERT
  5
835F
330
7DD7
100
AcDbEntity
  8
3
 62
     0
440
 16777216
100
AcDbBlockReference
  2
_OPEN
 10
1843.166367524915
 20
7781.252200389651
 30
0.0
 41
70.0
 42
70.0
 43
70.0
 50
180.0
  0
MTEXT
  5
8360
330
7DD7
100
AcDbEntity
  8
3
 62
     0
440
 16777216
100
AcDbMText
 10
2468.166367524915
 20
7868.752200389652
 30
0.0
 40
105.0
 41
0.0
 46
0.0
 71
     5
 72
     5
  1
\A1;1250
 73
     1
 44
1.0
  0
POINT
  5
8361
330
7DD7
100
AcDbEntity
  8
DEFPOINTS
 62
     0
440
 16777216
100
AcDbPoint
 10
3093.166367524915
 20
7379.225552947573
 30
0.0
  0
POINT
  5
8362
330
7DD7
100
AcDbEntity
  8
DEFPOINTS
 62
     0
440
 16777216
100
AcDbPoint
 10
1843.166367524915
 20
7379.225552947573
 30
0.0
  0
POINT
  5
8363
330
7DD7
100
AcDbEntity
  8
DEFPOINTS
 62
     0
440
 16777216
100
AcDbPoint
 10
1843.166367524915
 20
7781.252200389651
 30
0.0
  0
ENDBLK
  5
7F1E
330
7DD7
100
AcDbEntity
  8
0
100
AcDbBlockEnd
  0
BLOCK
  5
8148
330
7DE3
100
AcDbEntity
  8
0
100
AcDbBlockBegin
  2
*D20
 70
     1
 10
0.0
 20
0.0
 30
0.0
  3
*D20
  1

  0
LINE
  5
8149
330
7DE3
100
AcDbEntity
  8
0
  6
ByBlock
 62
     0
440
 16777216
100
AcDbLine
 10
1400.591187518439
 20
2491.885170193513
 30
0.0
 11
926.1162871776249
 21
2491.885170193513
 31
0.0
  0
LINE
  5
814A
330
7DE3
100
AcDbEntity
  8
0
  6
ByBlock
 62
     0
440
 16777216
100
AcDbLine
 10
1400.591187518439
 20
2446.885170193513
 30
0.0
 11
926.1162871776249
 21
2446.885170193513
 31
0.0
  0
LINE
  5
814B
330
7DE3
100
AcDbEntity
  8
0
  6
ByBlock
 62
     0
440
 16777216
100
AcDbLine
 10
961.1162871776251
 20
2561.885170193513
 30
0.0
 11
961.1162871776251
 21
2631.885170193513
 31
0.0
  0
LINE
  5
814C
330
7DE3
100
AcDbEntity
  8
0
  6
ByBlock
 62
     0
440
 16777216
100
AcDbLine
 10
961.1162871776251
 20
2376.885170193513
 30
0.0
 11
961.1162871776251
 21
2306.885170193513
 31
0.0
  0
MTEXT
  5
814D
330
7DE3
100
AcDbEntity
  8
0
  6
ByBlock
 62
     0
440
 16777216
100
AcDbMText
 10
793.616287177625
 20
2564.902162373663
 30
0.0
 40
105.0
 41
0.0
 46
0.0
 71
     5
 72
     5
  1
\A1;(45)
 11
0.0
 21
1.0
 31
0.0
 73
     1
 44
1.0
  0
LINE
  5
814E
330
7DE3
100
AcDbEntity
  8
0
  6
ByBlock
 62
     0
440
 16777216
100
AcDbLine
 10
961.1162871776251
 20
2491.885170193513
 30
0.0
 11
961.1162871776251
 21
2446.885170193513
 31
0.0
  0
INSERT
  5
814F
330
7DE3
100
AcDbEntity
  8
0
  6
ByBlock
 62
     0
440
 16777216
100
AcDbBlockReference
  2
_OPEN
 10
961.1162871776251
 20
2491.885170193513
 30
0.0
 41
70.0
 42
70.0
 43
70.0
 50
270.0
  0
INSERT
  5
8150
330
7DE3
100
AcDbEntity
  8
0
  6
ByBlock
 62
     0
440
 16777216
100
AcDbBlockReference
  2
_DOT
 10
961.1162871776251
 20
2446.885170193513
 30
0.0
 41
70.0
 42
70.0
 43
70.0
 50
90.0
  0
POINT
  5
8151
330
7DE3
100
AcDbEntity
  8
DEFPOINTS
  6
ByBlock
 62
     0
440
 16777216
100
AcDbPoint
 10
1418.091187518439
 20
2491.885170193513
 30
0.0
  0
POINT
  5
8152
330
7DE3
100
AcDbEntity
  8
DEFPOINTS
  6
ByBlock
 62
     0
440
 16777216
100
AcDbPoint
 10
1418.091187518439
 20
2446.885170193513
 30
0.0
  0
POINT
  5
8153
330
7DE3
100
AcDbEntity
  8
DEFPOINTS
  6
ByBlock
 62
     0
440
 16777216
100
AcDbPoint
 10
961.1162871776251
 20
2446.885170193513
 30
0.0
  0
ENDBLK
  5
8154
330
7DE3
100
AcDbEntity
  8
0
100
AcDbBlockEnd
  0
BLOCK
  5
80E2
330
7DF0
100
AcDbEntity
  8
0
100
AcDbBlockBegin
  2
*D21
 70
     1
 10
0.0
 20
0.0
 30
0.0
  3
*D21
  1

  0
LINE
  5
8364
330
7DF0
100
AcDbEntity
  8
3
 62
     0
440
 16777216
100
AcDbLine
 10
1825.666367524915
 20
2446.885170193513
 30
0.0
 11
1351.204225071618
 21
2446.885170193513
 31
0.0
  0
LINE
  5
8365
330
7DF0
100
AcDbEntity
  8
3
 62
     0
440
 16777216
100
AcDbLine
 10
1825.666367524915
 20
2381.885170193513
 30
0.0
 11
1351.204225071618
 21
2381.885170193513
 31
0.0
  0
LINE
  5
8366
330
7DF0
100
AcDbEntity
  8
3
 62
     0
440
 16777216
100
AcDbLine
 10
1386.204225071618
 20
2516.885170193513
 30
0.0
 11
1386.204225071619
 21
2586.885170193513
 31
0.0
  0
LINE
  5
8367
330
7DF0
100
AcDbEntity
  8
3
 62
     0
440
 16777216
100
AcDbLine
 10
1386.204225071618
 20
2311.885170193513
 30
0.0
 11
1386.204225071618
 21
2001.885170193513
 31
0.0
  0
LINE
  5
8368
330
7DF0
100
AcDbEntity
  8
3
 62
     0
440
 16777216
100
AcDbLine
 10
1386.204225071618
 20
2446.885170193513
 30
0.0
 11
1386.204225071618
 21
2381.885170193513
 31
0.0
  0
INSERT
  5
8369
330
7DF0
100
AcDbEntity
  8
3
 62
     0
440
 16777216
100
AcDbBlockReference
  2
_DOT
 10
1386.204225071618
 20
2446.885170193513
 30
0.0
 41
70.0
 42
70.0
 43
70.0
 50
270.0
  0
INSERT
  5
836A
330
7DF0
100
AcDbEntity
  8
3
 62
     0
440
 16777216
100
AcDbBlockReference
  2
_OPEN
 10
1386.204225071618
 20
2381.885170193513
 30
0.0
 41
70.0
 42
70.0
 43
70.0
 50
90.0
  0
MTEXT
  5
836B
330
7DF0
100
AcDbEntity
  8
3
 62
     0
440
 16777216
100
AcDbMText
 10
1298.704225071618
 20
2121.885170193513
 30
0.0
 40
105.0
 41
0.0
 46
0.0
 71
     5
 72
     5
  1
\A1;65
 11
0.0000000000000001
 21
1.0
 31
0.0
 73
     1
 44
1.0
  0
POINT
  5
836C
330
7DF0
100
AcDbEntity
  8
DEFPOINTS
 62
     0
440
 16777216
100
AcDbPoint
 10
1843.166367524915
 20
2446.885170193513
 30
0.0
  0
POINT
  5
836D
330
7DF0
100
AcDbEntity
  8
DEFPOINTS
 62
     0
440
 16777216
100
AcDbPoint
 10
1843.166367524915
 20
2381.885170193513
 30
0.0
  0
POINT
  5
836E
330
7DF0
100
AcDbEntity
  8
DEFPOINTS
 62
     0
440
 16777216
100
AcDbPoint
 10
1386.204225071618
 20
2381.885170193513
 30
0.0
  0
ENDBLK
  5
80EE
330
7DF0
100
AcDbEntity
  8
0
100
AcDbBlockEnd
  0
BLOCK
  5
80B9
330
80B3
100
AcDbEntity
  8
0
100
AcDbBlockBegin
  2
_DOT
 70
     0
 10
0.0
 20
0.0
 30
0.0
  3
_DOT
  1

  0
LWPOLYLINE
  5
80B4
330
80B3
100
AcDbEntity
  8
0
  6
ByBlock
 62
     0
100
AcDbPolyline
 90
        2
 70
     1
 43
0.25
 10
-0.125
 20
0.0
 42
1.0
 10
0.125
 20
0.0
 42
1.0
  0
LINE
  5
80B8
330
80B3
100
AcDbEntity
  8
0
  6
ByBlock
 62
     0
100
AcDbLine
 10
-0.25
 20
0.0
 30
0.0
 11
-1.0
 21
0.0
 31
0.0
  0
ENDBLK
  5
80BA
330
80B3
100
AcDbEntity
  8
0
100
AcDbBlockEnd
  0
BLOCK
  5
818C
330
818B
100
AcDbEntity
  8
0
100
AcDbBlockBegin
  2
*D23
 70
     1
 10
0.0
 20
0.0
 30
0.0
  3
*D23
  1

  0
LINE
  5
818D
330
818B
100
AcDbEntity
  8
0
  6
ByBlock
 62
     0
440
 16777216
100
AcDbLine
 10
1770.666367524914
 20
4315.885170193511
 30
0.0
 11
1055.655637085459
 21
4315.885170193511
 31
0.0
  0
LINE
  5
818E
330
818B
100
AcDbEntity
  8
0
  6
ByBlock
 62
     0
440
 16777216
100
AcDbLine
 10
1825.666367524915
 20
2381.885170193513
 30
0.0
 11
1055.655637085459
 21
2381.885170193513
 31
0.0
  0
LINE
  5
818F
330
818B
100
AcDbEntity
  8
0
  6
ByBlock
 62
     0
440
 16777216
100
AcDbLine
 10
1090.655637085459
 20
4245.885170193511
 30
0.0
 11
1090.655637085459
 21
2451.885170193513
 31
0.0
  0
INSERT
  5
8190
330
818B
100
AcDbEntity
  8
0
  6
ByBlock
 62
     0
440
 16777216
100
AcDbBlockReference
  2
_OPEN
 10
1090.655637085459
 20
4315.885170193511
 30
0.0
 41
70.0
 42
70.0
 43
70.0
 50
90.0
  0
INSERT
  5
8191
330
818B
100
AcDbEntity
  8
0
  6
ByBlock
 62
     0
440
 16777216
100
AcDbBlockReference
  2
_OPEN
 10
1090.655637085459
 20
2381.885170193513
 30
0.0
 41
70.0
 42
70.0
 43
70.0
 50
270.0
  0
MTEXT
  5
8192
330
818B
100
AcDbEntity
  8
0
  6
ByBlock
 62
     0
440
 16777216
100
AcDbMText
 10
975.6556370854596
 20
3348.885170193512
 30
0.0
 40
105.0
 41
0.0
 46
0.0
 71
     5
 72
     5
  1
\A1;(1934)
 11
0.0
 21
1.0
 31
0.0
 73
     1
 44
1.0
  0
POINT
  5
8193
330
818B
100
AcDbEntity
  8
DEFPOINTS
  6
ByBlock
 62
     0
440
 16777216
100
AcDbPoint
 10
1788.166367524915
 20
4315.885170193511
 30
0.0
  0
POINT
  5
8194
330
818B
100
AcDbEntity
  8
DEFPOINTS
  6
ByBlock
 62
     0
440
 16777216
100
AcDbPoint
 10
1843.166367524915
 20
2381.885170193513
 30
0.0
  0
POINT
  5
8195
330
818B
100
AcDbEntity
  8
DEFPOINTS
  6
ByBlock
 62
     0
440
 16777216
100
AcDbPoint
 10
1090.655637085459
 20
2381.885170193513
 30
0.0
  0
ENDBLK
  5
8196
330
818B
100
AcDbEntity
  8
0
100
AcDbBlockEnd
  0
BLOCK
  5
819B
330
819A
100
AcDbEntity
  8
0
100
AcDbBlockBegin
  2
*D24
 70
     1
 10
0.0
 20
0.0
 30
0.0
  3
*D24
  1

  0
LINE
  5
819C
330
819A
100
AcDbEntity
  8
0
  6
ByBlock
 62
     0
440
 16777216
100
AcDbLine
 10
1788.166367524915
 20
4386.385170193511
 30
0.0
 11
1788.166367524915
 21
4884.331987316796
 31
0.0
  0
LINE
  5
819D
330
819A
100
AcDbEntity
  8
0
  6
ByBlock
 62
     0
440
 16777216
100
AcDbLine
 10
4043.166367524915
 20
2634.385170193513
 30
0.0
 11
4043.166367524915
 21
4884.331987316796
 31
0.0
  0
LINE
  5
819E
330
819A
100
AcDbEntity
  8
0
  6
ByBlock
 62
     0
440
 16777216
100
AcDbLine
 10
1858.166367524914
 20
4849.331987316797
 30
0.0
 11
3973.166367524916
 21
4849.331987316797
 31
0.0
  0
INSERT
  5
819F
330
819A
100
AcDbEntity
  8
0
  6
ByBlock
 62
     0
440
 16777216
100
AcDbBlockReference
  2
_OPEN
 10
1788.166367524915
 20
4849.331987316797
 30
0.0
 41
70.0
 42
70.0
 43
70.0
 50
180.0
  0
INSERT
  5
81A0
330
819A
100
AcDbEntity
  8
0
  6
ByBlock
 62
     0
440
 16777216
100
AcDbBlockReference
  2
_OPEN
 10
4043.166367524915
 20
4849.331987316797
 30
0.0
 41
70.0
 42
70.0
 43
70.0
  0
MTEXT
  5
81A1
330
819A
100
AcDbEntity
  8
0
  6
ByBlock
 62
     0
440
 16777216
100
AcDbMText
 10
2915.666367524915
 20
4936.831987316796
 30
0.0
 40
105.0
 41
0.0
 46
0.0
 71
     5
 72
     5
  1
\A1;2255
 73
     1
 44
1.0
  0
POINT
  5
81A2
330
819A
100
AcDbEntity
  8
DEFPOINTS
  6
ByBlock
 62
     0
440
 16777216
100
AcDbPoint
 10
1788.166367524915
 20
4368.88517019351
 30
0.0
  0
POINT
  5
81A3
330
819A
100
AcDbEntity
  8
DEFPOINTS
  6
ByBlock
 62
     0
440
 16777216
100
AcDbPoint
 10
4043.166367524915
 20
2616.885170193513
 30
0.0
  0
POINT
  5
81A4
330
819A
100
AcDbEntity
  8
DEFPOINTS
  6
ByBlock
 62
     0
440
 16777216
100
AcDbPoint
 10
4043.166367524915
 20
4849.331987316797
 30
0.0
  0
ENDBLK
  5
81A5
330
819A
100
AcDbEntity
  8
0
100
AcDbBlockEnd
  0
ENDSEC
  0
SECTION
  2
ENTITIES
  0
INSERT
  5
7C12
330
19
100
AcDbEntity
  8
0
100
AcDbBlockReference
  2
YA_N
 10
6.0
 20
5.0
 30
0.0
  0
LINE
  5
7C14
330
19
100
AcDbEntity
  8
2
100
AcDbLine
 10
4570.751193665484
 20
3241.885170193512
 30
0.0
 11
6432.773266434994
 21
3241.885170193512
 31
0.0
  0
LINE
  5
7C15
330
19
100
AcDbEntity
  8
2
100
AcDbLine
 10
5626.696634885691
 20
4523.843244642372
 30
0.0
 11
5626.696634885691
 21
2381.885170193512
 31
0.0
  0
INSERT
  5
7C16
330
19
100
AcDbEntity
  8
0
100
AcDbBlockReference
  2
YA_N
 10
-1637.209838160517
 20
-1405.432827243363
 30
0.0
 41
25.0
 42
25.0
 43
25.0
  0
INSERT
  5
7C18
330
19
100
AcDbEntity
  8
0
100
AcDbBlockReference
  2
YA_N
 10
-1144.893563079055
 20
-989.0222135336152
 30
0.0
 41
25.0
 42
25.0
 43
25.0
  0
LINE
  5
7C1A
330
19
100
AcDbEntity
  8
2
100
AcDbLine
 10
4570.751193665484
 20
2851.885170193512
 30
0.0
 11
5366.196634885691
 21
2851.885170193512
 31
0.0
  0
LINE
  5
7C21
330
19
100
AcDbEntity
  8
1
100
AcDbLine
 10
4766.696634885692
 20
3036.885170193512
 30
0.0
 11
4766.696634885692
 21
2666.885170193512
 31
0.0
  0
LINE
  5
7C22
330
19
100
AcDbEntity
  8
1
100
AcDbLine
 10
4761.696634885691
 20
2879.385170193512
 30
0.0
 11
4766.69663488569
 21
2879.385170193512
 31
0.0
  0
LINE
  5
7C23
330
19
100
AcDbEntity
  8
1
100
AcDbLine
 10
4761.696634885691
 20
2824.385170193512
 30
0.0
 11
4766.696634885692
 21
2824.385170193512
 31
0.0
  0
LINE
  5
7C24
330
19
100
AcDbEntity
  8
1
100
AcDbLine
 10
4547.196634885695
 20
2631.885170193512
 30
0.0
 11
4799.196634885695
 21
2631.885170193512
 31
0.0
  0
LINE
  5
7C25
330
19
100
AcDbEntity
  8
1
100
AcDbLine
 10
4547.196634885685
 20
3521.885170193512
 30
0.0
 11
4799.196634885686
 21
3521.885170193512
 31
0.0
  0
LINE
  5
7C26
330
19
100
AcDbEntity
  8
1
100
AcDbLine
 10
4651.696634885692
 20
2737.585170193512
 30
0.0
 11
4761.696634885691
 21
2737.585170193512
 31
0.0
  0
LINE
  5
7C27
330
19
100
AcDbEntity
  8
1
100
AcDbLine
 10
4651.69663488569
 20
2966.185170193512
 30
0.0
 11
4761.696634885691
 21
2966.185170193512
 31
0.0
  0
LINE
  5
7C28
330
19
100
AcDbEntity
  8
1
100
AcDbLine
 10
4651.69663488569
 20
3076.785170193512
 30
0.0
 11
4761.696634885691
 21
3076.785170193512
 31
0.0
  0
LINE
  5
7C29
330
19
100
AcDbEntity
  8
1
100
AcDbLine
 10
4651.69663488569
 20
3406.985170193512
 30
0.0
 11
4761.696634885691
 21
3406.985170193512
 31
0.0
  0
LINE
  5
7C2A
330
19
100
AcDbEntity
  8
1
100
AcDbLine
 10
4547.196634885685
 20
3521.885170193512
 30
0.0
 11
4547.196634885695
 21
2631.885170193512
 31
0.0
  0
LINE
  5
7C2B
330
19
100
AcDbEntity
  8
1
100
AcDbLine
 10
4651.69663488569
 20
3406.985170193512
 30
0.0
 11
4651.69663488569
 21
2737.585170193512
 31
0.0
  0
POINT
  5
7C2C
330
19
100
AcDbEntity
  8
1
100
AcDbPoint
 10
4547.196634885685
 20
3521.885170193512
 30
0.0
  0
DIMENSION
  5
7C2D
330
19
100
AcDbEntity
  8
3
100
AcDbDimension
280
     0
  2
*D2
 10
6712.515048902824
 20
3741.885170193512
 30
0.0
 11
6625.015048902823
 21
3241.885170193512
 31
0.0
 70
    32
  1
φ<>
 71
     5
 42
-1.0
 73
     0
 74
     0
 75
     0
  3
IGA
100
AcDbAlignedDimension
 13
6292.196634885691
 23
2741.885170193512
 33
0.0
 14
6292.196634885691
 24
3741.885170193512
 34
0.0
 50
90.0
100
AcDbRotatedDimension
1001
ACAD
1000
DSTYLE
1002
{
1070
   287
1070
     3
1070
    40
1040
35.0
1070
   143
1040
0.039
1070
   172
1070
     1
1070
   271
1070
     0
1070
   279
1070
     0
1070
   288
1070
     1
1002
}
  0
LINE
  5
7C2E
330
19
100
AcDbEntity
  8
1
100
AcDbLine
 10
4761.696634885692
 20
3406.985170193512
 30
0.0
 11
4761.696634885691
 21
2737.585170193512
 31
0.0
  0
DIMENSION
  5
7C2F
330
19
100
AcDbEntity
  8
3
100
AcDbDimension
280
     0
  2
*D3
 10
6354.696634885691
 20
2181.97330478171
 30
0.0
 11
5990.696634885691
 21
2269.47330478171
 31
0.0
 70
    32
 71
     5
 42
-1.0
 73
     0
 74
     0
 75
     0
  3
IGA
100
AcDbAlignedDimension
 13
5626.696634885691
 23
2381.885170193512
 33
0.0
 14
6354.696634885691
 24
2381.885170193512
 34
0.0
100
AcDbRotatedDimension
1001
ACAD
1000
DSTYLE
1002
{
1070
   287
1070
     3
1070
    40
1040
35.0
1070
   143
1040
0.039
1070
   172
1070
     1
1070
   271
1070
     0
1070
   279
1070
     0
1070
   288
1070
     1
1002
}
  0
LINE
  5
7C31
330
19
100
AcDbEntity
  8
1
100
AcDbLine
 10
4704.696634885691
 20
2381.885170193512
 30
0.0
 11
6354.696634885691
 21
2381.885170193512
 31
0.0
  0
LINE
  5
7C32
330
19
100
AcDbEntity
  8
1
100
AcDbLine
 10
4704.696634885691
 20
2446.885170193512
 30
0.0
 11
6354.696634885691
 21
2446.885170193512
 31
0.0
1001
ACAD
1000
ASC_BOUNDS
1002
{
1070
    19
1002
}
  0
LINE
  5
7C33
330
19
100
AcDbEntity
  8
1
100
AcDbLine
 10
4704.696634885691
 20
2616.885170193512
 30
0.0
 11
6354.696634885691
 21
2616.885170193512
 31
0.0
  0
LINE
  5
7C34
330
19
100
AcDbEntity
  8
1
100
AcDbLine
 10
4704.696634885691
 20
2491.885170193512
 30
0.0
 11
6354.696634885691
 21
2491.885170193512
 31
0.0
1001
ACAD
1000
ASC_BOUNDS
1002
{
1070
    19
1002
}
  0
DIMENSION
  5
7C35
330
19
100
AcDbEntity
  8
3
100
AcDbDimension
280
     0
  2
*D4
 10
5626.696634885691
 20
2181.97330478171
 30
0.0
 11
5165.696634885691
 21
2269.47330478171
 31
0.0
 70
    32
 71
     5
 42
-1.0
 73
     0
 74
     0
 75
     0
  3
IGA
100
AcDbAlignedDimension
 13
4704.696634885691
 23
2381.885170193512
 33
0.0
 14
5626.696634885691
 24
2381.885170193512
 34
0.0
100
AcDbRotatedDimension
1001
ACAD
1000
DSTYLE
1002
{
1070
   287
1070
     3
1070
    40
1040
35.0
1070
   143
1040
0.039
1070
   172
1070
     1
1070
   271
1070
     0
1070
   279
1070
     0
1070
   288
1070
     1
1002
}
  0
LINE
  5
7C36
330
19
100
AcDbEntity
  8
1
100
AcDbLine
 10
4704.696634885691
 20
2446.885170193512
 30
0.0
 11
4704.696634885691
 21
2381.885170193512
 31
0.0
  0
LINE
  5
7C37
330
19
100
AcDbEntity
  8
1
100
AcDbLine
 10
4704.696634885691
 20
2616.885170193512
 30
0.0
 11
4704.696634885691
 21
2491.885170193512
 31
0.0
  0
LINE
  5
7C38
330
19
100
AcDbEntity
  8
1
100
AcDbLine
 10
4799.196634885695
 20
2651.885170193512
 30
0.0
 11
4799.196634885695
 21
2631.885170193514
 31
0.0
  0
LINE
  5
7C39
330
19
100
AcDbEntity
  8
1
100
AcDbLine
 10
6354.696634885691
 20
2446.885170193512
 30
0.0
 11
6354.696634885691
 21
2381.885170193512
 31
0.0
  0
LINE
  5
7C3A
330
19
100
AcDbEntity
  8
1
100
AcDbLine
 10
6354.696634885691
 20
2616.885170193512
 30
0.0
 11
6354.696634885691
 21
2491.885170193512
 31
0.0
  0
LINE
  5
7C3B
330
19
100
AcDbEntity
  8
1
100
AcDbLine
 10
4966.69663488569
 20
4315.885170193512
 30
0.0
 11
4966.696634885693
 21
3036.885170193512
 31
0.0
  0
LINE
  5
7C3C
330
19
100
AcDbEntity
  8
1
100
AcDbLine
 10
6286.696634885691
 20
4315.885170193512
 30
0.0
 11
6286.696634885691
 21
2616.885170193512
 31
0.0
  0
LINE
  5
7C3E
330
19
100
AcDbEntity
  8
1
100
AcDbLine
 10
4810.796634885692
 20
3301.385170193512
 30
0.0
 11
4810.79663488569
 21
3182.385170193512
 31
0.0
  0
LINE
  5
7C3F
330
19
100
AcDbEntity
  8
1
100
AcDbLine
 10
4809.196634885689
 20
3159.885170193512
 30
0.0
 11
4809.196634885691
 21
3036.885170193512
 31
0.0
  0
ARC
  5
7C40
330
19
100
AcDbEntity
  8
1
100
AcDbCircle
 10
4819.196634885689
 20
3159.885170193512
 30
0.0
 40
10.0
100
AcDbArc
 50
90.0
 51
180.0000000000007
  0
LINE
  5
7C41
330
19
100
AcDbEntity
  8
1
100
AcDbLine
 10
4819.196634885689
 20
3169.885170193512
 30
0.0
 11
4966.696634885692
 21
3169.885170193512
 31
0.0
  0
LINE
  5
7C42
330
19
100
AcDbEntity
  8
1
100
AcDbLine
 10
4810.796634885692
 20
3182.385170193512
 30
0.0
 11
4966.69663488569
 21
3182.385170193512
 31
0.0
  0
LINE
  5
7C43
330
19
100
AcDbEntity
  8
1
100
AcDbLine
 10
4766.696634885692
 20
3201.885170193512
 30
0.0
 11
4810.79663488569
 21
3201.885170193512
 31
0.0
  0
LINE
  5
7C44
330
19
100
AcDbEntity
  8
1
100
AcDbLine
 10
4766.696634885692
 20
3281.885170193512
 30
0.0
 11
4810.79663488569
 21
3281.885170193512
 31
0.0
  0
LINE
  5
7C45
330
19
100
AcDbEntity
  8
1
100
AcDbLine
 10
4761.696634885691
 20
3211.885170193512
 30
0.0
 11
4766.696634885692
 21
3211.885170193512
 31
0.0
  0
LINE
  5
7C46
330
19
100
AcDbEntity
  8
1
100
AcDbLine
 10
4761.696634885691
 20
3271.885170193512
 30
0.0
 11
4766.696634885692
 21
3271.885170193512
 31
0.0
  0
LINE
  5
7C47
330
19
100
AcDbEntity
  8
1
100
AcDbLine
 10
4766.696634885692
 20
3281.885170193512
 30
0.0
 11
4766.696634885692
 21
3201.885170193512
 31
0.0
  0
LINE
  5
7C48
330
19
100
AcDbEntity
  8
1
100
AcDbLine
 10
4810.79663488569
 20
3301.385170193512
 30
0.0
 11
4966.69663488569
 21
3301.385170193512
 31
0.0
  0
LINE
  5
7C49
330
19
100
AcDbEntity
  8
1
100
AcDbLine
 10
4799.196634885686
 20
3521.885170193514
 30
0.0
 11
4799.196634885686
 21
3501.885170193512
 31
0.0
  0
LINE
  5
7C4B
330
19
100
AcDbEntity
  8
1
100
AcDbLine
 10
5626.696634885691
 20
3739.885170193512
 30
0.0
 11
5622.696634885691
 21
3739.885170193512
 31
0.0
  0
LINE
  5
7C4C
330
19
100
AcDbEntity
  8
1
100
AcDbLine
 10
5626.696634885691
 20
3739.885170193512
 30
0.0
 11
5630.696634885691
 21
3739.885170193512
 31
0.0
  0
LINE
  5
7C4D
330
19
100
AcDbEntity
  8
1
100
AcDbLine
 10
5626.696634885691
 20
4315.885170193512
 30
0.0
 11
4966.69663488569
 21
4315.885170193512
 31
0.0
  0
LINE
  5
7C4E
330
19
100
AcDbEntity
  8
1
100
AcDbLine
 10
5626.696634885691
 20
4315.885170193512
 30
0.0
 11
6286.696634885691
 21
4315.885170193512
 31
0.0
  0
LINE
  5
7C4F
330
19
100
AcDbEntity
  8
1
100
AcDbLine
 10
5626.696634885691
 20
4707.909246472805
 30
0.0
 11
5626.696634885691
 21
4876.115867099306
 31
0.0
  0
LINE
  5
7C50
330
19
100
AcDbEntity
  8
1
100
AcDbLine
 10
5626.696634885691
 20
4707.909246472805
 30
0.0
 11
5626.696634885691
 21
4876.115867099306
 31
0.0
  0
POINT
  5
7C51
330
19
100
AcDbEntity
  8
1
100
AcDbPoint
 10
5626.696634885691
 20
4851.115867099306
 30
0.0
  0
LINE
  5
7C52
330
19
100
AcDbEntity
  8
1
100
AcDbLine
 10
6426.696634885691
 20
3199.685170193512
 30
0.0
 11
6426.696634885691
 21
3069.685170193512
 31
0.0
  0
LINE
  5
7C53
330
19
100
AcDbEntity
  8
1
100
AcDbLine
 10
6286.696634885691
 20
3059.685170193513
 30
0.0
 11
6416.696634885693
 21
3059.685170193513
 31
0.0
  0
ARC
  5
7C54
330
19
100
AcDbEntity
  8
1
100
AcDbCircle
 10
6416.696634885693
 20
3069.685170193512
 30
0.0
 40
10.0
100
AcDbArc
 50
270.0
 51
0.0000000000006514
  0
POINT
  5
7C55
330
19
100
AcDbEntity
  8
1
100
AcDbPoint
 10
6426.696634885695
 20
3199.685170193512
 30
0.0
  0
LINE
  5
7C56
330
19
100
AcDbEntity
  8
1
100
AcDbLine
 10
6286.696634885691
 20
3209.685170193512
 30
0.0
 11
6416.696634885692
 21
3209.685170193512
 31
0.0
  0
LINE
  5
7C57
330
19
100
AcDbEntity
  8
1
100
AcDbLine
 10
6413.296634885691
 20
3209.385170193512
 30
0.0
 11
6416.696634885692
 21
3209.385170193512
 31
0.0
  0
ARC
  5
7C58
330
19
100
AcDbEntity
  8
1
100
AcDbCircle
 10
6416.696634885695
 20
3199.685170193512
 30
0.0
 40
10.0
100
AcDbArc
 50
0.0000000000006514
 51
90.0
  0
DIMENSION
  5
7C59
330
19
100
AcDbEntity
  8
3
100
AcDbDimension
280
     0
  2
*D5
 10
5626.696634885691
 20
4852.1433488634
 30
0.0
 11
6026.696634885691
 21
4967.143348863399
 31
0.0
 70
    32
  1
(<>)
 71
     5
 42
800.0
 73
     0
 74
     0
 75
     0
  3
IGA
100
AcDbAlignedDimension
 13
6426.696634885691
 23
3199.685170193512
 33
0.0
 14
5626.696634885691
 24
4676.352431306779
 34
0.0
100
AcDbRotatedDimension
1001
ACAD
1000
DSTYLE
1002
{
1070
   287
1070
     3
1070
    40
1040
35.0
1070
   143
1040
0.039
1070
   172
1070
     1
1070
   271
1070
     0
1070
   279
1070
     0
1070
   288
1070
     1
1002
}
  0
DIMENSION
  5
7C5A
330
19
100
AcDbEntity
  8
3
100
AcDbDimension
280
     0
  2
*D6
 10
4547.196634885685
 20
4852.1433488634
 30
0.0
 11
5086.946634885689
 21
4967.143348863399
 31
0.0
 70
    32
  1
(<>)
 71
     5
 42
1079.500000000005
 73
     0
 74
     0
 75
     0
  3
IGA
100
AcDbAlignedDimension
 13
5626.696634885691
 23
4676.352431306779
 33
0.0
 14
4547.196634885685
 24
3521.885170193512
 34
0.0
100
AcDbRotatedDimension
1001
ACAD
1000
DSTYLE
1002
{
1070
   287
1070
     3
1070
    40
1040
35.0
1070
   143
1040
0.039
1070
   172
1070
     1
1070
   271
1070
     0
1070
   279
1070
     0
1070
   288
1070
     1
1002
}
  0
DIMENSION
  5
7C5B
330
19
100
AcDbEntity
  8
3
100
AcDbDimension
280
     0
  2
*D7
 10
6286.696634885691
 20
4531.150517590507
 30
0.0
 11
5622.641807253927
 21
4531.150517590507
 31
0.0
 70
   160
 71
     5
 42
-1.0
 73
     0
 74
     0
 75
     0
  3
IGA
100
AcDbAlignedDimension
 13
4966.69663488569
 23
4315.885170193512
 33
0.0
 14
6286.696634885691
 24
4315.885170193512
 34
0.0
100
AcDbRotatedDimension
1001
ACAD
1000
DSTYLE
1002
{
1070
   287
1070
     3
1070
    40
1040
35.0
1070
   143
1040
0.039
1070
   172
1070
     1
1070
   271
1070
     0
1070
   279
1070
     0
1070
   288
1070
     1
1002
}
  0
LINE
  5
7C5D
330
19
100
AcDbEntity
  8
1
100
AcDbLine
 10
2426.677373032941
 20
3082.083188553594
 30
0.0
 11
3739.443217492009
 21
2741.253029058184
 31
0.0
  0
LINE
  5
7C5E
330
19
100
AcDbEntity
  8
1
100
AcDbLine
 10
2521.49316018203
 20
3398.135812383889
 30
0.0
 11
3805.084916287533
 21
2960.058691709927
 31
0.0
  0
DIMENSION
  5
7C5F
330
19
100
AcDbEntity
  8
3
100
AcDbDimension
280
     0
  2
*D8
 10
3336.166367524915
 20
4569.659843536487
 30
0.0
 11
2902.166367524916
 21
4657.159843536486
 31
0.0
 70
    32
 71
     5
 42
-1.0
 73
     0
 74
     0
 75
     0
  3
IGA
100
AcDbAlignedDimension
 13
2468.166367524917
 23
4406.801062533951
 33
0.0
 14
3336.166367524915
 24
3315.885170193511
 34
0.0
100
AcDbRotatedDimension
1001
ACAD
1000
DSTYLE
1002
{
1070
   287
1070
     3
1070
    40
1040
35.0
1070
   143
1040
0.039
1070
   172
1070
     1
1070
   271
1070
     0
1070
   279
1070
     0
1070
   288
1070
     1
1002
}
  0
LINE
  5
7C61
330
19
100
AcDbEntity
  8
1
100
AcDbLine
 10
2399.643650495331
 20
2970.399190351304
 30
0.0
 11
3714.327089858813
 21
2638.574757460349
 31
0.0
  0
LINE
  5
7C62
330
19
100
AcDbEntity
  8
1
100
AcDbLine
 10
2560.401152303267
 20
3506.257529711089
 30
0.0
 11
3840.636555565048
 21
3059.606309814466
 31
0.0
  0
DIMENSION
  5
7C64
330
19
100
AcDbEntity
  8
3
100
AcDbDimension
280
     0
  2
*D9
 10
2468.166367524917
 20
2185.491146472412
 30
0.0
 11
3255.666367524916
 21
2272.991146472412
 31
0.0
 70
    32
 71
     5
 42
-1.0
 73
     0
 74
     0
 75
     0
  3
IGA
100
AcDbAlignedDimension
 13
4043.166367524915
 23
2381.885170193513
 33
0.0
 14
2468.166367524917
 24
2381.885170193513
 34
0.0
100
AcDbRotatedDimension
1001
ACAD
1000
DSTYLE
1002
{
1070
   287
1070
     3
1070
    40
1040
35.0
1070
   143
1040
0.039
1070
   172
1070
     1
1070
   271
1070
     0
1070
   279
1070
     0
1070
   288
1070
     1
1002
}
  0
LINE
  5
7C65
330
19
100
AcDbEntity
  8
1
100
AcDbLine
 10
4043.166367524915
 20
2381.885170193513
 30
0.0
 11
1843.166367524915
 21
2381.885170193513
 31
0.0
  0
LINE
  5
7C66
330
19
100
AcDbEntity
  8
1
100
AcDbLine
 10
4043.166367524915
 20
2446.885170193513
 30
0.0
 11
1843.166367524915
 21
2446.885170193513
 31
0.0
1001
ACAD
1000
ASC_BOUNDS
1002
{
1070
    19
1002
}
  0
LINE
  5
7C67
330
19
100
AcDbEntity
  8
1
100
AcDbLine
 10
4043.166367524915
 20
2491.885170193513
 30
0.0
 11
1843.166367524915
 21
2491.885170193513
 31
0.0
1001
ACAD
1000
ASC_BOUNDS
1002
{
1070
    19
1002
}
  0
LINE
  5
7C68
330
19
100
AcDbEntity
  8
2
100
AcDbLine
 10
1728.550385027287
 20
3241.885170193511
 30
0.0
 11
3400.681283581123
 21
3241.885170193512
 31
0.0
  0
LINE
  5
7C69
330
19
100
AcDbEntity
  8
1
100
AcDbLine
 10
4043.166367524915
 20
2616.885170193511
 30
0.0
 11
1843.166367524915
 21
2616.885170193513
 31
0.0
  0
ARC
  5
7C6A
330
19
100
AcDbEntity
  8
1
100
AcDbCircle
 10
2542.166367524915
 20
3315.885170193511
 30
0.0
 40
794.0
100
AcDbArc
 50
298.3150679473993
 51
354.6523302501612
  0
ARC
  5
7C6B
330
19
100
AcDbEntity
  8
1
100
AcDbCircle
 10
2394.166367524915
 20
3315.885170193511
 30
0.0
 40
942.0
100
AcDbArc
 50
355.4944154733556
 51
85.49441547335559
  0
LINE
  5
7C6C
330
19
100
AcDbEntity
  8
2
100
AcDbLine
 10
3768.166367524916
 20
3115.700844193512
 30
0.0
 11
3768.166367524916
 21
2381.885170193513
 31
0.0
  0
ARC
  5
7C6D
330
19
100
AcDbEntity
  8
1
100
AcDbCircle
 10
3768.166367524916
 20
2851.885170193512
 30
0.0
 40
220.0
100
AcDbArc
 50
255.8344770480782
 51
70.76703448393458
  0
CIRCLE
  5
7C6E
330
19
100
AcDbEntity
  8
1
100
AcDbCircle
 10
3768.166367524916
 20
2851.885170193512
 30
0.0
 40
114.3
  0
LINE
  5
7C6F
330
19
100
AcDbEntity
  8
1
100
AcDbLine
 10
3978.582380550681
 20
2671.885170193511
 30
0.0
 11
3838.166367524916
 21
2671.885170193511
 31
0.0
  0
LINE
  5
7C70
330
19
100
AcDbEntity
  8
2
100
AcDbLine
 10
4134.85244576777
 20
2851.885170193512
 30
0.0
 11
3552.086834878959
 21
2851.885170193512
 31
0.0
  0
ARC
  5
7C71
330
19
100
AcDbEntity
  8
1
100
AcDbCircle
 10
3768.166367524916
 20
2851.885170193512
 30
0.0
 40
185.0
100
AcDbArc
 50
287.945251
 51
252.054749
  0
LINE
  5
7C72
330
19
100
AcDbEntity
  8
1
100
AcDbLine
 10
4043.166367524915
 20
2616.885170193513
 30
0.0
 11
4043.166367524915
 21
2491.885170193513
 31
0.0
  0
LINE
  5
7C73
330
19
100
AcDbEntity
  8
1
100
AcDbLine
 10
4043.166367524915
 20
2446.885170193513
 30
0.0
 11
4043.166367524915
 21
2381.885170193513
 31
0.0
  0
LINE
  5
7C76
330
19
100
AcDbEntity
  8
1
100
AcDbLine
 10
3993.166367524916
 20
2616.885170193511
 30
0.0
 11
3978.582380550681
 21
2671.885170193511
 31
0.0
  0
LINE
  5
7C77
330
19
100
AcDbEntity
  8
1
100
AcDbLine
 10
3930.166367524916
 20
2747.144203193511
 30
0.0
 11
3930.166367524916
 21
2671.885170193512
 31
0.0
  0
LINE
  5
7C79
330
19
100
AcDbEntity
  8
1
100
AcDbLine
 10
3930.166367524916
 20
2747.144203193511
 30
0.0
 11
3923.782395524915
 21
2751.841957193512
 31
0.0
  0
LINE
  5
7C7B
330
19
100
AcDbEntity
  8
1
100
AcDbLine
 10
3698.166367524916
 20
2671.885170193511
 30
0.0
 11
3557.95111631125
 21
2671.885170193511
 31
0.0
  0
LINE
  5
7C7C
330
19
100
AcDbEntity
  8
1
100
AcDbLine
 10
3838.166367524916
 20
2661.885170193511
 30
0.0
 11
3698.166367524916
 21
2661.885170193511
 31
0.0
  0
LINE
  5
7C7E
330
19
100
AcDbEntity
  8
1
100
AcDbLine
 10
3711.166352524915
 20
2675.885170193512
 30
0.0
 11
3825.166367524916
 21
2675.885170193512
 31
0.0
  0
LINE
  5
7C80
330
19
100
AcDbEntity
  8
1
100
AcDbLine
 10
3838.166367524916
 20
2671.885170193511
 30
0.0
 11
3838.166367524916
 21
2661.885170193511
 31
0.0
  0
LINE
  5
7C81
330
19
100
AcDbEntity
  8
1
100
AcDbLine
 10
3606.166352524915
 20
2747.144203193511
 30
0.0
 11
3606.166352524915
 21
2671.885170193512
 31
0.0
  0
LINE
  5
7C83
330
19
100
AcDbEntity
  8
1
100
AcDbLine
 10
3698.166367524915
 20
2671.885170193511
 30
0.0
 11
3698.166367524915
 21
2661.885170193511
 31
0.0
  0
LINE
  5
7C85
330
19
100
AcDbEntity
  8
1
100
AcDbLine
 10
3606.166352524915
 20
2747.144203193511
 30
0.0
 11
3612.550324524916
 21
2751.841957193512
 31
0.0
  0
LINE
  5
7C86
330
19
100
AcDbEntity
  8
1
100
AcDbLine
 10
3543.166367524916
 20
2616.885170193511
 30
0.0
 11
3557.95111631125
 21
2671.885170193511
 31
0.0
  0
CIRCLE
  5
7C87
330
19
100
AcDbEntity
  8
1
100
AcDbCircle
 10
2468.166367524917
 20
3241.885170193511
 30
0.0
 40
550.0
  0
CIRCLE
  5
7C88
330
19
100
AcDbEntity
  8
1
100
AcDbCircle
 10
2468.166367524917
 20
3241.885170193511
 30
0.0
 40
500.0
  0
ARC
  5
7C89
330
19
100
AcDbEntity
  8
1
100
AcDbCircle
 10
2468.166367524917
 20
3241.885170193511
 30
0.0
 40
280.0
100
AcDbArc
 50
70.76703448393461
 51
255.8344770480782
  0
DIMENSION
  5
7C8A
330
19
100
AcDbEntity
  8
3
100
AcDbDimension
280
     0
  2
*D10
 10
1386.204225071618
 20
2491.885170193513
 30
0.0
 11
1298.704225071618
 21
2866.885170193512
 31
0.0
 70
    32
 71
     5
 42
-1.0
 73
     0
 74
     0
 75
     0
  3
IGA
100
AcDbAlignedDimension
 13
1728.550385027287
 23
3241.885170193511
 33
0.0
 14
1843.166367524915
 24
2491.885170193513
 34
0.0
 50
90.0
100
AcDbRotatedDimension
1001
ACAD
1000
DSTYLE
1002
{
1070
   287
1070
     3
1070
    40
1040
35.0
1070
   143
1040
0.039
1070
   172
1070
     1
1070
   271
1070
     0
1070
   279
1070
     0
1070
   288
1070
     1
1002
}
  0
CIRCLE
  5
7C8B
330
19
100
AcDbEntity
  8
1
100
AcDbCircle
 10
2468.166367524917
 20
3241.885170193511
 30
0.0
 40
165.1
  0
LINE
  5
7C8C
330
19
100
AcDbEntity
  8
2
100
AcDbLine
 10
2468.166367524917
 20
4406.801062533951
 30
0.0
 11
2468.166367524917
 21
2381.885170193513
 31
0.0
  0
ARC
  5
7C8D
330
19
100
AcDbEntity
  8
1
100
AcDbCircle
 10
2528.666367524915
 20
3181.385170193511
 30
0.0
 40
659.4999999999999
100
AcDbArc
 50
174.736504796933
 51
238.8650095063511
  0
DIMENSION
  5
7C8E
330
19
100
AcDbEntity
  8
3
100
AcDbDimension
280
     0
  2
*D11
 10
2468.166367524917
 20
2183.865096836829
 30
0.0
 11
2155.666367524915
 21
2271.365096836829
 31
0.0
 70
    32
 71
     5
 42
-1.0
 73
     0
 74
     0
 75
     0
  3
IGA
100
AcDbAlignedDimension
 13
1843.166367524915
 23
2381.885170193513
 33
0.0
 14
2468.166367524917
 24
2381.885170193513
 34
0.0
100
AcDbRotatedDimension
1001
ACAD
1000
DSTYLE
1002
{
1070
   287
1070
     3
1070
    40
1040
35.0
1070
   143
1040
0.039
1070
   172
1070
     1
1070
   271
1070
     0
1070
   279
1070
     0
1070
   288
1070
     1
1002
}
  0
LINE
  5
7C91
330
19
100
AcDbEntity
  8
1
100
AcDbLine
 10
1843.166367524915
 20
2616.885170193513
 30
0.0
 11
1843.166367524915
 21
2491.885170193513
 31
0.0
  0
POINT
  5
7C92
330
19
100
AcDbEntity
  8
1
100
AcDbPoint
 10
1843.166367524915
 20
2446.885170193513
 30
0.0
  0
POINT
  5
7C93
330
19
100
AcDbEntity
  8
1
100
AcDbPoint
 10
1843.166367524915
 20
2381.885170193513
 30
0.0
  0
POINT
  5
7C94
330
19
100
AcDbEntity
  8
1
100
AcDbPoint
 10
1843.166367524915
 20
2446.885170193513
 30
0.0
  0
POINT
  5
7C95
330
19
100
AcDbEntity
  8
1
100
AcDbPoint
 10
1843.166367524915
 20
2446.885170193513
 30
0.0
  0
POINT
  5
7C96
330
19
100
AcDbEntity
  8
1
100
AcDbPoint
 10
1843.166367524915
 20
2381.885170193513
 30
0.0
  0
POINT
  5
7C97
330
19
100
AcDbEntity
  8
1
100
AcDbPoint
 10
1843.166367524915
 20
2446.885170193513
 30
0.0
  0
POINT
  5
7C98
330
19
100
AcDbEntity
  8
1
100
AcDbPoint
 10
1843.166367524915
 20
2381.885170193513
 30
0.0
  0
POINT
  5
7C99
330
19
100
AcDbEntity
  8
1
100
AcDbPoint
 10
1843.166367524915
 20
2446.885170193513
 30
0.0
  0
POINT
  5
7C9A
330
19
100
AcDbEntity
  8
1
100
AcDbPoint
 10
1843.166367524915
 20
2446.885170193513
 30
0.0
  0
LINE
  5
7C9B
330
19
100
AcDbEntity
  8
1
100
AcDbLine
 10
1843.166367524915
 20
2446.885170193513
 30
0.0
 11
1843.166367524915
 21
2381.885170193513
 31
0.0
  0
POINT
  5
7C9C
330
19
100
AcDbEntity
  8
1
100
AcDbPoint
 10
1843.166367524915
 20
2491.885170193513
 30
0.0
  0
POINT
  5
7C9D
330
19
100
AcDbEntity
  8
1
100
AcDbPoint
 10
1843.166367524915
 20
2491.885170193513
 30
0.0
  0
POINT
  5
7C9E
330
19
100
AcDbEntity
  8
1
100
AcDbPoint
 10
1843.166367524915
 20
2491.885170193513
 30
0.0
  0
POINT
  5
7C9F
330
19
100
AcDbEntity
  8
1
100
AcDbPoint
 10
1387.372726174108
 20
2381.885170193513
 30
0.0
  0
DIMENSION
  5
7CA0
330
19
100
AcDbEntity
  8
3
100
AcDbDimension
280
     0
  2
*D12
 10
2468.166367524917
 20
4569.659843536487
 30
0.0
 11
2128.166367524916
 21
4657.159843536486
 31
0.0
 70
    32
 71
     5
 42
-1.0
 73
     0
 74
     0
 75
     0
  3
IGA
100
AcDbAlignedDimension
 13
1788.166367524915
 23
4368.88517019351
 33
0.0
 14
2468.166367524917
 24
4406.801062533951
 34
0.0
100
AcDbRotatedDimension
1001
ACAD
1000
DSTYLE
1002
{
1070
   287
1070
     3
1070
    40
1040
35.0
1070
   143
1040
0.039
1070
   172
1070
     1
1070
   271
1070
     0
1070
   279
1070
     0
1070
   288
1070
     1
1002
}
  0
LINE
  5
7CA1
330
19
100
AcDbEntity
  8
1
100
AcDbLine
 10
1788.166367524915
 20
4315.885170193511
 30
0.0
 11
2468.166367524915
 21
4254.974090370934
 31
0.0
  0
DIMENSION
  5
7CA2
330
19
100
AcDbEntity
  8
3
100
AcDbDimension
280
     0
  2
*D13
 10
1386.204225071618
 20
3241.885170193511
 30
0.0
 11
1298.704225071618
 21
3778.885170193511
 31
0.0
 70
    32
 71
     5
 42
-1.0
 73
     0
 74
     0
 75
     0
  3
IGA
100
AcDbAlignedDimension
 13
1788.166367524915
 23
4315.885170193511
 33
0.0
 14
1728.550385027287
 24
3241.885170193511
 34
0.0
 50
90.0
100
AcDbRotatedDimension
1001
ACAD
1000
DSTYLE
1002
{
1070
   287
1070
     3
1070
    40
1040
35.0
1070
   143
1040
0.039
1070
   172
1070
     1
1070
   271
1070
     0
1070
   279
1070
     0
1070
   288
1070
     1
1002
}
  0
DIMENSION
  5
7CA3
330
19
100
AcDbEntity
  8
3
100
AcDbDimension
280
     0
  2
*D14
 10
1587.006270530772
 20
3285.885170193512
 30
0.0
 11
1499.506270530771
 21
3800.885170193512
 31
0.0
 70
    32
 71
     5
 42
-1.0
 73
     0
 74
     0
 75
     0
  3
IGA
100
AcDbAlignedDimension
 13
1788.166367524915
 23
4315.885170193511
 33
0.0
 14
1788.166367524915
 24
3285.885170193512
 34
0.0
 50
90.0
100
AcDbRotatedDimension
1001
ACAD
1000
DSTYLE
1002
{
1070
   287
1070
     3
1070
    40
1040
35.0
1070
   143
1040
0.039
1070
   172
1070
     1
1070
   271
1070
     0
1070
   279
1070
     0
1070
   288
1070
     1
1002
}
  0
LINE
  5
7CA4
330
19
100
AcDbEntity
  8
1
100
AcDbLine
 10
1792.166367524916
 20
4368.88517019351
 30
0.0
 11
1792.166367524913
 21
3232.885170193511
 31
0.0
  0
LINE
  5
7CA5
330
19
100
AcDbEntity
  8
1
100
AcDbLine
 10
1838.166367524914
 20
4311.406414324203
 30
0.0
 11
1838.166367524914
 21
3285.885170193511
 31
0.0
  0
LINE
  5
7CA6
330
19
100
AcDbEntity
  8
1
100
AcDbLine
 10
1788.166367524915
 20
4368.88517019351
 30
0.0
 11
1788.166367524915
 21
3232.885170193511
 31
0.0
  0
LINE
  5
7CA7
330
19
100
AcDbEntity
  8
1
100
AcDbLine
 10
1879.403175545765
 20
3285.885170193511
 30
0.0
 11
1788.166367524915
 21
3285.885170193512
 31
0.0
  0
ARC
  5
7CA8
330
19
100
AcDbEntity
  8
1
100
AcDbCircle
 10
2407.666367524915
 20
3181.385170193511
 30
0.0
 40
538.4999999999999
100
AcDbArc
 50
168.8103254372375
 51
173.5492502851401
  0
LINE
  5
7CA9
330
19
100
AcDbEntity
  8
1
100
AcDbLine
 10
1792.166367524913
 20
3232.885170193511
 30
0.0
 11
1788.166367524915
 21
3232.885170193511
 31
0.0
  0
LINE
  5
7CAA
330
19
100
AcDbEntity
  8
1
100
AcDbLine
 10
1792.166367524916
 20
4368.88517019351
 30
0.0
 11
1788.166367524915
 21
4368.88517019351
 31
0.0
  0
LINE
  5
7CAB
330
19
100
AcDbEntity
  8
1
100
AcDbLine
 10
3988.166367524915
 20
5801.225552947574
 30
0.0
 11
2188.166367524915
 21
5801.225552947574
 31
0.0
  0
LINE
  5
7CAC
330
19
100
AcDbEntity
  8
1
100
AcDbLine
 10
3988.166367524915
 20
5571.225552947574
 30
0.0
 11
2188.166367524915
 21
5571.225552947574
 31
0.0
  0
LINE
  5
7CAD
330
19
100
AcDbEntity
  8
1
100
AcDbLine
 10
3336.166367524915
 20
5991.225552947575
 30
0.0
 11
1788.166367524915
 21
5991.225552947573
 31
0.0
  0
LINE
  5
7CAE
330
19
100
AcDbEntity
  8
1
100
AcDbLine
 10
3336.166367524915
 20
7311.225552947575
 30
0.0
 11
1788.166367524915
 21
7311.225552947573
 31
0.0
  0
DIMENSION
  5
7CAF
330
19
100
AcDbEntity
  8
3
100
AcDbDimension
280
     0
  2
*D15
 10
1843.166367524915
 20
5289.404893452381
 30
0.0
 11
2943.166367524915
 21
5289.404893452381
 31
0.0
 70
   160
 71
     5
 42
-1.0
 73
     0
 74
     0
 75
     0
  3
IGA
100
AcDbAlignedDimension
 13
4043.166367524915
 23
5729.225552947573
 33
0.0
 14
1843.166367524915
 24
5729.225552947573
 34
0.0
100
AcDbRotatedDimension
1001
ACAD
1000
DSTYLE
1002
{
1070
   287
1070
     3
1070
    40
1040
35.0
1070
   143
1040
0.039
1070
   172
1070
     1
1070
   271
1070
     0
1070
   279
1070
     0
1070
   288
1070
     1
1002
}
  0
DIMENSION
  5
7CB0
330
19
100
AcDbEntity
  8
3
100
AcDbDimension
280
     0
  2
*D16
 10
3093.166367524915
 20
7781.252200389651
 30
0.0
 11
3568.166367524916
 21
7868.752200389652
 31
0.0
 70
    32
 71
     5
 42
-1.0
 73
     0
 74
     0
 75
     0
  3
IGA
100
AcDbAlignedDimension
 13
4043.166367524915
 23
6679.225552947574
 33
0.0
 14
3093.166367524915
 24
7379.225552947573
 34
0.0
100
AcDbRotatedDimension
1001
ACAD
1000
DSTYLE
1002
{
1070
   287
1070
     3
1070
    40
1040
35.0
1070
   143
1040
0.039
1070
   172
1070
     1
1070
   271
1070
     0
1070
   279
1070
     0
1070
   288
1070
     1
1002
}
  0
LINE
  5
7CB1
330
19
100
AcDbEntity
  8
2
100
AcDbLine
 10
3336.166367524915
 20
6651.225552947574
 30
0.0
 11
1689.523981291877
 21
6651.225552947574
 31
0.0
  0
LINE
  5
7CB2
330
19
100
AcDbEntity
  8
1
100
AcDbLine
 10
4043.166367524915
 20
6679.225552947574
 30
0.0
 11
3336.166367524915
 21
6679.225552947572
 31
0.0
  0
LINE
  5
7CB3
330
19
100
AcDbEntity
  8
1
100
AcDbLine
 10
4043.166367524915
 20
5729.225552947573
 30
0.0
 11
1843.166367524915
 21
5729.225552947573
 31
0.0
  0
LINE
  5
7CB4
330
19
100
AcDbEntity
  8
1
100
AcDbLine
 10
3336.166367524915
 20
7311.225552947575
 30
0.0
 11
3336.166367524915
 21
5991.225552947575
 31
0.0
  0
DIMENSION
  5
7CB5
330
19
100
AcDbEntity
  8
3
100
AcDbDimension
280
     0
  2
*D17
 10
4444.757858719065
 20
5729.225552947573
 30
0.0
 11
4357.257858719065
 21
6204.225552947575
 31
0.0
 70
    32
 71
     5
 42
-1.0
 73
     0
 74
     0
 75
     0
  3
IGA
100
AcDbAlignedDimension
 13
4043.166367524915
 23
6679.225552947574
 33
0.0
 14
4043.166367524915
 24
5729.225552947573
 34
0.0
 50
270.0
100
AcDbRotatedDimension
1001
ACAD
1000
DSTYLE
1002
{
1070
   287
1070
     3
1070
    40
1040
35.0
1070
   143
1040
0.039
1070
   172
1070
     1
1070
   271
1070
     0
1070
   279
1070
     0
1070
   288
1070
     1
1002
}
  0
LINE
  5
7CB6
330
19
100
AcDbEntity
  8
1
100
AcDbLine
 10
3882.166367524915
 20
5763.725552947574
 30
0.0
 11
3882.166367524915
 21
5653.725552947574
 31
0.0
  0
LINE
  5
7CB7
330
19
100
AcDbEntity
  8
1
100
AcDbLine
 10
3654.166367524915
 20
5763.725552947574
 30
0.0
 11
3654.166367524915
 21
5653.725552947574
 31
0.0
  0
LINE
  5
7CB8
330
19
100
AcDbEntity
  8
1
100
AcDbLine
 10
3988.166367524915
 20
5801.225552947575
 30
0.0
 11
3988.166367524915
 21
5571.225552947575
 31
0.0
  0
LINE
  5
7CB9
330
19
100
AcDbEntity
  8
2
100
AcDbLine
 10
3768.166367524916
 20
6368.225552947575
 30
0.0
 11
3768.166367524915
 21
5571.225552947574
 31
0.0
  0
LINE
  5
7CBA
330
19
100
AcDbEntity
  8
1
100
AcDbLine
 10
3882.166367524915
 20
5653.725552947575
 30
0.0
 11
3654.166367524915
 21
5653.725552947575
 31
0.0
  0
LINE
  5
7CBB
330
19
100
AcDbEntity
  8
1
100
AcDbLine
 10
3953.166367524915
 20
5768.725552947575
 30
0.0
 11
3583.166367524915
 21
5768.725552947575
 31
0.0
  0
LINE
  5
7CBC
330
19
100
AcDbEntity
  8
1
100
AcDbLine
 10
3953.166367524915
 20
6368.225552947575
 30
0.0
 11
3583.166367524915
 21
6368.225552947575
 31
0.0
  0
LINE
  5
7CBD
330
19
100
AcDbEntity
  8
1
100
AcDbLine
 10
3882.166367524915
 20
5763.725552947575
 30
0.0
 11
3654.166367524915
 21
5763.725552947575
 31
0.0
  0
LINE
  5
7CBE
330
19
100
AcDbEntity
  8
1
100
AcDbLine
 10
3953.166367524915
 20
6368.225552947575
 30
0.0
 11
3953.166367524915
 21
5768.725552947575
 31
0.0
  0
LINE
  5
7CBF
330
19
100
AcDbEntity
  8
1
100
AcDbLine
 10
4043.166367524915
 20
6679.225552947574
 30
0.0
 11
4043.166367524915
 21
5729.225552947573
 31
0.0
  0
LINE
  5
7CC0
330
19
100
AcDbEntity
  8
1
100
AcDbLine
 10
3583.166367524915
 20
6368.225552947575
 30
0.0
 11
3583.166367524915
 21
5768.725552947575
 31
0.0
  0
LINE
  5
7CC1
330
19
100
AcDbEntity
  8
1
100
AcDbLine
 10
3795.666367524915
 20
5768.725552947575
 30
0.0
 11
3795.666367524915
 21
5763.725552947575
 31
0.0
  0
LINE
  5
7CC2
330
19
100
AcDbEntity
  8
1
100
AcDbLine
 10
3740.666367524915
 20
5768.725552947575
 30
0.0
 11
3740.666367524915
 21
5763.725552947575
 31
0.0
  0
LINE
  5
7CC3
330
19
100
AcDbEntity
  8
1
100
AcDbLine
 10
1788.166367524915
 20
7361.225552947573
 30
0.0
 11
1788.166367524915
 21
5941.225552947575
 31
0.0
  0
DIMENSION
  5
7CC4
330
19
100
AcDbEntity
  8
3
100
AcDbDimension
280
     0
  2
*D18
 10
1441.505305111623
 20
5729.225552947573
 30
0.0
 11
1354.005305111622
 21
6554.225552947574
 31
0.0
 70
    32
 71
     5
 42
-1.0
 73
     0
 74
     0
 75
     0
  3
IGA
100
AcDbAlignedDimension
 13
1843.166367524915
 23
7379.225552947573
 33
0.0
 14
1843.166367524915
 24
5729.225552947573
 34
0.0
 50
270.0
100
AcDbRotatedDimension
1001
ACAD
1000
DSTYLE
1002
{
1070
   287
1070
     3
1070
    40
1040
35.0
1070
   143
1040
0.039
1070
   172
1070
     1
1070
   271
1070
     0
1070
   279
1070
     0
1070
   288
1070
     1
1002
}
  0
LINE
  5
7CC5
330
19
100
AcDbEntity
  8
2
100
AcDbLine
 10
2468.166367524915
 20
7468.314899126621
 30
0.0
 11
2468.166367524915
 21
5571.225552947573
 31
0.0
  0
LINE
  5
7CC6
330
19
100
AcDbEntity
  8
1
100
AcDbLine
 10
3093.166367524915
 20
7379.225552947573
 30
0.0
 11
3093.166367524915
 21
7311.225552947575
 31
0.0
  0
LINE
  5
7CC7
330
19
100
AcDbEntity
  8
1
100
AcDbLine
 10
1843.166367524915
 20
7379.225552947573
 30
0.0
 11
1843.166367524915
 21
7311.225552947573
 31
0.0
  0
LINE
  5
7CC8
330
19
100
AcDbEntity
  8
1
100
AcDbLine
 10
2633.166367524915
 20
5763.725552947573
 30
0.0
 11
2633.166367524915
 21
5653.725552947573
 31
0.0
  0
LINE
  5
7CC9
330
19
100
AcDbEntity
  8
1
100
AcDbLine
 10
2303.166367524914
 20
5763.725552947573
 30
0.0
 11
2303.166367524914
 21
5653.725552947573
 31
0.0
  0
LINE
  5
7CCA
330
19
100
AcDbEntity
  8
1
100
AcDbLine
 10
2633.166367524915
 20
5653.725552947573
 30
0.0
 11
2303.166367524914
 21
5653.725552947573
 31
0.0
  0
LINE
  5
7CCB
330
19
100
AcDbEntity
  8
1
100
AcDbLine
 10
2633.166367524915
 20
5763.725552947573
 30
0.0
 11
2303.166367524914
 21
5763.725552947573
 31
0.0
  0
LINE
  5
7CCC
330
19
100
AcDbEntity
  8
1
100
AcDbLine
 10
2508.166367524915
 20
5991.225552947575
 30
0.0
 11
2508.166367524915
 21
5763.725552947573
 31
0.0
  0
LINE
  5
7CCD
330
19
100
AcDbEntity
  8
1
100
AcDbLine
 10
2428.166367524915
 20
5991.225552947575
 30
0.0
 11
2428.166367524915
 21
5763.725552947573
 31
0.0
  0
LINE
  5
7CCE
330
19
100
AcDbEntity
  8
1
100
AcDbLine
 10
2188.166367524915
 20
5801.225552947574
 30
0.0
 11
2188.166367524915
 21
5571.225552947574
 31
0.0
  0
DIMENSION
  5
7CCF
330
19
100
AcDbEntity
  8
3
100
AcDbDimension
280
     0
  2
*D19
 10
1843.166367524915
 20
7781.252200389651
 30
0.0
 11
2468.166367524915
 21
7868.752200389652
 31
0.0
 70
    32
 71
     5
 42
-1.0
 73
     0
 74
     0
 75
     0
  3
IGA
100
AcDbAlignedDimension
 13
3093.166367524915
 23
7379.225552947573
 33
0.0
 14
1843.166367524915
 24
7379.225552947573
 34
0.0
100
AcDbRotatedDimension
1001
ACAD
1000
DSTYLE
1002
{
1070
   287
1070
     3
1070
    40
1040
35.0
1070
   143
1040
0.039
1070
   172
1070
     1
1070
   271
1070
     0
1070
   279
1070
     0
1070
   288
1070
     1
1002
}
  0
LINE
  5
7CD0
330
19
100
AcDbEntity
  8
1
100
AcDbLine
 10
3093.166367524915
 20
7379.225552947573
 30
0.0
 11
1843.166367524915
 21
7379.225552947573
 31
0.0
  0
LINE
  5
7CD3
330
19
100
AcDbEntity
  8
1
100
AcDbLine
 10
5366.196634885691
 20
3036.885170193512
 30
0.0
 11
5366.196634885691
 21
2666.885170193512
 31
0.0
  0
LINE
  5
7CD4
330
19
100
AcDbEntity
  8
1
100
AcDbLine
 10
5247.196634885693
 20
2666.885170193512
 30
0.0
 11
5247.196634885693
 21
2616.885170193512
 31
0.0
  0
LINE
  5
7CD5
330
19
100
AcDbEntity
  8
1
100
AcDbLine
 10
4797.196634885692
 20
2666.885170193512
 30
0.0
 11
4797.196634885692
 21
2616.885170193512
 31
0.0
  0
LINE
  5
7CD6
330
19
100
AcDbEntity
  8
1
100
AcDbLine
 10
4766.696634885692
 20
3036.885170193512
 30
0.0
 11
5366.196634885691
 21
3036.885170193512
 31
0.0
  0
LINE
  5
7CD7
330
19
100
AcDbEntity
  8
1
100
AcDbLine
 10
4766.696634885692
 20
2666.885170193512
 30
0.0
 11
5366.196634885691
 21
2666.885170193512
 31
0.0
  0
DIMENSION
  5
7CD8
330
19
100
AcDbEntity
  8
3
100
AcDbDimension
280
     0
  2
*D20
 10
1386.1914671841
 20
2446.885170193513
 30
0.0
 11
1218.6914671841
 21
2564.902162373663
 31
0.0
 12
425.0751800064754
 22
0.0
 32
0.0
 70
   160
  1
(<>)
 71
     5
 42
-1.0
 73
     0
 74
     0
 75
     0
  3
IGA
100
AcDbAlignedDimension
 13
1843.166367524915
 23
2491.885170193513
 33
0.0
 14
1843.166367524915
 24
2446.885170193513
 34
0.0
 50
90.0
100
AcDbRotatedDimension
1001
ACAD
1000
DSTYLE
1002
{
1070
   288
1070
     1
1070
   172
1070
     1
1070
    40
1040
35.0
1070
   271
1070
     0
1070
     7
1000
_DOT
1070
   143
1040
0.039
1002
}
  0
DIMENSION
  5
7CD9
330
19
100
AcDbEntity
  8
3
100
AcDbDimension
280
     0
  2
*D21
 10
1386.204225071618
 20
2381.885170193513
 30
0.0
 11
1298.704225071618
 21
2121.885170193513
 31
0.0
 70
    32
 71
     5
 42
-1.0
 73
     0
 74
     0
 75
     0
  3
IGA
100
AcDbAlignedDimension
 13
1843.166367524915
 23
2446.885170193513
 33
0.0
 14
1843.166367524915
 24
2381.885170193513
 34
0.0
 50
90.0
100
AcDbRotatedDimension
1001
ACAD
1000
DSTYLE
1002
{
1070
   287
1070
     3
1070
    40
1040
35.0
1070
   143
1040
0.039
1070
   172
1070
     1
1070
   271
1070
     0
1070
   279
1070
     0
1070
   288
1070
     1
1070
     6
1000
DOT
1002
}
  0
LINE
  5
7CDA
330
19
100
AcDbEntity
  8
1
100
AcDbLine
 10
1843.166367524915
 20
5991.225552947574
 30
0.0
 11
1843.166367524915
 21
5729.225552947573
 31
0.0
  0
LINE
  5
8070
330
19
100
AcDbEntity
  8
4
100
AcDbLine
 10
6475.0
 20
1411.801532643661
 30
0.0
 11
6475.0
 21
711.8015326436617
 31
0.0
  0
LINE
  5
8071
330
19
100
AcDbEntity
  8
4
100
AcDbLine
 10
4025.0
 20
1411.801532643661
 30
0.0
 11
4025.0
 21
711.8015326436617
 31
0.0
  0
LINE
  5
8072
330
19
100
AcDbEntity
  8
4
100
AcDbLine
 10
2275.0
 20
1411.801532643661
 30
0.0
 11
2275.0
 21
711.8015326436617
 31
0.0
  0
LINE
  5
8075
330
19
100
AcDbEntity
  8
4
100
AcDbLine
 10
2275.0
 20
711.8015326436616
 30
0.0
 11
6475.0
 21
711.8015326436616
 31
0.0
  0
LINE
  5
8076
330
19
100
AcDbEntity
  8
4
100
AcDbLine
 10
2275.0
 20
1061.801532643661
 30
0.0
 11
6475.0
 21
1061.801532643661
 31
0.0
  0
TEXT
  5
8077
330
19
100
AcDbEntity
  8
4
100
AcDbText
 10
2409.757282964156
 20
1172.202123176806
 30
0.0
 40
175.0
  1
機器名称
100
AcDbText
  0
TEXT
  5
8078
330
19
100
AcDbEntity
  8
4
100
AcDbText
 10
2401.903371086792
 20
787.5595812056999
 30
0.0
 40
175.0
  1
機器型番
100
AcDbText
  0
TEXT
  5
8079
330
19
100
AcDbEntity
  8
4
100
AcDbText
 10
4124.288041926392
 20
1138.683164959253
 30
0.0
 40
140.0
  1
ミツヤリミットロードファン
100
AcDbText
  0
TEXT
  5
807A
330
19
100
AcDbEntity
  8
4
100
AcDbText
 10
4153.290734549182
 20
771.8600776234634
 30
0.0
 40
175.0
  1
LL#6-5
100
AcDbText
  0
TEXT
  5
807C
330
19
100
AcDbEntity
  8
4
100
AcDbText
 10
2797.119579755614
 20
8342.000944663805
 30
0.0
 40
188.9999999999999
  1
床置防振ベット
100
AcDbText
  0
TEXT
  5
807D
330
19
100
AcDbEntity
  8
4
100
AcDbText
 10
1106.586576653062
 20
8868.583416697545
 30
0.0
 40
252.0
  1
遠心式両吸込両持リミットロードファン
100
AcDbText
  0
LINE
  5
807E
330
19
100
AcDbEntity
  8
4
100
AcDbLine
 10
875.0
 20
8642.930639926817
 30
0.0
 11
6475.0
 21
8642.930639926817
 31
0.0
  0
LINE
  5
807F
330
19
100
AcDbEntity
  8
4
100
AcDbLine
 10
875.0
 20
9342.930639926818
 30
0.0
 11
6475.0
 21
9342.930639926818
 31
0.0
  0
LINE
  5
8080
330
19
100
AcDbEntity
  8
4
100
AcDbLine
 10
2275.0
 20
1411.801532643661
 30
0.0
 11
6475.0
 21
1411.801532643661
 31
0.0
  0
LINE
  5
8081
330
19
100
AcDbEntity
  8
4
100
AcDbLine
 10
875.0
 20
9342.930639926818
 30
0.0
 11
875.0
 21
8642.930639926817
 31
0.0
  0
TEXT
  5
8082
330
19
100
AcDbEntity
  8
4
100
AcDbText
 10
1271.613666906156
 20
8338.118171412203
 30
0.0
 40
188.9999999999999
  1
左回転左横向
100
AcDbText
  0
TEXT
  5
8083
330
19
100
AcDbEntity
  8
4
100
AcDbText
 10
5141.393457372515
 20
9471.21378523358
 30
0.0
 40
196.0
  1
No.
100
AcDbText
  0
TEXT
  5
8084
330
19
100
AcDbEntity
  8
4
100
AcDbText
 10
4589.536219100046
 20
8342.000944663805
 30
0.0
 40
188.9999999999999
  1
縮尺：1/35
100
AcDbText
  0
LINE
  5
8085
330
19
100
AcDbEntity
  8
4
100
AcDbLine
 10
6475.0
 20
9342.930639926818
 30
0.0
 11
6475.0
 21
8642.930639926817
 31
0.0
  0
LINE
  5
8086
330
19
100
AcDbEntity
  8
4
100
AcDbLine
 10
7350.0
 20
10325.0
 30
0.0
 11
7350.0
 21
10325.0
 31
0.0
  0
LINE
  5
8087
330
19
100
AcDbEntity
  8
4
100
AcDbLine
 10
5042.160978259526
 20
9384.422540938905
 30
0.0
 11
5042.160978259526
 21
9753.282915424135
 31
0.0
  0
LINE
  5
8088
330
19
100
AcDbEntity
  8
4
100
AcDbLine
 10
5042.160978259526
 20
9753.282915424135
 30
0.0
 11
6475.0
 21
9753.282915424135
 31
0.0
  0
LINE
  5
8089
330
19
100
AcDbEntity
  8
4
100
AcDbLine
 10
6475.0
 20
9753.282915424135
 30
0.0
 11
6475.0
 21
9384.422540938905
 31
0.0
  0
LINE
  5
808A
330
19
100
AcDbEntity
  8
4
100
AcDbLine
 10
6475.0
 20
9384.422540938905
 30
0.0
 11
5042.160978259526
 21
9384.422540938905
 31
0.0
  0
LINE
  5
808B
330
19
100
AcDbEntity
  8
4
100
AcDbLine
 10
0.0
 20
0.0
 30
0.0
 11
0.0
 21
10325.0
 31
0.0
  0
LINE
  5
808C
330
19
100
AcDbEntity
  8
4
100
AcDbLine
 10
0.0
 20
10325.0
 30
0.0
 11
7350.0
 21
10325.0
 31
0.0
  0
LINE
  5
808D
330
19
100
AcDbEntity
  8
4
100
AcDbLine
 10
7350.0
 20
10325.0
 30
0.0
 11
7350.0
 21
0.0
 31
0.0
  0
LINE
  5
808E
330
19
100
AcDbEntity
  8
4
100
AcDbLine
 10
7350.0
 20
0.0
 30
0.0
 11
0.0
 21
0.0
 31
0.0
  0
DIMENSION
  5
8197
330
19
100
AcDbEntity
  8
3
100
AcDbDimension
280
     0
  2
*D23
 10
1090.655637085459
 20
2381.885170193513
 30
0.0
 11
975.6556370854596
 21
3348.885170193512
 31
0.0
 70
    32
 71
     5
 42
-1.0
 73
     0
 74
     0
 75
     0
  3
IGA
100
AcDbAlignedDimension
 13
1788.166367524915
 23
4315.885170193511
 33
0.0
 14
1843.166367524915
 24
2381.885170193513
 34
0.0
 50
90.0
100
AcDbRotatedDimension
1001
ACAD
1000
DSTYLE
1002
{
1070
   172
1070
     1
1070
    40
1040
35.0
1070
     3
1000
(<>)
1070
   271
1070
     0
1070
   143
1040
0.039
1002
}
  0
DIMENSION
  5
81A6
330
19
100
AcDbEntity
  8
3
100
AcDbDimension
280
     0
  2
*D24
 10
4043.166367524915
 20
4849.331987316797
 30
0.0
 11
2915.666367524915
 21
4936.831987316796
 31
0.0
 70
    32
 71
     5
 42
-1.0
 73
     0
 74
     0
 75
     0
  3
IGA
100
AcDbAlignedDimension
 13
1788.166367524915
 23
4368.88517019351
 33
0.0
 14
4043.166367524915
 24
2616.885170193513
 34
0.0
100
AcDbRotatedDimension
1001
ACAD
1000
DSTYLE
1002
{
1070
   172
1070
     1
1070
    40
1040
35.0
1070
   271
1070
     0
1070
   143
1040
0.039
1002
}
  0
ENDSEC
  0
SECTION
  2
OBJECTS
  0
DICTIONARY
  5
C
330
0
100
AcDbDictionary
281
     1
  3
ACAD_CIP_PREVIOUS_PRODUCT_INFO
350
83CD
  3
ACAD_COLOR
350
83B0
  3
ACAD_DETAILVIEWSTYLE
350
83C9
  3
ACAD_GROUP
350
D
  3
ACAD_LAYOUT
350
81AF
  3
ACAD_MATERIAL
350
837E
  3
ACAD_MLEADERSTYLE
350
83C5
  3
ACAD_MLINESTYLE
350
E
  3
ACAD_PLOTSETTINGS
350
81B0
  3
ACAD_PLOTSTYLENAME
350
81AD
  3
ACAD_SCALELIST
350
83B3
  3
ACAD_SECTIONVIEWSTYLE
350
83C7
  3
ACAD_TABLESTYLE
350
83B1
  3
ACAD_VISUALSTYLE
350
8397
  3
ACDB_RECOMPOSE_DATA
350
8430
  3
AcDbVariableDictionary
350
8374
  3
AcDsDecomposeData
350
8436
  0
DICTIONARY
  5
8414
330
2
100
AcDbDictionary
280
     1
281
     1
  3
ACAD_LAYERSTATES
360
8415
  0
DICTIONARY
  5
8407
330
F
100
AcDbDictionary
280
     1
281
     1
  3
ADSK_XREC_LAYER_RECONCILED
360
8408
  0
DICTIONARY
  5
8409
330
31
100
AcDbDictionary
280
     1
281
     1
  3
ADSK_XREC_LAYER_RECONCILED
360
840A
  0
DICTIONARY
  5
840B
330
76D0
100
AcDbDictionary
280
     1
281
     1
  3
ADSK_XREC_LAYER_RECONCILED
360
840C
  0
DICTIONARY
  5
840D
330
76D1
100
AcDbDictionary
280
     1
281
     1
  3
ADSK_XREC_LAYER_RECONCILED
360
840E
  0
DICTIONARY
  5
840F
330
76D2
100
AcDbDictionary
280
     1
281
     1
  3
ADSK_XREC_LAYER_RECONCILED
360
8410
  0
DICTIONARY
  5
82BC
330
19
100
AcDbDictionary
280
     1
281
     1
  3
ACAD_LAYOUTSELFREF
360
82BD
  0
DICTIONARY
  5
82BA
330
16
100
AcDbDictionary
280
     1
281
     1
  3
ACAD_LAYOUTSELFREF
360
82BB
  0
XRECORD
  5
83CD
102
{ACAD_REACTORS
330
C
102
}
330
C
100
AcDbXrecord
280
     1
300
ACDLT
300
2023
300

  0
DICTIONARY
  5
83B0
102
{ACAD_REACTORS
330
C
102
}
330
C
100
AcDbDictionary
281
     1
  0
DICTIONARY
  5
83C9
102
{ACAD_REACTORS
330
C
102
}
330
C
100
AcDbDictionary
281
     1
  3
Metric50
350
83CA
  0
DICTIONARY
  5
D
102
{ACAD_REACTORS
330
C
102
}
330
C
100
AcDbDictionary
281
     1
  0
DICTIONARY
  5
81AF
102
{ACAD_REACTORS
330
C
102
}
330
C
100
AcDbDictionary
281
     1
  3
Model
350
81B1
  3
ﾚｲｱｳﾄ1
350
81B2
  0
DICTIONARY
  5
837E
102
{ACAD_REACTORS
330
C
102
}
330
C
100
AcDbDictionary
281
     1
  3
ByBlock
350
8387
  3
ByLayer
350
837F
  3
Global
350
838F
  0
DICTIONARY
  5
83C5
102
{ACAD_REACTORS
330
C
102
}
330
C
100
AcDbDictionary
281
     1
  3
Standard
350
83C6
  0
DICTIONARY
  5
E
102
{ACAD_REACTORS
330
C
102
}
330
C
100
AcDbDictionary
281
     1
  3
STANDARD
350
1C
  0
DICTIONARY
  5
81B0
102
{ACAD_REACTORS
330
C
102
}
330
C
100
AcDbDictionary
281
     1
  0
ACDBDICTIONARYWDFLT
  5
81AD
102
{ACAD_REACTORS
330
C
102
}
330
C
100
AcDbDictionary
281
     1
  3
Normal
350
81AE
100
AcDbDictionaryWithDefault
340
81AE
  0
DICTIONARY
  5
83B3
102
{ACAD_REACTORS
330
C
102
}
330
C
100
AcDbDictionary
281
     1
  3
A0
350
83B4
  3
A1
350
83B5
  3
A2
350
83B6
  3
A3
350
83B7
  3
A4
350
83B8
  3
A5
350
83B9
  3
A6
350
83BA
  3
A7
350
83BB
  3
A8
350
83BC
  3
A9
350
83BD
  3
B0
350
83BE
  3
B1
350
83BF
  3
B2
350
83C0
  3
B3
350
83C1
  3
B4
350
83C2
  3
B5
350
83C3
  3
B6
350
83C4
  0
DICTIONARY
  5
83C7
102
{ACAD_REACTORS
330
C
102
}
330
C
100
AcDbDictionary
281
     1
  3
Metric50
350
83C8
  0
DICTIONARY
  5
83B1
102
{ACAD_REACTORS
330
C
102
}
330
C
100
AcDbDictionary
281
     1
  3
Standard
350
83B2
  0
DICTIONARY
  5
8397
102
{ACAD_REACTORS
330
C
102
}
330
C
100
AcDbDictionary
281
     1
  3
2dWireframe
350
839D
  3
Basic
350
839C
  3
Brighten
350
83A3
  3
ColorChange
350
83A7
  3
Conceptual
350
83A0
  3
Dim
350
83A2
  3
EdgeColorOff
350
83AF
  3
Facepattern
350
83A6
  3
Flat
350
8398
  3
FlatWithEdges
350
8399
  3
Gouraud
350
839A
  3
GouraudWithEdges
350
839B
  3
Hidden
350
839F
  3
JitterOff
350
83AD
  3
Linepattern
350
83A5
  3
OverhangOff
350
83AE
  3
Realistic
350
83A1
  3
Shaded
350
83AC
  3
Shaded with edges
350
83AB
  3
Shades of Gray
350
83A8
  3
Sketchy
350
83A9
  3
Thicken
350
83A4
  3
Wireframe
350
839E
  3
X-Ray
350
83AA
  0
XRECORD
  5
8430
102
{ACAD_REACTORS
330
C
102
}
330
C
100
AcDbXrecord
280
     1
 90
        1
330
83B2
  0
DICTIONARY
  5
8374
102
{ACAD_REACTORS
330
C
102
}
330
C
100
AcDbDictionary
281
     1
  3
CANNOSCALE
350
8425
  3
CMLEADERSTYLE
350
8421
  3
CTABLESTYLE
350
8420
  3
CVIEWDETAILSTYLE
350
8422
  3
CVIEWSECTIONSTYLE
350
8423
  3
DIMASSOC
350
8375
  3
LAYEREVAL
350
8427
  3
LAYERNOTIFY
350
8428
  3
LIGHTINGUNITS
350
8426
  3
MARKUPASSISTMODE
350
842D
  3
MSLTSCALE
350
8424
  0
DICTIONARY
  5
8436
102
{ACAD_REACTORS
330
C
102
}
330
C
100
AcDbDictionary
281
     1
  3
AcDsRecords
350
8438
  3
AcDsSchemas
350
8437
1001
ACAD
1070
     2
  0
DICTIONARY
  5
8415
102
{ACAD_REACTORS
330
8414
102
}
330
8414
100
AcDbDictionary
281
     1
  0
XRECORD
  5
8408
102
{ACAD_REACTORS
330
8407
102
}
330
8407
100
AcDbXrecord
280
     1
290
     1
  0
XRECORD
  5
840A
102
{ACAD_REACTORS
330
8409
102
}
330
8409
100
AcDbXrecord
280
     1
290
     1
  0
XRECORD
  5
840C
102
{ACAD_REACTORS
330
840B
102
}
330
840B
100
AcDbXrecord
280
     1
290
     1
  0
XRECORD
  5
840E
102
{ACAD_REACTORS
330
840D
102
}
330
840D
100
AcDbXrecord
280
     1
290
     1
  0
XRECORD
  5
8410
102
{ACAD_REACTORS
330
840F
102
}
330
840F
100
AcDbXrecord
280
     1
290
     1
  0
XRECORD
  5
82BD
102
{ACAD_REACTORS
330
82BC
102
}
330
82BC
100
AcDbXrecord
280
     1
340
19
  0
XRECORD
  5
82BB
102
{ACAD_REACTORS
330
82BA
102
}
330
82BA
100
AcDbXrecord
280
     1
340
16
  0
ACDBDETAILVIEWSTYLE
  5
83CA
102
{ACAD_XDICTIONARY
360
843B
102
}
102
{ACAD_REACTORS
330
83C9
102
}
330
83C9
100
AcDbModelDocViewStyle
 70
     0
  3
Metric50
290
     0
100
AcDbDetailViewStyle
 70
     0
 71
     0
 90
        3
 71
     1
340
10
 62
   256
 40
5.0
340
0
 62
   256
 40
5.0
300

 40
0.0
280
     1
 71
     2
340
15
 90
       25
 62
   256
 71
     3
340
10
 62
   256
 40
5.0
 90
        0
 40
15.0
 90
        1
300
%<\AcVar ViewDetailId>% (%<\AcVar ViewScale \f "%sn">%)
 71
     4
340
15
 90
       25
 62
   256
340
15
 90
       25
 62
   256
280
     0
  0
LAYOUT
  5
81B1
102
{ACAD_REACTORS
330
81AF
102
}
330
81AF
100
AcDbPlotSettings
  1

  2
\\Txbo34x8944cqyd\EPSON LP-6100
  4

  6

 40
0.0
 41
0.0
 42
0.0
 43
0.0
 44
0.0
 45
0.0
 46
0.0
 47
0.0
 48
0.0
 49
0.0
140
0.0
141
0.0
142
1.0
143
1.0
 70
  1712
 72
     0
 73
     0
 74
     0
  7
GOD2000TABLE.ctb
 75
     0
147
1.0
 76
     0
 77
     2
 78
   300
148
0.0
149
0.0
100
AcDbLayout
  1
Model
 70
     1
 71
     0
 10
0.0
 20
0.0
 11
12.0
 21
9.0
 12
0.0
 22
0.0
 32
0.0
 14
0.0
 24
0.0
 34
0.0
 15
0.0
 25
0.0
 35
0.0
146
0.0
 13
0.0
 23
0.0
 33
0.0
 16
1.0
 26
0.0
 36
0.0
 17
0.0
 27
1.0
 37
0.0
 76
     0
330
19
331
837C
  0
LAYOUT
  5
81B2
102
{ACAD_REACTORS
330
81AF
102
}
330
81AF
100
AcDbPlotSettings
  1

  2
\\Txbo34x8944cqyd\EPSON LP-6100
  4

  6

 40
0.0
 41
0.0
 42
0.0
 43
0.0
 44
0.0
 45
0.0
 46
0.0
 47
0.0
 48
0.0
 49
0.0
140
0.0
141
0.0
142
1.0
143
1.0
 70
   688
 72
     0
 73
     0
 74
     5
  7
GOD2000TABLE.ctb
 75
    16
147
1.0
 76
     0
 77
     2
 78
   300
148
0.0
149
0.0
100
AcDbLayout
  1
ﾚｲｱｳﾄ1
 70
     1
 71
     1
 10
0.0
 20
0.0
 11
12.0
 21
9.0
 12
0.0
 22
0.0
 32
0.0
 14
1.000000000000000E+20
 24
1.000000000000000E+20
 34
1.000000000000000E+20
 15
-1.000000000000000E+20
 25
-1.000000000000000E+20
 35
-1.000000000000000E+20
146
0.0
 13
0.0
 23
0.0
 33
0.0
 16
1.0
 26
0.0
 36
0.0
 17
0.0
 27
1.0
 37
0.0
 76
     0
330
16
  0
MATERIAL
  5
8387
102
{ACAD_XDICTIONARY
360
8388
102
}
102
{ACAD_REACTORS
330
837E
102
}
330
837E
100
AcDbMaterial
  1
ByBlock
 72
     0
 43
0.0208333333333333
 43
0.0
 43
0.0
 43
0.0
 43
0.0
 43
0.0208333333333333
 43
0.0
 43
0.0
 43
0.0
 43
0.0
 43
1.0
 43
0.0
 43
0.0
 43
0.0
 43
0.0
 43
1.0
 77
     0
 47
0.0208333333333333
 47
0.0
 47
0.0
 47
0.0
 47
0.0
 47
0.0208333333333333
 47
0.0
 47
0.0
 47
0.0
 47
0.0
 47
1.0
 47
0.0
 47
0.0
 47
0.0
 47
0.0
 47
1.0
171
     0
 49
0.0208333333333333
 49
0.0
 49
0.0
 49
0.0
 49
0.0
 49
0.0208333333333333
 49
0.0
 49
0.0
 49
0.0
 49
0.0
 49
1.0
 49
0.0
 49
0.0
 49
0.0
 49
0.0
 49
1.0
175
     0
142
0.0208333333333333
142
0.0
142
0.0
142
0.0
142
0.0
142
0.0208333333333333
142
0.0
142
0.0
142
0.0
142
0.0
142
1.0
142
0.0
142
0.0
142
0.0
142
0.0
142
1.0
179
     0
144
0.0208333333333333
144
0.0
144
0.0
144
0.0
144
0.0
144
0.0208333333333333
144
0.0
144
0.0
144
0.0
144
0.0
144
1.0
144
0.0
144
0.0
144
0.0
144
0.0
144
1.0
147
0.0208333333333333
147
0.0
147
0.0
147
0.0
147
0.0
147
0.0208333333333333
147
0.0
147
0.0
147
0.0
147
0.0
147
1.0
147
0.0
147
0.0
147
0.0
147
0.0
147
1.0
  0
MATERIAL
  5
837F
102
{ACAD_XDICTIONARY
360
8380
102
}
102
{ACAD_REACTORS
330
837E
102
}
330
837E
100
AcDbMaterial
  1
ByLayer
 72
     0
 43
0.0208333333333333
 43
0.0
 43
0.0
 43
0.0
 43
0.0
 43
0.0208333333333333
 43
0.0
 43
0.0
 43
0.0
 43
0.0
 43
1.0
 43
0.0
 43
0.0
 43
0.0
 43
0.0
 43
1.0
 77
     0
 47
0.0208333333333333
 47
0.0
 47
0.0
 47
0.0
 47
0.0
 47
0.0208333333333333
 47
0.0
 47
0.0
 47
0.0
 47
0.0
 47
1.0
 47
0.0
 47
0.0
 47
0.0
 47
0.0
 47
1.0
171
     0
 49
0.0208333333333333
 49
0.0
 49
0.0
 49
0.0
 49
0.0
 49
0.0208333333333333
 49
0.0
 49
0.0
 49
0.0
 49
0.0
 49
1.0
 49
0.0
 49
0.0
 49
0.0
 49
0.0
 49
1.0
175
     0
142
0.0208333333333333
142
0.0
142
0.0
142
0.0
142
0.0
142
0.0208333333333333
142
0.0
142
0.0
142
0.0
142
0.0
142
1.0
142
0.0
142
0.0
142
0.0
142
0.0
142
1.0
179
     0
144
0.0208333333333333
144
0.0
144
0.0
144
0.0
144
0.0
144
0.0208333333333333
144
0.0
144
0.0
144
0.0
144
0.0
144
1.0
144
0.0
144
0.0
144
0.0
144
0.0
144
1.0
147
0.0208333333333333
147
0.0
147
0.0
147
0.0
147
0.0
147
0.0208333333333333
147
0.0
147
0.0
147
0.0
147
0.0
147
1.0
147
0.0
147
0.0
147
0.0
147
0.0
147
1.0
  0
MATERIAL
  5
838F
102
{ACAD_XDICTIONARY
360
8390
102
}
102
{ACAD_REACTORS
330
837E
102
}
330
837E
100
AcDbMaterial
  1
Global
 72
     0
 43
0.0208333333333333
 43
0.0
 43
0.0
 43
0.0
 43
0.0
 43
0.0208333333333333
 43
0.0
 43
0.0
 43
0.0
 43
0.0
 43
1.0
 43
0.0
 43
0.0
 43
0.0
 43
0.0
 43
1.0
 77
     0
 47
0.0208333333333333
 47
0.0
 47
0.0
 47
0.0
 47
0.0
 47
0.0208333333333333
 47
0.0
 47
0.0
 47
0.0
 47
0.0
 47
1.0
 47
0.0
 47
0.0
 47
0.0
 47
0.0
 47
1.0
171
     0
 49
0.0208333333333333
 49
0.0
 49
0.0
 49
0.0
 49
0.0
 49
0.0208333333333333
 49
0.0
 49
0.0
 49
0.0
 49
0.0
 49
1.0
 49
0.0
 49
0.0
 49
0.0
 49
0.0
 49
1.0
175
     0
142
0.0208333333333333
142
0.0
142
0.0
142
0.0
142
0.0
142
0.0208333333333333
142
0.0
142
0.0
142
0.0
142
0.0
142
1.0
142
0.0
142
0.0
142
0.0
142
0.0
142
1.0
179
     0
144
0.0208333333333333
144
0.0
144
0.0
144
0.0
144
0.0
144
0.0208333333333333
144
0.0
144
0.0
144
0.0
144
0.0
144
1.0
144
0.0
144
0.0
144
0.0
144
0.0
144
1.0
147
0.0208333333333333
147
0.0
147
0.0
147
0.0
147
0.0
147
0.0208333333333333
147
0.0
147
0.0
147
0.0
147
0.0
147
1.0
147
0.0
147
0.0
147
0.0
147
0.0
147
1.0
  0
MLEADERSTYLE
  5
83C6
102
{ACAD_REACTORS
330
83C5
102
}
330
83C5
100
AcDbMLeaderStyle
179
     2
170
     2
171
     1
172
     0
 90
        2
 40
0.0
 41
0.0
173
     1
 91
-1056964608
340
13
 92
       -2
290
     1
 42
2.0
291
     1
 43
0.36
  3
Standard
 44
4.0
300

342
10
174
     1
178
     6
175
     1
176
     0
 93
-1056964608
 45
4.0
292
     0
297
     0
 46
4.0
 94
-1056964608
 47
1.0
 49
1.0
140
1.0
293
     1
141
0.0
294
     1
177
     0
142
1.0
295
     0
296
     0
143
0.125
271
     0
272
     9
273
     9
298
     1
  0
MLINESTYLE
  5
1C
102
{ACAD_REACTORS
330
E
102
}
330
E
100
AcDbMlineStyle
  2
STANDARD
 70
     0
  3

 62
     0
 51
90.0
 52
90.0
 71
     2
 49
0.5
 62
   256
  6
BYLAYER
 49
-0.5
 62
   256
  6
BYLAYER
  0
ACDBPLACEHOLDER
  5
81AE
102
{ACAD_REACTORS
330
81AD
102
}
330
81AD
  0
SCALE
  5
83B4
102
{ACAD_REACTORS
330
83B3
102
}
330
83B3
100
AcDbScale
 70
     0
300
1:1
140
1.0
141
1.0
290
     1
  0
SCALE
  5
83B5
102
{ACAD_REACTORS
330
83B3
102
}
330
83B3
100
AcDbScale
 70
     0
300
1:2
140
1.0
141
2.0
290
     0
  0
SCALE
  5
83B6
102
{ACAD_REACTORS
330
83B3
102
}
330
83B3
100
AcDbScale
 70
     0
300
1:4
140
1.0
141
4.0
290
     0
  0
SCALE
  5
83B7
102
{ACAD_REACTORS
330
83B3
102
}
330
83B3
100
AcDbScale
 70
     0
300
1:5
140
1.0
141
5.0
290
     0
  0
SCALE
  5
83B8
102
{ACAD_REACTORS
330
83B3
102
}
330
83B3
100
AcDbScale
 70
     0
300
1:8
140
1.0
141
8.0
290
     0
  0
SCALE
  5
83B9
102
{ACAD_REACTORS
330
83B3
102
}
330
83B3
100
AcDbScale
 70
     0
300
1:10
140
1.0
141
10.0
290
     0
  0
SCALE
  5
83BA
102
{ACAD_REACTORS
330
83B3
102
}
330
83B3
100
AcDbScale
 70
     0
300
1:16
140
1.0
141
16.0
290
     0
  0
SCALE
  5
83BB
102
{ACAD_REACTORS
330
83B3
102
}
330
83B3
100
AcDbScale
 70
     0
300
1:20
140
1.0
141
20.0
290
     0
  0
SCALE
  5
83BC
102
{ACAD_REACTORS
330
83B3
102
}
330
83B3
100
AcDbScale
 70
     0
300
1:30
140
1.0
141
30.0
290
     0
  0
SCALE
  5
83BD
102
{ACAD_REACTORS
330
83B3
102
}
330
83B3
100
AcDbScale
 70
     0
300
1:40
140
1.0
141
40.0
290
     0
  0
SCALE
  5
83BE
102
{ACAD_REACTORS
330
83B3
102
}
330
83B3
100
AcDbScale
 70
     0
300
1:50
140
1.0
141
50.0
290
     0
  0
SCALE
  5
83BF
102
{ACAD_REACTORS
330
83B3
102
}
330
83B3
100
AcDbScale
 70
     0
300
1:100
140
1.0
141
100.0
290
     0
  0
SCALE
  5
83C0
102
{ACAD_REACTORS
330
83B3
102
}
330
83B3
100
AcDbScale
 70
     0
300
2:1
140
2.0
141
1.0
290
     0
  0
SCALE
  5
83C1
102
{ACAD_REACTORS
330
83B3
102
}
330
83B3
100
AcDbScale
 70
     0
300
4:1
140
4.0
141
1.0
290
     0
  0
SCALE
  5
83C2
102
{ACAD_REACTORS
330
83B3
102
}
330
83B3
100
AcDbScale
 70
     0
300
8:1
140
8.0
141
1.0
290
     0
  0
SCALE
  5
83C3
102
{ACAD_REACTORS
330
83B3
102
}
330
83B3
100
AcDbScale
 70
     0
300
10:1
140
10.0
141
1.0
290
     0
  0
SCALE
  5
83C4
102
{ACAD_REACTORS
330
83B3
102
}
330
83B3
100
AcDbScale
 70
     0
300
100:1
140
100.0
141
1.0
290
     0
  0
ACDBSECTIONVIEWSTYLE
  5
83C8
102
{ACAD_XDICTIONARY
360
8439
102
}
102
{ACAD_REACTORS
330
83C7
102
}
330
83C7
100
AcDbModelDocViewStyle
 70
     0
  3
Metric50
290
     0
100
AcDbSectionViewStyle
 70
     0
 71
     0
 90
      102
 71
     1
340
10
 62
   256
 40
5.0
340
0
340
0
 62
   256
 40
5.0
300
I, O, Q, S, X, Z
 40
10.0
 90
        0
 40
2.5
 90
        0
 71
     2
340
15
 90
       25
 62
   256
340
15
 90
       50
 62
   256
 40
5.0
 40
2.5
 40
5.0
 71
     3
340
10
 62
   256
 40
5.0
 90
        0
 40
15.0
 90
        1
300
%<\AcVar ViewSectionStartId>%-%<\AcVar ViewSectionEndId>% (%<\AcVar ViewScale \f "%sn">%)
 71
     4
 62
   256
 62
   257
300
ANSI31
 40
1.0
 90
        0
290
     0
290
     0
 90
        6
 40
0.0
 40
1.570796326794896
 40
0.2617993877991494
 40
1.308996938995747
 40
-0.2617993877991494
 40
1.832595714594046
  0
TABLESTYLE
  5
83B2
102
{ACAD_XDICTIONARY
360
842E
102
}
102
{ACAD_REACTORS
330
83B1
102
}
330
83B1
100
AcDbTableStyle
280
     0
  3
Standard
 70
     0
 71
     0
 40
1.5
 41
1.5
280
     0
281
     0
  7
STANDARD
140
4.5
170
     2
 62
     0
 63
     7
283
     0
 90
      512
 91
        0
  1

274
    -2
284
     1
 64
     0
275
    -2
285
     1
 65
     0
276
    -2
286
     1
 66
     0
277
    -2
287
     1
 67
     0
278
    -2
288
     1
 68
     0
279
    -2
289
     1
 69
     0
  7
STANDARD
140
6.0
170
     5
 62
     0
 63
     7
283
     0
 90
      512
 91
        0
  1

274
    -2
284
     1
 64
     0
275
    -2
285
     1
 65
     0
276
    -2
286
     1
 66
     0
277
    -2
287
     1
 67
     0
278
    -2
288
     1
 68
     0
279
    -2
289
     1
 69
     0
  7
STANDARD
140
4.5
170
     5
 62
     0
 63
     7
283
     0
 90
      512
 91
        0
  1

274
    -2
284
     1
 64
     0
275
    -2
285
     1
 65
     0
276
    -2
286
     1
 66
     0
277
    -2
287
     1
 67
     0
278
    -2
288
     1
 68
     0
279
    -2
289
     1
 69
     0
  0
VISUALSTYLE
  5
839D
102
{ACAD_REACTORS
330
8397
102
}
330
8397
100
AcDbVisualStyle
  2
2dWireframe
 70
     4
177
     3
291
     0
 70
    58
 90
        0
176
     1
 90
        2
176
     1
 90
        0
176
     1
 90
        0
176
     1
 40
0.6
176
     1
 40
30.0
176
     1
 62
     7
420
 16777215
176
     1
 90
        1
176
     1
 90
        4
176
     1
 62
     7
176
     1
 62
   257
176
     1
 90
        1
176
     1
 90
        1
176
     1
 40
1.0
176
     1
 90
        0
176
     1
 62
   257
176
     1
 40
1.0
176
     1
 90
        1
176
     1
 90
        6
176
     1
 90
        2
176
     1
 62
     7
176
     1
 90
        5
176
     1
 90
        0
176
     1
 90
        0
176
     1
290
     0
176
     1
 90
        1
176
     1
 40
0.0
176
     1
 90
        0
176
     1
290
     1
176
     1
290
     1
176
     1
290
     0
176
     1
290
     0
176
     1
290
     0
176
     1
290
     0
176
     1
290
     0
176
     1
290
     0
176
     1
290
     0
176
     1
 90
       50
176
     1
 40
0.0
176
     1
 40
1.0
176
     1
 90
        0
176
     1
 62
    18
420
        0
176
     1
 90
       50
176
     1
 90
        3
176
     1
 62
     5
420
      255
176
     1
290
     0
176
     1
 90
       50
176
     1
 90
       50
176
     1
 90
       50
176
     1
290
     0
176
     1
 90
       50
176
     1
 62
   256
176
     0
 40
1.0
176
     0
 90
        2
176
     1
  1
strokes_ogs.tif
176
     1
290
     0
176
     1
 40
1.0
176
     1
 40
1.0
176
     1
1001
ACAD
1000
AcDbSavedByObjectVersion
1070
     0
  0
VISUALSTYLE
  5
839C
102
{ACAD_REACTORS
330
8397
102
}
330
8397
100
AcDbVisualStyle
  2
Basic
 70
     7
177
     3
291
     1
 70
    58
 90
        1
176
     1
 90
        0
176
     1
 90
        1
176
     1
 90
        0
176
     1
 40
0.6
176
     1
 40
30.0
176
     1
 62
     7
420
 16777215
176
     1
 90
        0
176
     1
 90
        4
176
     1
 62
     7
176
     1
 62
   257
176
     1
 90
        1
176
     1
 90
        1
176
     1
 40
1.0
176
     1
 90
        8
176
     1
 62
     7
176
     1
 40
1.0
176
     1
 90
        1
176
     1
 90
        6
176
     1
 90
        2
176
     1
 62
     7
176
     1
 90
        5
176
     1
 90
        0
176
     1
 90
        0
176
     1
290
     0
176
     1
 90
        1
176
     1
 40
0.0
176
     1
 90
        0
176
     1
290
     0
176
     1
290
     1
176
     1
290
     1
176
     1
290
     0
176
     1
290
     0
176
     1
290
     0
176
     1
290
     0
176
     1
290
     0
176
     1
290
     0
176
     1
 90
       50
176
     1
 40
0.0
176
     1
 40
1.0
176
     1
 90
        0
176
     1
 62
    18
420
        0
176
     1
 90
       50
176
     1
 90
        3
176
     1
 62
     5
420
      255
176
     1
290
     0
176
     1
 90
       50
176
     1
 90
       50
176
     1
 90
       50
176
     1
290
     0
176
     1
 90
       50
176
     1
 62
   256
176
     0
 40
1.0
176
     0
 90
        2
176
     1
  1
strokes_ogs.tif
176
     1
290
     0
176
     1
 40
1.0
176
     1
 40
1.0
176
     1
1001
ACAD
1000
AcDbSavedByObjectVersion
1070
     0
  0
VISUALSTYLE
  5
83A3
102
{ACAD_REACTORS
330
8397
102
}
330
8397
100
AcDbVisualStyle
  2
Brighten
 70
    12
177
     3
291
     1
 70
    58
 90
        2
176
     1
 90
        2
176
     1
 90
        0
176
     1
 90
        0
176
     1
 40
0.6
176
     1
 40
30.0
176
     1
 62
     7
420
 16777215
176
     1
 90
        1
176
     1
 90
        4
176
     1
 62
     7
176
     1
 62
   257
176
     1
 90
        1
176
     1
 90
        1
176
     1
 40
1.0
176
     1
 90
        8
176
     1
 62
     7
176
     1
 40
1.0
176
     1
 90
        1
176
     1
 90
        6
176
     1
 90
        2
176
     1
 62
     7
176
     1
 90
        5
176
     1
 90
        0
176
     1
 90
        0
176
     1
290
     0
176
     1
 90
        1
176
     1
 40
50.0
176
     1
 90
        0
176
     1
290
     0
176
     1
290
     1
176
     1
290
     1
176
     1
290
     0
176
     1
290
     0
176
     1
290
     0
176
     1
290
     0
176
     1
290
     0
176
     1
290
     0
176
     1
 90
       50
176
     1
 40
0.0
176
     1
 40
1.0
176
     1
 90
        0
176
     1
 62
    18
420
        0
176
     1
 90
       50
176
     1
 90
        3
176
     1
 62
     5
420
      255
176
     1
290
     0
176
     1
 90
       50
176
     1
 90
       50
176
     1
 90
       50
176
     1
290
     0
176
     1
 90
       50
176
     1
 62
   256
176
     0
 40
1.0
176
     0
 90
        2
176
     1
  1
strokes_ogs.tif
176
     1
290
     0
176
     1
 40
1.0
176
     1
 40
1.0
176
     1
1001
ACAD
1000
AcDbSavedByObjectVersion
1070
     0
  0
VISUALSTYLE
  5
83A7
102
{ACAD_REACTORS
330
8397
102
}
330
8397
100
AcDbVisualStyle
  2
ColorChange
 70
    16
177
     3
291
     1
 70
    58
 90
        2
176
     1
 90
        2
176
     1
 90
        3
176
     1
 90
        0
176
     1
 40
0.6
176
     1
 40
30.0
176
     1
 62
     8
420
  8421504
176
     1
 90
        1
176
     1
 90
        4
176
     1
 62
     7
176
     1
 62
   257
176
     1
 90
        1
176
     1
 90
        1
176
     1
 40
1.0
176
     1
 90
        8
176
     1
 62
     8
420
  8421504
176
     1
 40
1.0
176
     1
 90
        1
176
     1
 90
        6
176
     1
 90
        2
176
     1
 62
     7
176
     1
 90
        5
176
     1
 90
        0
176
     1
 90
        0
176
     1
290
     0
176
     1
 90
        1
176
     1
 40
0.0
176
     1
 90
        0
176
     1
290
     0
176
     1
290
     1
176
     1
290
     1
176
     1
290
     0
176
     1
290
     0
176
     1
290
     0
176
     1
290
     0
176
     1
290
     0
176
     1
290
     0
176
     1
 90
       50
176
     1
 40
0.0
176
     1
 40
1.0
176
     1
 90
        0
176
     1
 62
    18
420
        0
176
     1
 90
       50
176
     1
 90
        3
176
     1
 62
     5
420
      255
176
     1
290
     0
176
     1
 90
       50
176
     1
 90
       50
176
     1
 90
       50
176
     1
290
     0
176
     1
 90
       50
176
     1
 62
   256
176
     0
 40
1.0
176
     0
 90
        2
176
     1
  1
strokes_ogs.tif
176
     1
290
     0
176
     1
 40
1.0
176
     1
 40
1.0
176
     1
1001
ACAD
1000
AcDbSavedByObjectVersion
1070
     0
  0
VISUALSTYLE
  5
83A0
102
{ACAD_REACTORS
330
8397
102
}
330
8397
100
AcDbVisualStyle
  2
Conceptual
 70
     9
177
     3
291
     0
 70
    58
 90
        3
176
     1
 90
        2
176
     1
 90
        0
176
     1
 90
        0
176
     1
 40
0.6
176
     1
 40
30.0
176
     1
 62
     7
420
 16777215
176
     1
 90
        2
176
     1
 90
        2
176
     1
 62
     7
176
     1
 62
   257
176
     1
 90
        1
176
     1
 90
        1
176
     1
 40
179.0
176
     1
 90
        8
176
     1
 62
     7
176
     1
 40
1.0
176
     1
 90
        1
176
     1
 90
        6
176
     1
 90
        2
176
     1
 62
     7
176
     1
 90
        3
176
     1
 90
        0
176
     1
 90
        0
176
     1
290
     0
176
     1
 90
        1
176
     1
 40
0.0
176
     1
 90
        0
176
     1
290
     0
176
     1
290
     1
176
     1
290
     1
176
     1
290
     0
176
     1
290
     0
176
     1
290
     0
176
     1
290
     0
176
     1
290
     0
176
     1
290
     0
176
     1
 90
       50
176
     1
 40
0.0
176
     1
 40
1.0
176
     1
 90
        0
176
     1
 62
    18
420
        0
176
     1
 90
       50
176
     1
 90
        3
176
     1
 62
     5
420
      255
176
     1
290
     0
176
     1
 90
       50
176
     1
 90
       50
176
     1
 90
       50
176
     1
290
     0
176
     1
 90
       50
176
     1
 62
   256
176
     0
 40
1.0
176
     0
 90
        2
176
     1
  1
strokes_ogs.tif
176
     1
290
     0
176
     1
 40
1.0
176
     1
 40
1.0
176
     1
1001
ACAD
1000
AcDbSavedByObjectVersion
1070
     0
  0
VISUALSTYLE
  5
83A2
102
{ACAD_REACTORS
330
8397
102
}
330
8397
100
AcDbVisualStyle
  2
Dim
 70
    11
177
     3
291
     1
 70
    58
 90
        2
176
     1
 90
        2
176
     1
 90
        0
176
     1
 90
        0
176
     1
 40
0.6
176
     1
 40
30.0
176
     1
 62
     7
420
 16777215
176
     1
 90
        1
176
     1
 90
        4
176
     1
 62
     7
176
     1
 62
   257
176
     1
 90
        1
176
     1
 90
        1
176
     1
 40
1.0
176
     1
 90
        8
176
     1
 62
     7
176
     1
 40
1.0
176
     1
 90
        1
176
     1
 90
        6
176
     1
 90
        2
176
     1
 62
     7
176
     1
 90
        5
176
     1
 90
        0
176
     1
 90
        0
176
     1
290
     0
176
     1
 90
        1
176
     1
 40
-50.0
176
     1
 90
        0
176
     1
290
     0
176
     1
290
     1
176
     1
290
     1
176
     1
290
     0
176
     1
290
     0
176
     1
290
     0
176
     1
290
     0
176
     1
290
     0
176
     1
290
     0
176
     1
 90
       50
176
     1
 40
0.0
176
     1
 40
1.0
176
     1
 90
        0
176
     1
 62
    18
420
        0
176
     1
 90
       50
176
     1
 90
        3
176
     1
 62
     5
420
      255
176
     1
290
     0
176
     1
 90
       50
176
     1
 90
       50
176
     1
 90
       50
176
     1
290
     0
176
     1
 90
       50
176
     1
 62
   256
176
     0
 40
1.0
176
     0
 90
        2
176
     1
  1
strokes_ogs.tif
176
     1
290
     0
176
     1
 40
1.0
176
     1
 40
1.0
176
     1
1001
ACAD
1000
AcDbSavedByObjectVersion
1070
     0
  0
VISUALSTYLE
  5
83AF
102
{ACAD_REACTORS
330
8397
102
}
330
8397
100
AcDbVisualStyle
  2
EdgeColorOff
 70
    22
177
     3
291
     1
 70
    58
 90
        2
176
     0
 90
        2
176
     0
 90
        0
176
     0
 90
        0
176
     0
 40
0.6
176
     0
 40
30.0
176
     0
 62
     7
420
 16777215
176
     0
 90
        1
176
     0
 90
        4
176
     0
 62
     7
176
     0
 62
   257
176
     0
 90
        1
176
     0
 90
        1
176
     0
 40
1.0
176
     0
 90
        8
176
     2
 62
     7
176
     0
 40
1.0
176
     0
 90
        1
176
     0
 90
        6
176
     0
 90
        2
176
     0
 62
     7
176
     0
 90
        5
176
     0
 90
        0
176
     0
 90
        0
176
     0
290
     0
176
     0
 90
        1
176
     0
 40
0.0
176
     0
 90
        0
176
     0
290
     0
176
     0
290
     1
176
     0
290
     1
176
     0
290
     0
176
     0
290
     0
176
     0
290
     0
176
     0
290
     0
176
     0
290
     0
176
     0
290
     0
176
     0
 90
       50
176
     0
 40
0.0
176
     0
 40
1.0
176
     0
 90
        0
176
     0
 62
    18
420
        0
176
     0
 90
       50
176
     0
 90
        3
176
     0
 62
     5
420
      255
176
     0
290
     0
176
     0
 90
       50
176
     0
 90
       50
176
     0
 90
       50
176
     0
290
     0
176
     0
 90
       50
176
     0
 62
   256
176
     0
 40
1.0
176
     0
 90
        2
176
     0
  1
strokes_ogs.tif
176
     0
290
     0
176
     0
 40
1.0
176
     0
 40
1.0
176
     0
1001
ACAD
1000
AcDbSavedByObjectVersion
1070
     0
  0
VISUALSTYLE
  5
83A6
102
{ACAD_REACTORS
330
8397
102
}
330
8397
100
AcDbVisualStyle
  2
Facepattern
 70
    15
177
     3
291
     1
 70
    58
 90
        2
176
     1
 90
        2
176
     1
 90
        0
176
     1
 90
        0
176
     1
 40
0.6
176
     1
 40
30.0
176
     1
 62
     7
420
 16777215
176
     1
 90
        1
176
     1
 90
        4
176
     1
 62
     7
176
     1
 62
   257
176
     1
 90
        1
176
     1
 90
        1
176
     1
 40
1.0
176
     1
 90
        8
176
     1
 62
     7
176
     1
 40
1.0
176
     1
 90
        1
176
     1
 90
        6
176
     1
 90
        2
176
     1
 62
     7
176
     1
 90
        5
176
     1
 90
        0
176
     1
 90
        0
176
     1
290
     0
176
     1
 90
        1
176
     1
 40
0.0
176
     1
 90
        0
176
     1
290
     0
176
     1
290
     1
176
     1
290
     1
176
     1
290
     0
176
     1
290
     0
176
     1
290
     0
176
     1
290
     0
176
     1
290
     0
176
     1
290
     0
176
     1
 90
       50
176
     1
 40
0.0
176
     1
 40
1.0
176
     1
 90
        0
176
     1
 62
    18
420
        0
176
     1
 90
       50
176
     1
 90
        3
176
     1
 62
     5
420
      255
176
     1
290
     0
176
     1
 90
       50
176
     1
 90
       50
176
     1
 90
       50
176
     1
290
     0
176
     1
 90
       50
176
     1
 62
   256
176
     0
 40
1.0
176
     0
 90
        2
176
     1
  1
strokes_ogs.tif
176
     1
290
     0
176
     1
 40
1.0
176
     1
 40
1.0
176
     1
1001
ACAD
1000
AcDbSavedByObjectVersion
1070
     0
  0
VISUALSTYLE
  5
8398
102
{ACAD_REACTORS
330
8397
102
}
330
8397
100
AcDbVisualStyle
  2
Flat
 70
     0
177
     3
291
     1
 70
    58
 90
        2
176
     1
 90
        1
176
     1
 90
        1
176
     1
 90
        2
176
     1
 40
0.6
176
     1
 40
30.0
176
     1
 62
     7
420
 16777215
176
     1
 90
        0
176
     1
 90
        0
176
     1
 62
     7
176
     1
 62
   257
176
     1
 90
        1
176
     1
 90
        1
176
     1
 40
1.0
176
     1
 90
        8
176
     1
 62
     7
176
     1
 40
1.0
176
     1
 90
        1
176
     1
 90
        6
176
     1
 90
        2
176
     1
 62
     7
176
     1
 90
        5
176
     1
 90
        0
176
     1
 90
        0
176
     1
290
     0
176
     1
 90
       13
176
     1
 40
0.0
176
     1
 90
        0
176
     1
290
     0
176
     1
290
     1
176
     1
290
     1
176
     1
290
     0
176
     1
290
     0
176
     1
290
     0
176
     1
290
     0
176
     1
290
     0
176
     1
290
     0
176
     1
 90
       50
176
     1
 40
0.0
176
     1
 40
1.0
176
     1
 90
        0
176
     1
 62
    18
420
        0
176
     1
 90
       50
176
     1
 90
        3
176
     1
 62
     5
420
      255
176
     1
290
     0
176
     1
 90
       50
176
     1
 90
       50
176
     1
 90
       50
176
     1
290
     0
176
     1
 90
       50
176
     1
 62
   256
176
     0
 40
1.0
176
     0
 90
        2
176
     1
  1
strokes_ogs.tif
176
     1
290
     0
176
     1
 40
1.0
176
     1
 40
1.0
176
     1
1001
ACAD
1000
AcDbSavedByObjectVersion
1070
     0
  0
VISUALSTYLE
  5
8399
102
{ACAD_REACTORS
330
8397
102
}
330
8397
100
AcDbVisualStyle
  2
FlatWithEdges
 70
     1
177
     3
291
     1
 70
    58
 90
        2
176
     1
 90
        1
176
     1
 90
        1
176
     1
 90
        2
176
     1
 40
0.6
176
     1
 40
30.0
176
     1
 62
     7
420
 16777215
176
     1
 90
        1
176
     1
 90
        0
176
     1
 62
     7
176
     1
 62
   257
176
     1
 90
        1
176
     1
 90
        1
176
     1
 40
1.0
176
     1
 90
        0
176
     1
 62
   257
176
     1
 40
1.0
176
     1
 90
        1
176
     1
 90
        6
176
     1
 90
        2
176
     1
 62
     7
176
     1
 90
        5
176
     1
 90
        0
176
     1
 90
        0
176
     1
290
     0
176
     1
 90
       13
176
     1
 40
0.0
176
     1
 90
        0
176
     1
290
     0
176
     1
290
     1
176
     1
290
     1
176
     1
290
     0
176
     1
290
     0
176
     1
290
     0
176
     1
290
     0
176
     1
290
     0
176
     1
290
     0
176
     1
 90
       50
176
     1
 40
0.0
176
     1
 40
1.0
176
     1
 90
        0
176
     1
 62
    18
420
        0
176
     1
 90
       50
176
     1
 90
        3
176
     1
 62
     5
420
      255
176
     1
290
     0
176
     1
 90
       50
176
     1
 90
       50
176
     1
 90
       50
176
     1
290
     0
176
     1
 90
       50
176
     1
 62
   256
176
     0
 40
1.0
176
     0
 90
        2
176
     1
  1
strokes_ogs.tif
176
     1
290
     0
176
     1
 40
1.0
176
     1
 40
1.0
176
     1
1001
ACAD
1000
AcDbSavedByObjectVersion
1070
     0
  0
VISUALSTYLE
  5
839A
102
{ACAD_REACTORS
330
8397
102
}
330
8397
100
AcDbVisualStyle
  2
Gouraud
 70
     2
177
     3
291
     1
 70
    58
 90
        2
176
     1
 90
        2
176
     1
 90
        1
176
     1
 90
        2
176
     1
 40
0.6
176
     1
 40
30.0
176
     1
 62
     7
420
 16777215
176
     1
 90
        0
176
     1
 90
        0
176
     1
 62
     7
176
     1
 62
   257
176
     1
 90
        1
176
     1
 90
        1
176
     1
 40
1.0
176
     1
 90
        0
176
     1
 62
     7
176
     1
 40
1.0
176
     1
 90
        1
176
     1
 90
        6
176
     1
 90
        2
176
     1
 62
     7
176
     1
 90
        5
176
     1
 90
        0
176
     1
 90
        0
176
     1
290
     0
176
     1
 90
       13
176
     1
 40
0.0
176
     1
 90
        0
176
     1
290
     0
176
     1
290
     1
176
     1
290
     1
176
     1
290
     0
176
     1
290
     0
176
     1
290
     0
176
     1
290
     0
176
     1
290
     0
176
     1
290
     0
176
     1
 90
       50
176
     1
 40
0.0
176
     1
 40
1.0
176
     1
 90
        0
176
     1
 62
    18
420
        0
176
     1
 90
       50
176
     1
 90
        3
176
     1
 62
     5
420
      255
176
     1
290
     0
176
     1
 90
       50
176
     1
 90
       50
176
     1
 90
       50
176
     1
290
     0
176
     1
 90
       50
176
     1
 62
   256
176
     0
 40
1.0
176
     0
 90
        2
176
     1
  1
strokes_ogs.tif
176
     1
290
     0
176
     1
 40
1.0
176
     1
 40
1.0
176
     1
1001
ACAD
1000
AcDbSavedByObjectVersion
1070
     0
  0
VISUALSTYLE
  5
839B
102
{ACAD_REACTORS
330
8397
102
}
330
8397
100
AcDbVisualStyle
  2
GouraudWithEdges
 70
     3
177
     3
291
     1
 70
    58
 90
        2
176
     1
 90
        2
176
     1
 90
        1
176
     1
 90
        2
176
     1
 40
0.6
176
     1
 40
30.0
176
     1
 62
     7
420
 16777215
176
     1
 90
        1
176
     1
 90
        0
176
     1
 62
     7
176
     1
 62
   257
176
     1
 90
        1
176
     1
 90
        1
176
     1
 40
1.0
176
     1
 90
        0
176
     1
 62
   257
176
     1
 40
1.0
176
     1
 90
        1
176
     1
 90
        6
176
     1
 90
        2
176
     1
 62
     7
176
     1
 90
        5
176
     1
 90
        0
176
     1
 90
        0
176
     1
290
     0
176
     1
 90
       13
176
     1
 40
0.0
176
     1
 90
        0
176
     1
290
     0
176
     1
290
     1
176
     1
290
     1
176
     1
290
     0
176
     1
290
     0
176
     1
290
     0
176
     1
290
     0
176
     1
290
     0
176
     1
290
     0
176
     1
 90
       50
176
     1
 40
0.0
176
     1
 40
1.0
176
     1
 90
        0
176
     1
 62
    18
420
        0
176
     1
 90
       50
176
     1
 90
        3
176
     1
 62
     5
420
      255
176
     1
290
     0
176
     1
 90
       50
176
     1
 90
       50
176
     1
 90
       50
176
     1
290
     0
176
     1
 90
       50
176
     1
 62
   256
176
     0
 40
1.0
176
     0
 90
        2
176
     1
  1
strokes_ogs.tif
176
     1
290
     0
176
     1
 40
1.0
176
     1
 40
1.0
176
     1
1001
ACAD
1000
AcDbSavedByObjectVersion
1070
     0
  0
VISUALSTYLE
  5
839F
102
{ACAD_REACTORS
330
8397
102
}
330
8397
100
AcDbVisualStyle
  2
Hidden
 70
     6
177
     3
291
     0
 70
    58
 90
        1
176
     1
 90
        2
176
     1
 90
        2
176
     1
 90
        0
176
     1
 40
0.6
176
     1
 40
30.0
176
     1
 62
     7
420
 16777215
176
     1
 90
        2
176
     1
 90
        2
176
     1
 62
     7
176
     1
 62
   257
176
     1
 90
        2
176
     1
 90
        1
176
     1
 40
40.0
176
     1
 90
        0
176
     1
 62
   257
176
     1
 40
1.0
176
     1
 90
        1
176
     1
 90
        6
176
     1
 90
        2
176
     1
 62
     7
176
     1
 90
        3
176
     1
 90
        0
176
     1
 90
        0
176
     1
290
     0
176
     1
 90
        1
176
     1
 40
0.0
176
     1
 90
        0
176
     1
290
     0
176
     1
290
     1
176
     1
290
     1
176
     1
290
     0
176
     1
290
     0
176
     1
290
     0
176
     1
290
     0
176
     1
290
     0
176
     1
290
     0
176
     1
 90
       50
176
     1
 40
0.0
176
     1
 40
1.0
176
     1
 90
        0
176
     1
 62
    18
420
        0
176
     1
 90
       50
176
     1
 90
        3
176
     1
 62
     5
420
      255
176
     1
290
     0
176
     1
 90
       50
176
     1
 90
       50
176
     1
 90
       50
176
     1
290
     0
176
     1
 90
       50
176
     1
 62
   256
176
     0
 40
1.0
176
     0
 90
        2
176
     1
  1
strokes_ogs.tif
176
     1
290
     0
176
     1
 40
1.0
176
     1
 40
1.0
176
     1
1001
ACAD
1000
AcDbSavedByObjectVersion
1070
     0
  0
VISUALSTYLE
  5
83AD
102
{ACAD_REACTORS
330
8397
102
}
330
8397
100
AcDbVisualStyle
  2
JitterOff
 70
    20
177
     3
291
     1
 70
    58
 90
        2
176
     0
 90
        2
176
     0
 90
        0
176
     0
 90
        0
176
     0
 40
0.6
176
     0
 40
30.0
176
     0
 62
     7
420
 16777215
176
     0
 90
        1
176
     0
 90
        4
176
     0
 62
     7
176
     0
 62
   257
176
     0
 90
        1
176
     0
 90
        1
176
     0
 40
1.0
176
     0
 90
       10
176
     2
 62
     7
176
     0
 40
1.0
176
     0
 90
        1
176
     0
 90
        6
176
     0
 90
        2
176
     0
 62
     7
176
     0
 90
        5
176
     0
 90
        0
176
     0
 90
        0
176
     0
290
     0
176
     0
 90
        1
176
     0
 40
0.0
176
     0
 90
        0
176
     0
290
     0
176
     0
290
     1
176
     0
290
     1
176
     0
290
     0
176
     0
290
     0
176
     0
290
     0
176
     0
290
     0
176
     0
290
     0
176
     0
290
     0
176
     0
 90
       50
176
     0
 40
0.0
176
     0
 40
1.0
176
     0
 90
        0
176
     0
 62
    18
420
        0
176
     0
 90
       50
176
     0
 90
        3
176
     0
 62
     5
420
      255
176
     0
290
     0
176
     0
 90
       50
176
     0
 90
       50
176
     0
 90
       50
176
     0
290
     0
176
     0
 90
       50
176
     0
 62
   256
176
     0
 40
1.0
176
     0
 90
        2
176
     0
  1
strokes_ogs.tif
176
     0
290
     0
176
     0
 40
1.0
176
     0
 40
1.0
176
     0
1001
ACAD
1000
AcDbSavedByObjectVersion
1070
     0
  0
VISUALSTYLE
  5
83A5
102
{ACAD_REACTORS
330
8397
102
}
330
8397
100
AcDbVisualStyle
  2
Linepattern
 70
    14
177
     3
291
     1
 70
    58
 90
        2
176
     1
 90
        2
176
     1
 90
        0
176
     1
 90
        0
176
     1
 40
0.6
176
     1
 40
30.0
176
     1
 62
     7
420
 16777215
176
     1
 90
        1
176
     1
 90
        4
176
     1
 62
     7
176
     1
 62
   257
176
     1
 90
        7
176
     1
 90
        7
176
     1
 40
1.0
176
     1
 90
        8
176
     1
 62
     7
176
     1
 40
1.0
176
     1
 90
        1
176
     1
 90
        6
176
     1
 90
        2
176
     1
 62
     7
176
     1
 90
        5
176
     1
 90
        0
176
     1
 90
        0
176
     1
290
     0
176
     1
 90
        1
176
     1
 40
0.0
176
     1
 90
        0
176
     1
290
     0
176
     1
290
     1
176
     1
290
     1
176
     1
290
     0
176
     1
290
     0
176
     1
290
     0
176
     1
290
     0
176
     1
290
     0
176
     1
290
     0
176
     1
 90
       50
176
     1
 40
0.0
176
     1
 40
1.0
176
     1
 90
        0
176
     1
 62
    18
420
        0
176
     1
 90
       50
176
     1
 90
        3
176
     1
 62
     5
420
      255
176
     1
290
     0
176
     1
 90
       50
176
     1
 90
       50
176
     1
 90
       50
176
     1
290
     0
176
     1
 90
       50
176
     1
 62
   256
176
     0
 40
1.0
176
     0
 90
        2
176
     1
  1
strokes_ogs.tif
176
     1
290
     0
176
     1
 40
1.0
176
     1
 40
1.0
176
     1
1001
ACAD
1000
AcDbSavedByObjectVersion
1070
     0
  0
VISUALSTYLE
  5
83AE
102
{ACAD_REACTORS
330
8397
102
}
330
8397
100
AcDbVisualStyle
  2
OverhangOff
 70
    21
177
     3
291
     1
 70
    58
 90
        2
176
     0
 90
        2
176
     0
 90
        0
176
     0
 90
        0
176
     0
 40
0.6
176
     0
 40
30.0
176
     0
 62
     7
420
 16777215
176
     0
 90
        1
176
     0
 90
        4
176
     0
 62
     7
176
     0
 62
   257
176
     0
 90
        1
176
     0
 90
        1
176
     0
 40
1.0
176
     0
 90
        9
176
     2
 62
     7
176
     0
 40
1.0
176
     0
 90
        1
176
     0
 90
        6
176
     0
 90
        2
176
     0
 62
     7
176
     0
 90
        5
176
     0
 90
        0
176
     0
 90
        0
176
     0
290
     0
176
     0
 90
        1
176
     0
 40
0.0
176
     0
 90
        0
176
     0
290
     0
176
     0
290
     1
176
     0
290
     1
176
     0
290
     0
176
     0
290
     0
176
     0
290
     0
176
     0
290
     0
176
     0
290
     0
176
     0
290
     0
176
     0
 90
       50
176
     0
 40
0.0
176
     0
 40
1.0
176
     0
 90
        0
176
     0
 62
    18
420
        0
176
     0
 90
       50
176
     0
 90
        3
176
     0
 62
     5
420
      255
176
     0
290
     0
176
     0
 90
       50
176
     0
 90
       50
176
     0
 90
       50
176
     0
290
     0
176
     0
 90
       50
176
     0
 62
   256
176
     0
 40
1.0
176
     0
 90
        2
176
     0
  1
strokes_ogs.tif
176
     0
290
     0
176
     0
 40
1.0
176
     0
 40
1.0
176
     0
1001
ACAD
1000
AcDbSavedByObjectVersion
1070
     0
  0
VISUALSTYLE
  5
83A1
102
{ACAD_REACTORS
330
8397
102
}
330
8397
100
AcDbVisualStyle
  2
Realistic
 70
     8
177
     3
291
     0
 70
    58
 90
        2
176
     1
 90
        3
176
     1
 90
        0
176
     1
 90
        2
176
     1
 40
0.6
176
     1
 40
30.0
176
     1
 62
     7
420
 16777215
176
     1
 90
        0
176
     1
 90
        0
176
     1
 62
     7
176
     1
 62
   257
176
     1
 90
        1
176
     1
 90
        1
176
     1
 40
1.0
176
     1
 90
        8
176
     1
 62
   257
176
     1
 40
1.0
176
     1
 90
        1
176
     1
 90
        6
176
     1
 90
        2
176
     1
 62
     7
176
     1
 90
        3
176
     1
 90
        0
176
     1
 90
        0
176
     1
290
     0
176
     1
 90
       13
176
     1
 40
0.0
176
     1
 90
        0
176
     1
290
     0
176
     1
290
     1
176
     1
290
     1
176
     1
290
     0
176
     1
290
     0
176
     1
290
     0
176
     1
290
     0
176
     1
290
     0
176
     1
290
     0
176
     1
 90
       50
176
     1
 40
0.0
176
     1
 40
1.0
176
     1
 90
        0
176
     1
 62
    18
420
        0
176
     1
 90
       50
176
     1
 90
        3
176
     1
 62
     5
420
      255
176
     1
290
     0
176
     1
 90
       50
176
     1
 90
       50
176
     1
 90
       50
176
     1
290
     0
176
     1
 90
       50
176
     1
 62
   256
176
     0
 40
1.0
176
     0
 90
        2
176
     1
  1
strokes_ogs.tif
176
     1
290
     0
176
     1
 40
1.0
176
     1
 40
1.0
176
     1
1001
ACAD
1000
AcDbSavedByObjectVersion
1070
     0
  0
VISUALSTYLE
  5
83AC
102
{ACAD_REACTORS
330
8397
102
}
330
8397
100
AcDbVisualStyle
  2
Shaded
 70
    27
177
     3
291
     0
 70
    58
 90
        2
176
     1
 90
        2
176
     1
 90
        1
176
     1
 90
        2
176
     1
 40
0.6
176
     1
 40
30.0
176
     1
 62
     7
420
 16777215
176
     1
 90
        0
176
     1
 90
        4
176
     1
 62
     7
176
     1
 62
   257
176
     1
 90
        1
176
     1
 90
        1
176
     1
 40
1.0
176
     1
 90
        8
176
     1
 62
   257
176
     1
 40
1.0
176
     1
 90
        1
176
     1
 90
        6
176
     1
 90
        2
176
     1
 62
     8
420
  7895160
176
     1
 90
        3
176
     1
 90
        0
176
     1
 90
        0
176
     1
290
     0
176
     1
 90
        5
176
     1
 40
0.0
176
     1
 90
        0
176
     1
290
     0
176
     1
290
     1
176
     1
290
     1
176
     1
290
     0
176
     1
290
     0
176
     1
290
     0
176
     1
290
     0
176
     1
290
     0
176
     1
290
     0
176
     1
 90
       50
176
     1
 40
0.0
176
     1
 40
1.0
176
     1
 90
        0
176
     1
 62
    18
420
        0
176
     1
 90
       50
176
     1
 90
        3
176
     1
 62
     5
420
      255
176
     1
290
     0
176
     1
 90
       50
176
     1
 90
       50
176
     1
 90
       50
176
     1
290
     0
176
     1
 90
       50
176
     1
 62
   256
176
     0
 40
1.0
176
     0
 90
        2
176
     1
  1
strokes_ogs.tif
176
     1
290
     0
176
     1
 40
1.0
176
     1
 40
1.0
176
     1
1001
ACAD
1000
AcDbSavedByObjectVersion
1070
     0
  0
VISUALSTYLE
  5
83AB
102
{ACAD_REACTORS
330
8397
102
}
330
8397
100
AcDbVisualStyle
  2
Shaded with edges
 70
    26
177
     3
291
     0
 70
    58
 90
        2
176
     1
 90
        2
176
     1
 90
        1
176
     1
 90
        2
176
     1
 40
0.6
176
     1
 40
30.0
176
     1
 62
     7
420
 16777215
176
     1
 90
        1
176
     1
 90
        2
176
     1
 62
     7
176
     1
 62
   257
176
     1
 90
        2
176
     1
 90
        1
176
     1
 40
1.0
176
     1
 90
        8
176
     1
 62
   257
176
     1
 40
1.0
176
     1
 90
        1
176
     1
 90
        6
176
     1
 90
        2
176
     1
 62
     7
176
     1
 90
        3
176
     1
 90
        0
176
     1
 90
        0
176
     1
290
     0
176
     1
 90
        5
176
     1
 40
0.0
176
     1
 90
        0
176
     1
290
     0
176
     1
290
     1
176
     1
290
     1
176
     1
290
     0
176
     1
290
     0
176
     1
290
     0
176
     1
290
     0
176
     1
290
     0
176
     1
290
     0
176
     1
 90
       50
176
     1
 40
0.0
176
     1
 40
1.0
176
     1
 90
        0
176
     1
 62
    18
420
        0
176
     1
 90
       50
176
     1
 90
        3
176
     1
 62
     5
420
      255
176
     1
290
     0
176
     1
 90
       50
176
     1
 90
       50
176
     1
 90
       50
176
     1
290
     0
176
     1
 90
       50
176
     1
 62
   256
176
     0
 40
1.0
176
     0
 90
        2
176
     1
  1
strokes_ogs.tif
176
     1
290
     0
176
     1
 40
1.0
176
     1
 40
1.0
176
     1
1001
ACAD
1000
AcDbSavedByObjectVersion
1070
     0
  0
VISUALSTYLE
  5
83A8
102
{ACAD_REACTORS
330
8397
102
}
330
8397
100
AcDbVisualStyle
  2
Shades of Gray
 70
    23
177
     3
291
     0
 70
    58
 90
        2
176
     1
 90
        2
176
     1
 90
        3
176
     1
 90
        0
176
     1
 40
0.6
176
     1
 40
30.0
176
     1
 62
     7
420
 16777215
176
     1
 90
        2
176
     1
 90
        2
176
     1
 62
     7
176
     1
 62
     7
176
     1
 90
        1
176
     1
 90
        1
176
     1
 40
40.0
176
     1
 90
        8
176
     1
 62
     7
176
     1
 40
1.0
176
     1
 90
        1
176
     1
 90
        6
176
     1
 90
        2
176
     1
 62
     7
176
     1
 90
        3
176
     1
 90
        0
176
     1
 90
        0
176
     1
290
     0
176
     1
 90
        1
176
     1
 40
0.0
176
     1
 90
        0
176
     1
290
     0
176
     1
290
     1
176
     1
290
     1
176
     1
290
     0
176
     1
290
     0
176
     1
290
     0
176
     1
290
     0
176
     1
290
     0
176
     1
290
     0
176
     1
 90
       50
176
     1
 40
0.0
176
     1
 40
1.0
176
     1
 90
        0
176
     1
 62
    18
420
        0
176
     1
 90
       50
176
     1
 90
        3
176
     1
 62
     5
420
      255
176
     1
290
     0
176
     1
 90
       50
176
     1
 90
       50
176
     1
 90
       50
176
     1
290
     0
176
     1
 90
       50
176
     1
 62
   256
176
     0
 40
1.0
176
     0
 90
        2
176
     1
  1
strokes_ogs.tif
176
     1
290
     0
176
     1
 40
1.0
176
     1
 40
1.0
176
     1
1001
ACAD
1000
AcDbSavedByObjectVersion
1070
     0
  0
VISUALSTYLE
  5
83A9
102
{ACAD_REACTORS
330
8397
102
}
330
8397
100
AcDbVisualStyle
  2
Sketchy
 70
    24
177
     3
291
     0
 70
    58
 90
        1
176
     1
 90
        2
176
     1
 90
        2
176
     1
 90
        0
176
     1
 40
0.6
176
     1
 40
30.0
176
     1
 62
     7
420
 16777215
176
     1
 90
        2
176
     1
 90
        2
176
     1
 62
     7
176
     1
 62
     7
176
     1
 90
        1
176
     1
 90
        1
176
     1
 40
40.0
176
     1
 90
       11
176
     1
 62
     7
176
     1
 40
1.0
176
     1
 90
        1
176
     1
 90
        6
176
     1
 90
        2
176
     1
 62
     7
176
     1
 90
        6
176
     1
 90
        0
176
     1
 90
        0
176
     1
290
     0
176
     1
 90
        1
176
     1
 40
0.0
176
     1
 90
        0
176
     1
290
     0
176
     1
290
     1
176
     1
290
     1
176
     1
290
     0
176
     1
290
     0
176
     1
290
     0
176
     1
290
     0
176
     1
290
     0
176
     1
290
     0
176
     1
 90
       50
176
     1
 40
0.0
176
     1
 40
1.0
176
     1
 90
        0
176
     1
 62
    18
420
        0
176
     1
 90
       50
176
     1
 90
        3
176
     1
 62
     5
420
      255
176
     1
290
     0
176
     1
 90
       50
176
     1
 90
       50
176
     1
 90
       50
176
     1
290
     0
176
     1
 90
       50
176
     1
 62
   256
176
     0
 40
1.0
176
     0
 90
        2
176
     1
  1
strokes_ogs.tif
176
     1
290
     0
176
     1
 40
1.0
176
     1
 40
1.0
176
     1
1001
ACAD
1000
AcDbSavedByObjectVersion
1070
     0
  0
VISUALSTYLE
  5
83A4
102
{ACAD_REACTORS
330
8397
102
}
330
8397
100
AcDbVisualStyle
  2
Thicken
 70
    13
177
     3
291
     1
 70
    58
 90
        2
176
     1
 90
        2
176
     1
 90
        0
176
     1
 90
        0
176
     1
 40
0.6
176
     1
 40
30.0
176
     1
 62
     7
420
 16777215
176
     1
 90
        1
176
     1
 90
        4
176
     1
 62
     7
176
     1
 62
   257
176
     1
 90
        1
176
     1
 90
        1
176
     1
 40
1.0
176
     1
 90
       12
176
     1
 62
     7
176
     1
 40
1.0
176
     1
 90
        1
176
     1
 90
        6
176
     1
 90
        2
176
     1
 62
     7
176
     1
 90
        5
176
     1
 90
        0
176
     1
 90
        0
176
     1
290
     0
176
     1
 90
        1
176
     1
 40
0.0
176
     1
 90
        0
176
     1
290
     0
176
     1
290
     1
176
     1
290
     1
176
     1
290
     0
176
     1
290
     0
176
     1
290
     0
176
     1
290
     0
176
     1
290
     0
176
     1
290
     0
176
     1
 90
       50
176
     1
 40
0.0
176
     1
 40
1.0
176
     1
 90
        0
176
     1
 62
    18
420
        0
176
     1
 90
       50
176
     1
 90
        3
176
     1
 62
     5
420
      255
176
     1
290
     0
176
     1
 90
       50
176
     1
 90
       50
176
     1
 90
       50
176
     1
290
     0
176
     1
 90
       50
176
     1
 62
   256
176
     0
 40
1.0
176
     0
 90
        2
176
     1
  1
strokes_ogs.tif
176
     1
290
     0
176
     1
 40
1.0
176
     1
 40
1.0
176
     1
1001
ACAD
1000
AcDbSavedByObjectVersion
1070
     0
  0
VISUALSTYLE
  5
839E
102
{ACAD_REACTORS
330
8397
102
}
330
8397
100
AcDbVisualStyle
  2
Wireframe
 70
     5
177
     3
291
     0
 70
    58
 90
        0
176
     1
 90
        2
176
     1
 90
        0
176
     1
 90
        0
176
     1
 40
0.6
176
     1
 40
30.0
176
     1
 62
     7
420
 16777215
176
     1
 90
        1
176
     1
 90
        4
176
     1
 62
     7
176
     1
 62
   257
176
     1
 90
        1
176
     1
 90
        1
176
     1
 40
1.0
176
     1
 90
        0
176
     1
 62
   257
176
     1
 40
1.0
176
     1
 90
        1
176
     1
 90
        6
176
     1
 90
        2
176
     1
 62
     7
176
     1
 90
        3
176
     1
 90
        0
176
     1
 90
        0
176
     1
290
     0
176
     1
 90
        1
176
     1
 40
0.0
176
     1
 90
        0
176
     1
290
     0
176
     1
290
     1
176
     1
290
     1
176
     1
290
     0
176
     1
290
     0
176
     1
290
     0
176
     1
290
     0
176
     1
290
     0
176
     1
290
     0
176
     1
 90
       50
176
     1
 40
0.0
176
     1
 40
1.0
176
     1
 90
        0
176
     1
 62
    18
420
        0
176
     1
 90
       50
176
     1
 90
        3
176
     1
 62
     5
420
      255
176
     1
290
     0
176
     1
 90
       50
176
     1
 90
       50
176
     1
 90
       50
176
     1
290
     0
176
     1
 90
       50
176
     1
 62
   256
176
     0
 40
1.0
176
     0
 90
        2
176
     1
  1
strokes_ogs.tif
176
     1
290
     0
176
     1
 40
1.0
176
     1
 40
1.0
176
     1
1001
ACAD
1000
AcDbSavedByObjectVersion
1070
     0
  0
VISUALSTYLE
  5
83AA
102
{ACAD_REACTORS
330
8397
102
}
330
8397
100
AcDbVisualStyle
  2
X-Ray
 70
    25
177
     3
291
     0
 70
    58
 90
        2
176
     1
 90
        2
176
     1
 90
        1
176
     1
 90
        1
176
     1
 40
0.5
176
     1
 40
30.0
176
     1
 62
     7
420
 16777215
176
     1
 90
        1
176
     1
 90
        0
176
     1
 62
     7
176
     1
 62
   257
176
     1
 90
        1
176
     1
 90
        1
176
     1
 40
1.0
176
     1
 90
        8
176
     1
 62
     7
176
     1
 40
1.0
176
     1
 90
        1
176
     1
 90
        6
176
     1
 90
        2
176
     1
 62
     7
176
     1
 90
        3
176
     1
 90
        0
176
     1
 90
        0
176
     1
290
     0
176
     1
 90
       13
176
     1
 40
0.0
176
     1
 90
        0
176
     1
290
     0
176
     1
290
     1
176
     1
290
     1
176
     1
290
     0
176
     1
290
     0
176
     1
290
     0
176
     1
290
     0
176
     1
290
     0
176
     1
290
     0
176
     1
 90
       50
176
     1
 40
0.0
176
     1
 40
1.0
176
     1
 90
        0
176
     1
 62
    18
420
        0
176
     1
 90
       50
176
     1
 90
        3
176
     1
 62
     5
420
      255
176
     1
290
     0
176
     1
 90
       50
176
     1
 90
       50
176
     1
 90
       50
176
     1
290
     0
176
     1
 90
       50
176
     1
 62
   256
176
     0
 40
1.0
176
     0
 90
        2
176
     1
  1
strokes_ogs.tif
176
     1
290
     0
176
     1
 40
1.0
176
     1
 40
1.0
176
     1
1001
ACAD
1000
AcDbSavedByObjectVersion
1070
     0
  0
DICTIONARYVAR
  5
8425
102
{ACAD_REACTORS
330
8374
102
}
330
8374
100
DictionaryVariables
280
     0
  1
1:1
  0
DICTIONARYVAR
  5
8421
102
{ACAD_REACTORS
330
8374
102
}
330
8374
100
DictionaryVariables
280
     0
  1
STANDARD
  0
DICTIONARYVAR
  5
8420
102
{ACAD_REACTORS
330
8374
102
}
330
8374
100
DictionaryVariables
280
     0
  1
STANDARD
  0
DICTIONARYVAR
  5
8422
102
{ACAD_REACTORS
330
8374
102
}
330
8374
100
DictionaryVariables
280
     0
  1
Metric50
  0
DICTIONARYVAR
  5
8423
102
{ACAD_REACTORS
330
8374
102
}
330
8374
100
DictionaryVariables
280
     0
  1
Metric50
  0
DICTIONARYVAR
  5
8375
102
{ACAD_REACTORS
330
8374
102
}
330
8374
100
DictionaryVariables
280
     0
  1
1
  0
DICTIONARYVAR
  5
8427
102
{ACAD_REACTORS
330
8374
102
}
330
8374
100
DictionaryVariables
280
     0
  1
1
  0
DICTIONARYVAR
  5
8428
102
{ACAD_REACTORS
330
8374
102
}
330
8374
100
DictionaryVariables
280
     0
  1
15
  0
DICTIONARYVAR
  5
8426
102
{ACAD_REACTORS
330
8374
102
}
330
8374
100
DictionaryVariables
280
     0
  1
0
  0
DICTIONARYVAR
  5
842D
102
{ACAD_REACTORS
330
8374
102
}
330
8374
100
DictionaryVariables
280
     0
  1
0
  0
DICTIONARYVAR
  5
8424
102
{ACAD_REACTORS
330
8374
102
}
330
8374
100
DictionaryVariables
280
     0
  1
0
  0
DICTIONARY
  5
8438
102
{ACAD_REACTORS
330
8436
102
}
330
8436
100
AcDbDictionary
281
     1
  0
DICTIONARY
  5
8437
102
{ACAD_REACTORS
330
8436
102
}
330
8436
100
AcDbDictionary
281
     1
  3
2045966883344
350
8431
  3
2045966883360
350
8432
  3
2045966883376
350
8433
  3
2045966883392
350
8434
  3
2045966883408
350
8435
  0
DICTIONARY
  5
843B
330
83CA
100
AcDbDictionary
280
     1
281
     1
  3
ACAD_XREC_ROUNDTRIP
360
843C
  0
DICTIONARY
  5
8388
330
8387
100
AcDbDictionary
280
     1
281
     1
  3
BUMPTILE
360
838A
  3
DIFFUSETILE
360
8389
  3
OPACITYTILE
360
838D
  3
REFLECTIONTILE
360
838C
  3
REFRACTIONTILE
360
838E
  3
SPECULARTILE
360
838B
  0
DICTIONARY
  5
8380
330
837F
100
AcDbDictionary
280
     1
281
     1
  3
BUMPTILE
360
8382
  3
DIFFUSETILE
360
8381
  3
OPACITYTILE
360
8385
  3
REFLECTIONTILE
360
8384
  3
REFRACTIONTILE
360
8386
  3
SPECULARTILE
360
8383
  0
DICTIONARY
  5
8390
330
838F
100
AcDbDictionary
280
     1
281
     1
  3
BUMPTILE
360
8392
  3
DIFFUSETILE
360
8391
  3
OPACITYTILE
360
8395
  3
REFLECTIONTILE
360
8394
  3
REFRACTIONTILE
360
8396
  3
SPECULARTILE
360
8393
  0
DICTIONARY
  5
8439
330
83C8
100
AcDbDictionary
280
     1
281
     1
  3
ACAD_XREC_ROUNDTRIP
360
843A
  0
DICTIONARY
  5
842E
330
83B2
100
AcDbDictionary
280
     1
281
     1
  3
ACAD_ROUNDTRIP_2008_TABLESTYLE_CELLSTYLEMAP
360
842F
  0
XRECORD
  5
8431
102
{ACAD_REACTORS
330
8437
102
}
330
8437
100
AcDbXrecord
280
     1
  1
AcDb_Thumbnail_Schema
102
{ATTRRECORD
341
8432
  2
AcDbDs::TreatedAsObjectData
280
     1
291
     1
102
ATTRRECORD}
102
{ATTRRECORD
341
8433
  2
AcDbDs::Legacy
280
     1
291
     1
102
ATTRRECORD}
  2
AcDbDs::ID
280
    10
 91
        8
102
{ATTRRECORD
341
8434
  2
AcDs:Indexable
280
     1
291
     1
102
ATTRRECORD}
102
{ATTRRECORD
341
8435
  2
AcDbDs::HandleAttribute
280
     7
282
     1
102
ATTRRECORD}
  2
Thumbnail_Data
280
    15
 91
        0
  0
XRECORD
  5
8432
102
{ACAD_REACTORS
330
8437
102
}
330
8437
100
AcDbXrecord
280
     1
  1
AcDbDs::TreatedAsObjectDataSchema
  2
AcDbDs::TreatedAsObjectData
280
     1
 91
        0
  0
XRECORD
  5
8433
102
{ACAD_REACTORS
330
8437
102
}
330
8437
100
AcDbXrecord
280
     1
  1
AcDbDs::LegacySchema
  2
AcDbDs::Legacy
280
     1
 91
        0
  0
XRECORD
  5
8434
102
{ACAD_REACTORS
330
8437
102
}
330
8437
100
AcDbXrecord
280
     1
  1
AcDbDs::IndexedPropertySchema
  2
AcDs:Indexable
280
     1
 91
        0
  0
XRECORD
  5
8435
102
{ACAD_REACTORS
330
8437
102
}
330
8437
100
AcDbXrecord
280
     1
  1
AcDbDs::HandleAttributeSchema
  2
AcDbDs::HandleAttribute
280
     7
 91
        1
284
     1
  0
XRECORD
  5
843C
102
{ACAD_REACTORS
330
843B
102
}
330
843B
100
AcDbXrecord
280
     1
102
DISPLAYNAME
  1
Metric50
102
FLAGS
 90
        0
  0
XRECORD
  5
838A
102
{ACAD_REACTORS
330
8388
102
}
330
8388
100
AcDbXrecord
280
     1
270
     1
271
     1
  0
XRECORD
  5
8389
102
{ACAD_REACTORS
330
8388
102
}
330
8388
100
AcDbXrecord
280
     1
270
     1
271
     1
  0
XRECORD
  5
838D
102
{ACAD_REACTORS
330
8388
102
}
330
8388
100
AcDbXrecord
280
     1
270
     1
271
     1
  0
XRECORD
  5
838C
102
{ACAD_REACTORS
330
8388
102
}
330
8388
100
AcDbXrecord
280
     1
270
     1
271
     1
  0
XRECORD
  5
838E
102
{ACAD_REACTORS
330
8388
102
}
330
8388
100
AcDbXrecord
280
     1
270
     1
271
     1
  0
XRECORD
  5
838B
102
{ACAD_REACTORS
330
8388
102
}
330
8388
100
AcDbXrecord
280
     1
270
     1
271
     1
  0
XRECORD
  5
8382
102
{ACAD_REACTORS
330
8380
102
}
330
8380
100
AcDbXrecord
280
     1
270
     1
271
     1
  0
XRECORD
  5
8381
102
{ACAD_REACTORS
330
8380
102
}
330
8380
100
AcDbXrecord
280
     1
270
     1
271
     1
  0
XRECORD
  5
8385
102
{ACAD_REACTORS
330
8380
102
}
330
8380
100
AcDbXrecord
280
     1
270
     1
271
     1
  0
XRECORD
  5
8384
102
{ACAD_REACTORS
330
8380
102
}
330
8380
100
AcDbXrecord
280
     1
270
     1
271
     1
  0
XRECORD
  5
8386
102
{ACAD_REACTORS
330
8380
102
}
330
8380
100
AcDbXrecord
280
     1
270
     1
271
     1
  0
XRECORD
  5
8383
102
{ACAD_REACTORS
330
8380
102
}
330
8380
100
AcDbXrecord
280
     1
270
     1
271
     1
  0
XRECORD
  5
8392
102
{ACAD_REACTORS
330
8390
102
}
330
8390
100
AcDbXrecord
280
     1
270
     1
271
     1
  0
XRECORD
  5
8391
102
{ACAD_REACTORS
330
8390
102
}
330
8390
100
AcDbXrecord
280
     1
270
     1
271
     1
  0
XRECORD
  5
8395
102
{ACAD_REACTORS
330
8390
102
}
330
8390
100
AcDbXrecord
280
     1
270
     1
271
     1
  0
XRECORD
  5
8394
102
{ACAD_REACTORS
330
8390
102
}
330
8390
100
AcDbXrecord
280
     1
270
     1
271
     1
  0
XRECORD
  5
8396
102
{ACAD_REACTORS
330
8390
102
}
330
8390
100
AcDbXrecord
280
     1
270
     1
271
     1
  0
XRECORD
  5
8393
102
{ACAD_REACTORS
330
8390
102
}
330
8390
100
AcDbXrecord
280
     1
270
     1
271
     1
  0
XRECORD
  5
843A
102
{ACAD_REACTORS
330
8439
102
}
330
8439
100
AcDbXrecord
280
     1
102
DISPLAYNAME
  1
Metric50
102
FLAGS
 90
        0
  0
CELLSTYLEMAP
  5
842F
102
{ACAD_REACTORS
330
842E
102
}
330
842E
100
AcDbCellStyleMap
 90
        3
300
CELLSTYLE
  1
TABLEFORMAT_BEGIN
 90
        5
170
     1
 91
        0
 92
    32768
 62
   257
 93
        1
300
CONTENTFORMAT
  1
CONTENTFORMAT_BEGIN
 90
        0
 91
        0
 92
      512
 93
        0
300

 40
0.0
140
1.0
 94
        5
 62
     0
340
10
144
6.0
309
CONTENTFORMAT_END
171
     1
301
MARGIN
  1
CELLMARGIN_BEGIN
 40
1.5
 40
1.5
 40
1.5
 40
1.5
 40
4.5
 40
4.5
309
CELLMARGIN_END
 94
        6
 95
        1
302
GRIDFORMAT
  1
GRIDFORMAT_BEGIN
 90
        0
 91
        1
 62
     0
 92
       -2
340
0
 93
        0
 40
1.125
309
GRIDFORMAT_END
 95
        2
302
GRIDFORMAT
  1
GRIDFORMAT_BEGIN
 90
        0
 91
        1
 62
     0
 92
       -2
340
0
 93
        0
 40
1.125
309
GRIDFORMAT_END
 95
        4
302
GRIDFORMAT
  1
GRIDFORMAT_BEGIN
 90
        0
 91
        1
 62
     0
 92
       -2
340
0
 93
        0
 40
1.125
309
GRIDFORMAT_END
 95
        8
302
GRIDFORMAT
  1
GRIDFORMAT_BEGIN
 90
        0
 91
        1
 62
     0
 92
       -2
340
0
 93
        0
 40
1.125
309
GRIDFORMAT_END
 95
       16
302
GRIDFORMAT
  1
GRIDFORMAT_BEGIN
 90
        0
 91
        1
 62
     0
 92
       -2
340
0
 93
        0
 40
1.125
309
GRIDFORMAT_END
 95
       32
302
GRIDFORMAT
  1
GRIDFORMAT_BEGIN
 90
        0
 91
        1
 62
     0
 92
       -2
340
0
 93
        0
 40
1.125
309
GRIDFORMAT_END
309
TABLEFORMAT_END
  1
CELLSTYLE_BEGIN
 90
        1
 91
        1
300
_TITLE
309
CELLSTYLE_END
300
CELLSTYLE
  1
TABLEFORMAT_BEGIN
 90
        5
170
     1
 91
        0
 92
        0
 62
   257
 93
        1
300
CONTENTFORMAT
  1
CONTENTFORMAT_BEGIN
 90
        0
 91
        0
 92
      512
 93
        0
300

 40
0.0
140
1.0
 94
        5
 62
     0
340
10
144
4.5
309
CONTENTFORMAT_END
171
     1
301
MARGIN
  1
CELLMARGIN_BEGIN
 40
1.5
 40
1.5
 40
1.5
 40
1.5
 40
4.5
 40
4.5
309
CELLMARGIN_END
 94
        6
 95
        1
302
GRIDFORMAT
  1
GRIDFORMAT_BEGIN
 90
        0
 91
        1
 62
     0
 92
       -2
340
0
 93
        0
 40
1.125
309
GRIDFORMAT_END
 95
        2
302
GRIDFORMAT
  1
GRIDFORMAT_BEGIN
 90
        0
 91
        1
 62
     0
 92
       -2
340
0
 93
        0
 40
1.125
309
GRIDFORMAT_END
 95
        4
302
GRIDFORMAT
  1
GRIDFORMAT_BEGIN
 90
        0
 91
        1
 62
     0
 92
       -2
340
0
 93
        0
 40
1.125
309
GRIDFORMAT_END
 95
        8
302
GRIDFORMAT
  1
GRIDFORMAT_BEGIN
 90
        0
 91
        1
 62
     0
 92
       -2
340
0
 93
        0
 40
1.125
309
GRIDFORMAT_END
 95
       16
302
GRIDFORMAT
  1
GRIDFORMAT_BEGIN
 90
        0
 91
        1
 62
     0
 92
       -2
340
0
 93
        0
 40
1.125
309
GRIDFORMAT_END
 95
       32
302
GRIDFORMAT
  1
GRIDFORMAT_BEGIN
 90
        0
 91
        1
 62
     0
 92
       -2
340
0
 93
        0
 40
1.125
309
GRIDFORMAT_END
309
TABLEFORMAT_END
  1
CELLSTYLE_BEGIN
 90
        2
 91
        1
300
_HEADER
309
CELLSTYLE_END
300
CELLSTYLE
  1
TABLEFORMAT_BEGIN
 90
        5
170
     1
 91
        0
 92
        0
 62
   257
 93
        1
300
CONTENTFORMAT
  1
CONTENTFORMAT_BEGIN
 90
        0
 91
        0
 92
      512
 93
        0
300

 40
0.0
140
1.0
 94
        2
 62
     0
340
10
144
4.5
309
CONTENTFORMAT_END
171
     1
301
MARGIN
  1
CELLMARGIN_BEGIN
 40
1.5
 40
1.5
 40
1.5
 40
1.5
 40
4.5
 40
4.5
309
CELLMARGIN_END
 94
        6
 95
        1
302
GRIDFORMAT
  1
GRIDFORMAT_BEGIN
 90
        0
 91
        1
 62
     0
 92
       -2
340
0
 93
        0
 40
1.125
309
GRIDFORMAT_END
 95
        2
302
GRIDFORMAT
  1
GRIDFORMAT_BEGIN
 90
        0
 91
        1
 62
     0
 92
       -2
340
0
 93
        0
 40
1.125
309
GRIDFORMAT_END
 95
        4
302
GRIDFORMAT
  1
GRIDFORMAT_BEGIN
 90
        0
 91
        1
 62
     0
 92
       -2
340
0
 93
        0
 40
1.125
309
GRIDFORMAT_END
 95
        8
302
GRIDFORMAT
  1
GRIDFORMAT_BEGIN
 90
        0
 91
        1
 62
     0
 92
       -2
340
0
 93
        0
 40
1.125
309
GRIDFORMAT_END
 95
       16
302
GRIDFORMAT
  1
GRIDFORMAT_BEGIN
 90
        0
 91
        1
 62
     0
 92
       -2
340
0
 93
        0
 40
1.125
309
GRIDFORMAT_END
 95
       32
302
GRIDFORMAT
  1
GRIDFORMAT_BEGIN
 90
        0
 91
        1
 62
     0
 92
       -2
340
0
 93
        0
 40
1.125
309
GRIDFORMAT_END
309
TABLEFORMAT_END
  1
CELLSTYLE_BEGIN
 90
        3
 91
        2
300
_DATA
309
CELLSTYLE_END
  0
ENDSEC
  0
SECTION
  2
ACDSDATA
 70
     2
 71
     8
  0
ACDSSCHEMA
 90
        0
  1
AcDb_Thumbnail_Schema
  2
AcDbDs::ID
280
    10
 91
        8
  2
Thumbnail_Data
280
    15
 91
        0
101
ACDSRECORD
 95
        0
 90
        1
  2
AcDbDs::TreatedAsObjectData
280
     1
291
     1
101
ACDSRECORD
 95
        0
 90
        2
  2
AcDbDs::Legacy
280
     1
291
     1
101
ACDSRECORD
  1
AcDbDs::ID
 90
        3
  2
AcDs:Indexable
280
     1
291
     1
101
ACDSRECORD
  1
AcDbDs::ID
 90
        4
  2
AcDbDs::HandleAttribute
280
     7
282
     1
  0
ACDSSCHEMA
 90
        1
  1
AcDbDs::TreatedAsObjectDataSchema
  2
AcDbDs::TreatedAsObjectData
280
     1
 91
        0
  0
ACDSSCHEMA
 90
        2
  1
AcDbDs::LegacySchema
  2
AcDbDs::Legacy
280
     1
 91
        0
  0
ACDSSCHEMA
 90
        3
  1
AcDbDs::IndexedPropertySchema
  2
AcDs:Indexable
280
     1
 91
        0
  0
ACDSSCHEMA
 90
        4
  1
AcDbDs::HandleAttributeSchema
  2
AcDbDs::HandleAttribute
280
     7
 91
        1
284
     1
  0
ACDSRECORD
 90
        0
  2
AcDbDs::ID
280
    10
320
81B1
  2
Thumbnail_Data
280
    15
 94
     1673
310
89504E470D0A1A0A0000000D49484452000001000000007C0803000000B13B9E5A00000300504C5445000000000000C8C8C80000000000000000000000000000000000000000000000000000330000660000990000CC0000FF0033000033330033660033990033CC0033FF0066000066330066660066990066CC0066FF0099
310
000099330099660099990099CC0099FF00CC0000CC3300CC6600CC9900CCCC00CCFF00FF0000FF3300FF6600FF9900FFCC00FFFF3300003300333300663300993300CC3300FF3333003333333333663333993333CC3333FF3366003366333366663366993366CC3366FF3399003399333399663399993399CC3399FF33CC00
310
33CC3333CC6633CC9933CCCC33CCFF33FF0033FF3333FF6633FF9933FFCC33FFFF6600006600336600666600996600CC6600FF6633006633336633666633996633CC6633FF6666006666336666666666996666CC6666FF6699006699336699666699996699CC6699FF66CC0066CC3366CC6666CC9966CCCC66CCFF66FF0066
310
FF3366FF6666FF9966FFCC66FFFF9900009900339900669900999900CC9900FF9933009933339933669933999933CC9933FF9966009966339966669966999966CC9966FF9999009999339999669999999999CC9999FF99CC0099CC3399CC6699CC9999CCCC99CCFF99FF0099FF3399FF6699FF9999FFCC99FFFFCC0000CC00
310
33CC0066CC0099CC00CCCC00FFCC3300CC3333CC3366CC3399CC33CCCC33FFCC6600CC6633CC6666CC6699CC66CCCC66FFCC9900CC9933CC9966CC9999CC99CCCC99FFCCCC00CCCC33CCCC66CCCC99CCCCCCCCCCFFCCFF00CCFF33CCFF66CCFF99CCFFCCCCFFFFFF0000FF0033FF0066FF0099FF00CCFF00FFFF3300FF3333
310
FF3366FF3399FF33CCFF33FFFF6600FF6633FF6666FF6699FF66CCFF66FFFF9900FF9933FF9966FF9999FF99CCFF99FFFFCC00FFCC33FFCC66FFCC99FFCCCCFFCCFFFFFF00FFFF33FFFF66FFFF99FFFFCCFFFFFF0000000D0D0D1A1A1A2828283535354343435050505D5D5D6B6B6B787878868686939393A1A1A1AEAEAEBB
310
BBBBC9C9C9D6D6D6E4E4E4F1F1F1FFFFFF00000000000000000000000000000000000000000000000000000000000008F1915C000003444944415478DAED9D5D72C3200C84751C5EB8FF65B806EFADCD9FC0E03833E934AC96E92471E264A2CF2B210125227FD0E21F35D9A5C5AD3E9600088000088000BEE79BDE747E5600
310
0C6F8F2615601E40B40C60F082BD017CB402D812C0977D1801FC0380AC6325E9D83D9622F2746EF39CFC24020049464B335BF261897931E60C20968712CB2D84026415DFB20292AD4D01EA05141728495ED43E716F5B6410641E60B0187AE9121B029885BEE112C7D6F9C51639AD006801BF001842241600E901E4AE229F26
310
90003EF57E8E09120001EC0F201CAD3BB203207400CEDB74F014C2F600D6CD9002A68704600A8033082039BA1F9A25051C1616BBDD15811100D2BB407B86000880000880009001A464DF3A00E7DDD85A42F0AC22C255807F2603020004A07262600037BD803F8E0F00D0318000088000D478403724520118088245027A28C8
310
1E003F6FE800BA31413718EFF053E14B20D03E709602F0E5B006305180BD899141F204600480F5C9D16FFD5802F8A66FAA3CE2EA1C3800968E1F9001845741F06580DC1DC08D22AE2784C9DBB607D05FEC3B00EAD2074017A8ABC3AC02B8B8B70260200684959F07FD5C5D498407C01903D0B4BC5E1AA4010CC532800242FE
310
2B861F63807E09601C3BF68800248F8C5A06705A6A0540EECD0600BFA612804100795074B06D02A0DEAB640800C0617BED05FC63056C0CA0E6B32780D37057EDF44600B45EE0D4804B529800F0E9145C007936B8A6830300BF00B0750C28004201906786441B5B01082C805C0A1C4B038FF5812E3DF06E00E0CE73FAB584C1
310
4128A0A4BFA917C87AF7D2CD8CB7634017A800E4F73297685F9CE236067841C8034449A00B825E4D8F770B269C4A888000F8520E37066D7ABC5DFF0180A00090726D93B7A7D50129D0952098231F18805AF5B44448AF93D52E705500462D20EA7A3A5DEC3C8A0100D5A036F06689CC720519423558474567ABC49001841140
310
780420E0284095BBB9306E60BAD7D37D7EFA3A7FB6F53F4C4C00CCE6FF4001BC98FFD74AC05C1FF0D64629EF78D66E31C03000210002200002200002385FB2BEABECFB969900306CB0AAF6E2C60320939F4E533BAE979DD67101988F017305741BEB5B8C0126012CFCC29002B8BB3C536102200002200002200040001BFDF4
310
F60FCAB653652FF0E3D10000000049454E44AE426082
  0
ENDSEC
  0
EOF
