  0
SECTION
  2
HEADER
  9
$ACADVER
  1
AC1027
  9
$ACADMAINTVER
 70
   125
  9
$DWGCODEPAGE
  3
ANSI_932
  9
$LASTSAVEDBY
  1
yasukiyo.ogawa
  9
$REQUIREDVERSIONS
160
                 0
  9
$INSBASE
 10
0.0
 20
0.0
 30
0.0
  9
$EXTMIN
 10
0.0
 20
0.0
 30
0.0
  9
$EXTMAX
 10
7350.0
 20
10325.0
 30
0.0
  9
$LIMMIN
 10
0.0
 20
0.0
  9
$LIMMAX
 10
297.0
 20
210.0
  9
$ORTHOMODE
 70
     1
  9
$REGENMODE
 70
     1
  9
$FILLMODE
 70
     0
  9
$QTEXTMODE
 70
     0
  9
$MIRRTEXT
 70
     1
  9
$LTSCALE
 40
100.0
  9
$ATTMODE
 70
     1
  9
$TEXTSIZE
 40
180.0
  9
$TRACEWID
 40
0.05
  9
$TEXTSTYLE
  7
STANDARD
  9
$CLAYER
  8
3
  9
$CELTYPE
  6
BYLAYER
  9
$CECOLOR
 62
   256
  9
$CELTSCALE
 40
1.0
  9
$DISPSILH
 70
     0
  9
$DIMSCALE
 40
35.0
  9
$DIMASZ
 40
2.0
  9
$DIMEXO
 40
0.5
  9
$DIMDLI
 40
10.0
  9
$DIMRND
 40
0.0
  9
$DIMDLE
 40
0.0
  9
$DIMEXE
 40
1.0
  9
$DIMTP
 40
1.0
  9
$DIMTM
 40
1.0
  9
$DIMTXT
 40
3.0
  9
$DIMCEN
 40
0.0
  9
$DIMTSZ
 40
0.0
  9
$DIMTOL
 70
     0
  9
$DIMLIM
 70
     0
  9
$DIMTIH
 70
     0
  9
$DIMTOH
 70
     0
  9
$DIMSE1
 70
     0
  9
$DIMSE2
 70
     0
  9
$DIMTAD
 70
     1
  9
$DIMZIN
 70
     8
  9
$DIMBLK
  1

  9
$DIMASO
 70
     1
  9
$DIMSHO
 70
     1
  9
$DIMPOST
  1

  9
$DIMAPOST
  1

  9
$DIMALT
 70
     0
  9
$DIMALTD
 70
     2
  9
$DIMALTF
 40
0.039
  9
$DIMLFAC
 40
1.0
  9
$DIMTOFL
 70
     1
  9
$DIMTVP
 40
0.0
  9
$DIMTIX
 70
     0
  9
$DIMSOXD
 70
     0
  9
$DIMSAH
 70
     1
  9
$DIMBLK1
  1
OPEN
  9
$DIMBLK2
  1
OPEN
  9
$DIMSTYLE
  2
IGA
  9
$DIMCLRD
 70
     0
  9
$DIMCLRE
 70
     0
  9
$DIMCLRT
 70
     0
  9
$DIMTFAC
 40
10.0
  9
$DIMGAP
 40
1.0
  9
$DIMJUST
 70
     0
  9
$DIMSD1
 70
     0
  9
$DIMSD2
 70
     0
  9
$DIMTOLJ
 70
     1
  9
$DIMTZIN
 70
     8
  9
$DIMALTZ
 70
     0
  9
$DIMALTTZ
 70
     0
  9
$DIMUPT
 70
     0
  9
$DIMDEC
 70
     0
  9
$DIMTDEC
 70
     0
  9
$DIMALTU
 70
     2
  9
$DIMALTTD
 70
     2
  9
$DIMTXSTY
  7
STANDARD
  9
$DIMAUNIT
 70
     0
  9
$DIMADEC
 70
     0
  9
$DIMALTRND
 40
0.0
  9
$DIMAZIN
 70
     0
  9
$DIMDSEP
 70
    46
  9
$DIMATFIT
 70
     3
  9
$DIMFRAC
 70
     0
  9
$DIMLDRBLK
  1
OPEN
  9
$DIMLUNIT
 70
     2
  9
$DIMLWD
 70
    -2
  9
$DIMLWE
 70
    -2
  9
$DIMTMOVE
 70
     2
  9
$DIMFXL
 40
1.0
  9
$DIMFXLON
 70
     0
  9
$DIMJOGANG
 40
0.7853981633974483
  9
$DIMTFILL
 70
     0
  9
$DIMTFILLCLR
 70
     0
  9
$DIMARCSYM
 70
     0
  9
$DIMLTYPE
  6

  9
$DIMLTEX1
  6

  9
$DIMLTEX2
  6

  9
$DIMTXTDIRECTION
 70
     0
  9
$LUNITS
 70
     2
  9
$LUPREC
 70
     3
  9
$SKETCHINC
 40
0.1
  9
$FILLETRAD
 40
50.0
  9
$AUNITS
 70
     0
  9
$AUPREC
 70
     0
  9
$MENU
  1
acad
  9
$ELEVATION
 40
0.0
  9
$PELEVATION
 40
0.0
  9
$THICKNESS
 40
0.0
  9
$LIMCHECK
 70
     0
  9
$CHAMFERA
 40
0.5
  9
$CHAMFERB
 40
0.5
  9
$CHAMFERC
 40
20.0
  9
$CHAMFERD
 40
0.0
  9
$SKPOLY
 70
     0
  9
$TDCREATE
 40
2451382.573009259
  9
$TDUCREATE
 40
2451382.198011458
  9
$TDUPDATE
 40
2460241.649212963
  9
$TDUUPDATE
 40
2460241.274219086
  9
$TDINDWG
 40
0.0160470370
  9
$TDUSRTIMER
 40
0.0160470370
  9
$USRTIMER
 70
     1
  9
$ANGBASE
 50
0.0
  9
$ANGDIR
 70
     0
  9
$PDMODE
 70
     0
  9
$PDSIZE
 40
0.0
  9
$PLINEWID
 40
0.0
  9
$SPLFRAME
 70
     0
  9
$SPLINETYPE
 70
     6
  9
$SPLINESEGS
 70
     8
  9
$HANDSEED
  5
833A
  9
$SURFTAB1
 70
     6
  9
$SURFTAB2
 70
     6
  9
$SURFTYPE
 70
     6
  9
$SURFU
 70
     6
  9
$SURFV
 70
     6
  9
$UCSBASE
  2

  9
$UCSNAME
  2

  9
$UCSORG
 10
0.0
 20
0.0
 30
0.0
  9
$UCSXDIR
 10
1.0
 20
0.0
 30
0.0
  9
$UCSYDIR
 10
0.0
 20
1.0
 30
0.0
  9
$UCSORTHOREF
  2

  9
$UCSORTHOVIEW
 70
     0
  9
$UCSORGTOP
 10
0.0
 20
0.0
 30
0.0
  9
$UCSORGBOTTOM
 10
0.0
 20
0.0
 30
0.0
  9
$UCSORGLEFT
 10
0.0
 20
0.0
 30
0.0
  9
$UCSORGRIGHT
 10
0.0
 20
0.0
 30
0.0
  9
$UCSORGFRONT
 10
0.0
 20
0.0
 30
0.0
  9
$UCSORGBACK
 10
0.0
 20
0.0
 30
0.0
  9
$PUCSBASE
  2

  9
$PUCSNAME
  2

  9
$PUCSORG
 10
0.0
 20
0.0
 30
0.0
  9
$PUCSXDIR
 10
1.0
 20
0.0
 30
0.0
  9
$PUCSYDIR
 10
0.0
 20
1.0
 30
0.0
  9
$PUCSORTHOREF
  2

  9
$PUCSORTHOVIEW
 70
     0
  9
$PUCSORGTOP
 10
0.0
 20
0.0
 30
0.0
  9
$PUCSORGBOTTOM
 10
0.0
 20
0.0
 30
0.0
  9
$PUCSORGLEFT
 10
0.0
 20
0.0
 30
0.0
  9
$PUCSORGRIGHT
 10
0.0
 20
0.0
 30
0.0
  9
$PUCSORGFRONT
 10
0.0
 20
0.0
 30
0.0
  9
$PUCSORGBACK
 10
0.0
 20
0.0
 30
0.0
  9
$USERI1
 70
     0
  9
$USERI2
 70
     0
  9
$USERI3
 70
     0
  9
$USERI4
 70
     0
  9
$USERI5
 70
     0
  9
$USERR1
 40
0.0
  9
$USERR2
 40
0.0
  9
$USERR3
 40
0.0
  9
$USERR4
 40
0.0
  9
$USERR5
 40
0.0
  9
$WORLDVIEW
 70
     1
  9
$SHADEDGE
 70
     3
  9
$SHADEDIF
 70
    70
  9
$TILEMODE
 70
     1
  9
$MAXACTVP
 70
    16
  9
$PINSBASE
 10
0.0
 20
0.0
 30
0.0
  9
$PLIMCHECK
 70
     0
  9
$PEXTMIN
 10
1.000000000000000E+20
 20
1.000000000000000E+20
 30
1.000000000000000E+20
  9
$PEXTMAX
 10
-1.000000000000000E+20
 20
-1.000000000000000E+20
 30
-1.000000000000000E+20
  9
$PLIMMIN
 10
0.0
 20
0.0
  9
$PLIMMAX
 10
12.0
 20
9.0
  9
$UNITMODE
 70
     0
  9
$VISRETAIN
 70
     0
  9
$PLINEGEN
 70
     0
  9
$PSLTSCALE
 70
     1
  9
$TREEDEPTH
 70
  3020
  9
$CMLSTYLE
  2
STANDARD
  9
$CMLJUST
 70
     0
  9
$CMLSCALE
 40
20.0
  9
$PROXYGRAPHICS
 70
     1
  9
$MEASUREMENT
 70
     1
  9
$CELWEIGHT
370
    -1
  9
$ENDCAPS
280
     0
  9
$JOINSTYLE
280
     0
  9
$LWDISPLAY
290
     0
  9
$INSUNITS
 70
     0
  9
$HYPERLINKBASE
  1

  9
$STYLESHEET
  1

  9
$XEDIT
290
     1
  9
$CEPSNTYPE
380
     0
  9
$PSTYLEMODE
290
     1
  9
$FINGERPRINTGUID
  2
{F3783296-2328-44CD-924E-6B69C9AF7D95}
  9
$VERSIONGUID
  2
{51F82602-A136-4FAF-A3BF-67706F2E7E37}
  9
$EXTNAMES
290
     1
  9
$PSVPSCALE
 40
0.0
  9
$OLESTARTUP
290
     0
  9
$SORTENTS
280
   127
  9
$INDEXCTL
280
     0
  9
$HIDETEXT
280
     0
  9
$XCLIPFRAME
280
     2
  9
$HALOGAP
280
     0
  9
$OBSCOLOR
 70
   257
  9
$OBSLTYPE
280
     0
  9
$INTERSECTIONDISPLAY
280
     0
  9
$INTERSECTIONCOLOR
 70
   257
  9
$DIMASSOC
280
     1
  9
$PROJECTNAME
  1

  9
$CAMERADISPLAY
290
     0
  9
$LENSLENGTH
 40
50.0
  9
$CAMERAHEIGHT
 40
0.0
  9
$STEPSPERSEC
 40
2.0
  9
$STEPSIZE
 40
6.0
  9
$3DDWFPREC
 40
2.0
  9
$PSOLWIDTH
 40
0.25
  9
$PSOLHEIGHT
 40
4.0
  9
$LOFTANG1
 40
1.570796326794896
  9
$LOFTANG2
 40
1.570796326794896
  9
$LOFTMAG1
 40
0.0
  9
$LOFTMAG2
 40
0.0
  9
$LOFTPARAM
 70
     7
  9
$LOFTNORMALS
280
     1
  9
$LATITUDE
 40
37.795
  9
$LONGITUDE
 40
-122.394
  9
$NORTHDIRECTION
 40
0.0
  9
$TIMEZONE
 70
 -8000
  9
$LIGHTGLYPHDISPLAY
280
     1
  9
$TILEMODELIGHTSYNCH
280
     1
  9
$CMATERIAL
347
827C
  9
$SOLIDHIST
280
     0
  9
$SHOWHIST
280
     1
  9
$DWFFRAME
280
     2
  9
$DGNFRAME
280
     0
  9
$REALWORLDSCALE
290
     1
  9
$INTERFERECOLOR
 62
     1
  9
$INTERFEREOBJVS
345
829E
  9
$INTERFEREVPVS
346
829B
  9
$CSHADOW
280
     0
  9
$SHADOWPLANELOCATION
 40
0.0
  0
ENDSEC
  0
SECTION
  2
CLASSES
  0
CLASS
  1
ACDBDICTIONARYWDFLT
  2
AcDbDictionaryWithDefault
  3
ObjectDBX Classes
 90
        0
 91
        1
280
     0
281
     0
  0
CLASS
  1
DICTIONARYVAR
  2
AcDbDictionaryVar
  3
ObjectDBX Classes
 90
        0
 91
       11
280
     0
281
     0
  0
CLASS
  1
MATERIAL
  2
AcDbMaterial
  3
ObjectDBX Classes
 90
     1153
 91
        3
280
     0
281
     0
  0
CLASS
  1
VISUALSTYLE
  2
AcDbVisualStyle
  3
ObjectDBX Classes
 90
     4095
 91
       24
280
     0
281
     0
  0
CLASS
  1
TABLESTYLE
  2
AcDbTableStyle
  3
ObjectDBX Classes
 90
     4095
 91
        1
280
     0
281
     0
  0
CLASS
  1
SCALE
  2
AcDbScale
  3
ObjectDBX Classes
 90
     1153
 91
       17
280
     0
281
     0
  0
CLASS
  1
MLEADERSTYLE
  2
AcDbMLeaderStyle
  3
ACDB_MLEADERSTYLE_CLASS
 90
     4095
 91
        1
280
     0
281
     0
  0
CLASS
  1
ACDBSECTIONVIEWSTYLE
  2
AcDbSectionViewStyle
  3
ObjectDBX Classes
 90
     1025
 91
        1
280
     0
281
     0
  0
CLASS
  1
ACDBDETAILVIEWSTYLE
  2
AcDbDetailViewStyle
  3
ObjectDBX Classes
 90
     1025
 91
        1
280
     0
281
     0
  0
CLASS
  1
CELLSTYLEMAP
  2
AcDbCellStyleMap
  3
ObjectDBX Classes
 90
     1152
 91
        1
280
     0
281
     0
  0
ENDSEC
  0
SECTION
  2
TABLES
  0
TABLE
  2
VPORT
  5
8
330
0
100
AcDbSymbolTable
 70
     1
1001
ACAD
1000
DbSaveVer
1071
      278
  0
VPORT
  5
8279
330
8
100
AcDbSymbolTableRecord
100
AcDbViewportTableRecord
  2
*Active
 70
     0
 10
0.0
 20
0.0
 11
1.0
 21
1.0
 12
4714.698658823925
 22
5162.500024039763
 13
0.0
 23
0.0
 14
10.0
 24
10.0
 15
10.0
 25
10.0
 16
0.0
 26
0.0
 36
1.0
 17
0.0
 27
0.0
 37
0.0
 40
10391.74948481712
 41
2.250314465408805
 42
50.0
 43
0.0
 44
0.0
 50
0.0
 51
0.0
 71
     0
 72
   100
 73
     1
 74
     0
 75
     0
 76
     0
 77
     0
 78
     0
281
     0
 65
     1
110
0.0
120
0.0
130
0.0
111
1.0
121
0.0
131
0.0
112
0.0
122
1.0
132
0.0
 79
     0
146
0.0
348
829A
 60
     3
 61
     5
292
     1
282
     1
141
0.0
142
0.0
 63
   250
421
  3355443
1001
ACAD_NAV_VCDISPLAY
1070
     3
  0
ENDTAB
  0
TABLE
  2
LTYPE
  5
5
330
0
100
AcDbSymbolTable
 70
     2
  0
LTYPE
  5
13
330
5
100
AcDbSymbolTableRecord
100
AcDbLinetypeTableRecord
  2
BYBLOCK
 70
     0
  3

 72
    65
 73
     0
 40
0.0
  0
LTYPE
  5
14
330
5
100
AcDbSymbolTableRecord
100
AcDbLinetypeTableRecord
  2
BYLAYER
 70
     0
  3

 72
    65
 73
     0
 40
0.0
  0
LTYPE
  5
15
330
5
100
AcDbSymbolTableRecord
100
AcDbLinetypeTableRecord
  2
CONTINUOUS
 70
     0
  3
Solid line
 72
    65
 73
     0
 40
0.0
  0
LTYPE
  5
1F
330
5
100
AcDbSymbolTableRecord
100
AcDbLinetypeTableRecord
  2
CENTER
 70
     0
  3
____ _ ____ _ ____ _ ____ _ ____ _ ____ _ ____ 
 72
    65
 73
     4
 40
2.0
 49
1.25
 74
     0
 49
-0.25
 74
     0
 49
0.25
 74
     0
 49
-0.25
 74
     0
  0
ENDTAB
  0
TABLE
  2
LAYER
  5
2
102
{ACAD_XDICTIONARY
360
8311
102
}
330
0
100
AcDbSymbolTable
 70
     6
  0
LAYER
  5
F
102
{ACAD_XDICTIONARY
360
8304
102
}
330
2
100
AcDbSymbolTableRecord
100
AcDbLayerTableRecord
  2
0
 70
     0
 62
     7
  6
CONTINUOUS
370
    -3
390
81B9
347
828C
348
0
  0
LAYER
  5
31
102
{ACAD_XDICTIONARY
360
8306
102
}
330
2
100
AcDbSymbolTableRecord
100
AcDbLayerTableRecord
  2
3
 70
     0
 62
     2
  6
CONTINUOUS
370
    -3
390
81B9
347
828C
348
0
  0
LAYER
  5
76D0
102
{ACAD_XDICTIONARY
360
8308
102
}
330
2
100
AcDbSymbolTableRecord
100
AcDbLayerTableRecord
  2
2
 70
     0
 62
     3
  6
CENTER
370
    -3
390
81B9
347
828C
348
0
  0
LAYER
  5
76D1
102
{ACAD_XDICTIONARY
360
830A
102
}
330
2
100
AcDbSymbolTableRecord
100
AcDbLayerTableRecord
  2
1
 70
     0
 62
     4
  6
CONTINUOUS
370
    -3
390
81B9
347
828C
348
0
  0
LAYER
  5
76D2
102
{ACAD_XDICTIONARY
360
830C
102
}
330
2
100
AcDbSymbolTableRecord
100
AcDbLayerTableRecord
  2
4
 70
     0
 62
     7
  6
CONTINUOUS
370
    -3
390
81B9
347
828C
348
0
  0
LAYER
  5
7B3A
330
2
100
AcDbSymbolTableRecord
100
AcDbLayerTableRecord
  2
DEFPOINTS
 70
     0
 62
     7
  6
CONTINUOUS
290
     0
370
    -3
390
81B9
347
828C
348
0
  0
ENDTAB
  0
TABLE
  2
STYLE
  5
3
330
0
100
AcDbSymbolTable
 70
     1
  0
STYLE
  5
10
330
3
100
AcDbSymbolTableRecord
100
AcDbTextStyleTableRecord
  2
STANDARD
 70
     0
 40
0.0
 41
1.0
 50
0.0
 71
     0
 42
180.0
  3
simplex.shx
  4
extfont.shx
  0
ENDTAB
  0
TABLE
  2
VIEW
  5
6
330
0
100
AcDbSymbolTable
 70
     0
  0
ENDTAB
  0
TABLE
  2
UCS
  5
7
330
0
100
AcDbSymbolTable
 70
     0
  0
ENDTAB
  0
TABLE
  2
APPID
  5
9
330
0
100
AcDbSymbolTable
 70
     4
  0
APPID
  5
11
330
9
100
AcDbSymbolTableRecord
100
AcDbRegAppTableRecord
  2
ACAD
 70
     0
  0
APPID
  5
82CB
330
9
100
AcDbSymbolTableRecord
100
AcDbRegAppTableRecord
  2
AcadAnnoMonitorAlertIconDisabled
 70
     0
  0
APPID
  5
82CC
330
9
100
AcDbSymbolTableRecord
100
AcDbRegAppTableRecord
  2
ACAD_EXEMPT_FROM_CAD_STANDARDS
 70
     0
  0
APPID
  5
8317
330
9
100
AcDbSymbolTableRecord
100
AcDbRegAppTableRecord
  2
ACAD_NAV_VCDISPLAY
 70
     0
  0
ENDTAB
  0
TABLE
  2
DIMSTYLE
  5
A
330
0
100
AcDbSymbolTable
 70
     2
100
AcDbDimStyleTable
 71
     1
340
1D
  0
DIMSTYLE
105
1D
102
{ACAD_REACTORS
330
7C47
330
7C4B
330
7C59
330
7C5D
330
7C5E
330
7C6B
330
7C6F
330
7CAB
330
7CAC
330
7CB2
330
7CBD
330
7CC6
330
7CDC
330
7CDD
330
817D
330
818A
330
8197
330
81A4
330
81B1
102
}
330
A
100
AcDbSymbolTableRecord
100
AcDbDimStyleTableRecord
  2
IGA
 70
     0
 40
2.0
 41
2.0
 42
0.5
 43
10.0
 44
1.0
 47
1.0
 48
1.0
 73
     0
 74
     0
 77
     1
 78
     8
140
3.0
141
0.0
143
0.03937
146
10.0
147
1.0
173
     1
271
     1
272
     0
279
     2
284
     8
340
10
341
79FC
343
79FC
344
79FC
  0
DIMSTYLE
105
7B3C
102
{ACAD_REACTORS
330
7CB8
102
}
330
A
100
AcDbSymbolTableRecord
100
AcDbDimStyleTableRecord
  2
MATSU
 70
     0
 41
2.0
 42
1.0
 43
10.0
 44
1.0
 73
     0
 74
     0
 77
     1
 78
     8
140
3.0
141
0.0
143
0.03937
147
0.5
172
     1
173
     1
176
   256
177
   256
178
   256
284
     8
289
     0
340
10
341
79FC
343
79FC
344
79FC
  0
ENDTAB
  0
TABLE
  2
BLOCK_RECORD
  5
1
330
0
100
AcDbSymbolTable
 70
    22
  0
BLOCK_RECORD
  5
19
102
{ACAD_XDICTIONARY
360
81E7
102
}
330
1
100
AcDbSymbolTableRecord
100
AcDbBlockTableRecord
  2
*MODEL_SPACE
340
81BC
 70
     0
280
     1
281
     0
  0
BLOCK_RECORD
  5
16
102
{ACAD_XDICTIONARY
360
81E5
102
}
330
1
100
AcDbSymbolTableRecord
100
AcDbBlockTableRecord
  2
*PAPER_SPACE
340
81BD
 70
     0
280
     1
281
     0
  0
BLOCK_RECORD
  5
79FC
330
1
100
AcDbSymbolTableRecord
100
AcDbBlockTableRecord
  2
_OPEN
340
0
102
{BLKREFS
331
7EC0
331
7EC1
331
82F5
331
82F6
331
82FE
331
82FF
331
8176
331
8177
331
8183
331
8184
331
8190
331
8191
331
819D
331
819E
331
81AA
331
81AB
331
81F2
331
81F3
331
81FB
331
81FC
331
8204
331
8205
331
820D
331
820E
331
8216
331
8217
331
821F
331
8220
331
8228
331
8229
331
8231
331
8232
331
823A
331
823B
331
8243
331
8244
331
824C
331
824D
331
8255
331
8256
102
}
 70
     0
280
     1
281
     0
  0
BLOCK_RECORD
  5
7A0A
330
1
100
AcDbSymbolTableRecord
100
AcDbBlockTableRecord
  2
YA_N
340
0
102
{BLKREFS
331
7C10
331
7C18
331
7C1F
102
}
 70
     0
280
     1
281
     0
  0
BLOCK_RECORD
  5
7D03
330
1
100
AcDbSymbolTableRecord
100
AcDbBlockTableRecord
  2
*D2
340
0
 70
     0
280
     1
281
     0
  0
BLOCK_RECORD
  5
7D0F
330
1
100
AcDbSymbolTableRecord
100
AcDbBlockTableRecord
  2
*D3
340
0
 70
     0
280
     1
281
     0
  0
BLOCK_RECORD
  5
7D1B
330
1
100
AcDbSymbolTableRecord
100
AcDbBlockTableRecord
  2
*D4
340
0
 70
     0
280
     1
281
     0
  0
BLOCK_RECORD
  5
7D27
330
1
100
AcDbSymbolTableRecord
100
AcDbBlockTableRecord
  2
*D5
340
0
 70
     0
280
     1
281
     0
  0
BLOCK_RECORD
  5
7D33
330
1
100
AcDbSymbolTableRecord
100
AcDbBlockTableRecord
  2
*D6
340
0
 70
     0
280
     1
281
     0
  0
BLOCK_RECORD
  5
7D57
330
1
100
AcDbSymbolTableRecord
100
AcDbBlockTableRecord
  2
*D7
340
0
 70
     0
280
     1
281
     0
  0
BLOCK_RECORD
  5
7D6F
330
1
100
AcDbSymbolTableRecord
100
AcDbBlockTableRecord
  2
*D8
340
0
 70
     0
280
     1
281
     0
  0
BLOCK_RECORD
  5
7D87
330
1
100
AcDbSymbolTableRecord
100
AcDbBlockTableRecord
  2
*D9
340
0
 70
     0
280
     1
281
     0
  0
BLOCK_RECORD
  5
7D93
330
1
100
AcDbSymbolTableRecord
100
AcDbBlockTableRecord
  2
*D10
340
0
 70
     0
280
     1
281
     0
  0
BLOCK_RECORD
  5
7D9F
330
1
100
AcDbSymbolTableRecord
100
AcDbBlockTableRecord
  2
*D11
340
0
 70
     0
280
     1
281
     0
  0
BLOCK_RECORD
  5
7DAB
330
1
100
AcDbSymbolTableRecord
100
AcDbBlockTableRecord
  2
*D12
340
0
 70
     0
280
     1
281
     0
  0
BLOCK_RECORD
  5
7DB7
330
1
100
AcDbSymbolTableRecord
100
AcDbBlockTableRecord
  2
*D13
340
0
 70
     0
280
     1
281
     0
  0
BLOCK_RECORD
  5
7DC3
330
1
100
AcDbSymbolTableRecord
100
AcDbBlockTableRecord
  2
*D14
340
0
 70
     0
280
     1
281
     0
  0
BLOCK_RECORD
  5
7DEA
330
1
100
AcDbSymbolTableRecord
100
AcDbBlockTableRecord
  2
*D15
340
0
 70
     0
280
     1
281
     0
  0
BLOCK_RECORD
  5
7DF6
330
1
100
AcDbSymbolTableRecord
100
AcDbBlockTableRecord
  2
*D16
340
0
 70
     0
280
     1
281
     0
  0
BLOCK_RECORD
  5
8171
330
1
100
AcDbSymbolTableRecord
100
AcDbBlockTableRecord
  2
*D17
340
0
 70
     0
280
     1
281
     0
  0
BLOCK_RECORD
  5
817E
330
1
100
AcDbSymbolTableRecord
100
AcDbBlockTableRecord
  2
*D18
340
0
 70
     0
280
     1
281
     0
  0
BLOCK_RECORD
  5
818B
330
1
100
AcDbSymbolTableRecord
100
AcDbBlockTableRecord
  2
*D19
340
0
 70
     0
280
     1
281
     0
  0
BLOCK_RECORD
  5
8198
330
1
100
AcDbSymbolTableRecord
100
AcDbBlockTableRecord
  2
*D20
340
0
 70
     0
280
     1
281
     0
  0
BLOCK_RECORD
  5
81A5
330
1
100
AcDbSymbolTableRecord
100
AcDbBlockTableRecord
  2
*D21
340
0
 70
     0
280
     1
281
     0
  0
ENDTAB
  0
ENDSEC
  0
SECTION
  2
BLOCKS
  0
BLOCK
  5
1A
330
19
100
AcDbEntity
  8
0
100
AcDbBlockBegin
  2
*MODEL_SPACE
 70
     0
 10
0.0
 20
0.0
 30
0.0
  3
*MODEL_SPACE
  1

  0
ENDBLK
  5
1B
330
19
100
AcDbEntity
  8
0
100
AcDbBlockEnd
  0
BLOCK
  5
17
330
16
100
AcDbEntity
 67
     1
  8
0
100
AcDbBlockBegin
  2
*PAPER_SPACE
 70
     0
 10
0.0
 20
0.0
 30
0.0
  3
*PAPER_SPACE
  1

  0
ENDBLK
  5
18
330
16
100
AcDbEntity
 67
     1
  8
0
100
AcDbBlockEnd
  0
BLOCK
  5
7A00
330
79FC
100
AcDbEntity
  8
0
100
AcDbBlockBegin
  2
_OPEN
 70
     0
 10
0.0
 20
0.0
 30
0.0
  3
_OPEN
  1

  0
LINE
  5
79FD
330
79FC
100
AcDbEntity
  8
0
  6
ByBlock
 62
     0
100
AcDbLine
 10
-1.0
 20
0.1666666666666666
 30
0.0
 11
0.0
 21
0.0
 31
0.0
  0
LINE
  5
79FE
330
79FC
100
AcDbEntity
  8
0
  6
ByBlock
 62
     0
100
AcDbLine
 10
0.0
 20
0.0
 30
0.0
 11
-1.0
 21
-0.1666666666666666
 31
0.0
  0
LINE
  5
79FF
330
79FC
100
AcDbEntity
  8
0
  6
ByBlock
 62
     0
100
AcDbLine
 10
0.0
 20
0.0
 30
0.0
 11
-1.0
 21
0.0
 31
0.0
  0
ENDBLK
  5
7A01
330
79FC
100
AcDbEntity
  8
0
100
AcDbBlockEnd
  0
BLOCK
  5
7A0B
330
7A0A
100
AcDbEntity
  8
0
100
AcDbBlockBegin
  2
YA_N
 70
     0
 10
0.0
 20
0.0
 30
0.0
  3
YA_N
  1

  0
ENDBLK
  5
7A0C
330
7A0A
100
AcDbEntity
  8
0
100
AcDbBlockEnd
  0
BLOCK
  5
7FEB
330
7D03
100
AcDbEntity
  8
0
100
AcDbBlockBegin
  2
*D2
 70
     1
 10
0.0
 20
0.0
 30
0.0
  3
*D2
  1

  0
LINE
  5
81EF
330
7D03
100
AcDbEntity
  8
3
 62
     0
440
 16777216
100
AcDbLine
 10
6514.865026529398
 20
2891.162023773066
 30
0.0
 11
6950.536860515079
 21
2891.162023773066
 31
0.0
  0
LINE
  5
81F0
330
7D03
100
AcDbEntity
  8
3
 62
     0
440
 16777216
100
AcDbLine
 10
6514.865026529398
 20
3891.162023773066
 30
0.0
 11
6950.536860515079
 21
3891.162023773066
 31
0.0
  0
LINE
  5
81F1
330
7D03
100
AcDbEntity
  8
3
 62
     0
440
 16777216
100
AcDbLine
 10
6915.536860515079
 20
2961.162023773067
 30
0.0
 11
6915.536860515079
 21
3821.162023773067
 31
0.0
  0
INSERT
  5
81F2
330
7D03
100
AcDbEntity
  8
3
 62
     0
440
 16777216
100
AcDbBlockReference
  2
_OPEN
 10
6915.536860515079
 20
2891.162023773066
 30
0.0
 41
70.0
 42
70.0
 43
70.0
 50
270.0
  0
INSERT
  5
81F3
330
7D03
100
AcDbEntity
  8
3
 62
     0
440
 16777216
100
AcDbBlockReference
  2
_OPEN
 10
6915.536860515079
 20
3891.162023773066
 30
0.0
 41
70.0
 42
70.0
 43
70.0
 50
90.0
  0
MTEXT
  5
81F4
330
7D03
100
AcDbEntity
  8
3
 62
     0
440
 16777216
100
AcDbMText
 10
6828.036860515078
 20
3391.162023773067
 30
0.0
 40
105.0
 41
0.0
 46
0.0
 71
     5
 72
     5
  1
\A1;φ1000
 11
0.0000000000000001
 21
1.0
 31
0.0
 73
     1
 44
1.0
  0
POINT
  5
81F5
330
7D03
100
AcDbEntity
  8
DEFPOINTS
 62
     0
440
 16777216
100
AcDbPoint
 10
6497.365026529398
 20
2891.162023773066
 30
0.0
  0
POINT
  5
81F6
330
7D03
100
AcDbEntity
  8
DEFPOINTS
 62
     0
440
 16777216
100
AcDbPoint
 10
6497.365026529398
 20
3891.162023773066
 30
0.0
  0
POINT
  5
81F7
330
7D03
100
AcDbEntity
  8
DEFPOINTS
 62
     0
440
 16777216
100
AcDbPoint
 10
6915.536860515079
 20
3891.162023773066
 30
0.0
  0
ENDBLK
  5
7FF5
330
7D03
100
AcDbEntity
  8
0
100
AcDbBlockEnd
  0
BLOCK
  5
800C
330
7D0F
100
AcDbEntity
  8
0
100
AcDbBlockBegin
  2
*D3
 70
     1
 10
0.0
 20
0.0
 30
0.0
  3
*D3
  1

  0
LINE
  5
81F8
330
7D0F
100
AcDbEntity
  8
3
 62
     0
440
 16777216
100
AcDbLine
 10
5171.865026529397
 20
4088.662023773067
 30
0.0
 11
5171.865026529397
 21
4288.87702609628
 31
0.0
  0
LINE
  5
81F9
330
7D0F
100
AcDbEntity
  8
3
 62
     0
440
 16777216
100
AcDbLine
 10
6491.865026529398
 20
4088.662023773067
 30
0.0
 11
6491.865026529398
 21
4288.87702609628
 31
0.0
  0
LINE
  5
81FA
330
7D0F
100
AcDbEntity
  8
3
 62
     0
440
 16777216
100
AcDbLine
 10
5241.865026529398
 20
4253.877026096281
 30
0.0
 11
6421.865026529399
 21
4253.877026096281
 31
0.0
  0
INSERT
  5
81FB
330
7D0F
100
AcDbEntity
  8
3
 62
     0
440
 16777216
100
AcDbBlockReference
  2
_OPEN
 10
5171.865026529397
 20
4253.877026096281
 30
0.0
 41
70.0
 42
70.0
 43
70.0
 50
180.0
  0
INSERT
  5
81FC
330
7D0F
100
AcDbEntity
  8
3
 62
     0
440
 16777216
100
AcDbBlockReference
  2
_OPEN
 10
6491.865026529398
 20
4253.877026096281
 30
0.0
 41
70.0
 42
70.0
 43
70.0
  0
MTEXT
  5
81FD
330
7D0F
100
AcDbEntity
  8
3
 62
     0
440
 16777216
100
AcDbMText
 10
5831.865026529398
 20
4341.377026096281
 30
0.0
 40
105.0
 41
0.0
 46
0.0
 71
     5
 72
     5
  1
\A1;1320
 73
     1
 44
1.0
  0
POINT
  5
81FE
330
7D0F
100
AcDbEntity
  8
DEFPOINTS
 62
     0
440
 16777216
100
AcDbPoint
 10
5171.865026529397
 20
4071.162023773067
 30
0.0
  0
POINT
  5
81FF
330
7D0F
100
AcDbEntity
  8
DEFPOINTS
 62
     0
440
 16777216
100
AcDbPoint
 10
6491.865026529398
 20
4071.162023773067
 30
0.0
  0
POINT
  5
8200
330
7D0F
100
AcDbEntity
  8
DEFPOINTS
 62
     0
440
 16777216
100
AcDbPoint
 10
6491.865026529398
 20
4253.877026096281
 30
0.0
  0
ENDBLK
  5
8016
330
7D0F
100
AcDbEntity
  8
0
100
AcDbBlockEnd
  0
BLOCK
  5
8119
330
7D1B
100
AcDbEntity
  8
0
100
AcDbBlockBegin
  2
*D4
 70
     1
 10
0.0
 20
0.0
 30
0.0
  3
*D4
  1

  0
LINE
  5
8201
330
7D1B
100
AcDbEntity
  8
3
 62
     0
440
 16777216
100
AcDbLine
 10
926.0427078829561
 20
6633.24303568924
 30
0.0
 11
654.8034406553308
 21
6633.24303568924
 31
0.0
  0
LINE
  5
8202
330
7D1B
100
AcDbEntity
  8
3
 62
     0
440
 16777216
100
AcDbLine
 10
926.0427078829561
 20
5683.24303568924
 30
0.0
 11
654.8034406553306
 21
5683.24303568924
 31
0.0
  0
LINE
  5
8203
330
7D1B
100
AcDbEntity
  8
3
 62
     0
440
 16777216
100
AcDbLine
 10
689.8034406553308
 20
6563.243035689239
 30
0.0
 11
689.8034406553306
 21
5753.243035689241
 31
0.0
  0
INSERT
  5
8204
330
7D1B
100
AcDbEntity
  8
3
 62
     0
440
 16777216
100
AcDbBlockReference
  2
_OPEN
 10
689.8034406553308
 20
6633.24303568924
 30
0.0
 41
70.0
 42
70.0
 43
70.0
 50
90.0
  0
INSERT
  5
8205
330
7D1B
100
AcDbEntity
  8
3
 62
     0
440
 16777216
100
AcDbBlockReference
  2
_OPEN
 10
689.8034406553306
 20
5683.24303568924
 30
0.0
 41
70.0
 42
70.0
 43
70.0
 50
270.0
  0
MTEXT
  5
8206
330
7D1B
100
AcDbEntity
  8
3
 62
     0
440
 16777216
100
AcDbMText
 10
602.3034406553297
 20
6158.24303568924
 30
0.0
 40
105.0
 41
0.0
 46
0.0
 71
     5
 72
     5
  1
\A1;950
 11
0.0000000000000001
 21
1.0
 31
0.0
 73
     1
 44
1.0
  0
POINT
  5
8207
330
7D1B
100
AcDbEntity
  8
DEFPOINTS
 62
     0
440
 16777216
100
AcDbPoint
 10
943.5427078829562
 20
6633.24303568924
 30
0.0
  0
POINT
  5
8208
330
7D1B
100
AcDbEntity
  8
DEFPOINTS
 62
     0
440
 16777216
100
AcDbPoint
 10
943.5427078829562
 20
5683.24303568924
 30
0.0
  0
POINT
  5
8209
330
7D1B
100
AcDbEntity
  8
DEFPOINTS
 62
     0
440
 16777216
100
AcDbPoint
 10
689.8034406553306
 20
5683.24303568924
 30
0.0
  0
ENDBLK
  5
8123
330
7D1B
100
AcDbEntity
  8
0
100
AcDbBlockEnd
  0
BLOCK
  5
7F84
330
7D27
100
AcDbEntity
  8
0
100
AcDbBlockBegin
  2
*D5
 70
     1
 10
0.0
 20
0.0
 30
0.0
  3
*D5
  1

  0
LINE
  5
820A
330
7D27
100
AcDbEntity
  8
3
 62
     0
440
 16777216
100
AcDbLine
 10
2545.042707882955
 20
4071.162023773069
 30
0.0
 11
3512.295288390546
 21
4071.162023773068
 31
0.0
  0
LINE
  5
820B
330
7D27
100
AcDbEntity
  8
3
 62
     0
440
 16777216
100
AcDbLine
 10
3350.895403496899
 20
3391.162023773066
 30
0.0
 11
3512.295288390546
 21
3391.162023773066
 31
0.0
  0
LINE
  5
820C
330
7D27
100
AcDbEntity
  8
3
 62
     0
440
 16777216
100
AcDbLine
 10
3477.295288390545
 20
4001.162023773067
 30
0.0
 11
3477.295288390545
 21
3461.162023773066
 31
0.0
  0
INSERT
  5
820D
330
7D27
100
AcDbEntity
  8
3
 62
     0
440
 16777216
100
AcDbBlockReference
  2
_OPEN
 10
3477.295288390545
 20
4071.162023773068
 30
0.0
 41
70.0
 42
70.0
 43
70.0
 50
90.0
  0
INSERT
  5
820E
330
7D27
100
AcDbEntity
  8
3
 62
     0
440
 16777216
100
AcDbBlockReference
  2
_OPEN
 10
3477.295288390545
 20
3391.162023773066
 30
0.0
 41
70.0
 42
70.0
 43
70.0
 50
270.0
  0
MTEXT
  5
820F
330
7D27
100
AcDbEntity
  8
3
 62
     0
440
 16777216
100
AcDbMText
 10
3389.795288390546
 20
3731.162023773068
 30
0.0
 40
105.0
 41
0.0
 46
0.0
 71
     5
 72
     5
  1
\A1;680
 11
0.0000000000000001
 21
1.0
 31
0.0
 73
     1
 44
1.0
  0
POINT
  5
8210
330
7D27
100
AcDbEntity
  8
DEFPOINTS
 62
     0
440
 16777216
100
AcDbPoint
 10
2527.542707882955
 20
4071.162023773069
 30
0.0
  0
POINT
  5
8211
330
7D27
100
AcDbEntity
  8
DEFPOINTS
 62
     0
440
 16777216
100
AcDbPoint
 10
3333.395403496899
 20
3391.162023773066
 30
0.0
  0
POINT
  5
8212
330
7D27
100
AcDbEntity
  8
DEFPOINTS
 62
     0
440
 16777216
100
AcDbPoint
 10
3477.295288390545
 20
3391.162023773066
 30
0.0
  0
ENDBLK
  5
7F8E
330
7D27
100
AcDbEntity
  8
0
100
AcDbBlockEnd
  0
BLOCK
  5
7F63
330
7D33
100
AcDbEntity
  8
0
100
AcDbBlockBegin
  2
*D6
 70
     1
 10
0.0
 20
0.0
 30
0.0
  3
*D6
  1

  0
LINE
  5
8213
330
7D33
100
AcDbEntity
  8
3
 62
     0
440
 16777216
100
AcDbLine
 10
2518.542707882954
 20
4148.278006270695
 30
0.0
 11
2518.542707882954
 21
4565.304645393035
 31
0.0
  0
LINE
  5
8214
330
7D33
100
AcDbEntity
  8
3
 62
     0
440
 16777216
100
AcDbLine
 10
3238.542707882955
 20
3334.662023773069
 30
0.0
 11
3238.542707882955
 21
4565.304645393035
 31
0.0
  0
LINE
  5
8215
330
7D33
100
AcDbEntity
  8
3
 62
     0
440
 16777216
100
AcDbLine
 10
2588.542707882954
 20
4530.304645393035
 30
0.0
 11
3168.542707882955
 21
4530.304645393035
 31
0.0
  0
INSERT
  5
8216
330
7D33
100
AcDbEntity
  8
3
 62
     0
440
 16777216
100
AcDbBlockReference
  2
_OPEN
 10
2518.542707882954
 20
4530.304645393035
 30
0.0
 41
70.0
 42
70.0
 43
70.0
 50
180.0
  0
INSERT
  5
8217
330
7D33
100
AcDbEntity
  8
3
 62
     0
440
 16777216
100
AcDbBlockReference
  2
_OPEN
 10
3238.542707882955
 20
4530.304645393035
 30
0.0
 41
70.0
 42
70.0
 43
70.0
  0
MTEXT
  5
8218
330
7D33
100
AcDbEntity
  8
3
 62
     0
440
 16777216
100
AcDbMText
 10
2878.542707882955
 20
4617.804645393035
 30
0.0
 40
105.0
 41
0.0
 46
0.0
 71
     5
 72
     5
  1
\A1;720
 73
     1
 44
1.0
  0
POINT
  5
8219
330
7D33
100
AcDbEntity
  8
DEFPOINTS
 62
     0
440
 16777216
100
AcDbPoint
 10
2518.542707882954
 20
4130.778006270695
 30
0.0
  0
POINT
  5
821A
330
7D33
100
AcDbEntity
  8
DEFPOINTS
 62
     0
440
 16777216
100
AcDbPoint
 10
3238.542707882955
 20
3317.162023773068
 30
0.0
  0
POINT
  5
821B
330
7D33
100
AcDbEntity
  8
DEFPOINTS
 62
     0
440
 16777216
100
AcDbPoint
 10
3238.542707882955
 20
4530.304645393035
 30
0.0
  0
ENDBLK
  5
7F6D
330
7D33
100
AcDbEntity
  8
0
100
AcDbBlockEnd
  0
BLOCK
  5
7F42
330
7D57
100
AcDbEntity
  8
0
100
AcDbBlockBegin
  2
*D7
 70
     1
 10
0.0
 20
0.0
 30
0.0
  3
*D7
  1

  0
LINE
  5
821C
330
7D57
100
AcDbEntity
  8
3
 62
     0
440
 16777216
100
AcDbLine
 10
943.5427078829553
 20
2638.662023773066
 30
0.0
 11
943.5427078829553
 21
4794.510636392455
 31
0.0
  0
LINE
  5
821D
330
7D57
100
AcDbEntity
  8
3
 62
     0
440
 16777216
100
AcDbLine
 10
3238.542707882955
 20
3334.662023773069
 30
0.0
 11
3238.542707882955
 21
4794.510636392455
 31
0.0
  0
LINE
  5
821E
330
7D57
100
AcDbEntity
  8
3
 62
     0
440
 16777216
100
AcDbLine
 10
1013.542707882955
 20
4759.510636392454
 30
0.0
 11
3168.542707882955
 21
4759.510636392454
 31
0.0
  0
INSERT
  5
821F
330
7D57
100
AcDbEntity
  8
3
 62
     0
440
 16777216
100
AcDbBlockReference
  2
_OPEN
 10
943.5427078829553
 20
4759.510636392454
 30
0.0
 41
70.0
 42
70.0
 43
70.0
 50
180.0
  0
INSERT
  5
8220
330
7D57
100
AcDbEntity
  8
3
 62
     0
440
 16777216
100
AcDbBlockReference
  2
_OPEN
 10
3238.542707882955
 20
4759.510636392454
 30
0.0
 41
70.0
 42
70.0
 43
70.0
  0
MTEXT
  5
8221
330
7D57
100
AcDbEntity
  8
3
 62
     0
440
 16777216
100
AcDbMText
 10
2091.042707882955
 20
4847.010636392455
 30
0.0
 40
105.0
 41
0.0
 46
0.0
 71
     5
 72
     5
  1
\A1;2295
 73
     1
 44
1.0
  0
POINT
  5
8222
330
7D57
100
AcDbEntity
  8
DEFPOINTS
 62
     0
440
 16777216
100
AcDbPoint
 10
943.5427078829553
 20
2621.162023773066
 30
0.0
  0
POINT
  5
8223
330
7D57
100
AcDbEntity
  8
DEFPOINTS
 62
     0
440
 16777216
100
AcDbPoint
 10
3238.542707882955
 20
3317.162023773068
 30
0.0
  0
POINT
  5
8224
330
7D57
100
AcDbEntity
  8
DEFPOINTS
 62
     0
440
 16777216
100
AcDbPoint
 10
3238.542707882955
 20
4759.510636392454
 30
0.0
  0
ENDBLK
  5
7F4C
330
7D57
100
AcDbEntity
  8
0
100
AcDbBlockEnd
  0
BLOCK
  5
7F6E
330
7D6F
100
AcDbEntity
  8
0
100
AcDbBlockBegin
  2
*D8
 70
     1
 10
0.0
 20
0.0
 30
0.0
  3
*D8
  1

  0
LINE
  5
8225
330
7D6F
100
AcDbEntity
  8
3
 62
     0
440
 16777216
100
AcDbLine
 10
3350.895403496899
 20
3391.162023773066
 30
0.0
 11
3512.295288390546
 21
3391.162023773066
 31
0.0
  0
LINE
  5
8226
330
7D6F
100
AcDbEntity
  8
3
 62
     0
440
 16777216
100
AcDbLine
 10
3161.042707882956
 20
2496.162023773068
 30
0.0
 11
3512.295288390546
 21
2496.162023773068
 31
0.0
  0
LINE
  5
8227
330
7D6F
100
AcDbEntity
  8
3
 62
     0
440
 16777216
100
AcDbLine
 10
3477.295288390546
 20
3321.162023773066
 30
0.0
 11
3477.295288390545
 21
2566.162023773068
 31
0.0
  0
INSERT
  5
8228
330
7D6F
100
AcDbEntity
  8
3
 62
     0
440
 16777216
100
AcDbBlockReference
  2
_OPEN
 10
3477.295288390546
 20
3391.162023773066
 30
0.0
 41
70.0
 42
70.0
 43
70.0
 50
90.0
  0
INSERT
  5
8229
330
7D6F
100
AcDbEntity
  8
3
 62
     0
440
 16777216
100
AcDbBlockReference
  2
_OPEN
 10
3477.295288390545
 20
2496.162023773068
 30
0.0
 41
70.0
 42
70.0
 43
70.0
 50
270.0
  0
MTEXT
  5
822A
330
7D6F
100
AcDbEntity
  8
3
 62
     0
440
 16777216
100
AcDbMText
 10
3389.795288390546
 20
2943.662023773068
 30
0.0
 40
105.0
 41
0.0
 46
0.0
 71
     5
 72
     5
  1
\A1;895
 11
0.0000000000000001
 21
1.0
 31
0.0
 73
     1
 44
1.0
  0
POINT
  5
822B
330
7D6F
100
AcDbEntity
  8
DEFPOINTS
 62
     0
440
 16777216
100
AcDbPoint
 10
3333.395403496899
 20
3391.162023773066
 30
0.0
  0
POINT
  5
822C
330
7D6F
100
AcDbEntity
  8
DEFPOINTS
 62
     0
440
 16777216
100
AcDbPoint
 10
3143.542707882956
 20
2496.162023773068
 30
0.0
  0
POINT
  5
822D
330
7D6F
100
AcDbEntity
  8
DEFPOINTS
 62
     0
440
 16777216
100
AcDbPoint
 10
3477.295288390545
 20
2496.162023773068
 30
0.0
  0
ENDBLK
  5
7F78
330
7D6F
100
AcDbEntity
  8
0
100
AcDbBlockEnd
  0
BLOCK
  5
7F58
330
7D87
100
AcDbEntity
  8
0
100
AcDbBlockBegin
  2
*D9
 70
     1
 10
0.0
 20
0.0
 30
0.0
  3
*D9
  1

  0
LINE
  5
822E
330
7D87
100
AcDbEntity
  8
3
 62
     0
440
 16777216
100
AcDbLine
 10
1444.542707882955
 20
4088.662023773068
 30
0.0
 11
1444.542707882955
 21
4307.32212076721
 31
0.0
  0
LINE
  5
822F
330
7D87
100
AcDbEntity
  8
3
 62
     0
440
 16777216
100
AcDbLine
 10
2474.542707882954
 20
4088.662023773068
 30
0.0
 11
2474.542707882954
 21
4307.32212076721
 31
0.0
  0
LINE
  5
8230
330
7D87
100
AcDbEntity
  8
3
 62
     0
440
 16777216
100
AcDbLine
 10
1514.542707882955
 20
4272.32212076721
 30
0.0
 11
2404.542707882955
 21
4272.32212076721
 31
0.0
  0
INSERT
  5
8231
330
7D87
100
AcDbEntity
  8
3
 62
     0
440
 16777216
100
AcDbBlockReference
  2
_OPEN
 10
1444.542707882955
 20
4272.32212076721
 30
0.0
 41
70.0
 42
70.0
 43
70.0
 50
180.0
  0
INSERT
  5
8232
330
7D87
100
AcDbEntity
  8
3
 62
     0
440
 16777216
100
AcDbBlockReference
  2
_OPEN
 10
2474.542707882954
 20
4272.32212076721
 30
0.0
 41
70.0
 42
70.0
 43
70.0
  0
MTEXT
  5
8233
330
7D87
100
AcDbEntity
  8
3
 62
     0
440
 16777216
100
AcDbMText
 10
1959.542707882954
 20
4359.82212076721
 30
0.0
 40
105.0
 41
0.0
 46
0.0
 71
     5
 72
     5
  1
\A1;1030
 73
     1
 44
1.0
  0
POINT
  5
8234
330
7D87
100
AcDbEntity
  8
DEFPOINTS
 62
     0
440
 16777216
100
AcDbPoint
 10
1444.542707882955
 20
4071.162023773069
 30
0.0
  0
POINT
  5
8235
330
7D87
100
AcDbEntity
  8
DEFPOINTS
 62
     0
440
 16777216
100
AcDbPoint
 10
2474.542707882954
 20
4071.162023773069
 30
0.0
  0
POINT
  5
8236
330
7D87
100
AcDbEntity
  8
DEFPOINTS
 62
     0
440
 16777216
100
AcDbPoint
 10
2474.542707882954
 20
4272.32212076721
 30
0.0
  0
ENDBLK
  5
7F62
330
7D87
100
AcDbEntity
  8
0
100
AcDbBlockEnd
  0
BLOCK
  5
7F4D
330
7D93
100
AcDbEntity
  8
0
100
AcDbBlockBegin
  2
*D10
 70
     1
 10
0.0
 20
0.0
 30
0.0
  3
*D10
  1

  0
LINE
  5
8237
330
7D93
100
AcDbEntity
  8
3
 62
     0
440
 16777216
100
AcDbLine
 10
1444.542707882955
 20
4088.662023773068
 30
0.0
 11
1444.542707882955
 21
4565.304645393035
 31
0.0
  0
LINE
  5
8238
330
7D93
100
AcDbEntity
  8
3
 62
     0
440
 16777216
100
AcDbLine
 10
2518.542707882954
 20
4148.278006270695
 30
0.0
 11
2518.542707882954
 21
4565.304645393035
 31
0.0
  0
LINE
  5
8239
330
7D93
100
AcDbEntity
  8
3
 62
     0
440
 16777216
100
AcDbLine
 10
1514.542707882955
 20
4530.304645393035
 30
0.0
 11
2448.542707882955
 21
4530.304645393035
 31
0.0
  0
INSERT
  5
823A
330
7D93
100
AcDbEntity
  8
3
 62
     0
440
 16777216
100
AcDbBlockReference
  2
_OPEN
 10
1444.542707882955
 20
4530.304645393035
 30
0.0
 41
70.0
 42
70.0
 43
70.0
 50
180.0
  0
INSERT
  5
823B
330
7D93
100
AcDbEntity
  8
3
 62
     0
440
 16777216
100
AcDbBlockReference
  2
_OPEN
 10
2518.542707882954
 20
4530.304645393035
 30
0.0
 41
70.0
 42
70.0
 43
70.0
  0
MTEXT
  5
823C
330
7D93
100
AcDbEntity
  8
3
 62
     0
440
 16777216
100
AcDbMText
 10
1981.542707882955
 20
4617.804645393035
 30
0.0
 40
105.0
 41
0.0
 46
0.0
 71
     5
 72
     5
  1
\A1;1074
 73
     1
 44
1.0
  0
POINT
  5
823D
330
7D93
100
AcDbEntity
  8
DEFPOINTS
 62
     0
440
 16777216
100
AcDbPoint
 10
1444.542707882955
 20
4071.162023773069
 30
0.0
  0
POINT
  5
823E
330
7D93
100
AcDbEntity
  8
DEFPOINTS
 62
     0
440
 16777216
100
AcDbPoint
 10
2518.542707882954
 20
4130.778006270695
 30
0.0
  0
POINT
  5
823F
330
7D93
100
AcDbEntity
  8
DEFPOINTS
 62
     0
440
 16777216
100
AcDbPoint
 10
2518.542707882954
 20
4530.304645393035
 30
0.0
  0
ENDBLK
  5
7F57
330
7D93
100
AcDbEntity
  8
0
100
AcDbBlockEnd
  0
BLOCK
  5
7F21
330
7D9F
100
AcDbEntity
  8
0
100
AcDbBlockBegin
  2
*D11
 70
     1
 10
0.0
 20
0.0
 30
0.0
  3
*D11
  1

  0
LINE
  5
8240
330
7D9F
100
AcDbEntity
  8
3
 62
     0
440
 16777216
100
AcDbLine
 10
1893.542707882956
 20
7350.74303568924
 30
0.0
 11
1893.542707882956
 21
7770.269683131319
 31
0.0
  0
LINE
  5
8241
330
7D9F
100
AcDbEntity
  8
3
 62
     0
440
 16777216
100
AcDbLine
 10
3143.542707882956
 20
7350.74303568924
 30
0.0
 11
3143.542707882956
 21
7770.269683131319
 31
0.0
  0
LINE
  5
8242
330
7D9F
100
AcDbEntity
  8
3
 62
     0
440
 16777216
100
AcDbLine
 10
1963.542707882956
 20
7735.26968313132
 30
0.0
 11
3073.542707882956
 21
7735.26968313132
 31
0.0
  0
INSERT
  5
8243
330
7D9F
100
AcDbEntity
  8
3
 62
     0
440
 16777216
100
AcDbBlockReference
  2
_OPEN
 10
1893.542707882956
 20
7735.26968313132
 30
0.0
 41
70.0
 42
70.0
 43
70.0
 50
180.0
  0
INSERT
  5
8244
330
7D9F
100
AcDbEntity
  8
3
 62
     0
440
 16777216
100
AcDbBlockReference
  2
_OPEN
 10
3143.542707882956
 20
7735.26968313132
 30
0.0
 41
70.0
 42
70.0
 43
70.0
  0
MTEXT
  5
8245
330
7D9F
100
AcDbEntity
  8
3
 62
     0
440
 16777216
100
AcDbMText
 10
2518.542707882956
 20
7822.769683131319
 30
0.0
 40
105.0
 41
0.0
 46
0.0
 71
     5
 72
     5
  1
\A1;1250
 73
     1
 44
1.0
  0
POINT
  5
8246
330
7D9F
100
AcDbEntity
  8
DEFPOINTS
 62
     0
440
 16777216
100
AcDbPoint
 10
1893.542707882956
 20
7333.24303568924
 30
0.0
  0
POINT
  5
8247
330
7D9F
100
AcDbEntity
  8
DEFPOINTS
 62
     0
440
 16777216
100
AcDbPoint
 10
3143.542707882956
 20
7333.24303568924
 30
0.0
  0
POINT
  5
8248
330
7D9F
100
AcDbEntity
  8
DEFPOINTS
 62
     0
440
 16777216
100
AcDbPoint
 10
3143.542707882956
 20
7735.26968313132
 30
0.0
  0
ENDBLK
  5
7F2B
330
7D9F
100
AcDbEntity
  8
0
100
AcDbBlockEnd
  0
BLOCK
  5
7EBC
330
7DAB
100
AcDbEntity
  8
0
100
AcDbBlockBegin
  2
*D12
 70
     1
 10
0.0
 20
0.0
 30
0.0
  3
*D12
  1

  0
LINE
  5
7EBD
330
7DAB
100
AcDbEntity
  8
0
  6
ByBlock
440
 16777216
100
AcDbLine
 10
-4.217697572949873
 20
3555.633260857844
 30
0.0
 11
-4.217697572949873
 21
3115.812601362653
 31
0.0
  0
LINE
  5
7EBE
330
7DAB
100
AcDbEntity
  8
0
  6
ByBlock
440
 16777216
100
AcDbLine
 10
2195.782302427051
 20
3555.633260857844
 30
0.0
 11
2195.782302427051
 21
3115.812601362653
 31
0.0
  0
LINE
  5
7EBF
330
7DAB
100
AcDbEntity
  8
0
  6
ByBlock
440
 16777216
100
AcDbLine
 10
75.78230242705012
 20
3155.812601362653
 30
0.0
 11
2115.782302427051
 21
3155.812601362653
 31
0.0
  0
INSERT
  5
7EC0
330
7DAB
100
AcDbEntity
  8
0
  6
ByBlock
440
 16777216
100
AcDbBlockReference
  2
_OPEN
 10
-4.217697572949873
 20
3155.812601362653
 30
0.0
 41
80.0
 42
80.0
 43
80.0
 50
180.0
  0
INSERT
  5
7EC1
330
7DAB
100
AcDbEntity
  8
0
  6
ByBlock
440
 16777216
100
AcDbBlockReference
  2
_OPEN
 10
2195.782302427051
 20
3155.812601362653
 30
0.0
 41
80.0
 42
80.0
 43
80.0
  0
MTEXT
  5
7EC2
330
7DAB
100
AcDbEntity
  8
0
  6
ByBlock
440
 16777216
100
AcDbMText
 10
1095.782302427051
 20
3235.812601362653
 30
0.0
 40
120.0
 41
0.0
 46
0.0
 71
     5
 72
     5
  1
\A1;2200
 73
     1
 44
1.0
  0
POINT
  5
7EC3
330
7DAB
100
AcDbEntity
  8
DEFPOINTS
  6
ByBlock
 62
     0
440
 16777216
100
AcDbPoint
 10
-4.217697572949873
 20
3595.633260857845
 30
0.0
  0
POINT
  5
7EC4
330
7DAB
100
AcDbEntity
  8
DEFPOINTS
  6
ByBlock
 62
     0
440
 16777216
100
AcDbPoint
 10
2195.782302427051
 20
3595.633260857845
 30
0.0
  0
POINT
  5
7EC5
330
7DAB
100
AcDbEntity
  8
DEFPOINTS
  6
ByBlock
 62
     0
440
 16777216
100
AcDbPoint
 10
2195.782302427051
 20
3155.812601362653
 30
0.0
  0
ENDBLK
  5
7EC6
330
7DAB
100
AcDbEntity
  8
0
100
AcDbBlockEnd
  0
BLOCK
  5
7F16
330
7DB7
100
AcDbEntity
  8
0
100
AcDbBlockBegin
  2
*D13
 70
     1
 10
0.0
 20
0.0
 30
0.0
  3
*D13
  1

  0
LINE
  5
8249
330
7DB7
100
AcDbEntity
  8
3
 62
     0
440
 16777216
100
AcDbLine
 10
3161.042707882956
 20
7333.24303568924
 30
0.0
 11
3580.203770296249
 21
7333.24303568924
 31
0.0
  0
LINE
  5
824A
330
7DB7
100
AcDbEntity
  8
3
 62
     0
440
 16777216
100
AcDbLine
 10
3161.042707882956
 20
5683.24303568924
 30
0.0
 11
3580.203770296248
 21
5683.24303568924
 31
0.0
  0
LINE
  5
824B
330
7DB7
100
AcDbEntity
  8
3
 62
     0
440
 16777216
100
AcDbLine
 10
3545.203770296249
 20
7263.24303568924
 30
0.0
 11
3545.203770296248
 21
5753.243035689241
 31
0.0
  0
INSERT
  5
824C
330
7DB7
100
AcDbEntity
  8
3
 62
     0
440
 16777216
100
AcDbBlockReference
  2
_OPEN
 10
3545.203770296249
 20
7333.24303568924
 30
0.0
 41
70.0
 42
70.0
 43
70.0
 50
90.0
  0
INSERT
  5
824D
330
7DB7
100
AcDbEntity
  8
3
 62
     0
440
 16777216
100
AcDbBlockReference
  2
_OPEN
 10
3545.203770296248
 20
5683.24303568924
 30
0.0
 41
70.0
 42
70.0
 43
70.0
 50
270.0
  0
MTEXT
  5
824E
330
7DB7
100
AcDbEntity
  8
3
 62
     0
440
 16777216
100
AcDbMText
 10
3457.703770296247
 20
6508.243035689242
 30
0.0
 40
105.0
 41
0.0
 46
0.0
 71
     5
 72
     5
  1
\A1;1650
 11
0.0000000000000001
 21
1.0
 31
0.0
 73
     1
 44
1.0
  0
POINT
  5
824F
330
7DB7
100
AcDbEntity
  8
DEFPOINTS
 62
     0
440
 16777216
100
AcDbPoint
 10
3143.542707882956
 20
7333.24303568924
 30
0.0
  0
POINT
  5
8250
330
7DB7
100
AcDbEntity
  8
DEFPOINTS
 62
     0
440
 16777216
100
AcDbPoint
 10
3143.542707882956
 20
5683.24303568924
 30
0.0
  0
POINT
  5
8251
330
7DB7
100
AcDbEntity
  8
DEFPOINTS
 62
     0
440
 16777216
100
AcDbPoint
 10
3545.203770296248
 20
5683.24303568924
 30
0.0
  0
ENDBLK
  5
7F20
330
7DB7
100
AcDbEntity
  8
0
100
AcDbBlockEnd
  0
BLOCK
  5
7F2C
330
7DC3
100
AcDbEntity
  8
0
100
AcDbBlockBegin
  2
*D14
 70
     1
 10
0.0
 20
0.0
 30
0.0
  3
*D14
  1

  0
LINE
  5
8252
330
7DC3
100
AcDbEntity
  8
3
 62
     0
440
 16777216
100
AcDbLine
 10
943.5427078829562
 20
6650.74303568924
 30
0.0
 11
943.5427078829562
 21
7770.269683131319
 31
0.0
  0
LINE
  5
8253
330
7DC3
100
AcDbEntity
  8
3
 62
     0
440
 16777216
100
AcDbLine
 10
1893.542707882956
 20
7350.74303568924
 30
0.0
 11
1893.542707882956
 21
7770.269683131319
 31
0.0
  0
LINE
  5
8254
330
7DC3
100
AcDbEntity
  8
3
 62
     0
440
 16777216
100
AcDbLine
 10
1013.542707882956
 20
7735.26968313132
 30
0.0
 11
1823.542707882956
 21
7735.26968313132
 31
0.0
  0
INSERT
  5
8255
330
7DC3
100
AcDbEntity
  8
3
 62
     0
440
 16777216
100
AcDbBlockReference
  2
_OPEN
 10
943.5427078829562
 20
7735.26968313132
 30
0.0
 41
70.0
 42
70.0
 43
70.0
 50
180.0
  0
INSERT
  5
8256
330
7DC3
100
AcDbEntity
  8
3
 62
     0
440
 16777216
100
AcDbBlockReference
  2
_OPEN
 10
1893.542707882956
 20
7735.26968313132
 30
0.0
 41
70.0
 42
70.0
 43
70.0
  0
MTEXT
  5
8257
330
7DC3
100
AcDbEntity
  8
3
 62
     0
440
 16777216
100
AcDbMText
 10
1418.542707882956
 20
7822.769683131319
 30
0.0
 40
105.0
 41
0.0
 46
0.0
 71
     5
 72
     5
  1
\A1;950
 73
     1
 44
1.0
  0
POINT
  5
8258
330
7DC3
100
AcDbEntity
  8
DEFPOINTS
 62
     0
440
 16777216
100
AcDbPoint
 10
943.5427078829562
 20
6633.24303568924
 30
0.0
  0
POINT
  5
8259
330
7DC3
100
AcDbEntity
  8
DEFPOINTS
 62
     0
440
 16777216
100
AcDbPoint
 10
1893.542707882956
 20
7333.24303568924
 30
0.0
  0
POINT
  5
825A
330
7DC3
100
AcDbEntity
  8
DEFPOINTS
 62
     0
440
 16777216
100
AcDbPoint
 10
1893.542707882956
 20
7735.26968313132
 30
0.0
  0
ENDBLK
  5
7F36
330
7DC3
100
AcDbEntity
  8
0
100
AcDbBlockEnd
  0
BLOCK
  5
7FF6
330
7DEA
100
AcDbEntity
  8
0
100
AcDbBlockBegin
  2
*D15
 70
     1
 10
0.0
 20
0.0
 30
0.0
  3
*D15
  1

  0
LINE
  5
82FB
330
7DEA
100
AcDbEntity
  8
3
 62
     0
440
 16777216
370
    -2
100
AcDbLine
 10
6631.865026529398
 20
3366.462023773067
 30
0.0
 11
6631.865026529398
 21
4528.836548453173
 31
0.0
  0
LINE
  5
82FC
330
7DEA
100
AcDbEntity
  8
3
 62
     0
440
 16777216
370
    -2
100
AcDbLine
 10
5831.865026529398
 20
4395.798507024885
 30
0.0
 11
5831.865026529398
 21
4528.836548453173
 31
0.0
  0
LINE
  5
82FD
330
7DEA
100
AcDbEntity
  8
3
 62
     0
440
 16777216
370
    -2
100
AcDbLine
 10
6561.865026529398
 20
4493.836548453173
 30
0.0
 11
5901.865026529399
 21
4493.836548453173
 31
0.0
  0
INSERT
  5
82FE
330
7DEA
100
AcDbEntity
  8
3
 62
     0
440
 16777216
370
    -2
100
AcDbBlockReference
  2
_OPEN
 10
6631.865026529398
 20
4493.836548453173
 30
0.0
 41
70.0
 42
70.0
 43
70.0
  0
INSERT
  5
82FF
330
7DEA
100
AcDbEntity
  8
3
 62
     0
440
 16777216
370
    -2
100
AcDbBlockReference
  2
_OPEN
 10
5831.865026529398
 20
4493.836548453173
 30
0.0
 41
70.0
 42
70.0
 43
70.0
 50
180.0
  0
MTEXT
  5
8300
330
7DEA
100
AcDbEntity
  8
3
 62
     0
440
 16777216
100
AcDbMText
 10
6231.865026529398
 20
4608.836548453173
 30
0.0
 40
105.0
 41
0.0
 46
0.0
 71
     5
 72
     1
  1
\A1;(800)
 73
     1
 44
1.0
  0
POINT
  5
8301
330
7DEA
100
AcDbEntity
  8
DEFPOINTS
 62
     0
440
 16777216
100
AcDbPoint
 10
6631.865026529398
 20
3348.962023773067
 30
0.0
  0
POINT
  5
8302
330
7DEA
100
AcDbEntity
  8
DEFPOINTS
 62
     0
440
 16777216
100
AcDbPoint
 10
5831.865026529398
 20
4378.298507024885
 30
0.0
  0
POINT
  5
8303
330
7DEA
100
AcDbEntity
  8
DEFPOINTS
 62
     0
440
 16777216
100
AcDbPoint
 10
5831.865026529398
 20
4493.836548453173
 30
0.0
  0
ENDBLK
  5
8000
330
7DEA
100
AcDbEntity
  8
0
100
AcDbBlockEnd
  0
BLOCK
  5
8128
330
7DF6
100
AcDbEntity
  8
0
100
AcDbBlockBegin
  2
*D16
 70
     1
 10
0.0
 20
0.0
 30
0.0
  3
*D16
  1

  0
LINE
  5
82F2
330
7DF6
100
AcDbEntity
  8
3
 62
     0
440
 16777216
370
    -2
100
AcDbLine
 10
5831.865026529398
 20
4395.798507024885
 30
0.0
 11
5831.865026529398
 21
4528.836548453173
 31
0.0
  0
LINE
  5
82F3
330
7DF6
100
AcDbEntity
  8
3
 62
     0
440
 16777216
370
    -2
100
AcDbLine
 10
4752.365026529393
 20
3688.662023773067
 30
0.0
 11
4752.365026529393
 21
4528.836548453173
 31
0.0
  0
LINE
  5
82F4
330
7DF6
100
AcDbEntity
  8
3
 62
     0
440
 16777216
370
    -2
100
AcDbLine
 10
5761.865026529398
 20
4493.836548453173
 30
0.0
 11
4822.365026529393
 21
4493.836548453173
 31
0.0
  0
INSERT
  5
82F5
330
7DF6
100
AcDbEntity
  8
3
 62
     0
440
 16777216
370
    -2
100
AcDbBlockReference
  2
_OPEN
 10
5831.865026529398
 20
4493.836548453173
 30
0.0
 41
70.0
 42
70.0
 43
70.0
  0
INSERT
  5
82F6
330
7DF6
100
AcDbEntity
  8
3
 62
     0
440
 16777216
370
    -2
100
AcDbBlockReference
  2
_OPEN
 10
4752.365026529393
 20
4493.836548453173
 30
0.0
 41
70.0
 42
70.0
 43
70.0
 50
180.0
  0
MTEXT
  5
82F7
330
7DF6
100
AcDbEntity
  8
3
 62
     0
440
 16777216
100
AcDbMText
 10
5292.115026529395
 20
4608.836548453173
 30
0.0
 40
105.0
 41
0.0
 46
0.0
 71
     5
 72
     1
  1
\A1;(1080)
 73
     1
 44
1.0
  0
POINT
  5
82F8
330
7DF6
100
AcDbEntity
  8
DEFPOINTS
 62
     0
440
 16777216
100
AcDbPoint
 10
5831.865026529398
 20
4378.298507024885
 30
0.0
  0
POINT
  5
82F9
330
7DF6
100
AcDbEntity
  8
DEFPOINTS
 62
     0
440
 16777216
100
AcDbPoint
 10
4752.365026529393
 20
3671.162023773067
 30
0.0
  0
POINT
  5
82FA
330
7DF6
100
AcDbEntity
  8
DEFPOINTS
 62
     0
440
 16777216
100
AcDbPoint
 10
4752.365026529393
 20
4493.836548453173
 30
0.0
  0
ENDBLK
  5
8132
330
7DF6
100
AcDbEntity
  8
0
100
AcDbBlockEnd
  0
BLOCK
  5
8172
330
8171
100
AcDbEntity
  8
0
100
AcDbBlockBegin
  2
*D17
 70
     1
 10
0.0
 20
0.0
 30
0.0
  3
*D17
  1

  0
LINE
  5
8173
330
8171
100
AcDbEntity
  8
0
  6
ByBlock
 62
     0
440
 16777216
100
AcDbLine
 10
943.5427078829553
 20
2478.662023773068
 30
0.0
 11
943.5427078829553
 21
2252.478934851213
 31
0.0
  0
LINE
  5
8174
330
8171
100
AcDbEntity
  8
0
  6
ByBlock
 62
     0
440
 16777216
100
AcDbLine
 10
2518.542707882954
 20
2478.662023773067
 30
0.0
 11
2518.542707882954
 21
2252.478934851213
 31
0.0
  0
LINE
  5
8175
330
8171
100
AcDbEntity
  8
0
  6
ByBlock
 62
     0
440
 16777216
100
AcDbLine
 10
1013.542707882955
 20
2287.478934851213
 30
0.0
 11
2448.542707882955
 21
2287.478934851213
 31
0.0
  0
INSERT
  5
8176
330
8171
100
AcDbEntity
  8
0
  6
ByBlock
 62
     0
440
 16777216
100
AcDbBlockReference
  2
_OPEN
 10
943.5427078829553
 20
2287.478934851213
 30
0.0
 41
70.0
 42
70.0
 43
70.0
 50
180.0
  0
INSERT
  5
8177
330
8171
100
AcDbEntity
  8
0
  6
ByBlock
 62
     0
440
 16777216
100
AcDbBlockReference
  2
_OPEN
 10
2518.542707882954
 20
2287.478934851213
 30
0.0
 41
70.0
 42
70.0
 43
70.0
  0
MTEXT
  5
8178
330
8171
100
AcDbEntity
  8
0
  6
ByBlock
 62
     0
440
 16777216
100
AcDbMText
 10
1731.042707882955
 20
2374.978934851213
 30
0.0
 40
105.0
 41
0.0
 46
0.0
 71
     5
 72
     5
  1
\A1;1575
 73
     1
 44
1.0
  0
POINT
  5
8179
330
8171
100
AcDbEntity
  8
DEFPOINTS
  6
ByBlock
 62
     0
440
 16777216
100
AcDbPoint
 10
943.5427078829553
 20
2496.162023773068
 30
0.0
  0
POINT
  5
817A
330
8171
100
AcDbEntity
  8
DEFPOINTS
  6
ByBlock
 62
     0
440
 16777216
100
AcDbPoint
 10
2518.542707882954
 20
2496.162023773067
 30
0.0
  0
POINT
  5
817B
330
8171
100
AcDbEntity
  8
DEFPOINTS
  6
ByBlock
 62
     0
440
 16777216
100
AcDbPoint
 10
2518.542707882954
 20
2287.478934851213
 30
0.0
  0
ENDBLK
  5
817C
330
8171
100
AcDbEntity
  8
0
100
AcDbBlockEnd
  0
BLOCK
  5
817F
330
817E
100
AcDbEntity
  8
0
100
AcDbBlockBegin
  2
*D18
 70
     1
 10
0.0
 20
0.0
 30
0.0
  3
*D18
  1

  0
LINE
  5
8180
330
817E
100
AcDbEntity
  8
0
  6
ByBlock
 62
     0
440
 16777216
100
AcDbLine
 10
2518.542707882954
 20
2478.662023773067
 30
0.0
 11
2518.542707882954
 21
2252.478934851213
 31
0.0
  0
LINE
  5
8181
330
817E
100
AcDbEntity
  8
0
  6
ByBlock
 62
     0
440
 16777216
100
AcDbLine
 10
3143.542707882956
 20
2478.662023773068
 30
0.0
 11
3143.542707882956
 21
2252.478934851213
 31
0.0
  0
LINE
  5
8182
330
817E
100
AcDbEntity
  8
0
  6
ByBlock
 62
     0
440
 16777216
100
AcDbLine
 10
2588.542707882954
 20
2287.478934851213
 30
0.0
 11
3073.542707882956
 21
2287.478934851213
 31
0.0
  0
INSERT
  5
8183
330
817E
100
AcDbEntity
  8
0
  6
ByBlock
 62
     0
440
 16777216
100
AcDbBlockReference
  2
_OPEN
 10
2518.542707882954
 20
2287.478934851213
 30
0.0
 41
70.0
 42
70.0
 43
70.0
 50
180.0
  0
INSERT
  5
8184
330
817E
100
AcDbEntity
  8
0
  6
ByBlock
 62
     0
440
 16777216
100
AcDbBlockReference
  2
_OPEN
 10
3143.542707882956
 20
2287.478934851213
 30
0.0
 41
70.0
 42
70.0
 43
70.0
  0
MTEXT
  5
8185
330
817E
100
AcDbEntity
  8
0
  6
ByBlock
 62
     0
440
 16777216
100
AcDbMText
 10
2831.042707882955
 20
2374.978934851213
 30
0.0
 40
105.0
 41
0.0
 46
0.0
 71
     5
 72
     5
  1
\A1;625
 73
     1
 44
1.0
  0
POINT
  5
8186
330
817E
100
AcDbEntity
  8
DEFPOINTS
  6
ByBlock
 62
     0
440
 16777216
100
AcDbPoint
 10
2518.542707882954
 20
2496.162023773067
 30
0.0
  0
POINT
  5
8187
330
817E
100
AcDbEntity
  8
DEFPOINTS
  6
ByBlock
 62
     0
440
 16777216
100
AcDbPoint
 10
3143.542707882956
 20
2496.162023773068
 30
0.0
  0
POINT
  5
8188
330
817E
100
AcDbEntity
  8
DEFPOINTS
  6
ByBlock
 62
     0
440
 16777216
100
AcDbPoint
 10
3143.542707882956
 20
2287.478934851213
 30
0.0
  0
ENDBLK
  5
8189
330
817E
100
AcDbEntity
  8
0
100
AcDbBlockEnd
  0
BLOCK
  5
818C
330
818B
100
AcDbEntity
  8
0
100
AcDbBlockBegin
  2
*D19
 70
     1
 10
0.0
 20
0.0
 30
0.0
  3
*D19
  1

  0
LINE
  5
818D
330
818B
100
AcDbEntity
  8
0
  6
ByBlock
 62
     0
440
 16777216
100
AcDbLine
 10
4909.865026529399
 20
2478.662023773067
 30
0.0
 11
4909.865026529399
 21
2252.478934851213
 31
0.0
  0
LINE
  5
818E
330
818B
100
AcDbEntity
  8
0
  6
ByBlock
 62
     0
440
 16777216
100
AcDbLine
 10
5831.865026529398
 20
2478.662023773067
 30
0.0
 11
5831.865026529398
 21
2252.478934851213
 31
0.0
  0
LINE
  5
818F
330
818B
100
AcDbEntity
  8
0
  6
ByBlock
 62
     0
440
 16777216
100
AcDbLine
 10
4979.865026529399
 20
2287.478934851213
 30
0.0
 11
5761.865026529398
 21
2287.478934851213
 31
0.0
  0
INSERT
  5
8190
330
818B
100
AcDbEntity
  8
0
  6
ByBlock
 62
     0
440
 16777216
100
AcDbBlockReference
  2
_OPEN
 10
4909.865026529399
 20
2287.478934851213
 30
0.0
 41
70.0
 42
70.0
 43
70.0
 50
180.0
  0
INSERT
  5
8191
330
818B
100
AcDbEntity
  8
0
  6
ByBlock
 62
     0
440
 16777216
100
AcDbBlockReference
  2
_OPEN
 10
5831.865026529398
 20
2287.478934851213
 30
0.0
 41
70.0
 42
70.0
 43
70.0
  0
MTEXT
  5
8192
330
818B
100
AcDbEntity
  8
0
  6
ByBlock
 62
     0
440
 16777216
100
AcDbMText
 10
5370.865026529398
 20
2374.978934851213
 30
0.0
 40
105.0
 41
0.0
 46
0.0
 71
     5
 72
     5
  1
\A1;922
 73
     1
 44
1.0
  0
POINT
  5
8193
330
818B
100
AcDbEntity
  8
DEFPOINTS
  6
ByBlock
 62
     0
440
 16777216
100
AcDbPoint
 10
4909.865026529399
 20
2496.162023773067
 30
0.0
  0
POINT
  5
8194
330
818B
100
AcDbEntity
  8
DEFPOINTS
  6
ByBlock
 62
     0
440
 16777216
100
AcDbPoint
 10
5831.865026529398
 20
2496.162023773067
 30
0.0
  0
POINT
  5
8195
330
818B
100
AcDbEntity
  8
DEFPOINTS
  6
ByBlock
 62
     0
440
 16777216
100
AcDbPoint
 10
5831.865026529398
 20
2287.478934851213
 30
0.0
  0
ENDBLK
  5
8196
330
818B
100
AcDbEntity
  8
0
100
AcDbBlockEnd
  0
BLOCK
  5
8199
330
8198
100
AcDbEntity
  8
0
100
AcDbBlockBegin
  2
*D20
 70
     1
 10
0.0
 20
0.0
 30
0.0
  3
*D20
  1

  0
LINE
  5
819A
330
8198
100
AcDbEntity
  8
0
  6
ByBlock
 62
     0
440
 16777216
100
AcDbLine
 10
5831.865026529398
 20
2478.662023773067
 30
0.0
 11
5831.865026529398
 21
2252.478934851213
 31
0.0
  0
LINE
  5
819B
330
8198
100
AcDbEntity
  8
0
  6
ByBlock
 62
     0
440
 16777216
100
AcDbLine
 10
6559.865026529398
 20
2478.662023773067
 30
0.0
 11
6559.865026529398
 21
2252.478934851213
 31
0.0
  0
LINE
  5
819C
330
8198
100
AcDbEntity
  8
0
  6
ByBlock
 62
     0
440
 16777216
100
AcDbLine
 10
5901.865026529399
 20
2287.478934851213
 30
0.0
 11
6489.865026529398
 21
2287.478934851213
 31
0.0
  0
INSERT
  5
819D
330
8198
100
AcDbEntity
  8
0
  6
ByBlock
 62
     0
440
 16777216
100
AcDbBlockReference
  2
_OPEN
 10
5831.865026529398
 20
2287.478934851213
 30
0.0
 41
70.0
 42
70.0
 43
70.0
 50
180.0
  0
INSERT
  5
819E
330
8198
100
AcDbEntity
  8
0
  6
ByBlock
 62
     0
440
 16777216
100
AcDbBlockReference
  2
_OPEN
 10
6559.865026529398
 20
2287.478934851213
 30
0.0
 41
70.0
 42
70.0
 43
70.0
  0
MTEXT
  5
819F
330
8198
100
AcDbEntity
  8
0
  6
ByBlock
 62
     0
440
 16777216
100
AcDbMText
 10
6195.865026529398
 20
2374.978934851213
 30
0.0
 40
105.0
 41
0.0
 46
0.0
 71
     5
 72
     5
  1
\A1;728
 73
     1
 44
1.0
  0
POINT
  5
81A0
330
8198
100
AcDbEntity
  8
DEFPOINTS
  6
ByBlock
 62
     0
440
 16777216
100
AcDbPoint
 10
5831.865026529398
 20
2496.162023773067
 30
0.0
  0
POINT
  5
81A1
330
8198
100
AcDbEntity
  8
DEFPOINTS
  6
ByBlock
 62
     0
440
 16777216
100
AcDbPoint
 10
6559.865026529398
 20
2496.162023773067
 30
0.0
  0
POINT
  5
81A2
330
8198
100
AcDbEntity
  8
DEFPOINTS
  6
ByBlock
 62
     0
440
 16777216
100
AcDbPoint
 10
6559.865026529398
 20
2287.478934851213
 30
0.0
  0
ENDBLK
  5
81A3
330
8198
100
AcDbEntity
  8
0
100
AcDbBlockEnd
  0
BLOCK
  5
81A6
330
81A5
100
AcDbEntity
  8
0
100
AcDbBlockBegin
  2
*D21
 70
     1
 10
0.0
 20
0.0
 30
0.0
  3
*D21
  1

  0
LINE
  5
81A7
330
81A5
100
AcDbEntity
  8
0
  6
ByBlock
 62
     0
440
 16777216
100
AcDbLine
 10
2545.042707882955
 20
4071.162023773069
 30
0.0
 11
3737.054513261254
 21
4071.162023773069
 31
0.0
  0
LINE
  5
81A8
330
81A5
100
AcDbEntity
  8
0
  6
ByBlock
 62
     0
440
 16777216
100
AcDbLine
 10
3161.042707882956
 20
2496.162023773068
 30
0.0
 11
3737.054513261254
 21
2496.162023773068
 31
0.0
  0
LINE
  5
81A9
330
81A5
100
AcDbEntity
  8
0
  6
ByBlock
 62
     0
440
 16777216
100
AcDbLine
 10
3702.054513261253
 20
4001.162023773068
 30
0.0
 11
3702.054513261253
 21
2566.162023773068
 31
0.0
  0
INSERT
  5
81AA
330
81A5
100
AcDbEntity
  8
0
  6
ByBlock
 62
     0
440
 16777216
100
AcDbBlockReference
  2
_OPEN
 10
3702.054513261253
 20
4071.162023773069
 30
0.0
 41
70.0
 42
70.0
 43
70.0
 50
90.0
  0
INSERT
  5
81AB
330
81A5
100
AcDbEntity
  8
0
  6
ByBlock
 62
     0
440
 16777216
100
AcDbBlockReference
  2
_OPEN
 10
3702.054513261253
 20
2496.162023773068
 30
0.0
 41
70.0
 42
70.0
 43
70.0
 50
270.0
  0
MTEXT
  5
81AC
330
81A5
100
AcDbEntity
  8
0
  6
ByBlock
 62
     0
440
 16777216
100
AcDbMText
 10
3614.554513261253
 20
3283.662023773068
 30
0.0
 40
105.0
 41
0.0
 46
0.0
 71
     5
 72
     5
  1
\A1;1575
 11
0.0
 21
1.0
 31
0.0
 73
     1
 44
1.0
  0
POINT
  5
81AD
330
81A5
100
AcDbEntity
  8
DEFPOINTS
  6
ByBlock
 62
     0
440
 16777216
100
AcDbPoint
 10
2527.542707882955
 20
4071.162023773069
 30
0.0
  0
POINT
  5
81AE
330
81A5
100
AcDbEntity
  8
DEFPOINTS
  6
ByBlock
 62
     0
440
 16777216
100
AcDbPoint
 10
3143.542707882956
 20
2496.162023773068
 30
0.0
  0
POINT
  5
81AF
330
81A5
100
AcDbEntity
  8
DEFPOINTS
  6
ByBlock
 62
     0
440
 16777216
100
AcDbPoint
 10
3702.054513261253
 20
2496.162023773068
 30
0.0
  0
ENDBLK
  5
81B0
330
81A5
100
AcDbEntity
  8
0
100
AcDbBlockEnd
  0
ENDSEC
  0
SECTION
  2
ENTITIES
  0
INSERT
  5
7C10
330
19
100
AcDbEntity
  8
0
100
AcDbBlockReference
  2
YA_N
 10
6.0
 20
5.0
 30
0.0
  0
LINE
  5
7C12
330
19
100
AcDbEntity
  8
2
100
AcDbLine
 10
4827.919585309191
 20
3391.162023773067
 30
0.0
 11
6637.941658078701
 21
3391.162023773067
 31
0.0
  0
LINE
  5
7C13
330
19
100
AcDbEntity
  8
2
100
AcDbLine
 10
5831.865026529398
 20
4223.73301479056
 30
0.0
 11
5831.865026529398
 21
2496.162023773067
 31
0.0
  0
LINE
  5
7C14
330
19
100
AcDbEntity
  8
1
100
AcDbLine
 10
4909.865026529399
 20
2496.162023773067
 30
0.0
 11
6559.865026529398
 21
2496.162023773067
 31
0.0
1001
ACAD
1000
ASC_BOUNDS
1002
{
1070
    19
1002
}
  0
LINE
  5
7C15
330
19
100
AcDbEntity
  8
1
100
AcDbLine
 10
4909.865026529399
 20
2621.162023773067
 30
0.0
 11
6559.865026529398
 21
2621.162023773067
 31
0.0
  0
LINE
  5
7C16
330
19
100
AcDbEntity
  8
1
100
AcDbLine
 10
4909.865026529399
 20
2621.162023773067
 30
0.0
 11
4909.865026529399
 21
2496.162023773067
 31
0.0
  0
LINE
  5
7C17
330
19
100
AcDbEntity
  8
1
100
AcDbLine
 10
6559.865026529398
 20
2621.162023773067
 30
0.0
 11
6559.865026529398
 21
2496.162023773067
 31
0.0
  0
INSERT
  5
7C18
330
19
100
AcDbEntity
  8
0
100
AcDbBlockReference
  2
YA_N
 10
-1637.209838160517
 20
-1405.432827243363
 30
0.0
 41
25.0
 42
25.0
 43
25.0
  0
LINE
  5
7C1E
330
19
100
AcDbEntity
  8
1
100
AcDbLine
 10
6544.865026529397
 20
4071.162023773067
 30
0.0
 11
6544.865026529397
 21
4067.162023773067
 31
0.0
  0
INSERT
  5
7C1F
330
19
100
AcDbEntity
  8
0
100
AcDbBlockReference
  2
YA_N
 10
-1144.893563079055
 20
-989.0222135336152
 30
0.0
 41
25.0
 42
25.0
 43
25.0
  0
LINE
  5
7C21
330
19
100
AcDbEntity
  8
1
100
AcDbLine
 10
6491.865026529398
 20
4071.162023773067
 30
0.0
 11
6491.865026529398
 21
2621.162023773067
 31
0.0
  0
LINE
  5
7C25
330
19
100
AcDbEntity
  8
1
100
AcDbLine
 10
5118.865026529398
 20
4071.162023773067
 30
0.0
 11
5118.865026529398
 21
4067.162023773067
 31
0.0
  0
LINE
  5
7C26
330
19
100
AcDbEntity
  8
1
100
AcDbLine
 10
5171.865026529397
 20
4071.162023773067
 30
0.0
 11
5171.865026529397
 21
2621.162023773067
 31
0.0
  0
LINE
  5
7C27
330
19
100
AcDbEntity
  8
1
100
AcDbLine
 10
5015.965026529398
 20
3450.662023773066
 30
0.0
 11
5015.965026529397
 21
3331.662023773067
 31
0.0
  0
LINE
  5
7C28
330
19
100
AcDbEntity
  8
1
100
AcDbLine
 10
5015.965026529397
 20
3450.662023773066
 30
0.0
 11
5171.865026529397
 21
3450.662023773066
 31
0.0
  0
LINE
  5
7C29
330
19
100
AcDbEntity
  8
1
100
AcDbLine
 10
5015.965026529398
 20
3331.662023773067
 30
0.0
 11
5171.865026529397
 21
3331.662023773067
 31
0.0
  0
LINE
  5
7C2A
330
19
100
AcDbEntity
  8
1
100
AcDbLine
 10
5014.365026529397
 20
3309.162023773067
 30
0.0
 11
5014.365026529398
 21
3179.162023773066
 31
0.0
  0
LINE
  5
7C2B
330
19
100
AcDbEntity
  8
1
100
AcDbLine
 10
5024.365026529396
 20
3319.162023773067
 30
0.0
 11
5171.865026529396
 21
3319.162023773067
 31
0.0
  0
LINE
  5
7C2C
330
19
100
AcDbEntity
  8
1
100
AcDbLine
 10
5024.365026529398
 20
3169.162023773067
 30
0.0
 11
5171.865026529397
 21
3169.162023773067
 31
0.0
  0
ARC
  5
7C2D
330
19
100
AcDbEntity
  8
1
100
AcDbCircle
 10
5024.365026529396
 20
3309.162023773067
 30
0.0
 40
10.0
100
AcDbArc
 50
90.0
 51
180.0000000000007
  0
ARC
  5
7C2E
330
19
100
AcDbEntity
  8
1
100
AcDbCircle
 10
5024.365026529398
 20
3179.162023773067
 30
0.0
 40
10.0
100
AcDbArc
 50
180.0000000000007
 51
270.0
  0
LINE
  5
7C2F
330
19
100
AcDbEntity
  8
1
100
AcDbLine
 10
4971.865026529398
 20
3431.162023773067
 30
0.0
 11
4971.865026529398
 21
3351.162023773067
 31
0.0
  0
LINE
  5
7C30
330
19
100
AcDbEntity
  8
1
100
AcDbLine
 10
4966.865026529398
 20
3421.162023773067
 30
0.0
 11
4971.865026529398
 21
3421.162023773067
 31
0.0
  0
LINE
  5
7C31
330
19
100
AcDbEntity
  8
1
100
AcDbLine
 10
4966.865026529398
 20
3361.162023773067
 30
0.0
 11
4971.865026529398
 21
3361.162023773067
 31
0.0
  0
LINE
  5
7C32
330
19
100
AcDbEntity
  8
1
100
AcDbLine
 10
4971.865026529398
 20
3431.162023773067
 30
0.0
 11
5015.965026529397
 21
3431.162023773067
 31
0.0
  0
LINE
  5
7C33
330
19
100
AcDbEntity
  8
1
100
AcDbLine
 10
4971.865026529398
 20
3351.162023773067
 30
0.0
 11
5015.965026529397
 21
3351.162023773067
 31
0.0
  0
LINE
  5
7C34
330
19
100
AcDbEntity
  8
1
100
AcDbLine
 10
6631.865026529398
 20
3348.962023773067
 30
0.0
 11
6631.865026529398
 21
3218.962023773067
 31
0.0
  0
ARC
  5
7C35
330
19
100
AcDbEntity
  8
1
100
AcDbCircle
 10
6621.865026529402
 20
3348.962023773067
 30
0.0
 40
10.0
100
AcDbArc
 50
0.0000000000006514
 51
90.0
  0
ARC
  5
7C36
330
19
100
AcDbEntity
  8
1
100
AcDbCircle
 10
6621.8650265294
 20
3218.962023773067
 30
0.0
 40
10.0
100
AcDbArc
 50
270.0
 51
0.0000000000006514
  0
LINE
  5
7C37
330
19
100
AcDbEntity
  8
1
100
AcDbLine
 10
6618.465026529398
 20
3358.662023773067
 30
0.0
 11
6621.865026529398
 21
3358.662023773067
 31
0.0
  0
LINE
  5
7C38
330
19
100
AcDbEntity
  8
1
100
AcDbLine
 10
6491.865026529398
 20
3358.962023773067
 30
0.0
 11
6621.865026529398
 21
3358.962023773067
 31
0.0
  0
LINE
  5
7C39
330
19
100
AcDbEntity
  8
1
100
AcDbLine
 10
6491.865026529398
 20
3208.962023773067
 30
0.0
 11
6621.8650265294
 21
3208.962023773067
 31
0.0
  0
LINE
  5
7C3A
330
19
100
AcDbEntity
  8
1
100
AcDbLine
 10
4856.865026529398
 20
3556.262023773067
 30
0.0
 11
4966.865026529398
 21
3556.262023773067
 31
0.0
  0
LINE
  5
7C3B
330
19
100
AcDbEntity
  8
1
100
AcDbLine
 10
4856.865026529398
 20
3226.062023773066
 30
0.0
 11
4966.865026529398
 21
3226.062023773066
 31
0.0
  0
LINE
  5
7C3C
330
19
100
AcDbEntity
  8
2
100
AcDbLine
 10
4752.365026529401
 20
2856.162023773067
 30
0.0
 11
5171.865026529397
 21
2856.162023773067
 31
0.0
  0
LINE
  5
7C3D
330
19
100
AcDbEntity
  8
1
100
AcDbLine
 10
4856.865026529398
 20
2970.462023773067
 30
0.0
 11
4966.865026529398
 21
2970.462023773067
 31
0.0
  0
LINE
  5
7C3E
330
19
100
AcDbEntity
  8
1
100
AcDbLine
 10
4856.865026529399
 20
2741.862023773066
 30
0.0
 11
4966.865026529398
 21
2741.862023773066
 31
0.0
  0
LINE
  5
7C3F
330
19
100
AcDbEntity
  8
1
100
AcDbLine
 10
4856.865026529398
 20
3556.262023773067
 30
0.0
 11
4856.865026529398
 21
2741.862023773066
 31
0.0
  0
LINE
  5
7C40
330
19
100
AcDbEntity
  8
1
100
AcDbLine
 10
4966.865026529399
 20
3556.262023773067
 30
0.0
 11
4966.865026529398
 21
2741.862023773066
 31
0.0
  0
LINE
  5
7C41
330
19
100
AcDbEntity
  8
1
100
AcDbLine
 10
4752.365026529393
 20
3671.162023773067
 30
0.0
 11
4752.365026529403
 21
2636.162023773067
 31
0.0
  0
LINE
  5
7C42
330
19
100
AcDbEntity
  8
1
100
AcDbLine
 10
4752.365026529393
 20
3671.162023773067
 30
0.0
 11
5004.365026529392
 21
3671.162023773067
 31
0.0
  0
LINE
  5
7C43
330
19
100
AcDbEntity
  8
1
100
AcDbLine
 10
4752.365026529401
 20
2636.162023773067
 30
0.0
 11
5004.365026529402
 21
2636.162023773067
 31
0.0
  0
LINE
  5
7C44
330
19
100
AcDbEntity
  8
1
100
AcDbLine
 10
5004.365026529392
 20
3671.162023773069
 30
0.0
 11
5004.365026529392
 21
3651.162023773067
 31
0.0
  0
LINE
  5
7C45
330
19
100
AcDbEntity
  8
1
100
AcDbLine
 10
5004.365026529402
 20
2656.162023773067
 30
0.0
 11
5004.365026529402
 21
2636.162023773069
 31
0.0
  0
POINT
  5
7C46
330
19
100
AcDbEntity
  8
1
100
AcDbPoint
 10
6631.865026529403
 20
3348.962023773067
 30
0.0
  0
DIMENSION
  5
7C47
330
19
100
AcDbEntity
  8
3
100
AcDbDimension
280
     0
  2
*D2
 10
6915.536860515079
 20
3891.162023773066
 30
0.0
 11
6828.036860515078
 21
3391.162023773067
 31
0.0
 70
    32
  1
φ<>
 71
     5
 42
-1.0
 73
     0
 74
     0
 75
     0
  3
IGA
100
AcDbAlignedDimension
 13
6497.365026529398
 23
2891.162023773066
 33
0.0
 14
6497.365026529398
 24
3891.162023773066
 34
0.0
 50
90.0
100
AcDbRotatedDimension
1001
ACAD
1000
DSTYLE
1002
{
1070
   287
1070
     3
1070
    40
1040
35.0
1070
   143
1040
0.039
1070
   172
1070
     1
1070
   271
1070
     0
1070
   279
1070
     0
1070
   288
1070
     1
1002
}
  0
LINE
  5
7C48
330
19
100
AcDbEntity
  8
1
100
AcDbLine
 10
5118.865026529398
 20
4071.162023773067
 30
0.0
 11
6544.865026529397
 21
4071.162023773067
 31
0.0
  0
LINE
  5
7C49
330
19
100
AcDbEntity
  8
1
100
AcDbLine
 10
5171.865026529397
 20
4021.162023773067
 30
0.0
 11
6491.865026529398
 21
4021.162023773067
 31
0.0
  0
LINE
  5
7C4A
330
19
100
AcDbEntity
  8
1
100
AcDbLine
 10
5118.865026529398
 20
4067.162023773067
 30
0.0
 11
6544.865026529397
 21
4067.162023773067
 31
0.0
  0
DIMENSION
  5
7C4B
330
19
100
AcDbEntity
  8
3
100
AcDbDimension
280
     0
  2
*D3
 10
6491.865026529398
 20
4253.877026096281
 30
0.0
 11
5831.865026529398
 21
4341.377026096281
 31
0.0
 70
    32
 71
     5
 42
-1.0
 73
     0
 74
     0
 75
     0
  3
IGA
100
AcDbAlignedDimension
 13
5171.865026529397
 23
4071.162023773067
 33
0.0
 14
6491.865026529398
 24
4071.162023773067
 34
0.0
100
AcDbRotatedDimension
1001
ACAD
1000
DSTYLE
1002
{
1070
   287
1070
     3
1070
    40
1040
35.0
1070
   143
1040
0.039
1070
   172
1070
     1
1070
   271
1070
     0
1070
   279
1070
     0
1070
   288
1070
     1
1002
}
  0
POINT
  5
7C4C
330
19
100
AcDbEntity
  8
1
100
AcDbPoint
 10
4752.365026529393
 20
3671.162023773067
 30
0.0
  0
POINT
  5
7C4D
330
19
100
AcDbEntity
  8
1
100
AcDbPoint
 10
6631.865026529403
 20
3348.962023773067
 30
0.0
  0
LINE
  5
7C54
330
19
100
AcDbEntity
  8
1
100
AcDbLine
 10
5171.865026529397
 20
3041.162023773067
 30
0.0
 11
4971.865026529401
 21
3041.162023773067
 31
0.0
  0
LINE
  5
7C55
330
19
100
AcDbEntity
  8
1
100
AcDbLine
 10
5171.865026529397
 20
2671.162023773067
 30
0.0
 11
4971.865026529401
 21
2671.162023773067
 31
0.0
  0
LINE
  5
7C56
330
19
100
AcDbEntity
  8
1
100
AcDbLine
 10
4971.865026529401
 20
3041.162023773067
 30
0.0
 11
4971.865026529401
 21
2671.162023773067
 31
0.0
  0
LINE
  5
7C57
330
19
100
AcDbEntity
  8
1
100
AcDbLine
 10
4971.865026529401
 20
2828.662023773066
 30
0.0
 11
4966.8650265294
 21
2828.662023773066
 31
0.0
  0
LINE
  5
7C58
330
19
100
AcDbEntity
  8
1
100
AcDbLine
 10
4971.865026529401
 20
2883.662023773067
 30
0.0
 11
4966.8650265294
 21
2883.662023773067
 31
0.0
  0
DIMENSION
  5
7C59
330
19
100
AcDbEntity
  8
3
100
AcDbDimension
280
     0
  2
*D4
 10
689.8034406553306
 20
5683.24303568924
 30
0.0
 11
602.3034406553297
 21
6158.24303568924
 31
0.0
 70
    32
 71
     5
 42
-1.0
 73
     0
 74
     0
 75
     0
  3
IGA
100
AcDbAlignedDimension
 13
943.5427078829562
 23
6633.24303568924
 33
0.0
 14
943.5427078829562
 24
5683.24303568924
 34
0.0
 50
90.0
100
AcDbRotatedDimension
1001
ACAD
1000
DSTYLE
1002
{
1070
   287
1070
     3
1070
    40
1040
35.0
1070
   143
1040
0.039
1070
   172
1070
     1
1070
   271
1070
     0
1070
   279
1070
     0
1070
   288
1070
     1
1002
}
  0
CIRCLE
  5
7C5A
330
19
100
AcDbEntity
  8
1
100
AcDbCircle
 10
2518.542707882954
 20
3391.162023773067
 30
0.0
 40
165.1
  0
ARC
  5
7C5B
330
19
100
AcDbEntity
  8
1
100
AcDbCircle
 10
2579.042707882955
 20
3330.662023773069
 30
0.0
 40
659.4999999999999
100
AcDbArc
 50
5.263495203066947
 51
95.26349520306697
  0
ARC
  5
7C5C
330
19
100
AcDbEntity
  8
1
100
AcDbCircle
 10
2518.542707882954
 20
3391.162023773067
 30
0.0
 40
550.0
100
AcDbArc
 50
0.0
 51
180.0
  0
DIMENSION
  5
7C5D
330
19
100
AcDbEntity
  8
3
100
AcDbDimension
280
     0
  2
*D5
 10
3477.295288390545
 20
3391.162023773066
 30
0.0
 11
3389.795288390546
 21
3731.162023773068
 31
0.0
 70
    32
 71
     5
 42
-1.0
 73
     0
 74
     0
 75
     0
  3
IGA
100
AcDbAlignedDimension
 13
2527.542707882955
 23
4071.162023773069
 33
0.0
 14
3333.395403496899
 24
3391.162023773066
 34
0.0
 50
270.0
100
AcDbRotatedDimension
1001
ACAD
1000
DSTYLE
1002
{
1070
   287
1070
     3
1070
    40
1040
35.0
1070
   143
1040
0.039
1070
   172
1070
     1
1070
   271
1070
     0
1070
   279
1070
     0
1070
   288
1070
     1
1002
}
  0
DIMENSION
  5
7C5E
330
19
100
AcDbEntity
  8
3
100
AcDbDimension
280
     0
  2
*D6
 10
3238.542707882955
 20
4530.304645393035
 30
0.0
 11
2878.542707882955
 21
4617.804645393035
 31
0.0
 70
    32
 71
     5
 42
-1.0
 73
     0
 74
     0
 75
     0
  3
IGA
100
AcDbAlignedDimension
 13
2518.542707882954
 23
4130.778006270695
 33
0.0
 14
3238.542707882955
 24
3317.162023773068
 34
0.0
100
AcDbRotatedDimension
1001
ACAD
1000
DSTYLE
1002
{
1070
   287
1070
     3
1070
    40
1040
35.0
1070
   143
1040
0.039
1070
   172
1070
     1
1070
   271
1070
     0
1070
   279
1070
     0
1070
   288
1070
     1
1002
}
  0
ARC
  5
7C60
330
19
100
AcDbEntity
  8
1
100
AcDbCircle
 10
2518.542707882954
 20
3391.162023773067
 30
0.0
 40
500.0
100
AcDbArc
 50
244.7860234198974
 51
295.2139765801025
  0
ARC
  5
7C61
330
19
100
AcDbEntity
  8
1
100
AcDbCircle
 10
2518.542707882954
 20
3391.162023773067
 30
0.0
 40
550.0
100
AcDbArc
 50
247.2150933853279
 51
292.7849066146721
  0
ARC
  5
7C62
330
19
100
AcDbEntity
  8
1
100
AcDbCircle
 10
2444.542707882956
 20
3317.162023773068
 30
0.0
 40
794.0
100
AcDbArc
 50
298.768154537374
 51
5.347669749838759
  0
ARC
  5
7C63
330
19
100
AcDbEntity
  8
1
100
AcDbCircle
 10
2518.542707882954
 20
3391.162023773067
 30
0.0
 40
500.0
100
AcDbArc
 50
360.0
 51
180.0
  0
ARC
  5
7C64
330
19
100
AcDbEntity
  8
1
100
AcDbCircle
 10
2518.542707882954
 20
3391.162023773067
 30
0.0
 40
280.0
100
AcDbArc
 50
289.922874938971
 51
114.8152261656065
  0
LINE
  5
7C65
330
19
100
AcDbEntity
  8
1
100
AcDbLine
 10
943.5427078829553
 20
2621.162023773066
 30
0.0
 11
3143.542707882956
 21
2621.162023773068
 31
0.0
  0
LINE
  5
7C66
330
19
100
AcDbEntity
  8
2
100
AcDbLine
 10
3333.395403496899
 20
3391.162023773066
 30
0.0
 11
1370.745286777615
 21
3391.162023773067
 31
0.0
  0
LINE
  5
7C67
330
19
100
AcDbEntity
  8
1
100
AcDbLine
 10
943.5427078829553
 20
2496.162023773068
 30
0.0
 11
3143.542707882956
 21
2496.162023773068
 31
0.0
1001
ACAD
1000
ASC_BOUNDS
1002
{
1070
    19
1002
}
  0
DIMENSION
  5
7C6B
330
19
100
AcDbEntity
  8
3
100
AcDbDimension
280
     0
  2
*D7
 10
3238.542707882955
 20
4759.510636392454
 30
0.0
 11
2091.042707882955
 21
4847.010636392455
 31
0.0
 70
    32
 71
     5
 42
-1.0
 73
     0
 74
     0
 75
     0
  3
IGA
100
AcDbAlignedDimension
 13
943.5427078829553
 23
2621.162023773066
 33
0.0
 14
3238.542707882955
 24
3317.162023773068
 34
0.0
100
AcDbRotatedDimension
1001
ACAD
1000
DSTYLE
1002
{
1070
   287
1070
     3
1070
    40
1040
35.0
1070
   143
1040
0.039
1070
   172
1070
     1
1070
   271
1070
     0
1070
   279
1070
     0
1070
   288
1070
     1
1002
}
  0
ARC
  5
7C6D
330
19
100
AcDbEntity
  8
1
100
AcDbCircle
 10
2518.542707882954
 20
3391.162023773067
 30
0.0
 40
550.0
100
AcDbArc
 50
294.1477399170222
 51
0.0
  0
ARC
  5
7C6E
330
19
100
AcDbEntity
  8
1
100
AcDbCircle
 10
2518.542707882954
 20
3391.162023773067
 30
0.0
 40
500.0
100
AcDbArc
 50
296.743683950403
 51
360.0
  0
DIMENSION
  5
7C6F
330
19
100
AcDbEntity
  8
3
100
AcDbDimension
280
     0
  2
*D8
 10
3477.295288390545
 20
2496.162023773068
 30
0.0
 11
3389.795288390546
 21
2943.662023773068
 31
0.0
 70
    32
 71
     5
 42
-1.0
 73
     0
 74
     0
 75
     0
  3
IGA
100
AcDbAlignedDimension
 13
3333.395403496899
 23
3391.162023773066
 33
0.0
 14
3143.542707882956
 24
2496.162023773068
 34
0.0
 50
270.0
100
AcDbRotatedDimension
1001
ACAD
1000
DSTYLE
1002
{
1070
   287
1070
     3
1070
    40
1040
35.0
1070
   143
1040
0.039
1070
   172
1070
     1
1070
   271
1070
     0
1070
   279
1070
     0
1070
   288
1070
     1
1002
}
  0
LINE
  5
7C71
330
19
100
AcDbEntity
  8
1
100
AcDbLine
 10
3143.542707882956
 20
2621.162023773068
 30
0.0
 11
3143.542707882956
 21
2496.162023773068
 31
0.0
  0
POINT
  5
7C7F
330
19
100
AcDbEntity
  8
1
100
AcDbPoint
 10
3143.542707882956
 20
2496.162023773068
 30
0.0
  0
POINT
  5
7C80
330
19
100
AcDbEntity
  8
1
100
AcDbPoint
 10
3143.542707882956
 20
2496.162023773068
 30
0.0
  0
POINT
  5
7C81
330
19
100
AcDbEntity
  8
1
100
AcDbPoint
 10
3143.542707882956
 20
2496.162023773068
 30
0.0
  0
POINT
  5
7C82
330
19
100
AcDbEntity
  8
1
100
AcDbPoint
 10
3143.542707882956
 20
2496.162023773068
 30
0.0
  0
LINE
  5
7C84
330
19
100
AcDbEntity
  8
2
100
AcDbLine
 10
2518.542707882954
 20
4130.778006270695
 30
0.0
 11
2518.542707882954
 21
2496.162023773067
 31
0.0
  0
ARC
  5
7C85
330
19
100
AcDbEntity
  8
1
100
AcDbCircle
 10
2518.542707882954
 20
3391.162023773067
 30
0.0
 40
500.0
100
AcDbArc
 50
180.0
 51
243.256316049597
  0
ARC
  5
7C86
330
19
100
AcDbEntity
  8
1
100
AcDbCircle
 10
2518.542707882954
 20
3391.162023773067
 30
0.0
 40
550.0
100
AcDbArc
 50
180.0
 51
245.8522600829777
  0
ARC
  5
7C87
330
19
100
AcDbEntity
  8
1
100
AcDbCircle
 10
2444.542707882954
 20
3465.162023773068
 30
0.0
 40
942.0
100
AcDbArc
 50
184.5055845266444
 51
243.6327841138683
  0
LINE
  5
7C88
330
19
100
AcDbEntity
  8
1
100
AcDbLine
 10
2401.028582056881
 20
3645.308497742968
 30
0.0
 11
1126.210180448183
 21
3055.848539035132
 31
0.0
  0
LINE
  5
7C89
330
19
100
AcDbEntity
  8
1
100
AcDbLine
 10
2450.234301185196
 20
3541.468283038652
 30
0.0
 11
1171.252272476814
 21
2960.220203264626
 31
0.0
  0
LINE
  5
7C8A
330
19
100
AcDbEntity
  8
1
100
AcDbLine
 10
2575.816739446304
 20
3236.314694740627
 30
0.0
 11
1258.193960503735
 21
2748.960026750609
 31
0.0
  0
LINE
  5
7C8B
330
19
100
AcDbEntity
  8
1
100
AcDbLine
 10
2613.954087311224
 20
3127.919419554838
 30
0.0
 11
1293.508791719452
 21
2649.328549030173
 31
0.0
  0
ARC
  5
7C8F
330
19
100
AcDbEntity
  8
1
100
AcDbCircle
 10
1218.542707882955
 20
2856.162023773067
 30
0.0
 40
185.0
100
AcDbArc
 50
287.945251
 51
252.054749
  0
LINE
  5
7C90
330
19
100
AcDbEntity
  8
2
100
AcDbLine
 10
851.8566296401004
 20
2856.162023773067
 30
0.0
 11
1434.622240528912
 21
2856.162023773067
 31
0.0
  0
LINE
  5
7C91
330
19
100
AcDbEntity
  8
1
100
AcDbLine
 10
1008.12669485719
 20
2676.162023773066
 30
0.0
 11
1148.542707882955
 21
2676.162023773066
 31
0.0
  0
ARC
  5
7C92
330
19
100
AcDbEntity
  8
1
100
AcDbCircle
 10
1218.542707882955
 20
2856.162023773067
 30
0.0
 40
220.0
100
AcDbArc
 50
114.8152261656065
 51
289.922874938971
  0
LINE
  5
7C93
330
19
100
AcDbEntity
  8
2
100
AcDbLine
 10
1218.542707882955
 20
3119.977697773067
 30
0.0
 11
1218.542707882955
 21
2496.162023773068
 31
0.0
  0
LINE
  5
7C97
330
19
100
AcDbEntity
  8
1
100
AcDbLine
 10
1288.542707882955
 20
2676.162023773066
 30
0.0
 11
1428.757959096621
 21
2676.162023773066
 31
0.0
  0
LINE
  5
7C98
330
19
100
AcDbEntity
  8
1
100
AcDbLine
 10
1380.542722882956
 20
2751.421056773066
 30
0.0
 11
1380.542722882956
 21
2676.162023773067
 31
0.0
  0
LINE
  5
7C99
330
19
100
AcDbEntity
  8
1
100
AcDbLine
 10
1443.542707882955
 20
2621.162023773066
 30
0.0
 11
1428.757959096621
 21
2676.162023773066
 31
0.0
  0
LINE
  5
7C9A
330
19
100
AcDbEntity
  8
1
100
AcDbLine
 10
1380.542722882956
 20
2751.421056773066
 30
0.0
 11
1374.158750882955
 21
2756.118810773067
 31
0.0
  0
CIRCLE
  5
7C9B
330
19
100
AcDbEntity
  8
1
100
AcDbCircle
 10
1218.542707882955
 20
2856.162023773067
 30
0.0
 40
114.3
  0
LINE
  5
7C9C
330
19
100
AcDbEntity
  8
1
100
AcDbLine
 10
1275.542722882956
 20
2680.162023773067
 30
0.0
 11
1161.542707882955
 21
2680.162023773067
 31
0.0
  0
LINE
  5
7C9E
330
19
100
AcDbEntity
  8
1
100
AcDbLine
 10
1148.542707882955
 20
2666.162023773066
 30
0.0
 11
1288.542707882955
 21
2666.162023773066
 31
0.0
  0
LINE
  5
7C9F
330
19
100
AcDbEntity
  8
1
100
AcDbLine
 10
1288.542707882956
 20
2676.162023773066
 30
0.0
 11
1288.542707882956
 21
2666.162023773066
 31
0.0
  0
LINE
  5
7CA1
330
19
100
AcDbEntity
  8
1
100
AcDbLine
 10
1148.542707882955
 20
2676.162023773066
 30
0.0
 11
1148.542707882955
 21
2666.162023773066
 31
0.0
  0
LINE
  5
7CA3
330
19
100
AcDbEntity
  8
1
100
AcDbLine
 10
943.5427078829553
 20
2621.162023773068
 30
0.0
 11
943.5427078829553
 21
2496.162023773068
 31
0.0
  0
LINE
  5
7CA5
330
19
100
AcDbEntity
  8
1
100
AcDbLine
 10
1056.542707882955
 20
2751.421056773066
 30
0.0
 11
1056.542707882955
 21
2676.162023773067
 31
0.0
  0
LINE
  5
7CA6
330
19
100
AcDbEntity
  8
1
100
AcDbLine
 10
993.5427078829553
 20
2621.162023773066
 30
0.0
 11
1008.12669485719
 21
2676.162023773066
 31
0.0
  0
LINE
  5
7CA7
330
19
100
AcDbEntity
  8
1
100
AcDbLine
 10
1056.542707882955
 20
2751.421056773066
 30
0.0
 11
1062.926679882956
 21
2756.118810773067
 31
0.0
  0
LINE
  5
7CA8
330
19
100
AcDbEntity
  8
1
100
AcDbLine
 10
1391.542707882954
 20
4071.162023773069
 30
0.0
 11
2527.542707882955
 21
4071.162023773069
 31
0.0
  0
LINE
  5
7CA9
330
19
100
AcDbEntity
  8
1
100
AcDbLine
 10
1449.021463752262
 20
4021.162023773068
 30
0.0
 11
2474.542707882954
 21
4021.162023773068
 31
0.0
  0
LINE
  5
7CAA
330
19
100
AcDbEntity
  8
1
100
AcDbLine
 10
1391.542707882954
 20
4067.162023773066
 30
0.0
 11
2527.542707882955
 21
4067.16202377307
 31
0.0
  0
DIMENSION
  5
7CAB
330
19
100
AcDbEntity
  8
3
100
AcDbDimension
280
     0
  2
*D9
 10
2474.542707882954
 20
4272.32212076721
 30
0.0
 11
1959.542707882954
 21
4359.82212076721
 31
0.0
 70
    32
 71
     5
 42
-1.0
 73
     0
 74
     0
 75
     0
  3
IGA
100
AcDbAlignedDimension
 13
1444.542707882955
 23
4071.162023773069
 33
0.0
 14
2474.542707882954
 24
4071.162023773069
 34
0.0
100
AcDbRotatedDimension
1001
ACAD
1000
DSTYLE
1002
{
1070
   287
1070
     3
1070
    40
1040
35.0
1070
   143
1040
0.039
1070
   172
1070
     1
1070
   271
1070
     0
1070
   279
1070
     0
1070
   288
1070
     1
1002
}
  0
DIMENSION
  5
7CAC
330
19
100
AcDbEntity
  8
3
100
AcDbDimension
280
     0
  2
*D10
 10
2518.542707882954
 20
4530.304645393035
 30
0.0
 11
1981.542707882955
 21
4617.804645393035
 31
0.0
 70
    32
 71
     5
 42
-1.0
 73
     0
 74
     0
 75
     0
  3
IGA
100
AcDbAlignedDimension
 13
1444.542707882955
 23
4071.162023773069
 33
0.0
 14
2518.542707882954
 24
4130.778006270695
 34
0.0
100
AcDbRotatedDimension
1001
ACAD
1000
DSTYLE
1002
{
1070
   287
1070
     3
1070
    40
1040
35.0
1070
   143
1040
0.039
1070
   172
1070
     1
1070
   271
1070
     0
1070
   279
1070
     0
1070
   288
1070
     1
1002
}
  0
LINE
  5
7CAD
330
19
100
AcDbEntity
  8
1
100
AcDbLine
 10
2474.542707882954
 20
3979.925215752217
 30
0.0
 11
2474.542707882954
 21
4071.162023773069
 31
0.0
  0
ARC
  5
7CAE
330
19
100
AcDbEntity
  8
1
100
AcDbCircle
 10
2579.042707882955
 20
3451.662023773069
 30
0.0
 40
538.4999999999999
100
AcDbArc
 50
96.45074971485989
 51
101.1896745627625
  0
LINE
  5
7CAF
330
19
100
AcDbEntity
  8
1
100
AcDbLine
 10
2527.542707882955
 20
4067.16202377307
 30
0.0
 11
2527.542707882955
 21
4071.162023773069
 31
0.0
  0
LINE
  5
7CB0
330
19
100
AcDbEntity
  8
1
100
AcDbLine
 10
1444.542707882955
 20
4071.162023773069
 30
0.0
 11
1505.453787705532
 21
3391.162023773068
 31
0.0
  0
LINE
  5
7CB1
330
19
100
AcDbEntity
  8
1
100
AcDbLine
 10
1391.542707882954
 20
4067.162023773066
 30
0.0
 11
1391.542707882954
 21
4071.162023773069
 31
0.0
  0
DIMENSION
  5
7CB2
330
19
100
AcDbEntity
  8
3
100
AcDbDimension
280
     0
  2
*D11
 10
3143.542707882956
 20
7735.26968313132
 30
0.0
 11
2518.542707882956
 21
7822.769683131319
 31
0.0
 70
    32
 71
     5
 42
-1.0
 73
     0
 74
     0
 75
     0
  3
IGA
100
AcDbAlignedDimension
 13
1893.542707882956
 23
7333.24303568924
 33
0.0
 14
3143.542707882956
 24
7333.24303568924
 34
0.0
100
AcDbRotatedDimension
1001
ACAD
1000
DSTYLE
1002
{
1070
   287
1070
     3
1070
    40
1040
35.0
1070
   143
1040
0.039
1070
   172
1070
     1
1070
   271
1070
     0
1070
   279
1070
     0
1070
   288
1070
     1
1002
}
  0
LINE
  5
7CB3
330
19
100
AcDbEntity
  8
1
100
AcDbLine
 10
1893.542707882956
 20
7333.24303568924
 30
0.0
 11
3143.542707882956
 21
7333.24303568924
 31
0.0
  0
LINE
  5
7CB4
330
19
100
AcDbEntity
  8
1
100
AcDbLine
 10
2353.542707882956
 20
5717.74303568924
 30
0.0
 11
2683.542707882956
 21
5717.74303568924
 31
0.0
  0
LINE
  5
7CB5
330
19
100
AcDbEntity
  8
1
100
AcDbLine
 10
2353.542707882956
 20
5607.74303568924
 30
0.0
 11
2683.542707882956
 21
5607.74303568924
 31
0.0
  0
LINE
  5
7CB6
330
19
100
AcDbEntity
  8
1
100
AcDbLine
 10
998.5427078829561
 20
5755.24303568924
 30
0.0
 11
2798.542707882957
 21
5755.24303568924
 31
0.0
  0
LINE
  5
7CB7
330
19
100
AcDbEntity
  8
1
100
AcDbLine
 10
998.5427078829561
 20
5525.24303568924
 30
0.0
 11
2798.542707882957
 21
5525.24303568924
 31
0.0
  0
DIMENSION
  5
7CB8
330
19
100
AcDbEntity
  8
3
100
AcDbDimension
280
     0
  2
*D12
 10
3143.542707882956
 20
5243.422376194049
 30
0.0
 11
2043.542707882956
 21
5243.422376194049
 31
0.0
 12
947.7604054559051
 22
2087.609774831395
 32
0.0
 70
   160
 71
     5
 42
-1.0
 73
     0
 74
     0
 75
     0
  3
MATSU
100
AcDbAlignedDimension
 13
943.5427078829562
 23
5683.24303568924
 33
0.0
 14
3143.542707882956
 24
5683.24303568924
 34
0.0
100
AcDbRotatedDimension
1001
ACAD
1000
DSTYLE
1002
{
1070
    40
1040
40.0
1002
}
  0
LINE
  5
7CB9
330
19
100
AcDbEntity
  8
2
100
AcDbLine
 10
1444.542707882956
 20
6605.24303568924
 30
0.0
 11
3297.185094115994
 21
6605.24303568924
 31
0.0
  0
LINE
  5
7CBA
330
19
100
AcDbEntity
  8
1
100
AcDbLine
 10
943.5427078829562
 20
5683.24303568924
 30
0.0
 11
3143.542707882956
 21
5683.24303568924
 31
0.0
  0
LINE
  5
7CBB
330
19
100
AcDbEntity
  8
1
100
AcDbLine
 10
1444.542707882956
 20
7265.243035689241
 30
0.0
 11
3238.542707882956
 21
7265.243035689239
 31
0.0
  0
LINE
  5
7CBC
330
19
100
AcDbEntity
  8
1
100
AcDbLine
 10
1444.542707882956
 20
5945.24303568924
 30
0.0
 11
3238.542707882956
 21
5945.243035689241
 31
0.0
  0
DIMENSION
  5
7CBD
330
19
100
AcDbEntity
  8
3
100
AcDbDimension
280
     0
  2
*D13
 10
3545.203770296248
 20
5683.24303568924
 30
0.0
 11
3457.703770296247
 21
6508.243035689242
 31
0.0
 70
    32
 71
     5
 42
-1.0
 73
     0
 74
     0
 75
     0
  3
IGA
100
AcDbAlignedDimension
 13
3143.542707882956
 23
7333.24303568924
 33
0.0
 14
3143.542707882956
 24
5683.24303568924
 34
0.0
 50
90.0
100
AcDbRotatedDimension
1001
ACAD
1000
DSTYLE
1002
{
1070
   287
1070
     3
1070
    40
1040
35.0
1070
   143
1040
0.039
1070
   172
1070
     1
1070
   271
1070
     0
1070
   279
1070
     0
1070
   288
1070
     1
1002
}
  0
LINE
  5
7CBE
330
19
100
AcDbEntity
  8
1
100
AcDbLine
 10
3143.542707882956
 20
7333.24303568924
 30
0.0
 11
3143.542707882956
 21
7265.243035689239
 31
0.0
  0
LINE
  5
7CBF
330
19
100
AcDbEntity
  8
1
100
AcDbLine
 10
3238.542707882956
 20
7265.243035689239
 30
0.0
 11
3238.542707882956
 21
5945.243035689241
 31
0.0
  0
LINE
  5
7CC0
330
19
100
AcDbEntity
  8
1
100
AcDbLine
 10
2798.542707882957
 20
5755.24303568924
 30
0.0
 11
2798.542707882957
 21
5525.24303568924
 31
0.0
  0
LINE
  5
7CC1
330
19
100
AcDbEntity
  8
1
100
AcDbLine
 10
2683.542707882956
 20
5717.743035689239
 30
0.0
 11
2683.542707882956
 21
5607.74303568924
 31
0.0
  0
LINE
  5
7CC2
330
19
100
AcDbEntity
  8
1
100
AcDbLine
 10
1893.542707882956
 20
7333.24303568924
 30
0.0
 11
1893.542707882956
 21
7265.243035689239
 31
0.0
  0
LINE
  5
7CC3
330
19
100
AcDbEntity
  8
2
100
AcDbLine
 10
2518.542707882956
 20
7422.332381868287
 30
0.0
 11
2518.542707882956
 21
5525.24303568924
 31
0.0
  0
LINE
  5
7CC4
330
19
100
AcDbEntity
  8
1
100
AcDbLine
 10
2474.542707882956
 20
7265.243035689241
 30
0.0
 11
2474.542707882956
 21
5945.24303568924
 31
0.0
  0
LINE
  5
7CC5
330
19
100
AcDbEntity
  8
1
100
AcDbLine
 10
1444.542707882956
 20
7265.243035689241
 30
0.0
 11
1444.542707882956
 21
5945.24303568924
 31
0.0
  0
DIMENSION
  5
7CC6
330
19
100
AcDbEntity
  8
3
100
AcDbDimension
280
     0
  2
*D14
 10
1893.542707882956
 20
7735.26968313132
 30
0.0
 11
1418.542707882956
 21
7822.769683131319
 31
0.0
 70
    32
 71
     5
 42
-1.0
 73
     0
 74
     0
 75
     0
  3
IGA
100
AcDbAlignedDimension
 13
943.5427078829562
 23
6633.24303568924
 33
0.0
 14
1893.542707882956
 24
7333.24303568924
 34
0.0
100
AcDbRotatedDimension
1001
ACAD
1000
DSTYLE
1002
{
1070
   287
1070
     3
1070
    40
1040
35.0
1070
   143
1040
0.039
1070
   172
1070
     1
1070
   271
1070
     0
1070
   279
1070
     0
1070
   288
1070
     1
1002
}
  0
LINE
  5
7CC7
330
19
100
AcDbEntity
  8
1
100
AcDbLine
 10
2474.542707882956
 20
7265.243035689239
 30
0.0
 11
1444.542707882956
 21
5945.24303568924
 31
0.0
  0
LINE
  5
7CC8
330
19
100
AcDbEntity
  8
1
100
AcDbLine
 10
1444.542707882956
 20
7265.243035689241
 30
0.0
 11
2474.542707882956
 21
5945.243035689241
 31
0.0
  0
LINE
  5
7CC9
330
19
100
AcDbEntity
  8
1
100
AcDbLine
 10
943.5427078829562
 20
6633.24303568924
 30
0.0
 11
1444.542707882956
 21
6633.24303568924
 31
0.0
  0
LINE
  5
7CCA
330
19
100
AcDbEntity
  8
1
100
AcDbLine
 10
2353.542707882956
 20
5717.743035689239
 30
0.0
 11
2353.542707882956
 21
5607.74303568924
 31
0.0
  0
LINE
  5
7CCB
330
19
100
AcDbEntity
  8
1
100
AcDbLine
 10
2478.542707882957
 20
5945.243035689241
 30
0.0
 11
2478.542707882957
 21
5717.74303568924
 31
0.0
  0
LINE
  5
7CCC
330
19
100
AcDbEntity
  8
1
100
AcDbLine
 10
2558.542707882956
 20
5945.243035689241
 30
0.0
 11
2558.542707882956
 21
5717.74303568924
 31
0.0
  0
LINE
  5
7CCD
330
19
100
AcDbEntity
  8
1
100
AcDbLine
 10
998.5427078829561
 20
5755.243035689241
 30
0.0
 11
998.5427078829561
 21
5525.243035689241
 31
0.0
  0
LINE
  5
7CCE
330
19
100
AcDbEntity
  8
1
100
AcDbLine
 10
1104.542707882956
 20
5717.74303568924
 30
0.0
 11
1104.542707882956
 21
5607.74303568924
 31
0.0
  0
LINE
  5
7CCF
330
19
100
AcDbEntity
  8
1
100
AcDbLine
 10
1332.542707882956
 20
5717.74303568924
 30
0.0
 11
1332.542707882956
 21
5607.74303568924
 31
0.0
  0
LINE
  5
7CD0
330
19
100
AcDbEntity
  8
2
100
AcDbLine
 10
1218.542707882956
 20
6322.243035689242
 30
0.0
 11
1218.542707882956
 21
5525.24303568924
 31
0.0
  0
LINE
  5
7CD1
330
19
100
AcDbEntity
  8
1
100
AcDbLine
 10
1104.542707882956
 20
5607.743035689241
 30
0.0
 11
1332.542707882956
 21
5607.743035689241
 31
0.0
  0
LINE
  5
7CD2
330
19
100
AcDbEntity
  8
1
100
AcDbLine
 10
1033.542707882956
 20
6322.243035689242
 30
0.0
 11
1403.542707882956
 21
6322.243035689242
 31
0.0
  0
LINE
  5
7CD3
330
19
100
AcDbEntity
  8
1
100
AcDbLine
 10
1033.542707882956
 20
5722.743035689242
 30
0.0
 11
1403.542707882956
 21
5722.743035689242
 31
0.0
  0
LINE
  5
7CD4
330
19
100
AcDbEntity
  8
1
100
AcDbLine
 10
1403.542707882956
 20
6322.243035689242
 30
0.0
 11
1403.542707882956
 21
5722.743035689242
 31
0.0
  0
LINE
  5
7CD5
330
19
100
AcDbEntity
  8
1
100
AcDbLine
 10
1104.542707882956
 20
5717.743035689241
 30
0.0
 11
1332.542707882956
 21
5717.743035689241
 31
0.0
  0
LINE
  5
7CD6
330
19
100
AcDbEntity
  8
1
100
AcDbLine
 10
1246.042707882956
 20
5722.743035689242
 30
0.0
 11
1246.042707882956
 21
5717.743035689241
 31
0.0
  0
LINE
  5
7CD7
330
19
100
AcDbEntity
  8
1
100
AcDbLine
 10
1191.042707882956
 20
5722.743035689242
 30
0.0
 11
1191.042707882956
 21
5717.743035689241
 31
0.0
  0
LINE
  5
7CD8
330
19
100
AcDbEntity
  8
1
100
AcDbLine
 10
1033.542707882956
 20
6322.243035689242
 30
0.0
 11
1033.542707882956
 21
5722.743035689242
 31
0.0
  0
LINE
  5
7CD9
330
19
100
AcDbEntity
  8
1
100
AcDbLine
 10
943.5427078829562
 20
6633.24303568924
 30
0.0
 11
943.5427078829562
 21
5683.24303568924
 31
0.0
  0
DIMENSION
  5
7CDC
330
19
100
AcDbEntity
  8
3
100
AcDbDimension
280
     0
  2
*D15
 10
5831.865026529398
 20
4493.836548453173
 30
0.0
 11
6231.865026529398
 21
4608.836548453173
 31
0.0
 70
    32
  1
(<>)
 71
     5
 42
800.0
 73
     0
 74
     0
 75
     0
  3
IGA
100
AcDbAlignedDimension
 13
6631.865026529398
 23
3348.962023773067
 33
0.0
 14
5831.865026529398
 24
4378.298507024885
 34
0.0
100
AcDbRotatedDimension
1001
ACAD
1000
DSTYLE
1002
{
1070
   287
1070
     3
1070
    40
1040
35.0
1070
   143
1040
0.039
1070
   172
1070
     1
1070
   271
1070
     0
1070
   279
1070
     0
1070
   288
1070
     1
1002
}
  0
DIMENSION
  5
7CDD
330
19
100
AcDbEntity
  8
3
100
AcDbDimension
280
     0
  2
*D16
 10
4752.365026529393
 20
4493.836548453173
 30
0.0
 11
5292.115026529395
 21
4608.836548453173
 31
0.0
 70
    32
  1
(<>)
 71
     5
 42
1079.500000000005
 73
     0
 74
     0
 75
     0
  3
IGA
100
AcDbAlignedDimension
 13
5831.865026529398
 23
4378.298507024885
 33
0.0
 14
4752.365026529393
 24
3671.162023773067
 34
0.0
100
AcDbRotatedDimension
1001
ACAD
1000
DSTYLE
1002
{
1070
   287
1070
     3
1070
    40
1040
35.0
1070
   143
1040
0.039
1070
   172
1070
     1
1070
   271
1070
     0
1070
   279
1070
     0
1070
   288
1070
     1
1002
}
  0
LINE
  5
7CDE
330
19
100
AcDbEntity
  8
1
100
AcDbLine
 10
3143.542707882956
 20
5945.243035689241
 30
0.0
 11
3143.542707882956
 21
5683.24303568924
 31
0.0
  0
LINE
  5
8072
330
19
100
AcDbEntity
  8
4
100
AcDbLine
 10
6475.0
 20
1411.801532643661
 30
0.0
 11
6475.0
 21
711.8015326436617
 31
0.0
  0
LINE
  5
8073
330
19
100
AcDbEntity
  8
4
100
AcDbLine
 10
4025.0
 20
1411.801532643661
 30
0.0
 11
4025.0
 21
711.8015326436617
 31
0.0
  0
LINE
  5
8074
330
19
100
AcDbEntity
  8
4
100
AcDbLine
 10
2275.0
 20
1411.801532643661
 30
0.0
 11
2275.0
 21
711.8015326436617
 31
0.0
  0
LINE
  5
8077
330
19
100
AcDbEntity
  8
4
100
AcDbLine
 10
2275.0
 20
711.8015326436616
 30
0.0
 11
6475.0
 21
711.8015326436616
 31
0.0
  0
LINE
  5
8078
330
19
100
AcDbEntity
  8
4
100
AcDbLine
 10
2275.0
 20
1061.801532643661
 30
0.0
 11
6475.0
 21
1061.801532643661
 31
0.0
  0
TEXT
  5
8079
330
19
100
AcDbEntity
  8
4
100
AcDbText
 10
2409.757282964156
 20
1172.202123176806
 30
0.0
 40
175.0
  1
機器名称
100
AcDbText
  0
TEXT
  5
807A
330
19
100
AcDbEntity
  8
4
100
AcDbText
 10
2401.903371086792
 20
787.5595812056999
 30
0.0
 40
175.0
  1
機器型番
100
AcDbText
  0
TEXT
  5
807B
330
19
100
AcDbEntity
  8
4
100
AcDbText
 10
4127.321178135882
 20
1138.68316184186
 30
0.0
 40
140.0
  1
ミツヤリミットロードファン
100
AcDbText
  0
TEXT
  5
807C
330
19
100
AcDbEntity
  8
4
100
AcDbText
 10
4153.290734549182
 20
771.8600776234634
 30
0.0
 40
175.0
  1
LL#6-5
100
AcDbText
  0
TEXT
  5
807E
330
19
100
AcDbEntity
  8
4
100
AcDbText
 10
2815.601111107805
 20
8342.000944663805
 30
0.0
 40
188.9999999999999
  1
床置ベット
100
AcDbText
  0
TEXT
  5
807F
330
19
100
AcDbEntity
  8
4
100
AcDbText
 10
1106.586576653062
 20
8868.583416697545
 30
0.0
 40
252.0
  1
遠心式両吸込両持リミットロードファン
100
AcDbText
  0
LINE
  5
8080
330
19
100
AcDbEntity
  8
4
100
AcDbLine
 10
875.0
 20
8642.930639926817
 30
0.0
 11
6475.0
 21
8642.930639926817
 31
0.0
  0
LINE
  5
8081
330
19
100
AcDbEntity
  8
4
100
AcDbLine
 10
875.0
 20
9342.930639926818
 30
0.0
 11
6475.0
 21
9342.930639926818
 31
0.0
  0
LINE
  5
8082
330
19
100
AcDbEntity
  8
4
100
AcDbLine
 10
2275.0
 20
1411.801532643661
 30
0.0
 11
6475.0
 21
1411.801532643661
 31
0.0
  0
LINE
  5
8083
330
19
100
AcDbEntity
  8
4
100
AcDbLine
 10
875.0
 20
9342.930639926818
 30
0.0
 11
875.0
 21
8642.930639926817
 31
0.0
  0
TEXT
  5
8084
330
19
100
AcDbEntity
  8
4
100
AcDbText
 10
1290.095198258346
 20
8338.118171412203
 30
0.0
 40
188.9999999999999
  1
右回転上向
100
AcDbText
  0
TEXT
  5
8085
330
19
100
AcDbEntity
  8
4
100
AcDbText
 10
5141.393457372515
 20
9471.21378523358
 30
0.0
 40
196.0
  1
No.
100
AcDbText
  0
TEXT
  5
8086
330
19
100
AcDbEntity
  8
4
100
AcDbText
 10
4589.536219100046
 20
8342.000944663805
 30
0.0
 40
188.9999999999999
  1
縮尺：1/35
100
AcDbText
  0
LINE
  5
8087
330
19
100
AcDbEntity
  8
4
100
AcDbLine
 10
6475.0
 20
9342.930639926818
 30
0.0
 11
6475.0
 21
8642.930639926817
 31
0.0
  0
LINE
  5
8088
330
19
100
AcDbEntity
  8
4
100
AcDbLine
 10
7350.0
 20
10325.0
 30
0.0
 11
7350.0
 21
10325.0
 31
0.0
  0
LINE
  5
8089
330
19
100
AcDbEntity
  8
4
100
AcDbLine
 10
5042.160978259526
 20
9384.422540938905
 30
0.0
 11
5042.160978259526
 21
9753.282915424135
 31
0.0
  0
LINE
  5
808A
330
19
100
AcDbEntity
  8
4
100
AcDbLine
 10
5042.160978259526
 20
9753.282915424135
 30
0.0
 11
6475.0
 21
9753.282915424135
 31
0.0
  0
LINE
  5
808B
330
19
100
AcDbEntity
  8
4
100
AcDbLine
 10
6475.0
 20
9753.282915424135
 30
0.0
 11
6475.0
 21
9384.422540938905
 31
0.0
  0
LINE
  5
808C
330
19
100
AcDbEntity
  8
4
100
AcDbLine
 10
6475.0
 20
9384.422540938905
 30
0.0
 11
5042.160978259526
 21
9384.422540938905
 31
0.0
  0
LINE
  5
808D
330
19
100
AcDbEntity
  8
4
100
AcDbLine
 10
0.0
 20
0.0
 30
0.0
 11
0.0
 21
10325.0
 31
0.0
  0
LINE
  5
808E
330
19
100
AcDbEntity
  8
4
100
AcDbLine
 10
0.0
 20
10325.0
 30
0.0
 11
7350.0
 21
10325.0
 31
0.0
  0
LINE
  5
808F
330
19
100
AcDbEntity
  8
4
100
AcDbLine
 10
7350.0
 20
10325.0
 30
0.0
 11
7350.0
 21
0.0
 31
0.0
  0
LINE
  5
8090
330
19
100
AcDbEntity
  8
4
100
AcDbLine
 10
7350.0
 20
0.0
 30
0.0
 11
0.0
 21
0.0
 31
0.0
  0
DIMENSION
  5
817D
330
19
100
AcDbEntity
  8
3
100
AcDbDimension
280
     0
  2
*D17
 10
2518.542707882954
 20
2287.478934851213
 30
0.0
 11
1731.042707882955
 21
2374.978934851213
 31
0.0
 70
    32
 71
     5
 42
-1.0
 73
     0
 74
     0
 75
     0
  3
IGA
100
AcDbAlignedDimension
 13
943.5427078829553
 23
2496.162023773068
 33
0.0
 14
2518.542707882954
 24
2496.162023773067
 34
0.0
100
AcDbRotatedDimension
1001
ACAD
1000
DSTYLE
1002
{
1070
   172
1070
     1
1070
    40
1040
35.0
1070
   271
1070
     0
1070
   143
1040
0.039
1002
}
  0
DIMENSION
  5
818A
330
19
100
AcDbEntity
  8
3
100
AcDbDimension
280
     0
  2
*D18
 10
3143.542707882956
 20
2287.478934851213
 30
0.0
 11
2831.042707882955
 21
2374.978934851213
 31
0.0
 70
    32
 71
     5
 42
-1.0
 73
     0
 74
     0
 75
     0
  3
IGA
100
AcDbAlignedDimension
 13
2518.542707882954
 23
2496.162023773067
 33
0.0
 14
3143.542707882956
 24
2496.162023773068
 34
0.0
100
AcDbRotatedDimension
1001
ACAD
1000
DSTYLE
1002
{
1070
   172
1070
     1
1070
    40
1040
35.0
1070
   271
1070
     0
1070
   143
1040
0.039
1002
}
  0
DIMENSION
  5
8197
330
19
100
AcDbEntity
  8
3
100
AcDbDimension
280
     0
  2
*D19
 10
5831.865026529398
 20
2287.478934851213
 30
0.0
 11
5370.865026529398
 21
2374.978934851213
 31
0.0
 70
    32
 71
     5
 42
-1.0
 73
     0
 74
     0
 75
     0
  3
IGA
100
AcDbAlignedDimension
 13
4909.865026529399
 23
2496.162023773067
 33
0.0
 14
5831.865026529398
 24
2496.162023773067
 34
0.0
100
AcDbRotatedDimension
1001
ACAD
1000
DSTYLE
1002
{
1070
   172
1070
     1
1070
    40
1040
35.0
1070
   271
1070
     0
1070
   143
1040
0.039
1002
}
  0
DIMENSION
  5
81A4
330
19
100
AcDbEntity
  8
3
100
AcDbDimension
280
     0
  2
*D20
 10
6559.865026529398
 20
2287.478934851213
 30
0.0
 11
6195.865026529398
 21
2374.978934851213
 31
0.0
 70
    32
 71
     5
 42
-1.0
 73
     0
 74
     0
 75
     0
  3
IGA
100
AcDbAlignedDimension
 13
5831.865026529398
 23
2496.162023773067
 33
0.0
 14
6559.865026529398
 24
2496.162023773067
 34
0.0
100
AcDbRotatedDimension
1001
ACAD
1000
DSTYLE
1002
{
1070
   172
1070
     1
1070
    40
1040
35.0
1070
   271
1070
     0
1070
   143
1040
0.039
1002
}
  0
DIMENSION
  5
81B1
330
19
100
AcDbEntity
  8
3
100
AcDbDimension
280
     0
  2
*D21
 10
3702.054513261253
 20
2496.162023773068
 30
0.0
 11
3614.554513261253
 21
3283.662023773068
 31
0.0
 70
    32
 71
     5
 42
-1.0
 73
     0
 74
     0
 75
     0
  3
IGA
100
AcDbAlignedDimension
 13
2527.542707882955
 23
4071.162023773069
 33
0.0
 14
3143.542707882956
 24
2496.162023773068
 34
0.0
 50
90.0
100
AcDbRotatedDimension
1001
ACAD
1000
DSTYLE
1002
{
1070
   172
1070
     1
1070
    40
1040
35.0
1070
   271
1070
     0
1070
   143
1040
0.039
1002
}
  0
ENDSEC
  0
SECTION
  2
OBJECTS
  0
DICTIONARY
  5
C
330
0
100
AcDbDictionary
281
     1
  3
ACAD_CIP_PREVIOUS_PRODUCT_INFO
350
82CA
  3
ACAD_COLOR
350
82AD
  3
ACAD_DETAILVIEWSTYLE
350
82C6
  3
ACAD_GROUP
350
D
  3
ACAD_LAYOUT
350
81BA
  3
ACAD_MATERIAL
350
827B
  3
ACAD_MLEADERSTYLE
350
82C2
  3
ACAD_MLINESTYLE
350
E
  3
ACAD_PLOTSETTINGS
350
81BB
  3
ACAD_PLOTSTYLENAME
350
81B8
  3
ACAD_SCALELIST
350
82B0
  3
ACAD_SECTIONVIEWSTYLE
350
82C4
  3
ACAD_TABLESTYLE
350
82AE
  3
ACAD_VISUALSTYLE
350
8294
  3
ACDB_RECOMPOSE_DATA
350
832D
  3
AcDbVariableDictionary
350
8272
  3
AcDsDecomposeData
350
8333
  0
DICTIONARY
  5
8311
330
2
100
AcDbDictionary
280
     1
281
     1
  3
ACAD_LAYERSTATES
360
8312
  0
DICTIONARY
  5
8304
330
F
100
AcDbDictionary
280
     1
281
     1
  3
ADSK_XREC_LAYER_RECONCILED
360
8305
  0
DICTIONARY
  5
8306
330
31
100
AcDbDictionary
280
     1
281
     1
  3
ADSK_XREC_LAYER_RECONCILED
360
8307
  0
DICTIONARY
  5
8308
330
76D0
100
AcDbDictionary
280
     1
281
     1
  3
ADSK_XREC_LAYER_RECONCILED
360
8309
  0
DICTIONARY
  5
830A
330
76D1
100
AcDbDictionary
280
     1
281
     1
  3
ADSK_XREC_LAYER_RECONCILED
360
830B
  0
DICTIONARY
  5
830C
330
76D2
100
AcDbDictionary
280
     1
281
     1
  3
ADSK_XREC_LAYER_RECONCILED
360
830D
  0
DICTIONARY
  5
81E7
330
19
100
AcDbDictionary
280
     1
281
     1
  3
ACAD_LAYOUTSELFREF
360
81E8
  0
DICTIONARY
  5
81E5
330
16
100
AcDbDictionary
280
     1
281
     1
  3
ACAD_LAYOUTSELFREF
360
81E6
  0
XRECORD
  5
82CA
102
{ACAD_REACTORS
330
C
102
}
330
C
100
AcDbXrecord
280
     1
300
ACDLT
300
2023
300

  0
DICTIONARY
  5
82AD
102
{ACAD_REACTORS
330
C
102
}
330
C
100
AcDbDictionary
281
     1
  0
DICTIONARY
  5
82C6
102
{ACAD_REACTORS
330
C
102
}
330
C
100
AcDbDictionary
281
     1
  3
Metric50
350
82C7
  0
DICTIONARY
  5
D
102
{ACAD_REACTORS
330
C
102
}
330
C
100
AcDbDictionary
281
     1
  0
DICTIONARY
  5
81BA
102
{ACAD_REACTORS
330
C
102
}
330
C
100
AcDbDictionary
281
     1
  3
Model
350
81BC
  3
ﾚｲｱｳﾄ1
350
81BD
  0
DICTIONARY
  5
827B
102
{ACAD_REACTORS
330
C
102
}
330
C
100
AcDbDictionary
281
     1
  3
ByBlock
350
8284
  3
ByLayer
350
827C
  3
Global
350
828C
  0
DICTIONARY
  5
82C2
102
{ACAD_REACTORS
330
C
102
}
330
C
100
AcDbDictionary
281
     1
  3
Standard
350
82C3
  0
DICTIONARY
  5
E
102
{ACAD_REACTORS
330
C
102
}
330
C
100
AcDbDictionary
281
     1
  3
STANDARD
350
1C
  0
DICTIONARY
  5
81BB
102
{ACAD_REACTORS
330
C
102
}
330
C
100
AcDbDictionary
281
     1
  0
ACDBDICTIONARYWDFLT
  5
81B8
102
{ACAD_REACTORS
330
C
102
}
330
C
100
AcDbDictionary
281
     1
  3
Normal
350
81B9
100
AcDbDictionaryWithDefault
340
81B9
  0
DICTIONARY
  5
82B0
102
{ACAD_REACTORS
330
C
102
}
330
C
100
AcDbDictionary
281
     1
  3
A0
350
82B1
  3
A1
350
82B2
  3
A2
350
82B3
  3
A3
350
82B4
  3
A4
350
82B5
  3
A5
350
82B6
  3
A6
350
82B7
  3
A7
350
82B8
  3
A8
350
82B9
  3
A9
350
82BA
  3
B0
350
82BB
  3
B1
350
82BC
  3
B2
350
82BD
  3
B3
350
82BE
  3
B4
350
82BF
  3
B5
350
82C0
  3
B6
350
82C1
  0
DICTIONARY
  5
82C4
102
{ACAD_REACTORS
330
C
102
}
330
C
100
AcDbDictionary
281
     1
  3
Metric50
350
82C5
  0
DICTIONARY
  5
82AE
102
{ACAD_REACTORS
330
C
102
}
330
C
100
AcDbDictionary
281
     1
  3
Standard
350
82AF
  0
DICTIONARY
  5
8294
102
{ACAD_REACTORS
330
C
102
}
330
C
100
AcDbDictionary
281
     1
  3
2dWireframe
350
829A
  3
Basic
350
8299
  3
Brighten
350
82A0
  3
ColorChange
350
82A4
  3
Conceptual
350
829D
  3
Dim
350
829F
  3
EdgeColorOff
350
82AC
  3
Facepattern
350
82A3
  3
Flat
350
8295
  3
FlatWithEdges
350
8296
  3
Gouraud
350
8297
  3
GouraudWithEdges
350
8298
  3
Hidden
350
829C
  3
JitterOff
350
82AA
  3
Linepattern
350
82A2
  3
OverhangOff
350
82AB
  3
Realistic
350
829E
  3
Shaded
350
82A9
  3
Shaded with edges
350
82A8
  3
Shades of Gray
350
82A5
  3
Sketchy
350
82A6
  3
Thicken
350
82A1
  3
Wireframe
350
829B
  3
X-Ray
350
82A7
  0
XRECORD
  5
832D
102
{ACAD_REACTORS
330
C
102
}
330
C
100
AcDbXrecord
280
     1
 90
        1
330
82AF
  0
DICTIONARY
  5
8272
102
{ACAD_REACTORS
330
C
102
}
330
C
100
AcDbDictionary
281
     1
  3
CANNOSCALE
350
8322
  3
CMLEADERSTYLE
350
831E
  3
CTABLESTYLE
350
831D
  3
CVIEWDETAILSTYLE
350
831F
  3
CVIEWSECTIONSTYLE
350
8320
  3
DIMASSOC
350
8273
  3
LAYEREVAL
350
8324
  3
LAYERNOTIFY
350
8325
  3
LIGHTINGUNITS
350
8323
  3
MARKUPASSISTMODE
350
832A
  3
MSLTSCALE
350
8321
  0
DICTIONARY
  5
8333
102
{ACAD_REACTORS
330
C
102
}
330
C
100
AcDbDictionary
281
     1
  3
AcDsRecords
350
8335
  3
AcDsSchemas
350
8334
1001
ACAD
1070
     2
  0
DICTIONARY
  5
8312
102
{ACAD_REACTORS
330
8311
102
}
330
8311
100
AcDbDictionary
281
     1
  0
XRECORD
  5
8305
102
{ACAD_REACTORS
330
8304
102
}
330
8304
100
AcDbXrecord
280
     1
290
     1
  0
XRECORD
  5
8307
102
{ACAD_REACTORS
330
8306
102
}
330
8306
100
AcDbXrecord
280
     1
290
     1
  0
XRECORD
  5
8309
102
{ACAD_REACTORS
330
8308
102
}
330
8308
100
AcDbXrecord
280
     1
290
     1
  0
XRECORD
  5
830B
102
{ACAD_REACTORS
330
830A
102
}
330
830A
100
AcDbXrecord
280
     1
290
     1
  0
XRECORD
  5
830D
102
{ACAD_REACTORS
330
830C
102
}
330
830C
100
AcDbXrecord
280
     1
290
     1
  0
XRECORD
  5
81E8
102
{ACAD_REACTORS
330
81E7
102
}
330
81E7
100
AcDbXrecord
280
     1
340
19
  0
XRECORD
  5
81E6
102
{ACAD_REACTORS
330
81E5
102
}
330
81E5
100
AcDbXrecord
280
     1
340
16
  0
ACDBDETAILVIEWSTYLE
  5
82C7
102
{ACAD_XDICTIONARY
360
8338
102
}
102
{ACAD_REACTORS
330
82C6
102
}
330
82C6
100
AcDbModelDocViewStyle
 70
     0
  3
Metric50
290
     0
100
AcDbDetailViewStyle
 70
     0
 71
     0
 90
        3
 71
     1
340
10
 62
   256
 40
5.0
340
0
 62
   256
 40
5.0
300

 40
0.0
280
     1
 71
     2
340
15
 90
       25
 62
   256
 71
     3
340
10
 62
   256
 40
5.0
 90
        0
 40
15.0
 90
        1
300
%<\AcVar ViewDetailId>% (%<\AcVar ViewScale \f "%sn">%)
 71
     4
340
15
 90
       25
 62
   256
340
15
 90
       25
 62
   256
280
     0
  0
LAYOUT
  5
81BC
102
{ACAD_REACTORS
330
81BA
102
}
330
81BA
100
AcDbPlotSettings
  1

  2
\\Txbo34x8944cqyd\EPSON LP-6100
  4

  6

 40
0.0
 41
0.0
 42
0.0
 43
0.0
 44
0.0
 45
0.0
 46
0.0
 47
0.0
 48
0.0
 49
0.0
140
0.0
141
0.0
142
1.0
143
1.0
 70
  1712
 72
     0
 73
     0
 74
     0
  7
GOD2000TABLE.ctb
 75
     0
147
1.0
 76
     0
 77
     2
 78
   300
148
0.0
149
0.0
100
AcDbLayout
  1
Model
 70
     1
 71
     0
 10
0.0
 20
0.0
 11
12.0
 21
9.0
 12
0.0
 22
0.0
 32
0.0
 14
0.0
 24
0.0
 34
0.0
 15
0.0
 25
0.0
 35
0.0
146
0.0
 13
0.0
 23
0.0
 33
0.0
 16
1.0
 26
0.0
 36
0.0
 17
0.0
 27
1.0
 37
0.0
 76
     0
330
19
331
8279
  0
LAYOUT
  5
81BD
102
{ACAD_REACTORS
330
81BA
102
}
330
81BA
100
AcDbPlotSettings
  1

  2
\\Txbo34x8944cqyd\EPSON LP-6100
  4

  6

 40
0.0
 41
0.0
 42
0.0
 43
0.0
 44
0.0
 45
0.0
 46
0.0
 47
0.0
 48
0.0
 49
0.0
140
0.0
141
0.0
142
1.0
143
1.0
 70
   688
 72
     0
 73
     0
 74
     5
  7
GOD2000TABLE.ctb
 75
    16
147
1.0
 76
     0
 77
     2
 78
   300
148
0.0
149
0.0
100
AcDbLayout
  1
ﾚｲｱｳﾄ1
 70
     1
 71
     1
 10
0.0
 20
0.0
 11
12.0
 21
9.0
 12
0.0
 22
0.0
 32
0.0
 14
1.000000000000000E+20
 24
1.000000000000000E+20
 34
1.000000000000000E+20
 15
-1.000000000000000E+20
 25
-1.000000000000000E+20
 35
-1.000000000000000E+20
146
0.0
 13
0.0
 23
0.0
 33
0.0
 16
1.0
 26
0.0
 36
0.0
 17
0.0
 27
1.0
 37
0.0
 76
     0
330
16
  0
MATERIAL
  5
8284
102
{ACAD_XDICTIONARY
360
8285
102
}
102
{ACAD_REACTORS
330
827B
102
}
330
827B
100
AcDbMaterial
  1
ByBlock
 72
     0
 43
0.0208333333333333
 43
0.0
 43
0.0
 43
0.0
 43
0.0
 43
0.0208333333333333
 43
0.0
 43
0.0
 43
0.0
 43
0.0
 43
1.0
 43
0.0
 43
0.0
 43
0.0
 43
0.0
 43
1.0
 77
     0
 47
0.0208333333333333
 47
0.0
 47
0.0
 47
0.0
 47
0.0
 47
0.0208333333333333
 47
0.0
 47
0.0
 47
0.0
 47
0.0
 47
1.0
 47
0.0
 47
0.0
 47
0.0
 47
0.0
 47
1.0
171
     0
 49
0.0208333333333333
 49
0.0
 49
0.0
 49
0.0
 49
0.0
 49
0.0208333333333333
 49
0.0
 49
0.0
 49
0.0
 49
0.0
 49
1.0
 49
0.0
 49
0.0
 49
0.0
 49
0.0
 49
1.0
175
     0
142
0.0208333333333333
142
0.0
142
0.0
142
0.0
142
0.0
142
0.0208333333333333
142
0.0
142
0.0
142
0.0
142
0.0
142
1.0
142
0.0
142
0.0
142
0.0
142
0.0
142
1.0
179
     0
144
0.0208333333333333
144
0.0
144
0.0
144
0.0
144
0.0
144
0.0208333333333333
144
0.0
144
0.0
144
0.0
144
0.0
144
1.0
144
0.0
144
0.0
144
0.0
144
0.0
144
1.0
147
0.0208333333333333
147
0.0
147
0.0
147
0.0
147
0.0
147
0.0208333333333333
147
0.0
147
0.0
147
0.0
147
0.0
147
1.0
147
0.0
147
0.0
147
0.0
147
0.0
147
1.0
  0
MATERIAL
  5
827C
102
{ACAD_XDICTIONARY
360
827D
102
}
102
{ACAD_REACTORS
330
827B
102
}
330
827B
100
AcDbMaterial
  1
ByLayer
 72
     0
 43
0.0208333333333333
 43
0.0
 43
0.0
 43
0.0
 43
0.0
 43
0.0208333333333333
 43
0.0
 43
0.0
 43
0.0
 43
0.0
 43
1.0
 43
0.0
 43
0.0
 43
0.0
 43
0.0
 43
1.0
 77
     0
 47
0.0208333333333333
 47
0.0
 47
0.0
 47
0.0
 47
0.0
 47
0.0208333333333333
 47
0.0
 47
0.0
 47
0.0
 47
0.0
 47
1.0
 47
0.0
 47
0.0
 47
0.0
 47
0.0
 47
1.0
171
     0
 49
0.0208333333333333
 49
0.0
 49
0.0
 49
0.0
 49
0.0
 49
0.0208333333333333
 49
0.0
 49
0.0
 49
0.0
 49
0.0
 49
1.0
 49
0.0
 49
0.0
 49
0.0
 49
0.0
 49
1.0
175
     0
142
0.0208333333333333
142
0.0
142
0.0
142
0.0
142
0.0
142
0.0208333333333333
142
0.0
142
0.0
142
0.0
142
0.0
142
1.0
142
0.0
142
0.0
142
0.0
142
0.0
142
1.0
179
     0
144
0.0208333333333333
144
0.0
144
0.0
144
0.0
144
0.0
144
0.0208333333333333
144
0.0
144
0.0
144
0.0
144
0.0
144
1.0
144
0.0
144
0.0
144
0.0
144
0.0
144
1.0
147
0.0208333333333333
147
0.0
147
0.0
147
0.0
147
0.0
147
0.0208333333333333
147
0.0
147
0.0
147
0.0
147
0.0
147
1.0
147
0.0
147
0.0
147
0.0
147
0.0
147
1.0
  0
MATERIAL
  5
828C
102
{ACAD_XDICTIONARY
360
828D
102
}
102
{ACAD_REACTORS
330
827B
102
}
330
827B
100
AcDbMaterial
  1
Global
 72
     0
 43
0.0208333333333333
 43
0.0
 43
0.0
 43
0.0
 43
0.0
 43
0.0208333333333333
 43
0.0
 43
0.0
 43
0.0
 43
0.0
 43
1.0
 43
0.0
 43
0.0
 43
0.0
 43
0.0
 43
1.0
 77
     0
 47
0.0208333333333333
 47
0.0
 47
0.0
 47
0.0
 47
0.0
 47
0.0208333333333333
 47
0.0
 47
0.0
 47
0.0
 47
0.0
 47
1.0
 47
0.0
 47
0.0
 47
0.0
 47
0.0
 47
1.0
171
     0
 49
0.0208333333333333
 49
0.0
 49
0.0
 49
0.0
 49
0.0
 49
0.0208333333333333
 49
0.0
 49
0.0
 49
0.0
 49
0.0
 49
1.0
 49
0.0
 49
0.0
 49
0.0
 49
0.0
 49
1.0
175
     0
142
0.0208333333333333
142
0.0
142
0.0
142
0.0
142
0.0
142
0.0208333333333333
142
0.0
142
0.0
142
0.0
142
0.0
142
1.0
142
0.0
142
0.0
142
0.0
142
0.0
142
1.0
179
     0
144
0.0208333333333333
144
0.0
144
0.0
144
0.0
144
0.0
144
0.0208333333333333
144
0.0
144
0.0
144
0.0
144
0.0
144
1.0
144
0.0
144
0.0
144
0.0
144
0.0
144
1.0
147
0.0208333333333333
147
0.0
147
0.0
147
0.0
147
0.0
147
0.0208333333333333
147
0.0
147
0.0
147
0.0
147
0.0
147
1.0
147
0.0
147
0.0
147
0.0
147
0.0
147
1.0
  0
MLEADERSTYLE
  5
82C3
102
{ACAD_REACTORS
330
82C2
102
}
330
82C2
100
AcDbMLeaderStyle
179
     2
170
     2
171
     1
172
     0
 90
        2
 40
0.0
 41
0.0
173
     1
 91
-1056964608
340
13
 92
       -2
290
     1
 42
2.0
291
     1
 43
0.36
  3
Standard
 44
4.0
300

342
10
174
     1
178
     6
175
     1
176
     0
 93
-1056964608
 45
4.0
292
     0
297
     0
 46
4.0
 94
-1056964608
 47
1.0
 49
1.0
140
1.0
293
     1
141
0.0
294
     1
177
     0
142
1.0
295
     0
296
     0
143
0.125
271
     0
272
     9
273
     9
298
     1
  0
MLINESTYLE
  5
1C
102
{ACAD_REACTORS
330
E
102
}
330
E
100
AcDbMlineStyle
  2
STANDARD
 70
     0
  3

 62
     0
 51
90.0
 52
90.0
 71
     2
 49
0.5
 62
   256
  6
BYLAYER
 49
-0.5
 62
   256
  6
BYLAYER
  0
ACDBPLACEHOLDER
  5
81B9
102
{ACAD_REACTORS
330
81B8
102
}
330
81B8
  0
SCALE
  5
82B1
102
{ACAD_REACTORS
330
82B0
102
}
330
82B0
100
AcDbScale
 70
     0
300
1:1
140
1.0
141
1.0
290
     1
  0
SCALE
  5
82B2
102
{ACAD_REACTORS
330
82B0
102
}
330
82B0
100
AcDbScale
 70
     0
300
1:2
140
1.0
141
2.0
290
     0
  0
SCALE
  5
82B3
102
{ACAD_REACTORS
330
82B0
102
}
330
82B0
100
AcDbScale
 70
     0
300
1:4
140
1.0
141
4.0
290
     0
  0
SCALE
  5
82B4
102
{ACAD_REACTORS
330
82B0
102
}
330
82B0
100
AcDbScale
 70
     0
300
1:5
140
1.0
141
5.0
290
     0
  0
SCALE
  5
82B5
102
{ACAD_REACTORS
330
82B0
102
}
330
82B0
100
AcDbScale
 70
     0
300
1:8
140
1.0
141
8.0
290
     0
  0
SCALE
  5
82B6
102
{ACAD_REACTORS
330
82B0
102
}
330
82B0
100
AcDbScale
 70
     0
300
1:10
140
1.0
141
10.0
290
     0
  0
SCALE
  5
82B7
102
{ACAD_REACTORS
330
82B0
102
}
330
82B0
100
AcDbScale
 70
     0
300
1:16
140
1.0
141
16.0
290
     0
  0
SCALE
  5
82B8
102
{ACAD_REACTORS
330
82B0
102
}
330
82B0
100
AcDbScale
 70
     0
300
1:20
140
1.0
141
20.0
290
     0
  0
SCALE
  5
82B9
102
{ACAD_REACTORS
330
82B0
102
}
330
82B0
100
AcDbScale
 70
     0
300
1:30
140
1.0
141
30.0
290
     0
  0
SCALE
  5
82BA
102
{ACAD_REACTORS
330
82B0
102
}
330
82B0
100
AcDbScale
 70
     0
300
1:40
140
1.0
141
40.0
290
     0
  0
SCALE
  5
82BB
102
{ACAD_REACTORS
330
82B0
102
}
330
82B0
100
AcDbScale
 70
     0
300
1:50
140
1.0
141
50.0
290
     0
  0
SCALE
  5
82BC
102
{ACAD_REACTORS
330
82B0
102
}
330
82B0
100
AcDbScale
 70
     0
300
1:100
140
1.0
141
100.0
290
     0
  0
SCALE
  5
82BD
102
{ACAD_REACTORS
330
82B0
102
}
330
82B0
100
AcDbScale
 70
     0
300
2:1
140
2.0
141
1.0
290
     0
  0
SCALE
  5
82BE
102
{ACAD_REACTORS
330
82B0
102
}
330
82B0
100
AcDbScale
 70
     0
300
4:1
140
4.0
141
1.0
290
     0
  0
SCALE
  5
82BF
102
{ACAD_REACTORS
330
82B0
102
}
330
82B0
100
AcDbScale
 70
     0
300
8:1
140
8.0
141
1.0
290
     0
  0
SCALE
  5
82C0
102
{ACAD_REACTORS
330
82B0
102
}
330
82B0
100
AcDbScale
 70
     0
300
10:1
140
10.0
141
1.0
290
     0
  0
SCALE
  5
82C1
102
{ACAD_REACTORS
330
82B0
102
}
330
82B0
100
AcDbScale
 70
     0
300
100:1
140
100.0
141
1.0
290
     0
  0
ACDBSECTIONVIEWSTYLE
  5
82C5
102
{ACAD_XDICTIONARY
360
8336
102
}
102
{ACAD_REACTORS
330
82C4
102
}
330
82C4
100
AcDbModelDocViewStyle
 70
     0
  3
Metric50
290
     0
100
AcDbSectionViewStyle
 70
     0
 71
     0
 90
      102
 71
     1
340
10
 62
   256
 40
5.0
340
0
340
0
 62
   256
 40
5.0
300
I, O, Q, S, X, Z
 40
10.0
 90
        0
 40
2.5
 90
        0
 71
     2
340
15
 90
       25
 62
   256
340
15
 90
       50
 62
   256
 40
5.0
 40
2.5
 40
5.0
 71
     3
340
10
 62
   256
 40
5.0
 90
        0
 40
15.0
 90
        1
300
%<\AcVar ViewSectionStartId>%-%<\AcVar ViewSectionEndId>% (%<\AcVar ViewScale \f "%sn">%)
 71
     4
 62
   256
 62
   257
300
ANSI31
 40
1.0
 90
        0
290
     0
290
     0
 90
        6
 40
0.0
 40
1.570796326794896
 40
0.2617993877991494
 40
1.308996938995747
 40
-0.2617993877991494
 40
1.832595714594046
  0
TABLESTYLE
  5
82AF
102
{ACAD_XDICTIONARY
360
832B
102
}
102
{ACAD_REACTORS
330
82AE
102
}
330
82AE
100
AcDbTableStyle
280
     0
  3
Standard
 70
     0
 71
     0
 40
1.5
 41
1.5
280
     0
281
     0
  7
STANDARD
140
4.5
170
     2
 62
     0
 63
     7
283
     0
 90
      512
 91
        0
  1

274
    -2
284
     1
 64
     0
275
    -2
285
     1
 65
     0
276
    -2
286
     1
 66
     0
277
    -2
287
     1
 67
     0
278
    -2
288
     1
 68
     0
279
    -2
289
     1
 69
     0
  7
STANDARD
140
6.0
170
     5
 62
     0
 63
     7
283
     0
 90
      512
 91
        0
  1

274
    -2
284
     1
 64
     0
275
    -2
285
     1
 65
     0
276
    -2
286
     1
 66
     0
277
    -2
287
     1
 67
     0
278
    -2
288
     1
 68
     0
279
    -2
289
     1
 69
     0
  7
STANDARD
140
4.5
170
     5
 62
     0
 63
     7
283
     0
 90
      512
 91
        0
  1

274
    -2
284
     1
 64
     0
275
    -2
285
     1
 65
     0
276
    -2
286
     1
 66
     0
277
    -2
287
     1
 67
     0
278
    -2
288
     1
 68
     0
279
    -2
289
     1
 69
     0
  0
VISUALSTYLE
  5
829A
102
{ACAD_REACTORS
330
8294
102
}
330
8294
100
AcDbVisualStyle
  2
2dWireframe
 70
     4
177
     3
291
     0
 70
    58
 90
        0
176
     1
 90
        2
176
     1
 90
        0
176
     1
 90
        0
176
     1
 40
0.6
176
     1
 40
30.0
176
     1
 62
     7
420
 16777215
176
     1
 90
        1
176
     1
 90
        4
176
     1
 62
     7
176
     1
 62
   257
176
     1
 90
        1
176
     1
 90
        1
176
     1
 40
1.0
176
     1
 90
        0
176
     1
 62
   257
176
     1
 40
1.0
176
     1
 90
        1
176
     1
 90
        6
176
     1
 90
        2
176
     1
 62
     7
176
     1
 90
        5
176
     1
 90
        0
176
     1
 90
        0
176
     1
290
     0
176
     1
 90
        1
176
     1
 40
0.0
176
     1
 90
        0
176
     1
290
     1
176
     1
290
     1
176
     1
290
     0
176
     1
290
     0
176
     1
290
     0
176
     1
290
     0
176
     1
290
     0
176
     1
290
     0
176
     1
290
     0
176
     1
 90
       50
176
     1
 40
0.0
176
     1
 40
1.0
176
     1
 90
        0
176
     1
 62
    18
420
        0
176
     1
 90
       50
176
     1
 90
        3
176
     1
 62
     5
420
      255
176
     1
290
     0
176
     1
 90
       50
176
     1
 90
       50
176
     1
 90
       50
176
     1
290
     0
176
     1
 90
       50
176
     1
 62
   256
176
     0
 40
1.0
176
     0
 90
        2
176
     1
  1
strokes_ogs.tif
176
     1
290
     0
176
     1
 40
1.0
176
     1
 40
1.0
176
     1
1001
ACAD
1000
AcDbSavedByObjectVersion
1070
     0
  0
VISUALSTYLE
  5
8299
102
{ACAD_REACTORS
330
8294
102
}
330
8294
100
AcDbVisualStyle
  2
Basic
 70
     7
177
     3
291
     1
 70
    58
 90
        1
176
     1
 90
        0
176
     1
 90
        1
176
     1
 90
        0
176
     1
 40
0.6
176
     1
 40
30.0
176
     1
 62
     7
420
 16777215
176
     1
 90
        0
176
     1
 90
        4
176
     1
 62
     7
176
     1
 62
   257
176
     1
 90
        1
176
     1
 90
        1
176
     1
 40
1.0
176
     1
 90
        8
176
     1
 62
     7
176
     1
 40
1.0
176
     1
 90
        1
176
     1
 90
        6
176
     1
 90
        2
176
     1
 62
     7
176
     1
 90
        5
176
     1
 90
        0
176
     1
 90
        0
176
     1
290
     0
176
     1
 90
        1
176
     1
 40
0.0
176
     1
 90
        0
176
     1
290
     0
176
     1
290
     1
176
     1
290
     1
176
     1
290
     0
176
     1
290
     0
176
     1
290
     0
176
     1
290
     0
176
     1
290
     0
176
     1
290
     0
176
     1
 90
       50
176
     1
 40
0.0
176
     1
 40
1.0
176
     1
 90
        0
176
     1
 62
    18
420
        0
176
     1
 90
       50
176
     1
 90
        3
176
     1
 62
     5
420
      255
176
     1
290
     0
176
     1
 90
       50
176
     1
 90
       50
176
     1
 90
       50
176
     1
290
     0
176
     1
 90
       50
176
     1
 62
   256
176
     0
 40
1.0
176
     0
 90
        2
176
     1
  1
strokes_ogs.tif
176
     1
290
     0
176
     1
 40
1.0
176
     1
 40
1.0
176
     1
1001
ACAD
1000
AcDbSavedByObjectVersion
1070
     0
  0
VISUALSTYLE
  5
82A0
102
{ACAD_REACTORS
330
8294
102
}
330
8294
100
AcDbVisualStyle
  2
Brighten
 70
    12
177
     3
291
     1
 70
    58
 90
        2
176
     1
 90
        2
176
     1
 90
        0
176
     1
 90
        0
176
     1
 40
0.6
176
     1
 40
30.0
176
     1
 62
     7
420
 16777215
176
     1
 90
        1
176
     1
 90
        4
176
     1
 62
     7
176
     1
 62
   257
176
     1
 90
        1
176
     1
 90
        1
176
     1
 40
1.0
176
     1
 90
        8
176
     1
 62
     7
176
     1
 40
1.0
176
     1
 90
        1
176
     1
 90
        6
176
     1
 90
        2
176
     1
 62
     7
176
     1
 90
        5
176
     1
 90
        0
176
     1
 90
        0
176
     1
290
     0
176
     1
 90
        1
176
     1
 40
50.0
176
     1
 90
        0
176
     1
290
     0
176
     1
290
     1
176
     1
290
     1
176
     1
290
     0
176
     1
290
     0
176
     1
290
     0
176
     1
290
     0
176
     1
290
     0
176
     1
290
     0
176
     1
 90
       50
176
     1
 40
0.0
176
     1
 40
1.0
176
     1
 90
        0
176
     1
 62
    18
420
        0
176
     1
 90
       50
176
     1
 90
        3
176
     1
 62
     5
420
      255
176
     1
290
     0
176
     1
 90
       50
176
     1
 90
       50
176
     1
 90
       50
176
     1
290
     0
176
     1
 90
       50
176
     1
 62
   256
176
     0
 40
1.0
176
     0
 90
        2
176
     1
  1
strokes_ogs.tif
176
     1
290
     0
176
     1
 40
1.0
176
     1
 40
1.0
176
     1
1001
ACAD
1000
AcDbSavedByObjectVersion
1070
     0
  0
VISUALSTYLE
  5
82A4
102
{ACAD_REACTORS
330
8294
102
}
330
8294
100
AcDbVisualStyle
  2
ColorChange
 70
    16
177
     3
291
     1
 70
    58
 90
        2
176
     1
 90
        2
176
     1
 90
        3
176
     1
 90
        0
176
     1
 40
0.6
176
     1
 40
30.0
176
     1
 62
     8
420
  8421504
176
     1
 90
        1
176
     1
 90
        4
176
     1
 62
     7
176
     1
 62
   257
176
     1
 90
        1
176
     1
 90
        1
176
     1
 40
1.0
176
     1
 90
        8
176
     1
 62
     8
420
  8421504
176
     1
 40
1.0
176
     1
 90
        1
176
     1
 90
        6
176
     1
 90
        2
176
     1
 62
     7
176
     1
 90
        5
176
     1
 90
        0
176
     1
 90
        0
176
     1
290
     0
176
     1
 90
        1
176
     1
 40
0.0
176
     1
 90
        0
176
     1
290
     0
176
     1
290
     1
176
     1
290
     1
176
     1
290
     0
176
     1
290
     0
176
     1
290
     0
176
     1
290
     0
176
     1
290
     0
176
     1
290
     0
176
     1
 90
       50
176
     1
 40
0.0
176
     1
 40
1.0
176
     1
 90
        0
176
     1
 62
    18
420
        0
176
     1
 90
       50
176
     1
 90
        3
176
     1
 62
     5
420
      255
176
     1
290
     0
176
     1
 90
       50
176
     1
 90
       50
176
     1
 90
       50
176
     1
290
     0
176
     1
 90
       50
176
     1
 62
   256
176
     0
 40
1.0
176
     0
 90
        2
176
     1
  1
strokes_ogs.tif
176
     1
290
     0
176
     1
 40
1.0
176
     1
 40
1.0
176
     1
1001
ACAD
1000
AcDbSavedByObjectVersion
1070
     0
  0
VISUALSTYLE
  5
829D
102
{ACAD_REACTORS
330
8294
102
}
330
8294
100
AcDbVisualStyle
  2
Conceptual
 70
     9
177
     3
291
     0
 70
    58
 90
        3
176
     1
 90
        2
176
     1
 90
        0
176
     1
 90
        0
176
     1
 40
0.6
176
     1
 40
30.0
176
     1
 62
     7
420
 16777215
176
     1
 90
        2
176
     1
 90
        2
176
     1
 62
     7
176
     1
 62
   257
176
     1
 90
        1
176
     1
 90
        1
176
     1
 40
179.0
176
     1
 90
        8
176
     1
 62
     7
176
     1
 40
1.0
176
     1
 90
        1
176
     1
 90
        6
176
     1
 90
        2
176
     1
 62
     7
176
     1
 90
        3
176
     1
 90
        0
176
     1
 90
        0
176
     1
290
     0
176
     1
 90
        1
176
     1
 40
0.0
176
     1
 90
        0
176
     1
290
     0
176
     1
290
     1
176
     1
290
     1
176
     1
290
     0
176
     1
290
     0
176
     1
290
     0
176
     1
290
     0
176
     1
290
     0
176
     1
290
     0
176
     1
 90
       50
176
     1
 40
0.0
176
     1
 40
1.0
176
     1
 90
        0
176
     1
 62
    18
420
        0
176
     1
 90
       50
176
     1
 90
        3
176
     1
 62
     5
420
      255
176
     1
290
     0
176
     1
 90
       50
176
     1
 90
       50
176
     1
 90
       50
176
     1
290
     0
176
     1
 90
       50
176
     1
 62
   256
176
     0
 40
1.0
176
     0
 90
        2
176
     1
  1
strokes_ogs.tif
176
     1
290
     0
176
     1
 40
1.0
176
     1
 40
1.0
176
     1
1001
ACAD
1000
AcDbSavedByObjectVersion
1070
     0
  0
VISUALSTYLE
  5
829F
102
{ACAD_REACTORS
330
8294
102
}
330
8294
100
AcDbVisualStyle
  2
Dim
 70
    11
177
     3
291
     1
 70
    58
 90
        2
176
     1
 90
        2
176
     1
 90
        0
176
     1
 90
        0
176
     1
 40
0.6
176
     1
 40
30.0
176
     1
 62
     7
420
 16777215
176
     1
 90
        1
176
     1
 90
        4
176
     1
 62
     7
176
     1
 62
   257
176
     1
 90
        1
176
     1
 90
        1
176
     1
 40
1.0
176
     1
 90
        8
176
     1
 62
     7
176
     1
 40
1.0
176
     1
 90
        1
176
     1
 90
        6
176
     1
 90
        2
176
     1
 62
     7
176
     1
 90
        5
176
     1
 90
        0
176
     1
 90
        0
176
     1
290
     0
176
     1
 90
        1
176
     1
 40
-50.0
176
     1
 90
        0
176
     1
290
     0
176
     1
290
     1
176
     1
290
     1
176
     1
290
     0
176
     1
290
     0
176
     1
290
     0
176
     1
290
     0
176
     1
290
     0
176
     1
290
     0
176
     1
 90
       50
176
     1
 40
0.0
176
     1
 40
1.0
176
     1
 90
        0
176
     1
 62
    18
420
        0
176
     1
 90
       50
176
     1
 90
        3
176
     1
 62
     5
420
      255
176
     1
290
     0
176
     1
 90
       50
176
     1
 90
       50
176
     1
 90
       50
176
     1
290
     0
176
     1
 90
       50
176
     1
 62
   256
176
     0
 40
1.0
176
     0
 90
        2
176
     1
  1
strokes_ogs.tif
176
     1
290
     0
176
     1
 40
1.0
176
     1
 40
1.0
176
     1
1001
ACAD
1000
AcDbSavedByObjectVersion
1070
     0
  0
VISUALSTYLE
  5
82AC
102
{ACAD_REACTORS
330
8294
102
}
330
8294
100
AcDbVisualStyle
  2
EdgeColorOff
 70
    22
177
     3
291
     1
 70
    58
 90
        2
176
     0
 90
        2
176
     0
 90
        0
176
     0
 90
        0
176
     0
 40
0.6
176
     0
 40
30.0
176
     0
 62
     7
420
 16777215
176
     0
 90
        1
176
     0
 90
        4
176
     0
 62
     7
176
     0
 62
   257
176
     0
 90
        1
176
     0
 90
        1
176
     0
 40
1.0
176
     0
 90
        8
176
     2
 62
     7
176
     0
 40
1.0
176
     0
 90
        1
176
     0
 90
        6
176
     0
 90
        2
176
     0
 62
     7
176
     0
 90
        5
176
     0
 90
        0
176
     0
 90
        0
176
     0
290
     0
176
     0
 90
        1
176
     0
 40
0.0
176
     0
 90
        0
176
     0
290
     0
176
     0
290
     1
176
     0
290
     1
176
     0
290
     0
176
     0
290
     0
176
     0
290
     0
176
     0
290
     0
176
     0
290
     0
176
     0
290
     0
176
     0
 90
       50
176
     0
 40
0.0
176
     0
 40
1.0
176
     0
 90
        0
176
     0
 62
    18
420
        0
176
     0
 90
       50
176
     0
 90
        3
176
     0
 62
     5
420
      255
176
     0
290
     0
176
     0
 90
       50
176
     0
 90
       50
176
     0
 90
       50
176
     0
290
     0
176
     0
 90
       50
176
     0
 62
   256
176
     0
 40
1.0
176
     0
 90
        2
176
     0
  1
strokes_ogs.tif
176
     0
290
     0
176
     0
 40
1.0
176
     0
 40
1.0
176
     0
1001
ACAD
1000
AcDbSavedByObjectVersion
1070
     0
  0
VISUALSTYLE
  5
82A3
102
{ACAD_REACTORS
330
8294
102
}
330
8294
100
AcDbVisualStyle
  2
Facepattern
 70
    15
177
     3
291
     1
 70
    58
 90
        2
176
     1
 90
        2
176
     1
 90
        0
176
     1
 90
        0
176
     1
 40
0.6
176
     1
 40
30.0
176
     1
 62
     7
420
 16777215
176
     1
 90
        1
176
     1
 90
        4
176
     1
 62
     7
176
     1
 62
   257
176
     1
 90
        1
176
     1
 90
        1
176
     1
 40
1.0
176
     1
 90
        8
176
     1
 62
     7
176
     1
 40
1.0
176
     1
 90
        1
176
     1
 90
        6
176
     1
 90
        2
176
     1
 62
     7
176
     1
 90
        5
176
     1
 90
        0
176
     1
 90
        0
176
     1
290
     0
176
     1
 90
        1
176
     1
 40
0.0
176
     1
 90
        0
176
     1
290
     0
176
     1
290
     1
176
     1
290
     1
176
     1
290
     0
176
     1
290
     0
176
     1
290
     0
176
     1
290
     0
176
     1
290
     0
176
     1
290
     0
176
     1
 90
       50
176
     1
 40
0.0
176
     1
 40
1.0
176
     1
 90
        0
176
     1
 62
    18
420
        0
176
     1
 90
       50
176
     1
 90
        3
176
     1
 62
     5
420
      255
176
     1
290
     0
176
     1
 90
       50
176
     1
 90
       50
176
     1
 90
       50
176
     1
290
     0
176
     1
 90
       50
176
     1
 62
   256
176
     0
 40
1.0
176
     0
 90
        2
176
     1
  1
strokes_ogs.tif
176
     1
290
     0
176
     1
 40
1.0
176
     1
 40
1.0
176
     1
1001
ACAD
1000
AcDbSavedByObjectVersion
1070
     0
  0
VISUALSTYLE
  5
8295
102
{ACAD_REACTORS
330
8294
102
}
330
8294
100
AcDbVisualStyle
  2
Flat
 70
     0
177
     3
291
     1
 70
    58
 90
        2
176
     1
 90
        1
176
     1
 90
        1
176
     1
 90
        2
176
     1
 40
0.6
176
     1
 40
30.0
176
     1
 62
     7
420
 16777215
176
     1
 90
        0
176
     1
 90
        0
176
     1
 62
     7
176
     1
 62
   257
176
     1
 90
        1
176
     1
 90
        1
176
     1
 40
1.0
176
     1
 90
        8
176
     1
 62
     7
176
     1
 40
1.0
176
     1
 90
        1
176
     1
 90
        6
176
     1
 90
        2
176
     1
 62
     7
176
     1
 90
        5
176
     1
 90
        0
176
     1
 90
        0
176
     1
290
     0
176
     1
 90
       13
176
     1
 40
0.0
176
     1
 90
        0
176
     1
290
     0
176
     1
290
     1
176
     1
290
     1
176
     1
290
     0
176
     1
290
     0
176
     1
290
     0
176
     1
290
     0
176
     1
290
     0
176
     1
290
     0
176
     1
 90
       50
176
     1
 40
0.0
176
     1
 40
1.0
176
     1
 90
        0
176
     1
 62
    18
420
        0
176
     1
 90
       50
176
     1
 90
        3
176
     1
 62
     5
420
      255
176
     1
290
     0
176
     1
 90
       50
176
     1
 90
       50
176
     1
 90
       50
176
     1
290
     0
176
     1
 90
       50
176
     1
 62
   256
176
     0
 40
1.0
176
     0
 90
        2
176
     1
  1
strokes_ogs.tif
176
     1
290
     0
176
     1
 40
1.0
176
     1
 40
1.0
176
     1
1001
ACAD
1000
AcDbSavedByObjectVersion
1070
     0
  0
VISUALSTYLE
  5
8296
102
{ACAD_REACTORS
330
8294
102
}
330
8294
100
AcDbVisualStyle
  2
FlatWithEdges
 70
     1
177
     3
291
     1
 70
    58
 90
        2
176
     1
 90
        1
176
     1
 90
        1
176
     1
 90
        2
176
     1
 40
0.6
176
     1
 40
30.0
176
     1
 62
     7
420
 16777215
176
     1
 90
        1
176
     1
 90
        0
176
     1
 62
     7
176
     1
 62
   257
176
     1
 90
        1
176
     1
 90
        1
176
     1
 40
1.0
176
     1
 90
        0
176
     1
 62
   257
176
     1
 40
1.0
176
     1
 90
        1
176
     1
 90
        6
176
     1
 90
        2
176
     1
 62
     7
176
     1
 90
        5
176
     1
 90
        0
176
     1
 90
        0
176
     1
290
     0
176
     1
 90
       13
176
     1
 40
0.0
176
     1
 90
        0
176
     1
290
     0
176
     1
290
     1
176
     1
290
     1
176
     1
290
     0
176
     1
290
     0
176
     1
290
     0
176
     1
290
     0
176
     1
290
     0
176
     1
290
     0
176
     1
 90
       50
176
     1
 40
0.0
176
     1
 40
1.0
176
     1
 90
        0
176
     1
 62
    18
420
        0
176
     1
 90
       50
176
     1
 90
        3
176
     1
 62
     5
420
      255
176
     1
290
     0
176
     1
 90
       50
176
     1
 90
       50
176
     1
 90
       50
176
     1
290
     0
176
     1
 90
       50
176
     1
 62
   256
176
     0
 40
1.0
176
     0
 90
        2
176
     1
  1
strokes_ogs.tif
176
     1
290
     0
176
     1
 40
1.0
176
     1
 40
1.0
176
     1
1001
ACAD
1000
AcDbSavedByObjectVersion
1070
     0
  0
VISUALSTYLE
  5
8297
102
{ACAD_REACTORS
330
8294
102
}
330
8294
100
AcDbVisualStyle
  2
Gouraud
 70
     2
177
     3
291
     1
 70
    58
 90
        2
176
     1
 90
        2
176
     1
 90
        1
176
     1
 90
        2
176
     1
 40
0.6
176
     1
 40
30.0
176
     1
 62
     7
420
 16777215
176
     1
 90
        0
176
     1
 90
        0
176
     1
 62
     7
176
     1
 62
   257
176
     1
 90
        1
176
     1
 90
        1
176
     1
 40
1.0
176
     1
 90
        0
176
     1
 62
     7
176
     1
 40
1.0
176
     1
 90
        1
176
     1
 90
        6
176
     1
 90
        2
176
     1
 62
     7
176
     1
 90
        5
176
     1
 90
        0
176
     1
 90
        0
176
     1
290
     0
176
     1
 90
       13
176
     1
 40
0.0
176
     1
 90
        0
176
     1
290
     0
176
     1
290
     1
176
     1
290
     1
176
     1
290
     0
176
     1
290
     0
176
     1
290
     0
176
     1
290
     0
176
     1
290
     0
176
     1
290
     0
176
     1
 90
       50
176
     1
 40
0.0
176
     1
 40
1.0
176
     1
 90
        0
176
     1
 62
    18
420
        0
176
     1
 90
       50
176
     1
 90
        3
176
     1
 62
     5
420
      255
176
     1
290
     0
176
     1
 90
       50
176
     1
 90
       50
176
     1
 90
       50
176
     1
290
     0
176
     1
 90
       50
176
     1
 62
   256
176
     0
 40
1.0
176
     0
 90
        2
176
     1
  1
strokes_ogs.tif
176
     1
290
     0
176
     1
 40
1.0
176
     1
 40
1.0
176
     1
1001
ACAD
1000
AcDbSavedByObjectVersion
1070
     0
  0
VISUALSTYLE
  5
8298
102
{ACAD_REACTORS
330
8294
102
}
330
8294
100
AcDbVisualStyle
  2
GouraudWithEdges
 70
     3
177
     3
291
     1
 70
    58
 90
        2
176
     1
 90
        2
176
     1
 90
        1
176
     1
 90
        2
176
     1
 40
0.6
176
     1
 40
30.0
176
     1
 62
     7
420
 16777215
176
     1
 90
        1
176
     1
 90
        0
176
     1
 62
     7
176
     1
 62
   257
176
     1
 90
        1
176
     1
 90
        1
176
     1
 40
1.0
176
     1
 90
        0
176
     1
 62
   257
176
     1
 40
1.0
176
     1
 90
        1
176
     1
 90
        6
176
     1
 90
        2
176
     1
 62
     7
176
     1
 90
        5
176
     1
 90
        0
176
     1
 90
        0
176
     1
290
     0
176
     1
 90
       13
176
     1
 40
0.0
176
     1
 90
        0
176
     1
290
     0
176
     1
290
     1
176
     1
290
     1
176
     1
290
     0
176
     1
290
     0
176
     1
290
     0
176
     1
290
     0
176
     1
290
     0
176
     1
290
     0
176
     1
 90
       50
176
     1
 40
0.0
176
     1
 40
1.0
176
     1
 90
        0
176
     1
 62
    18
420
        0
176
     1
 90
       50
176
     1
 90
        3
176
     1
 62
     5
420
      255
176
     1
290
     0
176
     1
 90
       50
176
     1
 90
       50
176
     1
 90
       50
176
     1
290
     0
176
     1
 90
       50
176
     1
 62
   256
176
     0
 40
1.0
176
     0
 90
        2
176
     1
  1
strokes_ogs.tif
176
     1
290
     0
176
     1
 40
1.0
176
     1
 40
1.0
176
     1
1001
ACAD
1000
AcDbSavedByObjectVersion
1070
     0
  0
VISUALSTYLE
  5
829C
102
{ACAD_REACTORS
330
8294
102
}
330
8294
100
AcDbVisualStyle
  2
Hidden
 70
     6
177
     3
291
     0
 70
    58
 90
        1
176
     1
 90
        2
176
     1
 90
        2
176
     1
 90
        0
176
     1
 40
0.6
176
     1
 40
30.0
176
     1
 62
     7
420
 16777215
176
     1
 90
        2
176
     1
 90
        2
176
     1
 62
     7
176
     1
 62
   257
176
     1
 90
        2
176
     1
 90
        1
176
     1
 40
40.0
176
     1
 90
        0
176
     1
 62
   257
176
     1
 40
1.0
176
     1
 90
        1
176
     1
 90
        6
176
     1
 90
        2
176
     1
 62
     7
176
     1
 90
        3
176
     1
 90
        0
176
     1
 90
        0
176
     1
290
     0
176
     1
 90
        1
176
     1
 40
0.0
176
     1
 90
        0
176
     1
290
     0
176
     1
290
     1
176
     1
290
     1
176
     1
290
     0
176
     1
290
     0
176
     1
290
     0
176
     1
290
     0
176
     1
290
     0
176
     1
290
     0
176
     1
 90
       50
176
     1
 40
0.0
176
     1
 40
1.0
176
     1
 90
        0
176
     1
 62
    18
420
        0
176
     1
 90
       50
176
     1
 90
        3
176
     1
 62
     5
420
      255
176
     1
290
     0
176
     1
 90
       50
176
     1
 90
       50
176
     1
 90
       50
176
     1
290
     0
176
     1
 90
       50
176
     1
 62
   256
176
     0
 40
1.0
176
     0
 90
        2
176
     1
  1
strokes_ogs.tif
176
     1
290
     0
176
     1
 40
1.0
176
     1
 40
1.0
176
     1
1001
ACAD
1000
AcDbSavedByObjectVersion
1070
     0
  0
VISUALSTYLE
  5
82AA
102
{ACAD_REACTORS
330
8294
102
}
330
8294
100
AcDbVisualStyle
  2
JitterOff
 70
    20
177
     3
291
     1
 70
    58
 90
        2
176
     0
 90
        2
176
     0
 90
        0
176
     0
 90
        0
176
     0
 40
0.6
176
     0
 40
30.0
176
     0
 62
     7
420
 16777215
176
     0
 90
        1
176
     0
 90
        4
176
     0
 62
     7
176
     0
 62
   257
176
     0
 90
        1
176
     0
 90
        1
176
     0
 40
1.0
176
     0
 90
       10
176
     2
 62
     7
176
     0
 40
1.0
176
     0
 90
        1
176
     0
 90
        6
176
     0
 90
        2
176
     0
 62
     7
176
     0
 90
        5
176
     0
 90
        0
176
     0
 90
        0
176
     0
290
     0
176
     0
 90
        1
176
     0
 40
0.0
176
     0
 90
        0
176
     0
290
     0
176
     0
290
     1
176
     0
290
     1
176
     0
290
     0
176
     0
290
     0
176
     0
290
     0
176
     0
290
     0
176
     0
290
     0
176
     0
290
     0
176
     0
 90
       50
176
     0
 40
0.0
176
     0
 40
1.0
176
     0
 90
        0
176
     0
 62
    18
420
        0
176
     0
 90
       50
176
     0
 90
        3
176
     0
 62
     5
420
      255
176
     0
290
     0
176
     0
 90
       50
176
     0
 90
       50
176
     0
 90
       50
176
     0
290
     0
176
     0
 90
       50
176
     0
 62
   256
176
     0
 40
1.0
176
     0
 90
        2
176
     0
  1
strokes_ogs.tif
176
     0
290
     0
176
     0
 40
1.0
176
     0
 40
1.0
176
     0
1001
ACAD
1000
AcDbSavedByObjectVersion
1070
     0
  0
VISUALSTYLE
  5
82A2
102
{ACAD_REACTORS
330
8294
102
}
330
8294
100
AcDbVisualStyle
  2
Linepattern
 70
    14
177
     3
291
     1
 70
    58
 90
        2
176
     1
 90
        2
176
     1
 90
        0
176
     1
 90
        0
176
     1
 40
0.6
176
     1
 40
30.0
176
     1
 62
     7
420
 16777215
176
     1
 90
        1
176
     1
 90
        4
176
     1
 62
     7
176
     1
 62
   257
176
     1
 90
        7
176
     1
 90
        7
176
     1
 40
1.0
176
     1
 90
        8
176
     1
 62
     7
176
     1
 40
1.0
176
     1
 90
        1
176
     1
 90
        6
176
     1
 90
        2
176
     1
 62
     7
176
     1
 90
        5
176
     1
 90
        0
176
     1
 90
        0
176
     1
290
     0
176
     1
 90
        1
176
     1
 40
0.0
176
     1
 90
        0
176
     1
290
     0
176
     1
290
     1
176
     1
290
     1
176
     1
290
     0
176
     1
290
     0
176
     1
290
     0
176
     1
290
     0
176
     1
290
     0
176
     1
290
     0
176
     1
 90
       50
176
     1
 40
0.0
176
     1
 40
1.0
176
     1
 90
        0
176
     1
 62
    18
420
        0
176
     1
 90
       50
176
     1
 90
        3
176
     1
 62
     5
420
      255
176
     1
290
     0
176
     1
 90
       50
176
     1
 90
       50
176
     1
 90
       50
176
     1
290
     0
176
     1
 90
       50
176
     1
 62
   256
176
     0
 40
1.0
176
     0
 90
        2
176
     1
  1
strokes_ogs.tif
176
     1
290
     0
176
     1
 40
1.0
176
     1
 40
1.0
176
     1
1001
ACAD
1000
AcDbSavedByObjectVersion
1070
     0
  0
VISUALSTYLE
  5
82AB
102
{ACAD_REACTORS
330
8294
102
}
330
8294
100
AcDbVisualStyle
  2
OverhangOff
 70
    21
177
     3
291
     1
 70
    58
 90
        2
176
     0
 90
        2
176
     0
 90
        0
176
     0
 90
        0
176
     0
 40
0.6
176
     0
 40
30.0
176
     0
 62
     7
420
 16777215
176
     0
 90
        1
176
     0
 90
        4
176
     0
 62
     7
176
     0
 62
   257
176
     0
 90
        1
176
     0
 90
        1
176
     0
 40
1.0
176
     0
 90
        9
176
     2
 62
     7
176
     0
 40
1.0
176
     0
 90
        1
176
     0
 90
        6
176
     0
 90
        2
176
     0
 62
     7
176
     0
 90
        5
176
     0
 90
        0
176
     0
 90
        0
176
     0
290
     0
176
     0
 90
        1
176
     0
 40
0.0
176
     0
 90
        0
176
     0
290
     0
176
     0
290
     1
176
     0
290
     1
176
     0
290
     0
176
     0
290
     0
176
     0
290
     0
176
     0
290
     0
176
     0
290
     0
176
     0
290
     0
176
     0
 90
       50
176
     0
 40
0.0
176
     0
 40
1.0
176
     0
 90
        0
176
     0
 62
    18
420
        0
176
     0
 90
       50
176
     0
 90
        3
176
     0
 62
     5
420
      255
176
     0
290
     0
176
     0
 90
       50
176
     0
 90
       50
176
     0
 90
       50
176
     0
290
     0
176
     0
 90
       50
176
     0
 62
   256
176
     0
 40
1.0
176
     0
 90
        2
176
     0
  1
strokes_ogs.tif
176
     0
290
     0
176
     0
 40
1.0
176
     0
 40
1.0
176
     0
1001
ACAD
1000
AcDbSavedByObjectVersion
1070
     0
  0
VISUALSTYLE
  5
829E
102
{ACAD_REACTORS
330
8294
102
}
330
8294
100
AcDbVisualStyle
  2
Realistic
 70
     8
177
     3
291
     0
 70
    58
 90
        2
176
     1
 90
        3
176
     1
 90
        0
176
     1
 90
        2
176
     1
 40
0.6
176
     1
 40
30.0
176
     1
 62
     7
420
 16777215
176
     1
 90
        0
176
     1
 90
        0
176
     1
 62
     7
176
     1
 62
   257
176
     1
 90
        1
176
     1
 90
        1
176
     1
 40
1.0
176
     1
 90
        8
176
     1
 62
   257
176
     1
 40
1.0
176
     1
 90
        1
176
     1
 90
        6
176
     1
 90
        2
176
     1
 62
     7
176
     1
 90
        3
176
     1
 90
        0
176
     1
 90
        0
176
     1
290
     0
176
     1
 90
       13
176
     1
 40
0.0
176
     1
 90
        0
176
     1
290
     0
176
     1
290
     1
176
     1
290
     1
176
     1
290
     0
176
     1
290
     0
176
     1
290
     0
176
     1
290
     0
176
     1
290
     0
176
     1
290
     0
176
     1
 90
       50
176
     1
 40
0.0
176
     1
 40
1.0
176
     1
 90
        0
176
     1
 62
    18
420
        0
176
     1
 90
       50
176
     1
 90
        3
176
     1
 62
     5
420
      255
176
     1
290
     0
176
     1
 90
       50
176
     1
 90
       50
176
     1
 90
       50
176
     1
290
     0
176
     1
 90
       50
176
     1
 62
   256
176
     0
 40
1.0
176
     0
 90
        2
176
     1
  1
strokes_ogs.tif
176
     1
290
     0
176
     1
 40
1.0
176
     1
 40
1.0
176
     1
1001
ACAD
1000
AcDbSavedByObjectVersion
1070
     0
  0
VISUALSTYLE
  5
82A9
102
{ACAD_REACTORS
330
8294
102
}
330
8294
100
AcDbVisualStyle
  2
Shaded
 70
    27
177
     3
291
     0
 70
    58
 90
        2
176
     1
 90
        2
176
     1
 90
        1
176
     1
 90
        2
176
     1
 40
0.6
176
     1
 40
30.0
176
     1
 62
     7
420
 16777215
176
     1
 90
        0
176
     1
 90
        4
176
     1
 62
     7
176
     1
 62
   257
176
     1
 90
        1
176
     1
 90
        1
176
     1
 40
1.0
176
     1
 90
        8
176
     1
 62
   257
176
     1
 40
1.0
176
     1
 90
        1
176
     1
 90
        6
176
     1
 90
        2
176
     1
 62
     8
420
  7895160
176
     1
 90
        3
176
     1
 90
        0
176
     1
 90
        0
176
     1
290
     0
176
     1
 90
        5
176
     1
 40
0.0
176
     1
 90
        0
176
     1
290
     0
176
     1
290
     1
176
     1
290
     1
176
     1
290
     0
176
     1
290
     0
176
     1
290
     0
176
     1
290
     0
176
     1
290
     0
176
     1
290
     0
176
     1
 90
       50
176
     1
 40
0.0
176
     1
 40
1.0
176
     1
 90
        0
176
     1
 62
    18
420
        0
176
     1
 90
       50
176
     1
 90
        3
176
     1
 62
     5
420
      255
176
     1
290
     0
176
     1
 90
       50
176
     1
 90
       50
176
     1
 90
       50
176
     1
290
     0
176
     1
 90
       50
176
     1
 62
   256
176
     0
 40
1.0
176
     0
 90
        2
176
     1
  1
strokes_ogs.tif
176
     1
290
     0
176
     1
 40
1.0
176
     1
 40
1.0
176
     1
1001
ACAD
1000
AcDbSavedByObjectVersion
1070
     0
  0
VISUALSTYLE
  5
82A8
102
{ACAD_REACTORS
330
8294
102
}
330
8294
100
AcDbVisualStyle
  2
Shaded with edges
 70
    26
177
     3
291
     0
 70
    58
 90
        2
176
     1
 90
        2
176
     1
 90
        1
176
     1
 90
        2
176
     1
 40
0.6
176
     1
 40
30.0
176
     1
 62
     7
420
 16777215
176
     1
 90
        1
176
     1
 90
        2
176
     1
 62
     7
176
     1
 62
   257
176
     1
 90
        2
176
     1
 90
        1
176
     1
 40
1.0
176
     1
 90
        8
176
     1
 62
   257
176
     1
 40
1.0
176
     1
 90
        1
176
     1
 90
        6
176
     1
 90
        2
176
     1
 62
     7
176
     1
 90
        3
176
     1
 90
        0
176
     1
 90
        0
176
     1
290
     0
176
     1
 90
        5
176
     1
 40
0.0
176
     1
 90
        0
176
     1
290
     0
176
     1
290
     1
176
     1
290
     1
176
     1
290
     0
176
     1
290
     0
176
     1
290
     0
176
     1
290
     0
176
     1
290
     0
176
     1
290
     0
176
     1
 90
       50
176
     1
 40
0.0
176
     1
 40
1.0
176
     1
 90
        0
176
     1
 62
    18
420
        0
176
     1
 90
       50
176
     1
 90
        3
176
     1
 62
     5
420
      255
176
     1
290
     0
176
     1
 90
       50
176
     1
 90
       50
176
     1
 90
       50
176
     1
290
     0
176
     1
 90
       50
176
     1
 62
   256
176
     0
 40
1.0
176
     0
 90
        2
176
     1
  1
strokes_ogs.tif
176
     1
290
     0
176
     1
 40
1.0
176
     1
 40
1.0
176
     1
1001
ACAD
1000
AcDbSavedByObjectVersion
1070
     0
  0
VISUALSTYLE
  5
82A5
102
{ACAD_REACTORS
330
8294
102
}
330
8294
100
AcDbVisualStyle
  2
Shades of Gray
 70
    23
177
     3
291
     0
 70
    58
 90
        2
176
     1
 90
        2
176
     1
 90
        3
176
     1
 90
        0
176
     1
 40
0.6
176
     1
 40
30.0
176
     1
 62
     7
420
 16777215
176
     1
 90
        2
176
     1
 90
        2
176
     1
 62
     7
176
     1
 62
     7
176
     1
 90
        1
176
     1
 90
        1
176
     1
 40
40.0
176
     1
 90
        8
176
     1
 62
     7
176
     1
 40
1.0
176
     1
 90
        1
176
     1
 90
        6
176
     1
 90
        2
176
     1
 62
     7
176
     1
 90
        3
176
     1
 90
        0
176
     1
 90
        0
176
     1
290
     0
176
     1
 90
        1
176
     1
 40
0.0
176
     1
 90
        0
176
     1
290
     0
176
     1
290
     1
176
     1
290
     1
176
     1
290
     0
176
     1
290
     0
176
     1
290
     0
176
     1
290
     0
176
     1
290
     0
176
     1
290
     0
176
     1
 90
       50
176
     1
 40
0.0
176
     1
 40
1.0
176
     1
 90
        0
176
     1
 62
    18
420
        0
176
     1
 90
       50
176
     1
 90
        3
176
     1
 62
     5
420
      255
176
     1
290
     0
176
     1
 90
       50
176
     1
 90
       50
176
     1
 90
       50
176
     1
290
     0
176
     1
 90
       50
176
     1
 62
   256
176
     0
 40
1.0
176
     0
 90
        2
176
     1
  1
strokes_ogs.tif
176
     1
290
     0
176
     1
 40
1.0
176
     1
 40
1.0
176
     1
1001
ACAD
1000
AcDbSavedByObjectVersion
1070
     0
  0
VISUALSTYLE
  5
82A6
102
{ACAD_REACTORS
330
8294
102
}
330
8294
100
AcDbVisualStyle
  2
Sketchy
 70
    24
177
     3
291
     0
 70
    58
 90
        1
176
     1
 90
        2
176
     1
 90
        2
176
     1
 90
        0
176
     1
 40
0.6
176
     1
 40
30.0
176
     1
 62
     7
420
 16777215
176
     1
 90
        2
176
     1
 90
        2
176
     1
 62
     7
176
     1
 62
     7
176
     1
 90
        1
176
     1
 90
        1
176
     1
 40
40.0
176
     1
 90
       11
176
     1
 62
     7
176
     1
 40
1.0
176
     1
 90
        1
176
     1
 90
        6
176
     1
 90
        2
176
     1
 62
     7
176
     1
 90
        6
176
     1
 90
        0
176
     1
 90
        0
176
     1
290
     0
176
     1
 90
        1
176
     1
 40
0.0
176
     1
 90
        0
176
     1
290
     0
176
     1
290
     1
176
     1
290
     1
176
     1
290
     0
176
     1
290
     0
176
     1
290
     0
176
     1
290
     0
176
     1
290
     0
176
     1
290
     0
176
     1
 90
       50
176
     1
 40
0.0
176
     1
 40
1.0
176
     1
 90
        0
176
     1
 62
    18
420
        0
176
     1
 90
       50
176
     1
 90
        3
176
     1
 62
     5
420
      255
176
     1
290
     0
176
     1
 90
       50
176
     1
 90
       50
176
     1
 90
       50
176
     1
290
     0
176
     1
 90
       50
176
     1
 62
   256
176
     0
 40
1.0
176
     0
 90
        2
176
     1
  1
strokes_ogs.tif
176
     1
290
     0
176
     1
 40
1.0
176
     1
 40
1.0
176
     1
1001
ACAD
1000
AcDbSavedByObjectVersion
1070
     0
  0
VISUALSTYLE
  5
82A1
102
{ACAD_REACTORS
330
8294
102
}
330
8294
100
AcDbVisualStyle
  2
Thicken
 70
    13
177
     3
291
     1
 70
    58
 90
        2
176
     1
 90
        2
176
     1
 90
        0
176
     1
 90
        0
176
     1
 40
0.6
176
     1
 40
30.0
176
     1
 62
     7
420
 16777215
176
     1
 90
        1
176
     1
 90
        4
176
     1
 62
     7
176
     1
 62
   257
176
     1
 90
        1
176
     1
 90
        1
176
     1
 40
1.0
176
     1
 90
       12
176
     1
 62
     7
176
     1
 40
1.0
176
     1
 90
        1
176
     1
 90
        6
176
     1
 90
        2
176
     1
 62
     7
176
     1
 90
        5
176
     1
 90
        0
176
     1
 90
        0
176
     1
290
     0
176
     1
 90
        1
176
     1
 40
0.0
176
     1
 90
        0
176
     1
290
     0
176
     1
290
     1
176
     1
290
     1
176
     1
290
     0
176
     1
290
     0
176
     1
290
     0
176
     1
290
     0
176
     1
290
     0
176
     1
290
     0
176
     1
 90
       50
176
     1
 40
0.0
176
     1
 40
1.0
176
     1
 90
        0
176
     1
 62
    18
420
        0
176
     1
 90
       50
176
     1
 90
        3
176
     1
 62
     5
420
      255
176
     1
290
     0
176
     1
 90
       50
176
     1
 90
       50
176
     1
 90
       50
176
     1
290
     0
176
     1
 90
       50
176
     1
 62
   256
176
     0
 40
1.0
176
     0
 90
        2
176
     1
  1
strokes_ogs.tif
176
     1
290
     0
176
     1
 40
1.0
176
     1
 40
1.0
176
     1
1001
ACAD
1000
AcDbSavedByObjectVersion
1070
     0
  0
VISUALSTYLE
  5
829B
102
{ACAD_REACTORS
330
8294
102
}
330
8294
100
AcDbVisualStyle
  2
Wireframe
 70
     5
177
     3
291
     0
 70
    58
 90
        0
176
     1
 90
        2
176
     1
 90
        0
176
     1
 90
        0
176
     1
 40
0.6
176
     1
 40
30.0
176
     1
 62
     7
420
 16777215
176
     1
 90
        1
176
     1
 90
        4
176
     1
 62
     7
176
     1
 62
   257
176
     1
 90
        1
176
     1
 90
        1
176
     1
 40
1.0
176
     1
 90
        0
176
     1
 62
   257
176
     1
 40
1.0
176
     1
 90
        1
176
     1
 90
        6
176
     1
 90
        2
176
     1
 62
     7
176
     1
 90
        3
176
     1
 90
        0
176
     1
 90
        0
176
     1
290
     0
176
     1
 90
        1
176
     1
 40
0.0
176
     1
 90
        0
176
     1
290
     0
176
     1
290
     1
176
     1
290
     1
176
     1
290
     0
176
     1
290
     0
176
     1
290
     0
176
     1
290
     0
176
     1
290
     0
176
     1
290
     0
176
     1
 90
       50
176
     1
 40
0.0
176
     1
 40
1.0
176
     1
 90
        0
176
     1
 62
    18
420
        0
176
     1
 90
       50
176
     1
 90
        3
176
     1
 62
     5
420
      255
176
     1
290
     0
176
     1
 90
       50
176
     1
 90
       50
176
     1
 90
       50
176
     1
290
     0
176
     1
 90
       50
176
     1
 62
   256
176
     0
 40
1.0
176
     0
 90
        2
176
     1
  1
strokes_ogs.tif
176
     1
290
     0
176
     1
 40
1.0
176
     1
 40
1.0
176
     1
1001
ACAD
1000
AcDbSavedByObjectVersion
1070
     0
  0
VISUALSTYLE
  5
82A7
102
{ACAD_REACTORS
330
8294
102
}
330
8294
100
AcDbVisualStyle
  2
X-Ray
 70
    25
177
     3
291
     0
 70
    58
 90
        2
176
     1
 90
        2
176
     1
 90
        1
176
     1
 90
        1
176
     1
 40
0.5
176
     1
 40
30.0
176
     1
 62
     7
420
 16777215
176
     1
 90
        1
176
     1
 90
        0
176
     1
 62
     7
176
     1
 62
   257
176
     1
 90
        1
176
     1
 90
        1
176
     1
 40
1.0
176
     1
 90
        8
176
     1
 62
     7
176
     1
 40
1.0
176
     1
 90
        1
176
     1
 90
        6
176
     1
 90
        2
176
     1
 62
     7
176
     1
 90
        3
176
     1
 90
        0
176
     1
 90
        0
176
     1
290
     0
176
     1
 90
       13
176
     1
 40
0.0
176
     1
 90
        0
176
     1
290
     0
176
     1
290
     1
176
     1
290
     1
176
     1
290
     0
176
     1
290
     0
176
     1
290
     0
176
     1
290
     0
176
     1
290
     0
176
     1
290
     0
176
     1
 90
       50
176
     1
 40
0.0
176
     1
 40
1.0
176
     1
 90
        0
176
     1
 62
    18
420
        0
176
     1
 90
       50
176
     1
 90
        3
176
     1
 62
     5
420
      255
176
     1
290
     0
176
     1
 90
       50
176
     1
 90
       50
176
     1
 90
       50
176
     1
290
     0
176
     1
 90
       50
176
     1
 62
   256
176
     0
 40
1.0
176
     0
 90
        2
176
     1
  1
strokes_ogs.tif
176
     1
290
     0
176
     1
 40
1.0
176
     1
 40
1.0
176
     1
1001
ACAD
1000
AcDbSavedByObjectVersion
1070
     0
  0
DICTIONARYVAR
  5
8322
102
{ACAD_REACTORS
330
8272
102
}
330
8272
100
DictionaryVariables
280
     0
  1
1:1
  0
DICTIONARYVAR
  5
831E
102
{ACAD_REACTORS
330
8272
102
}
330
8272
100
DictionaryVariables
280
     0
  1
STANDARD
  0
DICTIONARYVAR
  5
831D
102
{ACAD_REACTORS
330
8272
102
}
330
8272
100
DictionaryVariables
280
     0
  1
STANDARD
  0
DICTIONARYVAR
  5
831F
102
{ACAD_REACTORS
330
8272
102
}
330
8272
100
DictionaryVariables
280
     0
  1
Metric50
  0
DICTIONARYVAR
  5
8320
102
{ACAD_REACTORS
330
8272
102
}
330
8272
100
DictionaryVariables
280
     0
  1
Metric50
  0
DICTIONARYVAR
  5
8273
102
{ACAD_REACTORS
330
8272
102
}
330
8272
100
DictionaryVariables
280
     0
  1
1
  0
DICTIONARYVAR
  5
8324
102
{ACAD_REACTORS
330
8272
102
}
330
8272
100
DictionaryVariables
280
     0
  1
1
  0
DICTIONARYVAR
  5
8325
102
{ACAD_REACTORS
330
8272
102
}
330
8272
100
DictionaryVariables
280
     0
  1
15
  0
DICTIONARYVAR
  5
8323
102
{ACAD_REACTORS
330
8272
102
}
330
8272
100
DictionaryVariables
280
     0
  1
0
  0
DICTIONARYVAR
  5
832A
102
{ACAD_REACTORS
330
8272
102
}
330
8272
100
DictionaryVariables
280
     0
  1
0
  0
DICTIONARYVAR
  5
8321
102
{ACAD_REACTORS
330
8272
102
}
330
8272
100
DictionaryVariables
280
     0
  1
0
  0
DICTIONARY
  5
8335
102
{ACAD_REACTORS
330
8333
102
}
330
8333
100
AcDbDictionary
281
     1
  0
DICTIONARY
  5
8334
102
{ACAD_REACTORS
330
8333
102
}
330
8333
100
AcDbDictionary
281
     1
  3
2046241180384
350
832E
  3
2046241180400
350
832F
  3
2046241180416
350
8330
  3
2046241180432
350
8331
  3
2046241180448
350
8332
  0
DICTIONARY
  5
8338
330
82C7
100
AcDbDictionary
280
     1
281
     1
  3
ACAD_XREC_ROUNDTRIP
360
8339
  0
DICTIONARY
  5
8285
330
8284
100
AcDbDictionary
280
     1
281
     1
  3
BUMPTILE
360
8287
  3
DIFFUSETILE
360
8286
  3
OPACITYTILE
360
828A
  3
REFLECTIONTILE
360
8289
  3
REFRACTIONTILE
360
828B
  3
SPECULARTILE
360
8288
  0
DICTIONARY
  5
827D
330
827C
100
AcDbDictionary
280
     1
281
     1
  3
BUMPTILE
360
827F
  3
DIFFUSETILE
360
827E
  3
OPACITYTILE
360
8282
  3
REFLECTIONTILE
360
8281
  3
REFRACTIONTILE
360
8283
  3
SPECULARTILE
360
8280
  0
DICTIONARY
  5
828D
330
828C
100
AcDbDictionary
280
     1
281
     1
  3
BUMPTILE
360
828F
  3
DIFFUSETILE
360
828E
  3
OPACITYTILE
360
8292
  3
REFLECTIONTILE
360
8291
  3
REFRACTIONTILE
360
8293
  3
SPECULARTILE
360
8290
  0
DICTIONARY
  5
8336
330
82C5
100
AcDbDictionary
280
     1
281
     1
  3
ACAD_XREC_ROUNDTRIP
360
8337
  0
DICTIONARY
  5
832B
330
82AF
100
AcDbDictionary
280
     1
281
     1
  3
ACAD_ROUNDTRIP_2008_TABLESTYLE_CELLSTYLEMAP
360
832C
  0
XRECORD
  5
832E
102
{ACAD_REACTORS
330
8334
102
}
330
8334
100
AcDbXrecord
280
     1
  1
AcDb_Thumbnail_Schema
102
{ATTRRECORD
341
832F
  2
AcDbDs::TreatedAsObjectData
280
     1
291
     1
102
ATTRRECORD}
102
{ATTRRECORD
341
8330
  2
AcDbDs::Legacy
280
     1
291
     1
102
ATTRRECORD}
  2
AcDbDs::ID
280
    10
 91
        8
102
{ATTRRECORD
341
8331
  2
AcDs:Indexable
280
     1
291
     1
102
ATTRRECORD}
102
{ATTRRECORD
341
8332
  2
AcDbDs::HandleAttribute
280
     7
282
     1
102
ATTRRECORD}
  2
Thumbnail_Data
280
    15
 91
        0
  0
XRECORD
  5
832F
102
{ACAD_REACTORS
330
8334
102
}
330
8334
100
AcDbXrecord
280
     1
  1
AcDbDs::TreatedAsObjectDataSchema
  2
AcDbDs::TreatedAsObjectData
280
     1
 91
        0
  0
XRECORD
  5
8330
102
{ACAD_REACTORS
330
8334
102
}
330
8334
100
AcDbXrecord
280
     1
  1
AcDbDs::LegacySchema
  2
AcDbDs::Legacy
280
     1
 91
        0
  0
XRECORD
  5
8331
102
{ACAD_REACTORS
330
8334
102
}
330
8334
100
AcDbXrecord
280
     1
  1
AcDbDs::IndexedPropertySchema
  2
AcDs:Indexable
280
     1
 91
        0
  0
XRECORD
  5
8332
102
{ACAD_REACTORS
330
8334
102
}
330
8334
100
AcDbXrecord
280
     1
  1
AcDbDs::HandleAttributeSchema
  2
AcDbDs::HandleAttribute
280
     7
 91
        1
284
     1
  0
XRECORD
  5
8339
102
{ACAD_REACTORS
330
8338
102
}
330
8338
100
AcDbXrecord
280
     1
102
DISPLAYNAME
  1
Metric50
102
FLAGS
 90
        0
  0
XRECORD
  5
8287
102
{ACAD_REACTORS
330
8285
102
}
330
8285
100
AcDbXrecord
280
     1
270
     1
271
     1
  0
XRECORD
  5
8286
102
{ACAD_REACTORS
330
8285
102
}
330
8285
100
AcDbXrecord
280
     1
270
     1
271
     1
  0
XRECORD
  5
828A
102
{ACAD_REACTORS
330
8285
102
}
330
8285
100
AcDbXrecord
280
     1
270
     1
271
     1
  0
XRECORD
  5
8289
102
{ACAD_REACTORS
330
8285
102
}
330
8285
100
AcDbXrecord
280
     1
270
     1
271
     1
  0
XRECORD
  5
828B
102
{ACAD_REACTORS
330
8285
102
}
330
8285
100
AcDbXrecord
280
     1
270
     1
271
     1
  0
XRECORD
  5
8288
102
{ACAD_REACTORS
330
8285
102
}
330
8285
100
AcDbXrecord
280
     1
270
     1
271
     1
  0
XRECORD
  5
827F
102
{ACAD_REACTORS
330
827D
102
}
330
827D
100
AcDbXrecord
280
     1
270
     1
271
     1
  0
XRECORD
  5
827E
102
{ACAD_REACTORS
330
827D
102
}
330
827D
100
AcDbXrecord
280
     1
270
     1
271
     1
  0
XRECORD
  5
8282
102
{ACAD_REACTORS
330
827D
102
}
330
827D
100
AcDbXrecord
280
     1
270
     1
271
     1
  0
XRECORD
  5
8281
102
{ACAD_REACTORS
330
827D
102
}
330
827D
100
AcDbXrecord
280
     1
270
     1
271
     1
  0
XRECORD
  5
8283
102
{ACAD_REACTORS
330
827D
102
}
330
827D
100
AcDbXrecord
280
     1
270
     1
271
     1
  0
XRECORD
  5
8280
102
{ACAD_REACTORS
330
827D
102
}
330
827D
100
AcDbXrecord
280
     1
270
     1
271
     1
  0
XRECORD
  5
828F
102
{ACAD_REACTORS
330
828D
102
}
330
828D
100
AcDbXrecord
280
     1
270
     1
271
     1
  0
XRECORD
  5
828E
102
{ACAD_REACTORS
330
828D
102
}
330
828D
100
AcDbXrecord
280
     1
270
     1
271
     1
  0
XRECORD
  5
8292
102
{ACAD_REACTORS
330
828D
102
}
330
828D
100
AcDbXrecord
280
     1
270
     1
271
     1
  0
XRECORD
  5
8291
102
{ACAD_REACTORS
330
828D
102
}
330
828D
100
AcDbXrecord
280
     1
270
     1
271
     1
  0
XRECORD
  5
8293
102
{ACAD_REACTORS
330
828D
102
}
330
828D
100
AcDbXrecord
280
     1
270
     1
271
     1
  0
XRECORD
  5
8290
102
{ACAD_REACTORS
330
828D
102
}
330
828D
100
AcDbXrecord
280
     1
270
     1
271
     1
  0
XRECORD
  5
8337
102
{ACAD_REACTORS
330
8336
102
}
330
8336
100
AcDbXrecord
280
     1
102
DISPLAYNAME
  1
Metric50
102
FLAGS
 90
        0
  0
CELLSTYLEMAP
  5
832C
102
{ACAD_REACTORS
330
832B
102
}
330
832B
100
AcDbCellStyleMap
 90
        3
300
CELLSTYLE
  1
TABLEFORMAT_BEGIN
 90
        5
170
     1
 91
        0
 92
    32768
 62
   257
 93
        1
300
CONTENTFORMAT
  1
CONTENTFORMAT_BEGIN
 90
        0
 91
        0
 92
      512
 93
        0
300

 40
0.0
140
1.0
 94
        5
 62
     0
340
10
144
6.0
309
CONTENTFORMAT_END
171
     1
301
MARGIN
  1
CELLMARGIN_BEGIN
 40
1.5
 40
1.5
 40
1.5
 40
1.5
 40
4.5
 40
4.5
309
CELLMARGIN_END
 94
        6
 95
        1
302
GRIDFORMAT
  1
GRIDFORMAT_BEGIN
 90
        0
 91
        1
 62
     0
 92
       -2
340
0
 93
        0
 40
1.125
309
GRIDFORMAT_END
 95
        2
302
GRIDFORMAT
  1
GRIDFORMAT_BEGIN
 90
        0
 91
        1
 62
     0
 92
       -2
340
0
 93
        0
 40
1.125
309
GRIDFORMAT_END
 95
        4
302
GRIDFORMAT
  1
GRIDFORMAT_BEGIN
 90
        0
 91
        1
 62
     0
 92
       -2
340
0
 93
        0
 40
1.125
309
GRIDFORMAT_END
 95
        8
302
GRIDFORMAT
  1
GRIDFORMAT_BEGIN
 90
        0
 91
        1
 62
     0
 92
       -2
340
0
 93
        0
 40
1.125
309
GRIDFORMAT_END
 95
       16
302
GRIDFORMAT
  1
GRIDFORMAT_BEGIN
 90
        0
 91
        1
 62
     0
 92
       -2
340
0
 93
        0
 40
1.125
309
GRIDFORMAT_END
 95
       32
302
GRIDFORMAT
  1
GRIDFORMAT_BEGIN
 90
        0
 91
        1
 62
     0
 92
       -2
340
0
 93
        0
 40
1.125
309
GRIDFORMAT_END
309
TABLEFORMAT_END
  1
CELLSTYLE_BEGIN
 90
        1
 91
        1
300
_TITLE
309
CELLSTYLE_END
300
CELLSTYLE
  1
TABLEFORMAT_BEGIN
 90
        5
170
     1
 91
        0
 92
        0
 62
   257
 93
        1
300
CONTENTFORMAT
  1
CONTENTFORMAT_BEGIN
 90
        0
 91
        0
 92
      512
 93
        0
300

 40
0.0
140
1.0
 94
        5
 62
     0
340
10
144
4.5
309
CONTENTFORMAT_END
171
     1
301
MARGIN
  1
CELLMARGIN_BEGIN
 40
1.5
 40
1.5
 40
1.5
 40
1.5
 40
4.5
 40
4.5
309
CELLMARGIN_END
 94
        6
 95
        1
302
GRIDFORMAT
  1
GRIDFORMAT_BEGIN
 90
        0
 91
        1
 62
     0
 92
       -2
340
0
 93
        0
 40
1.125
309
GRIDFORMAT_END
 95
        2
302
GRIDFORMAT
  1
GRIDFORMAT_BEGIN
 90
        0
 91
        1
 62
     0
 92
       -2
340
0
 93
        0
 40
1.125
309
GRIDFORMAT_END
 95
        4
302
GRIDFORMAT
  1
GRIDFORMAT_BEGIN
 90
        0
 91
        1
 62
     0
 92
       -2
340
0
 93
        0
 40
1.125
309
GRIDFORMAT_END
 95
        8
302
GRIDFORMAT
  1
GRIDFORMAT_BEGIN
 90
        0
 91
        1
 62
     0
 92
       -2
340
0
 93
        0
 40
1.125
309
GRIDFORMAT_END
 95
       16
302
GRIDFORMAT
  1
GRIDFORMAT_BEGIN
 90
        0
 91
        1
 62
     0
 92
       -2
340
0
 93
        0
 40
1.125
309
GRIDFORMAT_END
 95
       32
302
GRIDFORMAT
  1
GRIDFORMAT_BEGIN
 90
        0
 91
        1
 62
     0
 92
       -2
340
0
 93
        0
 40
1.125
309
GRIDFORMAT_END
309
TABLEFORMAT_END
  1
CELLSTYLE_BEGIN
 90
        2
 91
        1
300
_HEADER
309
CELLSTYLE_END
300
CELLSTYLE
  1
TABLEFORMAT_BEGIN
 90
        5
170
     1
 91
        0
 92
        0
 62
   257
 93
        1
300
CONTENTFORMAT
  1
CONTENTFORMAT_BEGIN
 90
        0
 91
        0
 92
      512
 93
        0
300

 40
0.0
140
1.0
 94
        2
 62
     0
340
10
144
4.5
309
CONTENTFORMAT_END
171
     1
301
MARGIN
  1
CELLMARGIN_BEGIN
 40
1.5
 40
1.5
 40
1.5
 40
1.5
 40
4.5
 40
4.5
309
CELLMARGIN_END
 94
        6
 95
        1
302
GRIDFORMAT
  1
GRIDFORMAT_BEGIN
 90
        0
 91
        1
 62
     0
 92
       -2
340
0
 93
        0
 40
1.125
309
GRIDFORMAT_END
 95
        2
302
GRIDFORMAT
  1
GRIDFORMAT_BEGIN
 90
        0
 91
        1
 62
     0
 92
       -2
340
0
 93
        0
 40
1.125
309
GRIDFORMAT_END
 95
        4
302
GRIDFORMAT
  1
GRIDFORMAT_BEGIN
 90
        0
 91
        1
 62
     0
 92
       -2
340
0
 93
        0
 40
1.125
309
GRIDFORMAT_END
 95
        8
302
GRIDFORMAT
  1
GRIDFORMAT_BEGIN
 90
        0
 91
        1
 62
     0
 92
       -2
340
0
 93
        0
 40
1.125
309
GRIDFORMAT_END
 95
       16
302
GRIDFORMAT
  1
GRIDFORMAT_BEGIN
 90
        0
 91
        1
 62
     0
 92
       -2
340
0
 93
        0
 40
1.125
309
GRIDFORMAT_END
 95
       32
302
GRIDFORMAT
  1
GRIDFORMAT_BEGIN
 90
        0
 91
        1
 62
     0
 92
       -2
340
0
 93
        0
 40
1.125
309
GRIDFORMAT_END
309
TABLEFORMAT_END
  1
CELLSTYLE_BEGIN
 90
        3
 91
        2
300
_DATA
309
CELLSTYLE_END
  0
ENDSEC
  0
SECTION
  2
ACDSDATA
 70
     2
 71
     8
  0
ACDSSCHEMA
 90
        0
  1
AcDb_Thumbnail_Schema
  2
AcDbDs::ID
280
    10
 91
        8
  2
Thumbnail_Data
280
    15
 91
        0
101
ACDSRECORD
 95
        0
 90
        1
  2
AcDbDs::TreatedAsObjectData
280
     1
291
     1
101
ACDSRECORD
 95
        0
 90
        2
  2
AcDbDs::Legacy
280
     1
291
     1
101
ACDSRECORD
  1
AcDbDs::ID
 90
        3
  2
AcDs:Indexable
280
     1
291
     1
101
ACDSRECORD
  1
AcDbDs::ID
 90
        4
  2
AcDbDs::HandleAttribute
280
     7
282
     1
  0
ACDSSCHEMA
 90
        1
  1
AcDbDs::TreatedAsObjectDataSchema
  2
AcDbDs::TreatedAsObjectData
280
     1
 91
        0
  0
ACDSSCHEMA
 90
        2
  1
AcDbDs::LegacySchema
  2
AcDbDs::Legacy
280
     1
 91
        0
  0
ACDSSCHEMA
 90
        3
  1
AcDbDs::IndexedPropertySchema
  2
AcDs:Indexable
280
     1
 91
        0
  0
ACDSSCHEMA
 90
        4
  1
AcDbDs::HandleAttributeSchema
  2
AcDbDs::HandleAttribute
280
     7
 91
        1
284
     1
  0
ACDSRECORD
 90
        0
  2
AcDbDs::ID
280
    10
320
81BC
  2
Thumbnail_Data
280
    15
 94
     1726
310
89504E470D0A1A0A0000000D49484452000001000000007C0803000000B13B9E5A00000300504C5445000000000000C8C8C80000000000000000000000000000000000000000000000000000330000660000990000CC0000FF0033000033330033660033990033CC0033FF0066000066330066660066990066CC0066FF0099
310
000099330099660099990099CC0099FF00CC0000CC3300CC6600CC9900CCCC00CCFF00FF0000FF3300FF6600FF9900FFCC00FFFF3300003300333300663300993300CC3300FF3333003333333333663333993333CC3333FF3366003366333366663366993366CC3366FF3399003399333399663399993399CC3399FF33CC00
310
33CC3333CC6633CC9933CCCC33CCFF33FF0033FF3333FF6633FF9933FFCC33FFFF6600006600336600666600996600CC6600FF6633006633336633666633996633CC6633FF6666006666336666666666996666CC6666FF6699006699336699666699996699CC6699FF66CC0066CC3366CC6666CC9966CCCC66CCFF66FF0066
310
FF3366FF6666FF9966FFCC66FFFF9900009900339900669900999900CC9900FF9933009933339933669933999933CC9933FF9966009966339966669966999966CC9966FF9999009999339999669999999999CC9999FF99CC0099CC3399CC6699CC9999CCCC99CCFF99FF0099FF3399FF6699FF9999FFCC99FFFFCC0000CC00
310
33CC0066CC0099CC00CCCC00FFCC3300CC3333CC3366CC3399CC33CCCC33FFCC6600CC6633CC6666CC6699CC66CCCC66FFCC9900CC9933CC9966CC9999CC99CCCC99FFCCCC00CCCC33CCCC66CCCC99CCCCCCCCCCFFCCFF00CCFF33CCFF66CCFF99CCFFCCCCFFFFFF0000FF0033FF0066FF0099FF00CCFF00FFFF3300FF3333
310
FF3366FF3399FF33CCFF33FFFF6600FF6633FF6666FF6699FF66CCFF66FFFF9900FF9933FF9966FF9999FF99CCFF99FFFFCC00FFCC33FFCC66FFCC99FFCCCCFFCCFFFFFF00FFFF33FFFF66FFFF99FFFFCCFFFFFF0000000D0D0D1A1A1A2828283535354343435050505D5D5D6B6B6B787878868686939393A1A1A1AEAEAEBB
310
BBBBC9C9C9D6D6D6E4E4E4F1F1F1FFFFFF00000000000000000000000000000000000000000000000000000000000008F1915C000003794944415478DAED9D5B76EB200C45351CFF68FE93611AFCDF189011205CA7B72F3D586D8A1D272BDA3E12B2A00EC037B4FC4D0DB4B4ACEA6D0340000800012000FC9D4F7A33F87901
310
30BD3CBB54807B00D93380C90B7403F8D22B009500FED89B05805F00D074CC249D873E90C8EBB1DD73DA4E0B00A01A0DDD6C689B14F3726E1940A62E647A34A100D8C5B7A6806A6B57007BC28A0B509297B94FDCDB962308461EE0F062E843975008600AFE53C63FC9A5C67DB1086C00409E01B034003A259842A47A171832
310
9FE19A37B383B9F9C6007CD1EBA326180002804E00E9D5868D1400FC0048FBE60480D815360340007003E0700B006B3BDADFB723A16200C81B01C07765A01AC0B5E305807A9E00005E5607009F001A81B3E31440FFF50A80FCC01180739CA7A1EF6CFCB174CCE70189B97E7FEC0A70066075015F008420681C4031EFCA7AA5
310
61D00780D7D51FFA4C84020003E0F4628801909A2300FC495203821300BD00329E7C0700582A2C351F25311C22600D829F707FC5005617F005606FA6C3B2F8E8F45E00A4D1FEB43E611D80F3D961056F1B0002C00F7DD2F41FAB634C06C1E403C088A277778900873361B203A0127808205900F0D0053EF015CD00B802D236
310
174E63E23CEF7500006487B1E602F700560730A28045E73B006DE3B876EA072094C2C4505801CC953334A000A9280A897EEE689DC75A00706D5389EC06C0E402B600B49A60991C58F3411140F714CD99204D8660B5AC2AFB1900BC74A21F4039F52F05941D280040368D6A10009202B0B05801E04E01C9088072EA4F051414
310
6B1044D828403B80B234ACC5BF618DD89407D401E218DBEB400B0A28AB64EA5299A280E6DA1300C03E917629000D0068E24762415A7F04A02C26520D802CAEA3C015049F0240E500CA92987EF2490E00B8C600390882EA61B0E5F374FEB1AC11AAC14018064517500DA0A5BE5714A4ED2D0063A9F039FA9531B09FDB9A09CA
310
00CA30292900B4BB405F2B4A96B12BE20731403D006E4A0F8A0B00DCC500501E03C47F9B5B0100ECD613AA56C0B1D4B886CAD858155C0EC3AB22A63A151EABC1FB8921AA9F37758C6152F312996162F0669E3875B31381D20EE0ADC9E1DB03638144000800012000048000100002806600EEEF2AFBBE652E00F0DBAE8EF7E2
310
B6070084AF4E6337DDA53BADDB05E03E06C80A186EACEF3106B804B0F10B470A88BBCB472A1C0002400008000120001804A0E8ABB7FF017A050E4BCA9435390000000049454E44AE426082
  0
ENDSEC
  0
EOF
