  0
SECTION
  2
HEADER
  9
$ACADVER
  1
AC1027
  9
$ACADMAINTVER
 70
   125
  9
$DWGCODEPAGE
  3
ANSI_932
  9
$LASTSAVEDBY
  1
yasukiyo.ogawa
  9
$REQUIREDVERSIONS
160
                 0
  9
$INSBASE
 10
0.0
 20
0.0
 30
0.0
  9
$EXTMIN
 10
0.0
 20
0.0
 30
0.0
  9
$EXTMAX
 10
7350.0
 20
10325.0
 30
0.0
  9
$LIMMIN
 10
0.0
 20
0.0
  9
$LIMMAX
 10
297.0
 20
210.0
  9
$ORTHOMODE
 70
     1
  9
$REGENMODE
 70
     1
  9
$FILLMODE
 70
     0
  9
$QTEXTMODE
 70
     0
  9
$MIRRTEXT
 70
     1
  9
$LTSCALE
 40
100.0
  9
$ATTMODE
 70
     1
  9
$TEXTSIZE
 40
180.0
  9
$TRACEWID
 40
0.05
  9
$TEXTSTYLE
  7
STANDARD
  9
$CLAYER
  8
3
  9
$CELTYPE
  6
BYLAYER
  9
$CECOLOR
 62
   256
  9
$CELTSCALE
 40
1.0
  9
$DISPSILH
 70
     0
  9
$DIMSCALE
 40
35.0
  9
$DIMASZ
 40
2.0
  9
$DIMEXO
 40
0.5
  9
$DIMDLI
 40
10.0
  9
$DIMRND
 40
0.0
  9
$DIMDLE
 40
0.0
  9
$DIMEXE
 40
1.0
  9
$DIMTP
 40
1.0
  9
$DIMTM
 40
1.0
  9
$DIMTXT
 40
3.0
  9
$DIMCEN
 40
0.0
  9
$DIMTSZ
 40
0.0
  9
$DIMTOL
 70
     0
  9
$DIMLIM
 70
     0
  9
$DIMTIH
 70
     0
  9
$DIMTOH
 70
     0
  9
$DIMSE1
 70
     0
  9
$DIMSE2
 70
     0
  9
$DIMTAD
 70
     1
  9
$DIMZIN
 70
     8
  9
$DIMBLK
  1

  9
$DIMASO
 70
     1
  9
$DIMSHO
 70
     1
  9
$DIMPOST
  1

  9
$DIMAPOST
  1

  9
$DIMALT
 70
     0
  9
$DIMALTD
 70
     2
  9
$DIMALTF
 40
0.039
  9
$DIMLFAC
 40
1.0
  9
$DIMTOFL
 70
     1
  9
$DIMTVP
 40
0.0
  9
$DIMTIX
 70
     0
  9
$DIMSOXD
 70
     0
  9
$DIMSAH
 70
     1
  9
$DIMBLK1
  1
OPEN
  9
$DIMBLK2
  1
OPEN
  9
$DIMSTYLE
  2
IGA
  9
$DIMCLRD
 70
     0
  9
$DIMCLRE
 70
     0
  9
$DIMCLRT
 70
     0
  9
$DIMTFAC
 40
10.0
  9
$DIMGAP
 40
1.0
  9
$DIMJUST
 70
     0
  9
$DIMSD1
 70
     0
  9
$DIMSD2
 70
     0
  9
$DIMTOLJ
 70
     1
  9
$DIMTZIN
 70
     8
  9
$DIMALTZ
 70
     0
  9
$DIMALTTZ
 70
     0
  9
$DIMUPT
 70
     0
  9
$DIMDEC
 70
     0
  9
$DIMTDEC
 70
     0
  9
$DIMALTU
 70
     2
  9
$DIMALTTD
 70
     2
  9
$DIMTXSTY
  7
STANDARD
  9
$DIMAUNIT
 70
     0
  9
$DIMADEC
 70
     0
  9
$DIMALTRND
 40
0.0
  9
$DIMAZIN
 70
     0
  9
$DIMDSEP
 70
    46
  9
$DIMATFIT
 70
     3
  9
$DIMFRAC
 70
     0
  9
$DIMLDRBLK
  1
OPEN
  9
$DIMLUNIT
 70
     2
  9
$DIMLWD
 70
    -2
  9
$DIMLWE
 70
    -2
  9
$DIMTMOVE
 70
     2
  9
$DIMFXL
 40
1.0
  9
$DIMFXLON
 70
     0
  9
$DIMJOGANG
 40
0.7853981633974483
  9
$DIMTFILL
 70
     0
  9
$DIMTFILLCLR
 70
     0
  9
$DIMARCSYM
 70
     0
  9
$DIMLTYPE
  6

  9
$DIMLTEX1
  6

  9
$DIMLTEX2
  6

  9
$DIMTXTDIRECTION
 70
     0
  9
$LUNITS
 70
     2
  9
$LUPREC
 70
     3
  9
$SKETCHINC
 40
0.1
  9
$FILLETRAD
 40
50.0
  9
$AUNITS
 70
     0
  9
$AUPREC
 70
     0
  9
$MENU
  1
acad
  9
$ELEVATION
 40
0.0
  9
$PELEVATION
 40
0.0
  9
$THICKNESS
 40
0.0
  9
$LIMCHECK
 70
     0
  9
$CHAMFERA
 40
0.5
  9
$CHAMFERB
 40
0.5
  9
$CHAMFERC
 40
20.0
  9
$CHAMFERD
 40
0.0
  9
$SKPOLY
 70
     0
  9
$TDCREATE
 40
2451382.561574074
  9
$TDUCREATE
 40
2451382.186580093
  9
$TDUPDATE
 40
2460241.648391204
  9
$TDUUPDATE
 40
2460241.273395232
  9
$TDINDWG
 40
0.0224168403
  9
$TDUSRTIMER
 40
0.0224168403
  9
$USRTIMER
 70
     1
  9
$ANGBASE
 50
0.0
  9
$ANGDIR
 70
     0
  9
$PDMODE
 70
     0
  9
$PDSIZE
 40
0.0
  9
$PLINEWID
 40
0.0
  9
$SPLFRAME
 70
     0
  9
$SPLINETYPE
 70
     6
  9
$SPLINESEGS
 70
     8
  9
$HANDSEED
  5
83B5
  9
$SURFTAB1
 70
     6
  9
$SURFTAB2
 70
     6
  9
$SURFTYPE
 70
     6
  9
$SURFU
 70
     6
  9
$SURFV
 70
     6
  9
$UCSBASE
  2

  9
$UCSNAME
  2

  9
$UCSORG
 10
0.0
 20
0.0
 30
0.0
  9
$UCSXDIR
 10
1.0
 20
0.0
 30
0.0
  9
$UCSYDIR
 10
0.0
 20
1.0
 30
0.0
  9
$UCSORTHOREF
  2

  9
$UCSORTHOVIEW
 70
     0
  9
$UCSORGTOP
 10
0.0
 20
0.0
 30
0.0
  9
$UCSORGBOTTOM
 10
0.0
 20
0.0
 30
0.0
  9
$UCSORGLEFT
 10
0.0
 20
0.0
 30
0.0
  9
$UCSORGRIGHT
 10
0.0
 20
0.0
 30
0.0
  9
$UCSORGFRONT
 10
0.0
 20
0.0
 30
0.0
  9
$UCSORGBACK
 10
0.0
 20
0.0
 30
0.0
  9
$PUCSBASE
  2

  9
$PUCSNAME
  2

  9
$PUCSORG
 10
0.0
 20
0.0
 30
0.0
  9
$PUCSXDIR
 10
1.0
 20
0.0
 30
0.0
  9
$PUCSYDIR
 10
0.0
 20
1.0
 30
0.0
  9
$PUCSORTHOREF
  2

  9
$PUCSORTHOVIEW
 70
     0
  9
$PUCSORGTOP
 10
0.0
 20
0.0
 30
0.0
  9
$PUCSORGBOTTOM
 10
0.0
 20
0.0
 30
0.0
  9
$PUCSORGLEFT
 10
0.0
 20
0.0
 30
0.0
  9
$PUCSORGRIGHT
 10
0.0
 20
0.0
 30
0.0
  9
$PUCSORGFRONT
 10
0.0
 20
0.0
 30
0.0
  9
$PUCSORGBACK
 10
0.0
 20
0.0
 30
0.0
  9
$USERI1
 70
     0
  9
$USERI2
 70
     0
  9
$USERI3
 70
     0
  9
$USERI4
 70
     0
  9
$USERI5
 70
     0
  9
$USERR1
 40
0.0
  9
$USERR2
 40
0.0
  9
$USERR3
 40
0.0
  9
$USERR4
 40
0.0
  9
$USERR5
 40
0.0
  9
$WORLDVIEW
 70
     1
  9
$SHADEDGE
 70
     3
  9
$SHADEDIF
 70
    70
  9
$TILEMODE
 70
     1
  9
$MAXACTVP
 70
    16
  9
$PINSBASE
 10
0.0
 20
0.0
 30
0.0
  9
$PLIMCHECK
 70
     0
  9
$PEXTMIN
 10
1.000000000000000E+20
 20
1.000000000000000E+20
 30
1.000000000000000E+20
  9
$PEXTMAX
 10
-1.000000000000000E+20
 20
-1.000000000000000E+20
 30
-1.000000000000000E+20
  9
$PLIMMIN
 10
0.0
 20
0.0
  9
$PLIMMAX
 10
12.0
 20
9.0
  9
$UNITMODE
 70
     0
  9
$VISRETAIN
 70
     0
  9
$PLINEGEN
 70
     0
  9
$PSLTSCALE
 70
     1
  9
$TREEDEPTH
 70
  3020
  9
$CMLSTYLE
  2
STANDARD
  9
$CMLJUST
 70
     0
  9
$CMLSCALE
 40
20.0
  9
$PROXYGRAPHICS
 70
     1
  9
$MEASUREMENT
 70
     1
  9
$CELWEIGHT
370
    -1
  9
$ENDCAPS
280
     0
  9
$JOINSTYLE
280
     0
  9
$LWDISPLAY
290
     0
  9
$INSUNITS
 70
     0
  9
$HYPERLINKBASE
  1

  9
$STYLESHEET
  1

  9
$XEDIT
290
     1
  9
$CEPSNTYPE
380
     0
  9
$PSTYLEMODE
290
     1
  9
$FINGERPRINTGUID
  2
{A5F1D3ED-3CC3-4BD7-B409-758059920092}
  9
$VERSIONGUID
  2
{AAC29184-9A50-4AF5-9E54-02A300CE526E}
  9
$EXTNAMES
290
     1
  9
$PSVPSCALE
 40
0.0
  9
$OLESTARTUP
290
     0
  9
$SORTENTS
280
   127
  9
$INDEXCTL
280
     0
  9
$HIDETEXT
280
     0
  9
$XCLIPFRAME
280
     2
  9
$HALOGAP
280
     0
  9
$OBSCOLOR
 70
   257
  9
$OBSLTYPE
280
     0
  9
$INTERSECTIONDISPLAY
280
     0
  9
$INTERSECTIONCOLOR
 70
   257
  9
$DIMASSOC
280
     1
  9
$PROJECTNAME
  1

  9
$CAMERADISPLAY
290
     0
  9
$LENSLENGTH
 40
50.0
  9
$CAMERAHEIGHT
 40
0.0
  9
$STEPSPERSEC
 40
2.0
  9
$STEPSIZE
 40
6.0
  9
$3DDWFPREC
 40
2.0
  9
$PSOLWIDTH
 40
0.25
  9
$PSOLHEIGHT
 40
4.0
  9
$LOFTANG1
 40
1.570796326794896
  9
$LOFTANG2
 40
1.570796326794896
  9
$LOFTMAG1
 40
0.0
  9
$LOFTMAG2
 40
0.0
  9
$LOFTPARAM
 70
     7
  9
$LOFTNORMALS
280
     1
  9
$LATITUDE
 40
37.795
  9
$LONGITUDE
 40
-122.394
  9
$NORTHDIRECTION
 40
0.0
  9
$TIMEZONE
 70
 -8000
  9
$LIGHTGLYPHDISPLAY
280
     1
  9
$TILEMODELIGHTSYNCH
280
     1
  9
$CMATERIAL
347
82F7
  9
$SOLIDHIST
280
     0
  9
$SHOWHIST
280
     1
  9
$DWFFRAME
280
     2
  9
$DGNFRAME
280
     0
  9
$REALWORLDSCALE
290
     1
  9
$INTERFERECOLOR
 62
     1
  9
$INTERFEREOBJVS
345
8319
  9
$INTERFEREVPVS
346
8316
  9
$CSHADOW
280
     0
  9
$SHADOWPLANELOCATION
 40
0.0
  0
ENDSEC
  0
SECTION
  2
CLASSES
  0
CLASS
  1
ACDBDICTIONARYWDFLT
  2
AcDbDictionaryWithDefault
  3
ObjectDBX Classes
 90
        0
 91
        1
280
     0
281
     0
  0
CLASS
  1
DICTIONARYVAR
  2
AcDbDictionaryVar
  3
ObjectDBX Classes
 90
        0
 91
       11
280
     0
281
     0
  0
CLASS
  1
MATERIAL
  2
AcDbMaterial
  3
ObjectDBX Classes
 90
     1153
 91
        3
280
     0
281
     0
  0
CLASS
  1
VISUALSTYLE
  2
AcDbVisualStyle
  3
ObjectDBX Classes
 90
     4095
 91
       24
280
     0
281
     0
  0
CLASS
  1
TABLESTYLE
  2
AcDbTableStyle
  3
ObjectDBX Classes
 90
     4095
 91
        1
280
     0
281
     0
  0
CLASS
  1
SCALE
  2
AcDbScale
  3
ObjectDBX Classes
 90
     1153
 91
       17
280
     0
281
     0
  0
CLASS
  1
MLEADERSTYLE
  2
AcDbMLeaderStyle
  3
ACDB_MLEADERSTYLE_CLASS
 90
     4095
 91
        1
280
     0
281
     0
  0
CLASS
  1
ACDBSECTIONVIEWSTYLE
  2
AcDbSectionViewStyle
  3
ObjectDBX Classes
 90
     1025
 91
        1
280
     0
281
     0
  0
CLASS
  1
ACDBDETAILVIEWSTYLE
  2
AcDbDetailViewStyle
  3
ObjectDBX Classes
 90
     1025
 91
        1
280
     0
281
     0
  0
CLASS
  1
CELLSTYLEMAP
  2
AcDbCellStyleMap
  3
ObjectDBX Classes
 90
     1152
 91
        1
280
     0
281
     0
  0
ENDSEC
  0
SECTION
  2
TABLES
  0
TABLE
  2
VPORT
  5
8
330
0
100
AcDbSymbolTable
 70
     1
1001
ACAD
1000
DbSaveVer
1071
      278
  0
VPORT
  5
82F4
330
8
100
AcDbSymbolTableRecord
100
AcDbViewportTableRecord
  2
*Active
 70
     0
 10
0.0
 20
0.0
 11
1.0
 21
1.0
 12
4714.698658823925
 22
5162.500024039763
 13
0.0
 23
0.0
 14
10.0
 24
10.0
 15
10.0
 25
10.0
 16
0.0
 26
0.0
 36
1.0
 17
0.0
 27
0.0
 37
0.0
 40
10391.74948481712
 41
2.250314465408805
 42
50.0
 43
0.0
 44
0.0
 50
0.0
 51
0.0
 71
     0
 72
   100
 73
     1
 74
     0
 75
     0
 76
     0
 77
     0
 78
     0
281
     0
 65
     1
110
0.0
120
0.0
130
0.0
111
1.0
121
0.0
131
0.0
112
0.0
122
1.0
132
0.0
 79
     0
146
0.0
348
8315
 60
     3
 61
     5
292
     1
282
     1
141
0.0
142
0.0
 63
   250
421
  3355443
1001
ACAD_NAV_VCDISPLAY
1070
     3
  0
ENDTAB
  0
TABLE
  2
LTYPE
  5
5
330
0
100
AcDbSymbolTable
 70
     2
  0
LTYPE
  5
13
330
5
100
AcDbSymbolTableRecord
100
AcDbLinetypeTableRecord
  2
BYBLOCK
 70
     0
  3

 72
    65
 73
     0
 40
0.0
  0
LTYPE
  5
14
330
5
100
AcDbSymbolTableRecord
100
AcDbLinetypeTableRecord
  2
BYLAYER
 70
     0
  3

 72
    65
 73
     0
 40
0.0
  0
LTYPE
  5
15
330
5
100
AcDbSymbolTableRecord
100
AcDbLinetypeTableRecord
  2
CONTINUOUS
 70
     0
  3
Solid line
 72
    65
 73
     0
 40
0.0
  0
LTYPE
  5
1F
330
5
100
AcDbSymbolTableRecord
100
AcDbLinetypeTableRecord
  2
CENTER
 70
     0
  3
____ _ ____ _ ____ _ ____ _ ____ _ ____ _ ____ 
 72
    65
 73
     4
 40
2.0
 49
1.25
 74
     0
 49
-0.25
 74
     0
 49
0.25
 74
     0
 49
-0.25
 74
     0
  0
ENDTAB
  0
TABLE
  2
LAYER
  5
2
102
{ACAD_XDICTIONARY
360
838C
102
}
330
0
100
AcDbSymbolTable
 70
     6
  0
LAYER
  5
F
102
{ACAD_XDICTIONARY
360
837F
102
}
330
2
100
AcDbSymbolTableRecord
100
AcDbLayerTableRecord
  2
0
 70
     0
 62
     7
  6
CONTINUOUS
370
    -3
390
822D
347
8307
348
0
  0
LAYER
  5
31
102
{ACAD_XDICTIONARY
360
8381
102
}
330
2
100
AcDbSymbolTableRecord
100
AcDbLayerTableRecord
  2
3
 70
     0
 62
     2
  6
CONTINUOUS
370
    -3
390
822D
347
8307
348
0
  0
LAYER
  5
76D0
102
{ACAD_XDICTIONARY
360
8383
102
}
330
2
100
AcDbSymbolTableRecord
100
AcDbLayerTableRecord
  2
2
 70
     0
 62
     3
  6
CENTER
370
    -3
390
822D
347
8307
348
0
  0
LAYER
  5
76D1
102
{ACAD_XDICTIONARY
360
8385
102
}
330
2
100
AcDbSymbolTableRecord
100
AcDbLayerTableRecord
  2
1
 70
     0
 62
     4
  6
CONTINUOUS
370
    -3
390
822D
347
8307
348
0
  0
LAYER
  5
76D2
102
{ACAD_XDICTIONARY
360
8387
102
}
330
2
100
AcDbSymbolTableRecord
100
AcDbLayerTableRecord
  2
4
 70
     0
 62
     7
  6
CONTINUOUS
370
    -3
390
822D
347
8307
348
0
  0
LAYER
  5
7B40
330
2
100
AcDbSymbolTableRecord
100
AcDbLayerTableRecord
  2
DEFPOINTS
 70
     0
 62
     7
  6
CONTINUOUS
290
     0
370
    -3
390
822D
347
8307
348
0
  0
ENDTAB
  0
TABLE
  2
STYLE
  5
3
330
0
100
AcDbSymbolTable
 70
     1
  0
STYLE
  5
10
330
3
100
AcDbSymbolTableRecord
100
AcDbTextStyleTableRecord
  2
STANDARD
 70
     0
 40
0.0
 41
1.0
 50
0.0
 71
     0
 42
180.0
  3
simplex.shx
  4
extfont.shx
  0
ENDTAB
  0
TABLE
  2
VIEW
  5
6
330
0
100
AcDbSymbolTable
 70
     0
  0
ENDTAB
  0
TABLE
  2
UCS
  5
7
330
0
100
AcDbSymbolTable
 70
     0
  0
ENDTAB
  0
TABLE
  2
APPID
  5
9
330
0
100
AcDbSymbolTable
 70
     4
  0
APPID
  5
11
330
9
100
AcDbSymbolTableRecord
100
AcDbRegAppTableRecord
  2
ACAD
 70
     0
  0
APPID
  5
8346
330
9
100
AcDbSymbolTableRecord
100
AcDbRegAppTableRecord
  2
AcadAnnoMonitorAlertIconDisabled
 70
     0
  0
APPID
  5
8347
330
9
100
AcDbSymbolTableRecord
100
AcDbRegAppTableRecord
  2
ACAD_EXEMPT_FROM_CAD_STANDARDS
 70
     0
  0
APPID
  5
8392
330
9
100
AcDbSymbolTableRecord
100
AcDbRegAppTableRecord
  2
ACAD_NAV_VCDISPLAY
 70
     0
  0
ENDTAB
  0
TABLE
  2
DIMSTYLE
  5
A
330
0
100
AcDbSymbolTable
 70
     1
100
AcDbDimStyleTable
 71
     1
340
1D
  0
DIMSTYLE
105
1D
102
{ACAD_REACTORS
330
7C31
330
7C5F
330
7C60
330
7C61
330
7C63
330
7C66
330
7C79
330
7C7F
330
7C95
330
7C96
330
7C9B
330
7CA0
330
7CC4
330
7CC5
330
7CD8
330
81F1
330
81FE
330
820B
330
8218
330
8225
102
}
330
A
100
AcDbSymbolTableRecord
100
AcDbDimStyleTableRecord
  2
IGA
 70
     0
 40
2.0
 41
2.0
 42
0.5
 43
10.0
 44
1.0
 47
1.0
 48
1.0
 73
     0
 74
     0
 77
     1
 78
     8
140
3.0
141
0.0
143
0.03937
146
10.0
147
1.0
173
     1
271
     1
272
     0
279
     2
284
     8
340
10
341
7B34
343
7B34
344
7B34
  0
ENDTAB
  0
TABLE
  2
BLOCK_RECORD
  5
1
330
0
100
AcDbSymbolTable
 70
    22
  0
BLOCK_RECORD
  5
19
102
{ACAD_XDICTIONARY
360
825B
102
}
330
1
100
AcDbSymbolTableRecord
100
AcDbBlockTableRecord
  2
*MODEL_SPACE
340
8230
 70
     0
280
     1
281
     0
  0
BLOCK_RECORD
  5
16
102
{ACAD_XDICTIONARY
360
8259
102
}
330
1
100
AcDbSymbolTableRecord
100
AcDbBlockTableRecord
  2
*PAPER_SPACE
340
8231
 70
     0
280
     1
281
     0
  0
BLOCK_RECORD
  5
79FC
330
1
100
AcDbSymbolTableRecord
100
AcDbBlockTableRecord
  2
YA_N
340
0
102
{BLKREFS
331
7C13
331
7C17
331
7C19
102
}
 70
     0
280
     1
281
     0
  0
BLOCK_RECORD
  5
7B34
330
1
100
AcDbSymbolTableRecord
100
AcDbBlockTableRecord
  2
_OPEN
340
0
102
{BLKREFS
331
8370
331
8371
331
8379
331
837A
331
81EA
331
81EB
331
81F7
331
81F8
331
8204
331
8205
331
8211
331
8212
331
821E
331
821F
331
8264
331
8265
331
827F
331
8280
331
8288
331
8289
331
8291
331
8292
331
829A
331
829B
331
82A3
331
82A4
331
82AC
331
82AD
331
82B5
331
82B6
331
82BE
331
82BF
331
82C7
331
82C8
331
82D0
331
82D1
331
82D9
331
82DA
331
82E2
331
82E3
102
}
 70
     0
280
     1
281
     0
  0
BLOCK_RECORD
  5
7CDC
330
1
100
AcDbSymbolTableRecord
100
AcDbBlockTableRecord
  2
*D2
340
0
 70
     0
280
     1
281
     0
  0
BLOCK_RECORD
  5
7D0C
330
1
100
AcDbSymbolTableRecord
100
AcDbBlockTableRecord
  2
*D3
340
0
 70
     0
280
     1
281
     0
  0
BLOCK_RECORD
  5
7D18
330
1
100
AcDbSymbolTableRecord
100
AcDbBlockTableRecord
  2
*D4
340
0
 70
     0
280
     1
281
     0
  0
BLOCK_RECORD
  5
7D24
330
1
100
AcDbSymbolTableRecord
100
AcDbBlockTableRecord
  2
*D5
340
0
 70
     0
280
     1
281
     0
  0
BLOCK_RECORD
  5
7D30
330
1
100
AcDbSymbolTableRecord
100
AcDbBlockTableRecord
  2
*D6
340
0
 70
     0
280
     1
281
     0
  0
BLOCK_RECORD
  5
7D3C
330
1
100
AcDbSymbolTableRecord
100
AcDbBlockTableRecord
  2
*D7
340
0
 70
     0
280
     1
281
     0
  0
BLOCK_RECORD
  5
7D60
330
1
100
AcDbSymbolTableRecord
100
AcDbBlockTableRecord
  2
*D8
340
0
 70
     0
280
     1
281
     0
  0
BLOCK_RECORD
  5
7D6C
330
1
100
AcDbSymbolTableRecord
100
AcDbBlockTableRecord
  2
*D9
340
0
 70
     0
280
     1
281
     0
  0
BLOCK_RECORD
  5
7D90
330
1
100
AcDbSymbolTableRecord
100
AcDbBlockTableRecord
  2
*D10
340
0
 70
     0
280
     1
281
     0
  0
BLOCK_RECORD
  5
7D9C
330
1
100
AcDbSymbolTableRecord
100
AcDbBlockTableRecord
  2
*D11
340
0
 70
     0
280
     1
281
     0
  0
BLOCK_RECORD
  5
7DA8
330
1
100
AcDbSymbolTableRecord
100
AcDbBlockTableRecord
  2
*D12
340
0
 70
     0
280
     1
281
     0
  0
BLOCK_RECORD
  5
7DB4
330
1
100
AcDbSymbolTableRecord
100
AcDbBlockTableRecord
  2
*D13
340
0
 70
     0
280
     1
281
     0
  0
BLOCK_RECORD
  5
7DC0
330
1
100
AcDbSymbolTableRecord
100
AcDbBlockTableRecord
  2
*D14
340
0
 70
     0
280
     1
281
     0
  0
BLOCK_RECORD
  5
7DCC
330
1
100
AcDbSymbolTableRecord
100
AcDbBlockTableRecord
  2
*D15
340
0
 70
     0
280
     1
281
     0
  0
BLOCK_RECORD
  5
7DD8
330
1
100
AcDbSymbolTableRecord
100
AcDbBlockTableRecord
  2
*D16
340
0
 70
     0
280
     1
281
     0
  0
BLOCK_RECORD
  5
81E5
330
1
100
AcDbSymbolTableRecord
100
AcDbBlockTableRecord
  2
*D17
340
0
 70
     0
280
     1
281
     0
  0
BLOCK_RECORD
  5
81F2
330
1
100
AcDbSymbolTableRecord
100
AcDbBlockTableRecord
  2
*D18
340
0
 70
     0
280
     1
281
     0
  0
BLOCK_RECORD
  5
81FF
330
1
100
AcDbSymbolTableRecord
100
AcDbBlockTableRecord
  2
*D19
340
0
 70
     0
280
     1
281
     0
  0
BLOCK_RECORD
  5
820C
330
1
100
AcDbSymbolTableRecord
100
AcDbBlockTableRecord
  2
*D20
340
0
 70
     0
280
     1
281
     0
  0
BLOCK_RECORD
  5
8219
330
1
100
AcDbSymbolTableRecord
100
AcDbBlockTableRecord
  2
*D21
340
0
 70
     0
280
     1
281
     0
  0
ENDTAB
  0
ENDSEC
  0
SECTION
  2
BLOCKS
  0
BLOCK
  5
1A
330
19
100
AcDbEntity
  8
0
100
AcDbBlockBegin
  2
*MODEL_SPACE
 70
     0
 10
0.0
 20
0.0
 30
0.0
  3
*MODEL_SPACE
  1

  0
ENDBLK
  5
1B
330
19
100
AcDbEntity
  8
0
100
AcDbBlockEnd
  0
BLOCK
  5
17
330
16
100
AcDbEntity
 67
     1
  8
0
100
AcDbBlockBegin
  2
*PAPER_SPACE
 70
     0
 10
0.0
 20
0.0
 30
0.0
  3
*PAPER_SPACE
  1

  0
ENDBLK
  5
18
330
16
100
AcDbEntity
 67
     1
  8
0
100
AcDbBlockEnd
  0
BLOCK
  5
79FD
330
79FC
100
AcDbEntity
  8
0
100
AcDbBlockBegin
  2
YA_N
 70
     0
 10
0.0
 20
0.0
 30
0.0
  3
YA_N
  1

  0
ENDBLK
  5
79FE
330
79FC
100
AcDbEntity
  8
0
100
AcDbBlockEnd
  0
BLOCK
  5
7B38
330
7B34
100
AcDbEntity
  8
0
 48
10.0
100
AcDbBlockBegin
  2
_OPEN
 70
     0
 10
0.0
 20
0.0
 30
0.0
  3
_OPEN
  1

  0
LINE
  5
7B35
330
7B34
100
AcDbEntity
  8
0
  6
ByBlock
 62
     0
 48
10.0
100
AcDbLine
 10
-1.0
 20
0.1666666666666666
 30
0.0
 11
0.0
 21
0.0
 31
0.0
  0
LINE
  5
7B36
330
7B34
100
AcDbEntity
  8
0
  6
ByBlock
 62
     0
 48
10.0
100
AcDbLine
 10
0.0
 20
0.0
 30
0.0
 11
-1.0
 21
-0.1666666666666666
 31
0.0
  0
LINE
  5
7B37
330
7B34
100
AcDbEntity
  8
0
  6
ByBlock
 62
     0
 48
10.0
100
AcDbLine
 10
0.0
 20
0.0
 30
0.0
 11
-1.0
 21
0.0
 31
0.0
  0
ENDBLK
  5
7B39
330
7B34
100
AcDbEntity
  8
0
 48
10.0
100
AcDbBlockEnd
  0
BLOCK
  5
7FEA
330
7CDC
100
AcDbEntity
  8
0
100
AcDbBlockBegin
  2
*D2
 70
     1
 10
0.0
 20
0.0
 30
0.0
  3
*D2
  1

  0
LINE
  5
8261
330
7CDC
100
AcDbEntity
  8
3
 62
     0
440
 16777216
100
AcDbLine
 10
6360.713645968498
 20
2801.241005288425
 30
0.0
 11
6798.532059985631
 21
2801.241005288425
 31
0.0
  0
LINE
  5
8262
330
7CDC
100
AcDbEntity
  8
3
 62
     0
440
 16777216
100
AcDbLine
 10
6360.713645968498
 20
3801.241005288426
 30
0.0
 11
6798.532059985631
 21
3801.241005288426
 31
0.0
  0
LINE
  5
8263
330
7CDC
100
AcDbEntity
  8
3
 62
     0
440
 16777216
100
AcDbLine
 10
6763.532059985632
 20
2871.241005288425
 30
0.0
 11
6763.532059985632
 21
3731.241005288425
 31
0.0
  0
INSERT
  5
8264
330
7CDC
100
AcDbEntity
  8
3
 62
     0
440
 16777216
100
AcDbBlockReference
  2
_OPEN
 10
6763.532059985632
 20
2801.241005288425
 30
0.0
 41
70.0
 42
70.0
 43
70.0
 50
270.0
  0
INSERT
  5
8265
330
7CDC
100
AcDbEntity
  8
3
 62
     0
440
 16777216
100
AcDbBlockReference
  2
_OPEN
 10
6763.532059985632
 20
3801.241005288426
 30
0.0
 41
70.0
 42
70.0
 43
70.0
 50
90.0
  0
MTEXT
  5
8266
330
7CDC
100
AcDbEntity
  8
3
 62
     0
440
 16777216
100
AcDbMText
 10
6676.032059985629
 20
3301.241005288427
 30
0.0
 40
105.0
 41
0.0
 46
0.0
 71
     5
 72
     5
  1
\A1;φ1000
 11
0.0000000000000001
 21
1.0
 31
0.0
 73
     1
 44
1.0
  0
POINT
  5
8267
330
7CDC
100
AcDbEntity
  8
DEFPOINTS
 62
     0
440
 16777216
100
AcDbPoint
 10
6343.213645968499
 20
2801.241005288425
 30
0.0
  0
POINT
  5
8268
330
7CDC
100
AcDbEntity
  8
DEFPOINTS
 62
     0
440
 16777216
100
AcDbPoint
 10
6343.213645968499
 20
3801.241005288426
 30
0.0
  0
POINT
  5
8269
330
7CDC
100
AcDbEntity
  8
DEFPOINTS
 62
     0
440
 16777216
100
AcDbPoint
 10
6763.532059985632
 20
3801.241005288426
 30
0.0
  0
ENDBLK
  5
7FF4
330
7CDC
100
AcDbEntity
  8
0
100
AcDbBlockEnd
  0
BLOCK
  5
7FD4
330
7D0C
100
AcDbEntity
  8
0
100
AcDbBlockBegin
  2
*D3
 70
     1
 10
0.0
 20
0.0
 30
0.0
  3
*D3
  1

  0
LINE
  5
8376
330
7D0C
100
AcDbEntity
  8
3
 62
     0
440
 16777216
 48
10.0
370
    -2
100
AcDbLine
 10
6477.713645968499
 20
3276.541005288426
 30
0.0
 11
6477.713645968499
 21
4946.499183958312
 31
0.0
  0
LINE
  5
8377
330
7D0C
100
AcDbEntity
  8
3
 62
     0
440
 16777216
 48
10.0
370
    -2
100
AcDbLine
 10
5677.713645968498
 20
4753.208266401692
 30
0.0
 11
5677.713645968498
 21
4946.499183958312
 31
0.0
  0
LINE
  5
8378
330
7D0C
100
AcDbEntity
  8
3
 62
     0
440
 16777216
 48
10.0
370
    -2
100
AcDbLine
 10
6407.713645968499
 20
4911.499183958312
 30
0.0
 11
5747.713645968499
 21
4911.499183958312
 31
0.0
  0
INSERT
  5
8379
330
7D0C
100
AcDbEntity
  8
3
 62
     0
440
 16777216
 48
10.0
370
    -2
100
AcDbBlockReference
  2
_OPEN
 10
6477.713645968499
 20
4911.499183958312
 30
0.0
 41
70.0
 42
70.0
 43
70.0
  0
INSERT
  5
837A
330
7D0C
100
AcDbEntity
  8
3
 62
     0
440
 16777216
 48
10.0
370
    -2
100
AcDbBlockReference
  2
_OPEN
 10
5677.713645968498
 20
4911.499183958312
 30
0.0
 41
70.0
 42
70.0
 43
70.0
 50
180.0
  0
MTEXT
  5
837B
330
7D0C
100
AcDbEntity
  8
3
 62
     0
440
 16777216
 48
10.0
100
AcDbMText
 10
6077.713645968499
 20
5026.499183958312
 30
0.0
 40
105.0
 41
0.0
 46
0.0
 71
     5
 72
     1
  1
\A1;(800)
 73
     1
 44
1.0
  0
POINT
  5
837C
330
7D0C
100
AcDbEntity
  8
DEFPOINTS
 62
     0
440
 16777216
 48
10.0
100
AcDbPoint
 10
6477.713645968499
 20
3259.041005288425
 30
0.0
  0
POINT
  5
837D
330
7D0C
100
AcDbEntity
  8
DEFPOINTS
 62
     0
440
 16777216
 48
10.0
100
AcDbPoint
 10
5677.713645968498
 20
4735.708266401693
 30
0.0
  0
POINT
  5
837E
330
7D0C
100
AcDbEntity
  8
DEFPOINTS
 62
     0
440
 16777216
 48
10.0
100
AcDbPoint
 10
5677.713645968498
 20
4911.499183958312
 30
0.0
  0
ENDBLK
  5
7FDE
330
7D0C
100
AcDbEntity
  8
0
100
AcDbBlockEnd
  0
BLOCK
  5
819C
330
7D18
100
AcDbEntity
  8
0
100
AcDbBlockBegin
  2
*D4
 70
     1
 10
0.0
 20
0.0
 30
0.0
  3
*D4
  1

  0
LINE
  5
836D
330
7D18
100
AcDbEntity
  8
3
 62
     0
440
 16777216
 48
10.0
370
    -2
100
AcDbLine
 10
5677.713645968498
 20
4753.208266401692
 30
0.0
 11
5677.713645968498
 21
4946.499183958312
 31
0.0
  0
LINE
  5
836E
330
7D18
100
AcDbEntity
  8
3
 62
     0
440
 16777216
 48
10.0
370
    -2
100
AcDbLine
 10
4598.213645968494
 20
3598.741005288425
 30
0.0
 11
4598.213645968494
 21
4946.499183958312
 31
0.0
  0
LINE
  5
836F
330
7D18
100
AcDbEntity
  8
3
 62
     0
440
 16777216
 48
10.0
370
    -2
100
AcDbLine
 10
5607.713645968499
 20
4911.499183958312
 30
0.0
 11
4668.213645968493
 21
4911.499183958312
 31
0.0
  0
INSERT
  5
8370
330
7D18
100
AcDbEntity
  8
3
 62
     0
440
 16777216
 48
10.0
370
    -2
100
AcDbBlockReference
  2
_OPEN
 10
5677.713645968498
 20
4911.499183958312
 30
0.0
 41
70.0
 42
70.0
 43
70.0
  0
INSERT
  5
8371
330
7D18
100
AcDbEntity
  8
3
 62
     0
440
 16777216
 48
10.0
370
    -2
100
AcDbBlockReference
  2
_OPEN
 10
4598.213645968494
 20
4911.499183958312
 30
0.0
 41
70.0
 42
70.0
 43
70.0
 50
180.0
  0
MTEXT
  5
8372
330
7D18
100
AcDbEntity
  8
3
 62
     0
440
 16777216
 48
10.0
100
AcDbMText
 10
5137.963645968496
 20
5026.499183958312
 30
0.0
 40
105.0
 41
0.0
 46
0.0
 71
     5
 72
     1
  1
\A1;(1080)
 73
     1
 44
1.0
  0
POINT
  5
8373
330
7D18
100
AcDbEntity
  8
DEFPOINTS
 62
     0
440
 16777216
 48
10.0
100
AcDbPoint
 10
5677.713645968498
 20
4735.708266401693
 30
0.0
  0
POINT
  5
8374
330
7D18
100
AcDbEntity
  8
DEFPOINTS
 62
     0
440
 16777216
 48
10.0
100
AcDbPoint
 10
4598.213645968494
 20
3581.241005288426
 30
0.0
  0
POINT
  5
8375
330
7D18
100
AcDbEntity
  8
DEFPOINTS
 62
     0
440
 16777216
 48
10.0
100
AcDbPoint
 10
4598.213645968494
 20
4911.499183958312
 30
0.0
  0
ENDBLK
  5
81A6
330
7D18
100
AcDbEntity
  8
0
100
AcDbBlockEnd
  0
BLOCK
  5
7FDF
330
7D24
100
AcDbEntity
  8
0
100
AcDbBlockBegin
  2
*D5
 70
     1
 10
0.0
 20
0.0
 30
0.0
  3
*D5
  1

  0
LINE
  5
827C
330
7D24
100
AcDbEntity
  8
3
 62
     0
440
 16777216
100
AcDbLine
 10
5017.713645968498
 20
4392.741005288425
 30
0.0
 11
5017.713645968498
 21
4625.50635268542
 31
0.0
  0
LINE
  5
827D
330
7D24
100
AcDbEntity
  8
3
 62
     0
440
 16777216
100
AcDbLine
 10
6337.713645968499
 20
4392.741005288425
 30
0.0
 11
6337.713645968499
 21
4625.50635268542
 31
0.0
  0
LINE
  5
827E
330
7D24
100
AcDbEntity
  8
3
 62
     0
440
 16777216
100
AcDbLine
 10
5087.713645968499
 20
4590.506352685421
 30
0.0
 11
6267.713645968498
 21
4590.506352685421
 31
0.0
  0
INSERT
  5
827F
330
7D24
100
AcDbEntity
  8
3
 62
     0
440
 16777216
100
AcDbBlockReference
  2
_OPEN
 10
5017.713645968498
 20
4590.506352685421
 30
0.0
 41
70.0
 42
70.0
 43
70.0
 50
180.0
  0
INSERT
  5
8280
330
7D24
100
AcDbEntity
  8
3
 62
     0
440
 16777216
100
AcDbBlockReference
  2
_OPEN
 10
6337.713645968499
 20
4590.506352685421
 30
0.0
 41
70.0
 42
70.0
 43
70.0
  0
MTEXT
  5
8281
330
7D24
100
AcDbEntity
  8
3
 62
     0
440
 16777216
100
AcDbMText
 10
5673.658818336735
 20
4678.006352685421
 30
0.0
 40
105.0
 41
0.0
 46
0.0
 71
     5
 72
     5
  1
\A1;1320
 73
     1
 44
1.0
  0
POINT
  5
8282
330
7D24
100
AcDbEntity
  8
DEFPOINTS
 62
     0
440
 16777216
100
AcDbPoint
 10
5017.713645968498
 20
4375.241005288425
 30
0.0
  0
POINT
  5
8283
330
7D24
100
AcDbEntity
  8
DEFPOINTS
 62
     0
440
 16777216
100
AcDbPoint
 10
6337.713645968499
 20
4375.241005288425
 30
0.0
  0
POINT
  5
8284
330
7D24
100
AcDbEntity
  8
DEFPOINTS
 62
     0
440
 16777216
100
AcDbPoint
 10
6337.713645968499
 20
4590.506352685421
 30
0.0
  0
ENDBLK
  5
7FE9
330
7D24
100
AcDbEntity
  8
0
100
AcDbBlockEnd
  0
BLOCK
  5
7F0A
330
7D30
100
AcDbEntity
  8
0
100
AcDbBlockBegin
  2
*D6
 70
     1
 10
0.0
 20
0.0
 30
0.0
  3
*D6
  1

  0
LINE
  5
8285
330
7D30
100
AcDbEntity
  8
3
 62
     0
440
 16777216
100
AcDbLine
 10
2021.148170074386
 20
7474.55188523973
 30
0.0
 11
2021.148170074386
 21
7894.078532681807
 31
0.0
  0
LINE
  5
8286
330
7D30
100
AcDbEntity
  8
3
 62
     0
440
 16777216
100
AcDbLine
 10
3271.148170074386
 20
7474.55188523973
 30
0.0
 11
3271.148170074386
 21
7894.078532681807
 31
0.0
  0
LINE
  5
8287
330
7D30
100
AcDbEntity
  8
3
 62
     0
440
 16777216
100
AcDbLine
 10
2091.148170074387
 20
7859.078532681808
 30
0.0
 11
3201.148170074386
 21
7859.078532681808
 31
0.0
  0
INSERT
  5
8288
330
7D30
100
AcDbEntity
  8
3
 62
     0
440
 16777216
100
AcDbBlockReference
  2
_OPEN
 10
2021.148170074386
 20
7859.078532681808
 30
0.0
 41
70.0
 42
70.0
 43
70.0
 50
180.0
  0
INSERT
  5
8289
330
7D30
100
AcDbEntity
  8
3
 62
     0
440
 16777216
100
AcDbBlockReference
  2
_OPEN
 10
3271.148170074386
 20
7859.078532681808
 30
0.0
 41
70.0
 42
70.0
 43
70.0
  0
MTEXT
  5
828A
330
7D30
100
AcDbEntity
  8
3
 62
     0
440
 16777216
100
AcDbMText
 10
2646.148170074386
 20
7946.578532681808
 30
0.0
 40
105.0
 41
0.0
 46
0.0
 71
     5
 72
     5
  1
\A1;1250
 73
     1
 44
1.0
  0
POINT
  5
828B
330
7D30
100
AcDbEntity
  8
DEFPOINTS
 62
     0
440
 16777216
100
AcDbPoint
 10
2021.148170074386
 20
7457.051885239728
 30
0.0
  0
POINT
  5
828C
330
7D30
100
AcDbEntity
  8
DEFPOINTS
 62
     0
440
 16777216
100
AcDbPoint
 10
3271.148170074386
 20
7457.051885239728
 30
0.0
  0
POINT
  5
828D
330
7D30
100
AcDbEntity
  8
DEFPOINTS
 62
     0
440
 16777216
100
AcDbPoint
 10
3271.148170074386
 20
7859.078532681808
 30
0.0
  0
ENDBLK
  5
7F14
330
7D30
100
AcDbEntity
  8
0
100
AcDbBlockEnd
  0
BLOCK
  5
7F2B
330
7D3C
100
AcDbEntity
  8
0
100
AcDbBlockBegin
  2
*D7
 70
     1
 10
0.0
 20
0.0
 30
0.0
  3
*D7
  1

  0
LINE
  5
828E
330
7D3C
100
AcDbEntity
  8
3
 62
     0
440
 16777216
100
AcDbLine
 10
1071.148170074386
 20
5789.551885239728
 30
0.0
 11
1071.148170074386
 21
5332.231225744537
 31
0.0
  0
LINE
  5
828F
330
7D3C
100
AcDbEntity
  8
3
 62
     0
440
 16777216
100
AcDbLine
 10
3271.148170074386
 20
5789.551885239728
 30
0.0
 11
3271.148170074386
 21
5332.231225744537
 31
0.0
  0
LINE
  5
8290
330
7D3C
100
AcDbEntity
  8
3
 62
     0
440
 16777216
100
AcDbLine
 10
1141.148170074386
 20
5367.231225744538
 30
0.0
 11
3201.148170074386
 21
5367.231225744538
 31
0.0
  0
INSERT
  5
8291
330
7D3C
100
AcDbEntity
  8
3
 62
     0
440
 16777216
100
AcDbBlockReference
  2
_OPEN
 10
1071.148170074386
 20
5367.231225744538
 30
0.0
 41
70.0
 42
70.0
 43
70.0
 50
180.0
  0
INSERT
  5
8292
330
7D3C
100
AcDbEntity
  8
3
 62
     0
440
 16777216
100
AcDbBlockReference
  2
_OPEN
 10
3271.148170074386
 20
5367.231225744538
 30
0.0
 41
70.0
 42
70.0
 43
70.0
  0
MTEXT
  5
8293
330
7D3C
100
AcDbEntity
  8
3
 62
     0
440
 16777216
100
AcDbMText
 10
2171.148170074386
 20
5454.731225744538
 30
0.0
 40
105.0
 41
0.0
 46
0.0
 71
     5
 72
     5
  1
\A1;2200
 73
     1
 44
1.0
  0
POINT
  5
8294
330
7D3C
100
AcDbEntity
  8
DEFPOINTS
 62
     0
440
 16777216
100
AcDbPoint
 10
1071.148170074386
 20
5807.051885239729
 30
0.0
  0
POINT
  5
8295
330
7D3C
100
AcDbEntity
  8
DEFPOINTS
 62
     0
440
 16777216
100
AcDbPoint
 10
3271.148170074386
 20
5807.051885239729
 30
0.0
  0
POINT
  5
8296
330
7D3C
100
AcDbEntity
  8
DEFPOINTS
 62
     0
440
 16777216
100
AcDbPoint
 10
3271.148170074386
 20
5367.231225744538
 30
0.0
  0
ENDBLK
  5
7F35
330
7D3C
100
AcDbEntity
  8
0
100
AcDbBlockEnd
  0
BLOCK
  5
7FA8
330
7D60
100
AcDbEntity
  8
0
100
AcDbBlockBegin
  2
*D8
 70
     1
 10
0.0
 20
0.0
 30
0.0
  3
*D8
  1

  0
LINE
  5
8297
330
7D60
100
AcDbEntity
  8
3
 62
     0
440
 16777216
100
AcDbLine
 10
2646.148170074384
 20
4483.656897628865
 30
0.0
 11
2646.148170074384
 21
4664.015678631399
 31
0.0
  0
LINE
  5
8298
330
7D60
100
AcDbEntity
  8
3
 62
     0
440
 16777216
100
AcDbLine
 10
1778.148170074386
 20
3392.741005288424
 30
0.0
 11
1778.148170074386
 21
4664.015678631399
 31
0.0
  0
LINE
  5
8299
330
7D60
100
AcDbEntity
  8
3
 62
     0
440
 16777216
100
AcDbLine
 10
2576.148170074385
 20
4629.015678631399
 30
0.0
 11
1848.148170074386
 21
4629.015678631399
 31
0.0
  0
INSERT
  5
829A
330
7D60
100
AcDbEntity
  8
3
 62
     0
440
 16777216
100
AcDbBlockReference
  2
_OPEN
 10
2646.148170074384
 20
4629.015678631399
 30
0.0
 41
70.0
 42
70.0
 43
70.0
  0
INSERT
  5
829B
330
7D60
100
AcDbEntity
  8
3
 62
     0
440
 16777216
100
AcDbBlockReference
  2
_OPEN
 10
1778.148170074386
 20
4629.015678631399
 30
0.0
 41
70.0
 42
70.0
 43
70.0
 50
180.0
  0
MTEXT
  5
829C
330
7D60
100
AcDbEntity
  8
3
 62
     0
440
 16777216
100
AcDbMText
 10
2212.148170074385
 20
4716.5156786314
 30
0.0
 40
105.0
 41
0.0
 46
0.0
 71
     5
 72
     5
  1
\A1;868
 73
     1
 44
1.0
  0
POINT
  5
829D
330
7D60
100
AcDbEntity
  8
DEFPOINTS
 62
     0
440
 16777216
100
AcDbPoint
 10
2646.148170074384
 20
4466.156897628866
 30
0.0
  0
POINT
  5
829E
330
7D60
100
AcDbEntity
  8
DEFPOINTS
 62
     0
440
 16777216
100
AcDbPoint
 10
1778.148170074386
 20
3375.241005288425
 30
0.0
  0
POINT
  5
829F
330
7D60
100
AcDbEntity
  8
DEFPOINTS
 62
     0
440
 16777216
100
AcDbPoint
 10
1778.148170074386
 20
4629.015678631399
 30
0.0
  0
ENDBLK
  5
7FB2
330
7D60
100
AcDbEntity
  8
0
100
AcDbBlockEnd
  0
BLOCK
  5
80E9
330
7D6C
100
AcDbEntity
  8
0
100
AcDbBlockBegin
  2
*D9
 70
     1
 10
0.0
 20
0.0
 30
0.0
  3
*D9
  1

  0
LINE
  5
82A0
330
7D6C
100
AcDbEntity
  8
3
 62
     0
440
 16777216
100
AcDbLine
 10
3403.264152572014
 20
3301.241005288424
 30
0.0
 11
3763.110312527683
 21
3301.241005288424
 31
0.0
  0
LINE
  5
82A1
330
7D6C
100
AcDbEntity
  8
3
 62
     0
440
 16777216
100
AcDbLine
 10
3288.648170074387
 20
2551.241005288427
 30
0.0
 11
3763.110312527683
 21
2551.241005288427
 31
0.0
  0
LINE
  5
82A2
330
7D6C
100
AcDbEntity
  8
3
 62
     0
440
 16777216
100
AcDbLine
 10
3728.110312527683
 20
3231.241005288425
 30
0.0
 11
3728.110312527682
 21
2621.241005288426
 31
0.0
  0
INSERT
  5
82A3
330
7D6C
100
AcDbEntity
  8
3
 62
     0
440
 16777216
100
AcDbBlockReference
  2
_OPEN
 10
3728.110312527683
 20
3301.241005288424
 30
0.0
 41
70.0
 42
70.0
 43
70.0
 50
90.0
  0
INSERT
  5
82A4
330
7D6C
100
AcDbEntity
  8
3
 62
     0
440
 16777216
100
AcDbBlockReference
  2
_OPEN
 10
3728.110312527682
 20
2551.241005288427
 30
0.0
 41
70.0
 42
70.0
 43
70.0
 50
270.0
  0
MTEXT
  5
82A5
330
7D6C
100
AcDbEntity
  8
3
 62
     0
440
 16777216
100
AcDbMText
 10
3640.610312527682
 20
2926.241005288427
 30
0.0
 40
105.0
 41
0.0
 46
0.0
 71
     5
 72
     5
  1
\A1;750
 11
0.0000000000000001
 21
1.0
 31
0.0
 73
     1
 44
1.0
  0
POINT
  5
82A6
330
7D6C
100
AcDbEntity
  8
DEFPOINTS
 62
     0
440
 16777216
100
AcDbPoint
 10
3385.764152572014
 20
3301.241005288424
 30
0.0
  0
POINT
  5
82A7
330
7D6C
100
AcDbEntity
  8
DEFPOINTS
 62
     0
440
 16777216
100
AcDbPoint
 10
3271.148170074386
 20
2551.241005288427
 30
0.0
  0
POINT
  5
82A8
330
7D6C
100
AcDbEntity
  8
DEFPOINTS
 62
     0
440
 16777216
100
AcDbPoint
 10
3728.110312527682
 20
2551.241005288427
 30
0.0
  0
ENDBLK
  5
80F3
330
7D6C
100
AcDbEntity
  8
0
100
AcDbBlockEnd
  0
BLOCK
  5
7F4C
330
7D90
100
AcDbEntity
  8
0
100
AcDbBlockBegin
  2
*D10
 70
     1
 10
0.0
 20
0.0
 30
0.0
  3
*D10
  1

  0
LINE
  5
82A9
330
7D90
100
AcDbEntity
  8
3
 62
     0
440
 16777216
100
AcDbLine
 10
3343.648170074386
 20
4375.241005288424
 30
0.0
 11
3562.308267068529
 21
4375.241005288424
 31
0.0
  0
LINE
  5
82AA
330
7D90
100
AcDbEntity
  8
3
 62
     0
440
 16777216
100
AcDbLine
 10
3343.648170074386
 20
3345.241005288425
 30
0.0
 11
3562.308267068529
 21
3345.241005288425
 31
0.0
  0
LINE
  5
82AB
330
7D90
100
AcDbEntity
  8
3
 62
     0
440
 16777216
100
AcDbLine
 10
3527.308267068529
 20
4305.241005288424
 30
0.0
 11
3527.308267068529
 21
3415.241005288424
 31
0.0
  0
INSERT
  5
82AC
330
7D90
100
AcDbEntity
  8
3
 62
     0
440
 16777216
100
AcDbBlockReference
  2
_OPEN
 10
3527.308267068529
 20
4375.241005288424
 30
0.0
 41
70.0
 42
70.0
 43
70.0
 50
90.0
  0
INSERT
  5
82AD
330
7D90
100
AcDbEntity
  8
3
 62
     0
440
 16777216
100
AcDbBlockReference
  2
_OPEN
 10
3527.308267068529
 20
3345.241005288425
 30
0.0
 41
70.0
 42
70.0
 43
70.0
 50
270.0
  0
MTEXT
  5
82AE
330
7D90
100
AcDbEntity
  8
3
 62
     0
440
 16777216
100
AcDbMText
 10
3439.808267068528
 20
3860.241005288425
 30
0.0
 40
105.0
 41
0.0
 46
0.0
 71
     5
 72
     5
  1
\A1;1030
 11
0.0000000000000001
 21
1.0
 31
0.0
 73
     1
 44
1.0
  0
POINT
  5
82AF
330
7D90
100
AcDbEntity
  8
DEFPOINTS
 62
     0
440
 16777216
100
AcDbPoint
 10
3326.148170074386
 20
4375.241005288424
 30
0.0
  0
POINT
  5
82B0
330
7D90
100
AcDbEntity
  8
DEFPOINTS
 62
     0
440
 16777216
100
AcDbPoint
 10
3326.148170074386
 20
3345.241005288425
 30
0.0
  0
POINT
  5
82B1
330
7D90
100
AcDbEntity
  8
DEFPOINTS
 62
     0
440
 16777216
100
AcDbPoint
 10
3527.308267068529
 20
3345.241005288425
 30
0.0
  0
ENDBLK
  5
7F56
330
7D90
100
AcDbEntity
  8
0
100
AcDbBlockEnd
  0
BLOCK
  5
7F41
330
7D9C
100
AcDbEntity
  8
0
100
AcDbBlockBegin
  2
*D11
 70
     1
 10
0.0
 20
0.0
 30
0.0
  3
*D11
  1

  0
LINE
  5
82B2
330
7D9C
100
AcDbEntity
  8
3
 62
     0
440
 16777216
100
AcDbLine
 10
3343.648170074386
 20
4375.241005288424
 30
0.0
 11
3763.110312527683
 21
4375.241005288424
 31
0.0
  0
LINE
  5
82B3
330
7D9C
100
AcDbEntity
  8
3
 62
     0
440
 16777216
100
AcDbLine
 10
3403.264152572014
 20
3301.241005288424
 30
0.0
 11
3763.110312527683
 21
3301.241005288424
 31
0.0
  0
LINE
  5
82B4
330
7D9C
100
AcDbEntity
  8
3
 62
     0
440
 16777216
100
AcDbLine
 10
3728.110312527682
 20
4305.241005288424
 30
0.0
 11
3728.110312527682
 21
3371.241005288425
 31
0.0
  0
INSERT
  5
82B5
330
7D9C
100
AcDbEntity
  8
3
 62
     0
440
 16777216
100
AcDbBlockReference
  2
_OPEN
 10
3728.110312527682
 20
4375.241005288424
 30
0.0
 41
70.0
 42
70.0
 43
70.0
 50
90.0
  0
INSERT
  5
82B6
330
7D9C
100
AcDbEntity
  8
3
 62
     0
440
 16777216
100
AcDbBlockReference
  2
_OPEN
 10
3728.110312527682
 20
3301.241005288424
 30
0.0
 41
70.0
 42
70.0
 43
70.0
 50
270.0
  0
MTEXT
  5
82B7
330
7D9C
100
AcDbEntity
  8
3
 62
     0
440
 16777216
100
AcDbMText
 10
3640.610312527682
 20
3838.241005288426
 30
0.0
 40
105.0
 41
0.0
 46
0.0
 71
     5
 72
     5
  1
\A1;1074
 11
0.0000000000000001
 21
1.0
 31
0.0
 73
     1
 44
1.0
  0
POINT
  5
82B8
330
7D9C
100
AcDbEntity
  8
DEFPOINTS
 62
     0
440
 16777216
100
AcDbPoint
 10
3326.148170074386
 20
4375.241005288424
 30
0.0
  0
POINT
  5
82B9
330
7D9C
100
AcDbEntity
  8
DEFPOINTS
 62
     0
440
 16777216
100
AcDbPoint
 10
3385.764152572014
 20
3301.241005288424
 30
0.0
  0
POINT
  5
82BA
330
7D9C
100
AcDbEntity
  8
DEFPOINTS
 62
     0
440
 16777216
100
AcDbPoint
 10
3728.110312527682
 20
3301.241005288424
 30
0.0
  0
ENDBLK
  5
7F4B
330
7D9C
100
AcDbEntity
  8
0
100
AcDbBlockEnd
  0
BLOCK
  5
7FBE
330
7DA8
100
AcDbEntity
  8
0
100
AcDbBlockBegin
  2
*D12
 70
     1
 10
0.0
 20
0.0
 30
0.0
  3
*D12
  1

  0
LINE
  5
82BB
330
7DA8
100
AcDbEntity
  8
3
 62
     0
440
 16777216
100
AcDbLine
 10
3326.148170074386
 20
4445.741005288424
 30
0.0
 11
3326.148170074386
 21
4664.015678631399
 31
0.0
  0
LINE
  5
82BC
330
7DA8
100
AcDbEntity
  8
3
 62
     0
440
 16777216
100
AcDbLine
 10
2646.148170074384
 20
4483.656897628865
 30
0.0
 11
2646.148170074384
 21
4664.015678631399
 31
0.0
  0
LINE
  5
82BD
330
7DA8
100
AcDbEntity
  8
3
 62
     0
440
 16777216
100
AcDbLine
 10
3256.148170074386
 20
4629.015678631399
 30
0.0
 11
2716.148170074385
 21
4629.015678631399
 31
0.0
  0
INSERT
  5
82BE
330
7DA8
100
AcDbEntity
  8
3
 62
     0
440
 16777216
100
AcDbBlockReference
  2
_OPEN
 10
3326.148170074386
 20
4629.015678631399
 30
0.0
 41
70.0
 42
70.0
 43
70.0
  0
INSERT
  5
82BF
330
7DA8
100
AcDbEntity
  8
3
 62
     0
440
 16777216
100
AcDbBlockReference
  2
_OPEN
 10
2646.148170074384
 20
4629.015678631399
 30
0.0
 41
70.0
 42
70.0
 43
70.0
 50
180.0
  0
MTEXT
  5
82C0
330
7DA8
100
AcDbEntity
  8
3
 62
     0
440
 16777216
100
AcDbMText
 10
2986.148170074385
 20
4716.5156786314
 30
0.0
 40
105.0
 41
0.0
 46
0.0
 71
     5
 72
     5
  1
\A1;680
 73
     1
 44
1.0
  0
POINT
  5
82C1
330
7DA8
100
AcDbEntity
  8
DEFPOINTS
 62
     0
440
 16777216
100
AcDbPoint
 10
3326.148170074386
 20
4428.241005288424
 30
0.0
  0
POINT
  5
82C2
330
7DA8
100
AcDbEntity
  8
DEFPOINTS
 62
     0
440
 16777216
100
AcDbPoint
 10
2646.148170074384
 20
4466.156897628866
 30
0.0
  0
POINT
  5
82C3
330
7DA8
100
AcDbEntity
  8
DEFPOINTS
 62
     0
440
 16777216
100
AcDbPoint
 10
2646.148170074384
 20
4629.015678631399
 30
0.0
  0
ENDBLK
  5
7FC8
330
7DA8
100
AcDbEntity
  8
0
100
AcDbBlockEnd
  0
BLOCK
  5
7F36
330
7DB4
100
AcDbEntity
  8
0
100
AcDbBlockBegin
  2
*D13
 70
     1
 10
0.0
 20
0.0
 30
0.0
  3
*D13
  1

  0
LINE
  5
82C4
330
7DB4
100
AcDbEntity
  8
3
 62
     0
440
 16777216
100
AcDbLine
 10
3288.648170074387
 20
7457.051885239728
 30
0.0
 11
3707.809232487679
 21
7457.051885239728
 31
0.0
  0
LINE
  5
82C5
330
7DB4
100
AcDbEntity
  8
3
 62
     0
440
 16777216
100
AcDbLine
 10
3288.648170074387
 20
5807.051885239729
 30
0.0
 11
3707.809232487678
 21
5807.051885239729
 31
0.0
  0
LINE
  5
82C6
330
7DB4
100
AcDbEntity
  8
3
 62
     0
440
 16777216
100
AcDbLine
 10
3672.809232487678
 20
7387.051885239729
 30
0.0
 11
3672.809232487678
 21
5877.051885239729
 31
0.0
  0
INSERT
  5
82C7
330
7DB4
100
AcDbEntity
  8
3
 62
     0
440
 16777216
100
AcDbBlockReference
  2
_OPEN
 10
3672.809232487678
 20
7457.051885239728
 30
0.0
 41
70.0
 42
70.0
 43
70.0
 50
90.0
  0
INSERT
  5
82C8
330
7DB4
100
AcDbEntity
  8
3
 62
     0
440
 16777216
100
AcDbBlockReference
  2
_OPEN
 10
3672.809232487678
 20
5807.051885239729
 30
0.0
 41
70.0
 42
70.0
 43
70.0
 50
270.0
  0
MTEXT
  5
82C9
330
7DB4
100
AcDbEntity
  8
3
 62
     0
440
 16777216
100
AcDbMText
 10
3585.309232487677
 20
6632.05188523973
 30
0.0
 40
105.0
 41
0.0
 46
0.0
 71
     5
 72
     5
  1
\A1;1650
 11
0.0000000000000001
 21
1.0
 31
0.0
 73
     1
 44
1.0
  0
POINT
  5
82CA
330
7DB4
100
AcDbEntity
  8
DEFPOINTS
 62
     0
440
 16777216
100
AcDbPoint
 10
3271.148170074386
 20
7457.051885239728
 30
0.0
  0
POINT
  5
82CB
330
7DB4
100
AcDbEntity
  8
DEFPOINTS
 62
     0
440
 16777216
100
AcDbPoint
 10
3271.148170074386
 20
5807.051885239729
 30
0.0
  0
POINT
  5
82CC
330
7DB4
100
AcDbEntity
  8
DEFPOINTS
 62
     0
440
 16777216
100
AcDbPoint
 10
3672.809232487678
 20
5807.051885239729
 30
0.0
  0
ENDBLK
  5
7F40
330
7DB4
100
AcDbEntity
  8
0
100
AcDbBlockEnd
  0
BLOCK
  5
7F15
330
7DC0
100
AcDbEntity
  8
0
100
AcDbBlockBegin
  2
*D14
 70
     1
 10
0.0
 20
0.0
 30
0.0
  3
*D14
  1

  0
LINE
  5
82CD
330
7DC0
100
AcDbEntity
  8
3
 62
     0
440
 16777216
100
AcDbLine
 10
1071.148170074386
 20
6774.55188523973
 30
0.0
 11
1071.148170074386
 21
7894.078532681807
 31
0.0
  0
LINE
  5
82CE
330
7DC0
100
AcDbEntity
  8
3
 62
     0
440
 16777216
100
AcDbLine
 10
2021.148170074386
 20
7474.55188523973
 30
0.0
 11
2021.148170074386
 21
7894.078532681807
 31
0.0
  0
LINE
  5
82CF
330
7DC0
100
AcDbEntity
  8
3
 62
     0
440
 16777216
100
AcDbLine
 10
1141.148170074386
 20
7859.078532681808
 30
0.0
 11
1951.148170074386
 21
7859.078532681808
 31
0.0
  0
INSERT
  5
82D0
330
7DC0
100
AcDbEntity
  8
3
 62
     0
440
 16777216
100
AcDbBlockReference
  2
_OPEN
 10
1071.148170074386
 20
7859.078532681808
 30
0.0
 41
70.0
 42
70.0
 43
70.0
 50
180.0
  0
INSERT
  5
82D1
330
7DC0
100
AcDbEntity
  8
3
 62
     0
440
 16777216
100
AcDbBlockReference
  2
_OPEN
 10
2021.148170074386
 20
7859.078532681808
 30
0.0
 41
70.0
 42
70.0
 43
70.0
  0
MTEXT
  5
82D2
330
7DC0
100
AcDbEntity
  8
3
 62
     0
440
 16777216
100
AcDbMText
 10
1546.148170074386
 20
7946.578532681808
 30
0.0
 40
105.0
 41
0.0
 46
0.0
 71
     5
 72
     5
  1
\A1;950
 73
     1
 44
1.0
  0
POINT
  5
82D3
330
7DC0
100
AcDbEntity
  8
DEFPOINTS
 62
     0
440
 16777216
100
AcDbPoint
 10
1071.148170074386
 20
6757.05188523973
 30
0.0
  0
POINT
  5
82D4
330
7DC0
100
AcDbEntity
  8
DEFPOINTS
 62
     0
440
 16777216
100
AcDbPoint
 10
2021.148170074386
 20
7457.051885239728
 30
0.0
  0
POINT
  5
82D5
330
7DC0
100
AcDbEntity
  8
DEFPOINTS
 62
     0
440
 16777216
100
AcDbPoint
 10
2021.148170074386
 20
7859.078532681808
 30
0.0
  0
ENDBLK
  5
7F1F
330
7DC0
100
AcDbEntity
  8
0
100
AcDbBlockEnd
  0
BLOCK
  5
815C
330
7DCC
100
AcDbEntity
  8
0
100
AcDbBlockBegin
  2
*D15
 70
     1
 10
0.0
 20
0.0
 30
0.0
  3
*D15
  1

  0
LINE
  5
82D6
330
7DCC
100
AcDbEntity
  8
3
 62
     0
440
 16777216
100
AcDbLine
 10
1053.648170074386
 20
6757.05188523973
 30
0.0
 11
782.4089389494877
 21
6757.05188523973
 31
0.0
  0
LINE
  5
82D7
330
7DCC
100
AcDbEntity
  8
3
 62
     0
440
 16777216
100
AcDbLine
 10
1053.648170074386
 20
5807.051885239729
 30
0.0
 11
782.4089389494875
 21
5807.051885239729
 31
0.0
  0
LINE
  5
82D8
330
7DCC
100
AcDbEntity
  8
3
 62
     0
440
 16777216
100
AcDbLine
 10
817.4089389494877
 20
6687.051885239729
 30
0.0
 11
817.4089389494875
 21
5877.051885239729
 31
0.0
  0
INSERT
  5
82D9
330
7DCC
100
AcDbEntity
  8
3
 62
     0
440
 16777216
100
AcDbBlockReference
  2
_OPEN
 10
817.4089389494877
 20
6757.05188523973
 30
0.0
 41
70.0
 42
70.0
 43
70.0
 50
90.0
  0
INSERT
  5
82DA
330
7DCC
100
AcDbEntity
  8
3
 62
     0
440
 16777216
100
AcDbBlockReference
  2
_OPEN
 10
817.4089389494875
 20
5807.051885239729
 30
0.0
 41
70.0
 42
70.0
 43
70.0
 50
270.0
  0
MTEXT
  5
82DB
330
7DCC
100
AcDbEntity
  8
3
 62
     0
440
 16777216
100
AcDbMText
 10
729.9089389494866
 20
6282.051885239729
 30
0.0
 40
105.0
 41
0.0
 46
0.0
 71
     5
 72
     5
  1
\A1;950
 11
0.0000000000000001
 21
1.0
 31
0.0
 73
     1
 44
1.0
  0
POINT
  5
82DC
330
7DCC
100
AcDbEntity
  8
DEFPOINTS
 62
     0
440
 16777216
100
AcDbPoint
 10
1071.148170074386
 20
6757.05188523973
 30
0.0
  0
POINT
  5
82DD
330
7DCC
100
AcDbEntity
  8
DEFPOINTS
 62
     0
440
 16777216
100
AcDbPoint
 10
1071.148170074386
 20
5807.051885239729
 30
0.0
  0
POINT
  5
82DE
330
7DCC
100
AcDbEntity
  8
DEFPOINTS
 62
     0
440
 16777216
100
AcDbPoint
 10
817.4089389494875
 20
5807.051885239729
 30
0.0
  0
ENDBLK
  5
8166
330
7DCC
100
AcDbEntity
  8
0
100
AcDbBlockEnd
  0
BLOCK
  5
7FB3
330
7DD8
100
AcDbEntity
  8
0
100
AcDbBlockBegin
  2
*D16
 70
     1
 10
0.0
 20
0.0
 30
0.0
  3
*D16
  1

  0
LINE
  5
82DF
330
7DD8
100
AcDbEntity
  8
3
 62
     0
440
 16777216
100
AcDbLine
 10
3326.148170074386
 20
4392.741005288423
 30
0.0
 11
3326.148170074386
 21
4909.007470447534
 31
0.0
  0
LINE
  5
82E0
330
7DD8
100
AcDbEntity
  8
3
 62
     0
440
 16777216
100
AcDbLine
 10
1071.148170074386
 20
2693.741005288424
 30
0.0
 11
1071.148170074386
 21
4909.007470447534
 31
0.0
  0
LINE
  5
82E1
330
7DD8
100
AcDbEntity
  8
3
 62
     0
440
 16777216
100
AcDbLine
 10
3256.148170074386
 20
4874.007470447534
 30
0.0
 11
1141.148170074386
 21
4874.007470447534
 31
0.0
  0
INSERT
  5
82E2
330
7DD8
100
AcDbEntity
  8
3
 62
     0
440
 16777216
100
AcDbBlockReference
  2
_OPEN
 10
3326.148170074386
 20
4874.007470447534
 30
0.0
 41
70.0
 42
70.0
 43
70.0
  0
INSERT
  5
82E3
330
7DD8
100
AcDbEntity
  8
3
 62
     0
440
 16777216
100
AcDbBlockReference
  2
_OPEN
 10
1071.148170074386
 20
4874.007470447534
 30
0.0
 41
70.0
 42
70.0
 43
70.0
 50
180.0
  0
MTEXT
  5
82E4
330
7DD8
100
AcDbEntity
  8
3
 62
     0
440
 16777216
100
AcDbMText
 10
2198.648170074386
 20
4961.507470447534
 30
0.0
 40
105.0
 41
0.0
 46
0.0
 71
     5
 72
     5
  1
\A1;2255
 73
     1
 44
1.0
  0
POINT
  5
82E5
330
7DD8
100
AcDbEntity
  8
DEFPOINTS
 62
     0
440
 16777216
100
AcDbPoint
 10
3326.148170074386
 20
4375.241005288424
 30
0.0
  0
POINT
  5
82E6
330
7DD8
100
AcDbEntity
  8
DEFPOINTS
 62
     0
440
 16777216
100
AcDbPoint
 10
1071.148170074386
 20
2676.241005288424
 30
0.0
  0
POINT
  5
82E7
330
7DD8
100
AcDbEntity
  8
DEFPOINTS
 62
     0
440
 16777216
100
AcDbPoint
 10
1071.148170074386
 20
4874.007470447534
 30
0.0
  0
ENDBLK
  5
7FBD
330
7DD8
100
AcDbEntity
  8
0
100
AcDbBlockEnd
  0
BLOCK
  5
81E6
330
81E5
100
AcDbEntity
  8
0
100
AcDbBlockBegin
  2
*D17
 70
     1
 10
0.0
 20
0.0
 30
0.0
  3
*D17
  1

  0
LINE
  5
81E7
330
81E5
100
AcDbEntity
  8
0
  6
ByBlock
 62
     0
440
 16777216
100
AcDbLine
 10
1071.148170074386
 20
2533.741005288427
 30
0.0
 11
1071.148170074386
 21
2321.606766640067
 31
0.0
  0
LINE
  5
81E8
330
81E5
100
AcDbEntity
  8
0
  6
ByBlock
 62
     0
440
 16777216
100
AcDbLine
 10
2646.148170074384
 20
2533.741005288427
 30
0.0
 11
2646.148170074384
 21
2321.606766640067
 31
0.0
  0
LINE
  5
81E9
330
81E5
100
AcDbEntity
  8
0
  6
ByBlock
 62
     0
440
 16777216
100
AcDbLine
 10
1141.148170074386
 20
2356.606766640067
 30
0.0
 11
2576.148170074385
 21
2356.606766640067
 31
0.0
  0
INSERT
  5
81EA
330
81E5
100
AcDbEntity
  8
0
  6
ByBlock
 62
     0
440
 16777216
100
AcDbBlockReference
  2
_OPEN
 10
1071.148170074386
 20
2356.606766640067
 30
0.0
 41
70.0
 42
70.0
 43
70.0
 50
180.0
  0
INSERT
  5
81EB
330
81E5
100
AcDbEntity
  8
0
  6
ByBlock
 62
     0
440
 16777216
100
AcDbBlockReference
  2
_OPEN
 10
2646.148170074384
 20
2356.606766640067
 30
0.0
 41
70.0
 42
70.0
 43
70.0
  0
MTEXT
  5
81EC
330
81E5
100
AcDbEntity
  8
0
  6
ByBlock
 62
     0
440
 16777216
100
AcDbMText
 10
1858.648170074385
 20
2444.106766640067
 30
0.0
 40
105.0
 41
0.0
 46
0.0
 71
     5
 72
     5
  1
\A1;1575
 73
     1
 44
1.0
  0
POINT
  5
81ED
330
81E5
100
AcDbEntity
  8
DEFPOINTS
  6
ByBlock
 62
     0
440
 16777216
100
AcDbPoint
 10
1071.148170074386
 20
2551.241005288427
 30
0.0
  0
POINT
  5
81EE
330
81E5
100
AcDbEntity
  8
DEFPOINTS
  6
ByBlock
 62
     0
440
 16777216
100
AcDbPoint
 10
2646.148170074384
 20
2551.241005288427
 30
0.0
  0
POINT
  5
81EF
330
81E5
100
AcDbEntity
  8
DEFPOINTS
  6
ByBlock
 62
     0
440
 16777216
100
AcDbPoint
 10
2646.148170074384
 20
2356.606766640067
 30
0.0
  0
ENDBLK
  5
81F0
330
81E5
100
AcDbEntity
  8
0
100
AcDbBlockEnd
  0
BLOCK
  5
81F3
330
81F2
100
AcDbEntity
  8
0
100
AcDbBlockBegin
  2
*D18
 70
     1
 10
0.0
 20
0.0
 30
0.0
  3
*D18
  1

  0
LINE
  5
81F4
330
81F2
100
AcDbEntity
  8
0
  6
ByBlock
 62
     0
440
 16777216
100
AcDbLine
 10
2646.148170074384
 20
2533.741005288427
 30
0.0
 11
2646.148170074384
 21
2321.606766640067
 31
0.0
  0
LINE
  5
81F5
330
81F2
100
AcDbEntity
  8
0
  6
ByBlock
 62
     0
440
 16777216
100
AcDbLine
 10
3271.148170074386
 20
2533.741005288427
 30
0.0
 11
3271.148170074386
 21
2321.606766640067
 31
0.0
  0
LINE
  5
81F6
330
81F2
100
AcDbEntity
  8
0
  6
ByBlock
 62
     0
440
 16777216
100
AcDbLine
 10
2716.148170074385
 20
2356.606766640067
 30
0.0
 11
3201.148170074386
 21
2356.606766640067
 31
0.0
  0
INSERT
  5
81F7
330
81F2
100
AcDbEntity
  8
0
  6
ByBlock
 62
     0
440
 16777216
100
AcDbBlockReference
  2
_OPEN
 10
2646.148170074384
 20
2356.606766640067
 30
0.0
 41
70.0
 42
70.0
 43
70.0
 50
180.0
  0
INSERT
  5
81F8
330
81F2
100
AcDbEntity
  8
0
  6
ByBlock
 62
     0
440
 16777216
100
AcDbBlockReference
  2
_OPEN
 10
3271.148170074386
 20
2356.606766640067
 30
0.0
 41
70.0
 42
70.0
 43
70.0
  0
MTEXT
  5
81F9
330
81F2
100
AcDbEntity
  8
0
  6
ByBlock
 62
     0
440
 16777216
100
AcDbMText
 10
2958.648170074385
 20
2444.106766640067
 30
0.0
 40
105.0
 41
0.0
 46
0.0
 71
     5
 72
     5
  1
\A1;625
 73
     1
 44
1.0
  0
POINT
  5
81FA
330
81F2
100
AcDbEntity
  8
DEFPOINTS
  6
ByBlock
 62
     0
440
 16777216
100
AcDbPoint
 10
2646.148170074384
 20
2551.241005288427
 30
0.0
  0
POINT
  5
81FB
330
81F2
100
AcDbEntity
  8
DEFPOINTS
  6
ByBlock
 62
     0
440
 16777216
100
AcDbPoint
 10
3271.148170074386
 20
2551.241005288427
 30
0.0
  0
POINT
  5
81FC
330
81F2
100
AcDbEntity
  8
DEFPOINTS
  6
ByBlock
 62
     0
440
 16777216
100
AcDbPoint
 10
3271.148170074386
 20
2356.606766640067
 30
0.0
  0
ENDBLK
  5
81FD
330
81F2
100
AcDbEntity
  8
0
100
AcDbBlockEnd
  0
BLOCK
  5
8200
330
81FF
100
AcDbEntity
  8
0
100
AcDbBlockBegin
  2
*D19
 70
     1
 10
0.0
 20
0.0
 30
0.0
  3
*D19
  1

  0
LINE
  5
8201
330
81FF
100
AcDbEntity
  8
0
  6
ByBlock
 62
     0
440
 16777216
100
AcDbLine
 10
4755.713645968499
 20
2533.741005288425
 30
0.0
 11
4755.713645968499
 21
2321.606766640067
 31
0.0
  0
LINE
  5
8202
330
81FF
100
AcDbEntity
  8
0
  6
ByBlock
 62
     0
440
 16777216
100
AcDbLine
 10
5677.713645968499
 20
2533.741005288425
 30
0.0
 11
5677.713645968499
 21
2321.606766640067
 31
0.0
  0
LINE
  5
8203
330
81FF
100
AcDbEntity
  8
0
  6
ByBlock
 62
     0
440
 16777216
100
AcDbLine
 10
4825.713645968499
 20
2356.606766640067
 30
0.0
 11
5607.7136459685
 21
2356.606766640067
 31
0.0
  0
INSERT
  5
8204
330
81FF
100
AcDbEntity
  8
0
  6
ByBlock
 62
     0
440
 16777216
100
AcDbBlockReference
  2
_OPEN
 10
4755.713645968499
 20
2356.606766640067
 30
0.0
 41
70.0
 42
70.0
 43
70.0
 50
180.0
  0
INSERT
  5
8205
330
81FF
100
AcDbEntity
  8
0
  6
ByBlock
 62
     0
440
 16777216
100
AcDbBlockReference
  2
_OPEN
 10
5677.713645968499
 20
2356.606766640067
 30
0.0
 41
70.0
 42
70.0
 43
70.0
  0
MTEXT
  5
8206
330
81FF
100
AcDbEntity
  8
0
  6
ByBlock
 62
     0
440
 16777216
100
AcDbMText
 10
5216.713645968499
 20
2444.106766640067
 30
0.0
 40
105.0
 41
0.0
 46
0.0
 71
     5
 72
     5
  1
\A1;922
 73
     1
 44
1.0
  0
POINT
  5
8207
330
81FF
100
AcDbEntity
  8
DEFPOINTS
  6
ByBlock
 62
     0
440
 16777216
100
AcDbPoint
 10
4755.713645968499
 20
2551.241005288425
 30
0.0
  0
POINT
  5
8208
330
81FF
100
AcDbEntity
  8
DEFPOINTS
  6
ByBlock
 62
     0
440
 16777216
100
AcDbPoint
 10
5677.713645968499
 20
2551.241005288425
 30
0.0
  0
POINT
  5
8209
330
81FF
100
AcDbEntity
  8
DEFPOINTS
  6
ByBlock
 62
     0
440
 16777216
100
AcDbPoint
 10
5677.713645968499
 20
2356.606766640067
 30
0.0
  0
ENDBLK
  5
820A
330
81FF
100
AcDbEntity
  8
0
100
AcDbBlockEnd
  0
BLOCK
  5
820D
330
820C
100
AcDbEntity
  8
0
100
AcDbBlockBegin
  2
*D20
 70
     1
 10
0.0
 20
0.0
 30
0.0
  3
*D20
  1

  0
LINE
  5
820E
330
820C
100
AcDbEntity
  8
0
  6
ByBlock
 62
     0
440
 16777216
100
AcDbLine
 10
5677.713645968499
 20
2533.741005288425
 30
0.0
 11
5677.713645968499
 21
2321.606766640067
 31
0.0
  0
LINE
  5
820F
330
820C
100
AcDbEntity
  8
0
  6
ByBlock
 62
     0
440
 16777216
100
AcDbLine
 10
6405.713645968498
 20
2533.741005288425
 30
0.0
 11
6405.713645968498
 21
2321.606766640067
 31
0.0
  0
LINE
  5
8210
330
820C
100
AcDbEntity
  8
0
  6
ByBlock
 62
     0
440
 16777216
100
AcDbLine
 10
5747.7136459685
 20
2356.606766640067
 30
0.0
 11
6335.713645968499
 21
2356.606766640067
 31
0.0
  0
INSERT
  5
8211
330
820C
100
AcDbEntity
  8
0
  6
ByBlock
 62
     0
440
 16777216
100
AcDbBlockReference
  2
_OPEN
 10
5677.713645968499
 20
2356.606766640067
 30
0.0
 41
70.0
 42
70.0
 43
70.0
 50
180.0
  0
INSERT
  5
8212
330
820C
100
AcDbEntity
  8
0
  6
ByBlock
 62
     0
440
 16777216
100
AcDbBlockReference
  2
_OPEN
 10
6405.713645968498
 20
2356.606766640067
 30
0.0
 41
70.0
 42
70.0
 43
70.0
  0
MTEXT
  5
8213
330
820C
100
AcDbEntity
  8
0
  6
ByBlock
 62
     0
440
 16777216
100
AcDbMText
 10
6041.713645968499
 20
2444.106766640067
 30
0.0
 40
105.0
 41
0.0
 46
0.0
 71
     5
 72
     5
  1
\A1;728
 73
     1
 44
1.0
  0
POINT
  5
8214
330
820C
100
AcDbEntity
  8
DEFPOINTS
  6
ByBlock
 62
     0
440
 16777216
100
AcDbPoint
 10
5677.713645968499
 20
2551.241005288425
 30
0.0
  0
POINT
  5
8215
330
820C
100
AcDbEntity
  8
DEFPOINTS
  6
ByBlock
 62
     0
440
 16777216
100
AcDbPoint
 10
6405.713645968498
 20
2551.241005288425
 30
0.0
  0
POINT
  5
8216
330
820C
100
AcDbEntity
  8
DEFPOINTS
  6
ByBlock
 62
     0
440
 16777216
100
AcDbPoint
 10
6405.713645968498
 20
2356.606766640067
 30
0.0
  0
ENDBLK
  5
8217
330
820C
100
AcDbEntity
  8
0
100
AcDbBlockEnd
  0
BLOCK
  5
821A
330
8219
100
AcDbEntity
  8
0
100
AcDbBlockBegin
  2
*D21
 70
     1
 10
0.0
 20
0.0
 30
0.0
  3
*D21
  1

  0
LINE
  5
821B
330
8219
100
AcDbEntity
  8
0
  6
ByBlock
 62
     0
440
 16777216
100
AcDbLine
 10
3343.648170074386
 20
4375.241005288424
 30
0.0
 11
3979.253284944127
 21
4375.241005288424
 31
0.0
  0
LINE
  5
821C
330
8219
100
AcDbEntity
  8
0
  6
ByBlock
 62
     0
440
 16777216
100
AcDbLine
 10
3288.648170074387
 20
2551.241005288427
 30
0.0
 11
3979.253284944127
 21
2551.241005288427
 31
0.0
  0
LINE
  5
821D
330
8219
100
AcDbEntity
  8
0
  6
ByBlock
 62
     0
440
 16777216
100
AcDbLine
 10
3944.253284944127
 20
4305.241005288424
 30
0.0
 11
3944.253284944127
 21
2621.241005288426
 31
0.0
  0
INSERT
  5
821E
330
8219
100
AcDbEntity
  8
0
  6
ByBlock
 62
     0
440
 16777216
100
AcDbBlockReference
  2
_OPEN
 10
3944.253284944127
 20
4375.241005288424
 30
0.0
 41
70.0
 42
70.0
 43
70.0
 50
90.0
  0
INSERT
  5
821F
330
8219
100
AcDbEntity
  8
0
  6
ByBlock
 62
     0
440
 16777216
100
AcDbBlockReference
  2
_OPEN
 10
3944.253284944127
 20
2551.241005288427
 30
0.0
 41
70.0
 42
70.0
 43
70.0
 50
270.0
  0
MTEXT
  5
8220
330
8219
100
AcDbEntity
  8
0
  6
ByBlock
 62
     0
440
 16777216
100
AcDbMText
 10
3856.753284944127
 20
3463.241005288426
 30
0.0
 40
105.0
 41
0.0
 46
0.0
 71
     5
 72
     5
  1
\A1;1824
 11
0.0
 21
1.0
 31
0.0
 73
     1
 44
1.0
  0
POINT
  5
8221
330
8219
100
AcDbEntity
  8
DEFPOINTS
  6
ByBlock
 62
     0
440
 16777216
100
AcDbPoint
 10
3326.148170074386
 20
4375.241005288424
 30
0.0
  0
POINT
  5
8222
330
8219
100
AcDbEntity
  8
DEFPOINTS
  6
ByBlock
 62
     0
440
 16777216
100
AcDbPoint
 10
3271.148170074386
 20
2551.241005288427
 30
0.0
  0
POINT
  5
8223
330
8219
100
AcDbEntity
  8
DEFPOINTS
  6
ByBlock
 62
     0
440
 16777216
100
AcDbPoint
 10
3944.253284944127
 20
2551.241005288427
 30
0.0
  0
ENDBLK
  5
8224
330
8219
100
AcDbEntity
  8
0
100
AcDbBlockEnd
  0
ENDSEC
  0
SECTION
  2
ENTITIES
  0
INSERT
  5
7C13
330
19
100
AcDbEntity
  8
0
100
AcDbBlockReference
  2
YA_N
 10
6.0
 20
5.0
 30
0.0
  0
LINE
  5
7C15
330
19
100
AcDbEntity
  8
2
100
AcDbLine
 10
4621.768204748292
 20
3301.241005288425
 30
0.0
 11
6483.790277517801
 21
3301.241005288425
 31
0.0
  0
LINE
  5
7C16
330
19
100
AcDbEntity
  8
2
100
AcDbLine
 10
5677.713645968498
 20
4583.199079737285
 30
0.0
 11
5677.713645968499
 21
2551.241005288425
 31
0.0
  0
INSERT
  5
7C17
330
19
100
AcDbEntity
  8
0
 48
10.0
100
AcDbBlockReference
  2
YA_N
 10
-1637.209838160517
 20
-1405.432827243363
 30
0.0
 41
25.0
 42
25.0
 43
25.0
  0
INSERT
  5
7C19
330
19
100
AcDbEntity
  8
0
 48
10.0
100
AcDbBlockReference
  2
YA_N
 10
-1144.893563079055
 20
-989.0222135336152
 30
0.0
 41
25.0
 42
25.0
 43
25.0
  0
LINE
  5
7C1B
330
19
100
AcDbEntity
  8
2
100
AcDbLine
 10
4621.768204748292
 20
2911.241005288426
 30
0.0
 11
5017.713645968498
 21
2911.241005288426
 31
0.0
  0
LINE
  5
7C22
330
19
100
AcDbEntity
  8
1
 48
10.0
100
AcDbLine
 10
4817.713645968499
 20
3110.241005288425
 30
0.0
 11
4860.213645968498
 21
3110.241005288425
 31
0.0
  0
LINE
  5
7C23
330
19
100
AcDbEntity
  8
1
 48
10.0
100
AcDbLine
 10
4817.713645968499
 20
2712.241005288425
 30
0.0
 11
5017.713645968498
 21
2712.241005288425
 31
0.0
  0
LINE
  5
7C24
330
19
100
AcDbEntity
  8
1
 48
10.0
100
AcDbLine
 10
4817.713645968499
 20
3110.241005288425
 30
0.0
 11
4817.713645968499
 21
2712.241005288425
 31
0.0
  0
LINE
  5
7C25
330
19
100
AcDbEntity
  8
1
 48
10.0
100
AcDbLine
 10
4812.713645968499
 20
2938.741005288425
 30
0.0
 11
4817.713645968498
 21
2938.741005288425
 31
0.0
  0
LINE
  5
7C26
330
19
100
AcDbEntity
  8
1
 48
10.0
100
AcDbLine
 10
4812.713645968499
 20
2883.741005288425
 30
0.0
 11
4817.713645968499
 21
2883.741005288425
 31
0.0
  0
LINE
  5
7C27
330
19
100
AcDbEntity
  8
1
 48
10.0
100
AcDbLine
 10
4598.213645968502
 20
2691.241005288425
 30
0.0
 11
4850.213645968502
 21
2691.241005288425
 31
0.0
  0
LINE
  5
7C28
330
19
100
AcDbEntity
  8
1
 48
10.0
100
AcDbLine
 10
4598.213645968494
 20
3581.241005288426
 30
0.0
 11
4850.213645968493
 21
3581.241005288426
 31
0.0
  0
LINE
  5
7C29
330
19
100
AcDbEntity
  8
1
 48
10.0
100
AcDbLine
 10
4702.7136459685
 20
2796.941005288425
 30
0.0
 11
4812.713645968499
 21
2796.941005288425
 31
0.0
  0
LINE
  5
7C2A
330
19
100
AcDbEntity
  8
1
 48
10.0
100
AcDbLine
 10
4702.713645968499
 20
3025.541005288426
 30
0.0
 11
4812.713645968499
 21
3025.541005288426
 31
0.0
  0
LINE
  5
7C2B
330
19
100
AcDbEntity
  8
1
 48
10.0
100
AcDbLine
 10
4702.713645968499
 20
3136.141005288425
 30
0.0
 11
4812.713645968499
 21
3136.141005288425
 31
0.0
  0
LINE
  5
7C2C
330
19
100
AcDbEntity
  8
1
 48
10.0
100
AcDbLine
 10
4702.713645968499
 20
3466.341005288425
 30
0.0
 11
4812.713645968499
 21
3466.341005288425
 31
0.0
  0
LINE
  5
7C2D
330
19
100
AcDbEntity
  8
1
 48
10.0
100
AcDbLine
 10
4598.213645968494
 20
3581.241005288426
 30
0.0
 11
4598.213645968502
 21
2691.241005288425
 31
0.0
  0
LINE
  5
7C2E
330
19
100
AcDbEntity
  8
1
 48
10.0
100
AcDbLine
 10
4702.713645968499
 20
3466.341005288425
 30
0.0
 11
4702.713645968499
 21
2796.941005288425
 31
0.0
  0
POINT
  5
7C30
330
19
100
AcDbEntity
  8
1
 48
10.0
100
AcDbPoint
 10
4598.213645968494
 20
3581.241005288426
 30
0.0
  0
DIMENSION
  5
7C31
330
19
100
AcDbEntity
  8
3
 48
10.0
100
AcDbDimension
280
     0
  2
*D2
 10
6763.532059985632
 20
3801.241005288426
 30
0.0
 11
6676.032059985629
 21
3301.241005288427
 31
0.0
 70
    32
  1
φ<>
 71
     5
 42
-1.0
 73
     0
 74
     0
 75
     0
  3
IGA
100
AcDbAlignedDimension
 13
6343.213645968499
 23
2801.241005288425
 33
0.0
 14
6343.213645968499
 24
3801.241005288426
 34
0.0
 50
90.0
100
AcDbRotatedDimension
1001
ACAD
1000
DSTYLE
1002
{
1070
   287
1070
     3
1070
    40
1040
35.0
1070
   143
1040
0.039
1070
   172
1070
     1
1070
   271
1070
     0
1070
   279
1070
     0
1070
   288
1070
     1
1002
}
  0
LINE
  5
7C32
330
19
100
AcDbEntity
  8
1
 48
10.0
100
AcDbLine
 10
4812.7136459685
 20
3466.341005288425
 30
0.0
 11
4812.713645968499
 21
2796.941005288425
 31
0.0
  0
LINE
  5
7C37
330
19
100
AcDbEntity
  8
1
 48
10.0
100
AcDbLine
 10
4755.713645968499
 20
2676.241005288425
 30
0.0
 11
6405.713645968498
 21
2676.241005288425
 31
0.0
  0
LINE
  5
7C38
330
19
100
AcDbEntity
  8
1
 48
10.0
100
AcDbLine
 10
4755.713645968499
 20
2551.241005288425
 30
0.0
 11
6405.713645968498
 21
2551.241005288425
 31
0.0
1001
ACAD
1000
ASC_BOUNDS
1002
{
1070
    19
1002
}
  0
LINE
  5
7C3B
330
19
100
AcDbEntity
  8
1
 48
10.0
100
AcDbLine
 10
4755.713645968499
 20
2676.241005288425
 30
0.0
 11
4755.713645968499
 21
2551.241005288425
 31
0.0
  0
LINE
  5
7C3C
330
19
100
AcDbEntity
  8
1
 48
10.0
100
AcDbLine
 10
4850.213645968502
 20
2711.241005288425
 30
0.0
 11
4850.213645968502
 21
2691.241005288428
 31
0.0
  0
LINE
  5
7C3E
330
19
100
AcDbEntity
  8
1
 48
10.0
100
AcDbLine
 10
6405.713645968498
 20
2676.241005288425
 30
0.0
 11
6405.713645968498
 21
2551.241005288425
 31
0.0
  0
LINE
  5
7C3F
330
19
100
AcDbEntity
  8
1
 48
10.0
100
AcDbLine
 10
5017.713645968498
 20
4375.241005288425
 30
0.0
 11
5017.713645968498
 21
2676.241005288425
 31
0.0
  0
LINE
  5
7C40
330
19
100
AcDbEntity
  8
1
 48
10.0
100
AcDbLine
 10
6337.713645968499
 20
4375.241005288425
 30
0.0
 11
6337.713645968499
 21
2676.241005288425
 31
0.0
  0
LINE
  5
7C41
330
19
100
AcDbEntity
  8
1
 48
10.0
100
AcDbLine
 10
5677.713645968498
 20
3345.241005288425
 30
0.0
 11
5017.713645968498
 21
3345.241005288425
 31
0.0
  0
LINE
  5
7C42
330
19
100
AcDbEntity
  8
1
 48
10.0
100
AcDbLine
 10
4861.813645968499
 20
3360.741005288426
 30
0.0
 11
4861.813645968498
 21
3241.741005288425
 31
0.0
  0
LINE
  5
7C43
330
19
100
AcDbEntity
  8
1
 48
10.0
100
AcDbLine
 10
4860.213645968497
 20
3219.241005288424
 30
0.0
 11
4860.213645968499
 21
3089.241005288425
 31
0.0
  0
ARC
  5
7C44
330
19
100
AcDbEntity
  8
1
 48
10.0
100
AcDbCircle
 10
4870.213645968499
 20
3089.241005288425
 30
0.0
 40
10.0
100
AcDbArc
 50
180.0000000000007
 51
270.0
  0
LINE
  5
7C45
330
19
100
AcDbEntity
  8
1
 48
10.0
100
AcDbLine
 10
4870.213645968499
 20
3079.241005288425
 30
0.0
 11
5017.713645968498
 21
3079.241005288425
 31
0.0
  0
ARC
  5
7C46
330
19
100
AcDbEntity
  8
1
 48
10.0
100
AcDbCircle
 10
4870.213645968497
 20
3219.241005288426
 30
0.0
 40
10.0
100
AcDbArc
 50
90.0
 51
180.0000000000007
  0
LINE
  5
7C47
330
19
100
AcDbEntity
  8
1
 48
10.0
100
AcDbLine
 10
4870.213645968497
 20
3229.241005288425
 30
0.0
 11
5017.713645968498
 21
3229.241005288425
 31
0.0
  0
LINE
  5
7C48
330
19
100
AcDbEntity
  8
1
 48
10.0
100
AcDbLine
 10
4861.813645968499
 20
3241.741005288425
 30
0.0
 11
5017.713645968498
 21
3241.741005288425
 31
0.0
  0
LINE
  5
7C49
330
19
100
AcDbEntity
  8
1
 48
10.0
100
AcDbLine
 10
4817.713645968499
 20
3261.241005288425
 30
0.0
 11
4861.813645968498
 21
3261.241005288425
 31
0.0
  0
LINE
  5
7C4A
330
19
100
AcDbEntity
  8
1
 48
10.0
100
AcDbLine
 10
4817.713645968499
 20
3341.241005288426
 30
0.0
 11
4861.813645968498
 21
3341.241005288426
 31
0.0
  0
LINE
  5
7C4B
330
19
100
AcDbEntity
  8
1
 48
10.0
100
AcDbLine
 10
4812.713645968499
 20
3271.241005288425
 30
0.0
 11
4817.713645968499
 21
3271.241005288425
 31
0.0
  0
LINE
  5
7C4C
330
19
100
AcDbEntity
  8
1
 48
10.0
100
AcDbLine
 10
4812.713645968499
 20
3331.241005288426
 30
0.0
 11
4817.713645968499
 21
3331.241005288426
 31
0.0
  0
LINE
  5
7C4D
330
19
100
AcDbEntity
  8
1
 48
10.0
100
AcDbLine
 10
4817.713645968499
 20
3341.241005288426
 30
0.0
 11
4817.713645968499
 21
3261.241005288425
 31
0.0
  0
LINE
  5
7C4E
330
19
100
AcDbEntity
  8
1
 48
10.0
100
AcDbLine
 10
4861.813645968498
 20
3360.741005288426
 30
0.0
 11
5017.713645968498
 21
3360.741005288426
 31
0.0
  0
LINE
  5
7C4F
330
19
100
AcDbEntity
  8
1
 48
10.0
100
AcDbLine
 10
4850.213645968493
 20
3581.241005288427
 30
0.0
 11
4850.213645968493
 21
3561.241005288425
 31
0.0
  0
LINE
  5
7C50
330
19
100
AcDbEntity
  8
1
 48
10.0
100
AcDbLine
 10
5677.713645968498
 20
3345.241005288425
 30
0.0
 11
6337.713645968499
 21
3345.241005288425
 31
0.0
  0
LINE
  5
7C51
330
19
100
AcDbEntity
  8
1
 48
10.0
100
AcDbLine
 10
5677.713645968498
 20
3799.241005288426
 30
0.0
 11
5673.713645968499
 21
3799.241005288426
 31
0.0
  0
LINE
  5
7C52
330
19
100
AcDbEntity
  8
1
 48
10.0
100
AcDbLine
 10
5677.713645968498
 20
3799.241005288426
 30
0.0
 11
5681.713645968499
 21
3799.241005288426
 31
0.0
  0
LINE
  5
7C53
330
19
100
AcDbEntity
  8
1
 48
10.0
100
AcDbLine
 10
5677.713645968498
 20
4375.241005288425
 30
0.0
 11
5017.713645968498
 21
4375.241005288425
 31
0.0
  0
LINE
  5
7C54
330
19
100
AcDbEntity
  8
1
 48
10.0
100
AcDbLine
 10
5677.713645968498
 20
4375.241005288425
 30
0.0
 11
6337.713645968499
 21
4375.241005288425
 31
0.0
  0
POINT
  5
7C57
330
19
100
AcDbEntity
  8
1
 48
10.0
100
AcDbPoint
 10
5677.713645968498
 20
4910.47170219422
 30
0.0
  0
LINE
  5
7C58
330
19
100
AcDbEntity
  8
1
 48
10.0
100
AcDbLine
 10
6477.713645968499
 20
3259.041005288425
 30
0.0
 11
6477.713645968499
 21
3129.041005288426
 31
0.0
  0
LINE
  5
7C59
330
19
100
AcDbEntity
  8
1
 48
10.0
100
AcDbLine
 10
6337.713645968499
 20
3119.041005288425
 30
0.0
 11
6467.7136459685
 21
3119.041005288425
 31
0.0
  0
ARC
  5
7C5A
330
19
100
AcDbEntity
  8
1
 48
10.0
100
AcDbCircle
 10
6467.7136459685
 20
3129.041005288426
 30
0.0
 40
10.0
100
AcDbArc
 50
270.0
 51
0.0000000000006514
  0
POINT
  5
7C5B
330
19
100
AcDbEntity
  8
1
 48
10.0
100
AcDbPoint
 10
6477.713645968503
 20
3259.041005288425
 30
0.0
  0
LINE
  5
7C5C
330
19
100
AcDbEntity
  8
1
 48
10.0
100
AcDbLine
 10
6337.713645968499
 20
3269.041005288425
 30
0.0
 11
6467.713645968498
 21
3269.041005288425
 31
0.0
  0
LINE
  5
7C5D
330
19
100
AcDbEntity
  8
1
 48
10.0
100
AcDbLine
 10
6464.313645968499
 20
3268.741005288426
 30
0.0
 11
6467.713645968498
 21
3268.741005288426
 31
0.0
  0
ARC
  5
7C5E
330
19
100
AcDbEntity
  8
1
 48
10.0
100
AcDbCircle
 10
6467.713645968503
 20
3259.041005288425
 30
0.0
 40
10.0
100
AcDbArc
 50
0.0000000000006514
 51
90.0
  0
DIMENSION
  5
7C5F
330
19
100
AcDbEntity
  8
3
 48
10.0
100
AcDbDimension
280
     0
  2
*D3
 10
5677.713645968498
 20
4911.499183958312
 30
0.0
 11
6077.713645968499
 21
5026.499183958312
 31
0.0
 70
    32
  1
(<>)
 71
     5
 42
800.0
 73
     0
 74
     0
 75
     0
  3
IGA
100
AcDbAlignedDimension
 13
6477.713645968499
 23
3259.041005288425
 33
0.0
 14
5677.713645968498
 24
4735.708266401693
 34
0.0
100
AcDbRotatedDimension
1001
ACAD
1000
DSTYLE
1002
{
1070
   287
1070
     3
1070
    40
1040
35.0
1070
   143
1040
0.039
1070
   172
1070
     1
1070
   271
1070
     0
1070
   279
1070
     0
1070
   288
1070
     1
1002
}
  0
DIMENSION
  5
7C60
330
19
100
AcDbEntity
  8
3
 48
10.0
100
AcDbDimension
280
     0
  2
*D4
 10
4598.213645968494
 20
4911.499183958312
 30
0.0
 11
5137.963645968496
 21
5026.499183958312
 31
0.0
 70
    32
  1
(<>)
 71
     5
 42
1079.500000000005
 73
     0
 74
     0
 75
     0
  3
IGA
100
AcDbAlignedDimension
 13
5677.713645968498
 23
4735.708266401693
 33
0.0
 14
4598.213645968494
 24
3581.241005288426
 34
0.0
100
AcDbRotatedDimension
1001
ACAD
1000
DSTYLE
1002
{
1070
   287
1070
     3
1070
    40
1040
35.0
1070
   143
1040
0.039
1070
   172
1070
     1
1070
   271
1070
     0
1070
   279
1070
     0
1070
   288
1070
     1
1002
}
  0
DIMENSION
  5
7C61
330
19
100
AcDbEntity
  8
3
 48
10.0
100
AcDbDimension
280
     0
  2
*D5
 10
6337.713645968499
 20
4590.506352685421
 30
0.0
 11
5673.658818336735
 21
4590.506352685421
 31
0.0
 70
   160
 71
     5
 42
-1.0
 73
     0
 74
     0
 75
     0
  3
IGA
100
AcDbAlignedDimension
 13
5017.713645968498
 23
4375.241005288425
 33
0.0
 14
6337.713645968499
 24
4375.241005288425
 34
0.0
100
AcDbRotatedDimension
1001
ACAD
1000
DSTYLE
1002
{
1070
   287
1070
     3
1070
    40
1040
35.0
1070
   143
1040
0.039
1070
   172
1070
     1
1070
   271
1070
     0
1070
   279
1070
     0
1070
   288
1070
     1
1002
}
  0
LINE
  5
7C62
330
19
100
AcDbEntity
  8
1
 48
10.0
100
AcDbLine
 10
2021.148170074386
 20
7457.051885239728
 30
0.0
 11
3271.148170074386
 21
7457.051885239728
 31
0.0
  0
DIMENSION
  5
7C63
330
19
100
AcDbEntity
  8
3
 48
10.0
100
AcDbDimension
280
     0
  2
*D6
 10
3271.148170074386
 20
7859.078532681808
 30
0.0
 11
2646.148170074386
 21
7946.578532681808
 31
0.0
 70
    32
 71
     5
 42
-1.0
 73
     0
 74
     0
 75
     0
  3
IGA
100
AcDbAlignedDimension
 13
2021.148170074386
 23
7457.051885239728
 33
0.0
 14
3271.148170074386
 24
7457.051885239728
 34
0.0
100
AcDbRotatedDimension
1001
ACAD
1000
DSTYLE
1002
{
1070
   287
1070
     3
1070
    40
1040
35.0
1070
   143
1040
0.039
1070
   172
1070
     1
1070
   271
1070
     0
1070
   279
1070
     0
1070
   288
1070
     1
1002
}
  0
LINE
  5
7C64
330
19
100
AcDbEntity
  8
1
 48
10.0
100
AcDbLine
 10
1071.148170074386
 20
5807.051885239729
 30
0.0
 11
3271.148170074386
 21
5807.051885239729
 31
0.0
  0
LINE
  5
7C65
330
19
100
AcDbEntity
  8
2
100
AcDbLine
 10
1778.148170074386
 20
6729.051885239728
 30
0.0
 11
3424.790556307424
 21
6729.05188523973
 31
0.0
  0
DIMENSION
  5
7C66
330
19
100
AcDbEntity
  8
3
 48
10.0
100
AcDbDimension
280
     0
  2
*D7
 10
3271.148170074386
 20
5367.231225744538
 30
0.0
 11
2171.148170074386
 21
5367.231225744538
 31
0.0
 70
   160
 71
     5
 42
-1.0
 73
     0
 74
     0
 75
     0
  3
IGA
100
AcDbAlignedDimension
 13
1071.148170074386
 23
5807.051885239729
 33
0.0
 14
3271.148170074386
 24
5807.051885239729
 34
0.0
100
AcDbRotatedDimension
1001
ACAD
1000
DSTYLE
1002
{
1070
   287
1070
     3
1070
    40
1040
35.0
1070
   143
1040
0.039
1070
   172
1070
     1
1070
   271
1070
     0
1070
   279
1070
     0
1070
   288
1070
     1
1002
}
  0
LINE
  5
7C67
330
19
100
AcDbEntity
  8
1
 48
10.0
100
AcDbLine
 10
1778.148170074386
 20
7389.05188523973
 30
0.0
 11
3326.148170074386
 21
7389.051885239729
 31
0.0
  0
LINE
  5
7C68
330
19
100
AcDbEntity
  8
1
 48
10.0
100
AcDbLine
 10
1778.148170074386
 20
6069.051885239731
 30
0.0
 11
3326.148170074386
 21
6069.051885239729
 31
0.0
  0
LINE
  5
7C69
330
19
100
AcDbEntity
  8
1
 48
10.0
100
AcDbLine
 10
1126.148170074386
 20
5649.05188523973
 30
0.0
 11
2926.148170074386
 21
5649.051885239729
 31
0.0
  0
LINE
  5
7C6A
330
19
100
AcDbEntity
  8
1
 48
10.0
100
AcDbLine
 10
1126.148170074386
 20
5879.051885239729
 30
0.0
 11
2926.148170074386
 21
5879.051885239729
 31
0.0
  0
ARC
  5
7C6B
330
19
100
AcDbEntity
  8
1
 48
10.0
100
AcDbCircle
 10
2646.148170074384
 20
3301.241005288424
 30
0.0
 40
280.0
100
AcDbArc
 50
284.1655229519219
 51
109.2329655160654
  0
CIRCLE
  5
7C6C
330
19
100
AcDbEntity
  8
1
 48
10.0
100
AcDbCircle
 10
2646.148170074384
 20
3301.241005288424
 30
0.0
 40
500.0
  0
CIRCLE
  5
7C6D
330
19
100
AcDbEntity
  8
1
 48
10.0
100
AcDbCircle
 10
2646.148170074384
 20
3301.241005288424
 30
0.0
 40
550.0
  0
ARC
  5
7C6E
330
19
100
AcDbEntity
  8
1
 48
10.0
100
AcDbCircle
 10
2720.148170074387
 20
3375.241005288425
 30
0.0
 40
942.0
100
AcDbArc
 50
94.5055845266444
 51
184.5055845266444
  0
ARC
  5
7C6F
330
19
100
AcDbEntity
  8
1
 48
10.0
100
AcDbCircle
 10
2572.148170074386
 20
3375.241005288425
 30
0.0
 40
794.0
100
AcDbArc
 50
185.3476697498387
 51
241.6849320526008
  0
LINE
  5
7C70
330
19
100
AcDbEntity
  8
1
 48
10.0
100
AcDbLine
 10
1071.148170074386
 20
2676.241005288424
 30
0.0
 11
3271.148170074386
 21
2676.241005288427
 31
0.0
  0
LINE
  5
7C71
330
19
100
AcDbEntity
  8
2
100
AcDbLine
 10
3385.764152572014
 20
3301.241005288424
 30
0.0
 11
1713.633254018177
 21
3301.241005288425
 31
0.0
  0
LINE
  5
7C72
330
19
100
AcDbEntity
  8
1
 48
10.0
100
AcDbLine
 10
1071.148170074386
 20
2551.241005288427
 30
0.0
 11
3271.148170074386
 21
2551.241005288427
 31
0.0
1001
ACAD
1000
ASC_BOUNDS
1002
{
1070
    19
1002
}
  0
LINE
  5
7C77
330
19
100
AcDbEntity
  8
1
 48
10.0
100
AcDbLine
 10
2553.913385296034
 20
3565.613364806002
 30
0.0
 11
1273.677982034252
 21
3118.962144909379
 31
0.0
  0
LINE
  5
7C78
330
19
100
AcDbEntity
  8
1
 48
10.0
100
AcDbLine
 10
2714.67088710397
 20
3029.755025446218
 30
0.0
 11
1399.987447740488
 21
2697.930592555263
 31
0.0
  0
DIMENSION
  5
7C79
330
19
100
AcDbEntity
  8
3
 48
10.0
100
AcDbDimension
280
     0
  2
*D8
 10
1778.148170074386
 20
4629.015678631399
 30
0.0
 11
2212.148170074385
 21
4716.5156786314
 31
0.0
 70
    32
 71
     5
 42
-1.0
 73
     0
 74
     0
 75
     0
  3
IGA
100
AcDbAlignedDimension
 13
2646.148170074384
 23
4466.156897628866
 33
0.0
 14
1778.148170074386
 24
3375.241005288425
 34
0.0
100
AcDbRotatedDimension
1001
ACAD
1000
DSTYLE
1002
{
1070
   287
1070
     3
1070
    40
1040
35.0
1070
   143
1040
0.039
1070
   172
1070
     1
1070
   271
1070
     0
1070
   279
1070
     0
1070
   288
1070
     1
1002
}
  0
LINE
  5
7C7A
330
19
100
AcDbEntity
  8
1
 48
10.0
100
AcDbLine
 10
2592.821377417271
 20
3457.491647478803
 30
0.0
 11
1309.229621311768
 21
3019.41452680484
 31
0.0
  0
LINE
  5
7C7B
330
19
100
AcDbEntity
  8
1
 48
10.0
100
AcDbLine
 10
2687.637164566361
 20
3141.439023648507
 30
0.0
 11
1374.871320107291
 21
2800.608864153097
 31
0.0
  0
LINE
  5
7C7C
330
19
100
AcDbEntity
  8
1
 48
10.0
100
AcDbLine
 10
3271.148170074386
 20
2676.241005288427
 30
0.0
 11
3271.148170074386
 21
2551.241005288427
 31
0.0
  0
ARC
  5
7C7D
330
19
100
AcDbEntity
  8
1
 48
10.0
100
AcDbCircle
 10
2585.648170074386
 20
3240.741005288425
 30
0.0
 40
659.4999999999999
100
AcDbArc
 50
301.1349904936489
 51
5.263495203066972
  0
LINE
  5
7C7E
330
19
100
AcDbEntity
  8
2
100
AcDbLine
 10
2646.148170074384
 20
4466.156897628866
 30
0.0
 11
2646.148170074384
 21
2551.241005288427
 31
0.0
  0
DIMENSION
  5
7C7F
330
19
100
AcDbEntity
  8
3
 48
10.0
100
AcDbDimension
280
     0
  2
*D9
 10
3728.110312527682
 20
2551.241005288427
 30
0.0
 11
3640.610312527682
 21
2926.241005288427
 31
0.0
 70
    32
 71
     5
 42
-1.0
 73
     0
 74
     0
 75
     0
  3
IGA
100
AcDbAlignedDimension
 13
3385.764152572014
 23
3301.241005288424
 33
0.0
 14
3271.148170074386
 24
2551.241005288427
 34
0.0
 50
270.0
100
AcDbRotatedDimension
1001
ACAD
1000
DSTYLE
1002
{
1070
   287
1070
     3
1070
    40
1040
35.0
1070
   143
1040
0.039
1070
   172
1070
     1
1070
   271
1070
     0
1070
   279
1070
     0
1070
   288
1070
     1
1002
}
  0
POINT
  5
7C89
330
19
100
AcDbEntity
  8
1
 48
10.0
100
AcDbPoint
 10
3271.148170074386
 20
2551.241005288427
 30
0.0
  0
POINT
  5
7C8A
330
19
100
AcDbEntity
  8
1
 48
10.0
100
AcDbPoint
 10
3271.148170074386
 20
2551.241005288427
 30
0.0
  0
POINT
  5
7C8B
330
19
100
AcDbEntity
  8
1
 48
10.0
100
AcDbPoint
 10
3271.148170074386
 20
2551.241005288427
 30
0.0
  0
LINE
  5
7C92
330
19
100
AcDbEntity
  8
1
 48
25.0
100
AcDbLine
 10
3326.148170074386
 20
4428.241005288424
 30
0.0
 11
3326.148170074386
 21
3292.241005288425
 31
0.0
  0
LINE
  5
7C93
330
19
100
AcDbEntity
  8
1
 48
25.0
100
AcDbLine
 10
3276.148170074387
 20
4370.762249419116
 30
0.0
 11
3276.148170074387
 21
3345.241005288425
 31
0.0
  0
LINE
  5
7C94
330
19
100
AcDbEntity
  8
1
 48
25.0
100
AcDbLine
 10
3322.148170074385
 20
4428.241005288424
 30
0.0
 11
3322.148170074388
 21
3292.241005288425
 31
0.0
  0
DIMENSION
  5
7C95
330
19
100
AcDbEntity
  8
3
 48
10.0
100
AcDbDimension
280
     0
  2
*D10
 10
3527.308267068529
 20
3345.241005288425
 30
0.0
 11
3439.808267068528
 21
3860.241005288425
 31
0.0
 70
    32
 71
     5
 42
-1.0
 73
     0
 74
     0
 75
     0
  3
IGA
100
AcDbAlignedDimension
 13
3326.148170074386
 23
4375.241005288424
 33
0.0
 14
3326.148170074386
 24
3345.241005288425
 34
0.0
 50
270.0
100
AcDbRotatedDimension
1001
ACAD
1000
DSTYLE
1002
{
1070
   287
1070
     3
1070
    40
1040
35.0
1070
   143
1040
0.039
1070
   172
1070
     1
1070
   271
1070
     0
1070
   279
1070
     0
1070
   288
1070
     1
1002
}
  0
DIMENSION
  5
7C96
330
19
100
AcDbEntity
  8
3
 48
10.0
100
AcDbDimension
280
     0
  2
*D11
 10
3728.110312527682
 20
3301.241005288424
 30
0.0
 11
3640.610312527682
 21
3838.241005288426
 31
0.0
 70
    32
 71
     5
 42
-1.0
 73
     0
 74
     0
 75
     0
  3
IGA
100
AcDbAlignedDimension
 13
3326.148170074386
 23
4375.241005288424
 33
0.0
 14
3385.764152572014
 24
3301.241005288424
 34
0.0
 50
270.0
100
AcDbRotatedDimension
1001
ACAD
1000
DSTYLE
1002
{
1070
   287
1070
     3
1070
    40
1040
35.0
1070
   143
1040
0.039
1070
   172
1070
     1
1070
   271
1070
     0
1070
   279
1070
     0
1070
   288
1070
     1
1002
}
  0
CIRCLE
  5
7C97
330
19
100
AcDbEntity
  8
1
 48
10.0
100
AcDbCircle
 10
2646.148170074384
 20
3301.241005288424
 30
0.0
 40
165.1
  0
LINE
  5
7C98
330
19
100
AcDbEntity
  8
1
 48
25.0
100
AcDbLine
 10
3322.148170074388
 20
3292.241005288425
 30
0.0
 11
3326.148170074386
 21
3292.241005288425
 31
0.0
  0
ARC
  5
7C99
330
19
100
AcDbEntity
  8
1
 48
10.0
100
AcDbCircle
 10
2706.648170074386
 20
3240.741005288425
 30
0.0
 40
538.4999999999999
100
AcDbArc
 50
6.450749714859885
 51
11.18967456276251
  0
LINE
  5
7C9A
330
19
100
AcDbEntity
  8
1
 48
10.0
100
AcDbLine
 10
3234.911362053536
 20
3345.241005288425
 30
0.0
 11
3326.148170074386
 21
3345.241005288425
 31
0.0
  0
DIMENSION
  5
7C9B
330
19
100
AcDbEntity
  8
3
 48
10.0
100
AcDbDimension
280
     0
  2
*D12
 10
2646.148170074384
 20
4629.015678631399
 30
0.0
 11
2986.148170074385
 21
4716.5156786314
 31
0.0
 70
    32
 71
     5
 42
-1.0
 73
     0
 74
     0
 75
     0
  3
IGA
100
AcDbAlignedDimension
 13
3326.148170074386
 23
4428.241005288424
 33
0.0
 14
2646.148170074384
 24
4466.156897628866
 34
0.0
100
AcDbRotatedDimension
1001
ACAD
1000
DSTYLE
1002
{
1070
   287
1070
     3
1070
    40
1040
35.0
1070
   143
1040
0.039
1070
   172
1070
     1
1070
   271
1070
     0
1070
   279
1070
     0
1070
   288
1070
     1
1002
}
  0
LINE
  5
7C9C
330
19
100
AcDbEntity
  8
1
 48
10.0
100
AcDbLine
 10
3326.148170074386
 20
4375.241005288424
 30
0.0
 11
2646.148170074386
 21
4314.329925465847
 31
0.0
  0
LINE
  5
7C9D
330
19
100
AcDbEntity
  8
1
 48
25.0
100
AcDbLine
 10
3322.148170074385
 20
4428.241005288424
 30
0.0
 11
3326.148170074386
 21
4428.241005288424
 31
0.0
  0
LINE
  5
7C9E
330
19
100
AcDbEntity
  8
2
100
AcDbLine
 10
2646.148170074386
 20
7546.141231418777
 30
0.0
 11
2646.148170074386
 21
5649.051885239731
 31
0.0
  0
LINE
  5
7C9F
330
19
100
AcDbEntity
  8
1
 48
10.0
100
AcDbLine
 10
3271.148170074386
 20
7457.051885239728
 30
0.0
 11
3271.148170074386
 21
7389.051885239729
 31
0.0
  0
DIMENSION
  5
7CA0
330
19
100
AcDbEntity
  8
3
 48
10.0
100
AcDbDimension
280
     0
  2
*D13
 10
3672.809232487678
 20
5807.051885239729
 30
0.0
 11
3585.309232487677
 21
6632.05188523973
 31
0.0
 70
    32
 71
     5
 42
-1.0
 73
     0
 74
     0
 75
     0
  3
IGA
100
AcDbAlignedDimension
 13
3271.148170074386
 23
7457.051885239728
 33
0.0
 14
3271.148170074386
 24
5807.051885239729
 34
0.0
 50
90.0
100
AcDbRotatedDimension
1001
ACAD
1000
DSTYLE
1002
{
1070
   287
1070
     3
1070
    40
1040
35.0
1070
   143
1040
0.039
1070
   172
1070
     1
1070
   271
1070
     0
1070
   279
1070
     0
1070
   288
1070
     1
1002
}
  0
LINE
  5
7CA1
330
19
100
AcDbEntity
  8
1
 48
10.0
100
AcDbLine
 10
3326.148170074386
 20
7439.051885239729
 30
0.0
 11
3326.148170074386
 21
6019.05188523973
 31
0.0
  0
LINE
  5
7CA2
330
19
100
AcDbEntity
  8
1
 48
10.0
100
AcDbLine
 10
2926.148170074386
 20
5879.051885239729
 30
0.0
 11
2926.148170074386
 21
5649.051885239729
 31
0.0
  0
LINE
  5
7CA3
330
19
100
AcDbEntity
  8
1
 48
10.0
100
AcDbLine
 10
2811.148170074386
 20
5841.551885239729
 30
0.0
 11
2811.148170074386
 21
5731.551885239729
 31
0.0
  0
LINE
  5
7CA4
330
19
100
AcDbEntity
  8
1
 48
10.0
100
AcDbLine
 10
2481.148170074386
 20
5841.551885239729
 30
0.0
 11
2481.148170074386
 21
5731.551885239729
 31
0.0
  0
LINE
  5
7CA5
330
19
100
AcDbEntity
  8
1
 48
10.0
100
AcDbLine
 10
2481.148170074386
 20
5731.551885239729
 30
0.0
 11
2811.148170074386
 21
5731.551885239729
 31
0.0
  0
LINE
  5
7CA6
330
19
100
AcDbEntity
  8
1
 48
10.0
100
AcDbLine
 10
2481.148170074386
 20
5841.551885239729
 30
0.0
 11
2811.148170074386
 21
5841.551885239729
 31
0.0
  0
LINE
  5
7CA7
330
19
100
AcDbEntity
  8
1
 48
10.0
100
AcDbLine
 10
2686.148170074386
 20
6069.051885239731
 30
0.0
 11
2686.148170074386
 21
5841.551885239729
 31
0.0
  0
LINE
  5
7CA8
330
19
100
AcDbEntity
  8
1
 48
10.0
100
AcDbLine
 10
2606.148170074386
 20
6069.051885239731
 30
0.0
 11
2606.148170074386
 21
5841.551885239729
 31
0.0
  0
LINE
  5
7CA9
330
19
100
AcDbEntity
  8
1
 48
10.0
100
AcDbLine
 10
1071.148170074386
 20
2676.241005288427
 30
0.0
 11
1071.148170074386
 21
2551.241005288427
 31
0.0
  0
LINE
  5
7CAA
330
19
100
AcDbEntity
  8
2
100
AcDbLine
 10
1346.148170074386
 20
3175.056679288426
 30
0.0
 11
1346.148170074386
 21
2551.241005288427
 31
0.0
  0
LINE
  5
7CB1
330
19
100
AcDbEntity
  8
1
 48
10.0
100
AcDbLine
 10
1121.148170074386
 20
2676.241005288424
 30
0.0
 11
1135.73215704862
 21
2731.241005288425
 31
0.0
  0
LINE
  5
7CB2
330
19
100
AcDbEntity
  8
2
100
AcDbLine
 10
979.4620918315304
 20
2911.241005288426
 30
0.0
 11
1562.227702720342
 21
2911.241005288426
 31
0.0
  0
ARC
  5
7CB3
330
19
100
AcDbEntity
  8
1
 48
10.0
100
AcDbCircle
 10
1346.148170074386
 20
2911.241005288426
 30
0.0
 40
220.0
100
AcDbArc
 50
109.2329655160654
 51
284.1655229519219
  0
ARC
  5
7CB4
330
19
100
AcDbEntity
  8
1
 48
10.0
100
AcDbCircle
 10
1346.148170074386
 20
2911.241005288426
 30
0.0
 40
185.0
100
AcDbArc
 50
287.945251
 51
252.054749
  0
CIRCLE
  5
7CB5
330
19
100
AcDbEntity
  8
1
 48
10.0
100
AcDbCircle
 10
1346.148170074386
 20
2911.241005288426
 30
0.0
 40
114.3
  0
LINE
  5
7CB6
330
19
100
AcDbEntity
  8
1
 48
10.0
100
AcDbLine
 10
1403.148185074386
 20
2735.241005288425
 30
0.0
 11
1289.148170074386
 21
2735.241005288425
 31
0.0
  0
LINE
  5
7CB8
330
19
100
AcDbEntity
  8
1
 48
10.0
100
AcDbLine
 10
1276.148170074386
 20
2721.241005288425
 30
0.0
 11
1416.148170074386
 21
2721.241005288425
 31
0.0
  0
LINE
  5
7CB9
330
19
100
AcDbEntity
  8
1
 48
10.0
100
AcDbLine
 10
1508.148185074386
 20
2806.500038288425
 30
0.0
 11
1508.148185074386
 21
2731.241005288425
 31
0.0
  0
LINE
  5
7CBA
330
19
100
AcDbEntity
  8
1
 48
10.0
100
AcDbLine
 10
1416.148170074386
 20
2731.241005288425
 30
0.0
 11
1556.363421288051
 21
2731.241005288425
 31
0.0
  0
LINE
  5
7CBB
330
19
100
AcDbEntity
  8
1
 48
10.0
100
AcDbLine
 10
1571.148170074386
 20
2676.241005288424
 30
0.0
 11
1556.363421288051
 21
2731.241005288425
 31
0.0
  0
LINE
  5
7CBC
330
19
100
AcDbEntity
  8
1
 48
10.0
100
AcDbLine
 10
1416.148170074386
 20
2731.241005288425
 30
0.0
 11
1416.148170074386
 21
2721.241005288425
 31
0.0
  0
LINE
  5
7CBE
330
19
100
AcDbEntity
  8
1
 48
10.0
100
AcDbLine
 10
1508.148185074386
 20
2806.500038288425
 30
0.0
 11
1501.764213074384
 21
2811.197792288425
 31
0.0
  0
LINE
  5
7CBF
330
19
100
AcDbEntity
  8
1
 48
10.0
100
AcDbLine
 10
1184.148170074386
 20
2806.500038288425
 30
0.0
 11
1184.148170074386
 21
2731.241005288425
 31
0.0
  0
LINE
  5
7CC0
330
19
100
AcDbEntity
  8
1
 48
10.0
100
AcDbLine
 10
1135.73215704862
 20
2731.241005288425
 30
0.0
 11
1276.148170074386
 21
2731.241005288425
 31
0.0
  0
LINE
  5
7CC1
330
19
100
AcDbEntity
  8
1
 48
10.0
100
AcDbLine
 10
1276.148170074386
 20
2731.241005288425
 30
0.0
 11
1276.148170074386
 21
2721.241005288425
 31
0.0
  0
LINE
  5
7CC3
330
19
100
AcDbEntity
  8
1
 48
10.0
100
AcDbLine
 10
1184.148170074386
 20
2806.500038288425
 30
0.0
 11
1190.532142074386
 21
2811.197792288425
 31
0.0
  0
DIMENSION
  5
7CC4
330
19
100
AcDbEntity
  8
3
 48
10.0
100
AcDbDimension
280
     0
  2
*D14
 10
2021.148170074386
 20
7859.078532681808
 30
0.0
 11
1546.148170074386
 21
7946.578532681808
 31
0.0
 70
    32
 71
     5
 42
-1.0
 73
     0
 74
     0
 75
     0
  3
IGA
100
AcDbAlignedDimension
 13
1071.148170074386
 23
6757.05188523973
 33
0.0
 14
2021.148170074386
 24
7457.051885239728
 34
0.0
100
AcDbRotatedDimension
1001
ACAD
1000
DSTYLE
1002
{
1070
   287
1070
     3
1070
    40
1040
35.0
1070
   143
1040
0.039
1070
   172
1070
     1
1070
   271
1070
     0
1070
   279
1070
     0
1070
   288
1070
     1
1002
}
  0
DIMENSION
  5
7CC5
330
19
100
AcDbEntity
  8
3
 48
10.0
100
AcDbDimension
280
     0
  2
*D15
 10
817.4089389494875
 20
5807.051885239729
 30
0.0
 11
729.9089389494866
 21
6282.051885239729
 31
0.0
 70
    32
 71
     5
 42
-1.0
 73
     0
 74
     0
 75
     0
  3
IGA
100
AcDbAlignedDimension
 13
1071.148170074386
 23
6757.05188523973
 33
0.0
 14
1071.148170074386
 24
5807.051885239729
 34
0.0
 50
90.0
100
AcDbRotatedDimension
1001
ACAD
1000
DSTYLE
1002
{
1070
   287
1070
     3
1070
    40
1040
35.0
1070
   143
1040
0.039
1070
   172
1070
     1
1070
   271
1070
     0
1070
   279
1070
     0
1070
   288
1070
     1
1002
}
  0
LINE
  5
7CC6
330
19
100
AcDbEntity
  8
1
 48
10.0
100
AcDbLine
 10
2021.148170074386
 20
7457.051885239728
 30
0.0
 11
2021.148170074386
 21
7389.05188523973
 31
0.0
  0
LINE
  5
7CC7
330
19
100
AcDbEntity
  8
1
 48
10.0
100
AcDbLine
 10
1531.148170074386
 20
6446.051885239731
 30
0.0
 11
1531.148170074386
 21
5846.551885239731
 31
0.0
  0
LINE
  5
7CC8
330
19
100
AcDbEntity
  8
1
 48
10.0
100
AcDbLine
 10
1071.148170074386
 20
6757.05188523973
 30
0.0
 11
1071.148170074386
 21
5807.051885239729
 31
0.0
  0
LINE
  5
7CC9
330
19
100
AcDbEntity
  8
1
 48
10.0
100
AcDbLine
 10
1161.148170074386
 20
6446.051885239731
 30
0.0
 11
1161.148170074386
 21
5846.551885239731
 31
0.0
  0
LINE
  5
7CCA
330
19
100
AcDbEntity
  8
2
100
AcDbLine
 10
1346.148170074386
 20
6446.051885239731
 30
0.0
 11
1346.148170074386
 21
5649.05188523973
 31
0.0
  0
LINE
  5
7CCB
330
19
100
AcDbEntity
  8
1
 48
10.0
100
AcDbLine
 10
1778.148170074386
 20
7389.051885239729
 30
0.0
 11
1778.148170074386
 21
6069.051885239731
 31
0.0
  0
LINE
  5
7CCC
330
19
100
AcDbEntity
  8
1
 48
10.0
100
AcDbLine
 10
1460.148170074386
 20
5841.55188523973
 30
0.0
 11
1460.148170074386
 21
5731.55188523973
 31
0.0
  0
LINE
  5
7CCD
330
19
100
AcDbEntity
  8
1
 48
10.0
100
AcDbLine
 10
1232.148170074386
 20
5841.55188523973
 30
0.0
 11
1232.148170074386
 21
5731.55188523973
 31
0.0
  0
LINE
  5
7CCE
330
19
100
AcDbEntity
  8
1
 48
10.0
100
AcDbLine
 10
1232.148170074386
 20
5731.551885239731
 30
0.0
 11
1460.148170074386
 21
5731.551885239731
 31
0.0
  0
LINE
  5
7CCF
330
19
100
AcDbEntity
  8
1
 48
10.0
100
AcDbLine
 10
1232.148170074386
 20
5841.551885239731
 30
0.0
 11
1460.148170074386
 21
5841.551885239731
 31
0.0
  0
LINE
  5
7CD0
330
19
100
AcDbEntity
  8
1
 48
10.0
100
AcDbLine
 10
1161.148170074386
 20
5846.551885239731
 30
0.0
 11
1531.148170074386
 21
5846.551885239731
 31
0.0
  0
LINE
  5
7CD1
330
19
100
AcDbEntity
  8
1
 48
10.0
100
AcDbLine
 10
1373.648170074386
 20
5846.551885239731
 30
0.0
 11
1373.648170074386
 21
5841.551885239731
 31
0.0
  0
LINE
  5
7CD2
330
19
100
AcDbEntity
  8
1
 48
10.0
100
AcDbLine
 10
1318.648170074386
 20
5846.551885239731
 30
0.0
 11
1318.648170074386
 21
5841.551885239731
 31
0.0
  0
LINE
  5
7CD3
330
19
100
AcDbEntity
  8
1
 48
10.0
100
AcDbLine
 10
1126.148170074386
 20
5879.051885239731
 30
0.0
 11
1126.148170074386
 21
5649.051885239731
 31
0.0
  0
LINE
  5
7CD4
330
19
100
AcDbEntity
  8
1
 48
10.0
100
AcDbLine
 10
1071.148170074386
 20
6757.051885239729
 30
0.0
 11
1778.148170074386
 21
6757.051885239729
 31
0.0
  0
LINE
  5
7CD5
330
19
100
AcDbEntity
  8
1
 48
10.0
100
AcDbLine
 10
1161.148170074386
 20
6446.051885239731
 30
0.0
 11
1531.148170074386
 21
6446.051885239731
 31
0.0
  0
LINE
  5
7CD6
330
19
100
AcDbEntity
  8
1
 48
10.0
100
AcDbLine
 10
6337.713645968499
 20
4375.241005288425
 30
0.0
 11
5018.564037312357
 21
3345.610807765928
 31
0.0
  0
LINE
  5
7CD7
330
19
100
AcDbEntity
  8
1
 48
10.0
100
AcDbLine
 10
5017.713645968498
 20
4375.241005288425
 30
0.0
 11
6337.713645968499
 21
3345.241005288425
 31
0.0
  0
DIMENSION
  5
7CD8
330
19
100
AcDbEntity
  8
3
 48
10.0
100
AcDbDimension
280
     0
  2
*D16
 10
1071.148170074386
 20
4874.007470447534
 30
0.0
 11
2198.648170074386
 21
4961.507470447534
 31
0.0
 70
    32
 71
     5
 42
-1.0
 73
     0
 74
     0
 75
     0
  3
IGA
100
AcDbAlignedDimension
 13
3326.148170074386
 23
4375.241005288424
 33
0.0
 14
1071.148170074386
 24
2676.241005288424
 34
0.0
100
AcDbRotatedDimension
1001
ACAD
1000
DSTYLE
1002
{
1070
   287
1070
     3
1070
    40
1040
35.0
1070
   143
1040
0.039
1070
   172
1070
     1
1070
   271
1070
     0
1070
   279
1070
     0
1070
   288
1070
     1
1002
}
  0
LINE
  5
7CDB
330
19
100
AcDbEntity
  8
1
 48
10.0
100
AcDbLine
 10
3271.148170074386
 20
6069.051885239729
 30
0.0
 11
3271.148170074386
 21
5807.051885239729
 31
0.0
  0
LINE
  5
80A5
330
19
100
AcDbEntity
  8
4
100
AcDbLine
 10
6475.0
 20
1411.801532643661
 30
0.0
 11
6475.0
 21
711.8015326436617
 31
0.0
  0
LINE
  5
80A6
330
19
100
AcDbEntity
  8
4
100
AcDbLine
 10
4025.0
 20
1411.801532643661
 30
0.0
 11
4025.0
 21
711.8015326436617
 31
0.0
  0
LINE
  5
80A7
330
19
100
AcDbEntity
  8
4
100
AcDbLine
 10
2275.0
 20
1411.801532643661
 30
0.0
 11
2275.0
 21
711.8015326436617
 31
0.0
  0
LINE
  5
80AA
330
19
100
AcDbEntity
  8
4
100
AcDbLine
 10
2275.0
 20
711.8015326436616
 30
0.0
 11
6475.0
 21
711.8015326436616
 31
0.0
  0
LINE
  5
80AB
330
19
100
AcDbEntity
  8
4
100
AcDbLine
 10
2275.0
 20
1061.801532643661
 30
0.0
 11
6475.0
 21
1061.801532643661
 31
0.0
  0
TEXT
  5
80AC
330
19
100
AcDbEntity
  8
4
100
AcDbText
 10
2409.757282964156
 20
1172.202123176806
 30
0.0
 40
175.0
  1
機器名称
100
AcDbText
  0
TEXT
  5
80AD
330
19
100
AcDbEntity
  8
4
100
AcDbText
 10
2401.903371086792
 20
787.5595812056999
 30
0.0
 40
175.0
  1
機器型番
100
AcDbText
  0
TEXT
  5
80AE
330
19
100
AcDbEntity
  8
4
100
AcDbText
 10
4127.321178135882
 20
1138.68316184186
 30
0.0
 40
140.0
  1
ミツヤリミットロードファン
100
AcDbText
  0
TEXT
  5
80AF
330
19
100
AcDbEntity
  8
4
100
AcDbText
 10
4153.290734549182
 20
771.8600776234634
 30
0.0
 40
175.0
  1
LL#6-5
100
AcDbText
  0
TEXT
  5
80B1
330
19
100
AcDbEntity
  8
4
100
AcDbText
 10
2926.490279082689
 20
8342.000944663805
 30
0.0
 40
188.9999999999999
  1
床置ベット
100
AcDbText
  0
TEXT
  5
80B2
330
19
100
AcDbEntity
  8
4
100
AcDbText
 10
1106.586576653062
 20
8868.583416697545
 30
0.0
 40
252.0
  1
遠心式両吸込両持リミットロードファン
100
AcDbText
  0
LINE
  5
80B3
330
19
100
AcDbEntity
  8
4
100
AcDbLine
 10
875.0
 20
8642.930639926817
 30
0.0
 11
6475.0
 21
8642.930639926817
 31
0.0
  0
LINE
  5
80B4
330
19
100
AcDbEntity
  8
4
100
AcDbLine
 10
875.0
 20
9342.930639926818
 30
0.0
 11
6475.0
 21
9342.930639926818
 31
0.0
  0
LINE
  5
80B5
330
19
100
AcDbEntity
  8
4
100
AcDbLine
 10
2275.0
 20
1411.801532643661
 30
0.0
 11
6475.0
 21
1411.801532643661
 31
0.0
  0
LINE
  5
80B6
330
19
100
AcDbEntity
  8
4
100
AcDbLine
 10
875.0
 20
9342.930639926818
 30
0.0
 11
875.0
 21
8642.930639926817
 31
0.0
  0
TEXT
  5
80B7
330
19
100
AcDbEntity
  8
4
100
AcDbText
 10
1400.984366233231
 20
8338.118171412203
 30
0.0
 40
188.9999999999999
  1
右回転右横向
100
AcDbText
  0
TEXT
  5
80B8
330
19
100
AcDbEntity
  8
4
100
AcDbText
 10
5141.393457372515
 20
9471.21378523358
 30
0.0
 40
196.0
  1
No.
100
AcDbText
  0
TEXT
  5
80B9
330
19
100
AcDbEntity
  8
4
100
AcDbText
 10
4589.536219100046
 20
8342.000944663805
 30
0.0
 40
188.9999999999999
  1
縮尺：1/35
100
AcDbText
  0
LINE
  5
80BA
330
19
100
AcDbEntity
  8
4
100
AcDbLine
 10
6475.0
 20
9342.930639926818
 30
0.0
 11
6475.0
 21
8642.930639926817
 31
0.0
  0
LINE
  5
80BB
330
19
100
AcDbEntity
  8
4
100
AcDbLine
 10
7350.0
 20
10325.0
 30
0.0
 11
7350.0
 21
10325.0
 31
0.0
  0
LINE
  5
80BC
330
19
100
AcDbEntity
  8
4
100
AcDbLine
 10
5042.160978259526
 20
9384.422540938905
 30
0.0
 11
5042.160978259526
 21
9753.282915424135
 31
0.0
  0
LINE
  5
80BD
330
19
100
AcDbEntity
  8
4
100
AcDbLine
 10
5042.160978259526
 20
9753.282915424135
 30
0.0
 11
6475.0
 21
9753.282915424135
 31
0.0
  0
LINE
  5
80BE
330
19
100
AcDbEntity
  8
4
100
AcDbLine
 10
6475.0
 20
9753.282915424135
 30
0.0
 11
6475.0
 21
9384.422540938905
 31
0.0
  0
LINE
  5
80BF
330
19
100
AcDbEntity
  8
4
100
AcDbLine
 10
6475.0
 20
9384.422540938905
 30
0.0
 11
5042.160978259526
 21
9384.422540938905
 31
0.0
  0
LINE
  5
80C0
330
19
100
AcDbEntity
  8
4
100
AcDbLine
 10
0.0
 20
0.0
 30
0.0
 11
0.0
 21
10325.0
 31
0.0
  0
LINE
  5
80C1
330
19
100
AcDbEntity
  8
4
100
AcDbLine
 10
0.0
 20
10325.0
 30
0.0
 11
7350.0
 21
10325.0
 31
0.0
  0
LINE
  5
80C2
330
19
100
AcDbEntity
  8
4
100
AcDbLine
 10
7350.0
 20
10325.0
 30
0.0
 11
7350.0
 21
0.0
 31
0.0
  0
LINE
  5
80C3
330
19
100
AcDbEntity
  8
4
100
AcDbLine
 10
7350.0
 20
0.0
 30
0.0
 11
0.0
 21
0.0
 31
0.0
  0
DIMENSION
  5
81F1
330
19
100
AcDbEntity
  8
3
100
AcDbDimension
280
     0
  2
*D17
 10
2646.148170074384
 20
2356.606766640067
 30
0.0
 11
1858.648170074385
 21
2444.106766640067
 31
0.0
 70
    32
 71
     5
 42
-1.0
 73
     0
 74
     0
 75
     0
  3
IGA
100
AcDbAlignedDimension
 13
1071.148170074386
 23
2551.241005288427
 33
0.0
 14
2646.148170074384
 24
2551.241005288427
 34
0.0
100
AcDbRotatedDimension
1001
ACAD
1000
DSTYLE
1002
{
1070
   172
1070
     1
1070
    40
1040
35.0
1070
   271
1070
     0
1070
   143
1040
0.039
1002
}
  0
DIMENSION
  5
81FE
330
19
100
AcDbEntity
  8
3
100
AcDbDimension
280
     0
  2
*D18
 10
3271.148170074386
 20
2356.606766640067
 30
0.0
 11
2958.648170074385
 21
2444.106766640067
 31
0.0
 70
    32
 71
     5
 42
-1.0
 73
     0
 74
     0
 75
     0
  3
IGA
100
AcDbAlignedDimension
 13
2646.148170074384
 23
2551.241005288427
 33
0.0
 14
3271.148170074386
 24
2551.241005288427
 34
0.0
100
AcDbRotatedDimension
1001
ACAD
1000
DSTYLE
1002
{
1070
   172
1070
     1
1070
    40
1040
35.0
1070
   271
1070
     0
1070
   143
1040
0.039
1002
}
  0
DIMENSION
  5
820B
330
19
100
AcDbEntity
  8
3
100
AcDbDimension
280
     0
  2
*D19
 10
5677.713645968499
 20
2356.606766640067
 30
0.0
 11
5216.713645968499
 21
2444.106766640067
 31
0.0
 70
    32
 71
     5
 42
-1.0
 73
     0
 74
     0
 75
     0
  3
IGA
100
AcDbAlignedDimension
 13
4755.713645968499
 23
2551.241005288425
 33
0.0
 14
5677.713645968499
 24
2551.241005288425
 34
0.0
100
AcDbRotatedDimension
1001
ACAD
1000
DSTYLE
1002
{
1070
   172
1070
     1
1070
    40
1040
35.0
1070
   271
1070
     0
1070
   143
1040
0.039
1002
}
  0
DIMENSION
  5
8218
330
19
100
AcDbEntity
  8
3
100
AcDbDimension
280
     0
  2
*D20
 10
6405.713645968498
 20
2356.606766640067
 30
0.0
 11
6041.713645968499
 21
2444.106766640067
 31
0.0
 70
    32
 71
     5
 42
-1.0
 73
     0
 74
     0
 75
     0
  3
IGA
100
AcDbAlignedDimension
 13
5677.713645968499
 23
2551.241005288425
 33
0.0
 14
6405.713645968498
 24
2551.241005288425
 34
0.0
100
AcDbRotatedDimension
1001
ACAD
1000
DSTYLE
1002
{
1070
   172
1070
     1
1070
    40
1040
35.0
1070
   271
1070
     0
1070
   143
1040
0.039
1002
}
  0
DIMENSION
  5
8225
330
19
100
AcDbEntity
  8
3
100
AcDbDimension
280
     0
  2
*D21
 10
3944.253284944127
 20
2551.241005288427
 30
0.0
 11
3856.753284944127
 21
3463.241005288426
 31
0.0
 70
    32
 71
     5
 42
-1.0
 73
     0
 74
     0
 75
     0
  3
IGA
100
AcDbAlignedDimension
 13
3326.148170074386
 23
4375.241005288424
 33
0.0
 14
3271.148170074386
 24
2551.241005288427
 34
0.0
 50
90.0
100
AcDbRotatedDimension
1001
ACAD
1000
DSTYLE
1002
{
1070
   172
1070
     1
1070
    40
1040
35.0
1070
   271
1070
     0
1070
   143
1040
0.039
1002
}
  0
ENDSEC
  0
SECTION
  2
OBJECTS
  0
DICTIONARY
  5
C
330
0
100
AcDbDictionary
281
     1
  3
ACAD_CIP_PREVIOUS_PRODUCT_INFO
350
8345
  3
ACAD_COLOR
350
8328
  3
ACAD_DETAILVIEWSTYLE
350
8341
  3
ACAD_GROUP
350
D
  3
ACAD_LAYOUT
350
822E
  3
ACAD_MATERIAL
350
82F6
  3
ACAD_MLEADERSTYLE
350
833D
  3
ACAD_MLINESTYLE
350
E
  3
ACAD_PLOTSETTINGS
350
822F
  3
ACAD_PLOTSTYLENAME
350
822C
  3
ACAD_SCALELIST
350
832B
  3
ACAD_SECTIONVIEWSTYLE
350
833F
  3
ACAD_TABLESTYLE
350
8329
  3
ACAD_VISUALSTYLE
350
830F
  3
ACDB_RECOMPOSE_DATA
350
83A8
  3
AcDbVariableDictionary
350
82ED
  3
AcDsDecomposeData
350
83AE
  0
DICTIONARY
  5
838C
330
2
100
AcDbDictionary
280
     1
281
     1
  3
ACAD_LAYERSTATES
360
838D
  0
DICTIONARY
  5
837F
330
F
100
AcDbDictionary
280
     1
281
     1
  3
ADSK_XREC_LAYER_RECONCILED
360
8380
  0
DICTIONARY
  5
8381
330
31
100
AcDbDictionary
280
     1
281
     1
  3
ADSK_XREC_LAYER_RECONCILED
360
8382
  0
DICTIONARY
  5
8383
330
76D0
100
AcDbDictionary
280
     1
281
     1
  3
ADSK_XREC_LAYER_RECONCILED
360
8384
  0
DICTIONARY
  5
8385
330
76D1
100
AcDbDictionary
280
     1
281
     1
  3
ADSK_XREC_LAYER_RECONCILED
360
8386
  0
DICTIONARY
  5
8387
330
76D2
100
AcDbDictionary
280
     1
281
     1
  3
ADSK_XREC_LAYER_RECONCILED
360
8388
  0
DICTIONARY
  5
825B
330
19
100
AcDbDictionary
280
     1
281
     1
  3
ACAD_LAYOUTSELFREF
360
825C
  0
DICTIONARY
  5
8259
330
16
100
AcDbDictionary
280
     1
281
     1
  3
ACAD_LAYOUTSELFREF
360
825A
  0
XRECORD
  5
8345
102
{ACAD_REACTORS
330
C
102
}
330
C
100
AcDbXrecord
280
     1
300
ACDLT
300
2023
300

  0
DICTIONARY
  5
8328
102
{ACAD_REACTORS
330
C
102
}
330
C
100
AcDbDictionary
281
     1
  0
DICTIONARY
  5
8341
102
{ACAD_REACTORS
330
C
102
}
330
C
100
AcDbDictionary
281
     1
  3
Metric50
350
8342
  0
DICTIONARY
  5
D
102
{ACAD_REACTORS
330
C
102
}
330
C
100
AcDbDictionary
281
     1
  0
DICTIONARY
  5
822E
102
{ACAD_REACTORS
330
C
102
}
330
C
100
AcDbDictionary
281
     1
  3
Model
350
8230
  3
ﾚｲｱｳﾄ1
350
8231
  0
DICTIONARY
  5
82F6
102
{ACAD_REACTORS
330
C
102
}
330
C
100
AcDbDictionary
281
     1
  3
ByBlock
350
82FF
  3
ByLayer
350
82F7
  3
Global
350
8307
  0
DICTIONARY
  5
833D
102
{ACAD_REACTORS
330
C
102
}
330
C
100
AcDbDictionary
281
     1
  3
Standard
350
833E
  0
DICTIONARY
  5
E
102
{ACAD_REACTORS
330
C
102
}
330
C
100
AcDbDictionary
281
     1
  3
STANDARD
350
1C
  0
DICTIONARY
  5
822F
102
{ACAD_REACTORS
330
C
102
}
330
C
100
AcDbDictionary
281
     1
  0
ACDBDICTIONARYWDFLT
  5
822C
102
{ACAD_REACTORS
330
C
102
}
330
C
100
AcDbDictionary
281
     1
  3
Normal
350
822D
100
AcDbDictionaryWithDefault
340
822D
  0
DICTIONARY
  5
832B
102
{ACAD_REACTORS
330
C
102
}
330
C
100
AcDbDictionary
281
     1
  3
A0
350
832C
  3
A1
350
832D
  3
A2
350
832E
  3
A3
350
832F
  3
A4
350
8330
  3
A5
350
8331
  3
A6
350
8332
  3
A7
350
8333
  3
A8
350
8334
  3
A9
350
8335
  3
B0
350
8336
  3
B1
350
8337
  3
B2
350
8338
  3
B3
350
8339
  3
B4
350
833A
  3
B5
350
833B
  3
B6
350
833C
  0
DICTIONARY
  5
833F
102
{ACAD_REACTORS
330
C
102
}
330
C
100
AcDbDictionary
281
     1
  3
Metric50
350
8340
  0
DICTIONARY
  5
8329
102
{ACAD_REACTORS
330
C
102
}
330
C
100
AcDbDictionary
281
     1
  3
Standard
350
832A
  0
DICTIONARY
  5
830F
102
{ACAD_REACTORS
330
C
102
}
330
C
100
AcDbDictionary
281
     1
  3
2dWireframe
350
8315
  3
Basic
350
8314
  3
Brighten
350
831B
  3
ColorChange
350
831F
  3
Conceptual
350
8318
  3
Dim
350
831A
  3
EdgeColorOff
350
8327
  3
Facepattern
350
831E
  3
Flat
350
8310
  3
FlatWithEdges
350
8311
  3
Gouraud
350
8312
  3
GouraudWithEdges
350
8313
  3
Hidden
350
8317
  3
JitterOff
350
8325
  3
Linepattern
350
831D
  3
OverhangOff
350
8326
  3
Realistic
350
8319
  3
Shaded
350
8324
  3
Shaded with edges
350
8323
  3
Shades of Gray
350
8320
  3
Sketchy
350
8321
  3
Thicken
350
831C
  3
Wireframe
350
8316
  3
X-Ray
350
8322
  0
XRECORD
  5
83A8
102
{ACAD_REACTORS
330
C
102
}
330
C
100
AcDbXrecord
280
     1
 90
        1
330
832A
  0
DICTIONARY
  5
82ED
102
{ACAD_REACTORS
330
C
102
}
330
C
100
AcDbDictionary
281
     1
  3
CANNOSCALE
350
839D
  3
CMLEADERSTYLE
350
8399
  3
CTABLESTYLE
350
8398
  3
CVIEWDETAILSTYLE
350
839A
  3
CVIEWSECTIONSTYLE
350
839B
  3
DIMASSOC
350
82EE
  3
LAYEREVAL
350
839F
  3
LAYERNOTIFY
350
83A0
  3
LIGHTINGUNITS
350
839E
  3
MARKUPASSISTMODE
350
83A5
  3
MSLTSCALE
350
839C
  0
DICTIONARY
  5
83AE
102
{ACAD_REACTORS
330
C
102
}
330
C
100
AcDbDictionary
281
     1
  3
AcDsRecords
350
83B0
  3
AcDsSchemas
350
83AF
1001
ACAD
1070
     2
  0
DICTIONARY
  5
838D
102
{ACAD_REACTORS
330
838C
102
}
330
838C
100
AcDbDictionary
281
     1
  0
XRECORD
  5
8380
102
{ACAD_REACTORS
330
837F
102
}
330
837F
100
AcDbXrecord
280
     1
290
     1
  0
XRECORD
  5
8382
102
{ACAD_REACTORS
330
8381
102
}
330
8381
100
AcDbXrecord
280
     1
290
     1
  0
XRECORD
  5
8384
102
{ACAD_REACTORS
330
8383
102
}
330
8383
100
AcDbXrecord
280
     1
290
     1
  0
XRECORD
  5
8386
102
{ACAD_REACTORS
330
8385
102
}
330
8385
100
AcDbXrecord
280
     1
290
     1
  0
XRECORD
  5
8388
102
{ACAD_REACTORS
330
8387
102
}
330
8387
100
AcDbXrecord
280
     1
290
     1
  0
XRECORD
  5
825C
102
{ACAD_REACTORS
330
825B
102
}
330
825B
100
AcDbXrecord
280
     1
340
19
  0
XRECORD
  5
825A
102
{ACAD_REACTORS
330
8259
102
}
330
8259
100
AcDbXrecord
280
     1
340
16
  0
ACDBDETAILVIEWSTYLE
  5
8342
102
{ACAD_XDICTIONARY
360
83B3
102
}
102
{ACAD_REACTORS
330
8341
102
}
330
8341
100
AcDbModelDocViewStyle
 70
     0
  3
Metric50
290
     0
100
AcDbDetailViewStyle
 70
     0
 71
     0
 90
        3
 71
     1
340
10
 62
   256
 40
5.0
340
0
 62
   256
 40
5.0
300

 40
0.0
280
     1
 71
     2
340
15
 90
       25
 62
   256
 71
     3
340
10
 62
   256
 40
5.0
 90
        0
 40
15.0
 90
        1
300
%<\AcVar ViewDetailId>% (%<\AcVar ViewScale \f "%sn">%)
 71
     4
340
15
 90
       25
 62
   256
340
15
 90
       25
 62
   256
280
     0
  0
LAYOUT
  5
8230
102
{ACAD_REACTORS
330
822E
102
}
330
822E
100
AcDbPlotSettings
  1

  2
\\Txbo34x8944cqyd\EPSON LP-6100
  4

  6

 40
0.0
 41
0.0
 42
0.0
 43
0.0
 44
0.0
 45
0.0
 46
0.0
 47
0.0
 48
0.0
 49
0.0
140
0.0
141
0.0
142
1.0
143
1.0
 70
  1712
 72
     0
 73
     0
 74
     0
  7
GOD2000TABLE.ctb
 75
     0
147
1.0
 76
     0
 77
     2
 78
   300
148
0.0
149
0.0
100
AcDbLayout
  1
Model
 70
     1
 71
     0
 10
0.0
 20
0.0
 11
12.0
 21
9.0
 12
0.0
 22
0.0
 32
0.0
 14
0.0
 24
0.0
 34
0.0
 15
0.0
 25
0.0
 35
0.0
146
0.0
 13
0.0
 23
0.0
 33
0.0
 16
1.0
 26
0.0
 36
0.0
 17
0.0
 27
1.0
 37
0.0
 76
     0
330
19
331
82F4
  0
LAYOUT
  5
8231
102
{ACAD_REACTORS
330
822E
102
}
330
822E
100
AcDbPlotSettings
  1

  2
\\Txbo34x8944cqyd\EPSON LP-6100
  4

  6

 40
0.0
 41
0.0
 42
0.0
 43
0.0
 44
0.0
 45
0.0
 46
0.0
 47
0.0
 48
0.0
 49
0.0
140
0.0
141
0.0
142
1.0
143
1.0
 70
   688
 72
     0
 73
     0
 74
     5
  7
GOD2000TABLE.ctb
 75
    16
147
1.0
 76
     0
 77
     2
 78
   300
148
0.0
149
0.0
100
AcDbLayout
  1
ﾚｲｱｳﾄ1
 70
     1
 71
     1
 10
0.0
 20
0.0
 11
12.0
 21
9.0
 12
0.0
 22
0.0
 32
0.0
 14
1.000000000000000E+20
 24
1.000000000000000E+20
 34
1.000000000000000E+20
 15
-1.000000000000000E+20
 25
-1.000000000000000E+20
 35
-1.000000000000000E+20
146
0.0
 13
0.0
 23
0.0
 33
0.0
 16
1.0
 26
0.0
 36
0.0
 17
0.0
 27
1.0
 37
0.0
 76
     0
330
16
  0
MATERIAL
  5
82FF
102
{ACAD_XDICTIONARY
360
8300
102
}
102
{ACAD_REACTORS
330
82F6
102
}
330
82F6
100
AcDbMaterial
  1
ByBlock
 72
     0
 43
0.0208333333333333
 43
0.0
 43
0.0
 43
0.0
 43
0.0
 43
0.0208333333333333
 43
0.0
 43
0.0
 43
0.0
 43
0.0
 43
1.0
 43
0.0
 43
0.0
 43
0.0
 43
0.0
 43
1.0
 77
     0
 47
0.0208333333333333
 47
0.0
 47
0.0
 47
0.0
 47
0.0
 47
0.0208333333333333
 47
0.0
 47
0.0
 47
0.0
 47
0.0
 47
1.0
 47
0.0
 47
0.0
 47
0.0
 47
0.0
 47
1.0
171
     0
 49
0.0208333333333333
 49
0.0
 49
0.0
 49
0.0
 49
0.0
 49
0.0208333333333333
 49
0.0
 49
0.0
 49
0.0
 49
0.0
 49
1.0
 49
0.0
 49
0.0
 49
0.0
 49
0.0
 49
1.0
175
     0
142
0.0208333333333333
142
0.0
142
0.0
142
0.0
142
0.0
142
0.0208333333333333
142
0.0
142
0.0
142
0.0
142
0.0
142
1.0
142
0.0
142
0.0
142
0.0
142
0.0
142
1.0
179
     0
144
0.0208333333333333
144
0.0
144
0.0
144
0.0
144
0.0
144
0.0208333333333333
144
0.0
144
0.0
144
0.0
144
0.0
144
1.0
144
0.0
144
0.0
144
0.0
144
0.0
144
1.0
147
0.0208333333333333
147
0.0
147
0.0
147
0.0
147
0.0
147
0.0208333333333333
147
0.0
147
0.0
147
0.0
147
0.0
147
1.0
147
0.0
147
0.0
147
0.0
147
0.0
147
1.0
  0
MATERIAL
  5
82F7
102
{ACAD_XDICTIONARY
360
82F8
102
}
102
{ACAD_REACTORS
330
82F6
102
}
330
82F6
100
AcDbMaterial
  1
ByLayer
 72
     0
 43
0.0208333333333333
 43
0.0
 43
0.0
 43
0.0
 43
0.0
 43
0.0208333333333333
 43
0.0
 43
0.0
 43
0.0
 43
0.0
 43
1.0
 43
0.0
 43
0.0
 43
0.0
 43
0.0
 43
1.0
 77
     0
 47
0.0208333333333333
 47
0.0
 47
0.0
 47
0.0
 47
0.0
 47
0.0208333333333333
 47
0.0
 47
0.0
 47
0.0
 47
0.0
 47
1.0
 47
0.0
 47
0.0
 47
0.0
 47
0.0
 47
1.0
171
     0
 49
0.0208333333333333
 49
0.0
 49
0.0
 49
0.0
 49
0.0
 49
0.0208333333333333
 49
0.0
 49
0.0
 49
0.0
 49
0.0
 49
1.0
 49
0.0
 49
0.0
 49
0.0
 49
0.0
 49
1.0
175
     0
142
0.0208333333333333
142
0.0
142
0.0
142
0.0
142
0.0
142
0.0208333333333333
142
0.0
142
0.0
142
0.0
142
0.0
142
1.0
142
0.0
142
0.0
142
0.0
142
0.0
142
1.0
179
     0
144
0.0208333333333333
144
0.0
144
0.0
144
0.0
144
0.0
144
0.0208333333333333
144
0.0
144
0.0
144
0.0
144
0.0
144
1.0
144
0.0
144
0.0
144
0.0
144
0.0
144
1.0
147
0.0208333333333333
147
0.0
147
0.0
147
0.0
147
0.0
147
0.0208333333333333
147
0.0
147
0.0
147
0.0
147
0.0
147
1.0
147
0.0
147
0.0
147
0.0
147
0.0
147
1.0
  0
MATERIAL
  5
8307
102
{ACAD_XDICTIONARY
360
8308
102
}
102
{ACAD_REACTORS
330
82F6
102
}
330
82F6
100
AcDbMaterial
  1
Global
 72
     0
 43
0.0208333333333333
 43
0.0
 43
0.0
 43
0.0
 43
0.0
 43
0.0208333333333333
 43
0.0
 43
0.0
 43
0.0
 43
0.0
 43
1.0
 43
0.0
 43
0.0
 43
0.0
 43
0.0
 43
1.0
 77
     0
 47
0.0208333333333333
 47
0.0
 47
0.0
 47
0.0
 47
0.0
 47
0.0208333333333333
 47
0.0
 47
0.0
 47
0.0
 47
0.0
 47
1.0
 47
0.0
 47
0.0
 47
0.0
 47
0.0
 47
1.0
171
     0
 49
0.0208333333333333
 49
0.0
 49
0.0
 49
0.0
 49
0.0
 49
0.0208333333333333
 49
0.0
 49
0.0
 49
0.0
 49
0.0
 49
1.0
 49
0.0
 49
0.0
 49
0.0
 49
0.0
 49
1.0
175
     0
142
0.0208333333333333
142
0.0
142
0.0
142
0.0
142
0.0
142
0.0208333333333333
142
0.0
142
0.0
142
0.0
142
0.0
142
1.0
142
0.0
142
0.0
142
0.0
142
0.0
142
1.0
179
     0
144
0.0208333333333333
144
0.0
144
0.0
144
0.0
144
0.0
144
0.0208333333333333
144
0.0
144
0.0
144
0.0
144
0.0
144
1.0
144
0.0
144
0.0
144
0.0
144
0.0
144
1.0
147
0.0208333333333333
147
0.0
147
0.0
147
0.0
147
0.0
147
0.0208333333333333
147
0.0
147
0.0
147
0.0
147
0.0
147
1.0
147
0.0
147
0.0
147
0.0
147
0.0
147
1.0
  0
MLEADERSTYLE
  5
833E
102
{ACAD_REACTORS
330
833D
102
}
330
833D
100
AcDbMLeaderStyle
179
     2
170
     2
171
     1
172
     0
 90
        2
 40
0.0
 41
0.0
173
     1
 91
-1056964608
340
13
 92
       -2
290
     1
 42
2.0
291
     1
 43
0.36
  3
Standard
 44
4.0
300

342
10
174
     1
178
     6
175
     1
176
     0
 93
-1056964608
 45
4.0
292
     0
297
     0
 46
4.0
 94
-1056964608
 47
1.0
 49
1.0
140
1.0
293
     1
141
0.0
294
     1
177
     0
142
1.0
295
     0
296
     0
143
0.125
271
     0
272
     9
273
     9
298
     1
  0
MLINESTYLE
  5
1C
102
{ACAD_REACTORS
330
E
102
}
330
E
100
AcDbMlineStyle
  2
STANDARD
 70
     0
  3

 62
     0
 51
90.0
 52
90.0
 71
     2
 49
0.5
 62
   256
  6
BYLAYER
 49
-0.5
 62
   256
  6
BYLAYER
  0
ACDBPLACEHOLDER
  5
822D
102
{ACAD_REACTORS
330
822C
102
}
330
822C
  0
SCALE
  5
832C
102
{ACAD_REACTORS
330
832B
102
}
330
832B
100
AcDbScale
 70
     0
300
1:1
140
1.0
141
1.0
290
     1
  0
SCALE
  5
832D
102
{ACAD_REACTORS
330
832B
102
}
330
832B
100
AcDbScale
 70
     0
300
1:2
140
1.0
141
2.0
290
     0
  0
SCALE
  5
832E
102
{ACAD_REACTORS
330
832B
102
}
330
832B
100
AcDbScale
 70
     0
300
1:4
140
1.0
141
4.0
290
     0
  0
SCALE
  5
832F
102
{ACAD_REACTORS
330
832B
102
}
330
832B
100
AcDbScale
 70
     0
300
1:5
140
1.0
141
5.0
290
     0
  0
SCALE
  5
8330
102
{ACAD_REACTORS
330
832B
102
}
330
832B
100
AcDbScale
 70
     0
300
1:8
140
1.0
141
8.0
290
     0
  0
SCALE
  5
8331
102
{ACAD_REACTORS
330
832B
102
}
330
832B
100
AcDbScale
 70
     0
300
1:10
140
1.0
141
10.0
290
     0
  0
SCALE
  5
8332
102
{ACAD_REACTORS
330
832B
102
}
330
832B
100
AcDbScale
 70
     0
300
1:16
140
1.0
141
16.0
290
     0
  0
SCALE
  5
8333
102
{ACAD_REACTORS
330
832B
102
}
330
832B
100
AcDbScale
 70
     0
300
1:20
140
1.0
141
20.0
290
     0
  0
SCALE
  5
8334
102
{ACAD_REACTORS
330
832B
102
}
330
832B
100
AcDbScale
 70
     0
300
1:30
140
1.0
141
30.0
290
     0
  0
SCALE
  5
8335
102
{ACAD_REACTORS
330
832B
102
}
330
832B
100
AcDbScale
 70
     0
300
1:40
140
1.0
141
40.0
290
     0
  0
SCALE
  5
8336
102
{ACAD_REACTORS
330
832B
102
}
330
832B
100
AcDbScale
 70
     0
300
1:50
140
1.0
141
50.0
290
     0
  0
SCALE
  5
8337
102
{ACAD_REACTORS
330
832B
102
}
330
832B
100
AcDbScale
 70
     0
300
1:100
140
1.0
141
100.0
290
     0
  0
SCALE
  5
8338
102
{ACAD_REACTORS
330
832B
102
}
330
832B
100
AcDbScale
 70
     0
300
2:1
140
2.0
141
1.0
290
     0
  0
SCALE
  5
8339
102
{ACAD_REACTORS
330
832B
102
}
330
832B
100
AcDbScale
 70
     0
300
4:1
140
4.0
141
1.0
290
     0
  0
SCALE
  5
833A
102
{ACAD_REACTORS
330
832B
102
}
330
832B
100
AcDbScale
 70
     0
300
8:1
140
8.0
141
1.0
290
     0
  0
SCALE
  5
833B
102
{ACAD_REACTORS
330
832B
102
}
330
832B
100
AcDbScale
 70
     0
300
10:1
140
10.0
141
1.0
290
     0
  0
SCALE
  5
833C
102
{ACAD_REACTORS
330
832B
102
}
330
832B
100
AcDbScale
 70
     0
300
100:1
140
100.0
141
1.0
290
     0
  0
ACDBSECTIONVIEWSTYLE
  5
8340
102
{ACAD_XDICTIONARY
360
83B1
102
}
102
{ACAD_REACTORS
330
833F
102
}
330
833F
100
AcDbModelDocViewStyle
 70
     0
  3
Metric50
290
     0
100
AcDbSectionViewStyle
 70
     0
 71
     0
 90
      102
 71
     1
340
10
 62
   256
 40
5.0
340
0
340
0
 62
   256
 40
5.0
300
I, O, Q, S, X, Z
 40
10.0
 90
        0
 40
2.5
 90
        0
 71
     2
340
15
 90
       25
 62
   256
340
15
 90
       50
 62
   256
 40
5.0
 40
2.5
 40
5.0
 71
     3
340
10
 62
   256
 40
5.0
 90
        0
 40
15.0
 90
        1
300
%<\AcVar ViewSectionStartId>%-%<\AcVar ViewSectionEndId>% (%<\AcVar ViewScale \f "%sn">%)
 71
     4
 62
   256
 62
   257
300
ANSI31
 40
1.0
 90
        0
290
     0
290
     0
 90
        6
 40
0.0
 40
1.570796326794896
 40
0.2617993877991494
 40
1.308996938995747
 40
-0.2617993877991494
 40
1.832595714594046
  0
TABLESTYLE
  5
832A
102
{ACAD_XDICTIONARY
360
83A6
102
}
102
{ACAD_REACTORS
330
8329
102
}
330
8329
100
AcDbTableStyle
280
     0
  3
Standard
 70
     0
 71
     0
 40
1.5
 41
1.5
280
     0
281
     0
  7
STANDARD
140
4.5
170
     2
 62
     0
 63
     7
283
     0
 90
      512
 91
        0
  1

274
    -2
284
     1
 64
     0
275
    -2
285
     1
 65
     0
276
    -2
286
     1
 66
     0
277
    -2
287
     1
 67
     0
278
    -2
288
     1
 68
     0
279
    -2
289
     1
 69
     0
  7
STANDARD
140
6.0
170
     5
 62
     0
 63
     7
283
     0
 90
      512
 91
        0
  1

274
    -2
284
     1
 64
     0
275
    -2
285
     1
 65
     0
276
    -2
286
     1
 66
     0
277
    -2
287
     1
 67
     0
278
    -2
288
     1
 68
     0
279
    -2
289
     1
 69
     0
  7
STANDARD
140
4.5
170
     5
 62
     0
 63
     7
283
     0
 90
      512
 91
        0
  1

274
    -2
284
     1
 64
     0
275
    -2
285
     1
 65
     0
276
    -2
286
     1
 66
     0
277
    -2
287
     1
 67
     0
278
    -2
288
     1
 68
     0
279
    -2
289
     1
 69
     0
  0
VISUALSTYLE
  5
8315
102
{ACAD_REACTORS
330
830F
102
}
330
830F
100
AcDbVisualStyle
  2
2dWireframe
 70
     4
177
     3
291
     0
 70
    58
 90
        0
176
     1
 90
        2
176
     1
 90
        0
176
     1
 90
        0
176
     1
 40
0.6
176
     1
 40
30.0
176
     1
 62
     7
420
 16777215
176
     1
 90
        1
176
     1
 90
        4
176
     1
 62
     7
176
     1
 62
   257
176
     1
 90
        1
176
     1
 90
        1
176
     1
 40
1.0
176
     1
 90
        0
176
     1
 62
   257
176
     1
 40
1.0
176
     1
 90
        1
176
     1
 90
        6
176
     1
 90
        2
176
     1
 62
     7
176
     1
 90
        5
176
     1
 90
        0
176
     1
 90
        0
176
     1
290
     0
176
     1
 90
        1
176
     1
 40
0.0
176
     1
 90
        0
176
     1
290
     1
176
     1
290
     1
176
     1
290
     0
176
     1
290
     0
176
     1
290
     0
176
     1
290
     0
176
     1
290
     0
176
     1
290
     0
176
     1
290
     0
176
     1
 90
       50
176
     1
 40
0.0
176
     1
 40
1.0
176
     1
 90
        0
176
     1
 62
    18
420
        0
176
     1
 90
       50
176
     1
 90
        3
176
     1
 62
     5
420
      255
176
     1
290
     0
176
     1
 90
       50
176
     1
 90
       50
176
     1
 90
       50
176
     1
290
     0
176
     1
 90
       50
176
     1
 62
   256
176
     0
 40
1.0
176
     0
 90
        2
176
     1
  1
strokes_ogs.tif
176
     1
290
     0
176
     1
 40
1.0
176
     1
 40
1.0
176
     1
1001
ACAD
1000
AcDbSavedByObjectVersion
1070
     0
  0
VISUALSTYLE
  5
8314
102
{ACAD_REACTORS
330
830F
102
}
330
830F
100
AcDbVisualStyle
  2
Basic
 70
     7
177
     3
291
     1
 70
    58
 90
        1
176
     1
 90
        0
176
     1
 90
        1
176
     1
 90
        0
176
     1
 40
0.6
176
     1
 40
30.0
176
     1
 62
     7
420
 16777215
176
     1
 90
        0
176
     1
 90
        4
176
     1
 62
     7
176
     1
 62
   257
176
     1
 90
        1
176
     1
 90
        1
176
     1
 40
1.0
176
     1
 90
        8
176
     1
 62
     7
176
     1
 40
1.0
176
     1
 90
        1
176
     1
 90
        6
176
     1
 90
        2
176
     1
 62
     7
176
     1
 90
        5
176
     1
 90
        0
176
     1
 90
        0
176
     1
290
     0
176
     1
 90
        1
176
     1
 40
0.0
176
     1
 90
        0
176
     1
290
     0
176
     1
290
     1
176
     1
290
     1
176
     1
290
     0
176
     1
290
     0
176
     1
290
     0
176
     1
290
     0
176
     1
290
     0
176
     1
290
     0
176
     1
 90
       50
176
     1
 40
0.0
176
     1
 40
1.0
176
     1
 90
        0
176
     1
 62
    18
420
        0
176
     1
 90
       50
176
     1
 90
        3
176
     1
 62
     5
420
      255
176
     1
290
     0
176
     1
 90
       50
176
     1
 90
       50
176
     1
 90
       50
176
     1
290
     0
176
     1
 90
       50
176
     1
 62
   256
176
     0
 40
1.0
176
     0
 90
        2
176
     1
  1
strokes_ogs.tif
176
     1
290
     0
176
     1
 40
1.0
176
     1
 40
1.0
176
     1
1001
ACAD
1000
AcDbSavedByObjectVersion
1070
     0
  0
VISUALSTYLE
  5
831B
102
{ACAD_REACTORS
330
830F
102
}
330
830F
100
AcDbVisualStyle
  2
Brighten
 70
    12
177
     3
291
     1
 70
    58
 90
        2
176
     1
 90
        2
176
     1
 90
        0
176
     1
 90
        0
176
     1
 40
0.6
176
     1
 40
30.0
176
     1
 62
     7
420
 16777215
176
     1
 90
        1
176
     1
 90
        4
176
     1
 62
     7
176
     1
 62
   257
176
     1
 90
        1
176
     1
 90
        1
176
     1
 40
1.0
176
     1
 90
        8
176
     1
 62
     7
176
     1
 40
1.0
176
     1
 90
        1
176
     1
 90
        6
176
     1
 90
        2
176
     1
 62
     7
176
     1
 90
        5
176
     1
 90
        0
176
     1
 90
        0
176
     1
290
     0
176
     1
 90
        1
176
     1
 40
50.0
176
     1
 90
        0
176
     1
290
     0
176
     1
290
     1
176
     1
290
     1
176
     1
290
     0
176
     1
290
     0
176
     1
290
     0
176
     1
290
     0
176
     1
290
     0
176
     1
290
     0
176
     1
 90
       50
176
     1
 40
0.0
176
     1
 40
1.0
176
     1
 90
        0
176
     1
 62
    18
420
        0
176
     1
 90
       50
176
     1
 90
        3
176
     1
 62
     5
420
      255
176
     1
290
     0
176
     1
 90
       50
176
     1
 90
       50
176
     1
 90
       50
176
     1
290
     0
176
     1
 90
       50
176
     1
 62
   256
176
     0
 40
1.0
176
     0
 90
        2
176
     1
  1
strokes_ogs.tif
176
     1
290
     0
176
     1
 40
1.0
176
     1
 40
1.0
176
     1
1001
ACAD
1000
AcDbSavedByObjectVersion
1070
     0
  0
VISUALSTYLE
  5
831F
102
{ACAD_REACTORS
330
830F
102
}
330
830F
100
AcDbVisualStyle
  2
ColorChange
 70
    16
177
     3
291
     1
 70
    58
 90
        2
176
     1
 90
        2
176
     1
 90
        3
176
     1
 90
        0
176
     1
 40
0.6
176
     1
 40
30.0
176
     1
 62
     8
420
  8421504
176
     1
 90
        1
176
     1
 90
        4
176
     1
 62
     7
176
     1
 62
   257
176
     1
 90
        1
176
     1
 90
        1
176
     1
 40
1.0
176
     1
 90
        8
176
     1
 62
     8
420
  8421504
176
     1
 40
1.0
176
     1
 90
        1
176
     1
 90
        6
176
     1
 90
        2
176
     1
 62
     7
176
     1
 90
        5
176
     1
 90
        0
176
     1
 90
        0
176
     1
290
     0
176
     1
 90
        1
176
     1
 40
0.0
176
     1
 90
        0
176
     1
290
     0
176
     1
290
     1
176
     1
290
     1
176
     1
290
     0
176
     1
290
     0
176
     1
290
     0
176
     1
290
     0
176
     1
290
     0
176
     1
290
     0
176
     1
 90
       50
176
     1
 40
0.0
176
     1
 40
1.0
176
     1
 90
        0
176
     1
 62
    18
420
        0
176
     1
 90
       50
176
     1
 90
        3
176
     1
 62
     5
420
      255
176
     1
290
     0
176
     1
 90
       50
176
     1
 90
       50
176
     1
 90
       50
176
     1
290
     0
176
     1
 90
       50
176
     1
 62
   256
176
     0
 40
1.0
176
     0
 90
        2
176
     1
  1
strokes_ogs.tif
176
     1
290
     0
176
     1
 40
1.0
176
     1
 40
1.0
176
     1
1001
ACAD
1000
AcDbSavedByObjectVersion
1070
     0
  0
VISUALSTYLE
  5
8318
102
{ACAD_REACTORS
330
830F
102
}
330
830F
100
AcDbVisualStyle
  2
Conceptual
 70
     9
177
     3
291
     0
 70
    58
 90
        3
176
     1
 90
        2
176
     1
 90
        0
176
     1
 90
        0
176
     1
 40
0.6
176
     1
 40
30.0
176
     1
 62
     7
420
 16777215
176
     1
 90
        2
176
     1
 90
        2
176
     1
 62
     7
176
     1
 62
   257
176
     1
 90
        1
176
     1
 90
        1
176
     1
 40
179.0
176
     1
 90
        8
176
     1
 62
     7
176
     1
 40
1.0
176
     1
 90
        1
176
     1
 90
        6
176
     1
 90
        2
176
     1
 62
     7
176
     1
 90
        3
176
     1
 90
        0
176
     1
 90
        0
176
     1
290
     0
176
     1
 90
        1
176
     1
 40
0.0
176
     1
 90
        0
176
     1
290
     0
176
     1
290
     1
176
     1
290
     1
176
     1
290
     0
176
     1
290
     0
176
     1
290
     0
176
     1
290
     0
176
     1
290
     0
176
     1
290
     0
176
     1
 90
       50
176
     1
 40
0.0
176
     1
 40
1.0
176
     1
 90
        0
176
     1
 62
    18
420
        0
176
     1
 90
       50
176
     1
 90
        3
176
     1
 62
     5
420
      255
176
     1
290
     0
176
     1
 90
       50
176
     1
 90
       50
176
     1
 90
       50
176
     1
290
     0
176
     1
 90
       50
176
     1
 62
   256
176
     0
 40
1.0
176
     0
 90
        2
176
     1
  1
strokes_ogs.tif
176
     1
290
     0
176
     1
 40
1.0
176
     1
 40
1.0
176
     1
1001
ACAD
1000
AcDbSavedByObjectVersion
1070
     0
  0
VISUALSTYLE
  5
831A
102
{ACAD_REACTORS
330
830F
102
}
330
830F
100
AcDbVisualStyle
  2
Dim
 70
    11
177
     3
291
     1
 70
    58
 90
        2
176
     1
 90
        2
176
     1
 90
        0
176
     1
 90
        0
176
     1
 40
0.6
176
     1
 40
30.0
176
     1
 62
     7
420
 16777215
176
     1
 90
        1
176
     1
 90
        4
176
     1
 62
     7
176
     1
 62
   257
176
     1
 90
        1
176
     1
 90
        1
176
     1
 40
1.0
176
     1
 90
        8
176
     1
 62
     7
176
     1
 40
1.0
176
     1
 90
        1
176
     1
 90
        6
176
     1
 90
        2
176
     1
 62
     7
176
     1
 90
        5
176
     1
 90
        0
176
     1
 90
        0
176
     1
290
     0
176
     1
 90
        1
176
     1
 40
-50.0
176
     1
 90
        0
176
     1
290
     0
176
     1
290
     1
176
     1
290
     1
176
     1
290
     0
176
     1
290
     0
176
     1
290
     0
176
     1
290
     0
176
     1
290
     0
176
     1
290
     0
176
     1
 90
       50
176
     1
 40
0.0
176
     1
 40
1.0
176
     1
 90
        0
176
     1
 62
    18
420
        0
176
     1
 90
       50
176
     1
 90
        3
176
     1
 62
     5
420
      255
176
     1
290
     0
176
     1
 90
       50
176
     1
 90
       50
176
     1
 90
       50
176
     1
290
     0
176
     1
 90
       50
176
     1
 62
   256
176
     0
 40
1.0
176
     0
 90
        2
176
     1
  1
strokes_ogs.tif
176
     1
290
     0
176
     1
 40
1.0
176
     1
 40
1.0
176
     1
1001
ACAD
1000
AcDbSavedByObjectVersion
1070
     0
  0
VISUALSTYLE
  5
8327
102
{ACAD_REACTORS
330
830F
102
}
330
830F
100
AcDbVisualStyle
  2
EdgeColorOff
 70
    22
177
     3
291
     1
 70
    58
 90
        2
176
     0
 90
        2
176
     0
 90
        0
176
     0
 90
        0
176
     0
 40
0.6
176
     0
 40
30.0
176
     0
 62
     7
420
 16777215
176
     0
 90
        1
176
     0
 90
        4
176
     0
 62
     7
176
     0
 62
   257
176
     0
 90
        1
176
     0
 90
        1
176
     0
 40
1.0
176
     0
 90
        8
176
     2
 62
     7
176
     0
 40
1.0
176
     0
 90
        1
176
     0
 90
        6
176
     0
 90
        2
176
     0
 62
     7
176
     0
 90
        5
176
     0
 90
        0
176
     0
 90
        0
176
     0
290
     0
176
     0
 90
        1
176
     0
 40
0.0
176
     0
 90
        0
176
     0
290
     0
176
     0
290
     1
176
     0
290
     1
176
     0
290
     0
176
     0
290
     0
176
     0
290
     0
176
     0
290
     0
176
     0
290
     0
176
     0
290
     0
176
     0
 90
       50
176
     0
 40
0.0
176
     0
 40
1.0
176
     0
 90
        0
176
     0
 62
    18
420
        0
176
     0
 90
       50
176
     0
 90
        3
176
     0
 62
     5
420
      255
176
     0
290
     0
176
     0
 90
       50
176
     0
 90
       50
176
     0
 90
       50
176
     0
290
     0
176
     0
 90
       50
176
     0
 62
   256
176
     0
 40
1.0
176
     0
 90
        2
176
     0
  1
strokes_ogs.tif
176
     0
290
     0
176
     0
 40
1.0
176
     0
 40
1.0
176
     0
1001
ACAD
1000
AcDbSavedByObjectVersion
1070
     0
  0
VISUALSTYLE
  5
831E
102
{ACAD_REACTORS
330
830F
102
}
330
830F
100
AcDbVisualStyle
  2
Facepattern
 70
    15
177
     3
291
     1
 70
    58
 90
        2
176
     1
 90
        2
176
     1
 90
        0
176
     1
 90
        0
176
     1
 40
0.6
176
     1
 40
30.0
176
     1
 62
     7
420
 16777215
176
     1
 90
        1
176
     1
 90
        4
176
     1
 62
     7
176
     1
 62
   257
176
     1
 90
        1
176
     1
 90
        1
176
     1
 40
1.0
176
     1
 90
        8
176
     1
 62
     7
176
     1
 40
1.0
176
     1
 90
        1
176
     1
 90
        6
176
     1
 90
        2
176
     1
 62
     7
176
     1
 90
        5
176
     1
 90
        0
176
     1
 90
        0
176
     1
290
     0
176
     1
 90
        1
176
     1
 40
0.0
176
     1
 90
        0
176
     1
290
     0
176
     1
290
     1
176
     1
290
     1
176
     1
290
     0
176
     1
290
     0
176
     1
290
     0
176
     1
290
     0
176
     1
290
     0
176
     1
290
     0
176
     1
 90
       50
176
     1
 40
0.0
176
     1
 40
1.0
176
     1
 90
        0
176
     1
 62
    18
420
        0
176
     1
 90
       50
176
     1
 90
        3
176
     1
 62
     5
420
      255
176
     1
290
     0
176
     1
 90
       50
176
     1
 90
       50
176
     1
 90
       50
176
     1
290
     0
176
     1
 90
       50
176
     1
 62
   256
176
     0
 40
1.0
176
     0
 90
        2
176
     1
  1
strokes_ogs.tif
176
     1
290
     0
176
     1
 40
1.0
176
     1
 40
1.0
176
     1
1001
ACAD
1000
AcDbSavedByObjectVersion
1070
     0
  0
VISUALSTYLE
  5
8310
102
{ACAD_REACTORS
330
830F
102
}
330
830F
100
AcDbVisualStyle
  2
Flat
 70
     0
177
     3
291
     1
 70
    58
 90
        2
176
     1
 90
        1
176
     1
 90
        1
176
     1
 90
        2
176
     1
 40
0.6
176
     1
 40
30.0
176
     1
 62
     7
420
 16777215
176
     1
 90
        0
176
     1
 90
        0
176
     1
 62
     7
176
     1
 62
   257
176
     1
 90
        1
176
     1
 90
        1
176
     1
 40
1.0
176
     1
 90
        8
176
     1
 62
     7
176
     1
 40
1.0
176
     1
 90
        1
176
     1
 90
        6
176
     1
 90
        2
176
     1
 62
     7
176
     1
 90
        5
176
     1
 90
        0
176
     1
 90
        0
176
     1
290
     0
176
     1
 90
       13
176
     1
 40
0.0
176
     1
 90
        0
176
     1
290
     0
176
     1
290
     1
176
     1
290
     1
176
     1
290
     0
176
     1
290
     0
176
     1
290
     0
176
     1
290
     0
176
     1
290
     0
176
     1
290
     0
176
     1
 90
       50
176
     1
 40
0.0
176
     1
 40
1.0
176
     1
 90
        0
176
     1
 62
    18
420
        0
176
     1
 90
       50
176
     1
 90
        3
176
     1
 62
     5
420
      255
176
     1
290
     0
176
     1
 90
       50
176
     1
 90
       50
176
     1
 90
       50
176
     1
290
     0
176
     1
 90
       50
176
     1
 62
   256
176
     0
 40
1.0
176
     0
 90
        2
176
     1
  1
strokes_ogs.tif
176
     1
290
     0
176
     1
 40
1.0
176
     1
 40
1.0
176
     1
1001
ACAD
1000
AcDbSavedByObjectVersion
1070
     0
  0
VISUALSTYLE
  5
8311
102
{ACAD_REACTORS
330
830F
102
}
330
830F
100
AcDbVisualStyle
  2
FlatWithEdges
 70
     1
177
     3
291
     1
 70
    58
 90
        2
176
     1
 90
        1
176
     1
 90
        1
176
     1
 90
        2
176
     1
 40
0.6
176
     1
 40
30.0
176
     1
 62
     7
420
 16777215
176
     1
 90
        1
176
     1
 90
        0
176
     1
 62
     7
176
     1
 62
   257
176
     1
 90
        1
176
     1
 90
        1
176
     1
 40
1.0
176
     1
 90
        0
176
     1
 62
   257
176
     1
 40
1.0
176
     1
 90
        1
176
     1
 90
        6
176
     1
 90
        2
176
     1
 62
     7
176
     1
 90
        5
176
     1
 90
        0
176
     1
 90
        0
176
     1
290
     0
176
     1
 90
       13
176
     1
 40
0.0
176
     1
 90
        0
176
     1
290
     0
176
     1
290
     1
176
     1
290
     1
176
     1
290
     0
176
     1
290
     0
176
     1
290
     0
176
     1
290
     0
176
     1
290
     0
176
     1
290
     0
176
     1
 90
       50
176
     1
 40
0.0
176
     1
 40
1.0
176
     1
 90
        0
176
     1
 62
    18
420
        0
176
     1
 90
       50
176
     1
 90
        3
176
     1
 62
     5
420
      255
176
     1
290
     0
176
     1
 90
       50
176
     1
 90
       50
176
     1
 90
       50
176
     1
290
     0
176
     1
 90
       50
176
     1
 62
   256
176
     0
 40
1.0
176
     0
 90
        2
176
     1
  1
strokes_ogs.tif
176
     1
290
     0
176
     1
 40
1.0
176
     1
 40
1.0
176
     1
1001
ACAD
1000
AcDbSavedByObjectVersion
1070
     0
  0
VISUALSTYLE
  5
8312
102
{ACAD_REACTORS
330
830F
102
}
330
830F
100
AcDbVisualStyle
  2
Gouraud
 70
     2
177
     3
291
     1
 70
    58
 90
        2
176
     1
 90
        2
176
     1
 90
        1
176
     1
 90
        2
176
     1
 40
0.6
176
     1
 40
30.0
176
     1
 62
     7
420
 16777215
176
     1
 90
        0
176
     1
 90
        0
176
     1
 62
     7
176
     1
 62
   257
176
     1
 90
        1
176
     1
 90
        1
176
     1
 40
1.0
176
     1
 90
        0
176
     1
 62
     7
176
     1
 40
1.0
176
     1
 90
        1
176
     1
 90
        6
176
     1
 90
        2
176
     1
 62
     7
176
     1
 90
        5
176
     1
 90
        0
176
     1
 90
        0
176
     1
290
     0
176
     1
 90
       13
176
     1
 40
0.0
176
     1
 90
        0
176
     1
290
     0
176
     1
290
     1
176
     1
290
     1
176
     1
290
     0
176
     1
290
     0
176
     1
290
     0
176
     1
290
     0
176
     1
290
     0
176
     1
290
     0
176
     1
 90
       50
176
     1
 40
0.0
176
     1
 40
1.0
176
     1
 90
        0
176
     1
 62
    18
420
        0
176
     1
 90
       50
176
     1
 90
        3
176
     1
 62
     5
420
      255
176
     1
290
     0
176
     1
 90
       50
176
     1
 90
       50
176
     1
 90
       50
176
     1
290
     0
176
     1
 90
       50
176
     1
 62
   256
176
     0
 40
1.0
176
     0
 90
        2
176
     1
  1
strokes_ogs.tif
176
     1
290
     0
176
     1
 40
1.0
176
     1
 40
1.0
176
     1
1001
ACAD
1000
AcDbSavedByObjectVersion
1070
     0
  0
VISUALSTYLE
  5
8313
102
{ACAD_REACTORS
330
830F
102
}
330
830F
100
AcDbVisualStyle
  2
GouraudWithEdges
 70
     3
177
     3
291
     1
 70
    58
 90
        2
176
     1
 90
        2
176
     1
 90
        1
176
     1
 90
        2
176
     1
 40
0.6
176
     1
 40
30.0
176
     1
 62
     7
420
 16777215
176
     1
 90
        1
176
     1
 90
        0
176
     1
 62
     7
176
     1
 62
   257
176
     1
 90
        1
176
     1
 90
        1
176
     1
 40
1.0
176
     1
 90
        0
176
     1
 62
   257
176
     1
 40
1.0
176
     1
 90
        1
176
     1
 90
        6
176
     1
 90
        2
176
     1
 62
     7
176
     1
 90
        5
176
     1
 90
        0
176
     1
 90
        0
176
     1
290
     0
176
     1
 90
       13
176
     1
 40
0.0
176
     1
 90
        0
176
     1
290
     0
176
     1
290
     1
176
     1
290
     1
176
     1
290
     0
176
     1
290
     0
176
     1
290
     0
176
     1
290
     0
176
     1
290
     0
176
     1
290
     0
176
     1
 90
       50
176
     1
 40
0.0
176
     1
 40
1.0
176
     1
 90
        0
176
     1
 62
    18
420
        0
176
     1
 90
       50
176
     1
 90
        3
176
     1
 62
     5
420
      255
176
     1
290
     0
176
     1
 90
       50
176
     1
 90
       50
176
     1
 90
       50
176
     1
290
     0
176
     1
 90
       50
176
     1
 62
   256
176
     0
 40
1.0
176
     0
 90
        2
176
     1
  1
strokes_ogs.tif
176
     1
290
     0
176
     1
 40
1.0
176
     1
 40
1.0
176
     1
1001
ACAD
1000
AcDbSavedByObjectVersion
1070
     0
  0
VISUALSTYLE
  5
8317
102
{ACAD_REACTORS
330
830F
102
}
330
830F
100
AcDbVisualStyle
  2
Hidden
 70
     6
177
     3
291
     0
 70
    58
 90
        1
176
     1
 90
        2
176
     1
 90
        2
176
     1
 90
        0
176
     1
 40
0.6
176
     1
 40
30.0
176
     1
 62
     7
420
 16777215
176
     1
 90
        2
176
     1
 90
        2
176
     1
 62
     7
176
     1
 62
   257
176
     1
 90
        2
176
     1
 90
        1
176
     1
 40
40.0
176
     1
 90
        0
176
     1
 62
   257
176
     1
 40
1.0
176
     1
 90
        1
176
     1
 90
        6
176
     1
 90
        2
176
     1
 62
     7
176
     1
 90
        3
176
     1
 90
        0
176
     1
 90
        0
176
     1
290
     0
176
     1
 90
        1
176
     1
 40
0.0
176
     1
 90
        0
176
     1
290
     0
176
     1
290
     1
176
     1
290
     1
176
     1
290
     0
176
     1
290
     0
176
     1
290
     0
176
     1
290
     0
176
     1
290
     0
176
     1
290
     0
176
     1
 90
       50
176
     1
 40
0.0
176
     1
 40
1.0
176
     1
 90
        0
176
     1
 62
    18
420
        0
176
     1
 90
       50
176
     1
 90
        3
176
     1
 62
     5
420
      255
176
     1
290
     0
176
     1
 90
       50
176
     1
 90
       50
176
     1
 90
       50
176
     1
290
     0
176
     1
 90
       50
176
     1
 62
   256
176
     0
 40
1.0
176
     0
 90
        2
176
     1
  1
strokes_ogs.tif
176
     1
290
     0
176
     1
 40
1.0
176
     1
 40
1.0
176
     1
1001
ACAD
1000
AcDbSavedByObjectVersion
1070
     0
  0
VISUALSTYLE
  5
8325
102
{ACAD_REACTORS
330
830F
102
}
330
830F
100
AcDbVisualStyle
  2
JitterOff
 70
    20
177
     3
291
     1
 70
    58
 90
        2
176
     0
 90
        2
176
     0
 90
        0
176
     0
 90
        0
176
     0
 40
0.6
176
     0
 40
30.0
176
     0
 62
     7
420
 16777215
176
     0
 90
        1
176
     0
 90
        4
176
     0
 62
     7
176
     0
 62
   257
176
     0
 90
        1
176
     0
 90
        1
176
     0
 40
1.0
176
     0
 90
       10
176
     2
 62
     7
176
     0
 40
1.0
176
     0
 90
        1
176
     0
 90
        6
176
     0
 90
        2
176
     0
 62
     7
176
     0
 90
        5
176
     0
 90
        0
176
     0
 90
        0
176
     0
290
     0
176
     0
 90
        1
176
     0
 40
0.0
176
     0
 90
        0
176
     0
290
     0
176
     0
290
     1
176
     0
290
     1
176
     0
290
     0
176
     0
290
     0
176
     0
290
     0
176
     0
290
     0
176
     0
290
     0
176
     0
290
     0
176
     0
 90
       50
176
     0
 40
0.0
176
     0
 40
1.0
176
     0
 90
        0
176
     0
 62
    18
420
        0
176
     0
 90
       50
176
     0
 90
        3
176
     0
 62
     5
420
      255
176
     0
290
     0
176
     0
 90
       50
176
     0
 90
       50
176
     0
 90
       50
176
     0
290
     0
176
     0
 90
       50
176
     0
 62
   256
176
     0
 40
1.0
176
     0
 90
        2
176
     0
  1
strokes_ogs.tif
176
     0
290
     0
176
     0
 40
1.0
176
     0
 40
1.0
176
     0
1001
ACAD
1000
AcDbSavedByObjectVersion
1070
     0
  0
VISUALSTYLE
  5
831D
102
{ACAD_REACTORS
330
830F
102
}
330
830F
100
AcDbVisualStyle
  2
Linepattern
 70
    14
177
     3
291
     1
 70
    58
 90
        2
176
     1
 90
        2
176
     1
 90
        0
176
     1
 90
        0
176
     1
 40
0.6
176
     1
 40
30.0
176
     1
 62
     7
420
 16777215
176
     1
 90
        1
176
     1
 90
        4
176
     1
 62
     7
176
     1
 62
   257
176
     1
 90
        7
176
     1
 90
        7
176
     1
 40
1.0
176
     1
 90
        8
176
     1
 62
     7
176
     1
 40
1.0
176
     1
 90
        1
176
     1
 90
        6
176
     1
 90
        2
176
     1
 62
     7
176
     1
 90
        5
176
     1
 90
        0
176
     1
 90
        0
176
     1
290
     0
176
     1
 90
        1
176
     1
 40
0.0
176
     1
 90
        0
176
     1
290
     0
176
     1
290
     1
176
     1
290
     1
176
     1
290
     0
176
     1
290
     0
176
     1
290
     0
176
     1
290
     0
176
     1
290
     0
176
     1
290
     0
176
     1
 90
       50
176
     1
 40
0.0
176
     1
 40
1.0
176
     1
 90
        0
176
     1
 62
    18
420
        0
176
     1
 90
       50
176
     1
 90
        3
176
     1
 62
     5
420
      255
176
     1
290
     0
176
     1
 90
       50
176
     1
 90
       50
176
     1
 90
       50
176
     1
290
     0
176
     1
 90
       50
176
     1
 62
   256
176
     0
 40
1.0
176
     0
 90
        2
176
     1
  1
strokes_ogs.tif
176
     1
290
     0
176
     1
 40
1.0
176
     1
 40
1.0
176
     1
1001
ACAD
1000
AcDbSavedByObjectVersion
1070
     0
  0
VISUALSTYLE
  5
8326
102
{ACAD_REACTORS
330
830F
102
}
330
830F
100
AcDbVisualStyle
  2
OverhangOff
 70
    21
177
     3
291
     1
 70
    58
 90
        2
176
     0
 90
        2
176
     0
 90
        0
176
     0
 90
        0
176
     0
 40
0.6
176
     0
 40
30.0
176
     0
 62
     7
420
 16777215
176
     0
 90
        1
176
     0
 90
        4
176
     0
 62
     7
176
     0
 62
   257
176
     0
 90
        1
176
     0
 90
        1
176
     0
 40
1.0
176
     0
 90
        9
176
     2
 62
     7
176
     0
 40
1.0
176
     0
 90
        1
176
     0
 90
        6
176
     0
 90
        2
176
     0
 62
     7
176
     0
 90
        5
176
     0
 90
        0
176
     0
 90
        0
176
     0
290
     0
176
     0
 90
        1
176
     0
 40
0.0
176
     0
 90
        0
176
     0
290
     0
176
     0
290
     1
176
     0
290
     1
176
     0
290
     0
176
     0
290
     0
176
     0
290
     0
176
     0
290
     0
176
     0
290
     0
176
     0
290
     0
176
     0
 90
       50
176
     0
 40
0.0
176
     0
 40
1.0
176
     0
 90
        0
176
     0
 62
    18
420
        0
176
     0
 90
       50
176
     0
 90
        3
176
     0
 62
     5
420
      255
176
     0
290
     0
176
     0
 90
       50
176
     0
 90
       50
176
     0
 90
       50
176
     0
290
     0
176
     0
 90
       50
176
     0
 62
   256
176
     0
 40
1.0
176
     0
 90
        2
176
     0
  1
strokes_ogs.tif
176
     0
290
     0
176
     0
 40
1.0
176
     0
 40
1.0
176
     0
1001
ACAD
1000
AcDbSavedByObjectVersion
1070
     0
  0
VISUALSTYLE
  5
8319
102
{ACAD_REACTORS
330
830F
102
}
330
830F
100
AcDbVisualStyle
  2
Realistic
 70
     8
177
     3
291
     0
 70
    58
 90
        2
176
     1
 90
        3
176
     1
 90
        0
176
     1
 90
        2
176
     1
 40
0.6
176
     1
 40
30.0
176
     1
 62
     7
420
 16777215
176
     1
 90
        0
176
     1
 90
        0
176
     1
 62
     7
176
     1
 62
   257
176
     1
 90
        1
176
     1
 90
        1
176
     1
 40
1.0
176
     1
 90
        8
176
     1
 62
   257
176
     1
 40
1.0
176
     1
 90
        1
176
     1
 90
        6
176
     1
 90
        2
176
     1
 62
     7
176
     1
 90
        3
176
     1
 90
        0
176
     1
 90
        0
176
     1
290
     0
176
     1
 90
       13
176
     1
 40
0.0
176
     1
 90
        0
176
     1
290
     0
176
     1
290
     1
176
     1
290
     1
176
     1
290
     0
176
     1
290
     0
176
     1
290
     0
176
     1
290
     0
176
     1
290
     0
176
     1
290
     0
176
     1
 90
       50
176
     1
 40
0.0
176
     1
 40
1.0
176
     1
 90
        0
176
     1
 62
    18
420
        0
176
     1
 90
       50
176
     1
 90
        3
176
     1
 62
     5
420
      255
176
     1
290
     0
176
     1
 90
       50
176
     1
 90
       50
176
     1
 90
       50
176
     1
290
     0
176
     1
 90
       50
176
     1
 62
   256
176
     0
 40
1.0
176
     0
 90
        2
176
     1
  1
strokes_ogs.tif
176
     1
290
     0
176
     1
 40
1.0
176
     1
 40
1.0
176
     1
1001
ACAD
1000
AcDbSavedByObjectVersion
1070
     0
  0
VISUALSTYLE
  5
8324
102
{ACAD_REACTORS
330
830F
102
}
330
830F
100
AcDbVisualStyle
  2
Shaded
 70
    27
177
     3
291
     0
 70
    58
 90
        2
176
     1
 90
        2
176
     1
 90
        1
176
     1
 90
        2
176
     1
 40
0.6
176
     1
 40
30.0
176
     1
 62
     7
420
 16777215
176
     1
 90
        0
176
     1
 90
        4
176
     1
 62
     7
176
     1
 62
   257
176
     1
 90
        1
176
     1
 90
        1
176
     1
 40
1.0
176
     1
 90
        8
176
     1
 62
   257
176
     1
 40
1.0
176
     1
 90
        1
176
     1
 90
        6
176
     1
 90
        2
176
     1
 62
     8
420
  7895160
176
     1
 90
        3
176
     1
 90
        0
176
     1
 90
        0
176
     1
290
     0
176
     1
 90
        5
176
     1
 40
0.0
176
     1
 90
        0
176
     1
290
     0
176
     1
290
     1
176
     1
290
     1
176
     1
290
     0
176
     1
290
     0
176
     1
290
     0
176
     1
290
     0
176
     1
290
     0
176
     1
290
     0
176
     1
 90
       50
176
     1
 40
0.0
176
     1
 40
1.0
176
     1
 90
        0
176
     1
 62
    18
420
        0
176
     1
 90
       50
176
     1
 90
        3
176
     1
 62
     5
420
      255
176
     1
290
     0
176
     1
 90
       50
176
     1
 90
       50
176
     1
 90
       50
176
     1
290
     0
176
     1
 90
       50
176
     1
 62
   256
176
     0
 40
1.0
176
     0
 90
        2
176
     1
  1
strokes_ogs.tif
176
     1
290
     0
176
     1
 40
1.0
176
     1
 40
1.0
176
     1
1001
ACAD
1000
AcDbSavedByObjectVersion
1070
     0
  0
VISUALSTYLE
  5
8323
102
{ACAD_REACTORS
330
830F
102
}
330
830F
100
AcDbVisualStyle
  2
Shaded with edges
 70
    26
177
     3
291
     0
 70
    58
 90
        2
176
     1
 90
        2
176
     1
 90
        1
176
     1
 90
        2
176
     1
 40
0.6
176
     1
 40
30.0
176
     1
 62
     7
420
 16777215
176
     1
 90
        1
176
     1
 90
        2
176
     1
 62
     7
176
     1
 62
   257
176
     1
 90
        2
176
     1
 90
        1
176
     1
 40
1.0
176
     1
 90
        8
176
     1
 62
   257
176
     1
 40
1.0
176
     1
 90
        1
176
     1
 90
        6
176
     1
 90
        2
176
     1
 62
     7
176
     1
 90
        3
176
     1
 90
        0
176
     1
 90
        0
176
     1
290
     0
176
     1
 90
        5
176
     1
 40
0.0
176
     1
 90
        0
176
     1
290
     0
176
     1
290
     1
176
     1
290
     1
176
     1
290
     0
176
     1
290
     0
176
     1
290
     0
176
     1
290
     0
176
     1
290
     0
176
     1
290
     0
176
     1
 90
       50
176
     1
 40
0.0
176
     1
 40
1.0
176
     1
 90
        0
176
     1
 62
    18
420
        0
176
     1
 90
       50
176
     1
 90
        3
176
     1
 62
     5
420
      255
176
     1
290
     0
176
     1
 90
       50
176
     1
 90
       50
176
     1
 90
       50
176
     1
290
     0
176
     1
 90
       50
176
     1
 62
   256
176
     0
 40
1.0
176
     0
 90
        2
176
     1
  1
strokes_ogs.tif
176
     1
290
     0
176
     1
 40
1.0
176
     1
 40
1.0
176
     1
1001
ACAD
1000
AcDbSavedByObjectVersion
1070
     0
  0
VISUALSTYLE
  5
8320
102
{ACAD_REACTORS
330
830F
102
}
330
830F
100
AcDbVisualStyle
  2
Shades of Gray
 70
    23
177
     3
291
     0
 70
    58
 90
        2
176
     1
 90
        2
176
     1
 90
        3
176
     1
 90
        0
176
     1
 40
0.6
176
     1
 40
30.0
176
     1
 62
     7
420
 16777215
176
     1
 90
        2
176
     1
 90
        2
176
     1
 62
     7
176
     1
 62
     7
176
     1
 90
        1
176
     1
 90
        1
176
     1
 40
40.0
176
     1
 90
        8
176
     1
 62
     7
176
     1
 40
1.0
176
     1
 90
        1
176
     1
 90
        6
176
     1
 90
        2
176
     1
 62
     7
176
     1
 90
        3
176
     1
 90
        0
176
     1
 90
        0
176
     1
290
     0
176
     1
 90
        1
176
     1
 40
0.0
176
     1
 90
        0
176
     1
290
     0
176
     1
290
     1
176
     1
290
     1
176
     1
290
     0
176
     1
290
     0
176
     1
290
     0
176
     1
290
     0
176
     1
290
     0
176
     1
290
     0
176
     1
 90
       50
176
     1
 40
0.0
176
     1
 40
1.0
176
     1
 90
        0
176
     1
 62
    18
420
        0
176
     1
 90
       50
176
     1
 90
        3
176
     1
 62
     5
420
      255
176
     1
290
     0
176
     1
 90
       50
176
     1
 90
       50
176
     1
 90
       50
176
     1
290
     0
176
     1
 90
       50
176
     1
 62
   256
176
     0
 40
1.0
176
     0
 90
        2
176
     1
  1
strokes_ogs.tif
176
     1
290
     0
176
     1
 40
1.0
176
     1
 40
1.0
176
     1
1001
ACAD
1000
AcDbSavedByObjectVersion
1070
     0
  0
VISUALSTYLE
  5
8321
102
{ACAD_REACTORS
330
830F
102
}
330
830F
100
AcDbVisualStyle
  2
Sketchy
 70
    24
177
     3
291
     0
 70
    58
 90
        1
176
     1
 90
        2
176
     1
 90
        2
176
     1
 90
        0
176
     1
 40
0.6
176
     1
 40
30.0
176
     1
 62
     7
420
 16777215
176
     1
 90
        2
176
     1
 90
        2
176
     1
 62
     7
176
     1
 62
     7
176
     1
 90
        1
176
     1
 90
        1
176
     1
 40
40.0
176
     1
 90
       11
176
     1
 62
     7
176
     1
 40
1.0
176
     1
 90
        1
176
     1
 90
        6
176
     1
 90
        2
176
     1
 62
     7
176
     1
 90
        6
176
     1
 90
        0
176
     1
 90
        0
176
     1
290
     0
176
     1
 90
        1
176
     1
 40
0.0
176
     1
 90
        0
176
     1
290
     0
176
     1
290
     1
176
     1
290
     1
176
     1
290
     0
176
     1
290
     0
176
     1
290
     0
176
     1
290
     0
176
     1
290
     0
176
     1
290
     0
176
     1
 90
       50
176
     1
 40
0.0
176
     1
 40
1.0
176
     1
 90
        0
176
     1
 62
    18
420
        0
176
     1
 90
       50
176
     1
 90
        3
176
     1
 62
     5
420
      255
176
     1
290
     0
176
     1
 90
       50
176
     1
 90
       50
176
     1
 90
       50
176
     1
290
     0
176
     1
 90
       50
176
     1
 62
   256
176
     0
 40
1.0
176
     0
 90
        2
176
     1
  1
strokes_ogs.tif
176
     1
290
     0
176
     1
 40
1.0
176
     1
 40
1.0
176
     1
1001
ACAD
1000
AcDbSavedByObjectVersion
1070
     0
  0
VISUALSTYLE
  5
831C
102
{ACAD_REACTORS
330
830F
102
}
330
830F
100
AcDbVisualStyle
  2
Thicken
 70
    13
177
     3
291
     1
 70
    58
 90
        2
176
     1
 90
        2
176
     1
 90
        0
176
     1
 90
        0
176
     1
 40
0.6
176
     1
 40
30.0
176
     1
 62
     7
420
 16777215
176
     1
 90
        1
176
     1
 90
        4
176
     1
 62
     7
176
     1
 62
   257
176
     1
 90
        1
176
     1
 90
        1
176
     1
 40
1.0
176
     1
 90
       12
176
     1
 62
     7
176
     1
 40
1.0
176
     1
 90
        1
176
     1
 90
        6
176
     1
 90
        2
176
     1
 62
     7
176
     1
 90
        5
176
     1
 90
        0
176
     1
 90
        0
176
     1
290
     0
176
     1
 90
        1
176
     1
 40
0.0
176
     1
 90
        0
176
     1
290
     0
176
     1
290
     1
176
     1
290
     1
176
     1
290
     0
176
     1
290
     0
176
     1
290
     0
176
     1
290
     0
176
     1
290
     0
176
     1
290
     0
176
     1
 90
       50
176
     1
 40
0.0
176
     1
 40
1.0
176
     1
 90
        0
176
     1
 62
    18
420
        0
176
     1
 90
       50
176
     1
 90
        3
176
     1
 62
     5
420
      255
176
     1
290
     0
176
     1
 90
       50
176
     1
 90
       50
176
     1
 90
       50
176
     1
290
     0
176
     1
 90
       50
176
     1
 62
   256
176
     0
 40
1.0
176
     0
 90
        2
176
     1
  1
strokes_ogs.tif
176
     1
290
     0
176
     1
 40
1.0
176
     1
 40
1.0
176
     1
1001
ACAD
1000
AcDbSavedByObjectVersion
1070
     0
  0
VISUALSTYLE
  5
8316
102
{ACAD_REACTORS
330
830F
102
}
330
830F
100
AcDbVisualStyle
  2
Wireframe
 70
     5
177
     3
291
     0
 70
    58
 90
        0
176
     1
 90
        2
176
     1
 90
        0
176
     1
 90
        0
176
     1
 40
0.6
176
     1
 40
30.0
176
     1
 62
     7
420
 16777215
176
     1
 90
        1
176
     1
 90
        4
176
     1
 62
     7
176
     1
 62
   257
176
     1
 90
        1
176
     1
 90
        1
176
     1
 40
1.0
176
     1
 90
        0
176
     1
 62
   257
176
     1
 40
1.0
176
     1
 90
        1
176
     1
 90
        6
176
     1
 90
        2
176
     1
 62
     7
176
     1
 90
        3
176
     1
 90
        0
176
     1
 90
        0
176
     1
290
     0
176
     1
 90
        1
176
     1
 40
0.0
176
     1
 90
        0
176
     1
290
     0
176
     1
290
     1
176
     1
290
     1
176
     1
290
     0
176
     1
290
     0
176
     1
290
     0
176
     1
290
     0
176
     1
290
     0
176
     1
290
     0
176
     1
 90
       50
176
     1
 40
0.0
176
     1
 40
1.0
176
     1
 90
        0
176
     1
 62
    18
420
        0
176
     1
 90
       50
176
     1
 90
        3
176
     1
 62
     5
420
      255
176
     1
290
     0
176
     1
 90
       50
176
     1
 90
       50
176
     1
 90
       50
176
     1
290
     0
176
     1
 90
       50
176
     1
 62
   256
176
     0
 40
1.0
176
     0
 90
        2
176
     1
  1
strokes_ogs.tif
176
     1
290
     0
176
     1
 40
1.0
176
     1
 40
1.0
176
     1
1001
ACAD
1000
AcDbSavedByObjectVersion
1070
     0
  0
VISUALSTYLE
  5
8322
102
{ACAD_REACTORS
330
830F
102
}
330
830F
100
AcDbVisualStyle
  2
X-Ray
 70
    25
177
     3
291
     0
 70
    58
 90
        2
176
     1
 90
        2
176
     1
 90
        1
176
     1
 90
        1
176
     1
 40
0.5
176
     1
 40
30.0
176
     1
 62
     7
420
 16777215
176
     1
 90
        1
176
     1
 90
        0
176
     1
 62
     7
176
     1
 62
   257
176
     1
 90
        1
176
     1
 90
        1
176
     1
 40
1.0
176
     1
 90
        8
176
     1
 62
     7
176
     1
 40
1.0
176
     1
 90
        1
176
     1
 90
        6
176
     1
 90
        2
176
     1
 62
     7
176
     1
 90
        3
176
     1
 90
        0
176
     1
 90
        0
176
     1
290
     0
176
     1
 90
       13
176
     1
 40
0.0
176
     1
 90
        0
176
     1
290
     0
176
     1
290
     1
176
     1
290
     1
176
     1
290
     0
176
     1
290
     0
176
     1
290
     0
176
     1
290
     0
176
     1
290
     0
176
     1
290
     0
176
     1
 90
       50
176
     1
 40
0.0
176
     1
 40
1.0
176
     1
 90
        0
176
     1
 62
    18
420
        0
176
     1
 90
       50
176
     1
 90
        3
176
     1
 62
     5
420
      255
176
     1
290
     0
176
     1
 90
       50
176
     1
 90
       50
176
     1
 90
       50
176
     1
290
     0
176
     1
 90
       50
176
     1
 62
   256
176
     0
 40
1.0
176
     0
 90
        2
176
     1
  1
strokes_ogs.tif
176
     1
290
     0
176
     1
 40
1.0
176
     1
 40
1.0
176
     1
1001
ACAD
1000
AcDbSavedByObjectVersion
1070
     0
  0
DICTIONARYVAR
  5
839D
102
{ACAD_REACTORS
330
82ED
102
}
330
82ED
100
DictionaryVariables
280
     0
  1
1:1
  0
DICTIONARYVAR
  5
8399
102
{ACAD_REACTORS
330
82ED
102
}
330
82ED
100
DictionaryVariables
280
     0
  1
STANDARD
  0
DICTIONARYVAR
  5
8398
102
{ACAD_REACTORS
330
82ED
102
}
330
82ED
100
DictionaryVariables
280
     0
  1
STANDARD
  0
DICTIONARYVAR
  5
839A
102
{ACAD_REACTORS
330
82ED
102
}
330
82ED
100
DictionaryVariables
280
     0
  1
Metric50
  0
DICTIONARYVAR
  5
839B
102
{ACAD_REACTORS
330
82ED
102
}
330
82ED
100
DictionaryVariables
280
     0
  1
Metric50
  0
DICTIONARYVAR
  5
82EE
102
{ACAD_REACTORS
330
82ED
102
}
330
82ED
100
DictionaryVariables
280
     0
  1
1
  0
DICTIONARYVAR
  5
839F
102
{ACAD_REACTORS
330
82ED
102
}
330
82ED
100
DictionaryVariables
280
     0
  1
1
  0
DICTIONARYVAR
  5
83A0
102
{ACAD_REACTORS
330
82ED
102
}
330
82ED
100
DictionaryVariables
280
     0
  1
15
  0
DICTIONARYVAR
  5
839E
102
{ACAD_REACTORS
330
82ED
102
}
330
82ED
100
DictionaryVariables
280
     0
  1
0
  0
DICTIONARYVAR
  5
83A5
102
{ACAD_REACTORS
330
82ED
102
}
330
82ED
100
DictionaryVariables
280
     0
  1
0
  0
DICTIONARYVAR
  5
839C
102
{ACAD_REACTORS
330
82ED
102
}
330
82ED
100
DictionaryVariables
280
     0
  1
0
  0
DICTIONARY
  5
83B0
102
{ACAD_REACTORS
330
83AE
102
}
330
83AE
100
AcDbDictionary
281
     1
  0
DICTIONARY
  5
83AF
102
{ACAD_REACTORS
330
83AE
102
}
330
83AE
100
AcDbDictionary
281
     1
  3
2046170814992
350
83A9
  3
2046170815008
350
83AA
  3
2046170815024
350
83AB
  3
2046170815040
350
83AC
  3
2046170815056
350
83AD
  0
DICTIONARY
  5
83B3
330
8342
100
AcDbDictionary
280
     1
281
     1
  3
ACAD_XREC_ROUNDTRIP
360
83B4
  0
DICTIONARY
  5
8300
330
82FF
100
AcDbDictionary
280
     1
281
     1
  3
BUMPTILE
360
8302
  3
DIFFUSETILE
360
8301
  3
OPACITYTILE
360
8305
  3
REFLECTIONTILE
360
8304
  3
REFRACTIONTILE
360
8306
  3
SPECULARTILE
360
8303
  0
DICTIONARY
  5
82F8
330
82F7
100
AcDbDictionary
280
     1
281
     1
  3
BUMPTILE
360
82FA
  3
DIFFUSETILE
360
82F9
  3
OPACITYTILE
360
82FD
  3
REFLECTIONTILE
360
82FC
  3
REFRACTIONTILE
360
82FE
  3
SPECULARTILE
360
82FB
  0
DICTIONARY
  5
8308
330
8307
100
AcDbDictionary
280
     1
281
     1
  3
BUMPTILE
360
830A
  3
DIFFUSETILE
360
8309
  3
OPACITYTILE
360
830D
  3
REFLECTIONTILE
360
830C
  3
REFRACTIONTILE
360
830E
  3
SPECULARTILE
360
830B
  0
DICTIONARY
  5
83B1
330
8340
100
AcDbDictionary
280
     1
281
     1
  3
ACAD_XREC_ROUNDTRIP
360
83B2
  0
DICTIONARY
  5
83A6
330
832A
100
AcDbDictionary
280
     1
281
     1
  3
ACAD_ROUNDTRIP_2008_TABLESTYLE_CELLSTYLEMAP
360
83A7
  0
XRECORD
  5
83A9
102
{ACAD_REACTORS
330
83AF
102
}
330
83AF
100
AcDbXrecord
280
     1
  1
AcDb_Thumbnail_Schema
102
{ATTRRECORD
341
83AA
  2
AcDbDs::TreatedAsObjectData
280
     1
291
     1
102
ATTRRECORD}
102
{ATTRRECORD
341
83AB
  2
AcDbDs::Legacy
280
     1
291
     1
102
ATTRRECORD}
  2
AcDbDs::ID
280
    10
 91
        8
102
{ATTRRECORD
341
83AC
  2
AcDs:Indexable
280
     1
291
     1
102
ATTRRECORD}
102
{ATTRRECORD
341
83AD
  2
AcDbDs::HandleAttribute
280
     7
282
     1
102
ATTRRECORD}
  2
Thumbnail_Data
280
    15
 91
        0
  0
XRECORD
  5
83AA
102
{ACAD_REACTORS
330
83AF
102
}
330
83AF
100
AcDbXrecord
280
     1
  1
AcDbDs::TreatedAsObjectDataSchema
  2
AcDbDs::TreatedAsObjectData
280
     1
 91
        0
  0
XRECORD
  5
83AB
102
{ACAD_REACTORS
330
83AF
102
}
330
83AF
100
AcDbXrecord
280
     1
  1
AcDbDs::LegacySchema
  2
AcDbDs::Legacy
280
     1
 91
        0
  0
XRECORD
  5
83AC
102
{ACAD_REACTORS
330
83AF
102
}
330
83AF
100
AcDbXrecord
280
     1
  1
AcDbDs::IndexedPropertySchema
  2
AcDs:Indexable
280
     1
 91
        0
  0
XRECORD
  5
83AD
102
{ACAD_REACTORS
330
83AF
102
}
330
83AF
100
AcDbXrecord
280
     1
  1
AcDbDs::HandleAttributeSchema
  2
AcDbDs::HandleAttribute
280
     7
 91
        1
284
     1
  0
XRECORD
  5
83B4
102
{ACAD_REACTORS
330
83B3
102
}
330
83B3
100
AcDbXrecord
280
     1
102
DISPLAYNAME
  1
Metric50
102
FLAGS
 90
        0
  0
XRECORD
  5
8302
102
{ACAD_REACTORS
330
8300
102
}
330
8300
100
AcDbXrecord
280
     1
270
     1
271
     1
  0
XRECORD
  5
8301
102
{ACAD_REACTORS
330
8300
102
}
330
8300
100
AcDbXrecord
280
     1
270
     1
271
     1
  0
XRECORD
  5
8305
102
{ACAD_REACTORS
330
8300
102
}
330
8300
100
AcDbXrecord
280
     1
270
     1
271
     1
  0
XRECORD
  5
8304
102
{ACAD_REACTORS
330
8300
102
}
330
8300
100
AcDbXrecord
280
     1
270
     1
271
     1
  0
XRECORD
  5
8306
102
{ACAD_REACTORS
330
8300
102
}
330
8300
100
AcDbXrecord
280
     1
270
     1
271
     1
  0
XRECORD
  5
8303
102
{ACAD_REACTORS
330
8300
102
}
330
8300
100
AcDbXrecord
280
     1
270
     1
271
     1
  0
XRECORD
  5
82FA
102
{ACAD_REACTORS
330
82F8
102
}
330
82F8
100
AcDbXrecord
280
     1
270
     1
271
     1
  0
XRECORD
  5
82F9
102
{ACAD_REACTORS
330
82F8
102
}
330
82F8
100
AcDbXrecord
280
     1
270
     1
271
     1
  0
XRECORD
  5
82FD
102
{ACAD_REACTORS
330
82F8
102
}
330
82F8
100
AcDbXrecord
280
     1
270
     1
271
     1
  0
XRECORD
  5
82FC
102
{ACAD_REACTORS
330
82F8
102
}
330
82F8
100
AcDbXrecord
280
     1
270
     1
271
     1
  0
XRECORD
  5
82FE
102
{ACAD_REACTORS
330
82F8
102
}
330
82F8
100
AcDbXrecord
280
     1
270
     1
271
     1
  0
XRECORD
  5
82FB
102
{ACAD_REACTORS
330
82F8
102
}
330
82F8
100
AcDbXrecord
280
     1
270
     1
271
     1
  0
XRECORD
  5
830A
102
{ACAD_REACTORS
330
8308
102
}
330
8308
100
AcDbXrecord
280
     1
270
     1
271
     1
  0
XRECORD
  5
8309
102
{ACAD_REACTORS
330
8308
102
}
330
8308
100
AcDbXrecord
280
     1
270
     1
271
     1
  0
XRECORD
  5
830D
102
{ACAD_REACTORS
330
8308
102
}
330
8308
100
AcDbXrecord
280
     1
270
     1
271
     1
  0
XRECORD
  5
830C
102
{ACAD_REACTORS
330
8308
102
}
330
8308
100
AcDbXrecord
280
     1
270
     1
271
     1
  0
XRECORD
  5
830E
102
{ACAD_REACTORS
330
8308
102
}
330
8308
100
AcDbXrecord
280
     1
270
     1
271
     1
  0
XRECORD
  5
830B
102
{ACAD_REACTORS
330
8308
102
}
330
8308
100
AcDbXrecord
280
     1
270
     1
271
     1
  0
XRECORD
  5
83B2
102
{ACAD_REACTORS
330
83B1
102
}
330
83B1
100
AcDbXrecord
280
     1
102
DISPLAYNAME
  1
Metric50
102
FLAGS
 90
        0
  0
CELLSTYLEMAP
  5
83A7
102
{ACAD_REACTORS
330
83A6
102
}
330
83A6
100
AcDbCellStyleMap
 90
        3
300
CELLSTYLE
  1
TABLEFORMAT_BEGIN
 90
        5
170
     1
 91
        0
 92
    32768
 62
   257
 93
        1
300
CONTENTFORMAT
  1
CONTENTFORMAT_BEGIN
 90
        0
 91
        0
 92
      512
 93
        0
300

 40
0.0
140
1.0
 94
        5
 62
     0
340
10
144
6.0
309
CONTENTFORMAT_END
171
     1
301
MARGIN
  1
CELLMARGIN_BEGIN
 40
1.5
 40
1.5
 40
1.5
 40
1.5
 40
4.5
 40
4.5
309
CELLMARGIN_END
 94
        6
 95
        1
302
GRIDFORMAT
  1
GRIDFORMAT_BEGIN
 90
        0
 91
        1
 62
     0
 92
       -2
340
0
 93
        0
 40
1.125
309
GRIDFORMAT_END
 95
        2
302
GRIDFORMAT
  1
GRIDFORMAT_BEGIN
 90
        0
 91
        1
 62
     0
 92
       -2
340
0
 93
        0
 40
1.125
309
GRIDFORMAT_END
 95
        4
302
GRIDFORMAT
  1
GRIDFORMAT_BEGIN
 90
        0
 91
        1
 62
     0
 92
       -2
340
0
 93
        0
 40
1.125
309
GRIDFORMAT_END
 95
        8
302
GRIDFORMAT
  1
GRIDFORMAT_BEGIN
 90
        0
 91
        1
 62
     0
 92
       -2
340
0
 93
        0
 40
1.125
309
GRIDFORMAT_END
 95
       16
302
GRIDFORMAT
  1
GRIDFORMAT_BEGIN
 90
        0
 91
        1
 62
     0
 92
       -2
340
0
 93
        0
 40
1.125
309
GRIDFORMAT_END
 95
       32
302
GRIDFORMAT
  1
GRIDFORMAT_BEGIN
 90
        0
 91
        1
 62
     0
 92
       -2
340
0
 93
        0
 40
1.125
309
GRIDFORMAT_END
309
TABLEFORMAT_END
  1
CELLSTYLE_BEGIN
 90
        1
 91
        1
300
_TITLE
309
CELLSTYLE_END
300
CELLSTYLE
  1
TABLEFORMAT_BEGIN
 90
        5
170
     1
 91
        0
 92
        0
 62
   257
 93
        1
300
CONTENTFORMAT
  1
CONTENTFORMAT_BEGIN
 90
        0
 91
        0
 92
      512
 93
        0
300

 40
0.0
140
1.0
 94
        5
 62
     0
340
10
144
4.5
309
CONTENTFORMAT_END
171
     1
301
MARGIN
  1
CELLMARGIN_BEGIN
 40
1.5
 40
1.5
 40
1.5
 40
1.5
 40
4.5
 40
4.5
309
CELLMARGIN_END
 94
        6
 95
        1
302
GRIDFORMAT
  1
GRIDFORMAT_BEGIN
 90
        0
 91
        1
 62
     0
 92
       -2
340
0
 93
        0
 40
1.125
309
GRIDFORMAT_END
 95
        2
302
GRIDFORMAT
  1
GRIDFORMAT_BEGIN
 90
        0
 91
        1
 62
     0
 92
       -2
340
0
 93
        0
 40
1.125
309
GRIDFORMAT_END
 95
        4
302
GRIDFORMAT
  1
GRIDFORMAT_BEGIN
 90
        0
 91
        1
 62
     0
 92
       -2
340
0
 93
        0
 40
1.125
309
GRIDFORMAT_END
 95
        8
302
GRIDFORMAT
  1
GRIDFORMAT_BEGIN
 90
        0
 91
        1
 62
     0
 92
       -2
340
0
 93
        0
 40
1.125
309
GRIDFORMAT_END
 95
       16
302
GRIDFORMAT
  1
GRIDFORMAT_BEGIN
 90
        0
 91
        1
 62
     0
 92
       -2
340
0
 93
        0
 40
1.125
309
GRIDFORMAT_END
 95
       32
302
GRIDFORMAT
  1
GRIDFORMAT_BEGIN
 90
        0
 91
        1
 62
     0
 92
       -2
340
0
 93
        0
 40
1.125
309
GRIDFORMAT_END
309
TABLEFORMAT_END
  1
CELLSTYLE_BEGIN
 90
        2
 91
        1
300
_HEADER
309
CELLSTYLE_END
300
CELLSTYLE
  1
TABLEFORMAT_BEGIN
 90
        5
170
     1
 91
        0
 92
        0
 62
   257
 93
        1
300
CONTENTFORMAT
  1
CONTENTFORMAT_BEGIN
 90
        0
 91
        0
 92
      512
 93
        0
300

 40
0.0
140
1.0
 94
        2
 62
     0
340
10
144
4.5
309
CONTENTFORMAT_END
171
     1
301
MARGIN
  1
CELLMARGIN_BEGIN
 40
1.5
 40
1.5
 40
1.5
 40
1.5
 40
4.5
 40
4.5
309
CELLMARGIN_END
 94
        6
 95
        1
302
GRIDFORMAT
  1
GRIDFORMAT_BEGIN
 90
        0
 91
        1
 62
     0
 92
       -2
340
0
 93
        0
 40
1.125
309
GRIDFORMAT_END
 95
        2
302
GRIDFORMAT
  1
GRIDFORMAT_BEGIN
 90
        0
 91
        1
 62
     0
 92
       -2
340
0
 93
        0
 40
1.125
309
GRIDFORMAT_END
 95
        4
302
GRIDFORMAT
  1
GRIDFORMAT_BEGIN
 90
        0
 91
        1
 62
     0
 92
       -2
340
0
 93
        0
 40
1.125
309
GRIDFORMAT_END
 95
        8
302
GRIDFORMAT
  1
GRIDFORMAT_BEGIN
 90
        0
 91
        1
 62
     0
 92
       -2
340
0
 93
        0
 40
1.125
309
GRIDFORMAT_END
 95
       16
302
GRIDFORMAT
  1
GRIDFORMAT_BEGIN
 90
        0
 91
        1
 62
     0
 92
       -2
340
0
 93
        0
 40
1.125
309
GRIDFORMAT_END
 95
       32
302
GRIDFORMAT
  1
GRIDFORMAT_BEGIN
 90
        0
 91
        1
 62
     0
 92
       -2
340
0
 93
        0
 40
1.125
309
GRIDFORMAT_END
309
TABLEFORMAT_END
  1
CELLSTYLE_BEGIN
 90
        3
 91
        2
300
_DATA
309
CELLSTYLE_END
  0
ENDSEC
  0
SECTION
  2
ACDSDATA
 70
     2
 71
     8
  0
ACDSSCHEMA
 90
        0
  1
AcDb_Thumbnail_Schema
  2
AcDbDs::ID
280
    10
 91
        8
  2
Thumbnail_Data
280
    15
 91
        0
101
ACDSRECORD
 95
        0
 90
        1
  2
AcDbDs::TreatedAsObjectData
280
     1
291
     1
101
ACDSRECORD
 95
        0
 90
        2
  2
AcDbDs::Legacy
280
     1
291
     1
101
ACDSRECORD
  1
AcDbDs::ID
 90
        3
  2
AcDs:Indexable
280
     1
291
     1
101
ACDSRECORD
  1
AcDbDs::ID
 90
        4
  2
AcDbDs::HandleAttribute
280
     7
282
     1
  0
ACDSSCHEMA
 90
        1
  1
AcDbDs::TreatedAsObjectDataSchema
  2
AcDbDs::TreatedAsObjectData
280
     1
 91
        0
  0
ACDSSCHEMA
 90
        2
  1
AcDbDs::LegacySchema
  2
AcDbDs::Legacy
280
     1
 91
        0
  0
ACDSSCHEMA
 90
        3
  1
AcDbDs::IndexedPropertySchema
  2
AcDs:Indexable
280
     1
 91
        0
  0
ACDSSCHEMA
 90
        4
  1
AcDbDs::HandleAttributeSchema
  2
AcDbDs::HandleAttribute
280
     7
 91
        1
284
     1
  0
ACDSRECORD
 90
        0
  2
AcDbDs::ID
280
    10
320
8230
  2
Thumbnail_Data
280
    15
 94
     1692
310
89504E470D0A1A0A0000000D49484452000001000000007C0803000000B13B9E5A00000300504C5445000000000000C8C8C80000000000000000000000000000000000000000000000000000330000660000990000CC0000FF0033000033330033660033990033CC0033FF0066000066330066660066990066CC0066FF0099
310
000099330099660099990099CC0099FF00CC0000CC3300CC6600CC9900CCCC00CCFF00FF0000FF3300FF6600FF9900FFCC00FFFF3300003300333300663300993300CC3300FF3333003333333333663333993333CC3333FF3366003366333366663366993366CC3366FF3399003399333399663399993399CC3399FF33CC00
310
33CC3333CC6633CC9933CCCC33CCFF33FF0033FF3333FF6633FF9933FFCC33FFFF6600006600336600666600996600CC6600FF6633006633336633666633996633CC6633FF6666006666336666666666996666CC6666FF6699006699336699666699996699CC6699FF66CC0066CC3366CC6666CC9966CCCC66CCFF66FF0066
310
FF3366FF6666FF9966FFCC66FFFF9900009900339900669900999900CC9900FF9933009933339933669933999933CC9933FF9966009966339966669966999966CC9966FF9999009999339999669999999999CC9999FF99CC0099CC3399CC6699CC9999CCCC99CCFF99FF0099FF3399FF6699FF9999FFCC99FFFFCC0000CC00
310
33CC0066CC0099CC00CCCC00FFCC3300CC3333CC3366CC3399CC33CCCC33FFCC6600CC6633CC6666CC6699CC66CCCC66FFCC9900CC9933CC9966CC9999CC99CCCC99FFCCCC00CCCC33CCCC66CCCC99CCCCCCCCCCFFCCFF00CCFF33CCFF66CCFF99CCFFCCCCFFFFFF0000FF0033FF0066FF0099FF00CCFF00FFFF3300FF3333
310
FF3366FF3399FF33CCFF33FFFF6600FF6633FF6666FF6699FF66CCFF66FFFF9900FF9933FF9966FF9999FF99CCFF99FFFFCC00FFCC33FFCC66FFCC99FFCCCCFFCCFFFFFF00FFFF33FFFF66FFFF99FFFFCCFFFFFF0000000D0D0D1A1A1A2828283535354343435050505D5D5D6B6B6B787878868686939393A1A1A1AEAEAEBB
310
BBBBC9C9C9D6D6D6E4E4E4F1F1F1FFFFFF00000000000000000000000000000000000000000000000000000000000008F1915C000003574944415478DAED9D5192C3200886398E2FDCFF325EC3F7AD51148D693633DDD90ABF33DB9AACED942F8004A925FA8396FEA8D12E2D6DF5B600000000000000F03D9FF4CDE4E705C0
310
F4F2E45203DC03489E014C56B037808FDE016C09E0CBDE0C00FE0140D563A5D269E893287919DB2DA79EB400808AD0D4C5A67A283E2FA51A0124E9529247131A4057FEAD6A4091B56B80FA87151390202F699B782F5B8213441CE0F066E8D6247604B0747E4966C0340C2B7E7F9904B6074051E8F781DD531A4A884CE2AB4B
310
9CFA682DBE35009F793D728200B02B8098DBF2C001802C6C95B908DE003CC6B02B80EBE603C045FF7C08006E0004B700B8B4509F9F3A82CD01706B02801F4E05BB0368A7823A130900000000000000DC0288C601BCE21C35FDCFED75C63C0075E17D6A0000508B7A3D028807802C31FB9C050000009C03A001C0B9F902D01B
310
B32F0D583701603B235443E130CADE0E7DE404E57A7703C8C74FD57F6F002B0D208769F1390D0E003E00785F1CFDFEB705806FFAA4DA364E66B23F807BC3F70DE0CE559A9F0586528238774C14480CEA4D6F012C7A9B0350D562B700B482D801F03B13388DB1A401536F0DA0F47B1D1100D803106A56603685D8D2053A7364
310
0C80CA881D2B4314278DA8C99320D913630058ABF71A404110AAF8B6008C57F70AC0F1175AD71000A6D1C1718F0B261DE13CA6F65C022096A5044B0058BC601027780D402D9E1803907D9C6485DF6980A4D27541B10D00E2E0F8810F88A6A6C1AC0132C5E559400542B26232CF029600F4B5D23300BE8803A21900D5F4CB75
310
5E0038ECE21C095A0170C89D850CC5031C37031380C52AB2110047A16479282592F968BAE35FD553BE0619001098A9AD09B7B2396E89220540E2801E2EF3F6009847E19B099404104D1A3001601B00B47C320D96029111009D3580F69E0643ACC6DF668012E4488DC40420046B006A854813BE1748540BB8D380FD43615516
310
5539842EE8900F60BA300122130096DF1BA493135C94936D0F60AA118AC33747F5D602E7311CB70720CF7AAD67BC0B1CC64EAB47641740F402E0418DD0CD2094C800000000000000000000000000C0C600DCEF2AFB5C321700F4BEEBE35EDCF600D0E2A7D3D48EEBB2D3BA5D00EE7DC05A03868DF53DFA0097002EECC29106
310
60777984C200000000000000000006016CF4D3DB3FD0161B2A5168A71A0000000049454E44AE426082
  0
ENDSEC
  0
EOF
