  0
SECTION
  2
HEADER
  9
$ACADVER
  1
AC1027
  9
$ACADMAINTVER
 70
   125
  9
$DWGCODEPAGE
  3
ANSI_932
  9
$LASTSAVEDBY
  1
yasukiyo.ogawa
  9
$REQUIREDVERSIONS
160
                 0
  9
$INSBASE
 10
0.0
 20
0.0
 30
0.0
  9
$EXTMIN
 10
0.0
 20
0.0
 30
0.0
  9
$EXTMAX
 10
7350.0
 20
10325.0
 30
0.0
  9
$LIMMIN
 10
0.0
 20
0.0
  9
$LIMMAX
 10
297.0
 20
210.0
  9
$ORTHOMODE
 70
     1
  9
$REGENMODE
 70
     1
  9
$FILLMODE
 70
     0
  9
$QTEXTMODE
 70
     0
  9
$MIRRTEXT
 70
     1
  9
$LTSCALE
 40
100.0
  9
$ATTMODE
 70
     1
  9
$TEXTSIZE
 40
180.0
  9
$TRACEWID
 40
0.05
  9
$TEXTSTYLE
  7
STANDARD
  9
$CLAYER
  8
3
  9
$CELTYPE
  6
BYLAYER
  9
$CECOLOR
 62
   256
  9
$CELTSCALE
 40
1.0
  9
$DISPSILH
 70
     0
  9
$DIMSCALE
 40
35.0
  9
$DIMASZ
 40
2.0
  9
$DIMEXO
 40
0.5
  9
$DIMDLI
 40
10.0
  9
$DIMRND
 40
0.0
  9
$DIMDLE
 40
0.0
  9
$DIMEXE
 40
1.0
  9
$DIMTP
 40
1.0
  9
$DIMTM
 40
1.0
  9
$DIMTXT
 40
3.0
  9
$DIMCEN
 40
0.0
  9
$DIMTSZ
 40
0.0
  9
$DIMTOL
 70
     0
  9
$DIMLIM
 70
     0
  9
$DIMTIH
 70
     0
  9
$DIMTOH
 70
     0
  9
$DIMSE1
 70
     0
  9
$DIMSE2
 70
     0
  9
$DIMTAD
 70
     1
  9
$DIMZIN
 70
     8
  9
$DIMBLK
  1

  9
$DIMASO
 70
     1
  9
$DIMSHO
 70
     1
  9
$DIMPOST
  1

  9
$DIMAPOST
  1

  9
$DIMALT
 70
     0
  9
$DIMALTD
 70
     2
  9
$DIMALTF
 40
0.039
  9
$DIMLFAC
 40
1.0
  9
$DIMTOFL
 70
     1
  9
$DIMTVP
 40
0.0
  9
$DIMTIX
 70
     0
  9
$DIMSOXD
 70
     0
  9
$DIMSAH
 70
     1
  9
$DIMBLK1
  1
OPEN
  9
$DIMBLK2
  1
OPEN
  9
$DIMSTYLE
  2
IGA
  9
$DIMCLRD
 70
     0
  9
$DIMCLRE
 70
     0
  9
$DIMCLRT
 70
     0
  9
$DIMTFAC
 40
10.0
  9
$DIMGAP
 40
1.0
  9
$DIMJUST
 70
     0
  9
$DIMSD1
 70
     0
  9
$DIMSD2
 70
     0
  9
$DIMTOLJ
 70
     1
  9
$DIMTZIN
 70
     8
  9
$DIMALTZ
 70
     0
  9
$DIMALTTZ
 70
     0
  9
$DIMUPT
 70
     0
  9
$DIMDEC
 70
     0
  9
$DIMTDEC
 70
     0
  9
$DIMALTU
 70
     2
  9
$DIMALTTD
 70
     2
  9
$DIMTXSTY
  7
STANDARD
  9
$DIMAUNIT
 70
     0
  9
$DIMADEC
 70
     0
  9
$DIMALTRND
 40
0.0
  9
$DIMAZIN
 70
     0
  9
$DIMDSEP
 70
    46
  9
$DIMATFIT
 70
     3
  9
$DIMFRAC
 70
     0
  9
$DIMLDRBLK
  1
OPEN
  9
$DIMLUNIT
 70
     2
  9
$DIMLWD
 70
    -2
  9
$DIMLWE
 70
    -2
  9
$DIMTMOVE
 70
     2
  9
$DIMFXL
 40
1.0
  9
$DIMFXLON
 70
     0
  9
$DIMJOGANG
 40
0.7853981633974483
  9
$DIMTFILL
 70
     0
  9
$DIMTFILLCLR
 70
     0
  9
$DIMARCSYM
 70
     0
  9
$DIMLTYPE
  6

  9
$DIMLTEX1
  6

  9
$DIMLTEX2
  6

  9
$DIMTXTDIRECTION
 70
     0
  9
$LUNITS
 70
     2
  9
$LUPREC
 70
     3
  9
$SKETCHINC
 40
0.1
  9
$FILLETRAD
 40
50.0
  9
$AUNITS
 70
     0
  9
$AUPREC
 70
     0
  9
$MENU
  1
acad
  9
$ELEVATION
 40
0.0
  9
$PELEVATION
 40
0.0
  9
$THICKNESS
 40
0.0
  9
$LIMCHECK
 70
     0
  9
$CHAMFERA
 40
0.5
  9
$CHAMFERB
 40
0.5
  9
$CHAMFERC
 40
20.0
  9
$CHAMFERD
 40
0.0
  9
$SKPOLY
 70
     0
  9
$TDCREATE
 40
2451382.600578704
  9
$TDUCREATE
 40
2451382.225587269
  9
$TDUPDATE
 40
2460241.646481482
  9
$TDUUPDATE
 40
2460241.271492836
  9
$TDINDWG
 40
0.0179166204
  9
$TDUSRTIMER
 40
0.0179166204
  9
$USRTIMER
 70
     1
  9
$ANGBASE
 50
0.0
  9
$ANGDIR
 70
     0
  9
$PDMODE
 70
     0
  9
$PDSIZE
 40
0.0
  9
$PLINEWID
 40
0.0
  9
$SPLFRAME
 70
     0
  9
$SPLINETYPE
 70
     6
  9
$SPLINESEGS
 70
     8
  9
$HANDSEED
  5
8351
  9
$SURFTAB1
 70
     6
  9
$SURFTAB2
 70
     6
  9
$SURFTYPE
 70
     6
  9
$SURFU
 70
     6
  9
$SURFV
 70
     6
  9
$UCSBASE
  2

  9
$UCSNAME
  2

  9
$UCSORG
 10
0.0
 20
0.0
 30
0.0
  9
$UCSXDIR
 10
1.0
 20
0.0
 30
0.0
  9
$UCSYDIR
 10
0.0
 20
1.0
 30
0.0
  9
$UCSORTHOREF
  2

  9
$UCSORTHOVIEW
 70
     0
  9
$UCSORGTOP
 10
0.0
 20
0.0
 30
0.0
  9
$UCSORGBOTTOM
 10
0.0
 20
0.0
 30
0.0
  9
$UCSORGLEFT
 10
0.0
 20
0.0
 30
0.0
  9
$UCSORGRIGHT
 10
0.0
 20
0.0
 30
0.0
  9
$UCSORGFRONT
 10
0.0
 20
0.0
 30
0.0
  9
$UCSORGBACK
 10
0.0
 20
0.0
 30
0.0
  9
$PUCSBASE
  2

  9
$PUCSNAME
  2

  9
$PUCSORG
 10
0.0
 20
0.0
 30
0.0
  9
$PUCSXDIR
 10
1.0
 20
0.0
 30
0.0
  9
$PUCSYDIR
 10
0.0
 20
1.0
 30
0.0
  9
$PUCSORTHOREF
  2

  9
$PUCSORTHOVIEW
 70
     0
  9
$PUCSORGTOP
 10
0.0
 20
0.0
 30
0.0
  9
$PUCSORGBOTTOM
 10
0.0
 20
0.0
 30
0.0
  9
$PUCSORGLEFT
 10
0.0
 20
0.0
 30
0.0
  9
$PUCSORGRIGHT
 10
0.0
 20
0.0
 30
0.0
  9
$PUCSORGFRONT
 10
0.0
 20
0.0
 30
0.0
  9
$PUCSORGBACK
 10
0.0
 20
0.0
 30
0.0
  9
$USERI1
 70
     0
  9
$USERI2
 70
     0
  9
$USERI3
 70
     0
  9
$USERI4
 70
     0
  9
$USERI5
 70
     0
  9
$USERR1
 40
0.0
  9
$USERR2
 40
0.0
  9
$USERR3
 40
0.0
  9
$USERR4
 40
0.0
  9
$USERR5
 40
0.0
  9
$WORLDVIEW
 70
     1
  9
$SHADEDGE
 70
     3
  9
$SHADEDIF
 70
    70
  9
$TILEMODE
 70
     1
  9
$MAXACTVP
 70
    16
  9
$PINSBASE
 10
0.0
 20
0.0
 30
0.0
  9
$PLIMCHECK
 70
     0
  9
$PEXTMIN
 10
1.000000000000000E+20
 20
1.000000000000000E+20
 30
1.000000000000000E+20
  9
$PEXTMAX
 10
-1.000000000000000E+20
 20
-1.000000000000000E+20
 30
-1.000000000000000E+20
  9
$PLIMMIN
 10
0.0
 20
0.0
  9
$PLIMMAX
 10
12.0
 20
9.0
  9
$UNITMODE
 70
     0
  9
$VISRETAIN
 70
     0
  9
$PLINEGEN
 70
     0
  9
$PSLTSCALE
 70
     1
  9
$TREEDEPTH
 70
  3020
  9
$CMLSTYLE
  2
STANDARD
  9
$CMLJUST
 70
     0
  9
$CMLSCALE
 40
20.0
  9
$PROXYGRAPHICS
 70
     1
  9
$MEASUREMENT
 70
     1
  9
$CELWEIGHT
370
    -1
  9
$ENDCAPS
280
     0
  9
$JOINSTYLE
280
     0
  9
$LWDISPLAY
290
     0
  9
$INSUNITS
 70
     0
  9
$HYPERLINKBASE
  1

  9
$STYLESHEET
  1

  9
$XEDIT
290
     1
  9
$CEPSNTYPE
380
     0
  9
$PSTYLEMODE
290
     1
  9
$FINGERPRINTGUID
  2
{2DC7831C-B2F0-45D0-8258-1AEAEAB56BDA}
  9
$VERSIONGUID
  2
{9E2B51C7-6B39-492D-8106-667B4B05A067}
  9
$EXTNAMES
290
     1
  9
$PSVPSCALE
 40
0.0
  9
$OLESTARTUP
290
     0
  9
$SORTENTS
280
   127
  9
$INDEXCTL
280
     0
  9
$HIDETEXT
280
     0
  9
$XCLIPFRAME
280
     2
  9
$HALOGAP
280
     0
  9
$OBSCOLOR
 70
   257
  9
$OBSLTYPE
280
     0
  9
$INTERSECTIONDISPLAY
280
     0
  9
$INTERSECTIONCOLOR
 70
   257
  9
$DIMASSOC
280
     1
  9
$PROJECTNAME
  1

  9
$CAMERADISPLAY
290
     0
  9
$LENSLENGTH
 40
50.0
  9
$CAMERAHEIGHT
 40
0.0
  9
$STEPSPERSEC
 40
2.0
  9
$STEPSIZE
 40
6.0
  9
$3DDWFPREC
 40
2.0
  9
$PSOLWIDTH
 40
0.25
  9
$PSOLHEIGHT
 40
4.0
  9
$LOFTANG1
 40
1.570796326794896
  9
$LOFTANG2
 40
1.570796326794896
  9
$LOFTMAG1
 40
0.0
  9
$LOFTMAG2
 40
0.0
  9
$LOFTPARAM
 70
     7
  9
$LOFTNORMALS
280
     1
  9
$LATITUDE
 40
37.795
  9
$LONGITUDE
 40
-122.394
  9
$NORTHDIRECTION
 40
0.0
  9
$TIMEZONE
 70
 -8000
  9
$LIGHTGLYPHDISPLAY
280
     1
  9
$TILEMODELIGHTSYNCH
280
     1
  9
$CMATERIAL
347
8293
  9
$SOLIDHIST
280
     0
  9
$SHOWHIST
280
     1
  9
$DWFFRAME
280
     2
  9
$DGNFRAME
280
     0
  9
$REALWORLDSCALE
290
     1
  9
$INTERFERECOLOR
 62
     1
  9
$INTERFEREOBJVS
345
82B5
  9
$INTERFEREVPVS
346
82B2
  9
$CSHADOW
280
     0
  9
$SHADOWPLANELOCATION
 40
0.0
  0
ENDSEC
  0
SECTION
  2
CLASSES
  0
CLASS
  1
ACDBDICTIONARYWDFLT
  2
AcDbDictionaryWithDefault
  3
ObjectDBX Classes
 90
        0
 91
        1
280
     0
281
     0
  0
CLASS
  1
DICTIONARYVAR
  2
AcDbDictionaryVar
  3
ObjectDBX Classes
 90
        0
 91
       11
280
     0
281
     0
  0
CLASS
  1
MATERIAL
  2
AcDbMaterial
  3
ObjectDBX Classes
 90
     1153
 91
        3
280
     0
281
     0
  0
CLASS
  1
VISUALSTYLE
  2
AcDbVisualStyle
  3
ObjectDBX Classes
 90
     4095
 91
       24
280
     0
281
     0
  0
CLASS
  1
TABLESTYLE
  2
AcDbTableStyle
  3
ObjectDBX Classes
 90
     4095
 91
        1
280
     0
281
     0
  0
CLASS
  1
SCALE
  2
AcDbScale
  3
ObjectDBX Classes
 90
     1153
 91
       17
280
     0
281
     0
  0
CLASS
  1
MLEADERSTYLE
  2
AcDbMLeaderStyle
  3
ACDB_MLEADERSTYLE_CLASS
 90
     4095
 91
        1
280
     0
281
     0
  0
CLASS
  1
ACDBSECTIONVIEWSTYLE
  2
AcDbSectionViewStyle
  3
ObjectDBX Classes
 90
     1025
 91
        1
280
     0
281
     0
  0
CLASS
  1
ACDBDETAILVIEWSTYLE
  2
AcDbDetailViewStyle
  3
ObjectDBX Classes
 90
     1025
 91
        1
280
     0
281
     0
  0
CLASS
  1
CELLSTYLEMAP
  2
AcDbCellStyleMap
  3
ObjectDBX Classes
 90
     1152
 91
        1
280
     0
281
     0
  0
ENDSEC
  0
SECTION
  2
TABLES
  0
TABLE
  2
VPORT
  5
8
330
0
100
AcDbSymbolTable
 70
     1
1001
ACAD
1000
DbSaveVer
1071
      278
  0
VPORT
  5
8290
330
8
100
AcDbSymbolTableRecord
100
AcDbViewportTableRecord
  2
*Active
 70
     0
 10
0.0
 20
0.0
 11
1.0
 21
1.0
 12
4714.698658823925
 22
5162.500024039763
 13
0.0
 23
0.0
 14
10.0
 24
10.0
 15
10.0
 25
10.0
 16
0.0
 26
0.0
 36
1.0
 17
0.0
 27
0.0
 37
0.0
 40
10391.74948481712
 41
2.250314465408805
 42
50.0
 43
0.0
 44
0.0
 50
0.0
 51
0.0
 71
     0
 72
   100
 73
     1
 74
     0
 75
     0
 76
     0
 77
     0
 78
     0
281
     0
 65
     1
110
0.0
120
0.0
130
0.0
111
1.0
121
0.0
131
0.0
112
0.0
122
1.0
132
0.0
 79
     0
146
0.0
348
82B1
 60
     3
 61
     5
292
     1
282
     1
141
0.0
142
0.0
 63
   250
421
  3355443
1001
ACAD_NAV_VCDISPLAY
1070
     3
  0
ENDTAB
  0
TABLE
  2
LTYPE
  5
5
330
0
100
AcDbSymbolTable
 70
     2
  0
LTYPE
  5
13
330
5
100
AcDbSymbolTableRecord
100
AcDbLinetypeTableRecord
  2
BYBLOCK
 70
     0
  3

 72
    65
 73
     0
 40
0.0
  0
LTYPE
  5
14
330
5
100
AcDbSymbolTableRecord
100
AcDbLinetypeTableRecord
  2
BYLAYER
 70
     0
  3

 72
    65
 73
     0
 40
0.0
  0
LTYPE
  5
15
330
5
100
AcDbSymbolTableRecord
100
AcDbLinetypeTableRecord
  2
CONTINUOUS
 70
     0
  3
Solid line
 72
    65
 73
     0
 40
0.0
  0
LTYPE
  5
1F
330
5
100
AcDbSymbolTableRecord
100
AcDbLinetypeTableRecord
  2
CENTER
 70
     0
  3
____ _ ____ _ ____ _ ____ _ ____ _ ____ _ ____ 
 72
    65
 73
     4
 40
2.0
 49
1.25
 74
     0
 49
-0.25
 74
     0
 49
0.25
 74
     0
 49
-0.25
 74
     0
  0
ENDTAB
  0
TABLE
  2
LAYER
  5
2
102
{ACAD_XDICTIONARY
360
8328
102
}
330
0
100
AcDbSymbolTable
 70
     6
  0
LAYER
  5
F
102
{ACAD_XDICTIONARY
360
831B
102
}
330
2
100
AcDbSymbolTableRecord
100
AcDbLayerTableRecord
  2
0
 70
     0
 62
     7
  6
CONTINUOUS
370
    -3
390
81C9
347
82A3
348
0
  0
LAYER
  5
31
102
{ACAD_XDICTIONARY
360
831D
102
}
330
2
100
AcDbSymbolTableRecord
100
AcDbLayerTableRecord
  2
3
 70
     0
 62
     2
  6
CONTINUOUS
370
    -3
390
81C9
347
82A3
348
0
  0
LAYER
  5
76D0
102
{ACAD_XDICTIONARY
360
831F
102
}
330
2
100
AcDbSymbolTableRecord
100
AcDbLayerTableRecord
  2
2
 70
     0
 62
     3
  6
CENTER
370
    -3
390
81C9
347
82A3
348
0
  0
LAYER
  5
76D1
102
{ACAD_XDICTIONARY
360
8321
102
}
330
2
100
AcDbSymbolTableRecord
100
AcDbLayerTableRecord
  2
1
 70
     0
 62
     4
  6
CONTINUOUS
370
    -3
390
81C9
347
82A3
348
0
  0
LAYER
  5
76D2
102
{ACAD_XDICTIONARY
360
8323
102
}
330
2
100
AcDbSymbolTableRecord
100
AcDbLayerTableRecord
  2
4
 70
     0
 62
     7
  6
CONTINUOUS
370
    -3
390
81C9
347
82A3
348
0
  0
LAYER
  5
7B3A
330
2
100
AcDbSymbolTableRecord
100
AcDbLayerTableRecord
  2
DEFPOINTS
 70
     0
 62
     7
  6
CONTINUOUS
290
     0
370
    -3
390
81C9
347
82A3
348
0
  0
ENDTAB
  0
TABLE
  2
STYLE
  5
3
330
0
100
AcDbSymbolTable
 70
     1
  0
STYLE
  5
10
330
3
100
AcDbSymbolTableRecord
100
AcDbTextStyleTableRecord
  2
STANDARD
 70
     0
 40
0.0
 41
1.0
 50
0.0
 71
     0
 42
180.0
  3
simplex.shx
  4
extfont.shx
  0
ENDTAB
  0
TABLE
  2
VIEW
  5
6
330
0
100
AcDbSymbolTable
 70
     0
  0
ENDTAB
  0
TABLE
  2
UCS
  5
7
330
0
100
AcDbSymbolTable
 70
     0
  0
ENDTAB
  0
TABLE
  2
APPID
  5
9
330
0
100
AcDbSymbolTable
 70
     4
  0
APPID
  5
11
330
9
100
AcDbSymbolTableRecord
100
AcDbRegAppTableRecord
  2
ACAD
 70
     0
  0
APPID
  5
82E2
330
9
100
AcDbSymbolTableRecord
100
AcDbRegAppTableRecord
  2
AcadAnnoMonitorAlertIconDisabled
 70
     0
  0
APPID
  5
82E3
330
9
100
AcDbSymbolTableRecord
100
AcDbRegAppTableRecord
  2
ACAD_EXEMPT_FROM_CAD_STANDARDS
 70
     0
  0
APPID
  5
832E
330
9
100
AcDbSymbolTableRecord
100
AcDbRegAppTableRecord
  2
ACAD_NAV_VCDISPLAY
 70
     0
  0
ENDTAB
  0
TABLE
  2
DIMSTYLE
  5
A
330
0
100
AcDbSymbolTable
 70
     1
100
AcDbDimStyleTable
 71
     1
340
1D
  0
DIMSTYLE
105
1D
102
{ACAD_REACTORS
330
7C4A
330
7C4E
330
7C5D
330
7C5E
330
7C68
330
7C8D
330
7CAB
330
7CAC
330
7CB7
330
7CBC
330
7CC0
330
7CD3
330
7CDC
330
7CE3
330
7CE4
330
818D
330
819A
330
81A7
330
81B4
330
81C1
102
}
330
A
100
AcDbSymbolTableRecord
100
AcDbDimStyleTableRecord
  2
IGA
 70
     0
 40
2.0
 41
2.0
 42
0.5
 43
10.0
 44
1.0
 47
1.0
 48
1.0
 73
     0
 74
     0
 77
     1
 78
     8
140
3.0
141
0.0
143
0.03937
146
10.0
147
1.0
173
     1
271
     1
272
     0
279
     2
284
     8
340
10
341
79FC
343
79FC
344
79FC
  0
ENDTAB
  0
TABLE
  2
BLOCK_RECORD
  5
1
330
0
100
AcDbSymbolTable
 70
    22
  0
BLOCK_RECORD
  5
19
102
{ACAD_XDICTIONARY
360
81F7
102
}
330
1
100
AcDbSymbolTableRecord
100
AcDbBlockTableRecord
  2
*MODEL_SPACE
340
81CC
 70
     0
280
     1
281
     0
  0
BLOCK_RECORD
  5
16
102
{ACAD_XDICTIONARY
360
81F5
102
}
330
1
100
AcDbSymbolTableRecord
100
AcDbBlockTableRecord
  2
*PAPER_SPACE
340
81CD
 70
     0
280
     1
281
     0
  0
BLOCK_RECORD
  5
79FC
330
1
100
AcDbSymbolTableRecord
100
AcDbBlockTableRecord
  2
_OPEN
340
0
102
{BLKREFS
331
830C
331
830D
331
8315
331
8316
331
8212
331
8213
331
821B
331
821C
331
8224
331
8225
331
822D
331
822E
331
8236
331
8237
331
823F
331
8240
331
8248
331
8249
331
8251
331
8252
331
825A
331
825B
331
8263
331
8264
331
826C
331
826D
331
8186
331
8187
331
8193
331
8194
331
81A0
331
81A1
331
81AD
331
81AE
331
81BA
331
81BB
331
8200
331
8201
331
8209
331
820A
102
}
 70
     0
280
     1
281
     0
  0
BLOCK_RECORD
  5
7A0A
330
1
100
AcDbSymbolTableRecord
100
AcDbBlockTableRecord
  2
YA_N
340
0
102
{BLKREFS
331
7C13
331
7C1B
331
7C22
102
}
 70
     0
280
     1
281
     0
  0
BLOCK_RECORD
  5
7D09
330
1
100
AcDbSymbolTableRecord
100
AcDbBlockTableRecord
  2
*D2
340
0
 70
     0
280
     1
281
     0
  0
BLOCK_RECORD
  5
7D15
330
1
100
AcDbSymbolTableRecord
100
AcDbBlockTableRecord
  2
*D3
340
0
 70
     0
280
     1
281
     0
  0
BLOCK_RECORD
  5
7D2D
330
1
100
AcDbSymbolTableRecord
100
AcDbBlockTableRecord
  2
*D4
340
0
 70
     0
280
     1
281
     0
  0
BLOCK_RECORD
  5
7D39
330
1
100
AcDbSymbolTableRecord
100
AcDbBlockTableRecord
  2
*D5
340
0
 70
     0
280
     1
281
     0
  0
BLOCK_RECORD
  5
7D51
330
1
100
AcDbSymbolTableRecord
100
AcDbBlockTableRecord
  2
*D6
340
0
 70
     0
280
     1
281
     0
  0
BLOCK_RECORD
  5
7D69
330
1
100
AcDbSymbolTableRecord
100
AcDbBlockTableRecord
  2
*D7
340
0
 70
     0
280
     1
281
     0
  0
BLOCK_RECORD
  5
7D81
330
1
100
AcDbSymbolTableRecord
100
AcDbBlockTableRecord
  2
*D8
340
0
 70
     0
280
     1
281
     0
  0
BLOCK_RECORD
  5
7D8D
330
1
100
AcDbSymbolTableRecord
100
AcDbBlockTableRecord
  2
*D9
340
0
 70
     0
280
     1
281
     0
  0
BLOCK_RECORD
  5
7D99
330
1
100
AcDbSymbolTableRecord
100
AcDbBlockTableRecord
  2
*D10
340
0
 70
     0
280
     1
281
     0
  0
BLOCK_RECORD
  5
7DA5
330
1
100
AcDbSymbolTableRecord
100
AcDbBlockTableRecord
  2
*D11
340
0
 70
     0
280
     1
281
     0
  0
BLOCK_RECORD
  5
7DB1
330
1
100
AcDbSymbolTableRecord
100
AcDbBlockTableRecord
  2
*D12
340
0
 70
     0
280
     1
281
     0
  0
BLOCK_RECORD
  5
7DBD
330
1
100
AcDbSymbolTableRecord
100
AcDbBlockTableRecord
  2
*D13
340
0
 70
     0
280
     1
281
     0
  0
BLOCK_RECORD
  5
7DC9
330
1
100
AcDbSymbolTableRecord
100
AcDbBlockTableRecord
  2
*D14
340
0
 70
     0
280
     1
281
     0
  0
BLOCK_RECORD
  5
7DF0
330
1
100
AcDbSymbolTableRecord
100
AcDbBlockTableRecord
  2
*D15
340
0
 70
     0
280
     1
281
     0
  0
BLOCK_RECORD
  5
7DFC
330
1
100
AcDbSymbolTableRecord
100
AcDbBlockTableRecord
  2
*D16
340
0
 70
     0
280
     1
281
     0
  0
BLOCK_RECORD
  5
8181
330
1
100
AcDbSymbolTableRecord
100
AcDbBlockTableRecord
  2
*D17
340
0
 70
     0
280
     1
281
     0
  0
BLOCK_RECORD
  5
818E
330
1
100
AcDbSymbolTableRecord
100
AcDbBlockTableRecord
  2
*D18
340
0
 70
     0
280
     1
281
     0
  0
BLOCK_RECORD
  5
819B
330
1
100
AcDbSymbolTableRecord
100
AcDbBlockTableRecord
  2
*D19
340
0
 70
     0
280
     1
281
     0
  0
BLOCK_RECORD
  5
81A8
330
1
100
AcDbSymbolTableRecord
100
AcDbBlockTableRecord
  2
*D20
340
0
 70
     0
280
     1
281
     0
  0
BLOCK_RECORD
  5
81B5
330
1
100
AcDbSymbolTableRecord
100
AcDbBlockTableRecord
  2
*D21
340
0
 70
     0
280
     1
281
     0
  0
ENDTAB
  0
ENDSEC
  0
SECTION
  2
BLOCKS
  0
BLOCK
  5
1A
330
19
100
AcDbEntity
  8
0
100
AcDbBlockBegin
  2
*MODEL_SPACE
 70
     0
 10
0.0
 20
0.0
 30
0.0
  3
*MODEL_SPACE
  1

  0
ENDBLK
  5
1B
330
19
100
AcDbEntity
  8
0
100
AcDbBlockEnd
  0
BLOCK
  5
17
330
16
100
AcDbEntity
 67
     1
  8
0
100
AcDbBlockBegin
  2
*PAPER_SPACE
 70
     0
 10
0.0
 20
0.0
 30
0.0
  3
*PAPER_SPACE
  1

  0
ENDBLK
  5
18
330
16
100
AcDbEntity
 67
     1
  8
0
100
AcDbBlockEnd
  0
BLOCK
  5
7A00
330
79FC
100
AcDbEntity
  8
0
100
AcDbBlockBegin
  2
_OPEN
 70
     0
 10
0.0
 20
0.0
 30
0.0
  3
_OPEN
  1

  0
LINE
  5
79FD
330
79FC
100
AcDbEntity
  8
0
  6
ByBlock
 62
     0
100
AcDbLine
 10
-1.0
 20
0.1666666666666666
 30
0.0
 11
0.0
 21
0.0
 31
0.0
  0
LINE
  5
79FE
330
79FC
100
AcDbEntity
  8
0
  6
ByBlock
 62
     0
100
AcDbLine
 10
0.0
 20
0.0
 30
0.0
 11
-1.0
 21
-0.1666666666666666
 31
0.0
  0
LINE
  5
79FF
330
79FC
100
AcDbEntity
  8
0
  6
ByBlock
 62
     0
100
AcDbLine
 10
0.0
 20
0.0
 30
0.0
 11
-1.0
 21
0.0
 31
0.0
  0
ENDBLK
  5
7A01
330
79FC
100
AcDbEntity
  8
0
100
AcDbBlockEnd
  0
BLOCK
  5
7A0B
330
7A0A
100
AcDbEntity
  8
0
100
AcDbBlockBegin
  2
YA_N
 70
     0
 10
0.0
 20
0.0
 30
0.0
  3
YA_N
  1

  0
ENDBLK
  5
7A0C
330
7A0A
100
AcDbEntity
  8
0
100
AcDbBlockEnd
  0
BLOCK
  5
7FFC
330
7D09
100
AcDbEntity
  8
0
100
AcDbBlockBegin
  2
*D2
 70
     1
 10
0.0
 20
0.0
 30
0.0
  3
*D2
  1

  0
LINE
  5
81FD
330
7D09
100
AcDbEntity
  8
3
 62
     0
440
 16777216
100
AcDbLine
 10
6118.379202701377
 20
2851.695634060684
 30
0.0
 11
6554.051036687059
 21
2851.695634060684
 31
0.0
  0
LINE
  5
81FE
330
7D09
100
AcDbEntity
  8
3
 62
     0
440
 16777216
100
AcDbLine
 10
6118.379202701377
 20
3851.695634060684
 30
0.0
 11
6554.051036687059
 21
3851.695634060684
 31
0.0
  0
LINE
  5
81FF
330
7D09
100
AcDbEntity
  8
3
 62
     0
440
 16777216
100
AcDbLine
 10
6519.051036687058
 20
2921.695634060684
 30
0.0
 11
6519.051036687058
 21
3781.695634060684
 31
0.0
  0
INSERT
  5
8200
330
7D09
100
AcDbEntity
  8
3
 62
     0
440
 16777216
100
AcDbBlockReference
  2
_OPEN
 10
6519.051036687058
 20
2851.695634060684
 30
0.0
 41
70.0
 42
70.0
 43
70.0
 50
270.0
  0
INSERT
  5
8201
330
7D09
100
AcDbEntity
  8
3
 62
     0
440
 16777216
100
AcDbBlockReference
  2
_OPEN
 10
6519.051036687058
 20
3851.695634060684
 30
0.0
 41
70.0
 42
70.0
 43
70.0
 50
90.0
  0
MTEXT
  5
8202
330
7D09
100
AcDbEntity
  8
3
 62
     0
440
 16777216
100
AcDbMText
 10
6431.551036687058
 20
3351.695634060685
 30
0.0
 40
105.0
 41
0.0
 46
0.0
 71
     5
 72
     5
  1
\A1;φ1000
 11
0.0000000000000001
 21
1.0
 31
0.0
 73
     1
 44
1.0
  0
POINT
  5
8203
330
7D09
100
AcDbEntity
  8
DEFPOINTS
 62
     0
440
 16777216
100
AcDbPoint
 10
6100.879202701377
 20
2851.695634060684
 30
0.0
  0
POINT
  5
8204
330
7D09
100
AcDbEntity
  8
DEFPOINTS
 62
     0
440
 16777216
100
AcDbPoint
 10
6100.879202701377
 20
3851.695634060684
 30
0.0
  0
POINT
  5
8205
330
7D09
100
AcDbEntity
  8
DEFPOINTS
 62
     0
440
 16777216
100
AcDbPoint
 10
6519.051036687058
 20
3851.695634060684
 30
0.0
  0
ENDBLK
  5
8006
330
7D09
100
AcDbEntity
  8
0
100
AcDbBlockEnd
  0
BLOCK
  5
801D
330
7D15
100
AcDbEntity
  8
0
100
AcDbBlockBegin
  2
*D3
 70
     1
 10
0.0
 20
0.0
 30
0.0
  3
*D3
  1

  0
LINE
  5
8206
330
7D15
100
AcDbEntity
  8
3
 62
     0
440
 16777216
100
AcDbLine
 10
4775.379202701377
 20
4049.195634060684
 30
0.0
 11
4775.379202701377
 21
4249.410636383898
 31
0.0
  0
LINE
  5
8207
330
7D15
100
AcDbEntity
  8
3
 62
     0
440
 16777216
100
AcDbLine
 10
6095.379202701376
 20
4049.195634060684
 30
0.0
 11
6095.379202701376
 21
4249.410636383898
 31
0.0
  0
LINE
  5
8208
330
7D15
100
AcDbEntity
  8
3
 62
     0
440
 16777216
100
AcDbLine
 10
4845.379202701376
 20
4214.410636383898
 30
0.0
 11
6025.379202701377
 21
4214.410636383898
 31
0.0
  0
INSERT
  5
8209
330
7D15
100
AcDbEntity
  8
3
 62
     0
440
 16777216
100
AcDbBlockReference
  2
_OPEN
 10
4775.379202701377
 20
4214.410636383898
 30
0.0
 41
70.0
 42
70.0
 43
70.0
 50
180.0
  0
INSERT
  5
820A
330
7D15
100
AcDbEntity
  8
3
 62
     0
440
 16777216
100
AcDbBlockReference
  2
_OPEN
 10
6095.379202701376
 20
4214.410636383898
 30
0.0
 41
70.0
 42
70.0
 43
70.0
  0
MTEXT
  5
820B
330
7D15
100
AcDbEntity
  8
3
 62
     0
440
 16777216
100
AcDbMText
 10
5435.379202701376
 20
4301.910636383898
 30
0.0
 40
105.0
 41
0.0
 46
0.0
 71
     5
 72
     5
  1
\A1;1320
 73
     1
 44
1.0
  0
POINT
  5
820C
330
7D15
100
AcDbEntity
  8
DEFPOINTS
 62
     0
440
 16777216
100
AcDbPoint
 10
4775.379202701377
 20
4031.695634060684
 30
0.0
  0
POINT
  5
820D
330
7D15
100
AcDbEntity
  8
DEFPOINTS
 62
     0
440
 16777216
100
AcDbPoint
 10
6095.379202701376
 20
4031.695634060684
 30
0.0
  0
POINT
  5
820E
330
7D15
100
AcDbEntity
  8
DEFPOINTS
 62
     0
440
 16777216
100
AcDbPoint
 10
6095.379202701376
 20
4214.410636383898
 30
0.0
  0
ENDBLK
  5
8027
330
7D15
100
AcDbEntity
  8
0
100
AcDbBlockEnd
  0
BLOCK
  5
7F5E
330
7D2D
100
AcDbEntity
  8
0
100
AcDbBlockBegin
  2
*D4
 70
     1
 10
0.0
 20
0.0
 30
0.0
  3
*D4
  1

  0
LINE
  5
820F
330
7D2D
100
AcDbEntity
  8
3
 62
     0
440
 16777216
100
AcDbLine
 10
2984.389207672693
 20
4049.195634060685
 30
0.0
 11
2984.389207672693
 21
4525.838255680652
 31
0.0
  0
LINE
  5
8210
330
7D2D
100
AcDbEntity
  8
3
 62
     0
440
 16777216
100
AcDbLine
 10
1910.389207672693
 20
4108.811616558312
 30
0.0
 11
1910.389207672693
 21
4525.838255680652
 31
0.0
  0
LINE
  5
8211
330
7D2D
100
AcDbEntity
  8
3
 62
     0
440
 16777216
100
AcDbLine
 10
2914.389207672693
 20
4490.838255680652
 30
0.0
 11
1980.389207672693
 21
4490.838255680652
 31
0.0
  0
INSERT
  5
8212
330
7D2D
100
AcDbEntity
  8
3
 62
     0
440
 16777216
100
AcDbBlockReference
  2
_OPEN
 10
2984.389207672693
 20
4490.838255680652
 30
0.0
 41
70.0
 42
70.0
 43
70.0
  0
INSERT
  5
8213
330
7D2D
100
AcDbEntity
  8
3
 62
     0
440
 16777216
100
AcDbBlockReference
  2
_OPEN
 10
1910.389207672693
 20
4490.838255680652
 30
0.0
 41
70.0
 42
70.0
 43
70.0
 50
180.0
  0
MTEXT
  5
8214
330
7D2D
100
AcDbEntity
  8
3
 62
     0
440
 16777216
100
AcDbMText
 10
2447.389207672693
 20
4578.338255680652
 30
0.0
 40
105.0
 41
0.0
 46
0.0
 71
     5
 72
     5
  1
\A1;1074
 73
     1
 44
1.0
  0
POINT
  5
8215
330
7D2D
100
AcDbEntity
  8
DEFPOINTS
 62
     0
440
 16777216
100
AcDbPoint
 10
2984.389207672693
 20
4031.695634060684
 30
0.0
  0
POINT
  5
8216
330
7D2D
100
AcDbEntity
  8
DEFPOINTS
 62
     0
440
 16777216
100
AcDbPoint
 10
1910.389207672693
 20
4091.311616558312
 30
0.0
  0
POINT
  5
8217
330
7D2D
100
AcDbEntity
  8
DEFPOINTS
 62
     0
440
 16777216
100
AcDbPoint
 10
1910.389207672693
 20
4490.838255680652
 30
0.0
  0
ENDBLK
  5
7F68
330
7D2D
100
AcDbEntity
  8
0
100
AcDbBlockEnd
  0
BLOCK
  5
7F69
330
7D39
100
AcDbEntity
  8
0
100
AcDbBlockBegin
  2
*D5
 70
     1
 10
0.0
 20
0.0
 30
0.0
  3
*D5
  1

  0
LINE
  5
8218
330
7D39
100
AcDbEntity
  8
3
 62
     0
440
 16777216
100
AcDbLine
 10
2984.389207672693
 20
4049.195634060685
 30
0.0
 11
2984.389207672693
 21
4267.855731054828
 31
0.0
  0
LINE
  5
8219
330
7D39
100
AcDbEntity
  8
3
 62
     0
440
 16777216
100
AcDbLine
 10
1954.389207672693
 20
4049.195634060685
 30
0.0
 11
1954.389207672693
 21
4267.855731054828
 31
0.0
  0
LINE
  5
821A
330
7D39
100
AcDbEntity
  8
3
 62
     0
440
 16777216
100
AcDbLine
 10
2914.389207672693
 20
4232.855731054828
 30
0.0
 11
2024.389207672693
 21
4232.855731054828
 31
0.0
  0
INSERT
  5
821B
330
7D39
100
AcDbEntity
  8
3
 62
     0
440
 16777216
100
AcDbBlockReference
  2
_OPEN
 10
2984.389207672693
 20
4232.855731054828
 30
0.0
 41
70.0
 42
70.0
 43
70.0
  0
INSERT
  5
821C
330
7D39
100
AcDbEntity
  8
3
 62
     0
440
 16777216
100
AcDbBlockReference
  2
_OPEN
 10
1954.389207672693
 20
4232.855731054828
 30
0.0
 41
70.0
 42
70.0
 43
70.0
 50
180.0
  0
MTEXT
  5
821D
330
7D39
100
AcDbEntity
  8
3
 62
     0
440
 16777216
100
AcDbMText
 10
2469.389207672693
 20
4320.355731054827
 30
0.0
 40
105.0
 41
0.0
 46
0.0
 71
     5
 72
     5
  1
\A1;1030
 73
     1
 44
1.0
  0
POINT
  5
821E
330
7D39
100
AcDbEntity
  8
DEFPOINTS
 62
     0
440
 16777216
100
AcDbPoint
 10
2984.389207672693
 20
4031.695634060684
 30
0.0
  0
POINT
  5
821F
330
7D39
100
AcDbEntity
  8
DEFPOINTS
 62
     0
440
 16777216
100
AcDbPoint
 10
1954.389207672693
 20
4031.695634060684
 30
0.0
  0
POINT
  5
8220
330
7D39
100
AcDbEntity
  8
DEFPOINTS
 62
     0
440
 16777216
100
AcDbPoint
 10
1954.389207672693
 20
4232.855731054828
 30
0.0
  0
ENDBLK
  5
7F73
330
7D39
100
AcDbEntity
  8
0
100
AcDbBlockEnd
  0
BLOCK
  5
7F53
330
7D51
100
AcDbEntity
  8
0
100
AcDbBlockBegin
  2
*D6
 70
     1
 10
0.0
 20
0.0
 30
0.0
  3
*D6
  1

  0
LINE
  5
8221
330
7D51
100
AcDbEntity
  8
3
 62
     0
440
 16777216
100
AcDbLine
 10
3485.389207672693
 20
2599.195634060683
 30
0.0
 11
3485.389207672693
 21
4755.044246680072
 31
0.0
  0
LINE
  5
8222
330
7D51
100
AcDbEntity
  8
3
 62
     0
440
 16777216
100
AcDbLine
 10
1190.389207672692
 20
3295.195634060686
 30
0.0
 11
1190.389207672692
 21
4755.044246680072
 31
0.0
  0
LINE
  5
8223
330
7D51
100
AcDbEntity
  8
3
 62
     0
440
 16777216
100
AcDbLine
 10
3415.389207672693
 20
4720.044246680072
 30
0.0
 11
1260.389207672692
 21
4720.044246680072
 31
0.0
  0
INSERT
  5
8224
330
7D51
100
AcDbEntity
  8
3
 62
     0
440
 16777216
100
AcDbBlockReference
  2
_OPEN
 10
3485.389207672693
 20
4720.044246680072
 30
0.0
 41
70.0
 42
70.0
 43
70.0
  0
INSERT
  5
8225
330
7D51
100
AcDbEntity
  8
3
 62
     0
440
 16777216
100
AcDbBlockReference
  2
_OPEN
 10
1190.389207672692
 20
4720.044246680072
 30
0.0
 41
70.0
 42
70.0
 43
70.0
 50
180.0
  0
MTEXT
  5
8226
330
7D51
100
AcDbEntity
  8
3
 62
     0
440
 16777216
100
AcDbMText
 10
2337.889207672692
 20
4807.544246680072
 30
0.0
 40
105.0
 41
0.0
 46
0.0
 71
     5
 72
     5
  1
\A1;2295
 73
     1
 44
1.0
  0
POINT
  5
8227
330
7D51
100
AcDbEntity
  8
DEFPOINTS
 62
     0
440
 16777216
100
AcDbPoint
 10
3485.389207672693
 20
2581.695634060683
 30
0.0
  0
POINT
  5
8228
330
7D51
100
AcDbEntity
  8
DEFPOINTS
 62
     0
440
 16777216
100
AcDbPoint
 10
1190.389207672692
 20
3277.695634060685
 30
0.0
  0
POINT
  5
8229
330
7D51
100
AcDbEntity
  8
DEFPOINTS
 62
     0
440
 16777216
100
AcDbPoint
 10
1190.389207672692
 20
4720.044246680072
 30
0.0
  0
ENDBLK
  5
7F5D
330
7D51
100
AcDbEntity
  8
0
100
AcDbBlockEnd
  0
BLOCK
  5
7F8A
330
7D69
100
AcDbEntity
  8
0
100
AcDbBlockBegin
  2
*D7
 70
     1
 10
0.0
 20
0.0
 30
0.0
  3
*D7
  1

  0
LINE
  5
822A
330
7D69
100
AcDbEntity
  8
3
 62
     0
440
 16777216
100
AcDbLine
 10
1078.036512058748
 20
3351.695634060683
 30
0.0
 11
916.6366271651025
 21
3351.695634060683
 31
0.0
  0
LINE
  5
822B
330
7D69
100
AcDbEntity
  8
3
 62
     0
440
 16777216
100
AcDbLine
 10
1267.889207672691
 20
2456.695634060685
 30
0.0
 11
916.6366271651023
 21
2456.695634060686
 31
0.0
  0
LINE
  5
822C
330
7D69
100
AcDbEntity
  8
3
 62
     0
440
 16777216
100
AcDbLine
 10
951.6366271651023
 20
3281.695634060684
 30
0.0
 11
951.6366271651023
 21
2526.695634060685
 31
0.0
  0
INSERT
  5
822D
330
7D69
100
AcDbEntity
  8
3
 62
     0
440
 16777216
100
AcDbBlockReference
  2
_OPEN
 10
951.6366271651024
 20
3351.695634060683
 30
0.0
 41
70.0
 42
70.0
 43
70.0
 50
90.0
  0
INSERT
  5
822E
330
7D69
100
AcDbEntity
  8
3
 62
     0
440
 16777216
100
AcDbBlockReference
  2
_OPEN
 10
951.6366271651023
 20
2456.695634060686
 30
0.0
 41
70.0
 42
70.0
 43
70.0
 50
270.0
  0
MTEXT
  5
822F
330
7D69
100
AcDbEntity
  8
3
 62
     0
440
 16777216
100
AcDbMText
 10
864.1366271651019
 20
2904.195634060684
 30
0.0
 40
105.0
 41
0.0
 46
0.0
 71
     5
 72
     5
  1
\A1;895
 11
0.0000000000000001
 21
1.0
 31
0.0
 73
     1
 44
1.0
  0
POINT
  5
8230
330
7D69
100
AcDbEntity
  8
DEFPOINTS
 62
     0
440
 16777216
100
AcDbPoint
 10
1095.536512058748
 20
3351.695634060683
 30
0.0
  0
POINT
  5
8231
330
7D69
100
AcDbEntity
  8
DEFPOINTS
 62
     0
440
 16777216
100
AcDbPoint
 10
1285.389207672692
 20
2456.695634060685
 30
0.0
  0
POINT
  5
8232
330
7D69
100
AcDbEntity
  8
DEFPOINTS
 62
     0
440
 16777216
100
AcDbPoint
 10
951.6366271651023
 20
2456.695634060686
 30
0.0
  0
ENDBLK
  5
7F94
330
7D69
100
AcDbEntity
  8
0
100
AcDbBlockEnd
  0
BLOCK
  5
7F74
330
7D81
100
AcDbEntity
  8
0
100
AcDbBlockBegin
  2
*D8
 70
     1
 10
0.0
 20
0.0
 30
0.0
  3
*D8
  1

  0
LINE
  5
8233
330
7D81
100
AcDbEntity
  8
3
 62
     0
440
 16777216
100
AcDbLine
 10
1910.389207672693
 20
4108.811616558312
 30
0.0
 11
1910.389207672693
 21
4525.838255680652
 31
0.0
  0
LINE
  5
8234
330
7D81
100
AcDbEntity
  8
3
 62
     0
440
 16777216
100
AcDbLine
 10
1190.389207672692
 20
3295.195634060686
 30
0.0
 11
1190.389207672692
 21
4525.838255680652
 31
0.0
  0
LINE
  5
8235
330
7D81
100
AcDbEntity
  8
3
 62
     0
440
 16777216
100
AcDbLine
 10
1840.389207672693
 20
4490.838255680652
 30
0.0
 11
1260.389207672692
 21
4490.838255680652
 31
0.0
  0
INSERT
  5
8236
330
7D81
100
AcDbEntity
  8
3
 62
     0
440
 16777216
100
AcDbBlockReference
  2
_OPEN
 10
1910.389207672693
 20
4490.838255680652
 30
0.0
 41
70.0
 42
70.0
 43
70.0
  0
INSERT
  5
8237
330
7D81
100
AcDbEntity
  8
3
 62
     0
440
 16777216
100
AcDbBlockReference
  2
_OPEN
 10
1190.389207672692
 20
4490.838255680652
 30
0.0
 41
70.0
 42
70.0
 43
70.0
 50
180.0
  0
MTEXT
  5
8238
330
7D81
100
AcDbEntity
  8
3
 62
     0
440
 16777216
100
AcDbMText
 10
1550.389207672693
 20
4578.338255680652
 30
0.0
 40
105.0
 41
0.0
 46
0.0
 71
     5
 72
     5
  1
\A1;720
 73
     1
 44
1.0
  0
POINT
  5
8239
330
7D81
100
AcDbEntity
  8
DEFPOINTS
 62
     0
440
 16777216
100
AcDbPoint
 10
1910.389207672693
 20
4091.311616558312
 30
0.0
  0
POINT
  5
823A
330
7D81
100
AcDbEntity
  8
DEFPOINTS
 62
     0
440
 16777216
100
AcDbPoint
 10
1190.389207672692
 20
3277.695634060685
 30
0.0
  0
POINT
  5
823B
330
7D81
100
AcDbEntity
  8
DEFPOINTS
 62
     0
440
 16777216
100
AcDbPoint
 10
1190.389207672692
 20
4490.838255680652
 30
0.0
  0
ENDBLK
  5
7F7E
330
7D81
100
AcDbEntity
  8
0
100
AcDbBlockEnd
  0
BLOCK
  5
7F7F
330
7D8D
100
AcDbEntity
  8
0
100
AcDbBlockBegin
  2
*D9
 70
     1
 10
0.0
 20
0.0
 30
0.0
  3
*D9
  1

  0
LINE
  5
823C
330
7D8D
100
AcDbEntity
  8
3
 62
     0
440
 16777216
100
AcDbLine
 10
1883.889207672692
 20
4031.695634060684
 30
0.0
 11
916.6366271651023
 21
4031.695634060685
 31
0.0
  0
LINE
  5
823D
330
7D8D
100
AcDbEntity
  8
3
 62
     0
440
 16777216
100
AcDbLine
 10
1078.036512058748
 20
3351.695634060683
 30
0.0
 11
916.6366271651023
 21
3351.695634060683
 31
0.0
  0
LINE
  5
823E
330
7D8D
100
AcDbEntity
  8
3
 62
     0
440
 16777216
100
AcDbLine
 10
951.6366271651023
 20
3961.695634060685
 30
0.0
 11
951.6366271651023
 21
3421.695634060684
 31
0.0
  0
INSERT
  5
823F
330
7D8D
100
AcDbEntity
  8
3
 62
     0
440
 16777216
100
AcDbBlockReference
  2
_OPEN
 10
951.6366271651023
 20
4031.695634060685
 30
0.0
 41
70.0
 42
70.0
 43
70.0
 50
90.0
  0
INSERT
  5
8240
330
7D8D
100
AcDbEntity
  8
3
 62
     0
440
 16777216
100
AcDbBlockReference
  2
_OPEN
 10
951.6366271651023
 20
3351.695634060683
 30
0.0
 41
70.0
 42
70.0
 43
70.0
 50
270.0
  0
MTEXT
  5
8241
330
7D8D
100
AcDbEntity
  8
3
 62
     0
440
 16777216
100
AcDbMText
 10
864.1366271651017
 20
3691.695634060685
 30
0.0
 40
105.0
 41
0.0
 46
0.0
 71
     5
 72
     5
  1
\A1;680
 11
0.0000000000000001
 21
1.0
 31
0.0
 73
     1
 44
1.0
  0
POINT
  5
8242
330
7D8D
100
AcDbEntity
  8
DEFPOINTS
 62
     0
440
 16777216
100
AcDbPoint
 10
1901.389207672692
 20
4031.695634060684
 30
0.0
  0
POINT
  5
8243
330
7D8D
100
AcDbEntity
  8
DEFPOINTS
 62
     0
440
 16777216
100
AcDbPoint
 10
1095.536512058748
 20
3351.695634060683
 30
0.0
  0
POINT
  5
8244
330
7D8D
100
AcDbEntity
  8
DEFPOINTS
 62
     0
440
 16777216
100
AcDbPoint
 10
951.6366271651023
 20
3351.695634060683
 30
0.0
  0
ENDBLK
  5
7F89
330
7D8D
100
AcDbEntity
  8
0
100
AcDbBlockEnd
  0
BLOCK
  5
7F1C
330
7D99
100
AcDbEntity
  8
0
100
AcDbBlockBegin
  2
*D10
 70
     1
 10
0.0
 20
0.0
 30
0.0
  3
*D10
  1

  0
LINE
  5
8245
330
7D99
100
AcDbEntity
  8
3
 62
     0
440
 16777216
100
AcDbLine
 10
3485.389207672693
 20
6740.570024192547
 30
0.0
 11
3485.389207672693
 21
7860.096671634626
 31
0.0
  0
LINE
  5
8246
330
7D99
100
AcDbEntity
  8
3
 62
     0
440
 16777216
100
AcDbLine
 10
2535.389207672692
 20
7440.570024192549
 30
0.0
 11
2535.389207672692
 21
7860.096671634626
 31
0.0
  0
LINE
  5
8247
330
7D99
100
AcDbEntity
  8
3
 62
     0
440
 16777216
100
AcDbLine
 10
3415.389207672693
 20
7825.096671634627
 30
0.0
 11
2605.389207672692
 21
7825.096671634627
 31
0.0
  0
INSERT
  5
8248
330
7D99
100
AcDbEntity
  8
3
 62
     0
440
 16777216
100
AcDbBlockReference
  2
_OPEN
 10
3485.389207672693
 20
7825.096671634627
 30
0.0
 41
70.0
 42
70.0
 43
70.0
  0
INSERT
  5
8249
330
7D99
100
AcDbEntity
  8
3
 62
     0
440
 16777216
100
AcDbBlockReference
  2
_OPEN
 10
2535.389207672692
 20
7825.096671634627
 30
0.0
 41
70.0
 42
70.0
 43
70.0
 50
180.0
  0
MTEXT
  5
824A
330
7D99
100
AcDbEntity
  8
3
 62
     0
440
 16777216
100
AcDbMText
 10
3010.389207672692
 20
7912.596671634627
 30
0.0
 40
105.0
 41
0.0
 46
0.0
 71
     5
 72
     5
  1
\A1;950
 73
     1
 44
1.0
  0
POINT
  5
824B
330
7D99
100
AcDbEntity
  8
DEFPOINTS
 62
     0
440
 16777216
100
AcDbPoint
 10
3485.389207672693
 20
6723.070024192548
 30
0.0
  0
POINT
  5
824C
330
7D99
100
AcDbEntity
  8
DEFPOINTS
 62
     0
440
 16777216
100
AcDbPoint
 10
2535.389207672692
 20
7423.070024192547
 30
0.0
  0
POINT
  5
824D
330
7D99
100
AcDbEntity
  8
DEFPOINTS
 62
     0
440
 16777216
100
AcDbPoint
 10
2535.389207672692
 20
7825.096671634627
 30
0.0
  0
ENDBLK
  5
7F26
330
7D99
100
AcDbEntity
  8
0
100
AcDbBlockEnd
  0
BLOCK
  5
7F3D
330
7DA5
100
AcDbEntity
  8
0
100
AcDbBlockBegin
  2
*D11
 70
     1
 10
0.0
 20
0.0
 30
0.0
  3
*D11
  1

  0
LINE
  5
824E
330
7DA5
100
AcDbEntity
  8
3
 62
     0
440
 16777216
100
AcDbLine
 10
3485.389207672693
 20
5755.570024192548
 30
0.0
 11
3485.389207672693
 21
5298.249364697356
 31
0.0
  0
LINE
  5
824F
330
7DA5
100
AcDbEntity
  8
3
 62
     0
440
 16777216
100
AcDbLine
 10
1285.389207672692
 20
5755.570024192548
 30
0.0
 11
1285.389207672692
 21
5298.249364697356
 31
0.0
  0
LINE
  5
8250
330
7DA5
100
AcDbEntity
  8
3
 62
     0
440
 16777216
100
AcDbLine
 10
3415.389207672693
 20
5333.249364697356
 30
0.0
 11
1355.389207672691
 21
5333.249364697356
 31
0.0
  0
INSERT
  5
8251
330
7DA5
100
AcDbEntity
  8
3
 62
     0
440
 16777216
100
AcDbBlockReference
  2
_OPEN
 10
3485.389207672693
 20
5333.249364697356
 30
0.0
 41
70.0
 42
70.0
 43
70.0
  0
INSERT
  5
8252
330
7DA5
100
AcDbEntity
  8
3
 62
     0
440
 16777216
100
AcDbBlockReference
  2
_OPEN
 10
1285.389207672692
 20
5333.249364697356
 30
0.0
 41
70.0
 42
70.0
 43
70.0
 50
180.0
  0
MTEXT
  5
8253
330
7DA5
100
AcDbEntity
  8
3
 62
     0
440
 16777216
100
AcDbMText
 10
2385.389207672691
 20
5420.749364697356
 30
0.0
 40
105.0
 41
0.0
 46
0.0
 71
     5
 72
     5
  1
\A1;2200
 73
     1
 44
1.0
  0
POINT
  5
8254
330
7DA5
100
AcDbEntity
  8
DEFPOINTS
 62
     0
440
 16777216
100
AcDbPoint
 10
3485.389207672693
 20
5773.070024192548
 30
0.0
  0
POINT
  5
8255
330
7DA5
100
AcDbEntity
  8
DEFPOINTS
 62
     0
440
 16777216
100
AcDbPoint
 10
1285.389207672692
 20
5773.070024192548
 30
0.0
  0
POINT
  5
8256
330
7DA5
100
AcDbEntity
  8
DEFPOINTS
 62
     0
440
 16777216
100
AcDbPoint
 10
1285.389207672692
 20
5333.249364697356
 30
0.0
  0
ENDBLK
  5
7F47
330
7DA5
100
AcDbEntity
  8
0
100
AcDbBlockEnd
  0
BLOCK
  5
7F48
330
7DB1
100
AcDbEntity
  8
0
100
AcDbBlockBegin
  2
*D12
 70
     1
 10
0.0
 20
0.0
 30
0.0
  3
*D12
  1

  0
LINE
  5
8257
330
7DB1
100
AcDbEntity
  8
3
 62
     0
440
 16777216
100
AcDbLine
 10
3502.889207672693
 20
6723.070024192548
 30
0.0
 11
3921.980698866843
 21
6723.070024192548
 31
0.0
  0
LINE
  5
8258
330
7DB1
100
AcDbEntity
  8
3
 62
     0
440
 16777216
100
AcDbLine
 10
3502.889207672693
 20
5773.070024192548
 30
0.0
 11
3921.980698866843
 21
5773.070024192548
 31
0.0
  0
LINE
  5
8259
330
7DB1
100
AcDbEntity
  8
3
 62
     0
440
 16777216
100
AcDbLine
 10
3886.980698866842
 20
6653.070024192548
 30
0.0
 11
3886.980698866842
 21
5843.070024192548
 31
0.0
  0
INSERT
  5
825A
330
7DB1
100
AcDbEntity
  8
3
 62
     0
440
 16777216
100
AcDbBlockReference
  2
_OPEN
 10
3886.980698866842
 20
6723.070024192548
 30
0.0
 41
70.0
 42
70.0
 43
70.0
 50
90.0
  0
INSERT
  5
825B
330
7DB1
100
AcDbEntity
  8
3
 62
     0
440
 16777216
100
AcDbBlockReference
  2
_OPEN
 10
3886.980698866842
 20
5773.070024192548
 30
0.0
 41
70.0
 42
70.0
 43
70.0
 50
270.0
  0
MTEXT
  5
825C
330
7DB1
100
AcDbEntity
  8
3
 62
     0
440
 16777216
100
AcDbMText
 10
3799.480698866842
 20
6248.070024192549
 30
0.0
 40
105.0
 41
0.0
 46
0.0
 71
     5
 72
     5
  1
\A1;950
 11
0.0000000000000001
 21
1.0
 31
0.0
 73
     1
 44
1.0
  0
POINT
  5
825D
330
7DB1
100
AcDbEntity
  8
DEFPOINTS
 62
     0
440
 16777216
100
AcDbPoint
 10
3485.389207672693
 20
6723.070024192548
 30
0.0
  0
POINT
  5
825E
330
7DB1
100
AcDbEntity
  8
DEFPOINTS
 62
     0
440
 16777216
100
AcDbPoint
 10
3485.389207672693
 20
5773.070024192548
 30
0.0
  0
POINT
  5
825F
330
7DB1
100
AcDbEntity
  8
DEFPOINTS
 62
     0
440
 16777216
100
AcDbPoint
 10
3886.980698866842
 20
5773.070024192548
 30
0.0
  0
ENDBLK
  5
7F52
330
7DB1
100
AcDbEntity
  8
0
100
AcDbBlockEnd
  0
BLOCK
  5
7F32
330
7DBD
100
AcDbEntity
  8
0
100
AcDbBlockBegin
  2
*D13
 70
     1
 10
0.0
 20
0.0
 30
0.0
  3
*D13
  1

  0
LINE
  5
8260
330
7DBD
100
AcDbEntity
  8
3
 62
     0
440
 16777216
100
AcDbLine
 10
1267.889207672691
 20
7423.070024192547
 30
0.0
 11
848.7281452594
 21
7423.070024192547
 31
0.0
  0
LINE
  5
8261
330
7DBD
100
AcDbEntity
  8
3
 62
     0
440
 16777216
100
AcDbLine
 10
1267.889207672691
 20
5773.070024192548
 30
0.0
 11
848.7281452593997
 21
5773.070024192548
 31
0.0
  0
LINE
  5
8262
330
7DBD
100
AcDbEntity
  8
3
 62
     0
440
 16777216
100
AcDbLine
 10
883.7281452594
 20
7353.070024192549
 30
0.0
 11
883.7281452593996
 21
5843.070024192548
 31
0.0
  0
INSERT
  5
8263
330
7DBD
100
AcDbEntity
  8
3
 62
     0
440
 16777216
100
AcDbBlockReference
  2
_OPEN
 10
883.7281452594
 20
7423.070024192547
 30
0.0
 41
70.0
 42
70.0
 43
70.0
 50
90.0
  0
INSERT
  5
8264
330
7DBD
100
AcDbEntity
  8
3
 62
     0
440
 16777216
100
AcDbBlockReference
  2
_OPEN
 10
883.7281452593996
 20
5773.070024192548
 30
0.0
 41
70.0
 42
70.0
 43
70.0
 50
270.0
  0
MTEXT
  5
8265
330
7DBD
100
AcDbEntity
  8
3
 62
     0
440
 16777216
100
AcDbMText
 10
796.2281452593989
 20
6598.070024192548
 30
0.0
 40
105.0
 41
0.0
 46
0.0
 71
     5
 72
     5
  1
\A1;1650
 11
0.0000000000000001
 21
1.0
 31
0.0
 73
     1
 44
1.0
  0
POINT
  5
8266
330
7DBD
100
AcDbEntity
  8
DEFPOINTS
 62
     0
440
 16777216
100
AcDbPoint
 10
1285.389207672692
 20
7423.070024192547
 30
0.0
  0
POINT
  5
8267
330
7DBD
100
AcDbEntity
  8
DEFPOINTS
 62
     0
440
 16777216
100
AcDbPoint
 10
1285.389207672692
 20
5773.070024192548
 30
0.0
  0
POINT
  5
8268
330
7DBD
100
AcDbEntity
  8
DEFPOINTS
 62
     0
440
 16777216
100
AcDbPoint
 10
883.7281452593996
 20
5773.070024192548
 30
0.0
  0
ENDBLK
  5
7F3C
330
7DBD
100
AcDbEntity
  8
0
100
AcDbBlockEnd
  0
BLOCK
  5
7F27
330
7DC9
100
AcDbEntity
  8
0
100
AcDbBlockBegin
  2
*D14
 70
     1
 10
0.0
 20
0.0
 30
0.0
  3
*D14
  1

  0
LINE
  5
8269
330
7DC9
100
AcDbEntity
  8
3
 62
     0
440
 16777216
100
AcDbLine
 10
2535.389207672692
 20
7440.570024192549
 30
0.0
 11
2535.389207672692
 21
7860.096671634626
 31
0.0
  0
LINE
  5
826A
330
7DC9
100
AcDbEntity
  8
3
 62
     0
440
 16777216
100
AcDbLine
 10
1285.389207672692
 20
7440.570024192549
 30
0.0
 11
1285.389207672692
 21
7860.096671634626
 31
0.0
  0
LINE
  5
826B
330
7DC9
100
AcDbEntity
  8
3
 62
     0
440
 16777216
100
AcDbLine
 10
2465.389207672691
 20
7825.096671634627
 30
0.0
 11
1355.389207672691
 21
7825.096671634627
 31
0.0
  0
INSERT
  5
826C
330
7DC9
100
AcDbEntity
  8
3
 62
     0
440
 16777216
100
AcDbBlockReference
  2
_OPEN
 10
2535.389207672692
 20
7825.096671634627
 30
0.0
 41
70.0
 42
70.0
 43
70.0
  0
INSERT
  5
826D
330
7DC9
100
AcDbEntity
  8
3
 62
     0
440
 16777216
100
AcDbBlockReference
  2
_OPEN
 10
1285.389207672692
 20
7825.096671634627
 30
0.0
 41
70.0
 42
70.0
 43
70.0
 50
180.0
  0
MTEXT
  5
826E
330
7DC9
100
AcDbEntity
  8
3
 62
     0
440
 16777216
100
AcDbMText
 10
1910.389207672691
 20
7912.596671634627
 30
0.0
 40
105.0
 41
0.0
 46
0.0
 71
     5
 72
     5
  1
\A1;1250
 73
     1
 44
1.0
  0
POINT
  5
826F
330
7DC9
100
AcDbEntity
  8
DEFPOINTS
 62
     0
440
 16777216
100
AcDbPoint
 10
2535.389207672692
 20
7423.070024192547
 30
0.0
  0
POINT
  5
8270
330
7DC9
100
AcDbEntity
  8
DEFPOINTS
 62
     0
440
 16777216
100
AcDbPoint
 10
1285.389207672692
 20
7423.070024192547
 30
0.0
  0
POINT
  5
8271
330
7DC9
100
AcDbEntity
  8
DEFPOINTS
 62
     0
440
 16777216
100
AcDbPoint
 10
1285.389207672692
 20
7825.096671634627
 30
0.0
  0
ENDBLK
  5
7F31
330
7DC9
100
AcDbEntity
  8
0
100
AcDbBlockEnd
  0
BLOCK
  5
8007
330
7DF0
100
AcDbEntity
  8
0
100
AcDbBlockBegin
  2
*D15
 70
     1
 10
0.0
 20
0.0
 30
0.0
  3
*D15
  1

  0
LINE
  5
8312
330
7DF0
100
AcDbEntity
  8
3
 62
     0
440
 16777216
370
    -2
100
AcDbLine
 10
6235.379202701377
 20
3326.995634060684
 30
0.0
 11
6235.379202701377
 21
4481.678532444512
 31
0.0
  0
LINE
  5
8313
330
7DF0
100
AcDbEntity
  8
3
 62
     0
440
 16777216
370
    -2
100
AcDbLine
 10
5435.379202701376
 20
4398.563146331727
 30
0.0
 11
5435.379202701376
 21
4481.678532444512
 31
0.0
  0
LINE
  5
8314
330
7DF0
100
AcDbEntity
  8
3
 62
     0
440
 16777216
370
    -2
100
AcDbLine
 10
6165.379202701377
 20
4446.678532444511
 30
0.0
 11
5505.379202701377
 21
4446.678532444511
 31
0.0
  0
INSERT
  5
8315
330
7DF0
100
AcDbEntity
  8
3
 62
     0
440
 16777216
370
    -2
100
AcDbBlockReference
  2
_OPEN
 10
6235.379202701377
 20
4446.678532444511
 30
0.0
 41
70.0
 42
70.0
 43
70.0
  0
INSERT
  5
8316
330
7DF0
100
AcDbEntity
  8
3
 62
     0
440
 16777216
370
    -2
100
AcDbBlockReference
  2
_OPEN
 10
5435.379202701376
 20
4446.678532444511
 30
0.0
 41
70.0
 42
70.0
 43
70.0
 50
180.0
  0
MTEXT
  5
8317
330
7DF0
100
AcDbEntity
  8
3
 62
     0
440
 16777216
100
AcDbMText
 10
5835.379202701377
 20
4561.678532444512
 30
0.0
 40
105.0
 41
0.0
 46
0.0
 71
     5
 72
     1
  1
\A1;(800)
 73
     1
 44
1.0
  0
POINT
  5
8318
330
7DF0
100
AcDbEntity
  8
DEFPOINTS
 62
     0
440
 16777216
100
AcDbPoint
 10
6235.379202701377
 20
3309.495634060684
 30
0.0
  0
POINT
  5
8319
330
7DF0
100
AcDbEntity
  8
DEFPOINTS
 62
     0
440
 16777216
100
AcDbPoint
 10
5435.379202701376
 20
4381.063146331728
 30
0.0
  0
POINT
  5
831A
330
7DF0
100
AcDbEntity
  8
DEFPOINTS
 62
     0
440
 16777216
100
AcDbPoint
 10
5435.379202701376
 20
4446.678532444511
 30
0.0
  0
ENDBLK
  5
8011
330
7DF0
100
AcDbEntity
  8
0
100
AcDbBlockEnd
  0
BLOCK
  5
8136
330
7DFC
100
AcDbEntity
  8
0
100
AcDbBlockBegin
  2
*D16
 70
     1
 10
0.0
 20
0.0
 30
0.0
  3
*D16
  1

  0
LINE
  5
8309
330
7DFC
100
AcDbEntity
  8
3
 62
     0
440
 16777216
370
    -2
100
AcDbLine
 10
5435.379202701376
 20
4398.563146331727
 30
0.0
 11
5435.379202701376
 21
4481.678532444512
 31
0.0
  0
LINE
  5
830A
330
7DFC
100
AcDbEntity
  8
3
 62
     0
440
 16777216
370
    -2
100
AcDbLine
 10
4355.879202701371
 20
3649.195634060684
 30
0.0
 11
4355.879202701371
 21
4481.678532444512
 31
0.0
  0
LINE
  5
830B
330
7DFC
100
AcDbEntity
  8
3
 62
     0
440
 16777216
370
    -2
100
AcDbLine
 10
5365.379202701377
 20
4446.678532444511
 30
0.0
 11
4425.879202701372
 21
4446.678532444511
 31
0.0
  0
INSERT
  5
830C
330
7DFC
100
AcDbEntity
  8
3
 62
     0
440
 16777216
370
    -2
100
AcDbBlockReference
  2
_OPEN
 10
5435.379202701376
 20
4446.678532444511
 30
0.0
 41
70.0
 42
70.0
 43
70.0
  0
INSERT
  5
830D
330
7DFC
100
AcDbEntity
  8
3
 62
     0
440
 16777216
370
    -2
100
AcDbBlockReference
  2
_OPEN
 10
4355.879202701371
 20
4446.678532444511
 30
0.0
 41
70.0
 42
70.0
 43
70.0
 50
180.0
  0
MTEXT
  5
830E
330
7DFC
100
AcDbEntity
  8
3
 62
     0
440
 16777216
100
AcDbMText
 10
4895.629202701375
 20
4561.678532444512
 30
0.0
 40
105.0
 41
0.0
 46
0.0
 71
     5
 72
     1
  1
\A1;(1080)
 73
     1
 44
1.0
  0
POINT
  5
830F
330
7DFC
100
AcDbEntity
  8
DEFPOINTS
 62
     0
440
 16777216
100
AcDbPoint
 10
5435.379202701376
 20
4381.063146331728
 30
0.0
  0
POINT
  5
8310
330
7DFC
100
AcDbEntity
  8
DEFPOINTS
 62
     0
440
 16777216
100
AcDbPoint
 10
4355.879202701371
 20
3631.695634060684
 30
0.0
  0
POINT
  5
8311
330
7DFC
100
AcDbEntity
  8
DEFPOINTS
 62
     0
440
 16777216
100
AcDbPoint
 10
4355.879202701371
 20
4446.678532444511
 30
0.0
  0
ENDBLK
  5
8140
330
7DFC
100
AcDbEntity
  8
0
100
AcDbBlockEnd
  0
BLOCK
  5
8182
330
8181
100
AcDbEntity
  8
0
100
AcDbBlockBegin
  2
*D17
 70
     1
 10
0.0
 20
0.0
 30
0.0
  3
*D17
  1

  0
LINE
  5
8183
330
8181
100
AcDbEntity
  8
0
  6
ByBlock
 62
     0
440
 16777216
100
AcDbLine
 10
1285.389207672692
 20
2439.195634060685
 30
0.0
 11
1285.389207672692
 21
2209.070741709143
 31
0.0
  0
LINE
  5
8184
330
8181
100
AcDbEntity
  8
0
  6
ByBlock
 62
     0
440
 16777216
100
AcDbLine
 10
1910.389207672693
 20
2439.195634060685
 30
0.0
 11
1910.389207672693
 21
2209.070741709143
 31
0.0
  0
LINE
  5
8185
330
8181
100
AcDbEntity
  8
0
  6
ByBlock
 62
     0
440
 16777216
100
AcDbLine
 10
1355.389207672691
 20
2244.070741709144
 30
0.0
 11
1840.389207672694
 21
2244.070741709144
 31
0.0
  0
INSERT
  5
8186
330
8181
100
AcDbEntity
  8
0
  6
ByBlock
 62
     0
440
 16777216
100
AcDbBlockReference
  2
_OPEN
 10
1285.389207672692
 20
2244.070741709144
 30
0.0
 41
70.0
 42
70.0
 43
70.0
 50
180.0
  0
INSERT
  5
8187
330
8181
100
AcDbEntity
  8
0
  6
ByBlock
 62
     0
440
 16777216
100
AcDbBlockReference
  2
_OPEN
 10
1910.389207672693
 20
2244.070741709144
 30
0.0
 41
70.0
 42
70.0
 43
70.0
  0
MTEXT
  5
8188
330
8181
100
AcDbEntity
  8
0
  6
ByBlock
 62
     0
440
 16777216
100
AcDbMText
 10
1597.889207672692
 20
2331.570741709144
 30
0.0
 40
105.0
 41
0.0
 46
0.0
 71
     5
 72
     5
  1
\A1;625
 73
     1
 44
1.0
  0
POINT
  5
8189
330
8181
100
AcDbEntity
  8
DEFPOINTS
  6
ByBlock
 62
     0
440
 16777216
100
AcDbPoint
 10
1285.389207672692
 20
2456.695634060685
 30
0.0
  0
POINT
  5
818A
330
8181
100
AcDbEntity
  8
DEFPOINTS
  6
ByBlock
 62
     0
440
 16777216
100
AcDbPoint
 10
1910.389207672693
 20
2456.695634060685
 30
0.0
  0
POINT
  5
818B
330
8181
100
AcDbEntity
  8
DEFPOINTS
  6
ByBlock
 62
     0
440
 16777216
100
AcDbPoint
 10
1910.389207672693
 20
2244.070741709144
 30
0.0
  0
ENDBLK
  5
818C
330
8181
100
AcDbEntity
  8
0
100
AcDbBlockEnd
  0
BLOCK
  5
818F
330
818E
100
AcDbEntity
  8
0
100
AcDbBlockBegin
  2
*D18
 70
     1
 10
0.0
 20
0.0
 30
0.0
  3
*D18
  1

  0
LINE
  5
8190
330
818E
100
AcDbEntity
  8
0
  6
ByBlock
 62
     0
440
 16777216
100
AcDbLine
 10
1910.389207672693
 20
2439.195634060685
 30
0.0
 11
1910.389207672693
 21
2209.070741709143
 31
0.0
  0
LINE
  5
8191
330
818E
100
AcDbEntity
  8
0
  6
ByBlock
 62
     0
440
 16777216
100
AcDbLine
 10
3485.389207672693
 20
2439.195634060685
 30
0.0
 11
3485.389207672693
 21
2209.070741709143
 31
0.0
  0
LINE
  5
8192
330
818E
100
AcDbEntity
  8
0
  6
ByBlock
 62
     0
440
 16777216
100
AcDbLine
 10
1980.389207672693
 20
2244.070741709144
 30
0.0
 11
3415.389207672693
 21
2244.070741709144
 31
0.0
  0
INSERT
  5
8193
330
818E
100
AcDbEntity
  8
0
  6
ByBlock
 62
     0
440
 16777216
100
AcDbBlockReference
  2
_OPEN
 10
1910.389207672693
 20
2244.070741709144
 30
0.0
 41
70.0
 42
70.0
 43
70.0
 50
180.0
  0
INSERT
  5
8194
330
818E
100
AcDbEntity
  8
0
  6
ByBlock
 62
     0
440
 16777216
100
AcDbBlockReference
  2
_OPEN
 10
3485.389207672693
 20
2244.070741709144
 30
0.0
 41
70.0
 42
70.0
 43
70.0
  0
MTEXT
  5
8195
330
818E
100
AcDbEntity
  8
0
  6
ByBlock
 62
     0
440
 16777216
100
AcDbMText
 10
2697.889207672693
 20
2331.570741709144
 30
0.0
 40
105.0
 41
0.0
 46
0.0
 71
     5
 72
     5
  1
\A1;1575
 73
     1
 44
1.0
  0
POINT
  5
8196
330
818E
100
AcDbEntity
  8
DEFPOINTS
  6
ByBlock
 62
     0
440
 16777216
100
AcDbPoint
 10
1910.389207672693
 20
2456.695634060685
 30
0.0
  0
POINT
  5
8197
330
818E
100
AcDbEntity
  8
DEFPOINTS
  6
ByBlock
 62
     0
440
 16777216
100
AcDbPoint
 10
3485.389207672693
 20
2456.695634060685
 30
0.0
  0
POINT
  5
8198
330
818E
100
AcDbEntity
  8
DEFPOINTS
  6
ByBlock
 62
     0
440
 16777216
100
AcDbPoint
 10
3485.389207672693
 20
2244.070741709144
 30
0.0
  0
ENDBLK
  5
8199
330
818E
100
AcDbEntity
  8
0
100
AcDbBlockEnd
  0
BLOCK
  5
819C
330
819B
100
AcDbEntity
  8
0
100
AcDbBlockBegin
  2
*D19
 70
     1
 10
0.0
 20
0.0
 30
0.0
  3
*D19
  1

  0
LINE
  5
819D
330
819B
100
AcDbEntity
  8
0
  6
ByBlock
 62
     0
440
 16777216
100
AcDbLine
 10
4513.379202701377
 20
2439.195634060684
 30
0.0
 11
4513.379202701377
 21
2209.070741709143
 31
0.0
  0
LINE
  5
819E
330
819B
100
AcDbEntity
  8
0
  6
ByBlock
 62
     0
440
 16777216
100
AcDbLine
 10
5435.379202701376
 20
2439.195634060684
 30
0.0
 11
5435.379202701376
 21
2209.070741709143
 31
0.0
  0
LINE
  5
819F
330
819B
100
AcDbEntity
  8
0
  6
ByBlock
 62
     0
440
 16777216
100
AcDbLine
 10
4583.379202701377
 20
2244.070741709144
 30
0.0
 11
5365.379202701376
 21
2244.070741709144
 31
0.0
  0
INSERT
  5
81A0
330
819B
100
AcDbEntity
  8
0
  6
ByBlock
 62
     0
440
 16777216
100
AcDbBlockReference
  2
_OPEN
 10
4513.379202701377
 20
2244.070741709144
 30
0.0
 41
70.0
 42
70.0
 43
70.0
 50
180.0
  0
INSERT
  5
81A1
330
819B
100
AcDbEntity
  8
0
  6
ByBlock
 62
     0
440
 16777216
100
AcDbBlockReference
  2
_OPEN
 10
5435.379202701376
 20
2244.070741709144
 30
0.0
 41
70.0
 42
70.0
 43
70.0
  0
MTEXT
  5
81A2
330
819B
100
AcDbEntity
  8
0
  6
ByBlock
 62
     0
440
 16777216
100
AcDbMText
 10
4974.379202701377
 20
2331.570741709144
 30
0.0
 40
105.0
 41
0.0
 46
0.0
 71
     5
 72
     5
  1
\A1;922
 73
     1
 44
1.0
  0
POINT
  5
81A3
330
819B
100
AcDbEntity
  8
DEFPOINTS
  6
ByBlock
 62
     0
440
 16777216
100
AcDbPoint
 10
4513.379202701377
 20
2456.695634060684
 30
0.0
  0
POINT
  5
81A4
330
819B
100
AcDbEntity
  8
DEFPOINTS
  6
ByBlock
 62
     0
440
 16777216
100
AcDbPoint
 10
5435.379202701376
 20
2456.695634060684
 30
0.0
  0
POINT
  5
81A5
330
819B
100
AcDbEntity
  8
DEFPOINTS
  6
ByBlock
 62
     0
440
 16777216
100
AcDbPoint
 10
5435.379202701376
 20
2244.070741709144
 30
0.0
  0
ENDBLK
  5
81A6
330
819B
100
AcDbEntity
  8
0
100
AcDbBlockEnd
  0
BLOCK
  5
81A9
330
81A8
100
AcDbEntity
  8
0
100
AcDbBlockBegin
  2
*D20
 70
     1
 10
0.0
 20
0.0
 30
0.0
  3
*D20
  1

  0
LINE
  5
81AA
330
81A8
100
AcDbEntity
  8
0
  6
ByBlock
 62
     0
440
 16777216
100
AcDbLine
 10
5435.379202701376
 20
2439.195634060684
 30
0.0
 11
5435.379202701376
 21
2209.070741709143
 31
0.0
  0
LINE
  5
81AB
330
81A8
100
AcDbEntity
  8
0
  6
ByBlock
 62
     0
440
 16777216
100
AcDbLine
 10
6163.379202701377
 20
2439.195634060684
 30
0.0
 11
6163.379202701377
 21
2209.070741709143
 31
0.0
  0
LINE
  5
81AC
330
81A8
100
AcDbEntity
  8
0
  6
ByBlock
 62
     0
440
 16777216
100
AcDbLine
 10
5505.379202701377
 20
2244.070741709144
 30
0.0
 11
6093.379202701378
 21
2244.070741709144
 31
0.0
  0
INSERT
  5
81AD
330
81A8
100
AcDbEntity
  8
0
  6
ByBlock
 62
     0
440
 16777216
100
AcDbBlockReference
  2
_OPEN
 10
5435.379202701376
 20
2244.070741709144
 30
0.0
 41
70.0
 42
70.0
 43
70.0
 50
180.0
  0
INSERT
  5
81AE
330
81A8
100
AcDbEntity
  8
0
  6
ByBlock
 62
     0
440
 16777216
100
AcDbBlockReference
  2
_OPEN
 10
6163.379202701377
 20
2244.070741709144
 30
0.0
 41
70.0
 42
70.0
 43
70.0
  0
MTEXT
  5
81AF
330
81A8
100
AcDbEntity
  8
0
  6
ByBlock
 62
     0
440
 16777216
100
AcDbMText
 10
5799.379202701377
 20
2331.570741709144
 30
0.0
 40
105.0
 41
0.0
 46
0.0
 71
     5
 72
     5
  1
\A1;728
 73
     1
 44
1.0
  0
POINT
  5
81B0
330
81A8
100
AcDbEntity
  8
DEFPOINTS
  6
ByBlock
 62
     0
440
 16777216
100
AcDbPoint
 10
5435.379202701376
 20
2456.695634060684
 30
0.0
  0
POINT
  5
81B1
330
81A8
100
AcDbEntity
  8
DEFPOINTS
  6
ByBlock
 62
     0
440
 16777216
100
AcDbPoint
 10
6163.379202701377
 20
2456.695634060684
 30
0.0
  0
POINT
  5
81B2
330
81A8
100
AcDbEntity
  8
DEFPOINTS
  6
ByBlock
 62
     0
440
 16777216
100
AcDbPoint
 10
6163.379202701377
 20
2244.070741709144
 30
0.0
  0
ENDBLK
  5
81B3
330
81A8
100
AcDbEntity
  8
0
100
AcDbBlockEnd
  0
BLOCK
  5
81B6
330
81B5
100
AcDbEntity
  8
0
100
AcDbBlockBegin
  2
*D21
 70
     1
 10
0.0
 20
0.0
 30
0.0
  3
*D21
  1

  0
LINE
  5
81B7
330
81B5
100
AcDbEntity
  8
0
  6
ByBlock
 62
     0
440
 16777216
100
AcDbLine
 10
1883.889207672692
 20
4031.695634060684
 30
0.0
 11
697.7209549181353
 21
4031.695634060684
 31
0.0
  0
LINE
  5
81B8
330
81B5
100
AcDbEntity
  8
0
  6
ByBlock
 62
     0
440
 16777216
100
AcDbLine
 10
1267.889207672691
 20
2456.695634060685
 30
0.0
 11
697.7209549181353
 21
2456.695634060685
 31
0.0
  0
LINE
  5
81B9
330
81B5
100
AcDbEntity
  8
0
  6
ByBlock
 62
     0
440
 16777216
100
AcDbLine
 10
732.7209549181352
 20
3961.695634060685
 30
0.0
 11
732.7209549181352
 21
2526.695634060685
 31
0.0
  0
INSERT
  5
81BA
330
81B5
100
AcDbEntity
  8
0
  6
ByBlock
 62
     0
440
 16777216
100
AcDbBlockReference
  2
_OPEN
 10
732.7209549181352
 20
4031.695634060684
 30
0.0
 41
70.0
 42
70.0
 43
70.0
 50
90.0
  0
INSERT
  5
81BB
330
81B5
100
AcDbEntity
  8
0
  6
ByBlock
 62
     0
440
 16777216
100
AcDbBlockReference
  2
_OPEN
 10
732.7209549181352
 20
2456.695634060685
 30
0.0
 41
70.0
 42
70.0
 43
70.0
 50
270.0
  0
MTEXT
  5
81BC
330
81B5
100
AcDbEntity
  8
0
  6
ByBlock
 62
     0
440
 16777216
100
AcDbMText
 10
645.2209549181352
 20
3244.195634060685
 30
0.0
 40
105.0
 41
0.0
 46
0.0
 71
     5
 72
     5
  1
\A1;1575
 11
0.0
 21
1.0
 31
0.0
 73
     1
 44
1.0
  0
POINT
  5
81BD
330
81B5
100
AcDbEntity
  8
DEFPOINTS
  6
ByBlock
 62
     0
440
 16777216
100
AcDbPoint
 10
1901.389207672692
 20
4031.695634060684
 30
0.0
  0
POINT
  5
81BE
330
81B5
100
AcDbEntity
  8
DEFPOINTS
  6
ByBlock
 62
     0
440
 16777216
100
AcDbPoint
 10
1285.389207672692
 20
2456.695634060685
 30
0.0
  0
POINT
  5
81BF
330
81B5
100
AcDbEntity
  8
DEFPOINTS
  6
ByBlock
 62
     0
440
 16777216
100
AcDbPoint
 10
732.7209549181352
 20
2456.695634060685
 30
0.0
  0
ENDBLK
  5
81C0
330
81B5
100
AcDbEntity
  8
0
100
AcDbBlockEnd
  0
ENDSEC
  0
SECTION
  2
ENTITIES
  0
INSERT
  5
7C13
330
19
100
AcDbEntity
  8
0
100
AcDbBlockReference
  2
YA_N
 10
6.0
 20
5.0
 30
0.0
  0
LINE
  5
7C15
330
19
100
AcDbEntity
  8
2
100
AcDbLine
 10
4431.43376148117
 20
3351.695634060684
 30
0.0
 11
6241.455834250679
 21
3351.695634060684
 31
0.0
  0
LINE
  5
7C16
330
19
100
AcDbEntity
  8
2
100
AcDbLine
 10
5435.379202701376
 20
4186.663756097778
 30
0.0
 11
5435.379202701376
 21
2456.695634060684
 31
0.0
  0
LINE
  5
7C17
330
19
100
AcDbEntity
  8
1
100
AcDbLine
 10
4513.379202701377
 20
2456.695634060684
 30
0.0
 11
6163.379202701377
 21
2456.695634060684
 31
0.0
1001
ACAD
1000
ASC_BOUNDS
1002
{
1070
    19
1002
}
  0
LINE
  5
7C18
330
19
100
AcDbEntity
  8
1
100
AcDbLine
 10
4513.379202701377
 20
2581.695634060684
 30
0.0
 11
6163.379202701377
 21
2581.695634060684
 31
0.0
  0
LINE
  5
7C19
330
19
100
AcDbEntity
  8
1
100
AcDbLine
 10
4513.379202701377
 20
2581.695634060684
 30
0.0
 11
4513.379202701377
 21
2456.695634060684
 31
0.0
  0
LINE
  5
7C1A
330
19
100
AcDbEntity
  8
1
100
AcDbLine
 10
6163.379202701377
 20
2581.695634060684
 30
0.0
 11
6163.379202701377
 21
2456.695634060684
 31
0.0
  0
INSERT
  5
7C1B
330
19
100
AcDbEntity
  8
0
100
AcDbBlockReference
  2
YA_N
 10
-1637.209838160517
 20
-1405.432827243363
 30
0.0
 41
25.0
 42
25.0
 43
25.0
  0
LINE
  5
7C21
330
19
100
AcDbEntity
  8
1
100
AcDbLine
 10
6148.379202701377
 20
4031.695634060684
 30
0.0
 11
6148.379202701377
 21
4027.695634060683
 31
0.0
  0
INSERT
  5
7C22
330
19
100
AcDbEntity
  8
0
100
AcDbBlockReference
  2
YA_N
 10
-1144.893563079055
 20
-989.0222135336152
 30
0.0
 41
25.0
 42
25.0
 43
25.0
  0
LINE
  5
7C24
330
19
100
AcDbEntity
  8
1
100
AcDbLine
 10
6095.379202701376
 20
4031.695634060684
 30
0.0
 11
6095.379202701376
 21
2581.695634060684
 31
0.0
  0
LINE
  5
7C28
330
19
100
AcDbEntity
  8
1
100
AcDbLine
 10
4722.379202701377
 20
4031.695634060684
 30
0.0
 11
4722.379202701377
 21
4027.695634060683
 31
0.0
  0
LINE
  5
7C29
330
19
100
AcDbEntity
  8
1
100
AcDbLine
 10
4775.379202701377
 20
4031.695634060684
 30
0.0
 11
4775.379202701377
 21
3001.695634060684
 31
0.0
  0
LINE
  5
7C2A
330
19
100
AcDbEntity
  8
1
100
AcDbLine
 10
4619.479202701377
 20
3411.195634060684
 30
0.0
 11
4619.479202701375
 21
3292.195634060684
 31
0.0
  0
LINE
  5
7C2B
330
19
100
AcDbEntity
  8
1
100
AcDbLine
 10
4619.479202701375
 20
3411.195634060684
 30
0.0
 11
4775.379202701377
 21
3411.195634060684
 31
0.0
  0
LINE
  5
7C2C
330
19
100
AcDbEntity
  8
1
100
AcDbLine
 10
4619.479202701377
 20
3292.195634060684
 30
0.0
 11
4775.379202701377
 21
3292.195634060684
 31
0.0
  0
LINE
  5
7C2D
330
19
100
AcDbEntity
  8
1
100
AcDbLine
 10
4617.879202701375
 20
3269.695634060683
 30
0.0
 11
4617.879202701376
 21
3139.695634060684
 31
0.0
  0
LINE
  5
7C2E
330
19
100
AcDbEntity
  8
1
100
AcDbLine
 10
4627.879202701374
 20
3279.695634060684
 30
0.0
 11
4775.379202701375
 21
3279.695634060684
 31
0.0
  0
LINE
  5
7C2F
330
19
100
AcDbEntity
  8
1
100
AcDbLine
 10
4627.879202701377
 20
3129.695634060684
 30
0.0
 11
4775.379202701377
 21
3129.695634060684
 31
0.0
  0
ARC
  5
7C30
330
19
100
AcDbEntity
  8
1
100
AcDbCircle
 10
4627.879202701374
 20
3269.695634060684
 30
0.0
 40
10.0
100
AcDbArc
 50
90.0
 51
180.0000000000007
  0
ARC
  5
7C31
330
19
100
AcDbEntity
  8
1
100
AcDbCircle
 10
4627.879202701377
 20
3139.695634060684
 30
0.0
 40
10.0
100
AcDbArc
 50
180.0000000000007
 51
270.0
  0
LINE
  5
7C32
330
19
100
AcDbEntity
  8
1
100
AcDbLine
 10
4575.379202701377
 20
3391.695634060684
 30
0.0
 11
4575.379202701377
 21
3311.695634060684
 31
0.0
  0
LINE
  5
7C33
330
19
100
AcDbEntity
  8
1
100
AcDbLine
 10
4570.379202701377
 20
3381.695634060684
 30
0.0
 11
4575.379202701377
 21
3381.695634060684
 31
0.0
  0
LINE
  5
7C34
330
19
100
AcDbEntity
  8
1
100
AcDbLine
 10
4570.379202701377
 20
3321.695634060684
 30
0.0
 11
4575.379202701377
 21
3321.695634060684
 31
0.0
  0
LINE
  5
7C35
330
19
100
AcDbEntity
  8
1
100
AcDbLine
 10
4575.379202701377
 20
3391.695634060684
 30
0.0
 11
4619.479202701375
 21
3391.695634060684
 31
0.0
  0
LINE
  5
7C36
330
19
100
AcDbEntity
  8
1
100
AcDbLine
 10
4575.379202701377
 20
3311.695634060684
 30
0.0
 11
4619.479202701375
 21
3311.695634060684
 31
0.0
  0
LINE
  5
7C37
330
19
100
AcDbEntity
  8
1
100
AcDbLine
 10
6235.379202701377
 20
3309.495634060684
 30
0.0
 11
6235.379202701377
 21
3179.495634060684
 31
0.0
  0
ARC
  5
7C38
330
19
100
AcDbEntity
  8
1
100
AcDbCircle
 10
6225.379202701381
 20
3309.495634060684
 30
0.0
 40
10.0
100
AcDbArc
 50
0.0000000000006514
 51
90.0
  0
ARC
  5
7C39
330
19
100
AcDbEntity
  8
1
100
AcDbCircle
 10
6225.379202701379
 20
3179.495634060684
 30
0.0
 40
10.0
100
AcDbArc
 50
270.0
 51
0.0000000000006514
  0
LINE
  5
7C3A
330
19
100
AcDbEntity
  8
1
100
AcDbLine
 10
6221.979202701377
 20
3319.195634060684
 30
0.0
 11
6225.379202701377
 21
3319.195634060684
 31
0.0
  0
LINE
  5
7C3B
330
19
100
AcDbEntity
  8
1
100
AcDbLine
 10
6095.379202701376
 20
3319.495634060685
 30
0.0
 11
6225.379202701377
 21
3319.495634060685
 31
0.0
  0
LINE
  5
7C3C
330
19
100
AcDbEntity
  8
1
100
AcDbLine
 10
6095.379202701376
 20
3169.495634060684
 30
0.0
 11
6225.379202701379
 21
3169.495634060684
 31
0.0
  0
LINE
  5
7C3D
330
19
100
AcDbEntity
  8
1
100
AcDbLine
 10
4460.379202701377
 20
3516.795634060684
 30
0.0
 11
4570.379202701377
 21
3516.795634060684
 31
0.0
  0
LINE
  5
7C3E
330
19
100
AcDbEntity
  8
1
100
AcDbLine
 10
4460.379202701377
 20
3186.595634060684
 30
0.0
 11
4570.379202701377
 21
3186.595634060684
 31
0.0
  0
LINE
  5
7C3F
330
19
100
AcDbEntity
  8
2
100
AcDbLine
 10
4355.879202701381
 20
2816.695634060684
 30
0.0
 11
5174.879202701381
 21
2816.695634060684
 31
0.0
  0
LINE
  5
7C40
330
19
100
AcDbEntity
  8
1
100
AcDbLine
 10
4460.379202701377
 20
2930.995634060684
 30
0.0
 11
4570.379202701377
 21
2930.995634060684
 31
0.0
  0
LINE
  5
7C41
330
19
100
AcDbEntity
  8
1
100
AcDbLine
 10
4460.379202701377
 20
2702.395634060684
 30
0.0
 11
4570.379202701377
 21
2702.395634060684
 31
0.0
  0
LINE
  5
7C42
330
19
100
AcDbEntity
  8
1
100
AcDbLine
 10
4460.379202701377
 20
3516.795634060684
 30
0.0
 11
4460.379202701377
 21
2702.395634060684
 31
0.0
  0
LINE
  5
7C43
330
19
100
AcDbEntity
  8
1
100
AcDbLine
 10
4570.379202701377
 20
3516.795634060684
 30
0.0
 11
4570.379202701377
 21
2702.395634060684
 31
0.0
  0
LINE
  5
7C44
330
19
100
AcDbEntity
  8
1
100
AcDbLine
 10
4355.879202701371
 20
3631.695634060684
 30
0.0
 11
4355.879202701382
 21
2596.695634060684
 31
0.0
  0
LINE
  5
7C45
330
19
100
AcDbEntity
  8
1
100
AcDbLine
 10
4355.879202701371
 20
3631.695634060684
 30
0.0
 11
4607.879202701371
 21
3631.695634060684
 31
0.0
  0
LINE
  5
7C46
330
19
100
AcDbEntity
  8
1
100
AcDbLine
 10
4355.87920270138
 20
2596.695634060684
 30
0.0
 11
4607.87920270138
 21
2596.695634060684
 31
0.0
  0
LINE
  5
7C47
330
19
100
AcDbEntity
  8
1
100
AcDbLine
 10
4607.879202701371
 20
3631.695634060686
 30
0.0
 11
4607.879202701371
 21
3611.695634060684
 31
0.0
  0
LINE
  5
7C48
330
19
100
AcDbEntity
  8
1
100
AcDbLine
 10
4607.87920270138
 20
2616.695634060684
 30
0.0
 11
4607.87920270138
 21
2596.695634060687
 31
0.0
  0
POINT
  5
7C49
330
19
100
AcDbEntity
  8
1
100
AcDbPoint
 10
6235.379202701381
 20
3309.495634060684
 30
0.0
  0
DIMENSION
  5
7C4A
330
19
100
AcDbEntity
  8
3
100
AcDbDimension
280
     0
  2
*D2
 10
6519.051036687058
 20
3851.695634060684
 30
0.0
 11
6431.551036687058
 21
3351.695634060685
 31
0.0
 70
    32
  1
φ<>
 71
     5
 42
-1.0
 73
     0
 74
     0
 75
     0
  3
IGA
100
AcDbAlignedDimension
 13
6100.879202701377
 23
2851.695634060684
 33
0.0
 14
6100.879202701377
 24
3851.695634060684
 34
0.0
 50
90.0
100
AcDbRotatedDimension
1001
ACAD
1000
DSTYLE
1002
{
1070
   287
1070
     3
1070
    40
1040
35.0
1070
   143
1040
0.039
1070
   172
1070
     1
1070
   271
1070
     0
1070
   279
1070
     0
1070
   288
1070
     1
1002
}
  0
LINE
  5
7C4B
330
19
100
AcDbEntity
  8
1
100
AcDbLine
 10
4722.379202701377
 20
4031.695634060684
 30
0.0
 11
6148.379202701377
 21
4031.695634060684
 31
0.0
  0
LINE
  5
7C4C
330
19
100
AcDbEntity
  8
1
100
AcDbLine
 10
4775.379202701377
 20
3981.695634060685
 30
0.0
 11
6095.379202701376
 21
3981.695634060685
 31
0.0
  0
LINE
  5
7C4D
330
19
100
AcDbEntity
  8
1
100
AcDbLine
 10
4722.379202701377
 20
4027.695634060683
 30
0.0
 11
6148.379202701377
 21
4027.695634060683
 31
0.0
  0
DIMENSION
  5
7C4E
330
19
100
AcDbEntity
  8
3
100
AcDbDimension
280
     0
  2
*D3
 10
6095.379202701376
 20
4214.410636383898
 30
0.0
 11
5435.379202701376
 21
4301.910636383898
 31
0.0
 70
    32
 71
     5
 42
-1.0
 73
     0
 74
     0
 75
     0
  3
IGA
100
AcDbAlignedDimension
 13
4775.379202701377
 23
4031.695634060684
 33
0.0
 14
6095.379202701376
 24
4031.695634060684
 34
0.0
100
AcDbRotatedDimension
1001
ACAD
1000
DSTYLE
1002
{
1070
   287
1070
     3
1070
    40
1040
35.0
1070
   143
1040
0.039
1070
   172
1070
     1
1070
   271
1070
     0
1070
   279
1070
     0
1070
   288
1070
     1
1002
}
  0
POINT
  5
7C4F
330
19
100
AcDbEntity
  8
1
100
AcDbPoint
 10
4355.879202701371
 20
3631.695634060684
 30
0.0
  0
POINT
  5
7C50
330
19
100
AcDbEntity
  8
1
100
AcDbPoint
 10
6235.379202701381
 20
3309.495634060684
 30
0.0
  0
LINE
  5
7C57
330
19
100
AcDbEntity
  8
1
100
AcDbLine
 10
5174.87920270138
 20
3001.695634060684
 30
0.0
 11
4575.37920270138
 21
3001.695634060684
 31
0.0
  0
LINE
  5
7C58
330
19
100
AcDbEntity
  8
1
100
AcDbLine
 10
5174.87920270138
 20
2631.695634060684
 30
0.0
 11
4575.37920270138
 21
2631.695634060684
 31
0.0
  0
LINE
  5
7C59
330
19
100
AcDbEntity
  8
1
100
AcDbLine
 10
4575.37920270138
 20
3001.695634060684
 30
0.0
 11
4575.37920270138
 21
2631.695634060684
 31
0.0
  0
LINE
  5
7C5A
330
19
100
AcDbEntity
  8
1
100
AcDbLine
 10
4575.37920270138
 20
2789.195634060684
 30
0.0
 11
4570.379202701379
 21
2789.195634060684
 31
0.0
  0
LINE
  5
7C5B
330
19
100
AcDbEntity
  8
1
100
AcDbLine
 10
4575.37920270138
 20
2844.195634060684
 30
0.0
 11
4570.379202701379
 21
2844.195634060684
 31
0.0
  0
DIMENSION
  5
7C5D
330
19
100
AcDbEntity
  8
3
100
AcDbDimension
280
     0
  2
*D4
 10
1910.389207672693
 20
4490.838255680652
 30
0.0
 11
2447.389207672693
 21
4578.338255680652
 31
0.0
 70
    32
 71
     5
 42
-1.0
 73
     0
 74
     0
 75
     0
  3
IGA
100
AcDbAlignedDimension
 13
2984.389207672693
 23
4031.695634060684
 33
0.0
 14
1910.389207672693
 24
4091.311616558312
 34
0.0
100
AcDbRotatedDimension
1001
ACAD
1000
DSTYLE
1002
{
1070
   287
1070
     3
1070
    40
1040
35.0
1070
   143
1040
0.039
1070
   172
1070
     1
1070
   271
1070
     0
1070
   279
1070
     0
1070
   288
1070
     1
1002
}
  0
DIMENSION
  5
7C5E
330
19
100
AcDbEntity
  8
3
100
AcDbDimension
280
     0
  2
*D5
 10
1954.389207672693
 20
4232.855731054828
 30
0.0
 11
2469.389207672693
 21
4320.355731054827
 31
0.0
 70
    32
 71
     5
 42
-1.0
 73
     0
 74
     0
 75
     0
  3
IGA
100
AcDbAlignedDimension
 13
2984.389207672693
 23
4031.695634060684
 33
0.0
 14
1954.389207672693
 24
4031.695634060684
 34
0.0
100
AcDbRotatedDimension
1001
ACAD
1000
DSTYLE
1002
{
1070
   287
1070
     3
1070
    40
1040
35.0
1070
   143
1040
0.039
1070
   172
1070
     1
1070
   271
1070
     0
1070
   279
1070
     0
1070
   288
1070
     1
1002
}
  0
LINE
  5
7C5F
330
19
100
AcDbEntity
  8
1
100
AcDbLine
 10
3037.389207672694
 20
4027.695634060683
 30
0.0
 11
1901.389207672692
 21
4027.695634060687
 31
0.0
  0
LINE
  5
7C60
330
19
100
AcDbEntity
  8
1
100
AcDbLine
 10
2979.910451803386
 20
3981.695634060686
 30
0.0
 11
1954.389207672693
 21
3981.695634060685
 31
0.0
  0
LINE
  5
7C61
330
19
100
AcDbEntity
  8
1
100
AcDbLine
 10
3037.389207672694
 20
4031.695634060684
 30
0.0
 11
1901.389207672692
 21
4031.695634060684
 31
0.0
  0
LINE
  5
7C63
330
19
100
AcDbEntity
  8
1
100
AcDbLine
 10
1814.977828244424
 20
3088.453029842455
 30
0.0
 11
3135.423123836196
 21
2609.862159317791
 31
0.0
  0
LINE
  5
7C64
330
19
100
AcDbEntity
  8
1
100
AcDbLine
 10
1853.115176109344
 20
3196.848305028245
 30
0.0
 11
3170.737955051913
 21
2709.493637038226
 31
0.0
  0
LINE
  5
7C65
330
19
100
AcDbEntity
  8
1
100
AcDbLine
 10
1978.697614370452
 20
3502.001893326269
 30
0.0
 11
3257.679643078834
 21
2920.753813552244
 31
0.0
  0
LINE
  5
7C66
330
19
100
AcDbEntity
  8
1
100
AcDbLine
 10
2027.903333498767
 20
3605.842108030585
 30
0.0
 11
3302.721735107464
 21
3016.382149322749
 31
0.0
  0
ARC
  5
7C67
330
19
100
AcDbEntity
  8
1
100
AcDbCircle
 10
1984.389207672693
 20
3425.695634060686
 30
0.0
 40
942.0
100
AcDbArc
 50
296.3672158861317
 51
355.4944154733556
  0
DIMENSION
  5
7C68
330
19
100
AcDbEntity
  8
3
100
AcDbDimension
280
     0
  2
*D6
 10
1190.389207672692
 20
4720.044246680072
 30
0.0
 11
2337.889207672692
 21
4807.544246680072
 31
0.0
 70
    32
 71
     5
 42
-1.0
 73
     0
 74
     0
 75
     0
  3
IGA
100
AcDbAlignedDimension
 13
3485.389207672693
 23
2581.695634060683
 33
0.0
 14
1190.389207672692
 24
3277.695634060685
 34
0.0
100
AcDbRotatedDimension
1001
ACAD
1000
DSTYLE
1002
{
1070
   287
1070
     3
1070
    40
1040
35.0
1070
   143
1040
0.039
1070
   172
1070
     1
1070
   271
1070
     0
1070
   279
1070
     0
1070
   288
1070
     1
1002
}
  0
LINE
  5
7C6C
330
19
100
AcDbEntity
  8
1
100
AcDbLine
 10
3485.389207672693
 20
2456.695634060685
 30
0.0
 11
1285.389207672692
 21
2456.695634060685
 31
0.0
1001
ACAD
1000
ASC_BOUNDS
1002
{
1070
    19
1002
}
  0
LINE
  5
7C6D
330
19
100
AcDbEntity
  8
2
100
AcDbLine
 10
1095.536512058748
 20
3351.695634060683
 30
0.0
 11
3058.186628778032
 21
3351.695634060684
 31
0.0
  0
LINE
  5
7C6E
330
19
100
AcDbEntity
  8
1
100
AcDbLine
 10
3485.389207672693
 20
2581.695634060683
 30
0.0
 11
1285.389207672692
 21
2581.695634060685
 31
0.0
  0
CIRCLE
  5
7C6F
330
19
100
AcDbEntity
  8
1
100
AcDbCircle
 10
3210.389207672692
 20
2816.695634060684
 30
0.0
 40
114.3
  0
ARC
  5
7C70
330
19
100
AcDbEntity
  8
1
100
AcDbCircle
 10
3210.389207672692
 20
2816.695634060684
 30
0.0
 40
220.0
100
AcDbArc
 50
250.077125061029
 51
65.1847738343935
  0
LINE
  5
7C71
330
19
100
AcDbEntity
  8
1
100
AcDbLine
 10
3420.805220698458
 20
2636.695634060683
 30
0.0
 11
3280.389207672693
 21
2636.695634060683
 31
0.0
  0
LINE
  5
7C72
330
19
100
AcDbEntity
  8
2
100
AcDbLine
 10
3577.075285915547
 20
2816.695634060684
 30
0.0
 11
2994.309675026736
 21
2816.695634060684
 31
0.0
  0
ARC
  5
7C73
330
19
100
AcDbEntity
  8
1
100
AcDbCircle
 10
3210.389207672692
 20
2816.695634060684
 30
0.0
 40
185.0
100
AcDbArc
 50
287.945251
 51
252.054749
  0
LINE
  5
7C74
330
19
100
AcDbEntity
  8
1
100
AcDbLine
 10
3485.389207672693
 20
2581.695634060685
 30
0.0
 11
3485.389207672693
 21
2456.695634060685
 31
0.0
  0
LINE
  5
7C78
330
19
100
AcDbEntity
  8
1
100
AcDbLine
 10
3372.389207672693
 20
2711.954667060683
 30
0.0
 11
3372.389207672693
 21
2636.695634060684
 31
0.0
  0
LINE
  5
7C79
330
19
100
AcDbEntity
  8
1
100
AcDbLine
 10
3435.389207672693
 20
2581.695634060683
 30
0.0
 11
3420.805220698458
 21
2636.695634060683
 31
0.0
  0
LINE
  5
7C7A
330
19
100
AcDbEntity
  8
1
100
AcDbLine
 10
3372.389207672693
 20
2711.954667060683
 30
0.0
 11
3366.005235672692
 21
2716.652421060684
 31
0.0
  0
LINE
  5
7C7B
330
19
100
AcDbEntity
  8
2
100
AcDbLine
 10
3210.389207672692
 20
3080.511308060684
 30
0.0
 11
3210.389207672692
 21
2456.695634060685
 31
0.0
  0
LINE
  5
7C7D
330
19
100
AcDbEntity
  8
1
100
AcDbLine
 10
3140.389207672693
 20
2636.695634060683
 30
0.0
 11
3000.173956459026
 21
2636.695634060683
 31
0.0
  0
LINE
  5
7C7E
330
19
100
AcDbEntity
  8
1
100
AcDbLine
 10
3280.389207672693
 20
2626.695634060683
 30
0.0
 11
3140.389207672693
 21
2626.695634060683
 31
0.0
  0
LINE
  5
7C80
330
19
100
AcDbEntity
  8
1
100
AcDbLine
 10
3153.389192672692
 20
2640.695634060684
 30
0.0
 11
3267.389207672692
 21
2640.695634060684
 31
0.0
  0
LINE
  5
7C82
330
19
100
AcDbEntity
  8
1
100
AcDbLine
 10
3280.389207672693
 20
2636.695634060683
 30
0.0
 11
3280.389207672693
 21
2626.695634060683
 31
0.0
  0
LINE
  5
7C83
330
19
100
AcDbEntity
  8
1
100
AcDbLine
 10
3048.389192672692
 20
2711.954667060683
 30
0.0
 11
3048.389192672692
 21
2636.695634060684
 31
0.0
  0
LINE
  5
7C85
330
19
100
AcDbEntity
  8
1
100
AcDbLine
 10
3140.389207672692
 20
2636.695634060683
 30
0.0
 11
3140.389207672692
 21
2626.695634060683
 31
0.0
  0
LINE
  5
7C86
330
19
100
AcDbEntity
  8
1
100
AcDbLine
 10
3048.389192672692
 20
2711.954667060683
 30
0.0
 11
3054.773164672693
 21
2716.652421060684
 31
0.0
  0
LINE
  5
7C87
330
19
100
AcDbEntity
  8
1
100
AcDbLine
 10
2985.389207672693
 20
2581.695634060683
 30
0.0
 11
3000.173956459026
 21
2636.695634060683
 31
0.0
  0
LINE
  5
7C88
330
19
100
AcDbEntity
  8
1
100
AcDbLine
 10
2984.389207672693
 20
4031.695634060684
 30
0.0
 11
2923.478127850116
 21
3351.695634060686
 31
0.0
  0
LINE
  5
7C89
330
19
100
AcDbEntity
  8
1
100
AcDbLine
 10
3037.389207672694
 20
4027.695634060683
 30
0.0
 11
3037.389207672694
 21
4031.695634060684
 31
0.0
  0
ARC
  5
7C8A
330
19
100
AcDbEntity
  8
1
100
AcDbCircle
 10
1910.389207672693
 20
3351.695634060683
 30
0.0
 40
550.0
100
AcDbArc
 50
294.1477399170222
 51
0.0000000000000254
  0
ARC
  5
7C8B
330
19
100
AcDbEntity
  8
1
100
AcDbCircle
 10
1910.389207672693
 20
3351.695634060683
 30
0.0
 40
500.0
100
AcDbArc
 50
296.743683950403
 51
0.0000000000000254
  0
LINE
  5
7C8C
330
19
100
AcDbEntity
  8
2
100
AcDbLine
 10
1910.389207672693
 20
4091.311616558312
 30
0.0
 11
1910.389207672693
 21
2456.695634060685
 31
0.0
  0
DIMENSION
  5
7C8D
330
19
100
AcDbEntity
  8
3
100
AcDbDimension
280
     0
  2
*D7
 10
951.6366271651023
 20
2456.695634060686
 30
0.0
 11
864.1366271651019
 21
2904.195634060684
 31
0.0
 70
    32
 71
     5
 42
-1.0
 73
     0
 74
     0
 75
     0
  3
IGA
100
AcDbAlignedDimension
 13
1095.536512058748
 23
3351.695634060683
 33
0.0
 14
1285.389207672692
 24
2456.695634060685
 34
0.0
 50
90.0
100
AcDbRotatedDimension
1001
ACAD
1000
DSTYLE
1002
{
1070
   287
1070
     3
1070
    40
1040
35.0
1070
   143
1040
0.039
1070
   172
1070
     1
1070
   271
1070
     0
1070
   279
1070
     0
1070
   288
1070
     1
1002
}
  0
ARC
  5
7C8E
330
19
100
AcDbEntity
  8
1
100
AcDbCircle
 10
1910.389207672693
 20
3351.695634060683
 30
0.0
 40
500.0
100
AcDbArc
 50
180.0
 51
243.256316049597
  0
ARC
  5
7C8F
330
19
100
AcDbEntity
  8
1
100
AcDbCircle
 10
1910.389207672693
 20
3351.695634060683
 30
0.0
 40
550.0
100
AcDbArc
 50
180.0
 51
245.8522600829777
  0
ARC
  5
7C90
330
19
100
AcDbEntity
  8
1
100
AcDbCircle
 10
1910.389207672693
 20
3351.695634060683
 30
0.0
 40
280.0
100
AcDbArc
 50
65.18477383439346
 51
250.077125061029
  0
ARC
  5
7C91
330
19
100
AcDbEntity
  8
1
100
AcDbCircle
 10
1910.389207672693
 20
3351.695634060683
 30
0.0
 40
500.0
100
AcDbArc
 50
0.0000000000000254
 51
180.0
  0
ARC
  5
7C92
330
19
100
AcDbEntity
  8
1
100
AcDbCircle
 10
1984.389207672692
 20
3277.695634060685
 30
0.0
 40
794.0
100
AcDbArc
 50
174.6523302501612
 51
241.231845462626
  0
ARC
  5
7C93
330
19
100
AcDbEntity
  8
1
100
AcDbCircle
 10
1910.389207672693
 20
3351.695634060683
 30
0.0
 40
550.0
100
AcDbArc
 50
247.2150933853279
 51
292.7849066146721
  0
ARC
  5
7C94
330
19
100
AcDbEntity
  8
1
100
AcDbCircle
 10
1910.389207672693
 20
3351.695634060683
 30
0.0
 40
500.0
100
AcDbArc
 50
244.7860234198974
 51
295.2139765801025
  0
POINT
  5
7C96
330
19
100
AcDbEntity
  8
1
100
AcDbPoint
 10
2430.389207672694
 20
2456.695634060685
 30
0.0
  0
POINT
  5
7C97
330
19
100
AcDbEntity
  8
1
100
AcDbPoint
 10
2430.389207672694
 20
2456.695634060685
 30
0.0
  0
LINE
  5
7C98
330
19
100
AcDbEntity
  8
1
100
AcDbLine
 10
1285.389207672692
 20
2581.695634060685
 30
0.0
 11
1285.389207672692
 21
2456.695634060685
 31
0.0
  0
POINT
  5
7CA6
330
19
100
AcDbEntity
  8
1
100
AcDbPoint
 10
1285.389207672692
 20
2456.695634060685
 30
0.0
  0
POINT
  5
7CA7
330
19
100
AcDbEntity
  8
1
100
AcDbPoint
 10
1285.389207672692
 20
2456.695634060685
 30
0.0
  0
POINT
  5
7CA8
330
19
100
AcDbEntity
  8
1
100
AcDbPoint
 10
1285.389207672692
 20
2456.695634060685
 30
0.0
  0
POINT
  5
7CA9
330
19
100
AcDbEntity
  8
1
100
AcDbPoint
 10
1285.389207672692
 20
2456.695634060685
 30
0.0
  0
DIMENSION
  5
7CAB
330
19
100
AcDbEntity
  8
3
100
AcDbDimension
280
     0
  2
*D8
 10
1190.389207672692
 20
4490.838255680652
 30
0.0
 11
1550.389207672693
 21
4578.338255680652
 31
0.0
 70
    32
 71
     5
 42
-1.0
 73
     0
 74
     0
 75
     0
  3
IGA
100
AcDbAlignedDimension
 13
1910.389207672693
 23
4091.311616558312
 33
0.0
 14
1190.389207672692
 24
3277.695634060685
 34
0.0
100
AcDbRotatedDimension
1001
ACAD
1000
DSTYLE
1002
{
1070
   287
1070
     3
1070
    40
1040
35.0
1070
   143
1040
0.039
1070
   172
1070
     1
1070
   271
1070
     0
1070
   279
1070
     0
1070
   288
1070
     1
1002
}
  0
DIMENSION
  5
7CAC
330
19
100
AcDbEntity
  8
3
100
AcDbDimension
280
     0
  2
*D9
 10
951.6366271651023
 20
3351.695634060683
 30
0.0
 11
864.1366271651017
 21
3691.695634060685
 31
0.0
 70
    32
 71
     5
 42
-1.0
 73
     0
 74
     0
 75
     0
  3
IGA
100
AcDbAlignedDimension
 13
1901.389207672692
 23
4031.695634060684
 33
0.0
 14
1095.536512058748
 24
3351.695634060683
 34
0.0
 50
90.0
100
AcDbRotatedDimension
1001
ACAD
1000
DSTYLE
1002
{
1070
   287
1070
     3
1070
    40
1040
35.0
1070
   143
1040
0.039
1070
   172
1070
     1
1070
   271
1070
     0
1070
   279
1070
     0
1070
   288
1070
     1
1002
}
  0
ARC
  5
7CAD
330
19
100
AcDbEntity
  8
1
100
AcDbCircle
 10
1910.389207672693
 20
3351.695634060683
 30
0.0
 40
550.0
100
AcDbArc
 50
0.0000000000000254
 51
180.0
  0
ARC
  5
7CAE
330
19
100
AcDbEntity
  8
1
100
AcDbCircle
 10
1849.889207672693
 20
3291.195634060686
 30
0.0
 40
659.4999999999999
100
AcDbArc
 50
84.73650479693302
 51
174.736504796933
  0
CIRCLE
  5
7CAF
330
19
100
AcDbEntity
  8
1
100
AcDbCircle
 10
1910.389207672693
 20
3351.695634060683
 30
0.0
 40
165.1
  0
LINE
  5
7CB0
330
19
100
AcDbEntity
  8
1
100
AcDbLine
 10
1954.389207672693
 20
3940.458826039835
 30
0.0
 11
1954.389207672693
 21
4031.695634060684
 31
0.0
  0
ARC
  5
7CB1
330
19
100
AcDbEntity
  8
1
100
AcDbCircle
 10
1849.889207672693
 20
3412.195634060685
 30
0.0
 40
538.4999999999999
100
AcDbArc
 50
78.81032543723749
 51
83.54925028514012
  0
LINE
  5
7CB2
330
19
100
AcDbEntity
  8
1
100
AcDbLine
 10
1901.389207672692
 20
4027.695634060687
 30
0.0
 11
1901.389207672692
 21
4031.695634060684
 31
0.0
  0
LINE
  5
7CB4
330
19
100
AcDbEntity
  8
1
100
AcDbLine
 10
3485.389207672693
 20
6723.070024192548
 30
0.0
 11
2984.389207672692
 21
6723.070024192548
 31
0.0
  0
LINE
  5
7CB5
330
19
100
AcDbEntity
  8
1
100
AcDbLine
 10
2984.389207672692
 20
7355.070024192548
 30
0.0
 11
1954.389207672691
 21
6035.070024192549
 31
0.0
  0
LINE
  5
7CB6
330
19
100
AcDbEntity
  8
1
100
AcDbLine
 10
1954.389207672691
 20
7355.070024192548
 30
0.0
 11
2984.389207672692
 21
6035.070024192548
 31
0.0
  0
DIMENSION
  5
7CB7
330
19
100
AcDbEntity
  8
3
100
AcDbDimension
280
     0
  2
*D10
 10
2535.389207672692
 20
7825.096671634627
 30
0.0
 11
3010.389207672692
 21
7912.596671634627
 31
0.0
 70
    32
 71
     5
 42
-1.0
 73
     0
 74
     0
 75
     0
  3
IGA
100
AcDbAlignedDimension
 13
3485.389207672693
 23
6723.070024192548
 33
0.0
 14
2535.389207672692
 24
7423.070024192547
 34
0.0
100
AcDbRotatedDimension
1001
ACAD
1000
DSTYLE
1002
{
1070
   287
1070
     3
1070
    40
1040
35.0
1070
   143
1040
0.039
1070
   172
1070
     1
1070
   271
1070
     0
1070
   279
1070
     0
1070
   288
1070
     1
1002
}
  0
LINE
  5
7CB8
330
19
100
AcDbEntity
  8
1
100
AcDbLine
 10
2984.389207672692
 20
6035.070024192548
 30
0.0
 11
1190.389207672691
 21
6035.070024192549
 31
0.0
  0
LINE
  5
7CB9
330
19
100
AcDbEntity
  8
1
100
AcDbLine
 10
2984.389207672692
 20
7355.070024192548
 30
0.0
 11
1190.389207672691
 21
7355.070024192547
 31
0.0
  0
LINE
  5
7CBA
330
19
100
AcDbEntity
  8
1
100
AcDbLine
 10
3485.389207672693
 20
5773.070024192548
 30
0.0
 11
1285.389207672692
 21
5773.070024192548
 31
0.0
  0
LINE
  5
7CBB
330
19
100
AcDbEntity
  8
2
100
AcDbLine
 10
2984.389207672692
 20
6695.070024192547
 30
0.0
 11
1131.746821439654
 21
6695.070024192547
 31
0.0
  0
DIMENSION
  5
7CBC
330
19
100
AcDbEntity
  8
3
100
AcDbDimension
280
     0
  2
*D11
 10
1285.389207672692
 20
5333.249364697356
 30
0.0
 11
2385.389207672691
 21
5333.249364697356
 31
0.0
 70
   160
 71
     5
 42
-1.0
 73
     0
 74
     0
 75
     0
  3
IGA
100
AcDbAlignedDimension
 13
3485.389207672693
 23
5773.070024192548
 33
0.0
 14
1285.389207672692
 24
5773.070024192548
 34
0.0
100
AcDbRotatedDimension
1001
ACAD
1000
DSTYLE
1002
{
1070
   287
1070
     3
1070
    40
1040
35.0
1070
   143
1040
0.039
1070
   172
1070
     1
1070
   271
1070
     0
1070
   279
1070
     0
1070
   288
1070
     1
1002
}
  0
LINE
  5
7CBD
330
19
100
AcDbEntity
  8
1
100
AcDbLine
 10
3430.389207672692
 20
5615.070024192547
 30
0.0
 11
1630.389207672692
 21
5615.070024192547
 31
0.0
  0
LINE
  5
7CBE
330
19
100
AcDbEntity
  8
1
100
AcDbLine
 10
3430.389207672692
 20
5845.070024192548
 30
0.0
 11
1630.389207672692
 21
5845.070024192548
 31
0.0
  0
LINE
  5
7CBF
330
19
100
AcDbEntity
  8
1
100
AcDbLine
 10
2984.389207672692
 20
7355.070024192548
 30
0.0
 11
2984.389207672692
 21
6035.070024192548
 31
0.0
  0
DIMENSION
  5
7CC0
330
19
100
AcDbEntity
  8
3
100
AcDbDimension
280
     0
  2
*D12
 10
3886.980698866842
 20
5773.070024192548
 30
0.0
 11
3799.480698866842
 21
6248.070024192549
 31
0.0
 70
    32
 71
     5
 42
-1.0
 73
     0
 74
     0
 75
     0
  3
IGA
100
AcDbAlignedDimension
 13
3485.389207672693
 23
6723.070024192548
 33
0.0
 14
3485.389207672693
 24
5773.070024192548
 34
0.0
 50
270.0
100
AcDbRotatedDimension
1001
ACAD
1000
DSTYLE
1002
{
1070
   287
1070
     3
1070
    40
1040
35.0
1070
   143
1040
0.039
1070
   172
1070
     1
1070
   271
1070
     0
1070
   279
1070
     0
1070
   288
1070
     1
1002
}
  0
LINE
  5
7CC1
330
19
100
AcDbEntity
  8
2
100
AcDbLine
 10
3210.389207672692
 20
6412.070024192551
 30
0.0
 11
3210.389207672692
 21
5615.070024192547
 31
0.0
  0
LINE
  5
7CC2
330
19
100
AcDbEntity
  8
1
100
AcDbLine
 10
3096.389207672692
 20
5807.570024192548
 30
0.0
 11
3096.389207672692
 21
5697.570024192548
 31
0.0
  0
LINE
  5
7CC3
330
19
100
AcDbEntity
  8
1
100
AcDbLine
 10
3324.389207672691
 20
5807.570024192548
 30
0.0
 11
3324.389207672691
 21
5697.570024192548
 31
0.0
  0
LINE
  5
7CC4
330
19
100
AcDbEntity
  8
1
100
AcDbLine
 10
3430.389207672692
 20
5845.070024192549
 30
0.0
 11
3430.389207672692
 21
5615.070024192549
 31
0.0
  0
LINE
  5
7CC5
330
19
100
AcDbEntity
  8
1
100
AcDbLine
 10
3324.389207672691
 20
5697.570024192549
 30
0.0
 11
3096.389207672692
 21
5697.570024192549
 31
0.0
  0
LINE
  5
7CC6
330
19
100
AcDbEntity
  8
1
100
AcDbLine
 10
3324.389207672691
 20
5807.570024192549
 30
0.0
 11
3096.389207672692
 21
5807.570024192549
 31
0.0
  0
LINE
  5
7CC7
330
19
100
AcDbEntity
  8
1
100
AcDbLine
 10
3395.389207672692
 20
5812.57002419255
 30
0.0
 11
3025.389207672692
 21
5812.57002419255
 31
0.0
  0
LINE
  5
7CC8
330
19
100
AcDbEntity
  8
1
100
AcDbLine
 10
3395.389207672692
 20
6412.070024192551
 30
0.0
 11
3025.389207672692
 21
6412.070024192551
 31
0.0
  0
LINE
  5
7CC9
330
19
100
AcDbEntity
  8
1
100
AcDbLine
 10
3485.389207672693
 20
6723.070024192548
 30
0.0
 11
3485.389207672693
 21
5773.070024192548
 31
0.0
  0
LINE
  5
7CCA
330
19
100
AcDbEntity
  8
1
100
AcDbLine
 10
3395.389207672692
 20
6412.070024192551
 30
0.0
 11
3395.389207672692
 21
5812.57002419255
 31
0.0
  0
LINE
  5
7CCB
330
19
100
AcDbEntity
  8
1
100
AcDbLine
 10
3025.389207672692
 20
6412.070024192551
 30
0.0
 11
3025.389207672692
 21
5812.57002419255
 31
0.0
  0
LINE
  5
7CCC
330
19
100
AcDbEntity
  8
1
100
AcDbLine
 10
3237.889207672691
 20
5812.57002419255
 30
0.0
 11
3237.889207672691
 21
5807.570024192549
 31
0.0
  0
LINE
  5
7CCD
330
19
100
AcDbEntity
  8
1
100
AcDbLine
 10
3182.889207672692
 20
5812.57002419255
 30
0.0
 11
3182.889207672692
 21
5807.570024192549
 31
0.0
  0
LINE
  5
7CCE
330
19
100
AcDbEntity
  8
1
100
AcDbLine
 10
1954.389207672691
 20
7355.070024192548
 30
0.0
 11
1954.389207672691
 21
6035.070024192548
 31
0.0
  0
LINE
  5
7CCF
330
19
100
AcDbEntity
  8
2
100
AcDbLine
 10
1910.389207672691
 20
7512.159370371596
 30
0.0
 11
1910.389207672692
 21
5615.070024192547
 31
0.0
  0
LINE
  5
7CD0
330
19
100
AcDbEntity
  8
1
100
AcDbLine
 10
2535.389207672692
 20
7423.070024192547
 30
0.0
 11
2535.389207672692
 21
7355.070024192548
 31
0.0
  0
LINE
  5
7CD1
330
19
100
AcDbEntity
  8
1
100
AcDbLine
 10
1190.389207672691
 20
7355.070024192547
 30
0.0
 11
1190.389207672691
 21
6035.070024192549
 31
0.0
  0
LINE
  5
7CD2
330
19
100
AcDbEntity
  8
1
100
AcDbLine
 10
1285.389207672692
 20
7423.070024192547
 30
0.0
 11
1285.389207672692
 21
7355.070024192547
 31
0.0
  0
DIMENSION
  5
7CD3
330
19
100
AcDbEntity
  8
3
100
AcDbDimension
280
     0
  2
*D13
 10
883.7281452593996
 20
5773.070024192548
 30
0.0
 11
796.2281452593989
 21
6598.070024192548
 31
0.0
 70
    32
 71
     5
 42
-1.0
 73
     0
 74
     0
 75
     0
  3
IGA
100
AcDbAlignedDimension
 13
1285.389207672692
 23
7423.070024192547
 33
0.0
 14
1285.389207672692
 24
5773.070024192548
 34
0.0
 50
270.0
100
AcDbRotatedDimension
1001
ACAD
1000
DSTYLE
1002
{
1070
   287
1070
     3
1070
    40
1040
35.0
1070
   143
1040
0.039
1070
   172
1070
     1
1070
   271
1070
     0
1070
   279
1070
     0
1070
   288
1070
     1
1002
}
  0
LINE
  5
7CD4
330
19
100
AcDbEntity
  8
1
100
AcDbLine
 10
2075.389207672692
 20
5807.570024192546
 30
0.0
 11
2075.389207672692
 21
5697.570024192548
 31
0.0
  0
LINE
  5
7CD5
330
19
100
AcDbEntity
  8
1
100
AcDbLine
 10
1745.389207672691
 20
5807.570024192546
 30
0.0
 11
1745.389207672691
 21
5697.570024192548
 31
0.0
  0
LINE
  5
7CD6
330
19
100
AcDbEntity
  8
1
100
AcDbLine
 10
2075.389207672692
 20
5697.570024192548
 30
0.0
 11
1745.389207672691
 21
5697.570024192548
 31
0.0
  0
LINE
  5
7CD7
330
19
100
AcDbEntity
  8
1
100
AcDbLine
 10
2075.389207672692
 20
5807.570024192548
 30
0.0
 11
1745.389207672691
 21
5807.570024192548
 31
0.0
  0
LINE
  5
7CD8
330
19
100
AcDbEntity
  8
1
100
AcDbLine
 10
1870.389207672691
 20
6035.070024192549
 30
0.0
 11
1870.389207672691
 21
5807.570024192548
 31
0.0
  0
LINE
  5
7CD9
330
19
100
AcDbEntity
  8
1
100
AcDbLine
 10
1950.389207672692
 20
6035.070024192549
 30
0.0
 11
1950.389207672692
 21
5807.570024192548
 31
0.0
  0
LINE
  5
7CDA
330
19
100
AcDbEntity
  8
1
100
AcDbLine
 10
1630.389207672692
 20
5845.070024192548
 30
0.0
 11
1630.389207672692
 21
5615.070024192547
 31
0.0
  0
LINE
  5
7CDB
330
19
100
AcDbEntity
  8
1
100
AcDbLine
 10
2535.389207672692
 20
7423.070024192547
 30
0.0
 11
1285.389207672692
 21
7423.070024192547
 31
0.0
  0
DIMENSION
  5
7CDC
330
19
100
AcDbEntity
  8
3
100
AcDbDimension
280
     0
  2
*D14
 10
1285.389207672692
 20
7825.096671634627
 30
0.0
 11
1910.389207672691
 21
7912.596671634627
 31
0.0
 70
    32
 71
     5
 42
-1.0
 73
     0
 74
     0
 75
     0
  3
IGA
100
AcDbAlignedDimension
 13
2535.389207672692
 23
7423.070024192547
 33
0.0
 14
1285.389207672692
 24
7423.070024192547
 34
0.0
100
AcDbRotatedDimension
1001
ACAD
1000
DSTYLE
1002
{
1070
   287
1070
     3
1070
    40
1040
35.0
1070
   143
1040
0.039
1070
   172
1070
     1
1070
   271
1070
     0
1070
   279
1070
     0
1070
   288
1070
     1
1002
}
  0
LINE
  5
7CDD
330
19
100
AcDbEntity
  8
1
100
AcDbLine
 10
5174.87920270138
 20
3001.695634060684
 30
0.0
 11
5174.87920270138
 21
2631.695634060684
 31
0.0
  0
LINE
  5
7CDE
330
19
100
AcDbEntity
  8
1
100
AcDbLine
 10
5055.879202701381
 20
2631.695634060684
 30
0.0
 11
5055.879202701381
 21
2581.695634060684
 31
0.0
  0
LINE
  5
7CDF
330
19
100
AcDbEntity
  8
1
100
AcDbLine
 10
4605.87920270138
 20
2631.695634060684
 30
0.0
 11
4605.87920270138
 21
2581.695634060684
 31
0.0
  0
LINE
  5
7CE0
330
19
100
AcDbEntity
  8
1
100
AcDbLine
 10
1285.389207672692
 20
6035.070024192549
 30
0.0
 11
1285.389207672692
 21
5773.070024192548
 31
0.0
  0
DIMENSION
  5
7CE3
330
19
100
AcDbEntity
  8
3
100
AcDbDimension
280
     0
  2
*D15
 10
5435.379202701376
 20
4446.678532444511
 30
0.0
 11
5835.379202701377
 21
4561.678532444512
 31
0.0
 70
    32
  1
(<>)
 71
     5
 42
800.0
 73
     0
 74
     0
 75
     0
  3
IGA
100
AcDbAlignedDimension
 13
6235.379202701377
 23
3309.495634060684
 33
0.0
 14
5435.379202701376
 24
4381.063146331728
 34
0.0
100
AcDbRotatedDimension
1001
ACAD
1000
DSTYLE
1002
{
1070
   287
1070
     3
1070
    40
1040
35.0
1070
   143
1040
0.039
1070
   172
1070
     1
1070
   271
1070
     0
1070
   279
1070
     0
1070
   288
1070
     1
1002
}
  0
DIMENSION
  5
7CE4
330
19
100
AcDbEntity
  8
3
100
AcDbDimension
280
     0
  2
*D16
 10
4355.879202701371
 20
4446.678532444511
 30
0.0
 11
4895.629202701375
 21
4561.678532444512
 31
0.0
 70
    32
  1
(<>)
 71
     5
 42
1079.500000000005
 73
     0
 74
     0
 75
     0
  3
IGA
100
AcDbAlignedDimension
 13
5435.379202701376
 23
4381.063146331728
 33
0.0
 14
4355.879202701371
 24
3631.695634060684
 34
0.0
100
AcDbRotatedDimension
1001
ACAD
1000
DSTYLE
1002
{
1070
   287
1070
     3
1070
    40
1040
35.0
1070
   143
1040
0.039
1070
   172
1070
     1
1070
   271
1070
     0
1070
   279
1070
     0
1070
   288
1070
     1
1002
}
  0
LINE
  5
8090
330
19
100
AcDbEntity
  8
4
100
AcDbLine
 10
6475.0
 20
1411.801532643661
 30
0.0
 11
6475.0
 21
711.8015326436617
 31
0.0
  0
LINE
  5
8091
330
19
100
AcDbEntity
  8
4
100
AcDbLine
 10
4025.0
 20
1411.801532643661
 30
0.0
 11
4025.0
 21
711.8015326436617
 31
0.0
  0
LINE
  5
8092
330
19
100
AcDbEntity
  8
4
100
AcDbLine
 10
2275.0
 20
1411.801532643661
 30
0.0
 11
2275.0
 21
711.8015326436617
 31
0.0
  0
LINE
  5
8095
330
19
100
AcDbEntity
  8
4
100
AcDbLine
 10
2275.0
 20
711.8015326436616
 30
0.0
 11
6475.0
 21
711.8015326436616
 31
0.0
  0
LINE
  5
8096
330
19
100
AcDbEntity
  8
4
100
AcDbLine
 10
2275.0
 20
1061.801532643661
 30
0.0
 11
6475.0
 21
1061.801532643661
 31
0.0
  0
TEXT
  5
8097
330
19
100
AcDbEntity
  8
4
100
AcDbText
 10
2409.757282964156
 20
1172.202123176806
 30
0.0
 40
175.0
  1
機器名称
100
AcDbText
  0
TEXT
  5
8098
330
19
100
AcDbEntity
  8
4
100
AcDbText
 10
2401.903371086792
 20
787.5595812056999
 30
0.0
 40
175.0
  1
機器型番
100
AcDbText
  0
TEXT
  5
8099
330
19
100
AcDbEntity
  8
4
100
AcDbText
 10
4131.017483735045
 20
1138.68316184186
 30
0.0
 40
140.0
  1
ミツヤリミットロードファン
100
AcDbText
  0
TEXT
  5
809A
330
19
100
AcDbEntity
  8
4
100
AcDbText
 10
4153.290734549182
 20
771.8600776234634
 30
0.0
 40
175.0
  1
LL#6-5
100
AcDbText
  0
TEXT
  5
809C
330
19
100
AcDbEntity
  8
4
100
AcDbText
 10
2834.08263910361
 20
8342.000944663805
 30
0.0
 40
188.9999999999999
  1
床置ベット
100
AcDbText
  0
TEXT
  5
809D
330
19
100
AcDbEntity
  8
4
100
AcDbText
 10
1106.586576653062
 20
8868.583416697545
 30
0.0
 40
252.0
  1
遠心式両吸込両持リミットロードファン
100
AcDbText
  0
LINE
  5
809E
330
19
100
AcDbEntity
  8
4
100
AcDbLine
 10
875.0
 20
8642.930639926817
 30
0.0
 11
6475.0
 21
8642.930639926817
 31
0.0
  0
LINE
  5
809F
330
19
100
AcDbEntity
  8
4
100
AcDbLine
 10
875.0
 20
9342.930639926818
 30
0.0
 11
6475.0
 21
9342.930639926818
 31
0.0
  0
LINE
  5
80A0
330
19
100
AcDbEntity
  8
4
100
AcDbLine
 10
2275.0
 20
1411.801532643661
 30
0.0
 11
6475.0
 21
1411.801532643661
 31
0.0
  0
LINE
  5
80A1
330
19
100
AcDbEntity
  8
4
100
AcDbLine
 10
875.0
 20
9342.930639926818
 30
0.0
 11
875.0
 21
8642.930639926817
 31
0.0
  0
TEXT
  5
80A2
330
19
100
AcDbEntity
  8
4
100
AcDbText
 10
1308.576726254152
 20
8338.118171412203
 30
0.0
 40
188.9999999999999
  1
左回転上向
100
AcDbText
  0
TEXT
  5
80A3
330
19
100
AcDbEntity
  8
4
100
AcDbText
 10
5141.393457372515
 20
9471.21378523358
 30
0.0
 40
196.0
  1
No.
100
AcDbText
  0
TEXT
  5
80A4
330
19
100
AcDbEntity
  8
4
100
AcDbText
 10
4589.536219100046
 20
8342.000944663805
 30
0.0
 40
188.9999999999999
  1
縮尺：1/35
100
AcDbText
  0
LINE
  5
80A5
330
19
100
AcDbEntity
  8
4
100
AcDbLine
 10
6475.0
 20
9342.930639926818
 30
0.0
 11
6475.0
 21
8642.930639926817
 31
0.0
  0
LINE
  5
80A6
330
19
100
AcDbEntity
  8
4
100
AcDbLine
 10
7350.0
 20
10325.0
 30
0.0
 11
7350.0
 21
10325.0
 31
0.0
  0
LINE
  5
80A7
330
19
100
AcDbEntity
  8
4
100
AcDbLine
 10
5042.160978259526
 20
9384.422540938905
 30
0.0
 11
5042.160978259526
 21
9753.282915424135
 31
0.0
  0
LINE
  5
80A8
330
19
100
AcDbEntity
  8
4
100
AcDbLine
 10
5042.160978259526
 20
9753.282915424135
 30
0.0
 11
6475.0
 21
9753.282915424135
 31
0.0
  0
LINE
  5
80A9
330
19
100
AcDbEntity
  8
4
100
AcDbLine
 10
6475.0
 20
9753.282915424135
 30
0.0
 11
6475.0
 21
9384.422540938905
 31
0.0
  0
LINE
  5
80AA
330
19
100
AcDbEntity
  8
4
100
AcDbLine
 10
6475.0
 20
9384.422540938905
 30
0.0
 11
5042.160978259526
 21
9384.422540938905
 31
0.0
  0
LINE
  5
80AB
330
19
100
AcDbEntity
  8
4
100
AcDbLine
 10
0.0
 20
0.0
 30
0.0
 11
0.0
 21
10325.0
 31
0.0
  0
LINE
  5
80AC
330
19
100
AcDbEntity
  8
4
100
AcDbLine
 10
0.0
 20
10325.0
 30
0.0
 11
7350.0
 21
10325.0
 31
0.0
  0
LINE
  5
80AD
330
19
100
AcDbEntity
  8
4
100
AcDbLine
 10
7350.0
 20
10325.0
 30
0.0
 11
7350.0
 21
0.0
 31
0.0
  0
LINE
  5
80AE
330
19
100
AcDbEntity
  8
4
100
AcDbLine
 10
7350.0
 20
0.0
 30
0.0
 11
0.0
 21
0.0
 31
0.0
  0
DIMENSION
  5
818D
330
19
100
AcDbEntity
  8
3
100
AcDbDimension
280
     0
  2
*D17
 10
1910.389207672693
 20
2244.070741709144
 30
0.0
 11
1597.889207672692
 21
2331.570741709144
 31
0.0
 70
    32
 71
     5
 42
-1.0
 73
     0
 74
     0
 75
     0
  3
IGA
100
AcDbAlignedDimension
 13
1285.389207672692
 23
2456.695634060685
 33
0.0
 14
1910.389207672693
 24
2456.695634060685
 34
0.0
100
AcDbRotatedDimension
1001
ACAD
1000
DSTYLE
1002
{
1070
   172
1070
     1
1070
    40
1040
35.0
1070
   271
1070
     0
1070
   143
1040
0.039
1002
}
  0
DIMENSION
  5
819A
330
19
100
AcDbEntity
  8
3
100
AcDbDimension
280
     0
  2
*D18
 10
3485.389207672693
 20
2244.070741709144
 30
0.0
 11
2697.889207672693
 21
2331.570741709144
 31
0.0
 70
    32
 71
     5
 42
-1.0
 73
     0
 74
     0
 75
     0
  3
IGA
100
AcDbAlignedDimension
 13
1910.389207672693
 23
2456.695634060685
 33
0.0
 14
3485.389207672693
 24
2456.695634060685
 34
0.0
100
AcDbRotatedDimension
1001
ACAD
1000
DSTYLE
1002
{
1070
   172
1070
     1
1070
    40
1040
35.0
1070
   271
1070
     0
1070
   143
1040
0.039
1002
}
  0
DIMENSION
  5
81A7
330
19
100
AcDbEntity
  8
3
100
AcDbDimension
280
     0
  2
*D19
 10
5435.379202701376
 20
2244.070741709144
 30
0.0
 11
4974.379202701377
 21
2331.570741709144
 31
0.0
 70
    32
 71
     5
 42
-1.0
 73
     0
 74
     0
 75
     0
  3
IGA
100
AcDbAlignedDimension
 13
4513.379202701377
 23
2456.695634060684
 33
0.0
 14
5435.379202701376
 24
2456.695634060684
 34
0.0
100
AcDbRotatedDimension
1001
ACAD
1000
DSTYLE
1002
{
1070
   172
1070
     1
1070
    40
1040
35.0
1070
   271
1070
     0
1070
   143
1040
0.039
1002
}
  0
DIMENSION
  5
81B4
330
19
100
AcDbEntity
  8
3
100
AcDbDimension
280
     0
  2
*D20
 10
6163.379202701377
 20
2244.070741709144
 30
0.0
 11
5799.379202701377
 21
2331.570741709144
 31
0.0
 70
    32
 71
     5
 42
-1.0
 73
     0
 74
     0
 75
     0
  3
IGA
100
AcDbAlignedDimension
 13
5435.379202701376
 23
2456.695634060684
 33
0.0
 14
6163.379202701377
 24
2456.695634060684
 34
0.0
100
AcDbRotatedDimension
1001
ACAD
1000
DSTYLE
1002
{
1070
   172
1070
     1
1070
    40
1040
35.0
1070
   271
1070
     0
1070
   143
1040
0.039
1002
}
  0
DIMENSION
  5
81C1
330
19
100
AcDbEntity
  8
3
100
AcDbDimension
280
     0
  2
*D21
 10
732.7209549181352
 20
2456.695634060685
 30
0.0
 11
645.2209549181352
 21
3244.195634060685
 31
0.0
 70
    32
 71
     5
 42
-1.0
 73
     0
 74
     0
 75
     0
  3
IGA
100
AcDbAlignedDimension
 13
1901.389207672692
 23
4031.695634060684
 33
0.0
 14
1285.389207672692
 24
2456.695634060685
 34
0.0
 50
90.0
100
AcDbRotatedDimension
1001
ACAD
1000
DSTYLE
1002
{
1070
   172
1070
     1
1070
    40
1040
35.0
1070
   271
1070
     0
1070
   143
1040
0.039
1002
}
  0
ENDSEC
  0
SECTION
  2
OBJECTS
  0
DICTIONARY
  5
C
330
0
100
AcDbDictionary
281
     1
  3
ACAD_CIP_PREVIOUS_PRODUCT_INFO
350
82E1
  3
ACAD_COLOR
350
82C4
  3
ACAD_DETAILVIEWSTYLE
350
82DD
  3
ACAD_GROUP
350
D
  3
ACAD_LAYOUT
350
81CA
  3
ACAD_MATERIAL
350
8292
  3
ACAD_MLEADERSTYLE
350
82D9
  3
ACAD_MLINESTYLE
350
E
  3
ACAD_PLOTSETTINGS
350
81CB
  3
ACAD_PLOTSTYLENAME
350
81C8
  3
ACAD_SCALELIST
350
82C7
  3
ACAD_SECTIONVIEWSTYLE
350
82DB
  3
ACAD_TABLESTYLE
350
82C5
  3
ACAD_VISUALSTYLE
350
82AB
  3
ACDB_RECOMPOSE_DATA
350
8344
  3
AcDbVariableDictionary
350
8289
  3
AcDsDecomposeData
350
834A
  0
DICTIONARY
  5
8328
330
2
100
AcDbDictionary
280
     1
281
     1
  3
ACAD_LAYERSTATES
360
8329
  0
DICTIONARY
  5
831B
330
F
100
AcDbDictionary
280
     1
281
     1
  3
ADSK_XREC_LAYER_RECONCILED
360
831C
  0
DICTIONARY
  5
831D
330
31
100
AcDbDictionary
280
     1
281
     1
  3
ADSK_XREC_LAYER_RECONCILED
360
831E
  0
DICTIONARY
  5
831F
330
76D0
100
AcDbDictionary
280
     1
281
     1
  3
ADSK_XREC_LAYER_RECONCILED
360
8320
  0
DICTIONARY
  5
8321
330
76D1
100
AcDbDictionary
280
     1
281
     1
  3
ADSK_XREC_LAYER_RECONCILED
360
8322
  0
DICTIONARY
  5
8323
330
76D2
100
AcDbDictionary
280
     1
281
     1
  3
ADSK_XREC_LAYER_RECONCILED
360
8324
  0
DICTIONARY
  5
81F7
330
19
100
AcDbDictionary
280
     1
281
     1
  3
ACAD_LAYOUTSELFREF
360
81F8
  0
DICTIONARY
  5
81F5
330
16
100
AcDbDictionary
280
     1
281
     1
  3
ACAD_LAYOUTSELFREF
360
81F6
  0
XRECORD
  5
82E1
102
{ACAD_REACTORS
330
C
102
}
330
C
100
AcDbXrecord
280
     1
300
ACDLT
300
2023
300

  0
DICTIONARY
  5
82C4
102
{ACAD_REACTORS
330
C
102
}
330
C
100
AcDbDictionary
281
     1
  0
DICTIONARY
  5
82DD
102
{ACAD_REACTORS
330
C
102
}
330
C
100
AcDbDictionary
281
     1
  3
Metric50
350
82DE
  0
DICTIONARY
  5
D
102
{ACAD_REACTORS
330
C
102
}
330
C
100
AcDbDictionary
281
     1
  0
DICTIONARY
  5
81CA
102
{ACAD_REACTORS
330
C
102
}
330
C
100
AcDbDictionary
281
     1
  3
Model
350
81CC
  3
ﾚｲｱｳﾄ1
350
81CD
  0
DICTIONARY
  5
8292
102
{ACAD_REACTORS
330
C
102
}
330
C
100
AcDbDictionary
281
     1
  3
ByBlock
350
829B
  3
ByLayer
350
8293
  3
Global
350
82A3
  0
DICTIONARY
  5
82D9
102
{ACAD_REACTORS
330
C
102
}
330
C
100
AcDbDictionary
281
     1
  3
Standard
350
82DA
  0
DICTIONARY
  5
E
102
{ACAD_REACTORS
330
C
102
}
330
C
100
AcDbDictionary
281
     1
  3
STANDARD
350
1C
  0
DICTIONARY
  5
81CB
102
{ACAD_REACTORS
330
C
102
}
330
C
100
AcDbDictionary
281
     1
  0
ACDBDICTIONARYWDFLT
  5
81C8
102
{ACAD_REACTORS
330
C
102
}
330
C
100
AcDbDictionary
281
     1
  3
Normal
350
81C9
100
AcDbDictionaryWithDefault
340
81C9
  0
DICTIONARY
  5
82C7
102
{ACAD_REACTORS
330
C
102
}
330
C
100
AcDbDictionary
281
     1
  3
A0
350
82C8
  3
A1
350
82C9
  3
A2
350
82CA
  3
A3
350
82CB
  3
A4
350
82CC
  3
A5
350
82CD
  3
A6
350
82CE
  3
A7
350
82CF
  3
A8
350
82D0
  3
A9
350
82D1
  3
B0
350
82D2
  3
B1
350
82D3
  3
B2
350
82D4
  3
B3
350
82D5
  3
B4
350
82D6
  3
B5
350
82D7
  3
B6
350
82D8
  0
DICTIONARY
  5
82DB
102
{ACAD_REACTORS
330
C
102
}
330
C
100
AcDbDictionary
281
     1
  3
Metric50
350
82DC
  0
DICTIONARY
  5
82C5
102
{ACAD_REACTORS
330
C
102
}
330
C
100
AcDbDictionary
281
     1
  3
Standard
350
82C6
  0
DICTIONARY
  5
82AB
102
{ACAD_REACTORS
330
C
102
}
330
C
100
AcDbDictionary
281
     1
  3
2dWireframe
350
82B1
  3
Basic
350
82B0
  3
Brighten
350
82B7
  3
ColorChange
350
82BB
  3
Conceptual
350
82B4
  3
Dim
350
82B6
  3
EdgeColorOff
350
82C3
  3
Facepattern
350
82BA
  3
Flat
350
82AC
  3
FlatWithEdges
350
82AD
  3
Gouraud
350
82AE
  3
GouraudWithEdges
350
82AF
  3
Hidden
350
82B3
  3
JitterOff
350
82C1
  3
Linepattern
350
82B9
  3
OverhangOff
350
82C2
  3
Realistic
350
82B5
  3
Shaded
350
82C0
  3
Shaded with edges
350
82BF
  3
Shades of Gray
350
82BC
  3
Sketchy
350
82BD
  3
Thicken
350
82B8
  3
Wireframe
350
82B2
  3
X-Ray
350
82BE
  0
XRECORD
  5
8344
102
{ACAD_REACTORS
330
C
102
}
330
C
100
AcDbXrecord
280
     1
 90
        1
330
82C6
  0
DICTIONARY
  5
8289
102
{ACAD_REACTORS
330
C
102
}
330
C
100
AcDbDictionary
281
     1
  3
CANNOSCALE
350
8339
  3
CMLEADERSTYLE
350
8335
  3
CTABLESTYLE
350
8334
  3
CVIEWDETAILSTYLE
350
8336
  3
CVIEWSECTIONSTYLE
350
8337
  3
DIMASSOC
350
828A
  3
LAYEREVAL
350
833B
  3
LAYERNOTIFY
350
833C
  3
LIGHTINGUNITS
350
833A
  3
MARKUPASSISTMODE
350
8341
  3
MSLTSCALE
350
8338
  0
DICTIONARY
  5
834A
102
{ACAD_REACTORS
330
C
102
}
330
C
100
AcDbDictionary
281
     1
  3
AcDsRecords
350
834C
  3
AcDsSchemas
350
834B
1001
ACAD
1070
     2
  0
DICTIONARY
  5
8329
102
{ACAD_REACTORS
330
8328
102
}
330
8328
100
AcDbDictionary
281
     1
  0
XRECORD
  5
831C
102
{ACAD_REACTORS
330
831B
102
}
330
831B
100
AcDbXrecord
280
     1
290
     1
  0
XRECORD
  5
831E
102
{ACAD_REACTORS
330
831D
102
}
330
831D
100
AcDbXrecord
280
     1
290
     1
  0
XRECORD
  5
8320
102
{ACAD_REACTORS
330
831F
102
}
330
831F
100
AcDbXrecord
280
     1
290
     1
  0
XRECORD
  5
8322
102
{ACAD_REACTORS
330
8321
102
}
330
8321
100
AcDbXrecord
280
     1
290
     1
  0
XRECORD
  5
8324
102
{ACAD_REACTORS
330
8323
102
}
330
8323
100
AcDbXrecord
280
     1
290
     1
  0
XRECORD
  5
81F8
102
{ACAD_REACTORS
330
81F7
102
}
330
81F7
100
AcDbXrecord
280
     1
340
19
  0
XRECORD
  5
81F6
102
{ACAD_REACTORS
330
81F5
102
}
330
81F5
100
AcDbXrecord
280
     1
340
16
  0
ACDBDETAILVIEWSTYLE
  5
82DE
102
{ACAD_XDICTIONARY
360
834F
102
}
102
{ACAD_REACTORS
330
82DD
102
}
330
82DD
100
AcDbModelDocViewStyle
 70
     0
  3
Metric50
290
     0
100
AcDbDetailViewStyle
 70
     0
 71
     0
 90
        3
 71
     1
340
10
 62
   256
 40
5.0
340
0
 62
   256
 40
5.0
300

 40
0.0
280
     1
 71
     2
340
15
 90
       25
 62
   256
 71
     3
340
10
 62
   256
 40
5.0
 90
        0
 40
15.0
 90
        1
300
%<\AcVar ViewDetailId>% (%<\AcVar ViewScale \f "%sn">%)
 71
     4
340
15
 90
       25
 62
   256
340
15
 90
       25
 62
   256
280
     0
  0
LAYOUT
  5
81CC
102
{ACAD_REACTORS
330
81CA
102
}
330
81CA
100
AcDbPlotSettings
  1

  2
\\Txbo34x8944cqyd\EPSON LP-6100
  4

  6

 40
0.0
 41
0.0
 42
0.0
 43
0.0
 44
0.0
 45
0.0
 46
0.0
 47
0.0
 48
0.0
 49
0.0
140
0.0
141
0.0
142
1.0
143
1.0
 70
  1712
 72
     0
 73
     0
 74
     0
  7
GOD2000TABLE.ctb
 75
     0
147
1.0
 76
     0
 77
     2
 78
   300
148
0.0
149
0.0
100
AcDbLayout
  1
Model
 70
     1
 71
     0
 10
0.0
 20
0.0
 11
12.0
 21
9.0
 12
0.0
 22
0.0
 32
0.0
 14
0.0
 24
0.0
 34
0.0
 15
0.0
 25
0.0
 35
0.0
146
0.0
 13
0.0
 23
0.0
 33
0.0
 16
1.0
 26
0.0
 36
0.0
 17
0.0
 27
1.0
 37
0.0
 76
     0
330
19
331
8290
  0
LAYOUT
  5
81CD
102
{ACAD_REACTORS
330
81CA
102
}
330
81CA
100
AcDbPlotSettings
  1

  2
\\Txbo34x8944cqyd\EPSON LP-6100
  4

  6

 40
0.0
 41
0.0
 42
0.0
 43
0.0
 44
0.0
 45
0.0
 46
0.0
 47
0.0
 48
0.0
 49
0.0
140
0.0
141
0.0
142
1.0
143
1.0
 70
   688
 72
     0
 73
     0
 74
     5
  7
GOD2000TABLE.ctb
 75
    16
147
1.0
 76
     0
 77
     2
 78
   300
148
0.0
149
0.0
100
AcDbLayout
  1
ﾚｲｱｳﾄ1
 70
     1
 71
     1
 10
0.0
 20
0.0
 11
12.0
 21
9.0
 12
0.0
 22
0.0
 32
0.0
 14
1.000000000000000E+20
 24
1.000000000000000E+20
 34
1.000000000000000E+20
 15
-1.000000000000000E+20
 25
-1.000000000000000E+20
 35
-1.000000000000000E+20
146
0.0
 13
0.0
 23
0.0
 33
0.0
 16
1.0
 26
0.0
 36
0.0
 17
0.0
 27
1.0
 37
0.0
 76
     0
330
16
  0
MATERIAL
  5
829B
102
{ACAD_XDICTIONARY
360
829C
102
}
102
{ACAD_REACTORS
330
8292
102
}
330
8292
100
AcDbMaterial
  1
ByBlock
 72
     0
 43
0.0208333333333333
 43
0.0
 43
0.0
 43
0.0
 43
0.0
 43
0.0208333333333333
 43
0.0
 43
0.0
 43
0.0
 43
0.0
 43
1.0
 43
0.0
 43
0.0
 43
0.0
 43
0.0
 43
1.0
 77
     0
 47
0.0208333333333333
 47
0.0
 47
0.0
 47
0.0
 47
0.0
 47
0.0208333333333333
 47
0.0
 47
0.0
 47
0.0
 47
0.0
 47
1.0
 47
0.0
 47
0.0
 47
0.0
 47
0.0
 47
1.0
171
     0
 49
0.0208333333333333
 49
0.0
 49
0.0
 49
0.0
 49
0.0
 49
0.0208333333333333
 49
0.0
 49
0.0
 49
0.0
 49
0.0
 49
1.0
 49
0.0
 49
0.0
 49
0.0
 49
0.0
 49
1.0
175
     0
142
0.0208333333333333
142
0.0
142
0.0
142
0.0
142
0.0
142
0.0208333333333333
142
0.0
142
0.0
142
0.0
142
0.0
142
1.0
142
0.0
142
0.0
142
0.0
142
0.0
142
1.0
179
     0
144
0.0208333333333333
144
0.0
144
0.0
144
0.0
144
0.0
144
0.0208333333333333
144
0.0
144
0.0
144
0.0
144
0.0
144
1.0
144
0.0
144
0.0
144
0.0
144
0.0
144
1.0
147
0.0208333333333333
147
0.0
147
0.0
147
0.0
147
0.0
147
0.0208333333333333
147
0.0
147
0.0
147
0.0
147
0.0
147
1.0
147
0.0
147
0.0
147
0.0
147
0.0
147
1.0
  0
MATERIAL
  5
8293
102
{ACAD_XDICTIONARY
360
8294
102
}
102
{ACAD_REACTORS
330
8292
102
}
330
8292
100
AcDbMaterial
  1
ByLayer
 72
     0
 43
0.0208333333333333
 43
0.0
 43
0.0
 43
0.0
 43
0.0
 43
0.0208333333333333
 43
0.0
 43
0.0
 43
0.0
 43
0.0
 43
1.0
 43
0.0
 43
0.0
 43
0.0
 43
0.0
 43
1.0
 77
     0
 47
0.0208333333333333
 47
0.0
 47
0.0
 47
0.0
 47
0.0
 47
0.0208333333333333
 47
0.0
 47
0.0
 47
0.0
 47
0.0
 47
1.0
 47
0.0
 47
0.0
 47
0.0
 47
0.0
 47
1.0
171
     0
 49
0.0208333333333333
 49
0.0
 49
0.0
 49
0.0
 49
0.0
 49
0.0208333333333333
 49
0.0
 49
0.0
 49
0.0
 49
0.0
 49
1.0
 49
0.0
 49
0.0
 49
0.0
 49
0.0
 49
1.0
175
     0
142
0.0208333333333333
142
0.0
142
0.0
142
0.0
142
0.0
142
0.0208333333333333
142
0.0
142
0.0
142
0.0
142
0.0
142
1.0
142
0.0
142
0.0
142
0.0
142
0.0
142
1.0
179
     0
144
0.0208333333333333
144
0.0
144
0.0
144
0.0
144
0.0
144
0.0208333333333333
144
0.0
144
0.0
144
0.0
144
0.0
144
1.0
144
0.0
144
0.0
144
0.0
144
0.0
144
1.0
147
0.0208333333333333
147
0.0
147
0.0
147
0.0
147
0.0
147
0.0208333333333333
147
0.0
147
0.0
147
0.0
147
0.0
147
1.0
147
0.0
147
0.0
147
0.0
147
0.0
147
1.0
  0
MATERIAL
  5
82A3
102
{ACAD_XDICTIONARY
360
82A4
102
}
102
{ACAD_REACTORS
330
8292
102
}
330
8292
100
AcDbMaterial
  1
Global
 72
     0
 43
0.0208333333333333
 43
0.0
 43
0.0
 43
0.0
 43
0.0
 43
0.0208333333333333
 43
0.0
 43
0.0
 43
0.0
 43
0.0
 43
1.0
 43
0.0
 43
0.0
 43
0.0
 43
0.0
 43
1.0
 77
     0
 47
0.0208333333333333
 47
0.0
 47
0.0
 47
0.0
 47
0.0
 47
0.0208333333333333
 47
0.0
 47
0.0
 47
0.0
 47
0.0
 47
1.0
 47
0.0
 47
0.0
 47
0.0
 47
0.0
 47
1.0
171
     0
 49
0.0208333333333333
 49
0.0
 49
0.0
 49
0.0
 49
0.0
 49
0.0208333333333333
 49
0.0
 49
0.0
 49
0.0
 49
0.0
 49
1.0
 49
0.0
 49
0.0
 49
0.0
 49
0.0
 49
1.0
175
     0
142
0.0208333333333333
142
0.0
142
0.0
142
0.0
142
0.0
142
0.0208333333333333
142
0.0
142
0.0
142
0.0
142
0.0
142
1.0
142
0.0
142
0.0
142
0.0
142
0.0
142
1.0
179
     0
144
0.0208333333333333
144
0.0
144
0.0
144
0.0
144
0.0
144
0.0208333333333333
144
0.0
144
0.0
144
0.0
144
0.0
144
1.0
144
0.0
144
0.0
144
0.0
144
0.0
144
1.0
147
0.0208333333333333
147
0.0
147
0.0
147
0.0
147
0.0
147
0.0208333333333333
147
0.0
147
0.0
147
0.0
147
0.0
147
1.0
147
0.0
147
0.0
147
0.0
147
0.0
147
1.0
  0
MLEADERSTYLE
  5
82DA
102
{ACAD_REACTORS
330
82D9
102
}
330
82D9
100
AcDbMLeaderStyle
179
     2
170
     2
171
     1
172
     0
 90
        2
 40
0.0
 41
0.0
173
     1
 91
-1056964608
340
13
 92
       -2
290
     1
 42
2.0
291
     1
 43
0.36
  3
Standard
 44
4.0
300

342
10
174
     1
178
     6
175
     1
176
     0
 93
-1056964608
 45
4.0
292
     0
297
     0
 46
4.0
 94
-1056964608
 47
1.0
 49
1.0
140
1.0
293
     1
141
0.0
294
     1
177
     0
142
1.0
295
     0
296
     0
143
0.125
271
     0
272
     9
273
     9
298
     1
  0
MLINESTYLE
  5
1C
102
{ACAD_REACTORS
330
E
102
}
330
E
100
AcDbMlineStyle
  2
STANDARD
 70
     0
  3

 62
     0
 51
90.0
 52
90.0
 71
     2
 49
0.5
 62
   256
  6
BYLAYER
 49
-0.5
 62
   256
  6
BYLAYER
  0
ACDBPLACEHOLDER
  5
81C9
102
{ACAD_REACTORS
330
81C8
102
}
330
81C8
  0
SCALE
  5
82C8
102
{ACAD_REACTORS
330
82C7
102
}
330
82C7
100
AcDbScale
 70
     0
300
1:1
140
1.0
141
1.0
290
     1
  0
SCALE
  5
82C9
102
{ACAD_REACTORS
330
82C7
102
}
330
82C7
100
AcDbScale
 70
     0
300
1:2
140
1.0
141
2.0
290
     0
  0
SCALE
  5
82CA
102
{ACAD_REACTORS
330
82C7
102
}
330
82C7
100
AcDbScale
 70
     0
300
1:4
140
1.0
141
4.0
290
     0
  0
SCALE
  5
82CB
102
{ACAD_REACTORS
330
82C7
102
}
330
82C7
100
AcDbScale
 70
     0
300
1:5
140
1.0
141
5.0
290
     0
  0
SCALE
  5
82CC
102
{ACAD_REACTORS
330
82C7
102
}
330
82C7
100
AcDbScale
 70
     0
300
1:8
140
1.0
141
8.0
290
     0
  0
SCALE
  5
82CD
102
{ACAD_REACTORS
330
82C7
102
}
330
82C7
100
AcDbScale
 70
     0
300
1:10
140
1.0
141
10.0
290
     0
  0
SCALE
  5
82CE
102
{ACAD_REACTORS
330
82C7
102
}
330
82C7
100
AcDbScale
 70
     0
300
1:16
140
1.0
141
16.0
290
     0
  0
SCALE
  5
82CF
102
{ACAD_REACTORS
330
82C7
102
}
330
82C7
100
AcDbScale
 70
     0
300
1:20
140
1.0
141
20.0
290
     0
  0
SCALE
  5
82D0
102
{ACAD_REACTORS
330
82C7
102
}
330
82C7
100
AcDbScale
 70
     0
300
1:30
140
1.0
141
30.0
290
     0
  0
SCALE
  5
82D1
102
{ACAD_REACTORS
330
82C7
102
}
330
82C7
100
AcDbScale
 70
     0
300
1:40
140
1.0
141
40.0
290
     0
  0
SCALE
  5
82D2
102
{ACAD_REACTORS
330
82C7
102
}
330
82C7
100
AcDbScale
 70
     0
300
1:50
140
1.0
141
50.0
290
     0
  0
SCALE
  5
82D3
102
{ACAD_REACTORS
330
82C7
102
}
330
82C7
100
AcDbScale
 70
     0
300
1:100
140
1.0
141
100.0
290
     0
  0
SCALE
  5
82D4
102
{ACAD_REACTORS
330
82C7
102
}
330
82C7
100
AcDbScale
 70
     0
300
2:1
140
2.0
141
1.0
290
     0
  0
SCALE
  5
82D5
102
{ACAD_REACTORS
330
82C7
102
}
330
82C7
100
AcDbScale
 70
     0
300
4:1
140
4.0
141
1.0
290
     0
  0
SCALE
  5
82D6
102
{ACAD_REACTORS
330
82C7
102
}
330
82C7
100
AcDbScale
 70
     0
300
8:1
140
8.0
141
1.0
290
     0
  0
SCALE
  5
82D7
102
{ACAD_REACTORS
330
82C7
102
}
330
82C7
100
AcDbScale
 70
     0
300
10:1
140
10.0
141
1.0
290
     0
  0
SCALE
  5
82D8
102
{ACAD_REACTORS
330
82C7
102
}
330
82C7
100
AcDbScale
 70
     0
300
100:1
140
100.0
141
1.0
290
     0
  0
ACDBSECTIONVIEWSTYLE
  5
82DC
102
{ACAD_XDICTIONARY
360
834D
102
}
102
{ACAD_REACTORS
330
82DB
102
}
330
82DB
100
AcDbModelDocViewStyle
 70
     0
  3
Metric50
290
     0
100
AcDbSectionViewStyle
 70
     0
 71
     0
 90
      102
 71
     1
340
10
 62
   256
 40
5.0
340
0
340
0
 62
   256
 40
5.0
300
I, O, Q, S, X, Z
 40
10.0
 90
        0
 40
2.5
 90
        0
 71
     2
340
15
 90
       25
 62
   256
340
15
 90
       50
 62
   256
 40
5.0
 40
2.5
 40
5.0
 71
     3
340
10
 62
   256
 40
5.0
 90
        0
 40
15.0
 90
        1
300
%<\AcVar ViewSectionStartId>%-%<\AcVar ViewSectionEndId>% (%<\AcVar ViewScale \f "%sn">%)
 71
     4
 62
   256
 62
   257
300
ANSI31
 40
1.0
 90
        0
290
     0
290
     0
 90
        6
 40
0.0
 40
1.570796326794896
 40
0.2617993877991494
 40
1.308996938995747
 40
-0.2617993877991494
 40
1.832595714594046
  0
TABLESTYLE
  5
82C6
102
{ACAD_XDICTIONARY
360
8342
102
}
102
{ACAD_REACTORS
330
82C5
102
}
330
82C5
100
AcDbTableStyle
280
     0
  3
Standard
 70
     0
 71
     0
 40
1.5
 41
1.5
280
     0
281
     0
  7
STANDARD
140
4.5
170
     2
 62
     0
 63
     7
283
     0
 90
      512
 91
        0
  1

274
    -2
284
     1
 64
     0
275
    -2
285
     1
 65
     0
276
    -2
286
     1
 66
     0
277
    -2
287
     1
 67
     0
278
    -2
288
     1
 68
     0
279
    -2
289
     1
 69
     0
  7
STANDARD
140
6.0
170
     5
 62
     0
 63
     7
283
     0
 90
      512
 91
        0
  1

274
    -2
284
     1
 64
     0
275
    -2
285
     1
 65
     0
276
    -2
286
     1
 66
     0
277
    -2
287
     1
 67
     0
278
    -2
288
     1
 68
     0
279
    -2
289
     1
 69
     0
  7
STANDARD
140
4.5
170
     5
 62
     0
 63
     7
283
     0
 90
      512
 91
        0
  1

274
    -2
284
     1
 64
     0
275
    -2
285
     1
 65
     0
276
    -2
286
     1
 66
     0
277
    -2
287
     1
 67
     0
278
    -2
288
     1
 68
     0
279
    -2
289
     1
 69
     0
  0
VISUALSTYLE
  5
82B1
102
{ACAD_REACTORS
330
82AB
102
}
330
82AB
100
AcDbVisualStyle
  2
2dWireframe
 70
     4
177
     3
291
     0
 70
    58
 90
        0
176
     1
 90
        2
176
     1
 90
        0
176
     1
 90
        0
176
     1
 40
0.6
176
     1
 40
30.0
176
     1
 62
     7
420
 16777215
176
     1
 90
        1
176
     1
 90
        4
176
     1
 62
     7
176
     1
 62
   257
176
     1
 90
        1
176
     1
 90
        1
176
     1
 40
1.0
176
     1
 90
        0
176
     1
 62
   257
176
     1
 40
1.0
176
     1
 90
        1
176
     1
 90
        6
176
     1
 90
        2
176
     1
 62
     7
176
     1
 90
        5
176
     1
 90
        0
176
     1
 90
        0
176
     1
290
     0
176
     1
 90
        1
176
     1
 40
0.0
176
     1
 90
        0
176
     1
290
     1
176
     1
290
     1
176
     1
290
     0
176
     1
290
     0
176
     1
290
     0
176
     1
290
     0
176
     1
290
     0
176
     1
290
     0
176
     1
290
     0
176
     1
 90
       50
176
     1
 40
0.0
176
     1
 40
1.0
176
     1
 90
        0
176
     1
 62
    18
420
        0
176
     1
 90
       50
176
     1
 90
        3
176
     1
 62
     5
420
      255
176
     1
290
     0
176
     1
 90
       50
176
     1
 90
       50
176
     1
 90
       50
176
     1
290
     0
176
     1
 90
       50
176
     1
 62
   256
176
     0
 40
1.0
176
     0
 90
        2
176
     1
  1
strokes_ogs.tif
176
     1
290
     0
176
     1
 40
1.0
176
     1
 40
1.0
176
     1
1001
ACAD
1000
AcDbSavedByObjectVersion
1070
     0
  0
VISUALSTYLE
  5
82B0
102
{ACAD_REACTORS
330
82AB
102
}
330
82AB
100
AcDbVisualStyle
  2
Basic
 70
     7
177
     3
291
     1
 70
    58
 90
        1
176
     1
 90
        0
176
     1
 90
        1
176
     1
 90
        0
176
     1
 40
0.6
176
     1
 40
30.0
176
     1
 62
     7
420
 16777215
176
     1
 90
        0
176
     1
 90
        4
176
     1
 62
     7
176
     1
 62
   257
176
     1
 90
        1
176
     1
 90
        1
176
     1
 40
1.0
176
     1
 90
        8
176
     1
 62
     7
176
     1
 40
1.0
176
     1
 90
        1
176
     1
 90
        6
176
     1
 90
        2
176
     1
 62
     7
176
     1
 90
        5
176
     1
 90
        0
176
     1
 90
        0
176
     1
290
     0
176
     1
 90
        1
176
     1
 40
0.0
176
     1
 90
        0
176
     1
290
     0
176
     1
290
     1
176
     1
290
     1
176
     1
290
     0
176
     1
290
     0
176
     1
290
     0
176
     1
290
     0
176
     1
290
     0
176
     1
290
     0
176
     1
 90
       50
176
     1
 40
0.0
176
     1
 40
1.0
176
     1
 90
        0
176
     1
 62
    18
420
        0
176
     1
 90
       50
176
     1
 90
        3
176
     1
 62
     5
420
      255
176
     1
290
     0
176
     1
 90
       50
176
     1
 90
       50
176
     1
 90
       50
176
     1
290
     0
176
     1
 90
       50
176
     1
 62
   256
176
     0
 40
1.0
176
     0
 90
        2
176
     1
  1
strokes_ogs.tif
176
     1
290
     0
176
     1
 40
1.0
176
     1
 40
1.0
176
     1
1001
ACAD
1000
AcDbSavedByObjectVersion
1070
     0
  0
VISUALSTYLE
  5
82B7
102
{ACAD_REACTORS
330
82AB
102
}
330
82AB
100
AcDbVisualStyle
  2
Brighten
 70
    12
177
     3
291
     1
 70
    58
 90
        2
176
     1
 90
        2
176
     1
 90
        0
176
     1
 90
        0
176
     1
 40
0.6
176
     1
 40
30.0
176
     1
 62
     7
420
 16777215
176
     1
 90
        1
176
     1
 90
        4
176
     1
 62
     7
176
     1
 62
   257
176
     1
 90
        1
176
     1
 90
        1
176
     1
 40
1.0
176
     1
 90
        8
176
     1
 62
     7
176
     1
 40
1.0
176
     1
 90
        1
176
     1
 90
        6
176
     1
 90
        2
176
     1
 62
     7
176
     1
 90
        5
176
     1
 90
        0
176
     1
 90
        0
176
     1
290
     0
176
     1
 90
        1
176
     1
 40
50.0
176
     1
 90
        0
176
     1
290
     0
176
     1
290
     1
176
     1
290
     1
176
     1
290
     0
176
     1
290
     0
176
     1
290
     0
176
     1
290
     0
176
     1
290
     0
176
     1
290
     0
176
     1
 90
       50
176
     1
 40
0.0
176
     1
 40
1.0
176
     1
 90
        0
176
     1
 62
    18
420
        0
176
     1
 90
       50
176
     1
 90
        3
176
     1
 62
     5
420
      255
176
     1
290
     0
176
     1
 90
       50
176
     1
 90
       50
176
     1
 90
       50
176
     1
290
     0
176
     1
 90
       50
176
     1
 62
   256
176
     0
 40
1.0
176
     0
 90
        2
176
     1
  1
strokes_ogs.tif
176
     1
290
     0
176
     1
 40
1.0
176
     1
 40
1.0
176
     1
1001
ACAD
1000
AcDbSavedByObjectVersion
1070
     0
  0
VISUALSTYLE
  5
82BB
102
{ACAD_REACTORS
330
82AB
102
}
330
82AB
100
AcDbVisualStyle
  2
ColorChange
 70
    16
177
     3
291
     1
 70
    58
 90
        2
176
     1
 90
        2
176
     1
 90
        3
176
     1
 90
        0
176
     1
 40
0.6
176
     1
 40
30.0
176
     1
 62
     8
420
  8421504
176
     1
 90
        1
176
     1
 90
        4
176
     1
 62
     7
176
     1
 62
   257
176
     1
 90
        1
176
     1
 90
        1
176
     1
 40
1.0
176
     1
 90
        8
176
     1
 62
     8
420
  8421504
176
     1
 40
1.0
176
     1
 90
        1
176
     1
 90
        6
176
     1
 90
        2
176
     1
 62
     7
176
     1
 90
        5
176
     1
 90
        0
176
     1
 90
        0
176
     1
290
     0
176
     1
 90
        1
176
     1
 40
0.0
176
     1
 90
        0
176
     1
290
     0
176
     1
290
     1
176
     1
290
     1
176
     1
290
     0
176
     1
290
     0
176
     1
290
     0
176
     1
290
     0
176
     1
290
     0
176
     1
290
     0
176
     1
 90
       50
176
     1
 40
0.0
176
     1
 40
1.0
176
     1
 90
        0
176
     1
 62
    18
420
        0
176
     1
 90
       50
176
     1
 90
        3
176
     1
 62
     5
420
      255
176
     1
290
     0
176
     1
 90
       50
176
     1
 90
       50
176
     1
 90
       50
176
     1
290
     0
176
     1
 90
       50
176
     1
 62
   256
176
     0
 40
1.0
176
     0
 90
        2
176
     1
  1
strokes_ogs.tif
176
     1
290
     0
176
     1
 40
1.0
176
     1
 40
1.0
176
     1
1001
ACAD
1000
AcDbSavedByObjectVersion
1070
     0
  0
VISUALSTYLE
  5
82B4
102
{ACAD_REACTORS
330
82AB
102
}
330
82AB
100
AcDbVisualStyle
  2
Conceptual
 70
     9
177
     3
291
     0
 70
    58
 90
        3
176
     1
 90
        2
176
     1
 90
        0
176
     1
 90
        0
176
     1
 40
0.6
176
     1
 40
30.0
176
     1
 62
     7
420
 16777215
176
     1
 90
        2
176
     1
 90
        2
176
     1
 62
     7
176
     1
 62
   257
176
     1
 90
        1
176
     1
 90
        1
176
     1
 40
179.0
176
     1
 90
        8
176
     1
 62
     7
176
     1
 40
1.0
176
     1
 90
        1
176
     1
 90
        6
176
     1
 90
        2
176
     1
 62
     7
176
     1
 90
        3
176
     1
 90
        0
176
     1
 90
        0
176
     1
290
     0
176
     1
 90
        1
176
     1
 40
0.0
176
     1
 90
        0
176
     1
290
     0
176
     1
290
     1
176
     1
290
     1
176
     1
290
     0
176
     1
290
     0
176
     1
290
     0
176
     1
290
     0
176
     1
290
     0
176
     1
290
     0
176
     1
 90
       50
176
     1
 40
0.0
176
     1
 40
1.0
176
     1
 90
        0
176
     1
 62
    18
420
        0
176
     1
 90
       50
176
     1
 90
        3
176
     1
 62
     5
420
      255
176
     1
290
     0
176
     1
 90
       50
176
     1
 90
       50
176
     1
 90
       50
176
     1
290
     0
176
     1
 90
       50
176
     1
 62
   256
176
     0
 40
1.0
176
     0
 90
        2
176
     1
  1
strokes_ogs.tif
176
     1
290
     0
176
     1
 40
1.0
176
     1
 40
1.0
176
     1
1001
ACAD
1000
AcDbSavedByObjectVersion
1070
     0
  0
VISUALSTYLE
  5
82B6
102
{ACAD_REACTORS
330
82AB
102
}
330
82AB
100
AcDbVisualStyle
  2
Dim
 70
    11
177
     3
291
     1
 70
    58
 90
        2
176
     1
 90
        2
176
     1
 90
        0
176
     1
 90
        0
176
     1
 40
0.6
176
     1
 40
30.0
176
     1
 62
     7
420
 16777215
176
     1
 90
        1
176
     1
 90
        4
176
     1
 62
     7
176
     1
 62
   257
176
     1
 90
        1
176
     1
 90
        1
176
     1
 40
1.0
176
     1
 90
        8
176
     1
 62
     7
176
     1
 40
1.0
176
     1
 90
        1
176
     1
 90
        6
176
     1
 90
        2
176
     1
 62
     7
176
     1
 90
        5
176
     1
 90
        0
176
     1
 90
        0
176
     1
290
     0
176
     1
 90
        1
176
     1
 40
-50.0
176
     1
 90
        0
176
     1
290
     0
176
     1
290
     1
176
     1
290
     1
176
     1
290
     0
176
     1
290
     0
176
     1
290
     0
176
     1
290
     0
176
     1
290
     0
176
     1
290
     0
176
     1
 90
       50
176
     1
 40
0.0
176
     1
 40
1.0
176
     1
 90
        0
176
     1
 62
    18
420
        0
176
     1
 90
       50
176
     1
 90
        3
176
     1
 62
     5
420
      255
176
     1
290
     0
176
     1
 90
       50
176
     1
 90
       50
176
     1
 90
       50
176
     1
290
     0
176
     1
 90
       50
176
     1
 62
   256
176
     0
 40
1.0
176
     0
 90
        2
176
     1
  1
strokes_ogs.tif
176
     1
290
     0
176
     1
 40
1.0
176
     1
 40
1.0
176
     1
1001
ACAD
1000
AcDbSavedByObjectVersion
1070
     0
  0
VISUALSTYLE
  5
82C3
102
{ACAD_REACTORS
330
82AB
102
}
330
82AB
100
AcDbVisualStyle
  2
EdgeColorOff
 70
    22
177
     3
291
     1
 70
    58
 90
        2
176
     0
 90
        2
176
     0
 90
        0
176
     0
 90
        0
176
     0
 40
0.6
176
     0
 40
30.0
176
     0
 62
     7
420
 16777215
176
     0
 90
        1
176
     0
 90
        4
176
     0
 62
     7
176
     0
 62
   257
176
     0
 90
        1
176
     0
 90
        1
176
     0
 40
1.0
176
     0
 90
        8
176
     2
 62
     7
176
     0
 40
1.0
176
     0
 90
        1
176
     0
 90
        6
176
     0
 90
        2
176
     0
 62
     7
176
     0
 90
        5
176
     0
 90
        0
176
     0
 90
        0
176
     0
290
     0
176
     0
 90
        1
176
     0
 40
0.0
176
     0
 90
        0
176
     0
290
     0
176
     0
290
     1
176
     0
290
     1
176
     0
290
     0
176
     0
290
     0
176
     0
290
     0
176
     0
290
     0
176
     0
290
     0
176
     0
290
     0
176
     0
 90
       50
176
     0
 40
0.0
176
     0
 40
1.0
176
     0
 90
        0
176
     0
 62
    18
420
        0
176
     0
 90
       50
176
     0
 90
        3
176
     0
 62
     5
420
      255
176
     0
290
     0
176
     0
 90
       50
176
     0
 90
       50
176
     0
 90
       50
176
     0
290
     0
176
     0
 90
       50
176
     0
 62
   256
176
     0
 40
1.0
176
     0
 90
        2
176
     0
  1
strokes_ogs.tif
176
     0
290
     0
176
     0
 40
1.0
176
     0
 40
1.0
176
     0
1001
ACAD
1000
AcDbSavedByObjectVersion
1070
     0
  0
VISUALSTYLE
  5
82BA
102
{ACAD_REACTORS
330
82AB
102
}
330
82AB
100
AcDbVisualStyle
  2
Facepattern
 70
    15
177
     3
291
     1
 70
    58
 90
        2
176
     1
 90
        2
176
     1
 90
        0
176
     1
 90
        0
176
     1
 40
0.6
176
     1
 40
30.0
176
     1
 62
     7
420
 16777215
176
     1
 90
        1
176
     1
 90
        4
176
     1
 62
     7
176
     1
 62
   257
176
     1
 90
        1
176
     1
 90
        1
176
     1
 40
1.0
176
     1
 90
        8
176
     1
 62
     7
176
     1
 40
1.0
176
     1
 90
        1
176
     1
 90
        6
176
     1
 90
        2
176
     1
 62
     7
176
     1
 90
        5
176
     1
 90
        0
176
     1
 90
        0
176
     1
290
     0
176
     1
 90
        1
176
     1
 40
0.0
176
     1
 90
        0
176
     1
290
     0
176
     1
290
     1
176
     1
290
     1
176
     1
290
     0
176
     1
290
     0
176
     1
290
     0
176
     1
290
     0
176
     1
290
     0
176
     1
290
     0
176
     1
 90
       50
176
     1
 40
0.0
176
     1
 40
1.0
176
     1
 90
        0
176
     1
 62
    18
420
        0
176
     1
 90
       50
176
     1
 90
        3
176
     1
 62
     5
420
      255
176
     1
290
     0
176
     1
 90
       50
176
     1
 90
       50
176
     1
 90
       50
176
     1
290
     0
176
     1
 90
       50
176
     1
 62
   256
176
     0
 40
1.0
176
     0
 90
        2
176
     1
  1
strokes_ogs.tif
176
     1
290
     0
176
     1
 40
1.0
176
     1
 40
1.0
176
     1
1001
ACAD
1000
AcDbSavedByObjectVersion
1070
     0
  0
VISUALSTYLE
  5
82AC
102
{ACAD_REACTORS
330
82AB
102
}
330
82AB
100
AcDbVisualStyle
  2
Flat
 70
     0
177
     3
291
     1
 70
    58
 90
        2
176
     1
 90
        1
176
     1
 90
        1
176
     1
 90
        2
176
     1
 40
0.6
176
     1
 40
30.0
176
     1
 62
     7
420
 16777215
176
     1
 90
        0
176
     1
 90
        0
176
     1
 62
     7
176
     1
 62
   257
176
     1
 90
        1
176
     1
 90
        1
176
     1
 40
1.0
176
     1
 90
        8
176
     1
 62
     7
176
     1
 40
1.0
176
     1
 90
        1
176
     1
 90
        6
176
     1
 90
        2
176
     1
 62
     7
176
     1
 90
        5
176
     1
 90
        0
176
     1
 90
        0
176
     1
290
     0
176
     1
 90
       13
176
     1
 40
0.0
176
     1
 90
        0
176
     1
290
     0
176
     1
290
     1
176
     1
290
     1
176
     1
290
     0
176
     1
290
     0
176
     1
290
     0
176
     1
290
     0
176
     1
290
     0
176
     1
290
     0
176
     1
 90
       50
176
     1
 40
0.0
176
     1
 40
1.0
176
     1
 90
        0
176
     1
 62
    18
420
        0
176
     1
 90
       50
176
     1
 90
        3
176
     1
 62
     5
420
      255
176
     1
290
     0
176
     1
 90
       50
176
     1
 90
       50
176
     1
 90
       50
176
     1
290
     0
176
     1
 90
       50
176
     1
 62
   256
176
     0
 40
1.0
176
     0
 90
        2
176
     1
  1
strokes_ogs.tif
176
     1
290
     0
176
     1
 40
1.0
176
     1
 40
1.0
176
     1
1001
ACAD
1000
AcDbSavedByObjectVersion
1070
     0
  0
VISUALSTYLE
  5
82AD
102
{ACAD_REACTORS
330
82AB
102
}
330
82AB
100
AcDbVisualStyle
  2
FlatWithEdges
 70
     1
177
     3
291
     1
 70
    58
 90
        2
176
     1
 90
        1
176
     1
 90
        1
176
     1
 90
        2
176
     1
 40
0.6
176
     1
 40
30.0
176
     1
 62
     7
420
 16777215
176
     1
 90
        1
176
     1
 90
        0
176
     1
 62
     7
176
     1
 62
   257
176
     1
 90
        1
176
     1
 90
        1
176
     1
 40
1.0
176
     1
 90
        0
176
     1
 62
   257
176
     1
 40
1.0
176
     1
 90
        1
176
     1
 90
        6
176
     1
 90
        2
176
     1
 62
     7
176
     1
 90
        5
176
     1
 90
        0
176
     1
 90
        0
176
     1
290
     0
176
     1
 90
       13
176
     1
 40
0.0
176
     1
 90
        0
176
     1
290
     0
176
     1
290
     1
176
     1
290
     1
176
     1
290
     0
176
     1
290
     0
176
     1
290
     0
176
     1
290
     0
176
     1
290
     0
176
     1
290
     0
176
     1
 90
       50
176
     1
 40
0.0
176
     1
 40
1.0
176
     1
 90
        0
176
     1
 62
    18
420
        0
176
     1
 90
       50
176
     1
 90
        3
176
     1
 62
     5
420
      255
176
     1
290
     0
176
     1
 90
       50
176
     1
 90
       50
176
     1
 90
       50
176
     1
290
     0
176
     1
 90
       50
176
     1
 62
   256
176
     0
 40
1.0
176
     0
 90
        2
176
     1
  1
strokes_ogs.tif
176
     1
290
     0
176
     1
 40
1.0
176
     1
 40
1.0
176
     1
1001
ACAD
1000
AcDbSavedByObjectVersion
1070
     0
  0
VISUALSTYLE
  5
82AE
102
{ACAD_REACTORS
330
82AB
102
}
330
82AB
100
AcDbVisualStyle
  2
Gouraud
 70
     2
177
     3
291
     1
 70
    58
 90
        2
176
     1
 90
        2
176
     1
 90
        1
176
     1
 90
        2
176
     1
 40
0.6
176
     1
 40
30.0
176
     1
 62
     7
420
 16777215
176
     1
 90
        0
176
     1
 90
        0
176
     1
 62
     7
176
     1
 62
   257
176
     1
 90
        1
176
     1
 90
        1
176
     1
 40
1.0
176
     1
 90
        0
176
     1
 62
     7
176
     1
 40
1.0
176
     1
 90
        1
176
     1
 90
        6
176
     1
 90
        2
176
     1
 62
     7
176
     1
 90
        5
176
     1
 90
        0
176
     1
 90
        0
176
     1
290
     0
176
     1
 90
       13
176
     1
 40
0.0
176
     1
 90
        0
176
     1
290
     0
176
     1
290
     1
176
     1
290
     1
176
     1
290
     0
176
     1
290
     0
176
     1
290
     0
176
     1
290
     0
176
     1
290
     0
176
     1
290
     0
176
     1
 90
       50
176
     1
 40
0.0
176
     1
 40
1.0
176
     1
 90
        0
176
     1
 62
    18
420
        0
176
     1
 90
       50
176
     1
 90
        3
176
     1
 62
     5
420
      255
176
     1
290
     0
176
     1
 90
       50
176
     1
 90
       50
176
     1
 90
       50
176
     1
290
     0
176
     1
 90
       50
176
     1
 62
   256
176
     0
 40
1.0
176
     0
 90
        2
176
     1
  1
strokes_ogs.tif
176
     1
290
     0
176
     1
 40
1.0
176
     1
 40
1.0
176
     1
1001
ACAD
1000
AcDbSavedByObjectVersion
1070
     0
  0
VISUALSTYLE
  5
82AF
102
{ACAD_REACTORS
330
82AB
102
}
330
82AB
100
AcDbVisualStyle
  2
GouraudWithEdges
 70
     3
177
     3
291
     1
 70
    58
 90
        2
176
     1
 90
        2
176
     1
 90
        1
176
     1
 90
        2
176
     1
 40
0.6
176
     1
 40
30.0
176
     1
 62
     7
420
 16777215
176
     1
 90
        1
176
     1
 90
        0
176
     1
 62
     7
176
     1
 62
   257
176
     1
 90
        1
176
     1
 90
        1
176
     1
 40
1.0
176
     1
 90
        0
176
     1
 62
   257
176
     1
 40
1.0
176
     1
 90
        1
176
     1
 90
        6
176
     1
 90
        2
176
     1
 62
     7
176
     1
 90
        5
176
     1
 90
        0
176
     1
 90
        0
176
     1
290
     0
176
     1
 90
       13
176
     1
 40
0.0
176
     1
 90
        0
176
     1
290
     0
176
     1
290
     1
176
     1
290
     1
176
     1
290
     0
176
     1
290
     0
176
     1
290
     0
176
     1
290
     0
176
     1
290
     0
176
     1
290
     0
176
     1
 90
       50
176
     1
 40
0.0
176
     1
 40
1.0
176
     1
 90
        0
176
     1
 62
    18
420
        0
176
     1
 90
       50
176
     1
 90
        3
176
     1
 62
     5
420
      255
176
     1
290
     0
176
     1
 90
       50
176
     1
 90
       50
176
     1
 90
       50
176
     1
290
     0
176
     1
 90
       50
176
     1
 62
   256
176
     0
 40
1.0
176
     0
 90
        2
176
     1
  1
strokes_ogs.tif
176
     1
290
     0
176
     1
 40
1.0
176
     1
 40
1.0
176
     1
1001
ACAD
1000
AcDbSavedByObjectVersion
1070
     0
  0
VISUALSTYLE
  5
82B3
102
{ACAD_REACTORS
330
82AB
102
}
330
82AB
100
AcDbVisualStyle
  2
Hidden
 70
     6
177
     3
291
     0
 70
    58
 90
        1
176
     1
 90
        2
176
     1
 90
        2
176
     1
 90
        0
176
     1
 40
0.6
176
     1
 40
30.0
176
     1
 62
     7
420
 16777215
176
     1
 90
        2
176
     1
 90
        2
176
     1
 62
     7
176
     1
 62
   257
176
     1
 90
        2
176
     1
 90
        1
176
     1
 40
40.0
176
     1
 90
        0
176
     1
 62
   257
176
     1
 40
1.0
176
     1
 90
        1
176
     1
 90
        6
176
     1
 90
        2
176
     1
 62
     7
176
     1
 90
        3
176
     1
 90
        0
176
     1
 90
        0
176
     1
290
     0
176
     1
 90
        1
176
     1
 40
0.0
176
     1
 90
        0
176
     1
290
     0
176
     1
290
     1
176
     1
290
     1
176
     1
290
     0
176
     1
290
     0
176
     1
290
     0
176
     1
290
     0
176
     1
290
     0
176
     1
290
     0
176
     1
 90
       50
176
     1
 40
0.0
176
     1
 40
1.0
176
     1
 90
        0
176
     1
 62
    18
420
        0
176
     1
 90
       50
176
     1
 90
        3
176
     1
 62
     5
420
      255
176
     1
290
     0
176
     1
 90
       50
176
     1
 90
       50
176
     1
 90
       50
176
     1
290
     0
176
     1
 90
       50
176
     1
 62
   256
176
     0
 40
1.0
176
     0
 90
        2
176
     1
  1
strokes_ogs.tif
176
     1
290
     0
176
     1
 40
1.0
176
     1
 40
1.0
176
     1
1001
ACAD
1000
AcDbSavedByObjectVersion
1070
     0
  0
VISUALSTYLE
  5
82C1
102
{ACAD_REACTORS
330
82AB
102
}
330
82AB
100
AcDbVisualStyle
  2
JitterOff
 70
    20
177
     3
291
     1
 70
    58
 90
        2
176
     0
 90
        2
176
     0
 90
        0
176
     0
 90
        0
176
     0
 40
0.6
176
     0
 40
30.0
176
     0
 62
     7
420
 16777215
176
     0
 90
        1
176
     0
 90
        4
176
     0
 62
     7
176
     0
 62
   257
176
     0
 90
        1
176
     0
 90
        1
176
     0
 40
1.0
176
     0
 90
       10
176
     2
 62
     7
176
     0
 40
1.0
176
     0
 90
        1
176
     0
 90
        6
176
     0
 90
        2
176
     0
 62
     7
176
     0
 90
        5
176
     0
 90
        0
176
     0
 90
        0
176
     0
290
     0
176
     0
 90
        1
176
     0
 40
0.0
176
     0
 90
        0
176
     0
290
     0
176
     0
290
     1
176
     0
290
     1
176
     0
290
     0
176
     0
290
     0
176
     0
290
     0
176
     0
290
     0
176
     0
290
     0
176
     0
290
     0
176
     0
 90
       50
176
     0
 40
0.0
176
     0
 40
1.0
176
     0
 90
        0
176
     0
 62
    18
420
        0
176
     0
 90
       50
176
     0
 90
        3
176
     0
 62
     5
420
      255
176
     0
290
     0
176
     0
 90
       50
176
     0
 90
       50
176
     0
 90
       50
176
     0
290
     0
176
     0
 90
       50
176
     0
 62
   256
176
     0
 40
1.0
176
     0
 90
        2
176
     0
  1
strokes_ogs.tif
176
     0
290
     0
176
     0
 40
1.0
176
     0
 40
1.0
176
     0
1001
ACAD
1000
AcDbSavedByObjectVersion
1070
     0
  0
VISUALSTYLE
  5
82B9
102
{ACAD_REACTORS
330
82AB
102
}
330
82AB
100
AcDbVisualStyle
  2
Linepattern
 70
    14
177
     3
291
     1
 70
    58
 90
        2
176
     1
 90
        2
176
     1
 90
        0
176
     1
 90
        0
176
     1
 40
0.6
176
     1
 40
30.0
176
     1
 62
     7
420
 16777215
176
     1
 90
        1
176
     1
 90
        4
176
     1
 62
     7
176
     1
 62
   257
176
     1
 90
        7
176
     1
 90
        7
176
     1
 40
1.0
176
     1
 90
        8
176
     1
 62
     7
176
     1
 40
1.0
176
     1
 90
        1
176
     1
 90
        6
176
     1
 90
        2
176
     1
 62
     7
176
     1
 90
        5
176
     1
 90
        0
176
     1
 90
        0
176
     1
290
     0
176
     1
 90
        1
176
     1
 40
0.0
176
     1
 90
        0
176
     1
290
     0
176
     1
290
     1
176
     1
290
     1
176
     1
290
     0
176
     1
290
     0
176
     1
290
     0
176
     1
290
     0
176
     1
290
     0
176
     1
290
     0
176
     1
 90
       50
176
     1
 40
0.0
176
     1
 40
1.0
176
     1
 90
        0
176
     1
 62
    18
420
        0
176
     1
 90
       50
176
     1
 90
        3
176
     1
 62
     5
420
      255
176
     1
290
     0
176
     1
 90
       50
176
     1
 90
       50
176
     1
 90
       50
176
     1
290
     0
176
     1
 90
       50
176
     1
 62
   256
176
     0
 40
1.0
176
     0
 90
        2
176
     1
  1
strokes_ogs.tif
176
     1
290
     0
176
     1
 40
1.0
176
     1
 40
1.0
176
     1
1001
ACAD
1000
AcDbSavedByObjectVersion
1070
     0
  0
VISUALSTYLE
  5
82C2
102
{ACAD_REACTORS
330
82AB
102
}
330
82AB
100
AcDbVisualStyle
  2
OverhangOff
 70
    21
177
     3
291
     1
 70
    58
 90
        2
176
     0
 90
        2
176
     0
 90
        0
176
     0
 90
        0
176
     0
 40
0.6
176
     0
 40
30.0
176
     0
 62
     7
420
 16777215
176
     0
 90
        1
176
     0
 90
        4
176
     0
 62
     7
176
     0
 62
   257
176
     0
 90
        1
176
     0
 90
        1
176
     0
 40
1.0
176
     0
 90
        9
176
     2
 62
     7
176
     0
 40
1.0
176
     0
 90
        1
176
     0
 90
        6
176
     0
 90
        2
176
     0
 62
     7
176
     0
 90
        5
176
     0
 90
        0
176
     0
 90
        0
176
     0
290
     0
176
     0
 90
        1
176
     0
 40
0.0
176
     0
 90
        0
176
     0
290
     0
176
     0
290
     1
176
     0
290
     1
176
     0
290
     0
176
     0
290
     0
176
     0
290
     0
176
     0
290
     0
176
     0
290
     0
176
     0
290
     0
176
     0
 90
       50
176
     0
 40
0.0
176
     0
 40
1.0
176
     0
 90
        0
176
     0
 62
    18
420
        0
176
     0
 90
       50
176
     0
 90
        3
176
     0
 62
     5
420
      255
176
     0
290
     0
176
     0
 90
       50
176
     0
 90
       50
176
     0
 90
       50
176
     0
290
     0
176
     0
 90
       50
176
     0
 62
   256
176
     0
 40
1.0
176
     0
 90
        2
176
     0
  1
strokes_ogs.tif
176
     0
290
     0
176
     0
 40
1.0
176
     0
 40
1.0
176
     0
1001
ACAD
1000
AcDbSavedByObjectVersion
1070
     0
  0
VISUALSTYLE
  5
82B5
102
{ACAD_REACTORS
330
82AB
102
}
330
82AB
100
AcDbVisualStyle
  2
Realistic
 70
     8
177
     3
291
     0
 70
    58
 90
        2
176
     1
 90
        3
176
     1
 90
        0
176
     1
 90
        2
176
     1
 40
0.6
176
     1
 40
30.0
176
     1
 62
     7
420
 16777215
176
     1
 90
        0
176
     1
 90
        0
176
     1
 62
     7
176
     1
 62
   257
176
     1
 90
        1
176
     1
 90
        1
176
     1
 40
1.0
176
     1
 90
        8
176
     1
 62
   257
176
     1
 40
1.0
176
     1
 90
        1
176
     1
 90
        6
176
     1
 90
        2
176
     1
 62
     7
176
     1
 90
        3
176
     1
 90
        0
176
     1
 90
        0
176
     1
290
     0
176
     1
 90
       13
176
     1
 40
0.0
176
     1
 90
        0
176
     1
290
     0
176
     1
290
     1
176
     1
290
     1
176
     1
290
     0
176
     1
290
     0
176
     1
290
     0
176
     1
290
     0
176
     1
290
     0
176
     1
290
     0
176
     1
 90
       50
176
     1
 40
0.0
176
     1
 40
1.0
176
     1
 90
        0
176
     1
 62
    18
420
        0
176
     1
 90
       50
176
     1
 90
        3
176
     1
 62
     5
420
      255
176
     1
290
     0
176
     1
 90
       50
176
     1
 90
       50
176
     1
 90
       50
176
     1
290
     0
176
     1
 90
       50
176
     1
 62
   256
176
     0
 40
1.0
176
     0
 90
        2
176
     1
  1
strokes_ogs.tif
176
     1
290
     0
176
     1
 40
1.0
176
     1
 40
1.0
176
     1
1001
ACAD
1000
AcDbSavedByObjectVersion
1070
     0
  0
VISUALSTYLE
  5
82C0
102
{ACAD_REACTORS
330
82AB
102
}
330
82AB
100
AcDbVisualStyle
  2
Shaded
 70
    27
177
     3
291
     0
 70
    58
 90
        2
176
     1
 90
        2
176
     1
 90
        1
176
     1
 90
        2
176
     1
 40
0.6
176
     1
 40
30.0
176
     1
 62
     7
420
 16777215
176
     1
 90
        0
176
     1
 90
        4
176
     1
 62
     7
176
     1
 62
   257
176
     1
 90
        1
176
     1
 90
        1
176
     1
 40
1.0
176
     1
 90
        8
176
     1
 62
   257
176
     1
 40
1.0
176
     1
 90
        1
176
     1
 90
        6
176
     1
 90
        2
176
     1
 62
     8
420
  7895160
176
     1
 90
        3
176
     1
 90
        0
176
     1
 90
        0
176
     1
290
     0
176
     1
 90
        5
176
     1
 40
0.0
176
     1
 90
        0
176
     1
290
     0
176
     1
290
     1
176
     1
290
     1
176
     1
290
     0
176
     1
290
     0
176
     1
290
     0
176
     1
290
     0
176
     1
290
     0
176
     1
290
     0
176
     1
 90
       50
176
     1
 40
0.0
176
     1
 40
1.0
176
     1
 90
        0
176
     1
 62
    18
420
        0
176
     1
 90
       50
176
     1
 90
        3
176
     1
 62
     5
420
      255
176
     1
290
     0
176
     1
 90
       50
176
     1
 90
       50
176
     1
 90
       50
176
     1
290
     0
176
     1
 90
       50
176
     1
 62
   256
176
     0
 40
1.0
176
     0
 90
        2
176
     1
  1
strokes_ogs.tif
176
     1
290
     0
176
     1
 40
1.0
176
     1
 40
1.0
176
     1
1001
ACAD
1000
AcDbSavedByObjectVersion
1070
     0
  0
VISUALSTYLE
  5
82BF
102
{ACAD_REACTORS
330
82AB
102
}
330
82AB
100
AcDbVisualStyle
  2
Shaded with edges
 70
    26
177
     3
291
     0
 70
    58
 90
        2
176
     1
 90
        2
176
     1
 90
        1
176
     1
 90
        2
176
     1
 40
0.6
176
     1
 40
30.0
176
     1
 62
     7
420
 16777215
176
     1
 90
        1
176
     1
 90
        2
176
     1
 62
     7
176
     1
 62
   257
176
     1
 90
        2
176
     1
 90
        1
176
     1
 40
1.0
176
     1
 90
        8
176
     1
 62
   257
176
     1
 40
1.0
176
     1
 90
        1
176
     1
 90
        6
176
     1
 90
        2
176
     1
 62
     7
176
     1
 90
        3
176
     1
 90
        0
176
     1
 90
        0
176
     1
290
     0
176
     1
 90
        5
176
     1
 40
0.0
176
     1
 90
        0
176
     1
290
     0
176
     1
290
     1
176
     1
290
     1
176
     1
290
     0
176
     1
290
     0
176
     1
290
     0
176
     1
290
     0
176
     1
290
     0
176
     1
290
     0
176
     1
 90
       50
176
     1
 40
0.0
176
     1
 40
1.0
176
     1
 90
        0
176
     1
 62
    18
420
        0
176
     1
 90
       50
176
     1
 90
        3
176
     1
 62
     5
420
      255
176
     1
290
     0
176
     1
 90
       50
176
     1
 90
       50
176
     1
 90
       50
176
     1
290
     0
176
     1
 90
       50
176
     1
 62
   256
176
     0
 40
1.0
176
     0
 90
        2
176
     1
  1
strokes_ogs.tif
176
     1
290
     0
176
     1
 40
1.0
176
     1
 40
1.0
176
     1
1001
ACAD
1000
AcDbSavedByObjectVersion
1070
     0
  0
VISUALSTYLE
  5
82BC
102
{ACAD_REACTORS
330
82AB
102
}
330
82AB
100
AcDbVisualStyle
  2
Shades of Gray
 70
    23
177
     3
291
     0
 70
    58
 90
        2
176
     1
 90
        2
176
     1
 90
        3
176
     1
 90
        0
176
     1
 40
0.6
176
     1
 40
30.0
176
     1
 62
     7
420
 16777215
176
     1
 90
        2
176
     1
 90
        2
176
     1
 62
     7
176
     1
 62
     7
176
     1
 90
        1
176
     1
 90
        1
176
     1
 40
40.0
176
     1
 90
        8
176
     1
 62
     7
176
     1
 40
1.0
176
     1
 90
        1
176
     1
 90
        6
176
     1
 90
        2
176
     1
 62
     7
176
     1
 90
        3
176
     1
 90
        0
176
     1
 90
        0
176
     1
290
     0
176
     1
 90
        1
176
     1
 40
0.0
176
     1
 90
        0
176
     1
290
     0
176
     1
290
     1
176
     1
290
     1
176
     1
290
     0
176
     1
290
     0
176
     1
290
     0
176
     1
290
     0
176
     1
290
     0
176
     1
290
     0
176
     1
 90
       50
176
     1
 40
0.0
176
     1
 40
1.0
176
     1
 90
        0
176
     1
 62
    18
420
        0
176
     1
 90
       50
176
     1
 90
        3
176
     1
 62
     5
420
      255
176
     1
290
     0
176
     1
 90
       50
176
     1
 90
       50
176
     1
 90
       50
176
     1
290
     0
176
     1
 90
       50
176
     1
 62
   256
176
     0
 40
1.0
176
     0
 90
        2
176
     1
  1
strokes_ogs.tif
176
     1
290
     0
176
     1
 40
1.0
176
     1
 40
1.0
176
     1
1001
ACAD
1000
AcDbSavedByObjectVersion
1070
     0
  0
VISUALSTYLE
  5
82BD
102
{ACAD_REACTORS
330
82AB
102
}
330
82AB
100
AcDbVisualStyle
  2
Sketchy
 70
    24
177
     3
291
     0
 70
    58
 90
        1
176
     1
 90
        2
176
     1
 90
        2
176
     1
 90
        0
176
     1
 40
0.6
176
     1
 40
30.0
176
     1
 62
     7
420
 16777215
176
     1
 90
        2
176
     1
 90
        2
176
     1
 62
     7
176
     1
 62
     7
176
     1
 90
        1
176
     1
 90
        1
176
     1
 40
40.0
176
     1
 90
       11
176
     1
 62
     7
176
     1
 40
1.0
176
     1
 90
        1
176
     1
 90
        6
176
     1
 90
        2
176
     1
 62
     7
176
     1
 90
        6
176
     1
 90
        0
176
     1
 90
        0
176
     1
290
     0
176
     1
 90
        1
176
     1
 40
0.0
176
     1
 90
        0
176
     1
290
     0
176
     1
290
     1
176
     1
290
     1
176
     1
290
     0
176
     1
290
     0
176
     1
290
     0
176
     1
290
     0
176
     1
290
     0
176
     1
290
     0
176
     1
 90
       50
176
     1
 40
0.0
176
     1
 40
1.0
176
     1
 90
        0
176
     1
 62
    18
420
        0
176
     1
 90
       50
176
     1
 90
        3
176
     1
 62
     5
420
      255
176
     1
290
     0
176
     1
 90
       50
176
     1
 90
       50
176
     1
 90
       50
176
     1
290
     0
176
     1
 90
       50
176
     1
 62
   256
176
     0
 40
1.0
176
     0
 90
        2
176
     1
  1
strokes_ogs.tif
176
     1
290
     0
176
     1
 40
1.0
176
     1
 40
1.0
176
     1
1001
ACAD
1000
AcDbSavedByObjectVersion
1070
     0
  0
VISUALSTYLE
  5
82B8
102
{ACAD_REACTORS
330
82AB
102
}
330
82AB
100
AcDbVisualStyle
  2
Thicken
 70
    13
177
     3
291
     1
 70
    58
 90
        2
176
     1
 90
        2
176
     1
 90
        0
176
     1
 90
        0
176
     1
 40
0.6
176
     1
 40
30.0
176
     1
 62
     7
420
 16777215
176
     1
 90
        1
176
     1
 90
        4
176
     1
 62
     7
176
     1
 62
   257
176
     1
 90
        1
176
     1
 90
        1
176
     1
 40
1.0
176
     1
 90
       12
176
     1
 62
     7
176
     1
 40
1.0
176
     1
 90
        1
176
     1
 90
        6
176
     1
 90
        2
176
     1
 62
     7
176
     1
 90
        5
176
     1
 90
        0
176
     1
 90
        0
176
     1
290
     0
176
     1
 90
        1
176
     1
 40
0.0
176
     1
 90
        0
176
     1
290
     0
176
     1
290
     1
176
     1
290
     1
176
     1
290
     0
176
     1
290
     0
176
     1
290
     0
176
     1
290
     0
176
     1
290
     0
176
     1
290
     0
176
     1
 90
       50
176
     1
 40
0.0
176
     1
 40
1.0
176
     1
 90
        0
176
     1
 62
    18
420
        0
176
     1
 90
       50
176
     1
 90
        3
176
     1
 62
     5
420
      255
176
     1
290
     0
176
     1
 90
       50
176
     1
 90
       50
176
     1
 90
       50
176
     1
290
     0
176
     1
 90
       50
176
     1
 62
   256
176
     0
 40
1.0
176
     0
 90
        2
176
     1
  1
strokes_ogs.tif
176
     1
290
     0
176
     1
 40
1.0
176
     1
 40
1.0
176
     1
1001
ACAD
1000
AcDbSavedByObjectVersion
1070
     0
  0
VISUALSTYLE
  5
82B2
102
{ACAD_REACTORS
330
82AB
102
}
330
82AB
100
AcDbVisualStyle
  2
Wireframe
 70
     5
177
     3
291
     0
 70
    58
 90
        0
176
     1
 90
        2
176
     1
 90
        0
176
     1
 90
        0
176
     1
 40
0.6
176
     1
 40
30.0
176
     1
 62
     7
420
 16777215
176
     1
 90
        1
176
     1
 90
        4
176
     1
 62
     7
176
     1
 62
   257
176
     1
 90
        1
176
     1
 90
        1
176
     1
 40
1.0
176
     1
 90
        0
176
     1
 62
   257
176
     1
 40
1.0
176
     1
 90
        1
176
     1
 90
        6
176
     1
 90
        2
176
     1
 62
     7
176
     1
 90
        3
176
     1
 90
        0
176
     1
 90
        0
176
     1
290
     0
176
     1
 90
        1
176
     1
 40
0.0
176
     1
 90
        0
176
     1
290
     0
176
     1
290
     1
176
     1
290
     1
176
     1
290
     0
176
     1
290
     0
176
     1
290
     0
176
     1
290
     0
176
     1
290
     0
176
     1
290
     0
176
     1
 90
       50
176
     1
 40
0.0
176
     1
 40
1.0
176
     1
 90
        0
176
     1
 62
    18
420
        0
176
     1
 90
       50
176
     1
 90
        3
176
     1
 62
     5
420
      255
176
     1
290
     0
176
     1
 90
       50
176
     1
 90
       50
176
     1
 90
       50
176
     1
290
     0
176
     1
 90
       50
176
     1
 62
   256
176
     0
 40
1.0
176
     0
 90
        2
176
     1
  1
strokes_ogs.tif
176
     1
290
     0
176
     1
 40
1.0
176
     1
 40
1.0
176
     1
1001
ACAD
1000
AcDbSavedByObjectVersion
1070
     0
  0
VISUALSTYLE
  5
82BE
102
{ACAD_REACTORS
330
82AB
102
}
330
82AB
100
AcDbVisualStyle
  2
X-Ray
 70
    25
177
     3
291
     0
 70
    58
 90
        2
176
     1
 90
        2
176
     1
 90
        1
176
     1
 90
        1
176
     1
 40
0.5
176
     1
 40
30.0
176
     1
 62
     7
420
 16777215
176
     1
 90
        1
176
     1
 90
        0
176
     1
 62
     7
176
     1
 62
   257
176
     1
 90
        1
176
     1
 90
        1
176
     1
 40
1.0
176
     1
 90
        8
176
     1
 62
     7
176
     1
 40
1.0
176
     1
 90
        1
176
     1
 90
        6
176
     1
 90
        2
176
     1
 62
     7
176
     1
 90
        3
176
     1
 90
        0
176
     1
 90
        0
176
     1
290
     0
176
     1
 90
       13
176
     1
 40
0.0
176
     1
 90
        0
176
     1
290
     0
176
     1
290
     1
176
     1
290
     1
176
     1
290
     0
176
     1
290
     0
176
     1
290
     0
176
     1
290
     0
176
     1
290
     0
176
     1
290
     0
176
     1
 90
       50
176
     1
 40
0.0
176
     1
 40
1.0
176
     1
 90
        0
176
     1
 62
    18
420
        0
176
     1
 90
       50
176
     1
 90
        3
176
     1
 62
     5
420
      255
176
     1
290
     0
176
     1
 90
       50
176
     1
 90
       50
176
     1
 90
       50
176
     1
290
     0
176
     1
 90
       50
176
     1
 62
   256
176
     0
 40
1.0
176
     0
 90
        2
176
     1
  1
strokes_ogs.tif
176
     1
290
     0
176
     1
 40
1.0
176
     1
 40
1.0
176
     1
1001
ACAD
1000
AcDbSavedByObjectVersion
1070
     0
  0
DICTIONARYVAR
  5
8339
102
{ACAD_REACTORS
330
8289
102
}
330
8289
100
DictionaryVariables
280
     0
  1
1:1
  0
DICTIONARYVAR
  5
8335
102
{ACAD_REACTORS
330
8289
102
}
330
8289
100
DictionaryVariables
280
     0
  1
STANDARD
  0
DICTIONARYVAR
  5
8334
102
{ACAD_REACTORS
330
8289
102
}
330
8289
100
DictionaryVariables
280
     0
  1
STANDARD
  0
DICTIONARYVAR
  5
8336
102
{ACAD_REACTORS
330
8289
102
}
330
8289
100
DictionaryVariables
280
     0
  1
Metric50
  0
DICTIONARYVAR
  5
8337
102
{ACAD_REACTORS
330
8289
102
}
330
8289
100
DictionaryVariables
280
     0
  1
Metric50
  0
DICTIONARYVAR
  5
828A
102
{ACAD_REACTORS
330
8289
102
}
330
8289
100
DictionaryVariables
280
     0
  1
1
  0
DICTIONARYVAR
  5
833B
102
{ACAD_REACTORS
330
8289
102
}
330
8289
100
DictionaryVariables
280
     0
  1
1
  0
DICTIONARYVAR
  5
833C
102
{ACAD_REACTORS
330
8289
102
}
330
8289
100
DictionaryVariables
280
     0
  1
15
  0
DICTIONARYVAR
  5
833A
102
{ACAD_REACTORS
330
8289
102
}
330
8289
100
DictionaryVariables
280
     0
  1
0
  0
DICTIONARYVAR
  5
8341
102
{ACAD_REACTORS
330
8289
102
}
330
8289
100
DictionaryVariables
280
     0
  1
0
  0
DICTIONARYVAR
  5
8338
102
{ACAD_REACTORS
330
8289
102
}
330
8289
100
DictionaryVariables
280
     0
  1
0
  0
DICTIONARY
  5
834C
102
{ACAD_REACTORS
330
834A
102
}
330
834A
100
AcDbDictionary
281
     1
  0
DICTIONARY
  5
834B
102
{ACAD_REACTORS
330
834A
102
}
330
834A
100
AcDbDictionary
281
     1
  3
2045966715216
350
8345
  3
2045966715232
350
8346
  3
2045966715248
350
8347
  3
2045966715264
350
8348
  3
2045966715280
350
8349
  0
DICTIONARY
  5
834F
330
82DE
100
AcDbDictionary
280
     1
281
     1
  3
ACAD_XREC_ROUNDTRIP
360
8350
  0
DICTIONARY
  5
829C
330
829B
100
AcDbDictionary
280
     1
281
     1
  3
BUMPTILE
360
829E
  3
DIFFUSETILE
360
829D
  3
OPACITYTILE
360
82A1
  3
REFLECTIONTILE
360
82A0
  3
REFRACTIONTILE
360
82A2
  3
SPECULARTILE
360
829F
  0
DICTIONARY
  5
8294
330
8293
100
AcDbDictionary
280
     1
281
     1
  3
BUMPTILE
360
8296
  3
DIFFUSETILE
360
8295
  3
OPACITYTILE
360
8299
  3
REFLECTIONTILE
360
8298
  3
REFRACTIONTILE
360
829A
  3
SPECULARTILE
360
8297
  0
DICTIONARY
  5
82A4
330
82A3
100
AcDbDictionary
280
     1
281
     1
  3
BUMPTILE
360
82A6
  3
DIFFUSETILE
360
82A5
  3
OPACITYTILE
360
82A9
  3
REFLECTIONTILE
360
82A8
  3
REFRACTIONTILE
360
82AA
  3
SPECULARTILE
360
82A7
  0
DICTIONARY
  5
834D
330
82DC
100
AcDbDictionary
280
     1
281
     1
  3
ACAD_XREC_ROUNDTRIP
360
834E
  0
DICTIONARY
  5
8342
330
82C6
100
AcDbDictionary
280
     1
281
     1
  3
ACAD_ROUNDTRIP_2008_TABLESTYLE_CELLSTYLEMAP
360
8343
  0
XRECORD
  5
8345
102
{ACAD_REACTORS
330
834B
102
}
330
834B
100
AcDbXrecord
280
     1
  1
AcDb_Thumbnail_Schema
102
{ATTRRECORD
341
8346
  2
AcDbDs::TreatedAsObjectData
280
     1
291
     1
102
ATTRRECORD}
102
{ATTRRECORD
341
8347
  2
AcDbDs::Legacy
280
     1
291
     1
102
ATTRRECORD}
  2
AcDbDs::ID
280
    10
 91
        8
102
{ATTRRECORD
341
8348
  2
AcDs:Indexable
280
     1
291
     1
102
ATTRRECORD}
102
{ATTRRECORD
341
8349
  2
AcDbDs::HandleAttribute
280
     7
282
     1
102
ATTRRECORD}
  2
Thumbnail_Data
280
    15
 91
        0
  0
XRECORD
  5
8346
102
{ACAD_REACTORS
330
834B
102
}
330
834B
100
AcDbXrecord
280
     1
  1
AcDbDs::TreatedAsObjectDataSchema
  2
AcDbDs::TreatedAsObjectData
280
     1
 91
        0
  0
XRECORD
  5
8347
102
{ACAD_REACTORS
330
834B
102
}
330
834B
100
AcDbXrecord
280
     1
  1
AcDbDs::LegacySchema
  2
AcDbDs::Legacy
280
     1
 91
        0
  0
XRECORD
  5
8348
102
{ACAD_REACTORS
330
834B
102
}
330
834B
100
AcDbXrecord
280
     1
  1
AcDbDs::IndexedPropertySchema
  2
AcDs:Indexable
280
     1
 91
        0
  0
XRECORD
  5
8349
102
{ACAD_REACTORS
330
834B
102
}
330
834B
100
AcDbXrecord
280
     1
  1
AcDbDs::HandleAttributeSchema
  2
AcDbDs::HandleAttribute
280
     7
 91
        1
284
     1
  0
XRECORD
  5
8350
102
{ACAD_REACTORS
330
834F
102
}
330
834F
100
AcDbXrecord
280
     1
102
DISPLAYNAME
  1
Metric50
102
FLAGS
 90
        0
  0
XRECORD
  5
829E
102
{ACAD_REACTORS
330
829C
102
}
330
829C
100
AcDbXrecord
280
     1
270
     1
271
     1
  0
XRECORD
  5
829D
102
{ACAD_REACTORS
330
829C
102
}
330
829C
100
AcDbXrecord
280
     1
270
     1
271
     1
  0
XRECORD
  5
82A1
102
{ACAD_REACTORS
330
829C
102
}
330
829C
100
AcDbXrecord
280
     1
270
     1
271
     1
  0
XRECORD
  5
82A0
102
{ACAD_REACTORS
330
829C
102
}
330
829C
100
AcDbXrecord
280
     1
270
     1
271
     1
  0
XRECORD
  5
82A2
102
{ACAD_REACTORS
330
829C
102
}
330
829C
100
AcDbXrecord
280
     1
270
     1
271
     1
  0
XRECORD
  5
829F
102
{ACAD_REACTORS
330
829C
102
}
330
829C
100
AcDbXrecord
280
     1
270
     1
271
     1
  0
XRECORD
  5
8296
102
{ACAD_REACTORS
330
8294
102
}
330
8294
100
AcDbXrecord
280
     1
270
     1
271
     1
  0
XRECORD
  5
8295
102
{ACAD_REACTORS
330
8294
102
}
330
8294
100
AcDbXrecord
280
     1
270
     1
271
     1
  0
XRECORD
  5
8299
102
{ACAD_REACTORS
330
8294
102
}
330
8294
100
AcDbXrecord
280
     1
270
     1
271
     1
  0
XRECORD
  5
8298
102
{ACAD_REACTORS
330
8294
102
}
330
8294
100
AcDbXrecord
280
     1
270
     1
271
     1
  0
XRECORD
  5
829A
102
{ACAD_REACTORS
330
8294
102
}
330
8294
100
AcDbXrecord
280
     1
270
     1
271
     1
  0
XRECORD
  5
8297
102
{ACAD_REACTORS
330
8294
102
}
330
8294
100
AcDbXrecord
280
     1
270
     1
271
     1
  0
XRECORD
  5
82A6
102
{ACAD_REACTORS
330
82A4
102
}
330
82A4
100
AcDbXrecord
280
     1
270
     1
271
     1
  0
XRECORD
  5
82A5
102
{ACAD_REACTORS
330
82A4
102
}
330
82A4
100
AcDbXrecord
280
     1
270
     1
271
     1
  0
XRECORD
  5
82A9
102
{ACAD_REACTORS
330
82A4
102
}
330
82A4
100
AcDbXrecord
280
     1
270
     1
271
     1
  0
XRECORD
  5
82A8
102
{ACAD_REACTORS
330
82A4
102
}
330
82A4
100
AcDbXrecord
280
     1
270
     1
271
     1
  0
XRECORD
  5
82AA
102
{ACAD_REACTORS
330
82A4
102
}
330
82A4
100
AcDbXrecord
280
     1
270
     1
271
     1
  0
XRECORD
  5
82A7
102
{ACAD_REACTORS
330
82A4
102
}
330
82A4
100
AcDbXrecord
280
     1
270
     1
271
     1
  0
XRECORD
  5
834E
102
{ACAD_REACTORS
330
834D
102
}
330
834D
100
AcDbXrecord
280
     1
102
DISPLAYNAME
  1
Metric50
102
FLAGS
 90
        0
  0
CELLSTYLEMAP
  5
8343
102
{ACAD_REACTORS
330
8342
102
}
330
8342
100
AcDbCellStyleMap
 90
        3
300
CELLSTYLE
  1
TABLEFORMAT_BEGIN
 90
        5
170
     1
 91
        0
 92
    32768
 62
   257
 93
        1
300
CONTENTFORMAT
  1
CONTENTFORMAT_BEGIN
 90
        0
 91
        0
 92
      512
 93
        0
300

 40
0.0
140
1.0
 94
        5
 62
     0
340
10
144
6.0
309
CONTENTFORMAT_END
171
     1
301
MARGIN
  1
CELLMARGIN_BEGIN
 40
1.5
 40
1.5
 40
1.5
 40
1.5
 40
4.5
 40
4.5
309
CELLMARGIN_END
 94
        6
 95
        1
302
GRIDFORMAT
  1
GRIDFORMAT_BEGIN
 90
        0
 91
        1
 62
     0
 92
       -2
340
0
 93
        0
 40
1.125
309
GRIDFORMAT_END
 95
        2
302
GRIDFORMAT
  1
GRIDFORMAT_BEGIN
 90
        0
 91
        1
 62
     0
 92
       -2
340
0
 93
        0
 40
1.125
309
GRIDFORMAT_END
 95
        4
302
GRIDFORMAT
  1
GRIDFORMAT_BEGIN
 90
        0
 91
        1
 62
     0
 92
       -2
340
0
 93
        0
 40
1.125
309
GRIDFORMAT_END
 95
        8
302
GRIDFORMAT
  1
GRIDFORMAT_BEGIN
 90
        0
 91
        1
 62
     0
 92
       -2
340
0
 93
        0
 40
1.125
309
GRIDFORMAT_END
 95
       16
302
GRIDFORMAT
  1
GRIDFORMAT_BEGIN
 90
        0
 91
        1
 62
     0
 92
       -2
340
0
 93
        0
 40
1.125
309
GRIDFORMAT_END
 95
       32
302
GRIDFORMAT
  1
GRIDFORMAT_BEGIN
 90
        0
 91
        1
 62
     0
 92
       -2
340
0
 93
        0
 40
1.125
309
GRIDFORMAT_END
309
TABLEFORMAT_END
  1
CELLSTYLE_BEGIN
 90
        1
 91
        1
300
_TITLE
309
CELLSTYLE_END
300
CELLSTYLE
  1
TABLEFORMAT_BEGIN
 90
        5
170
     1
 91
        0
 92
        0
 62
   257
 93
        1
300
CONTENTFORMAT
  1
CONTENTFORMAT_BEGIN
 90
        0
 91
        0
 92
      512
 93
        0
300

 40
0.0
140
1.0
 94
        5
 62
     0
340
10
144
4.5
309
CONTENTFORMAT_END
171
     1
301
MARGIN
  1
CELLMARGIN_BEGIN
 40
1.5
 40
1.5
 40
1.5
 40
1.5
 40
4.5
 40
4.5
309
CELLMARGIN_END
 94
        6
 95
        1
302
GRIDFORMAT
  1
GRIDFORMAT_BEGIN
 90
        0
 91
        1
 62
     0
 92
       -2
340
0
 93
        0
 40
1.125
309
GRIDFORMAT_END
 95
        2
302
GRIDFORMAT
  1
GRIDFORMAT_BEGIN
 90
        0
 91
        1
 62
     0
 92
       -2
340
0
 93
        0
 40
1.125
309
GRIDFORMAT_END
 95
        4
302
GRIDFORMAT
  1
GRIDFORMAT_BEGIN
 90
        0
 91
        1
 62
     0
 92
       -2
340
0
 93
        0
 40
1.125
309
GRIDFORMAT_END
 95
        8
302
GRIDFORMAT
  1
GRIDFORMAT_BEGIN
 90
        0
 91
        1
 62
     0
 92
       -2
340
0
 93
        0
 40
1.125
309
GRIDFORMAT_END
 95
       16
302
GRIDFORMAT
  1
GRIDFORMAT_BEGIN
 90
        0
 91
        1
 62
     0
 92
       -2
340
0
 93
        0
 40
1.125
309
GRIDFORMAT_END
 95
       32
302
GRIDFORMAT
  1
GRIDFORMAT_BEGIN
 90
        0
 91
        1
 62
     0
 92
       -2
340
0
 93
        0
 40
1.125
309
GRIDFORMAT_END
309
TABLEFORMAT_END
  1
CELLSTYLE_BEGIN
 90
        2
 91
        1
300
_HEADER
309
CELLSTYLE_END
300
CELLSTYLE
  1
TABLEFORMAT_BEGIN
 90
        5
170
     1
 91
        0
 92
        0
 62
   257
 93
        1
300
CONTENTFORMAT
  1
CONTENTFORMAT_BEGIN
 90
        0
 91
        0
 92
      512
 93
        0
300

 40
0.0
140
1.0
 94
        2
 62
     0
340
10
144
4.5
309
CONTENTFORMAT_END
171
     1
301
MARGIN
  1
CELLMARGIN_BEGIN
 40
1.5
 40
1.5
 40
1.5
 40
1.5
 40
4.5
 40
4.5
309
CELLMARGIN_END
 94
        6
 95
        1
302
GRIDFORMAT
  1
GRIDFORMAT_BEGIN
 90
        0
 91
        1
 62
     0
 92
       -2
340
0
 93
        0
 40
1.125
309
GRIDFORMAT_END
 95
        2
302
GRIDFORMAT
  1
GRIDFORMAT_BEGIN
 90
        0
 91
        1
 62
     0
 92
       -2
340
0
 93
        0
 40
1.125
309
GRIDFORMAT_END
 95
        4
302
GRIDFORMAT
  1
GRIDFORMAT_BEGIN
 90
        0
 91
        1
 62
     0
 92
       -2
340
0
 93
        0
 40
1.125
309
GRIDFORMAT_END
 95
        8
302
GRIDFORMAT
  1
GRIDFORMAT_BEGIN
 90
        0
 91
        1
 62
     0
 92
       -2
340
0
 93
        0
 40
1.125
309
GRIDFORMAT_END
 95
       16
302
GRIDFORMAT
  1
GRIDFORMAT_BEGIN
 90
        0
 91
        1
 62
     0
 92
       -2
340
0
 93
        0
 40
1.125
309
GRIDFORMAT_END
 95
       32
302
GRIDFORMAT
  1
GRIDFORMAT_BEGIN
 90
        0
 91
        1
 62
     0
 92
       -2
340
0
 93
        0
 40
1.125
309
GRIDFORMAT_END
309
TABLEFORMAT_END
  1
CELLSTYLE_BEGIN
 90
        3
 91
        2
300
_DATA
309
CELLSTYLE_END
  0
ENDSEC
  0
SECTION
  2
ACDSDATA
 70
     2
 71
     8
  0
ACDSSCHEMA
 90
        0
  1
AcDb_Thumbnail_Schema
  2
AcDbDs::ID
280
    10
 91
        8
  2
Thumbnail_Data
280
    15
 91
        0
101
ACDSRECORD
 95
        0
 90
        1
  2
AcDbDs::TreatedAsObjectData
280
     1
291
     1
101
ACDSRECORD
 95
        0
 90
        2
  2
AcDbDs::Legacy
280
     1
291
     1
101
ACDSRECORD
  1
AcDbDs::ID
 90
        3
  2
AcDs:Indexable
280
     1
291
     1
101
ACDSRECORD
  1
AcDbDs::ID
 90
        4
  2
AcDbDs::HandleAttribute
280
     7
282
     1
  0
ACDSSCHEMA
 90
        1
  1
AcDbDs::TreatedAsObjectDataSchema
  2
AcDbDs::TreatedAsObjectData
280
     1
 91
        0
  0
ACDSSCHEMA
 90
        2
  1
AcDbDs::LegacySchema
  2
AcDbDs::Legacy
280
     1
 91
        0
  0
ACDSSCHEMA
 90
        3
  1
AcDbDs::IndexedPropertySchema
  2
AcDs:Indexable
280
     1
 91
        0
  0
ACDSSCHEMA
 90
        4
  1
AcDbDs::HandleAttributeSchema
  2
AcDbDs::HandleAttribute
280
     7
 91
        1
284
     1
  0
ACDSRECORD
 90
        0
  2
AcDbDs::ID
280
    10
320
81CC
  2
Thumbnail_Data
280
    15
 94
     1719
310
89504E470D0A1A0A0000000D49484452000001000000007C0803000000B13B9E5A00000300504C5445000000000000C8C8C80000000000000000000000000000000000000000000000000000330000660000990000CC0000FF0033000033330033660033990033CC0033FF0066000066330066660066990066CC0066FF0099
310
000099330099660099990099CC0099FF00CC0000CC3300CC6600CC9900CCCC00CCFF00FF0000FF3300FF6600FF9900FFCC00FFFF3300003300333300663300993300CC3300FF3333003333333333663333993333CC3333FF3366003366333366663366993366CC3366FF3399003399333399663399993399CC3399FF33CC00
310
33CC3333CC6633CC9933CCCC33CCFF33FF0033FF3333FF6633FF9933FFCC33FFFF6600006600336600666600996600CC6600FF6633006633336633666633996633CC6633FF6666006666336666666666996666CC6666FF6699006699336699666699996699CC6699FF66CC0066CC3366CC6666CC9966CCCC66CCFF66FF0066
310
FF3366FF6666FF9966FFCC66FFFF9900009900339900669900999900CC9900FF9933009933339933669933999933CC9933FF9966009966339966669966999966CC9966FF9999009999339999669999999999CC9999FF99CC0099CC3399CC6699CC9999CCCC99CCFF99FF0099FF3399FF6699FF9999FFCC99FFFFCC0000CC00
310
33CC0066CC0099CC00CCCC00FFCC3300CC3333CC3366CC3399CC33CCCC33FFCC6600CC6633CC6666CC6699CC66CCCC66FFCC9900CC9933CC9966CC9999CC99CCCC99FFCCCC00CCCC33CCCC66CCCC99CCCCCCCCCCFFCCFF00CCFF33CCFF66CCFF99CCFFCCCCFFFFFF0000FF0033FF0066FF0099FF00CCFF00FFFF3300FF3333
310
FF3366FF3399FF33CCFF33FFFF6600FF6633FF6666FF6699FF66CCFF66FFFF9900FF9933FF9966FF9999FF99CCFF99FFFFCC00FFCC33FFCC66FFCC99FFCCCCFFCCFFFFFF00FFFF33FFFF66FFFF99FFFFCCFFFFFF0000000D0D0D1A1A1A2828283535354343435050505D5D5D6B6B6B787878868686939393A1A1A1AEAEAEBB
310
BBBBC9C9C9D6D6D6E4E4E4F1F1F1FFFFFF00000000000000000000000000000000000000000000000000000000000008F1915C000003724944415478DAED9D57922B210C45B51C7EB4FFCDB00DFE9FDD0890089EF6AB0956A0C61E1CCB9CBEBA24B90DF003A5FC50012DA5A87ADB00100002400008009FF3495F747E5E004C
310
2F2F2E15E01E40F10C608A02DD00BE7506A012C087BD5900F80300A46326E922EAD0445E9F3B2287EEB400006AA361341BE866F3BC526804505A154ABB36A10038F91B29A0B67528803D602504DA20AFF09878DDB6122618E3008793A12F43422100D9038ABB56B954DFDF2E021B005066006C1800A38B84C9222D018022E6
310
BC853D9937DF1680EF7A7DAC090600D500F2A3EC6FF800901D03C8E7E204C0F1660008009E00248F00AAD5A128BE003C2EADE14960F00480EA09B1DFEF1440AFB65A00F00680EABDE20F00F08B03007901D0D4EF03C035DB4998A8F4CAB34E63827766444A014C0A80E5DA190011020E014813B40E6035C1D10DB601B1690F
310
783510C2C7EC30007803C027439E00EC0B01B06D82B57128A6C03D0A7C01D84820A10700EB8A985C1ECBC63D6032021103387A051F00D221047C00D8177F1B2353CC7B01E07E73F4D44E2F003EFC6D0340000800BFF649FFC3FA0D00C867003E7A81EC7D1C90F9F86FCA96DB913A068B2D05B802B08EFB5600376244BB0966
310
1E022B80AD53DA02F06C15352EEF0164E913D91C80171E907771600DC072E75E013DA5503D80E978E292273701C039A310B503687FB428CA9E825B05A054005A5040DB1E9B9685EF01905DA1620057D313B0DDA1FB0AB000A01EFA048CC01B21A01FC0B519DE4200F100806F943000BA43E0D2EFD57E72C1EE030B804AC716
310
80660097000053DD0D3B0318266907C0D5FD3F13041129511091720637004426E1F55C130AC81402A9ED9303E25D05A09910E8D1DFFC700760F1003402A01EFA04CC029E82BFA10000030321A0CE2FD583DFC4FD88F81500B221C3E294BA0160ED05281E2E4F10DF9F423E44E2000C28802509F5FF897A050E80ACDFDC5CA0
310
49398DB652A7774B01FAA7C36D06D0AD7D04FC2D0FD00F60FBBDC1396BEA904D690300C810187DDD943AC91FDA4840EF9218D62B9E1BB878409D0FD2C219BD423EAE39494AACF09E96FDB3D835581785CD27497DB9791A0912012000048000100002400008009A01B83FABECFB2DF301809F75569C8BDB1E00D8FC741A3BE3
310
7A3FF56EBB6559013E3D60AF0071627D871EE013C0212E1C2920CE2E1F43E1001000024000080001C02000453FBDFD0F556806085AFBEF6E0000000049454E44AE426082
  0
ENDSEC
  0
EOF
