  0
SECTION
  2
HEADER
  9
$ACADVER
  1
AC1009
  9
$INSBASE
 10
0.0
 20
0.0
 30
0.0
  9
$EXTMIN
 10
1000.0
 20
1200.0
 30
0.0
  9
$EXTMAX
 10
7400.0
 20
11146.609046400001
 30
0.0
  9
$LIMMIN
 10
0.0
 20
0.0
  9
$LIMMAX
 10
297.0
 20
210.0
  9
$ORTHOMODE
 70
     0
  9
$REGENMODE
 70
     1
  9
$FILLMODE
 70
     0
  9
$QTEXTMODE
 70
     0
  9
$MIRRTEXT
 70
     1
  9
$DRAGMODE
 70
     2
  9
$LTSCALE
 40
100.0
  9
$OSMODE
 70
    37
  9
$ATTMODE
 70
     1
  9
$TEXTSIZE
 40
180.0
  9
$TRACEWID
 40
0.05
  9
$TEXTSTYLE
  7
STANDARD
  9
$CLAYER
  8
3
  9
$CELTYPE
  6
BYLAYER
  9
$CECOLOR
 62
   256
  9
$DIMSCALE
 40
45.0
  9
$DIMASZ
 40
2.0
  9
$DIMEXO
 40
0.5
  9
$DIMDLI
 40
10.0
  9
$DIMRND
 40
0.0
  9
$DIMDLE
 40
0.0
  9
$DIMEXE
 40
1.0
  9
$DIMTP
 40
1.0
  9
$DIMTM
 40
1.0
  9
$DIMTXT
 40
3.0
  9
$DIMCEN
 40
0.0
  9
$DIMTSZ
 40
0.0
  9
$DIMTOL
 70
     0
  9
$DIMLIM
 70
     0
  9
$DIMTIH
 70
     0
  9
$DIMTOH
 70
     0
  9
$DIMSE1
 70
     0
  9
$DIMSE2
 70
     0
  9
$DIMTAD
 70
     1
  9
$DIMZIN
 70
     8
  9
$DIMBLK
  1

  9
$DIMASO
 70
     1
  9
$DIMSHO
 70
     1
  9
$DIMPOST
  1

  9
$DIMAPOST
  1

  9
$DIMALT
 70
     0
  9
$DIMALTD
 70
     2
  9
$DIMALTF
 40
0.039
  9
$DIMLFAC
 40
1.0
  9
$DIMTOFL
 70
     1
  9
$DIMTVP
 40
0.0
  9
$DIMTIX
 70
     0
  9
$DIMSOXD
 70
     0
  9
$DIMSAH
 70
     1
  9
$DIMBLK1
  1
OPEN
  9
$DIMBLK2
  1
OPEN
  9
$DIMSTYLE
  2
IGA
  9
$DIMCLRD
 70
     0
  9
$DIMCLRE
 70
     0
  9
$DIMCLRT
 70
     0
  9
$DIMTFAC
 40
10.0
  9
$DIMGAP
 40
1.0
  9
$LUNITS
 70
     2
  9
$LUPREC
 70
     3
  9
$SKETCHINC
 40
0.1
  9
$FILLETRAD
 40
50.0
  9
$AUNITS
 70
     0
  9
$AUPREC
 70
     0
  9
$MENU
  1
acad
  9
$ELEVATION
 40
0.0
  9
$PELEVATION
 40
0.0
  9
$THICKNESS
 40
0.0
  9
$LIMCHECK
 70
     0
  9
$BLIPMODE
 70
     0
  9
$CHAMFERA
 40
0.5
  9
$CHAMFERB
 40
0.5
  9
$SKPOLY
 70
     0
  9
$TDCREATE
 40
2450751.4115342591
  9
$TDUPDATE
 40
2454953.6596039468
  9
$TDINDWG
 40
0.005836331
  9
$TDUSRTIMER
 40
0.005836331
  9
$USRTIMER
 70
     1
  9
$ANGBASE
 50
0.0
  9
$ANGDIR
 70
     0
  9
$PDMODE
 70
     0
  9
$PDSIZE
 40
0.0
  9
$PLINEWID
 40
0.0
  9
$COORDS
 70
     1
  9
$SPLFRAME
 70
     0
  9
$SPLINETYPE
 70
     6
  9
$SPLINESEGS
 70
     8
  9
$ATTDIA
 70
     0
  9
$ATTREQ
 70
     1
  9
$HANDLING
 70
 10241
  9
$HANDSEED
  5
7D44
  9
$SURFTAB1
 70
     6
  9
$SURFTAB2
 70
     6
  9
$SURFTYPE
 70
     6
  9
$SURFU
 70
     6
  9
$SURFV
 70
     6
  9
$UCSNAME
  2

  9
$UCSORG
 10
0.0
 20
0.0
 30
0.0
  9
$UCSXDIR
 10
1.0
 20
0.0
 30
0.0
  9
$UCSYDIR
 10
0.0
 20
1.0
 30
0.0
  9
$PUCSNAME
  2

  9
$PUCSORG
 10
0.0
 20
0.0
 30
0.0
  9
$PUCSXDIR
 10
1.0
 20
0.0
 30
0.0
  9
$PUCSYDIR
 10
0.0
 20
1.0
 30
0.0
  9
$USERI1
 70
     0
  9
$USERI2
 70
     0
  9
$USERI3
 70
     0
  9
$USERI4
 70
     0
  9
$USERI5
 70
     0
  9
$USERR1
 40
0.0
  9
$USERR2
 40
0.0
  9
$USERR3
 40
0.0
  9
$USERR4
 40
0.0
  9
$USERR5
 40
0.0
  9
$WORLDVIEW
 70
     1
  9
$SHADEDGE
 70
     3
  9
$SHADEDIF
 70
    70
  9
$TILEMODE
 70
     1
  9
$MAXACTVP
 70
    16
  9
$PLIMCHECK
 70
     0
  9
$PEXTMIN
 10
1.0000000000000000E+020
 20
1.0000000000000000E+020
 30
1.0000000000000000E+020
  9
$PEXTMAX
 10
-1.0000000000000000E+020
 20
-1.0000000000000000E+020
 30
-1.0000000000000000E+020
  9
$PLIMMIN
 10
0.0
 20
0.0
  9
$PLIMMAX
 10
12.0
 20
9.0
  9
$UNITMODE
 70
     0
  9
$VISRETAIN
 70
     0
  9
$PLINEGEN
 70
     0
  9
$PSLTSCALE
 70
     1
  0
ENDSEC
  0
SECTION
  2
TABLES
  0
TABLE
  2
VPORT
 70
     2
  0
VPORT
  2
*ACTIVE
 70
     0
 10
0.0
 20
0.0
 11
1.0
 21
1.0
 12
7833.3747707080511
 22
1579.042824425452
 13
0.0
 23
0.0
 14
10.0
 24
10.0
 15
10.0
 25
10.0
 16
0.0
 26
0.0
 36
1.0
 17
0.0
 27
0.0
 37
0.0
 40
3594.8384213259728
 41
3.1666666666666661
 42
50.0
 43
0.0
 44
0.0
 50
0.0
 51
0.0
 71
     0
 72
   100
 73
     1
 74
     0
 75
     0
 76
     0
 77
     0
 78
     0
  0
ENDTAB
  0
TABLE
  2
LTYPE
 70
     2
  0
LTYPE
  2
CONTINUOUS
 70
     0
  3
Solid line
 72
    65
 73
     0
 40
0.0
  0
LTYPE
  2
CENTER
 70
     0
  3
____ _ ____ _ ____ _ ____ _ ____ _ ____ _ ____ 
 72
    65
 73
     4
 40
2.0
 49
1.25
 49
-0.25
 49
0.25
 49
-0.25
  0
ENDTAB
  0
TABLE
  2
LAYER
 70
     6
  0
LAYER
  2
0
 70
     0
 62
     7
  6
CONTINUOUS
  0
LAYER
  2
3
 70
     0
 62
     2
  6
CONTINUOUS
  0
LAYER
  2
2
 70
     0
 62
     3
  6
CENTER
  0
LAYER
  2
1
 70
     0
 62
     4
  6
CONTINUOUS
  0
LAYER
  2
4
 70
     0
 62
     7
  6
CONTINUOUS
  0
LAYER
  2
DEFPOINTS
 70
     0
 62
     7
  6
CONTINUOUS
  0
ENDTAB
  0
TABLE
  2
STYLE
 70
     1
  0
STYLE
  2
STANDARD
 70
     0
 40
0.0
 41
1.0
 50
0.0
 71
     0
 42
180.0
  3
simplex.shx
  4
extfont.shx
  0
ENDTAB
  0
TABLE
  2
VIEW
 70
     0
  0
ENDTAB
  0
TABLE
  2
UCS
 70
     0
  0
ENDTAB
  0
TABLE
  2
APPID
 70
     1
  0
APPID
  2
ACAD
 70
     0
  0
ENDTAB
  0
TABLE
  2
DIMSTYLE
 70
     1
  0
DIMSTYLE
  2
IGA
 70
     0
  3

  4

  5

  6
OPEN
  7
OPEN
 40
2.0
 41
2.0
 42
0.5
 43
10.0
 44
1.0
 45
0.0
 46
0.0
 47
1.0
 48
1.0
140
3.0
141
0.0
142
0.0
143
0.03937
144
1.0
145
0.0
146
10.0
147
1.0
 71
     0
 72
     0
 73
     0
 74
     0
 75
     0
 76
     0
 77
     1
 78
     8
170
     0
171
     2
172
     0
173
     1
174
     0
175
     0
176
     0
177
     0
178
     0
  0
ENDTAB
  0
ENDSEC
  0
SECTION
  2
BLOCKS
  0
BLOCK
  8
0
  2
$MODEL_SPACE
 70
     0
 10
0.0
 20
0.0
 30
0.0
  3
$MODEL_SPACE
  1

  0
ENDBLK
  5
1B
  8
0
  0
BLOCK
 67
     1
  8
0
  2
$PAPER_SPACE
 70
     0
 10
0.0
 20
0.0
 30
0.0
  3
$PAPER_SPACE
  1

  0
ENDBLK
  5
18
 67
     1
  8
0
  0
BLOCK
  8
0
  2
_OPEN
 70
     0
 10
0.0
 20
0.0
 30
0.0
  3
_OPEN
  1

  0
LINE
  5
7AD2
  8
0
  6
BYBLOCK
 62
     0
 10
-1.0
 20
0.166667
 30
0.0
 11
0.0
 21
0.0
 31
0.0
  0
LINE
  5
7AD3
  8
0
  6
BYBLOCK
 62
     0
 10
0.0
 20
0.0
 30
0.0
 11
-1.0
 21
-0.166667
 31
0.0
  0
LINE
  5
7AD4
  8
0
  6
BYBLOCK
 62
     0
 10
0.0
 20
0.0
 30
0.0
 11
-1.0
 21
0.0
 31
0.0
  0
ENDBLK
  5
7AD5
  8
0
  0
BLOCK
  8
0
  2
*D1
 70
     1
 10
0.0
 20
0.0
 30
0.0
  3
*D1
  1

  0
LINE
  5
7C9A
  8
3
  6
CONTINUOUS
 62
     0
 10
1285.059524694748
 20
3413.6853503519428
 30
0.0
 11
1285.059524694748
 21
3030.252380351943
 31
0.0
  0
LINE
  5
7C9B
  8
3
  6
CONTINUOUS
 62
     0
 10
2780.0595246947491
 20
3267.259729351943
 30
0.0
 11
2780.0595246947491
 21
3030.252380351943
 31
0.0
  0
LINE
  5
7C9C
  8
3
  6
CONTINUOUS
 62
     0
 10
1375.059524694748
 20
3075.252380351943
 30
0.0
 11
2690.0595246947491
 21
3075.252380351943
 31
0.0
  0
INSERT
  5
7C9D
  8
3
  6
CONTINUOUS
 62
     0
  2
_OPEN
 10
1285.059524694748
 20
3075.252380351943
 30
0.0
 41
90.0
 42
90.0
 43
90.0
 50
180.0
  0
INSERT
  5
7C9E
  8
3
  6
CONTINUOUS
 62
     0
  2
_OPEN
 10
2780.0595246947491
 20
3075.252380351943
 30
0.0
 41
90.0
 42
90.0
 43
90.0
  0
TEXT
  8
3
  40
135
  5
7D32
  62
0
  72
0
  71
0
 10
1730.48
 20
2948.80
 30
0.000000
  1
1495
  0
POINT
  5
7CA0
  8
DEFPOINTS
  6
CONTINUOUS
 62
     0
 10
1285.059524694748
 20
3436.1853503519428
 30
0.0
  0
POINT
  5
7CA1
  8
DEFPOINTS
  6
CONTINUOUS
 62
     0
 10
2780.0595246947491
 20
3289.759729351943
 30
0.0
  0
POINT
  5
7CA2
  8
DEFPOINTS
  6
CONTINUOUS
 62
     0
 10
2780.0595246947491
 20
3075.252380351943
 30
0.0
  0
ENDBLK
  5
7AE2
  8
0
  0
BLOCK
  8
0
  2
*D2
 70
     1
 10
0.0
 20
0.0
 30
0.0
  3
*D2
  1

  0
LINE
  5
7CA3
  8
3
  6
CONTINUOUS
 62
     0
 10
3405.0595246947491
 20
3413.6853503519428
 30
0.0
 11
3405.0595246947491
 21
3030.252380351943
 31
0.0
  0
LINE
  5
7CA4
  8
3
  6
CONTINUOUS
 62
     0
 10
2870.0595246947478
 20
3075.252380351943
 30
0.0
 11
3315.0595246947491
 21
3075.252380351943
 31
0.0
  0
INSERT
  5
7CA5
  8
3
  6
CONTINUOUS
 62
     0
  2
_OPEN
 10
2780.0595246947491
 20
3075.252380351943
 30
0.0
 41
90.0
 42
90.0
 43
90.0
 50
180.0
  0
INSERT
  5
7CA6
  8
3
  6
CONTINUOUS
 62
     0
  2
_OPEN
 10
3405.0595246947491
 20
3075.252380351943
 30
0.0
 41
90.0
 42
90.0
 43
90.0
  0
TEXT
  8
3
  40
135
  5
7D33
  62
0
  72
0
  71
0
 10
2822.56
 20
2948.80
 30
0.000000
  1
625
  0
POINT
  5
7CA8
  8
DEFPOINTS
  6
CONTINUOUS
 62
     0
 10
2780.0595246947491
 20
3289.759729351943
 30
0.0
  0
POINT
  5
7CA9
  8
DEFPOINTS
  6
CONTINUOUS
 62
     0
 10
3405.0595246947491
 20
3436.1853503519428
 30
0.0
  0
POINT
  5
7CAA
  8
DEFPOINTS
  6
CONTINUOUS
 62
     0
 10
3405.0595246947491
 20
3075.252380351943
 30
0.0
  0
ENDBLK
  5
7AEE
  8
0
  0
BLOCK
  8
0
  2
*D3
 70
     1
 10
0.0
 20
0.0
 30
0.0
  3
*D3
  1

  0
LINE
  5
7CAB
  8
3
  6
CONTINUOUS
 62
     0
 10
3482.5595246947478
 20
5260.1853503519433
 30
0.0
 11
3882.685789694749
 21
5260.1853503519433
 31
0.0
  0
LINE
  5
7CAC
  8
3
  6
CONTINUOUS
 62
     0
 10
3482.5595246947478
 20
4230.1853503519433
 30
0.0
 11
3882.6857896947481
 21
4230.1853503519433
 31
0.0
  0
LINE
  5
7CAD
  8
3
  6
CONTINUOUS
 62
     0
 10
3837.6857896947481
 20
5170.1853503519433
 30
0.0
 11
3837.6857896947481
 21
4320.1853503519433
 31
0.0
  0
INSERT
  5
7CAE
  8
3
  6
CONTINUOUS
 62
     0
  2
_OPEN
 10
3837.6857896947481
 20
5260.1853503519433
 30
0.0
 41
90.0
 42
90.0
 43
90.0
 50
90.0
  0
INSERT
  5
7CAF
  8
3
  6
CONTINUOUS
 62
     0
  2
_OPEN
 10
3837.6857896947481
 20
4230.1853503519433
 30
0.0
 41
90.0
 42
90.0
 43
90.0
 50
270.0
  0
TEXT
  8
3
  40
135
  5
7D34
  62
0
  72
0
  71
0
 10
3455.19
 20
4497.35
 30
0.000000
  1
1030
  0
POINT
  5
7CB1
  8
DEFPOINTS
  6
CONTINUOUS
 62
     0
 10
3460.0595246947478
 20
5260.1853503519433
 30
0.0
  0
POINT
  5
7CB2
  8
DEFPOINTS
  6
CONTINUOUS
 62
     0
 10
3460.0595246947478
 20
4230.1853503519433
 30
0.0
  0
POINT
  5
7CB3
  8
DEFPOINTS
  6
CONTINUOUS
 62
     0
 10
3837.6857896947481
 20
4230.1853503519433
 30
0.0
  0
ENDBLK
  5
7AFB
  8
0
  0
BLOCK
  8
0
  2
*D4
 70
     1
 10
0.0
 20
0.0
 30
0.0
  3
*D4
  1

  0
LINE
  5
7CB4
  8
3
  6
CONTINUOUS
 62
     0
 10
3482.5595246947478
 20
5260.1853503519433
 30
0.0
 11
4198.637924694749
 21
5260.1853503519433
 31
0.0
  0
LINE
  5
7CB5
  8
3
  6
CONTINUOUS
 62
     0
 10
3397.8542616947479
 20
4186.1853503519433
 30
0.0
 11
4198.637924694749
 21
4186.1853503519433
 31
0.0
  0
LINE
  5
7CB6
  8
3
  6
CONTINUOUS
 62
     0
 10
4153.637924694749
 20
5170.1853503519433
 30
0.0
 11
4153.637924694749
 21
4276.1853503519433
 31
0.0
  0
INSERT
  5
7CB7
  8
3
  6
CONTINUOUS
 62
     0
  2
_OPEN
 10
4153.637924694749
 20
5260.1853503519433
 30
0.0
 41
90.0
 42
90.0
 43
90.0
 50
90.0
  0
INSERT
  5
7CB8
  8
3
  6
CONTINUOUS
 62
     0
  2
_OPEN
 10
4153.637924694749
 20
4186.1853503519433
 30
0.0
 41
90.0
 42
90.0
 43
90.0
 50
270.0
  0
TEXT
  8
3
  40
135
  5
7D35
  62
0
  72
0
  71
0
 10
3771.14
 20
4549.95
 30
0.000000
  1
1074
  0
POINT
  5
7CBA
  8
DEFPOINTS
  6
CONTINUOUS
 62
     0
 10
3460.0595246947478
 20
5260.1853503519433
 30
0.0
  0
POINT
  5
7CBB
  8
DEFPOINTS
  6
CONTINUOUS
 62
     0
 10
3375.3542616947489
 20
4186.1853503519433
 30
0.0
  0
POINT
  5
7CBC
  8
DEFPOINTS
  6
CONTINUOUS
 62
     0
 10
4153.637924694749
 20
4186.1853503519433
 30
0.0
  0
ENDBLK
  5
7B08
  8
0
  0
BLOCK
  8
0
  2
*D5
 70
     1
 10
0.0
 20
0.0
 30
0.0
  3
*D5
  1

  0
LINE
  5
7CBD
  8
3
  6
CONTINUOUS
 62
     0
 10
3427.5595246947491
 20
3436.1853503519428
 30
0.0
 11
4198.6379246947481
 21
3436.1853503519428
 31
0.0
  0
LINE
  5
7CBE
  8
3
  6
CONTINUOUS
 62
     0
 10
4153.6379246947481
 20
4096.1853503519442
 30
0.0
 11
4153.6379246947481
 21
3526.1853503519428
 31
0.0
  0
INSERT
  5
7CBF
  8
3
  6
CONTINUOUS
 62
     0
  2
_OPEN
 10
4153.6379246947481
 20
4186.1853503519433
 30
0.0
 41
90.0
 42
90.0
 43
90.0
 50
90.0
  0
INSERT
  5
7CC0
  8
3
  6
CONTINUOUS
 62
     0
  2
_OPEN
 10
4153.6379246947481
 20
3436.1853503519428
 30
0.0
 41
90.0
 42
90.0
 43
90.0
 50
270.0
  0
TEXT
  8
3
  40
135
  5
7D36
  62
0
  72
0
  71
0
 10
3771.14
 20
3572.24
 30
0.000000
  1
750
  0
POINT
  5
7CC2
  8
DEFPOINTS
  6
CONTINUOUS
 62
     0
 10
3375.3542616947489
 20
4186.1853503519433
 30
0.0
  0
POINT
  5
7CC3
  8
DEFPOINTS
  6
CONTINUOUS
 62
     0
 10
3405.0595246947491
 20
3436.1853503519428
 30
0.0
  0
POINT
  5
7CC4
  8
DEFPOINTS
  6
CONTINUOUS
 62
     0
 10
4153.6379246947481
 20
3436.1853503519428
 30
0.0
  0
ENDBLK
  5
7B14
  8
0
  0
BLOCK
  8
0
  2
*D6
 70
     1
 10
0.0
 20
0.0
 30
0.0
  3
*D6
  1

  0
LINE
  5
7CC5
  8
3
  6
CONTINUOUS
 62
     0
 10
1912.059524694748
 20
4208.6853503519433
 30
0.0
 11
1912.059524694748
 21
5460.437458351942
 31
0.0
  0
LINE
  5
7CC6
  8
3
  6
CONTINUOUS
 62
     0
 10
2780.0595246947491
 20
5224.6853503519433
 30
0.0
 11
2780.0595246947491
 21
5460.437458351942
 31
0.0
  0
LINE
  5
7CC7
  8
3
  6
CONTINUOUS
 62
     0
 10
2002.059524694748
 20
5415.437458351942
 30
0.0
 11
2690.0595246947491
 21
5415.437458351942
 31
0.0
  0
INSERT
  5
7CC8
  8
3
  6
CONTINUOUS
 62
     0
  2
_OPEN
 10
1912.059524694748
 20
5415.437458351942
 30
0.0
 41
90.0
 42
90.0
 43
90.0
 50
180.0
  0
INSERT
  5
7CC9
  8
3
  6
CONTINUOUS
 62
     0
  2
_OPEN
 10
2780.0595246947491
 20
5415.437458351942
 30
0.0
 41
90.0
 42
90.0
 43
90.0
  0
TEXT
  8
3
  40
135
  5
7D37
  62
0
  72
0
  71
0
 10
2075.69
 20
5288.99
 30
0.000000
  1
868
  0
POINT
  5
7CCB
  8
DEFPOINTS
  6
CONTINUOUS
 62
     0
 10
1912.059524694748
 20
4186.1853503519433
 30
0.0
  0
POINT
  5
7CCC
  8
DEFPOINTS
  6
CONTINUOUS
 62
     0
 10
2780.0595246947491
 20
5202.1853503519433
 30
0.0
  0
POINT
  5
7CCD
  8
DEFPOINTS
  6
CONTINUOUS
 62
     0
 10
2780.0595246947491
 20
5415.437458351942
 30
0.0
  0
ENDBLK
  5
7C61
  8
0
  0
BLOCK
  8
0
  2
*D7
 70
     1
 10
0.0
 20
0.0
 30
0.0
  3
*D7
  1

  0
LINE
  5
7CCE
  8
3
  6
CONTINUOUS
 62
     0
 10
3460.0595246947478
 20
5335.6853503519433
 30
0.0
 11
3460.0595246947478
 21
5460.437458351942
 31
0.0
  0
LINE
  5
7CCF
  8
3
  6
CONTINUOUS
 62
     0
 10
2870.0595246947478
 20
5415.437458351942
 30
0.0
 11
3370.0595246947478
 21
5415.437458351942
 31
0.0
  0
INSERT
  5
7CD0
  8
3
  6
CONTINUOUS
 62
     0
  2
_OPEN
 10
2780.0595246947491
 20
5415.437458351942
 30
0.0
 41
90.0
 42
90.0
 43
90.0
 50
180.0
  0
INSERT
  5
7CD1
  8
3
  6
CONTINUOUS
 62
     0
  2
_OPEN
 10
3460.0595246947478
 20
5415.437458351942
 30
0.0
 41
90.0
 42
90.0
 43
90.0
  0
TEXT
  8
3
  40
135
  5
7D38
  62
0
  72
0
  71
0
 10
2850.06
 20
5288.99
 30
0.000000
  1
680
  0
POINT
  5
7CD3
  8
DEFPOINTS
  6
CONTINUOUS
 62
     0
 10
2780.0595246947491
 20
5202.1853503519433
 30
0.0
  0
POINT
  5
7CD4
  8
DEFPOINTS
  6
CONTINUOUS
 62
     0
 10
3460.0595246947478
 20
5313.1853503519433
 30
0.0
  0
POINT
  5
7CD5
  8
DEFPOINTS
  6
CONTINUOUS
 62
     0
 10
3460.0595246947478
 20
5415.437458351942
 30
0.0
  0
ENDBLK
  5
7B3A
  8
0
  0
BLOCK
  8
0
  2
*D8
 70
     1
 10
0.0
 20
0.0
 30
0.0
  3
*D8
  1

  0
LINE
  5
7CD6
  8
3
  6
CONTINUOUS
 62
     0
 10
1285.059524694748
 20
7844.8787908404702
 30
0.0
 11
1285.059524694748
 21
7340.4018738404702
 31
0.0
  0
LINE
  5
7CD7
  8
3
  6
CONTINUOUS
 62
     0
 10
3405.0595246947491
 20
7844.8787908404702
 30
0.0
 11
3405.0595246947491
 21
7340.4018738404702
 31
0.0
  0
LINE
  5
7CD8
  8
3
  6
CONTINUOUS
 62
     0
 10
1375.059524694748
 20
7385.4018738404702
 30
0.0
 11
3315.0595246947491
 21
7385.4018738404702
 31
0.0
  0
INSERT
  5
7CD9
  8
3
  6
CONTINUOUS
 62
     0
  2
_OPEN
 10
1285.059524694748
 20
7385.4018738404702
 30
0.0
 41
90.0
 42
90.0
 43
90.0
 50
180.0
  0
INSERT
  5
7CDA
  8
3
  6
CONTINUOUS
 62
     0
  2
_OPEN
 10
3405.0595246947491
 20
7385.4018738404702
 30
0.0
 41
90.0
 42
90.0
 43
90.0
  0
TEXT
  8
3
  40
135
  5
7D39
  62
0
  72
0
  71
0
 10
2046.43
 20
7258.95
 30
0.000000
  1
2120
  0
POINT
  5
7CDC
  8
DEFPOINTS
  6
CONTINUOUS
 62
     0
 10
1285.059524694748
 20
7867.3787908404702
 30
0.0
  0
POINT
  5
7CDD
  8
DEFPOINTS
  6
CONTINUOUS
 62
     0
 10
3405.0595246947491
 20
7867.3787908404702
 30
0.0
  0
POINT
  5
7CDE
  8
DEFPOINTS
  6
CONTINUOUS
 62
     0
 10
3405.0595246947491
 20
7385.4018738404702
 30
0.0
  0
ENDBLK
  5
7B47
  8
0
  0
BLOCK
  8
0
  2
*D9
 70
     1
 10
0.0
 20
0.0
 30
0.0
  3
*D9
  1

  0
LINE
  5
7CDF
  8
3
  6
CONTINUOUS
 62
     0
 10
3427.5595246947491
 20
8927.3787908404684
 30
0.0
 11
3906.0896616947489
 21
8927.3787908404684
 31
0.0
  0
LINE
  5
7CE0
  8
3
  6
CONTINUOUS
 62
     0
 10
3427.5595246947491
 20
7867.3787908404702
 30
0.0
 11
3906.0896616947489
 21
7867.3787908404702
 31
0.0
  0
LINE
  5
7CE1
  8
3
  6
CONTINUOUS
 62
     0
 10
3861.0896616947498
 20
8837.3787908404702
 30
0.0
 11
3861.0896616947498
 21
7957.3787908404693
 31
0.0
  0
INSERT
  5
7CE2
  8
3
  6
CONTINUOUS
 62
     0
  2
_OPEN
 10
3861.0896616947498
 20
8927.3787908404684
 30
0.0
 41
90.0
 42
90.0
 43
90.0
 50
90.0
  0
INSERT
  5
7CE3
  8
3
  6
CONTINUOUS
 62
     0
  2
_OPEN
 10
3861.0896616947498
 20
7867.3787908404702
 30
0.0
 41
90.0
 42
90.0
 43
90.0
 50
270.0
  0
TEXT
  8
3
  40
135
  5
7D3A
  62
0
  72
0
  71
0
 10
3478.59
 20
8181.54
 30
0.000000
  1
1060
  0
POINT
  5
7CE5
  8
DEFPOINTS
  6
CONTINUOUS
 62
     0
 10
3405.0595246947491
 20
8927.3787908404684
 30
0.0
  0
POINT
  5
7CE6
  8
DEFPOINTS
  6
CONTINUOUS
 62
     0
 10
3405.0595246947491
 20
7867.3787908404702
 30
0.0
  0
POINT
  5
7CE7
  8
DEFPOINTS
  6
CONTINUOUS
 62
     0
 10
3861.0896616947498
 20
7867.3787908404702
 30
0.0
  0
ENDBLK
  5
7B54
  8
0
  0
BLOCK
  8
0
  2
*D10
 70
     1
 10
0.0
 20
0.0
 30
0.0
  3
*D10
  1

  0
LINE
  5
7CE8
  8
3
  6
CONTINUOUS
 62
     0
 10
5751.559135694748
 20
3413.6853503519428
 30
0.0
 11
5751.559135694748
 21
3054.227676351943
 31
0.0
  0
LINE
  5
7CE9
  8
3
  6
CONTINUOUS
 62
     0
 10
6368.5591356947489
 20
3287.134999351942
 30
0.0
 11
6368.5591356947489
 21
3054.227676351943
 31
0.0
  0
LINE
  5
7CEA
  8
3
  6
CONTINUOUS
 62
     0
 10
5661.559135694748
 20
3099.227676351943
 30
0.0
 11
5571.559135694748
 21
3099.227676351943
 31
0.0
  0
LINE
  5
7CEB
  8
3
  6
CONTINUOUS
 62
     0
 10
6458.559135694748
 20
3099.227676351943
 30
0.0
 11
6548.5591356947489
 21
3099.227676351943
 31
0.0
  0
LINE
  5
7CEC
  8
3
  6
CONTINUOUS
 62
     0
 10
5751.559135694748
 20
3099.227676351943
 30
0.0
 11
6368.5591356947489
 21
3099.227676351943
 31
0.0
  0
INSERT
  5
7CED
  8
3
  6
CONTINUOUS
 62
     0
  2
_OPEN
 10
5751.559135694748
 20
3099.227676351943
 30
0.0
 41
90.0
 42
90.0
 43
90.0
  0
INSERT
  5
7CEE
  8
3
  6
CONTINUOUS
 62
     0
  2
_OPEN
 10
6368.5591356947489
 20
3099.227676351943
 30
0.0
 41
90.0
 42
90.0
 43
90.0
 50
180.0
  0
TEXT
  8
3
  40
135
  5
7D3B
  62
0
  72
0
  71
0
 10
5777.27
 20
2972.78
 30
0.000000
  1
617
  0
POINT
  5
7CF0
  8
DEFPOINTS
  6
CONTINUOUS
 62
     0
 10
5751.559135694748
 20
3436.1853503519428
 30
0.0
  0
POINT
  5
7CF1
  8
DEFPOINTS
  6
CONTINUOUS
 62
     0
 10
6368.5591356947489
 20
3309.634999351942
 30
0.0
  0
POINT
  5
7CF2
  8
DEFPOINTS
  6
CONTINUOUS
 62
     0
 10
6368.5591356947489
 20
3099.227676351943
 30
0.0
  0
ENDBLK
  5
7B65
  8
0
  0
BLOCK
  8
0
  2
*D11
 70
     1
 10
0.0
 20
0.0
 30
0.0
  3
*D11
  1

  0
LINE
  5
7CF3
  8
3
  6
CONTINUOUS
 62
     0
 10
6811.5591356947489
 20
3413.6853503519428
 30
0.0
 11
6811.5591356947489
 21
3054.227676351943
 31
0.0
  0
LINE
  5
7CF4
  8
3
  6
CONTINUOUS
 62
     0
 10
6458.559135694748
 20
3099.227676351943
 30
0.0
 11
6721.559135694748
 21
3099.227676351943
 31
0.0
  0
TEXT
  8
3
  40
135
  5
7D3C
  62
0
  72
0
  71
0
 10
6319.39
 20
2972.78
 30
0.000000
  1
443
  0
INSERT
  5
7CF6
  8
3
  6
CONTINUOUS
 62
     0
  2
_OPEN
 10
6368.5591356947489
 20
3099.227676351943
 30
0.0
 41
90.0
 42
90.0
 43
90.0
 50
180.0
  0
INSERT
  5
7CF7
  8
3
  6
CONTINUOUS
 62
     0
  2
_OPEN
 10
6811.5591356947489
 20
3099.227676351943
 30
0.0
 41
90.0
 42
90.0
 43
90.0
  0
POINT
  5
7CF8
  8
DEFPOINTS
  6
CONTINUOUS
 62
     0
 10
6368.5591356947489
 20
3309.634999351942
 30
0.0
  0
POINT
  5
7CF9
  8
DEFPOINTS
  6
CONTINUOUS
 62
     0
 10
6811.5591356947489
 20
3436.1853503519428
 30
0.0
  0
POINT
  5
7CFA
  8
DEFPOINTS
  6
CONTINUOUS
 62
     0
 10
6811.5591356947489
 20
3099.227676351943
 30
0.0
  0
ENDBLK
  5
7B8A
  8
0
  0
BLOCK
  8
0
  2
*D12
 70
     1
 10
0.0
 20
0.0
 30
0.0
  3
*D12
  1

  0
LINE
  5
7CFB
  8
3
  6
CONTINUOUS
 62
     0
 10
5993.5591356947489
 20
5282.6853503519433
 30
0.0
 11
5993.5591356947489
 21
5493.7760743519439
 31
0.0
  0
LINE
  5
7CFC
  8
3
  6
CONTINUOUS
 62
     0
 10
6743.5591356947489
 20
5282.6853503519433
 30
0.0
 11
6743.5591356947489
 21
5493.7760743519439
 31
0.0
  0
LINE
  5
7CFD
  8
3
  6
CONTINUOUS
 62
     0
 10
5903.5591356947489
 20
5448.776074351943
 30
0.0
 11
5813.5591356947489
 21
5448.776074351943
 31
0.0
  0
LINE
  5
7CFE
  8
3
  6
CONTINUOUS
 62
     0
 10
6833.559135694748
 20
5448.776074351943
 30
0.0
 11
6923.5591356947489
 21
5448.776074351943
 31
0.0
  0
LINE
  5
7CFF
  8
3
  6
CONTINUOUS
 62
     0
 10
5993.5591356947489
 20
5448.776074351943
 30
0.0
 11
6743.5591356947489
 21
5448.776074351943
 31
0.0
  0
INSERT
  5
7D00
  8
3
  6
CONTINUOUS
 62
     0
  2
_OPEN
 10
5993.5591356947489
 20
5448.776074351943
 30
0.0
 41
90.0
 42
90.0
 43
90.0
  0
INSERT
  5
7D01
  8
3
  6
CONTINUOUS
 62
     0
  2
_OPEN
 10
6743.5591356947489
 20
5448.776074351943
 30
0.0
 41
90.0
 42
90.0
 43
90.0
 50
180.0
  0
TEXT
  8
3
  40
135
  5
7D3D
  62
0
  72
0
  71
0
 10
6032.13
 20
5322.33
 30
0.000000
  1
750
  0
POINT
  5
7D03
  8
DEFPOINTS
  6
CONTINUOUS
 62
     0
 10
5993.5591356947489
 20
5260.1853503519433
 30
0.0
  0
POINT
  5
7D04
  8
DEFPOINTS
  6
CONTINUOUS
 62
     0
 10
6743.5591356947489
 20
5260.1853503519433
 30
0.0
  0
POINT
  5
7D05
  8
DEFPOINTS
  6
CONTINUOUS
 62
     0
 10
6743.5591356947489
 20
5448.776074351943
 30
0.0
  0
ENDBLK
  5
7B96
  8
0
  0
BLOCK
  8
0
  2
*D13
 70
     1
 10
0.0
 20
0.0
 30
0.0
  3
*D13
  1

  0
LINE
  5
7D06
  8
3
  6
CONTINUOUS
 62
     0
 10
5688.559135694748
 20
4475.3853503519431
 30
0.0
 11
5688.559135694748
 21
5786.0084623519442
 31
0.0
  0
LINE
  5
7D07
  8
3
  6
CONTINUOUS
 62
     0
 10
6368.5591356947489
 20
5672.165353351942
 30
0.0
 11
6368.5591356947489
 21
5786.0084623519442
 31
0.0
  0
LINE
  5
7D08
  8
3
  6
CONTINUOUS
 62
     0
 10
5778.559135694748
 20
5741.0084623519433
 30
0.0
 11
6278.5591356947489
 21
5741.0084623519433
 31
0.0
  0
INSERT
  5
7D09
  8
3
  6
CONTINUOUS
 62
     0
  2
_OPEN
 10
5688.559135694748
 20
5741.0084623519433
 30
0.0
 41
90.0
 42
90.0
 43
90.0
 50
180.0
  0
INSERT
  5
7D0A
  8
3
  6
CONTINUOUS
 62
     0
  2
_OPEN
 10
6368.5591356947489
 20
5741.0084623519433
 30
0.0
 41
90.0
 42
90.0
 43
90.0
  0
TEXT
  8
3
  40
135
  5
7D3E
  62
0
  72
0
  71
0
 10
5746.42
 20
5727.06
 30
0.000000
  1
MAX
  0
TEXT
  8
3
  40
135
  5
7D3F
  62
0
  72
0
  71
0
 10
5746.42
 20
5551.56
 30
0.000000
  1
770
  0
POINT
  5
7D0C
  8
DEFPOINTS
  6
CONTINUOUS
 62
     0
 10
5688.559135694748
 20
4452.8853503519431
 30
0.0
  0
POINT
  5
7D0D
  8
DEFPOINTS
  6
CONTINUOUS
 62
     0
 10
6368.5591356947489
 20
5649.665353351942
 30
0.0
  0
POINT
  5
7D0E
  8
DEFPOINTS
  6
CONTINUOUS
 62
     0
 10
6368.5591356947489
 20
5741.0084623519433
 30
0.0
  0
ENDBLK
  5
7C70
  8
0
  0
BLOCK
  8
0
  2
*D14
 70
     1
 10
0.0
 20
0.0
 30
0.0
  3
*D14
  1

  0
LINE
  5
7D0F
  8
3
  6
CONTINUOUS
 62
     0
 10
6846.559135694748
 20
4708.6853503519433
 30
0.0
 11
6846.559135694748
 21
5786.0084623519442
 31
0.0
  0
LINE
  5
7D10
  8
3
  6
CONTINUOUS
 62
     0
 10
6458.559135694748
 20
5741.0084623519433
 30
0.0
 11
6756.5591356947489
 21
5741.0084623519433
 31
0.0
  0
TEXT
  8
3
  40
135
  5
7D40
  62
0
  72
0
  71
0
 10
6307.69
 20
5614.56
 30
0.000000
  1
478
  0
INSERT
  5
7D12
  8
3
  6
CONTINUOUS
 62
     0
  2
_OPEN
 10
6368.5591356947489
 20
5741.0084623519433
 30
0.0
 41
90.0
 42
90.0
 43
90.0
 50
180.0
  0
INSERT
  5
7D13
  8
3
  6
CONTINUOUS
 62
     0
  2
_OPEN
 10
6846.559135694748
 20
5741.0084623519433
 30
0.0
 41
90.0
 42
90.0
 43
90.0
  0
POINT
  5
7D14
  8
DEFPOINTS
  6
CONTINUOUS
 62
     0
 10
6368.5591356947489
 20
5649.665353351942
 30
0.0
  0
POINT
  5
7D15
  8
DEFPOINTS
  6
CONTINUOUS
 62
     0
 10
6846.559135694748
 20
4686.1853503519433
 30
0.0
  0
POINT
  5
7D16
  8
DEFPOINTS
  6
CONTINUOUS
 62
     0
 10
6846.559135694748
 20
5741.0084623519433
 30
0.0
  0
ENDBLK
  5
7C0A
  8
0
  0
BLOCK
  8
0
  2
*D15
 70
     1
 10
0.0
 20
0.0
 30
0.0
  3
*D15
  1

  0
LINE
  5
7D17
  8
3
  6
CONTINUOUS
 62
     0
 10
6869.0591356947489
 20
4686.1853503519433
 30
0.0
 11
7207.7827196947483
 21
4686.1853503519433
 31
0.0
  0
LINE
  5
7D18
  8
3
  6
CONTINUOUS
 62
     0
 10
6869.0591356947489
 20
3686.1853503519428
 30
0.0
 11
7207.7827196947483
 21
3686.1853503519428
 31
0.0
  0
LINE
  5
7D19
  8
3
  6
CONTINUOUS
 62
     0
 10
7162.7827196947483
 20
4596.1853503519442
 30
0.0
 11
7162.7827196947483
 21
3776.1853503519428
 31
0.0
  0
INSERT
  5
7D1A
  8
3
  6
CONTINUOUS
 62
     0
  2
_OPEN
 10
7162.7827196947483
 20
4686.1853503519433
 30
0.0
 41
90.0
 42
90.0
 43
90.0
 50
90.0
  0
INSERT
  5
7D1B
  8
3
  6
CONTINUOUS
 62
     0
  2
_OPEN
 10
7162.7827196947483
 20
3686.1853503519428
 30
0.0
 41
90.0
 42
90.0
 43
90.0
 50
270.0
  0
TEXT
  8
3
  40
135
  5
7D41
  62
0
  72
0
  71
0
 10
6780.28
 20
4006.24
 30
0.000000
  1
φ1000
  0
POINT
  5
7D1D
  8
DEFPOINTS
  6
CONTINUOUS
 62
     0
 10
6846.559135694748
 20
4686.1853503519433
 30
0.0
  0
POINT
  5
7D1E
  8
DEFPOINTS
  6
CONTINUOUS
 62
     0
 10
6846.559135694748
 20
3686.1853503519428
 30
0.0
  0
POINT
  5
7D1F
  8
DEFPOINTS
  6
CONTINUOUS
 62
     0
 10
7162.7827196947483
 20
3686.1853503519428
 30
0.0
  0
ENDBLK
  5
7C48
  8
0
  0
BLOCK
  8
0
  2
*D16
 70
     1
 10
0.0
 20
0.0
 30
0.0
  3
*D16
  1

  0
LINE
  5
7D20
  8
3
  6
CONTINUOUS
 62
     0
 10
3482.5595246947478
 20
5313.1853503519433
 30
0.0
 11
4505.8491776947503
 21
5313.1853503519433
 31
0.0
  0
LINE
  5
7D21
  8
3
  6
CONTINUOUS
 62
     0
 10
3427.5595246947491
 20
3436.1853503519428
 30
0.0
 11
4505.8491776947503
 21
3436.1853503519428
 31
0.0
  0
LINE
  5
7D22
  8
3
  6
CONTINUOUS
 62
     0
 10
4460.8491776947503
 20
5223.1853503519433
 30
0.0
 11
4460.8491776947503
 21
3526.1853503519428
 31
0.0
  0
INSERT
  5
7D23
  8
3
  6
CONTINUOUS
 62
     0
  2
_OPEN
 10
4460.8491776947503
 20
5313.1853503519433
 30
0.0
 41
90.0
 42
90.0
 43
90.0
 50
90.0
  0
INSERT
  5
7D24
  8
3
  6
CONTINUOUS
 62
     0
  2
_OPEN
 10
4460.8491776947503
 20
3436.1853503519428
 30
0.0
 41
90.0
 42
90.0
 43
90.0
 50
270.0
  0
TEXT
  8
3
  40
135
  5
7D42
  62
0
  72
0
  71
0
 10
4078.35
 20
4152.02
 30
0.000000
  1
1877
  0
POINT
  5
7D26
  8
DEFPOINTS
  6
CONTINUOUS
 62
     0
 10
3460.0595246947478
 20
5313.1853503519433
 30
0.0
  0
POINT
  5
7D27
  8
DEFPOINTS
  6
CONTINUOUS
 62
     0
 10
3405.0595246947491
 20
3436.1853503519428
 30
0.0
  0
POINT
  5
7D28
  8
DEFPOINTS
  6
CONTINUOUS
 62
     0
 10
4460.8491776947503
 20
3436.1853503519428
 30
0.0
  0
ENDBLK
  5
7C21
  8
0
  0
BLOCK
  8
0
  2
*D17
 70
     1
 10
0.0
 20
0.0
 30
0.0
  3
*D17
  1

  0
LINE
  5
7D29
  8
3
 62
     0
 10
3460.0595246947478
 20
5335.6853503519433
 30
0.0
 11
3460.0595246947478
 21
5763.5728894793237
 31
0.0
  0
LINE
  5
7D2A
  8
3
 62
     0
 10
1285.059524694748
 20
3583.6853503519428
 30
0.0
 11
1285.0595246947489
 21
5763.5728894793237
 31
0.0
  0
LINE
  5
7D2B
  8
3
 62
     0
 10
3370.0595246947478
 20
5718.5728894793247
 30
0.0
 11
1375.0595246947489
 21
5718.5728894793247
 31
0.0
  0
INSERT
  5
7D2C
  8
3
 62
     0
  2
_OPEN
 10
3460.0595246947478
 20
5718.5728894793247
 30
0.0
 41
90.0
 42
90.0
 43
90.0
  0
INSERT
  5
7D2D
  8
3
 62
     0
  2
_OPEN
 10
1285.0595246947489
 20
5718.5728894793247
 30
0.0
 41
90.0
 42
90.0
 43
90.0
 50
180.0
  0
TEXT
  8
3
  40
135
  5
7D43
  62
0
  72
0
  71
0
 10
2158.50
 20
5592.12
 30
0.000000
  1
2175
  0
POINT
  5
7D2F
  8
DEFPOINTS
 62
     0
 10
3460.0595246947478
 20
5313.1853503519433
 30
0.0
  0
POINT
  5
7D30
  8
DEFPOINTS
 62
     0
 10
1285.059524694748
 20
3561.1853503519428
 30
0.0
  0
POINT
  5
7D31
  8
DEFPOINTS
 62
     0
 10
1285.0595246947489
 20
5718.5728894793247
 30
0.0
  0
ENDBLK
  5
7C54
  8
0
  0
ENDSEC
  0
SECTION
  2
ENTITIES
  0
LINE
  5
7A6A
  8
1
  6
CONTINUOUS
 10
1360.059524694748
 20
7804.3787908404711
 30
0.0
 11
1360.059524694748
 21
8004.3787908404711
 31
0.0
  0
LINE
  5
7A6B
  8
1
  6
CONTINUOUS
 10
3040.0595246947491
 20
7804.3787908404711
 30
0.0
 11
3040.0595246947491
 21
8004.3787908404711
 31
0.0
  0
POLYLINE
  5
7A6C
  8
1
  6
CONTINUOUS
 66
     1
 10
0.0
 20
0.0
 30
0.0
  0
VERTEX
  5
7C93
  8
1
  6
CONTINUOUS
 10
3460.0595246947478
 20
5260.1853503519433
 30
0.0
  0
VERTEX
  5
7C94
  8
1
  6
CONTINUOUS
 10
2780.0595246947491
 20
5202.1853503519433
 30
0.0
 42
0.4
  0
VERTEX
  5
7C95
  8
1
  6
CONTINUOUS
 10
1909.159524694747
 20
4260.1853503519433
 30
0.0
 42
0.4
  0
VERTEX
  5
7C96
  8
1
  6
CONTINUOUS
 10
2785.6595246947468
 20
3467.1853503519428
 30
0.0
 42
0.4
  0
VERTEX
  5
7C97
  8
1
  6
CONTINUOUS
 10
3381.259524694749
 20
4125.6853503519424
 30
0.0
  0
VERTEX
  5
7C98
  8
1
  6
CONTINUOUS
 10
3371.0595246947478
 20
4230.1853503519433
 30
0.0
 42
0.4
  0
SEQEND
  5
7C99
  8
1
  6
CONTINUOUS
  0
LINE
  5
7A74
  8
1
  6
CONTINUOUS
 10
3405.0595246947491
 20
3436.1853503519428
 30
0.0
 11
1285.059524694748
 21
3436.1853503519428
 31
0.0
  0
LINE
  5
7A75
  8
1
  6
CONTINUOUS
 10
3405.0595246947491
 20
3561.1853503519428
 30
0.0
 11
1285.059524694748
 21
3561.1853503519428
 31
0.0
  0
LINE
  5
7A76
  8
1
  6
CONTINUOUS
 10
3040.0595246947491
 20
7804.3787908404711
 30
0.0
 11
1360.059524694748
 21
7804.3787908404711
 31
0.0
  0
LINE
  5
7A77
  8
1
  6
CONTINUOUS
 10
1525.159524694747
 20
3889.8853503519431
 30
0.0
 11
2724.259524694749
 21
4336.085350351942
 31
0.0
  0
LINE
  5
7A78
  8
1
  6
CONTINUOUS
 10
1490.259524694749
 20
3983.5853503519429
 30
0.0
 11
2689.359524694748
 21
4429.7853503519427
 31
0.0
  0
LINE
  5
7A79
  8
1
  6
CONTINUOUS
 10
1586.059524694748
 20
3699.585350351942
 30
0.0
 11
2821.5595246947478
 21
4031.585350351942
 31
0.0
  0
LINE
  5
7A7A
  8
1
  6
CONTINUOUS
 10
1611.9595246947481
 20
3602.985350351943
 30
0.0
 11
2847.5595246947478
 21
3935.0853503519429
 31
0.0
  0
ARC
  5
7A7B
  8
1
  6
CONTINUOUS
 10
1560.059524694748
 20
3796.1853503519428
 30
0.0
 40
182.5
 50
326.60000000000002
 51
213.40000000000001
  0
LINE
  5
7A7C
  8
1
  6
CONTINUOUS
 10
1350.059524694748
 20
3616.1853503519428
 30
0.0
 11
1770.059524694748
 21
3616.1853503519428
 31
0.0
  0
ARC
  5
7A7D
  8
1
  6
CONTINUOUS
 10
1560.059524694748
 20
3796.1853503519428
 30
0.0
 40
200.0
 50
110.40000000000001
 51
285.0
  0
LINE
  5
7A7E
  8
1
  6
CONTINUOUS
 10
1285.059524694748
 20
3561.1853503519428
 30
0.0
 11
1285.059524694748
 21
3436.1853503519428
 31
0.0
  0
LINE
  5
7A7F
  8
1
  6
CONTINUOUS
 10
1398.059524694748
 20
3686.1853503519428
 30
0.0
 11
1407.659524694747
 21
3695.6853503519428
 31
0.0
  0
LINE
  5
7A80
  8
1
  6
CONTINUOUS
 10
1398.059524694748
 20
3616.1853503519428
 30
0.0
 11
1398.059524694748
 21
3686.1853503519428
 31
0.0
  0
LINE
  5
7A81
  8
1
  6
CONTINUOUS
 10
1335.059524694748
 20
3561.1853503519428
 30
0.0
 11
1350.059524694748
 21
3616.1853503519428
 31
0.0
  0
CIRCLE
  5
7A82
  8
1
  6
CONTINUOUS
 10
1560.059524694748
 20
3796.1853503519428
 30
0.0
 40
100.0
  0
LINE
  5
7A83
  8
2
  6
CENTER
 10
1560.059524694748
 20
3691.1853503519428
 30
0.0
 11
1560.059524694748
 21
3901.1853503519428
 31
0.0
  0
LINE
  5
7A84
  8
2
  6
CENTER
 10
1455.059524694748
 20
3796.1853503519428
 30
0.0
 11
1665.059524694748
 21
3796.1853503519428
 31
0.0
  0
LINE
  5
7A85
  8
1
  6
CONTINUOUS
 10
1722.059524694748
 20
3686.1853503519428
 30
0.0
 11
1712.4595246947481
 21
3695.6853503519428
 31
0.0
  0
LINE
  5
7A86
  8
1
  6
CONTINUOUS
 10
1722.059524694748
 20
3616.1853503519428
 30
0.0
 11
1722.059524694748
 21
3686.1853503519428
 31
0.0
  0
LINE
  5
7A87
  8
1
  6
CONTINUOUS
 10
1785.059524694748
 20
3561.1853503519428
 30
0.0
 11
1770.059524694748
 21
3616.1853503519428
 31
0.0
  0
CIRCLE
  5
7A88
  8
1
  6
CONTINUOUS
 10
2780.0595246947491
 20
4186.1853503519433
 30
0.0
 40
500.0
  0
CIRCLE
  5
7A89
  8
1
  6
CONTINUOUS
 10
2780.0595246947491
 20
4186.1853503519433
 30
0.0
 40
550.0
  0
ARC
  5
7A8A
  8
1
  6
CONTINUOUS
 10
2780.0595246947491
 20
4186.1853503519433
 30
0.0
 40
260.0
 50
285.0
 51
110.40000000000001
  0
LINE
  5
7A8B
  8
2
  6
CENTER
 10
6767.0021426947487
 20
4186.1853503519433
 30
0.0
 11
5547.9161566947487
 21
4186.1853503519433
 31
0.0
  0
CIRCLE
  5
7A8C
  8
1
  6
CONTINUOUS
 10
2780.0595246947491
 20
4186.1853503519433
 30
0.0
 40
160.0
  0
LINE
  5
7A8D
  8
2
  6
CENTER
 10
2780.0595246947491
 20
9038.1156198404715
 30
0.0
 11
2780.0595246947491
 21
7729.6546388404722
 31
0.0
  0
LINE
  5
7A8E
  8
1
  6
CONTINUOUS
 10
3460.0595246947478
 20
4177.1853503519433
 30
0.0
 11
3460.0595246947478
 21
5313.1853503519433
 31
0.0
  0
LINE
  5
7A8F
  8
1
  6
CONTINUOUS
 10
3410.0595246947478
 20
4230.1853503519433
 30
0.0
 11
3410.0595246947478
 21
5260.1853503519433
 31
0.0
  0
LINE
  5
7A90
  8
1
  6
CONTINUOUS
 10
3405.0595246947491
 20
3561.1853503519428
 30
0.0
 11
3405.0595246947491
 21
3436.1853503519428
 31
0.0
  0
LINE
  5
7A91
  8
1
  6
CONTINUOUS
 10
3371.0595246947478
 20
4230.1853503519433
 30
0.0
 11
3460.0595246947478
 21
4230.1853503519433
 31
0.0
  0
LINE
  5
7A92
  8
1
  6
CONTINUOUS
 10
6811.5591356947489
 20
3561.1853503519428
 30
0.0
 11
5751.559135694748
 21
3561.1853503519428
 31
0.0
  0
LINE
  5
7A93
  8
1
  6
CONTINUOUS
 10
6811.5591356947489
 20
3436.1853503519428
 30
0.0
 11
5751.559135694748
 21
3436.1853503519428
 31
0.0
  0
LINE
  5
7A94
  8
1
  6
CONTINUOUS
 10
6846.559135694748
 20
4686.1853503519433
 30
0.0
 11
6743.5591356947489
 21
4686.1853503519433
 31
0.0
  0
LINE
  5
7A95
  8
1
  6
CONTINUOUS
 10
6846.559135694748
 20
3686.1853503519428
 30
0.0
 11
6743.5591356947489
 21
3686.1853503519428
 31
0.0
  0
LINE
  5
7A96
  8
1
  6
CONTINUOUS
 10
6743.5591356947489
 20
5260.1853503519433
 30
0.0
 11
6743.5591356947489
 21
3561.1853503519428
 31
0.0
  0
LINE
  5
7A97
  8
1
  6
CONTINUOUS
 10
5993.5591356947489
 20
5260.1853503519433
 30
0.0
 11
5993.5591356947489
 21
3561.1853503519428
 31
0.0
  0
LINE
  5
7A98
  8
1
  6
CONTINUOUS
 10
5993.5591356947489
 20
5260.1853503519433
 30
0.0
 11
6743.5591356947489
 21
4230.1853503519433
 31
0.0
  0
LINE
  5
7A99
  8
1
  6
CONTINUOUS
 10
5993.5591356947489
 20
4230.1853503519433
 30
0.0
 11
6743.5591356947489
 21
5260.1853503519433
 31
0.0
  0
LINE
  5
7A9A
  8
1
  6
CONTINUOUS
 10
6743.5591356947489
 20
4230.1853503519433
 30
0.0
 11
5993.5591356947489
 21
4230.1853503519433
 31
0.0
  0
LINE
  5
7A9B
  8
1
  6
CONTINUOUS
 10
5888.559135694748
 20
4452.8853503519431
 30
0.0
 11
5888.559135694748
 21
3596.1853503519428
 31
0.0
  0
LINE
  5
7A9C
  8
1
  6
CONTINUOUS
 10
5688.559135694748
 20
4452.8853503519431
 30
0.0
 11
5688.559135694748
 21
3596.1853503519428
 31
0.0
  0
LINE
  5
7A9D
  8
1
  6
CONTINUOUS
 10
5688.559135694748
 20
3596.1853503519428
 30
0.0
 11
5888.559135694748
 21
3596.1853503519428
 31
0.0
  0
LINE
  5
7A9E
  8
1
  6
CONTINUOUS
 10
5993.5591356947489
 20
3778.8853503519431
 30
0.0
 11
5838.559135694748
 21
3778.8853503519431
 31
0.0
  0
LINE
  5
7A9F
  8
1
  6
CONTINUOUS
 10
5993.5591356947489
 20
3826.8853503519431
 30
0.0
 11
5838.559135694748
 21
3826.8853503519431
 31
0.0
  0
LINE
  5
7AA0
  8
1
  6
CONTINUOUS
 10
5751.559135694748
 20
3561.1853503519428
 30
0.0
 11
5751.559135694748
 21
3436.1853503519428
 31
0.0
  0
LINE
  5
7AA1
  8
1
  6
CONTINUOUS
 10
5738.559135694748
 20
3896.1853503519428
 30
0.0
 11
5838.559135694748
 21
3896.1853503519428
 31
0.0
  0
LINE
  5
7AA2
  8
1
  6
CONTINUOUS
 10
5738.559135694748
 20
3696.1853503519428
 30
0.0
 11
5838.559135694748
 21
3696.1853503519428
 31
0.0
  0
LINE
  5
7AA3
  8
1
  6
CONTINUOUS
 10
5738.559135694748
 20
3896.1853503519428
 30
0.0
 11
5738.559135694748
 21
3696.1853503519428
 31
0.0
  0
LINE
  5
7AA4
  8
1
  6
CONTINUOUS
 10
5838.559135694748
 20
3896.1853503519428
 30
0.0
 11
5838.559135694748
 21
3696.1853503519428
 31
0.0
  0
LINE
  5
7AA5
  8
1
  6
CONTINUOUS
 10
5688.559135694748
 20
4452.8853503519431
 30
0.0
 11
5888.559135694748
 21
4452.8853503519431
 31
0.0
  0
LINE
  5
7AA6
  8
1
  6
CONTINUOUS
 10
5993.5591356947489
 20
4216.8853503519431
 30
0.0
 11
5838.559135694748
 21
4216.8853503519431
 31
0.0
  0
LINE
  5
7AA7
  8
1
  6
CONTINUOUS
 10
5993.5591356947489
 20
4168.8853503519431
 30
0.0
 11
5838.559135694748
 21
4168.8853503519431
 31
0.0
  0
LINE
  5
7AA8
  8
1
  6
CONTINUOUS
 10
5738.559135694748
 20
4352.8853503519422
 30
0.0
 11
5738.559135694748
 21
4019.3853503519431
 31
0.0
  0
LINE
  5
7AA9
  8
1
  6
CONTINUOUS
 10
5838.559135694748
 20
4352.8853503519422
 30
0.0
 11
5838.559135694748
 21
4019.3853503519431
 31
0.0
  0
LINE
  5
7AAA
  8
1
  6
CONTINUOUS
 10
5738.559135694748
 20
4352.8853503519422
 30
0.0
 11
5838.559135694748
 21
4352.8853503519422
 31
0.0
  0
LINE
  5
7AAB
  8
1
  6
CONTINUOUS
 10
5738.559135694748
 20
4019.3853503519431
 30
0.0
 11
5838.559135694748
 21
4019.3853503519431
 31
0.0
  0
LINE
  5
7AAC
  8
1
  6
CONTINUOUS
 10
6743.5591356947489
 20
5260.1853503519433
 30
0.0
 11
5993.5591356947489
 21
5260.1853503519433
 31
0.0
  0
LINE
  5
7AAD
  8
1
  6
CONTINUOUS
 10
6846.559135694748
 20
4736.1853503519433
 30
0.0
 11
6846.559135694748
 21
3636.1853503519428
 31
0.0
  0
LINE
  5
7AAE
  8
1
  6
CONTINUOUS
 10
6811.5591356947489
 20
3561.1853503519428
 30
0.0
 11
6811.5591356947489
 21
3436.1853503519428
 31
0.0
  0
LINE
  5
7AAF
  8
1
  6
CONTINUOUS
 10
3460.0595246947478
 20
8859.3787908404702
 30
0.0
 11
1909.159524694747
 21
8859.3787908404702
 31
0.0
  0
LINE
  5
7AB0
  8
1
  6
CONTINUOUS
 10
3460.0595246947478
 20
8109.3787908404711
 30
0.0
 11
1909.159524694747
 21
8109.3787908404711
 31
0.0
  0
LINE
  5
7AB1
  8
1
  6
CONTINUOUS
 10
3040.0595246947491
 20
8004.3787908404711
 30
0.0
 11
1360.059524694748
 21
8004.3787908404711
 31
0.0
  0
LINE
  5
7AB2
  8
1
  6
CONTINUOUS
 10
2280.0595246947491
 20
8927.3787908404684
 30
0.0
 11
1285.059524694748
 21
8927.3787908404684
 31
0.0
  0
LINE
  5
7AB3
  8
1
  6
CONTINUOUS
 10
2620.0595246947478
 20
7867.3787908404702
 30
0.0
 11
1660.059524694748
 21
7867.3787908404702
 31
0.0
  0
LINE
  5
7AB4
  8
1
  6
CONTINUOUS
 10
1377.559524694748
 20
8027.7787908404698
 30
0.0
 11
1742.559524694748
 21
8027.7787908404698
 31
0.0
  0
LINE
  5
7AB5
  8
1
  6
CONTINUOUS
 10
1377.559524694748
 20
8589.2787908404698
 30
0.0
 11
1742.559524694748
 21
8589.2787908404698
 31
0.0
  0
LINE
  5
7AB6
  8
1
  6
CONTINUOUS
 10
1460.059524694748
 20
7867.3787908404702
 30
0.0
 11
1285.059524694748
 21
7867.3787908404702
 31
0.0
  0
LINE
  5
7AB7
  8
1
  6
CONTINUOUS
 10
1285.059524694748
 20
8927.3787908404684
 30
0.0
 11
1285.059524694748
 21
7867.3787908404702
 31
0.0
  0
LINE
  5
7AB8
  8
1
  6
CONTINUOUS
 10
1377.559524694748
 20
8027.7787908404698
 30
0.0
 11
1377.559524694748
 21
8589.2787908404698
 31
0.0
  0
LINE
  5
7AB9
  8
1
  6
CONTINUOUS
 10
1909.159524694747
 20
8109.3787908404711
 30
0.0
 11
1909.159524694747
 21
8859.3787908404702
 31
0.0
  0
LINE
  5
7ABA
  8
1
  6
CONTINUOUS
 10
1460.059524694748
 20
7854.3787908404702
 30
0.0
 11
1460.059524694748
 21
7954.3787908404711
 31
0.0
  0
LINE
  5
7ABB
  8
1
  6
CONTINUOUS
 10
1660.059524694748
 20
7854.3787908404702
 30
0.0
 11
1660.059524694748
 21
7954.3787908404711
 31
0.0
  0
LINE
  5
7ABC
  8
1
  6
CONTINUOUS
 10
1660.059524694748
 20
7854.3787908404702
 30
0.0
 11
1460.059524694748
 21
7854.3787908404702
 31
0.0
  0
LINE
  5
7ABD
  8
1
  6
CONTINUOUS
 10
1660.059524694748
 20
7954.3787908404711
 30
0.0
 11
1460.059524694748
 21
7954.3787908404711
 31
0.0
  0
LINE
  5
7ABE
  8
1
  6
CONTINUOUS
 10
1536.059524694748
 20
7954.3787908404711
 30
0.0
 11
1536.059524694748
 21
8027.7787908404698
 31
0.0
  0
LINE
  5
7ABF
  8
1
  6
CONTINUOUS
 10
1584.059524694748
 20
7954.3787908404711
 30
0.0
 11
1584.059524694748
 21
8027.7787908404698
 31
0.0
  0
LINE
  5
7AC0
  8
1
  6
CONTINUOUS
 10
1742.559524694748
 20
8027.7787908404698
 30
0.0
 11
1742.559524694748
 21
8589.2787908404698
 31
0.0
  0
LINE
  5
7AC1
  8
1
  6
CONTINUOUS
 10
3405.0595246947491
 20
7867.3787908404702
 30
0.0
 11
2940.0595246947491
 21
7867.3787908404702
 31
0.0
  0
LINE
  5
7AC2
  8
1
  6
CONTINUOUS
 10
3330.0595246947478
 20
8962.3787908404702
 30
0.0
 11
2230.0595246947478
 21
8962.3787908404702
 31
0.0
  0
LINE
  5
7AC3
  8
1
  6
CONTINUOUS
 10
2280.0595246947491
 20
8859.3787908404702
 30
0.0
 11
2280.0595246947491
 21
8962.3787908404702
 31
0.0
  0
LINE
  5
7AC4
  8
1
  6
CONTINUOUS
 10
2940.0595246947491
 20
7954.3787908404711
 30
0.0
 11
2620.0595246947478
 21
7954.3787908404711
 31
0.0
  0
LINE
  5
7AC5
  8
1
  6
CONTINUOUS
 10
2940.0595246947491
 20
7854.3787908404702
 30
0.0
 11
2620.0595246947478
 21
7854.3787908404702
 31
0.0
  0
LINE
  5
7AC6
  8
1
  6
CONTINUOUS
 10
2620.0595246947478
 20
7854.3787908404702
 30
0.0
 11
2620.0595246947478
 21
7954.3787908404711
 31
0.0
  0
LINE
  5
7AC7
  8
1
  6
CONTINUOUS
 10
2804.0595246947478
 20
7954.3787908404711
 30
0.0
 11
2804.0595246947478
 21
8109.3787908404711
 31
0.0
  0
LINE
  5
7AC8
  8
1
  6
CONTINUOUS
 10
2756.0595246947478
 20
7954.3787908404711
 30
0.0
 11
2756.0595246947478
 21
8109.3787908404711
 31
0.0
  0
LINE
  5
7AC9
  8
1
  6
CONTINUOUS
 10
2940.0595246947491
 20
7854.3787908404702
 30
0.0
 11
2940.0595246947491
 21
7954.3787908404711
 31
0.0
  0
LINE
  5
7ACA
  8
1
  6
CONTINUOUS
 10
3410.0595246947478
 20
8109.3787908404711
 30
0.0
 11
3410.0595246947478
 21
8859.3787908404702
 31
0.0
  0
LINE
  5
7ACB
  8
1
  6
CONTINUOUS
 10
3460.0595246947478
 20
8059.3787908404711
 30
0.0
 11
3460.0595246947478
 21
8909.3787908404702
 31
0.0
  0
LINE
  5
7ACC
  8
1
  6
CONTINUOUS
 10
3405.0595246947491
 20
8109.3787908404711
 30
0.0
 11
3405.0595246947491
 21
7867.3787908404702
 31
0.0
  0
LINE
  5
7ACD
  8
1
  6
CONTINUOUS
 10
3405.0595246947491
 20
8927.3787908404684
 30
0.0
 11
3405.0595246947491
 21
8859.3787908404702
 31
0.0
  0
LINE
  5
7ACE
  8
1
  6
CONTINUOUS
 10
3405.0595246947491
 20
8927.3787908404684
 30
0.0
 11
3280.0595246947491
 21
8927.3787908404684
 31
0.0
  0
LINE
  5
7ACF
  8
1
  6
CONTINUOUS
 10
3280.0595246947491
 20
8859.3787908404702
 30
0.0
 11
3280.0595246947491
 21
8962.3787908404702
 31
0.0
  0
DIMENSION
  5
7AE3
  8
3
  6
CONTINUOUS
  2
*D1
 10
2780.0595246947491
 20
3075.252380351943
 30
0.0
 11
2000.4825256947479
 21
3075.252380351943
 31
0.0
 70
   128
 13
1285.059524694748
 23
3436.1853503519428
 33
0.0
 14
2780.0595246947491
 24
3289.759729351943
 34
0.0
1001
ACAD
1000
DSTYLE
1002
{
1070
   287
1070
     3
1070
    40
1040
45.0
1070
   143
1040
0.039
1070
   172
1070
     1
1070
   271
1070
     0
1070
   279
1070
     0
1070
   288
1070
     1
1002
}
  0
DIMENSION
  5
7AEF
  8
3
  6
CONTINUOUS
  2
*D2
 10
3405.0595246947491
 20
3075.252380351943
 30
0.0
 11
3092.5595246947491
 21
3187.752380351943
 31
0.0
 70
     0
 13
2780.0595246947491
 23
3289.759729351943
 33
0.0
 14
3405.0595246947491
 24
3436.1853503519428
 34
0.0
1001
ACAD
1000
DSTYLE
1002
{
1070
   287
1070
     4
1070
    40
1040
45.0
1070
    75
1070
     1
1070
   143
1040
0.039
1070
   172
1070
     1
1070
   271
1070
     0
1070
   279
1070
     1
1070
   288
1070
     1
1002
}
  0
DIMENSION
  5
7AFC
  8
3
  6
CONTINUOUS
  2
*D3
 10
3837.6857896947481
 20
4230.1853503519433
 30
0.0
 11
3837.6857896947472
 21
4736.2953403519432
 31
0.0
 70
   128
 13
3460.0595246947478
 23
5260.1853503519433
 33
0.0
 14
3460.0595246947478
 24
4230.1853503519433
 34
0.0
 50
90.0
1001
ACAD
1000
DSTYLE
1002
{
1070
   287
1070
     3
1070
    40
1040
45.0
1070
   143
1040
0.039
1070
   172
1070
     1
1070
   271
1070
     0
1070
   279
1070
     0
1070
   288
1070
     1
1002
}
  0
DIMENSION
  5
7B09
  8
3
  6
CONTINUOUS
  2
*D4
 10
4153.637924694749
 20
4186.1853503519433
 30
0.0
 11
4153.6379246947481
 21
4788.8971633519432
 31
0.0
 70
   128
 13
3460.0595246947478
 23
5260.1853503519433
 33
0.0
 14
3375.3542616947489
 24
4186.1853503519433
 34
0.0
 50
90.0
1001
ACAD
1000
DSTYLE
1002
{
1070
   287
1070
     3
1070
    40
1040
45.0
1070
   143
1040
0.039
1070
   172
1070
     1
1070
   271
1070
     0
1070
   279
1070
     0
1070
   288
1070
     1
1002
}
  0
DIMENSION
  5
7B15
  8
3
  6
CONTINUOUS
  2
*D5
 10
4153.6379246947481
 20
3436.1853503519428
 30
0.0
 11
4041.1379246947472
 21
3811.1853503519442
 31
0.0
 70
     0
 13
3375.3542616947489
 23
4186.1853503519433
 33
0.0
 14
3405.0595246947491
 24
3436.1853503519428
 34
0.0
 50
90.0
1001
ACAD
1000
DSTYLE
1002
{
1070
   287
1070
     4
1070
    40
1040
45.0
1070
    75
1070
     1
1070
   143
1040
0.039
1070
   172
1070
     1
1070
   271
1070
     0
1070
   279
1070
     1
1070
   288
1070
     1
1002
}
  0
DIMENSION
  5
7B2F
  8
3
  6
CONTINUOUS
  2
*D6
 10
2780.0595246947491
 20
5415.437458351942
 30
0.0
 11
2345.6894866947482
 21
5415.437458351942
 31
0.0
 70
   128
 13
1912.059524694748
 23
4186.1853503519433
 33
0.0
 14
2780.0595246947491
 24
5202.1853503519433
 34
0.0
1001
ACAD
1000
DSTYLE
1002
{
1070
   287
1070
     3
1070
    40
1040
45.0
1070
   143
1040
0.039
1070
   172
1070
     1
1070
   271
1070
     0
1070
   279
1070
     0
1070
   288
1070
     1
1002
}
  0
DIMENSION
  5
7B3B
  8
3
  6
CONTINUOUS
  2
*D7
 10
3460.0595246947478
 20
5415.437458351942
 30
0.0
 11
3120.0595246947478
 21
5527.937458351942
 31
0.0
 70
     0
 13
2780.0595246947491
 23
5202.1853503519433
 33
0.0
 14
3460.0595246947478
 24
5313.1853503519433
 34
0.0
1001
ACAD
1000
DSTYLE
1002
{
1070
   287
1070
     4
1070
    40
1040
45.0
1070
    75
1070
     1
1070
   143
1040
0.039
1070
   172
1070
     1
1070
   271
1070
     0
1070
   279
1070
     1
1070
   288
1070
     1
1002
}
  0
DIMENSION
  5
7B48
  8
3
  6
CONTINUOUS
  2
*D8
 10
3405.0595246947491
 20
7385.4018738404702
 30
0.0
 11
2316.434660694747
 21
7385.4018738404702
 31
0.0
 70
   128
 13
1285.059524694748
 23
7867.3787908404702
 33
0.0
 14
3405.0595246947491
 24
7867.3787908404702
 34
0.0
1001
ACAD
1000
DSTYLE
1002
{
1070
   287
1070
     3
1070
    40
1040
45.0
1070
   143
1040
0.039
1070
   172
1070
     1
1070
   271
1070
     0
1070
   279
1070
     0
1070
   288
1070
     1
1002
}
  0
DIMENSION
  5
7B55
  8
3
  6
CONTINUOUS
  2
*D9
 10
3861.0896616947498
 20
7867.3787908404702
 30
0.0
 11
3861.089661694748
 21
8420.4860158404699
 31
0.0
 70
   128
 13
3405.0595246947491
 23
8927.3787908404684
 33
0.0
 14
3405.0595246947491
 24
7867.3787908404702
 34
0.0
 50
90.0
1001
ACAD
1000
DSTYLE
1002
{
1070
   287
1070
     3
1070
    40
1040
45.0
1070
   143
1040
0.039
1070
   172
1070
     1
1070
   271
1070
     0
1070
   279
1070
     0
1070
   288
1070
     1
1002
}
  0
LINE
  5
7B56
  8
2
  6
CENTER
 10
1768.736347694748
 20
8484.3787908404702
 30
0.0
 11
3580.2433076947491
 21
8484.3787908404702
 31
0.0
  0
LINE
  5
7B57
  8
2
  6
CENTER
 10
2780.0595246947491
 20
5290.9405313519419
 30
0.0
 11
2780.0595246947491
 21
3289.759729351943
 31
0.0
  0
LINE
  5
7B58
  8
2
  6
CENTER
 10
6368.5591356947489
 20
5470.3426943519444
 30
0.0
 11
6368.5591356947489
 21
3309.634999351942
 31
0.0
  0
DIMENSION
  5
7B66
  8
3
  6
CONTINUOUS
  2
*D10
 10
6368.5591356947489
 20
3099.227676351943
 30
0.0
 11
6047.273420694748
 21
3099.227676351943
 31
0.0
 70
   128
 13
5751.559135694748
 23
3436.1853503519428
 33
0.0
 14
6368.5591356947489
 24
3309.634999351942
 34
0.0
1001
ACAD
1000
DSTYLE
1002
{
1070
   287
1070
     3
1070
    40
1040
45.0
1070
   143
1040
0.039
1070
   172
1070
     1
1070
   271
1070
     0
1070
   279
1070
     0
1070
   288
1070
     1
1002
}
  0
DIMENSION
  5
7B74
  8
3
  6
CONTINUOUS
  2
*D11
 10
6811.5591356947489
 20
3099.227676351943
 30
0.0
 11
6589.3881026947474
 21
3099.227676351943
 31
0.0
 70
   128
 13
6368.5591356947489
 23
3309.634999351942
 33
0.0
 14
6811.5591356947489
 24
3436.1853503519428
 34
0.0
1001
ACAD
1000
DSTYLE
1002
{
1070
   287
1070
     4
1070
    40
1040
45.0
1070
    75
1070
     1
1070
   143
1040
0.039
1070
   172
1070
     1
1070
   271
1070
     0
1070
   279
1070
     1
1070
   288
1070
     1
1002
}
  0
DIMENSION
  5
7B97
  8
3
  6
CONTINUOUS
  2
*D12
 10
6743.5591356947489
 20
5448.776074351943
 30
0.0
 11
6302.1305636947473
 21
5448.776074351943
 31
0.0
 70
   128
 13
5993.5591356947489
 23
5260.1853503519433
 33
0.0
 14
6743.5591356947489
 24
5260.1853503519433
 34
0.0
1001
ACAD
1000
DSTYLE
1002
{
1070
   287
1070
     3
1070
    40
1040
45.0
1070
   143
1040
0.039
1070
   172
1070
     1
1070
   271
1070
     0
1070
   279
1070
     0
1070
   288
1070
     1
1002
}
  0
DIMENSION
  5
7BA4
  8
3
  6
CONTINUOUS
  2
*D13
 10
6368.5591356947489
 20
5741.0084623519433
 30
0.0
 11
6016.4162785518911
 21
5741.0084623519433
 31
0.0
 70
   128
  1
MAX\P770
 13
5688.559135694748
 23
4452.8853503519431
 33
0.0
 14
6368.5591356947489
 24
5649.665353351942
 34
0.0
1001
ACAD
1000
DSTYLE
1002
{
1070
   287
1070
     3
1070
    40
1040
45.0
1070
   143
1040
0.039
1070
   172
1070
     1
1070
   271
1070
     0
1070
   279
1070
     0
1070
   288
1070
     1
1002
}
  0
DIMENSION
  5
7BB2
  8
3
  6
CONTINUOUS
  2
*D14
 10
6846.559135694748
 20
5741.0084623519433
 30
0.0
 11
6577.6861396947479
 21
5741.0084623519433
 31
0.0
 70
   128
 13
6368.5591356947489
 23
5649.665353351942
 33
0.0
 14
6846.559135694748
 24
4686.1853503519433
 34
0.0
1001
ACAD
1000
DSTYLE
1002
{
1070
   287
1070
     4
1070
    40
1040
45.0
1070
    75
1070
     1
1070
   143
1040
0.039
1070
   172
1070
     1
1070
   271
1070
     0
1070
   279
1070
     1
1070
   288
1070
     1
1002
}
  0
DIMENSION
  5
7BD5
  8
3
  6
CONTINUOUS
  2
*D15
 10
7162.7827196947483
 20
3686.1853503519428
 30
0.0
 11
7162.7827196947483
 21
4245.1853503519433
 31
0.0
 70
   128
 13
6846.559135694748
 23
4686.1853503519433
 33
0.0
 14
6846.559135694748
 24
3686.1853503519428
 34
0.0
 50
90.0
1001
ACAD
1000
DSTYLE
1002
{
1070
   287
1070
     3
1070
     3
1000
φ<>
1070
    40
1040
45.0
1070
   143
1040
0.039
1070
   172
1070
     1
1070
   271
1070
     0
1070
   279
1070
     0
1070
   288
1070
     1
1002
}
  0
LINE
  5
7BD6
  8
2
  6
CENTER
 10
3535.183934694749
 20
4186.1853503519433
 30
0.0
 11
1762.032632694747
 21
4186.1853503519433
 31
0.0
  0
LINE
  5
7BD8
  8
4
  6
CONTINUOUS
 10
7400.0
 20
2000.0
 30
0.0
 11
7400.0
 21
1200.0
 31
0.0
  0
LINE
  5
7BD9
  8
4
  6
CONTINUOUS
 10
4600.0
 20
2000.0
 30
0.0
 11
4600.0
 21
1200.0
 31
0.0
  0
LINE
  5
7BDA
  8
4
  6
CONTINUOUS
 10
2600.0
 20
2000.0
 30
0.0
 11
2600.0
 21
1200.0
 31
0.0
  0
LINE
  5
7BDD
  8
4
  6
CONTINUOUS
 10
2600.0
 20
1200.0
 30
0.0
 11
7400.0
 21
1200.0
 31
0.0
  0
LINE
  5
7BDE
  8
4
  6
CONTINUOUS
 10
2600.0
 20
1600.0
 30
0.0
 11
7400.0
 21
1600.0
 31
0.0
  0
TEXT
  5
7BDF
  8
4
  6
CONTINUOUS
 10
2754.0083232000002
 20
1726.1721031999989
 30
0.0
 40
200.0
  1
機器名称
  0
TEXT
  5
7BE0
  8
4
  6
CONTINUOUS
 10
2745.032424
 20
1286.5806264
 30
0.0
 40
200.0
  1
機器型番
  0
TEXT
  5
7BE1
  8
4
  6
CONTINUOUS
 10
4710.7149823999989
 20
1690.2870751999999
 30
0.0
 40
168.88888879999999
  1
ミツヤリミットロードファン
  0
TEXT
  5
7BE2
  8
4
  6
CONTINUOUS
 10
4746.6179824000001
 20
1268.6383367999999
 30
0.0
 40
200.0
  1
LL#6-4
  0
TEXT
  5
7BE4
  8
4
  6
CONTINUOUS
 10
3619.1430624
 20
9533.7153655999991
 30
0.0
 40
216.0
  1
床置ベット
  0
TEXT
  5
7BE5
  8
4
  6
CONTINUOUS
 10
1264.6703735999999
 20
10135.5239048
 30
0.0
 40
240.0
  1
ベルト駆動式片吸込両持リミットロードファン
  0
LINE
  5
7BE6
  8
4
  6
CONTINUOUS
 10
1000.0
 20
9877.635016799999
 30
0.0
 11
7400.0
 21
9877.635016799999
 31
0.0
  0
LINE
  5
7BE7
  8
4
  6
CONTINUOUS
 10
1000.0
 20
10677.635016800001
 30
0.0
 11
7400.0
 21
10677.635016800001
 31
0.0
  0
LINE
  5
7BE8
  8
4
  6
CONTINUOUS
 10
2600.0
 20
2000.0
 30
0.0
 11
7400.0
 21
2000.0
 31
0.0
  0
LINE
  5
7BE9
  8
4
  6
CONTINUOUS
 10
1000.0
 20
10677.635016800001
 30
0.0
 11
1000.0
 21
9877.635016799999
 31
0.0
  0
TEXT
  5
7BEA
  8
4
  6
CONTINUOUS
 10
1875.7077336
 20
9529.2779104000001
 30
0.0
 40
216.0
  1
右回転右横向
  0
TEXT
  5
7BEB
  8
4
  6
CONTINUOUS
 10
5875.8782375999999
 20
10824.244326399999
 30
0.0
 40
224.0
  1
No.
  0
TEXT
  5
7BEC
  8
4
  6
CONTINUOUS
 10
5245.1842504000006
 20
9533.7153655999991
 30
0.0
 40
216.0
  1
縮尺：1/40
  0
LINE
  5
7BED
  8
4
  6
CONTINUOUS
 10
7400.0
 20
10677.635016800001
 30
0.0
 11
7400.0
 21
9877.635016799999
 31
0.0
  0
LINE
  5
7BEF
  8
4
  6
CONTINUOUS
 10
5762.4696895999996
 20
10725.0543328
 30
0.0
 11
5762.4696895999996
 21
11146.609046400001
 31
0.0
  0
LINE
  5
7BF0
  8
4
  6
CONTINUOUS
 10
5762.4696895999996
 20
11146.609046400001
 30
0.0
 11
7400.0
 21
11146.609046400001
 31
0.0
  0
LINE
  5
7BF1
  8
4
  6
CONTINUOUS
 10
7400.0
 20
11146.609046400001
 30
0.0
 11
7400.0
 21
10725.0543328
 31
0.0
  0
LINE
  5
7BF2
  8
4
  6
CONTINUOUS
 10
7400.0
 20
10725.0543328
 30
0.0
 11
5762.4696895999996
 21
10725.0543328
 31
0.0
  0
DIMENSION
  5
7C22
  8
3
  6
CONTINUOUS
  2
*D16
 10
4460.8491776947503
 20
3436.1853503519428
 30
0.0
 11
4460.8491776947494
 21
4390.9704943519419
 31
0.0
 70
   128
 13
3460.0595246947478
 23
5313.1853503519433
 33
0.0
 14
3405.0595246947491
 24
3436.1853503519428
 34
0.0
 50
90.0
1001
ACAD
1000
DSTYLE
1002
{
1070
   287
1070
     3
1070
    40
1040
45.0
1070
   143
1040
0.039
1070
   172
1070
     1
1070
   271
1070
     0
1070
   279
1070
     0
1070
   288
1070
     1
1002
}
  0
DIMENSION
  5
7C55
  8
3
  2
*D17
 10
1285.0595246947489
 20
5718.5728894793247
 30
0.0
 11
2428.4971561228958
 21
5718.5728894793247
 31
0.0
 70
   128
 13
3460.0595246947478
 23
5313.1853503519433
 33
0.0
 14
1285.059524694748
 24
3561.1853503519428
 34
0.0
1001
ACAD
1000
DSTYLE
1002
{
1070
   287
1070
     3
1070
    40
1040
45.0
1070
   143
1040
0.039
1070
   172
1070
     1
1070
   271
1070
     0
1070
   279
1070
     0
1070
   288
1070
     1
1002
}
  0
ENDSEC
  0
EOF
