  0
SECTION
  2
HEADER
  9
$ACADVER
  1
AC1009
  9
$INSBASE
 10
0.0
 20
0.0
 30
0.0
  9
$EXTMIN
 10
1000.0
 20
1200.0
 30
0.0
  9
$EXTMAX
 10
7400.0
 20
11146.609046400001
 30
0.0
  9
$LIMMIN
 10
0.0
 20
0.0
  9
$LIMMAX
 10
297.0
 20
210.0
  9
$ORTHOMODE
 70
     0
  9
$REGENMODE
 70
     1
  9
$FILLMODE
 70
     0
  9
$QTEXTMODE
 70
     0
  9
$MIRRTEXT
 70
     1
  9
$DRAGMODE
 70
     2
  9
$LTSCALE
 40
100.0
  9
$OSMODE
 70
    37
  9
$ATTMODE
 70
     1
  9
$TEXTSIZE
 40
180.0
  9
$TRACEWID
 40
0.05
  9
$TEXTSTYLE
  7
STANDARD
  9
$CLAYER
  8
3
  9
$CELTYPE
  6
BYLAYER
  9
$CECOLOR
 62
   256
  9
$DIMSCALE
 40
40.0
  9
$DIMASZ
 40
2.0
  9
$DIMEXO
 40
0.5
  9
$DIMDLI
 40
10.0
  9
$DIMRND
 40
0.0
  9
$DIMDLE
 40
0.0
  9
$DIMEXE
 40
1.0
  9
$DIMTP
 40
1.0
  9
$DIMTM
 40
1.0
  9
$DIMTXT
 40
3.0
  9
$DIMCEN
 40
0.0
  9
$DIMTSZ
 40
0.0
  9
$DIMTOL
 70
     0
  9
$DIMLIM
 70
     0
  9
$DIMTIH
 70
     0
  9
$DIMTOH
 70
     0
  9
$DIMSE1
 70
     0
  9
$DIMSE2
 70
     0
  9
$DIMTAD
 70
     1
  9
$DIMZIN
 70
     8
  9
$DIMBLK
  1

  9
$DIMASO
 70
     1
  9
$DIMSHO
 70
     1
  9
$DIMPOST
  1

  9
$DIMAPOST
  1

  9
$DIMALT
 70
     0
  9
$DIMALTD
 70
     2
  9
$DIMALTF
 40
0.039
  9
$DIMLFAC
 40
1.0
  9
$DIMTOFL
 70
     1
  9
$DIMTVP
 40
0.0
  9
$DIMTIX
 70
     0
  9
$DIMSOXD
 70
     0
  9
$DIMSAH
 70
     1
  9
$DIMBLK1
  1
OPEN
  9
$DIMBLK2
  1
OPEN
  9
$DIMSTYLE
  2
IGA
  9
$DIMCLRD
 70
     0
  9
$DIMCLRE
 70
     0
  9
$DIMCLRT
 70
     0
  9
$DIMTFAC
 40
10.0
  9
$DIMGAP
 40
1.0
  9
$LUNITS
 70
     2
  9
$LUPREC
 70
     3
  9
$SKETCHINC
 40
0.1
  9
$FILLETRAD
 40
50.0
  9
$AUNITS
 70
     0
  9
$AUPREC
 70
     0
  9
$MENU
  1
acad
  9
$ELEVATION
 40
0.0
  9
$PELEVATION
 40
0.0
  9
$THICKNESS
 40
0.0
  9
$LIMCHECK
 70
     0
  9
$BLIPMODE
 70
     0
  9
$CHAMFERA
 40
0.5
  9
$CHAMFERB
 40
0.5
  9
$SKPOLY
 70
     0
  9
$TDCREATE
 40
2450751.426978935
  9
$TDUPDATE
 40
2454953.6594988769
  9
$TDINDWG
 40
0.0107341898
  9
$TDUSRTIMER
 40
0.0107341898
  9
$USRTIMER
 70
     1
  9
$ANGBASE
 50
0.0
  9
$ANGDIR
 70
     0
  9
$PDMODE
 70
     0
  9
$PDSIZE
 40
0.0
  9
$PLINEWID
 40
0.0
  9
$COORDS
 70
     1
  9
$SPLFRAME
 70
     0
  9
$SPLINETYPE
 70
     6
  9
$SPLINESEGS
 70
     8
  9
$ATTDIA
 70
     0
  9
$ATTREQ
 70
     1
  9
$HANDLING
 70
 10241
  9
$HANDSEED
  5
7E42
  9
$SURFTAB1
 70
     6
  9
$SURFTAB2
 70
     6
  9
$SURFTYPE
 70
     6
  9
$SURFU
 70
     6
  9
$SURFV
 70
     6
  9
$UCSNAME
  2

  9
$UCSORG
 10
0.0
 20
0.0
 30
0.0
  9
$UCSXDIR
 10
1.0
 20
0.0
 30
0.0
  9
$UCSYDIR
 10
0.0
 20
1.0
 30
0.0
  9
$PUCSNAME
  2

  9
$PUCSORG
 10
0.0
 20
0.0
 30
0.0
  9
$PUCSXDIR
 10
1.0
 20
0.0
 30
0.0
  9
$PUCSYDIR
 10
0.0
 20
1.0
 30
0.0
  9
$USERI1
 70
     0
  9
$USERI2
 70
     0
  9
$USERI3
 70
     0
  9
$USERI4
 70
     0
  9
$USERI5
 70
     0
  9
$USERR1
 40
0.0
  9
$USERR2
 40
0.0
  9
$USERR3
 40
0.0
  9
$USERR4
 40
0.0
  9
$USERR5
 40
0.0
  9
$WORLDVIEW
 70
     1
  9
$SHADEDGE
 70
     3
  9
$SHADEDIF
 70
    70
  9
$TILEMODE
 70
     1
  9
$MAXACTVP
 70
    16
  9
$PLIMCHECK
 70
     0
  9
$PEXTMIN
 10
1.0000000000000000E+020
 20
1.0000000000000000E+020
 30
1.0000000000000000E+020
  9
$PEXTMAX
 10
-1.0000000000000000E+020
 20
-1.0000000000000000E+020
 30
-1.0000000000000000E+020
  9
$PLIMMIN
 10
0.0
 20
0.0
  9
$PLIMMAX
 10
12.0
 20
9.0
  9
$UNITMODE
 70
     0
  9
$VISRETAIN
 70
     0
  9
$PLINEGEN
 70
     0
  9
$PSLTSCALE
 70
     1
  0
ENDSEC
  0
SECTION
  2
TABLES
  0
TABLE
  2
VPORT
 70
     2
  0
VPORT
  2
*ACTIVE
 70
     0
 10
0.0
 20
0.0
 11
1.0
 21
1.0
 12
7845.1758592053557
 22
1579.042824425452
 13
0.0
 23
0.0
 14
10.0
 24
10.0
 15
10.0
 25
10.0
 16
0.0
 26
0.0
 36
1.0
 17
0.0
 27
0.0
 37
0.0
 40
3522.735623727664
 41
3.1666666666666661
 42
50.0
 43
0.0
 44
0.0
 50
0.0
 51
0.0
 71
     0
 72
   100
 73
     1
 74
     0
 75
     0
 76
     0
 77
     0
 78
     0
  0
ENDTAB
  0
TABLE
  2
LTYPE
 70
     2
  0
LTYPE
  2
CONTINUOUS
 70
     0
  3
Solid line
 72
    65
 73
     0
 40
0.0
  0
LTYPE
  2
CENTER
 70
     0
  3
____ _ ____ _ ____ _ ____ _ ____ _ ____ _ ____ 
 72
    65
 73
     4
 40
2.0
 49
1.25
 49
-0.25
 49
0.25
 49
-0.25
  0
ENDTAB
  0
TABLE
  2
LAYER
 70
     6
  0
LAYER
  2
0
 70
     0
 62
     7
  6
CONTINUOUS
  0
LAYER
  2
3
 70
     0
 62
     2
  6
CONTINUOUS
  0
LAYER
  2
2
 70
     0
 62
     3
  6
CENTER
  0
LAYER
  2
1
 70
     0
 62
     4
  6
CONTINUOUS
  0
LAYER
  2
4
 70
     0
 62
     7
  6
CONTINUOUS
  0
LAYER
  2
DEFPOINTS
 70
     0
 62
     7
  6
CONTINUOUS
  0
ENDTAB
  0
TABLE
  2
STYLE
 70
     1
  0
STYLE
  2
STANDARD
 70
     0
 40
0.0
 41
1.0
 50
0.0
 71
     0
 42
180.0
  3
simplex.shx
  4
extfont.shx
  0
ENDTAB
  0
TABLE
  2
VIEW
 70
     0
  0
ENDTAB
  0
TABLE
  2
UCS
 70
     0
  0
ENDTAB
  0
TABLE
  2
APPID
 70
     1
  0
APPID
  2
ACAD
 70
     0
  0
ENDTAB
  0
TABLE
  2
DIMSTYLE
 70
     1
  0
DIMSTYLE
  2
IGA
 70
     0
  3

  4

  5

  6
OPEN
  7
OPEN
 40
2.0
 41
2.0
 42
0.5
 43
10.0
 44
1.0
 45
0.0
 46
0.0
 47
1.0
 48
1.0
140
3.0
141
0.0
142
0.0
143
0.03937
144
1.0
145
0.0
146
10.0
147
1.0
 71
     0
 72
     0
 73
     0
 74
     0
 75
     0
 76
     0
 77
     1
 78
     8
170
     0
171
     2
172
     0
173
     1
174
     0
175
     0
176
     0
177
     0
178
     0
  0
ENDTAB
  0
ENDSEC
  0
SECTION
  2
BLOCKS
  0
BLOCK
  8
0
  2
$MODEL_SPACE
 70
     0
 10
0.0
 20
0.0
 30
0.0
  3
$MODEL_SPACE
  1

  0
ENDBLK
  5
1B
  8
0
  0
BLOCK
 67
     1
  8
0
  2
$PAPER_SPACE
 70
     0
 10
0.0
 20
0.0
 30
0.0
  3
$PAPER_SPACE
  1

  0
ENDBLK
  5
18
 67
     1
  8
0
  0
BLOCK
  8
0
  2
_OPEN
 70
     0
 10
0.0
 20
0.0
 30
0.0
  3
_OPEN
  1

  0
LINE
  5
7AD2
  8
0
  6
BYBLOCK
 62
     0
 10
-1.0
 20
0.166667
 30
0.0
 11
0.0
 21
0.0
 31
0.0
  0
LINE
  5
7AD3
  8
0
  6
BYBLOCK
 62
     0
 10
0.0
 20
0.0
 30
0.0
 11
-1.0
 21
-0.166667
 31
0.0
  0
LINE
  5
7AD4
  8
0
  6
BYBLOCK
 62
     0
 10
0.0
 20
0.0
 30
0.0
 11
-1.0
 21
0.0
 31
0.0
  0
ENDBLK
  5
7AD5
  8
0
  0
BLOCK
  8
0
  2
*D1
 70
     1
 10
0.0
 20
0.0
 30
0.0
  3
*D1
  1

  0
LINE
  5
7DA9
  8
3
  6
CONTINUOUS
 62
     0
 10
1581.8733058969881
 20
3545.0947293060549
 30
0.0
 11
1581.8733058969881
 21
3194.7195373060558
 31
0.0
  0
LINE
  5
7DAA
  8
3
  6
CONTINUOUS
 62
     0
 10
2206.8733058969879
 20
3480.667230306055
 30
0.0
 11
2206.8733058969879
 21
3194.7195373060558
 31
0.0
  0
LINE
  5
7DAB
  8
3
  6
CONTINUOUS
 62
     0
 10
1501.8733058969881
 20
3234.7195373060549
 30
0.0
 11
1421.8733058969881
 21
3234.7195373060549
 31
0.0
  0
LINE
  5
7DAC
  8
3
  6
CONTINUOUS
 62
     0
 10
2286.8733058969879
 20
3234.7195373060549
 30
0.0
 11
2366.8733058969879
 21
3234.7195373060549
 31
0.0
  0
LINE
  5
7DAD
  8
3
  6
CONTINUOUS
 62
     0
 10
1581.8733058969881
 20
3234.7195373060549
 30
0.0
 11
2206.8733058969879
 21
3234.7195373060549
 31
0.0
  0
INSERT
  5
7DAE
  8
3
  6
CONTINUOUS
 62
     0
  2
_OPEN
 10
1581.8733058969881
 20
3234.7195373060549
 30
0.0
 41
80.0
 42
80.0
 43
80.0
  0
INSERT
  5
7DAF
  8
3
  6
CONTINUOUS
 62
     0
  2
_OPEN
 10
2206.8733058969879
 20
3234.7195373060549
 30
0.0
 41
80.0
 42
80.0
 43
80.0
 50
180.0
  0
TEXT
  8
3
  40
120
  5
7E32
  62
0
  72
0
  71
0
 10
1692.59
 20
3122.32
 30
0.000000
  1
625
  0
POINT
  5
7DB1
  8
DEFPOINTS
  6
CONTINUOUS
 62
     0
 10
1581.8733058969881
 20
3565.0947293060549
 30
0.0
  0
POINT
  5
7DB2
  8
DEFPOINTS
  6
CONTINUOUS
 62
     0
 10
2206.8733058969879
 20
3500.6672303060559
 30
0.0
  0
POINT
  5
7DB3
  8
DEFPOINTS
  6
CONTINUOUS
 62
     0
 10
2206.8733058969879
 20
3234.7195373060549
 30
0.0
  0
ENDBLK
  5
7CD6
  8
0
  0
BLOCK
  8
0
  2
*D2
 70
     1
 10
0.0
 20
0.0
 30
0.0
  3
*D2
  1

  0
LINE
  5
7DB4
  8
3
  6
CONTINUOUS
 62
     0
 10
2206.8733058969879
 20
3480.667230306055
 30
0.0
 11
2206.8733058969879
 21
3194.7195373060558
 31
0.0
  0
LINE
  5
7DB5
  8
3
  6
CONTINUOUS
 62
     0
 10
3701.8733058969879
 20
3545.0947293060549
 30
0.0
 11
3701.8733058969879
 21
3194.7195373060558
 31
0.0
  0
LINE
  5
7DB6
  8
3
  6
CONTINUOUS
 62
     0
 10
2286.8733058969879
 20
3234.7195373060549
 30
0.0
 11
3621.8733058969879
 21
3234.7195373060549
 31
0.0
  0
INSERT
  5
7DB7
  8
3
  6
CONTINUOUS
 62
     0
  2
_OPEN
 10
2206.8733058969879
 20
3234.7195373060549
 30
0.0
 41
80.0
 42
80.0
 43
80.0
 50
180.0
  0
INSERT
  5
7DB8
  8
3
  6
CONTINUOUS
 62
     0
  2
_OPEN
 10
3701.8733058969879
 20
3234.7195373060549
 30
0.0
 41
80.0
 42
80.0
 43
80.0
  0
TEXT
  8
3
  40
120
  5
7E33
  62
0
  72
0
  71
0
 10
2714.37
 20
3122.32
 30
0.000000
  1
1495
  0
POINT
  5
7DBA
  8
DEFPOINTS
  6
CONTINUOUS
 62
     0
 10
2206.8733058969879
 20
3500.6672303060559
 30
0.0
  0
POINT
  5
7DBB
  8
DEFPOINTS
  6
CONTINUOUS
 62
     0
 10
3701.8733058969879
 20
3565.0947293060549
 30
0.0
  0
POINT
  5
7DBC
  8
DEFPOINTS
  6
CONTINUOUS
 62
     0
 10
3701.8733058969879
 20
3234.7195373060549
 30
0.0
  0
ENDBLK
  5
7CCB
  8
0
  0
BLOCK
  8
0
  2
*D3
 70
     1
 10
0.0
 20
0.0
 30
0.0
  3
*D3
  1

  0
LINE
  5
7DBD
  8
3
  6
CONTINUOUS
 62
     0
 10
2250.8733058969879
 20
5160.0947293060563
 30
0.0
 11
2250.8733058969879
 21
5398.9966653060546
 31
0.0
  0
LINE
  5
7DBE
  8
3
  6
CONTINUOUS
 62
     0
 10
3280.8733058969879
 20
5160.0947293060563
 30
0.0
 11
3280.8733058969879
 21
5398.9966653060546
 31
0.0
  0
LINE
  5
7DBF
  8
3
  6
CONTINUOUS
 62
     0
 10
2330.8733058969879
 20
5358.9966653060546
 30
0.0
 11
3200.8733058969879
 21
5358.9966653060546
 31
0.0
  0
INSERT
  5
7DC0
  8
3
  6
CONTINUOUS
 62
     0
  2
_OPEN
 10
2250.8733058969879
 20
5358.9966653060546
 30
0.0
 41
80.0
 42
80.0
 43
80.0
 50
180.0
  0
INSERT
  5
7DC1
  8
3
  6
CONTINUOUS
 62
     0
  2
_OPEN
 10
3280.8733058969879
 20
5358.9966653060546
 30
0.0
 41
80.0
 42
80.0
 43
80.0
  0
TEXT
  8
3
  40
120
  5
7E34
  62
0
  72
0
  71
0
 10
2511.64
 20
5246.60
 30
0.000000
  1
1030
  0
POINT
  5
7DC3
  8
DEFPOINTS
  6
CONTINUOUS
 62
     0
 10
2250.8733058969879
 20
5140.0947293060553
 30
0.0
  0
POINT
  5
7DC4
  8
DEFPOINTS
  6
CONTINUOUS
 62
     0
 10
3280.8733058969879
 20
5140.0947293060553
 30
0.0
  0
POINT
  5
7DC5
  8
DEFPOINTS
  6
CONTINUOUS
 62
     0
 10
3280.8733058969879
 20
5358.9966653060546
 30
0.0
  0
ENDBLK
  5
7CC0
  8
0
  0
BLOCK
  8
0
  2
*D4
 70
     1
 10
0.0
 20
0.0
 30
0.0
  3
*D4
  1

  0
LINE
  5
7DC6
  8
3
  6
CONTINUOUS
 62
     0
 10
1486.8733058969881
 20
4485.5947293060553
 30
0.0
 11
1486.8733058969881
 21
5669.3280773060551
 31
0.0
  0
LINE
  5
7DC7
  8
3
  6
CONTINUOUS
 62
     0
 10
2206.8733058969879
 20
5075.3894663060564
 30
0.0
 11
2206.8733058969879
 21
5669.3280773060551
 31
0.0
  0
LINE
  5
7DC8
  8
3
  6
CONTINUOUS
 62
     0
 10
1566.8733058969881
 20
5629.3280773060551
 30
0.0
 11
2126.8733058969879
 21
5629.3280773060551
 31
0.0
  0
INSERT
  5
7DC9
  8
3
  6
CONTINUOUS
 62
     0
  2
_OPEN
 10
1486.8733058969881
 20
5629.3280773060551
 30
0.0
 41
80.0
 42
80.0
 43
80.0
 50
180.0
  0
INSERT
  5
7DCA
  8
3
  6
CONTINUOUS
 62
     0
  2
_OPEN
 10
2206.8733058969879
 20
5629.3280773060551
 30
0.0
 41
80.0
 42
80.0
 43
80.0
  0
TEXT
  8
3
  40
120
  5
7E35
  62
0
  72
0
  71
0
 10
1607.50
 20
5516.93
 30
0.000000
  1
720
  0
POINT
  5
7DCC
  8
DEFPOINTS
  6
CONTINUOUS
 62
     0
 10
1486.8733058969881
 20
4465.5947293060553
 30
0.0
  0
POINT
  5
7DCD
  8
DEFPOINTS
  6
CONTINUOUS
 62
     0
 10
2206.8733058969879
 20
5055.3894663060546
 30
0.0
  0
POINT
  5
7DCE
  8
DEFPOINTS
  6
CONTINUOUS
 62
     0
 10
2206.8733058969879
 20
5629.3280773060551
 30
0.0
  0
ENDBLK
  5
7D45
  8
0
  0
BLOCK
  8
0
  2
*D5
 70
     1
 10
0.0
 20
0.0
 30
0.0
  3
*D5
  1

  0
LINE
  5
7DCF
  8
3
  6
CONTINUOUS
 62
     0
 10
2206.8733058969879
 20
5075.3894663060564
 30
0.0
 11
2206.8733058969879
 21
5669.3280773060551
 31
0.0
  0
LINE
  5
7DD0
  8
3
  6
CONTINUOUS
 62
     0
 10
3280.8733058969879
 20
5160.0947293060563
 30
0.0
 11
3280.8733058969879
 21
5669.3280773060551
 31
0.0
  0
LINE
  5
7DD1
  8
3
  6
CONTINUOUS
 62
     0
 10
2286.8733058969879
 20
5629.3280773060551
 30
0.0
 11
3200.8733058969879
 21
5629.3280773060551
 31
0.0
  0
INSERT
  5
7DD2
  8
3
  6
CONTINUOUS
 62
     0
  2
_OPEN
 10
2206.8733058969879
 20
5629.3280773060551
 30
0.0
 41
80.0
 42
80.0
 43
80.0
 50
180.0
  0
INSERT
  5
7DD3
  8
3
  6
CONTINUOUS
 62
     0
  2
_OPEN
 10
3280.8733058969879
 20
5629.3280773060551
 30
0.0
 41
80.0
 42
80.0
 43
80.0
  0
TEXT
  8
3
  40
120
  5
7E36
  62
0
  72
0
  71
0
 10
2503.87
 20
5516.93
 30
0.000000
  1
1074
  0
POINT
  5
7DD5
  8
DEFPOINTS
  6
CONTINUOUS
 62
     0
 10
2206.8733058969879
 20
5055.3894663060546
 30
0.0
  0
POINT
  5
7DD6
  8
DEFPOINTS
  6
CONTINUOUS
 62
     0
 10
3280.8733058969879
 20
5140.0947293060553
 30
0.0
  0
POINT
  5
7DD7
  8
DEFPOINTS
  6
CONTINUOUS
 62
     0
 10
3280.8733058969879
 20
5629.3280773060551
 30
0.0
  0
ENDBLK
  5
7CAA
  8
0
  0
BLOCK
  8
0
  2
*D6
 70
     1
 10
0.0
 20
0.0
 30
0.0
  3
*D6
  1

  0
LINE
  5
7DD8
  8
3
  6
CONTINUOUS
 62
     0
 10
3353.8733058969879
 20
5140.0947293060553
 30
0.0
 11
4035.616387046603
 21
5140.0947293060553
 31
0.0
  0
LINE
  5
7DD9
  8
3
  6
CONTINUOUS
 62
     0
 10
3242.8733058969879
 20
4460.0947293060563
 30
0.0
 11
4035.616387046603
 21
4460.0947293060563
 31
0.0
  0
LINE
  5
7DDA
  8
3
  6
CONTINUOUS
 62
     0
 10
3995.6163870466021
 20
5060.0947293060553
 30
0.0
 11
3995.6163870466021
 21
4540.0947293060553
 31
0.0
  0
INSERT
  5
7DDB
  8
3
  6
CONTINUOUS
 62
     0
  2
_OPEN
 10
3995.616387046603
 20
5140.0947293060553
 30
0.0
 41
80.0
 42
80.0
 43
80.0
 50
90.0
  0
INSERT
  5
7DDC
  8
3
  6
CONTINUOUS
 62
     0
  2
_OPEN
 10
3995.6163870466021
 20
4460.0947293060563
 30
0.0
 41
80.0
 42
80.0
 43
80.0
 50
270.0
  0
TEXT
  8
3
  40
120
  5
7E37
  62
0
  72
0
  71
0
 10
3655.62
 20
4653.41
 30
0.000000
  1
680
  0
POINT
  5
7DDE
  8
DEFPOINTS
  6
CONTINUOUS
 62
     0
 10
3333.8733058969879
 20
5140.0947293060553
 30
0.0
  0
POINT
  5
7DDF
  8
DEFPOINTS
  6
CONTINUOUS
 62
     0
 10
3222.8733058969879
 20
4460.0947293060563
 30
0.0
  0
POINT
  5
7DE0
  8
DEFPOINTS
  6
CONTINUOUS
 62
     0
 10
3995.6163870466021
 20
4460.0947293060563
 30
0.0
  0
ENDBLK
  5
7D72
  8
0
  0
BLOCK
  8
0
  2
*D7
 70
     1
 10
0.0
 20
0.0
 30
0.0
  3
*D7
  1

  0
LINE
  5
7DE1
  8
3
  6
CONTINUOUS
 62
     0
 10
3242.8733058969879
 20
4460.0947293060563
 30
0.0
 11
4035.6163870466021
 21
4460.0947293060563
 31
0.0
  0
LINE
  5
7DE2
  8
3
  6
CONTINUOUS
 62
     0
 10
3721.8733058969879
 20
3565.0947293060549
 30
0.0
 11
4035.6163870466021
 21
3565.0947293060549
 31
0.0
  0
LINE
  5
7DE3
  8
3
  6
CONTINUOUS
 62
     0
 10
3995.6163870466021
 20
4380.0947293060553
 30
0.0
 11
3995.6163870466021
 21
3645.0947293060549
 31
0.0
  0
INSERT
  5
7DE4
  8
3
  6
CONTINUOUS
 62
     0
  2
_OPEN
 10
3995.6163870466021
 20
4460.0947293060563
 30
0.0
 41
80.0
 42
80.0
 43
80.0
 50
90.0
  0
INSERT
  5
7DE5
  8
3
  6
CONTINUOUS
 62
     0
  2
_OPEN
 10
3995.6163870466021
 20
3565.0947293060549
 30
0.0
 41
80.0
 42
80.0
 43
80.0
 50
270.0
  0
TEXT
  8
3
  40
120
  5
7E38
  62
0
  72
0
  71
0
 10
3655.62
 20
3800.19
 30
0.000000
  1
895
  0
POINT
  5
7DE7
  8
DEFPOINTS
  6
CONTINUOUS
 62
     0
 10
3222.8733058969879
 20
4460.0947293060563
 30
0.0
  0
POINT
  5
7DE8
  8
DEFPOINTS
  6
CONTINUOUS
 62
     0
 10
3701.8733058969879
 20
3565.0947293060549
 30
0.0
  0
POINT
  5
7DE9
  8
DEFPOINTS
  6
CONTINUOUS
 62
     0
 10
3995.6163870466021
 20
3565.0947293060549
 30
0.0
  0
ENDBLK
  5
7D67
  8
0
  0
BLOCK
  8
0
  2
*D8
 70
     1
 10
0.0
 20
0.0
 30
0.0
  3
*D8
  1

  0
LINE
  5
7DEA
  8
3
  6
CONTINUOUS
 62
     0
 10
3353.8733058969879
 20
5140.0947293060553
 30
0.0
 11
4314.4169281927898
 21
5140.0947293060553
 31
0.0
  0
LINE
  5
7DEB
  8
3
  6
CONTINUOUS
 62
     0
 10
3721.8733058969879
 20
3565.0947293060549
 30
0.0
 11
4314.4169281927898
 21
3565.0947293060549
 31
0.0
  0
LINE
  5
7DEC
  8
3
  6
CONTINUOUS
 62
     0
 10
4274.4169281927889
 20
5060.0947293060553
 30
0.0
 11
4274.4169281927889
 21
3645.0947293060549
 31
0.0
  0
INSERT
  5
7DED
  8
3
  6
CONTINUOUS
 62
     0
  2
_OPEN
 10
4274.4169281927889
 20
5140.0947293060553
 30
0.0
 41
80.0
 42
80.0
 43
80.0
 50
90.0
  0
INSERT
  5
7DEE
  8
3
  6
CONTINUOUS
 62
     0
  2
_OPEN
 10
4274.4169281927889
 20
3565.0947293060549
 30
0.0
 41
80.0
 42
80.0
 43
80.0
 50
270.0
  0
TEXT
  8
3
  40
120
  5
7E39
  62
0
  72
0
  71
0
 10
3934.42
 20
4181.79
 30
0.000000
  1
1575
  0
POINT
  5
7DF0
  8
DEFPOINTS
  6
CONTINUOUS
 62
     0
 10
3333.8733058969879
 20
5140.0947293060553
 30
0.0
  0
POINT
  5
7DF1
  8
DEFPOINTS
  6
CONTINUOUS
 62
     0
 10
3701.8733058969879
 20
3565.0947293060549
 30
0.0
  0
POINT
  5
7DF2
  8
DEFPOINTS
  6
CONTINUOUS
 62
     0
 10
4274.4169281927889
 20
3565.0947293060549
 30
0.0
  0
ENDBLK
  5
7D5C
  8
0
  0
BLOCK
  8
0
  2
*D9
 70
     1
 10
0.0
 20
0.0
 30
0.0
  3
*D9
  1

  0
LINE
  5
7DF3
  8
3
  6
CONTINUOUS
 62
     0
 10
1581.8733058969881
 20
7380.6077728762102
 30
0.0
 11
1581.8733058969881
 21
6915.5778648762089
 31
0.0
  0
LINE
  5
7DF4
  8
3
  6
CONTINUOUS
 62
     0
 10
3701.8733058969879
 20
7380.6077728762102
 30
0.0
 11
3701.8733058969879
 21
6915.5778648762089
 31
0.0
  0
LINE
  5
7DF5
  8
3
  6
CONTINUOUS
 62
     0
 10
1661.8733058969881
 20
6955.5778648762098
 30
0.0
 11
3621.8733058969879
 21
6955.5778648762098
 31
0.0
  0
INSERT
  5
7DF6
  8
3
  6
CONTINUOUS
 62
     0
  2
_OPEN
 10
1581.8733058969881
 20
6955.5778648762098
 30
0.0
 41
80.0
 42
80.0
 43
80.0
 50
180.0
  0
INSERT
  5
7DF7
  8
3
  6
CONTINUOUS
 62
     0
  2
_OPEN
 10
3701.8733058969879
 20
6955.5778648762098
 30
0.0
 41
80.0
 42
80.0
 43
80.0
  0
TEXT
  8
3
  40
120
  5
7E3A
  62
0
  72
0
  71
0
 10
2378.46
 20
6843.18
 30
0.000000
  1
2120
  0
POINT
  5
7DF9
  8
DEFPOINTS
  6
CONTINUOUS
 62
     0
 10
1581.8733058969881
 20
7400.6077728762102
 30
0.0
  0
POINT
  5
7DFA
  8
DEFPOINTS
  6
CONTINUOUS
 62
     0
 10
3701.8733058969879
 20
7400.6077728762102
 30
0.0
  0
POINT
  5
7DFB
  8
DEFPOINTS
  6
CONTINUOUS
 62
     0
 10
3701.8733058969879
 20
6955.5778648762098
 30
0.0
  0
ENDBLK
  5
7C7E
  8
0
  0
BLOCK
  8
0
  2
*D10
 70
     1
 10
0.0
 20
0.0
 30
0.0
  3
*D10
  1

  0
LINE
  5
7DFC
  8
3
  6
CONTINUOUS
 62
     0
 10
3721.8733058969879
 20
8460.6077728762102
 30
0.0
 11
4161.3002678969888
 21
8460.6077728762084
 31
0.0
  0
LINE
  5
7DFD
  8
3
  6
CONTINUOUS
 62
     0
 10
3721.8733058969879
 20
7400.6077728762102
 30
0.0
 11
4161.3002678969888
 21
7400.6077728762102
 31
0.0
  0
LINE
  5
7DFE
  8
3
  6
CONTINUOUS
 62
     0
 10
4121.3002678969897
 20
8380.6077728762084
 30
0.0
 11
4121.3002678969897
 21
7480.6077728762111
 31
0.0
  0
INSERT
  5
7DFF
  8
3
  6
CONTINUOUS
 62
     0
  2
_OPEN
 10
4121.3002678969897
 20
8460.6077728762084
 30
0.0
 41
80.0
 42
80.0
 43
80.0
 50
90.0
  0
INSERT
  5
7E00
  8
3
  6
CONTINUOUS
 62
     0
  2
_OPEN
 10
4121.3002678969897
 20
7400.6077728762102
 30
0.0
 41
80.0
 42
80.0
 43
80.0
 50
270.0
  0
TEXT
  8
3
  40
120
  5
7E3B
  62
0
  72
0
  71
0
 10
3781.30
 20
7757.41
 30
0.000000
  1
1060
  0
POINT
  5
7E02
  8
DEFPOINTS
  6
CONTINUOUS
 62
     0
 10
3701.8733058969879
 20
8460.6077728762102
 30
0.0
  0
POINT
  5
7E03
  8
DEFPOINTS
  6
CONTINUOUS
 62
     0
 10
3701.8733058969879
 20
7400.6077728762102
 30
0.0
  0
POINT
  5
7E04
  8
DEFPOINTS
  6
CONTINUOUS
 62
     0
 10
4121.3002678969897
 20
7400.6077728762102
 30
0.0
  0
ENDBLK
  5
7C73
  8
0
  0
BLOCK
  8
0
  2
*D11
 70
     1
 10
0.0
 20
0.0
 30
0.0
  3
*D11
  1

  0
LINE
  5
7E05
  8
3
  6
CONTINUOUS
 62
     0
 10
5493.9695214635813
 20
5160.0947293060563
 30
0.0
 11
5493.9695214635813
 21
5380.7051353060551
 31
0.0
  0
LINE
  5
7E06
  8
3
  6
CONTINUOUS
 62
     0
 10
6243.9695214635813
 20
5160.0947293060563
 30
0.0
 11
6243.9695214635813
 21
5380.7051353060551
 31
0.0
  0
LINE
  5
7E07
  8
3
  6
CONTINUOUS
 62
     0
 10
5573.9695214635813
 20
5340.7051353060551
 30
0.0
 11
6163.9695214635813
 21
5340.7051353060551
 31
0.0
  0
INSERT
  5
7E08
  8
3
  6
CONTINUOUS
 62
     0
  2
_OPEN
 10
5493.9695214635813
 20
5340.7051353060551
 30
0.0
 41
80.0
 42
80.0
 43
80.0
 50
180.0
  0
INSERT
  5
7E09
  8
3
  6
CONTINUOUS
 62
     0
  2
_OPEN
 10
6243.9695214635813
 20
5340.7051353060551
 30
0.0
 41
80.0
 42
80.0
 43
80.0
  0
TEXT
  8
3
  40
120
  5
7E3C
  62
0
  72
0
  71
0
 10
5629.66
 20
5228.31
 30
0.000000
  1
750
  0
POINT
  5
7E0B
  8
DEFPOINTS
  6
CONTINUOUS
 62
     0
 10
5493.9695214635813
 20
5140.0947293060553
 30
0.0
  0
POINT
  5
7E0C
  8
DEFPOINTS
  6
CONTINUOUS
 62
     0
 10
6243.9695214635813
 20
5140.0947293060553
 30
0.0
  0
POINT
  5
7E0D
  8
DEFPOINTS
  6
CONTINUOUS
 62
     0
 10
6243.9695214635813
 20
5340.7051353060551
 30
0.0
  0
ENDBLK
  5
7D39
  8
0
  0
BLOCK
  8
0
  2
*D12
 70
     1
 10
0.0
 20
0.0
 30
0.0
  3
*D12
  1

  0
LINE
  5
7E0E
  8
3
  6
CONTINUOUS
 62
     0
 10
5188.9695214635813
 20
4746.7947293060552
 30
0.0
 11
5188.9695214635813
 21
5678.2591460224157
 31
0.0
  0
LINE
  5
7E0F
  8
3
  6
CONTINUOUS
 62
     0
 10
5868.9695214635813
 20
5562.4276083060549
 30
0.0
 11
5868.9695214635813
 21
5678.2591460224157
 31
0.0
  0
LINE
  5
7E10
  8
3
  6
CONTINUOUS
 62
     0
 10
5268.9695214635813
 20
5638.2591460224157
 30
0.0
 11
5788.9695214635813
 21
5638.2591460224157
 31
0.0
  0
INSERT
  5
7E11
  8
3
  6
CONTINUOUS
 62
     0
  2
_OPEN
 10
5188.9695214635813
 20
5638.2591460224157
 30
0.0
 41
80.0
 42
80.0
 43
80.0
 50
180.0
  0
INSERT
  5
7E12
  8
3
  6
CONTINUOUS
 62
     0
  2
_OPEN
 10
5868.9695214635813
 20
5638.2591460224157
 30
0.0
 41
80.0
 42
80.0
 43
80.0
  0
TEXT
  8
3
  40
120
  5
7E3D
  62
0
  72
0
  71
0
 10
5337.54
 20
5625.86
 30
0.000000
  1
MAX
  0
TEXT
  8
3
  40
120
  5
7E3E
  62
0
  72
0
  71
0
 10
5337.54
 20
5469.86
 30
0.000000
  1
770
  0
POINT
  5
7E14
  8
DEFPOINTS
  6
CONTINUOUS
 62
     0
 10
5188.9695214635813
 20
4726.7947293060552
 30
0.0
  0
POINT
  5
7E15
  8
DEFPOINTS
  6
CONTINUOUS
 62
     0
 10
5868.9695214635813
 20
5542.4276083060549
 30
0.0
  0
POINT
  5
7E16
  8
DEFPOINTS
  6
CONTINUOUS
 62
     0
 10
5868.9695214635813
 20
5638.2591460224157
 30
0.0
  0
ENDBLK
  5
7D2E
  8
0
  0
BLOCK
  8
0
  2
*D13
 70
     1
 10
0.0
 20
0.0
 30
0.0
  3
*D13
  1

  0
LINE
  5
7D0F
  8
0
  6
BYBLOCK
 62
     0
 10
5868.9695214635813
 20
5970.5778636493933
 30
0.0
 11
5868.9695214635813
 21
6087.016519365754
 31
0.0
  0
LINE
  5
7D10
  8
0
  6
BYBLOCK
 62
     0
 10
6346.9695214635813
 20
5438.2449846493937
 30
0.0
 11
6346.9695214635813
 21
6087.016519365754
 31
0.0
  0
LINE
  5
7D11
  8
0
  6
BYBLOCK
 62
     0
 10
5948.9695214635813
 20
6047.0165193657531
 30
0.0
 11
6266.9695214635822
 21
6047.0165193657531
 31
0.0
  0
TEXT
  5
7D12
  8
3
 62
     0
 10
5953.6838071778666
 20
6089.3243600842552
 30
0.0
 40
120.0
  1
478
  0
INSERT
  5
7D13
  8
0
  6
BYBLOCK
 62
     0
  2
_OPEN
 10
5868.9695214635813
 20
6047.0165193657531
 30
0.0
 41
80.0
 42
80.0
 43
80.0
 50
180.0
  0
INSERT
  5
7D14
  8
0
  6
BYBLOCK
 62
     0
  2
_OPEN
 10
6346.9695214635813
 20
6047.0165193657531
 30
0.0
 41
80.0
 42
80.0
 43
80.0
  0
POINT
  5
7D15
  8
DEFPOINTS
  6
BYBLOCK
 62
     0
 10
5868.9695214635813
 20
5950.5778636493933
 30
0.0
  0
POINT
  5
7D16
  8
DEFPOINTS
  6
BYBLOCK
 62
     0
 10
6346.9695214635813
 20
5418.2449846493937
 30
0.0
  0
POINT
  5
7D17
  8
DEFPOINTS
  6
BYBLOCK
 62
     0
 10
6346.9695214635813
 20
6047.0165193657531
 30
0.0
  0
ENDBLK
  5
7D18
  8
0
  0
BLOCK
  8
0
  2
*D14
 70
     1
 10
0.0
 20
0.0
 30
0.0
  3
*D14
  1

  0
LINE
  5
7E17
  8
3
  6
CONTINUOUS
 62
     0
 10
6366.9695214635813
 20
4960.0947293060563
 30
0.0
 11
6730.9096284635816
 21
4960.0947293060563
 31
0.0
  0
LINE
  5
7E18
  8
3
  6
CONTINUOUS
 62
     0
 10
6366.9695214635813
 20
3960.0947293060549
 30
0.0
 11
6730.9096284635816
 21
3960.0947293060549
 31
0.0
  0
LINE
  5
7E19
  8
3
  6
CONTINUOUS
 62
     0
 10
6690.9096284635816
 20
4880.0947293060553
 30
0.0
 11
6690.9096284635816
 21
4040.0947293060549
 31
0.0
  0
INSERT
  5
7E1A
  8
3
  6
CONTINUOUS
 62
     0
  2
_OPEN
 10
6690.9096284635816
 20
4960.0947293060563
 30
0.0
 41
80.0
 42
80.0
 43
80.0
 50
90.0
  0
INSERT
  5
7E1B
  8
3
  6
CONTINUOUS
 62
     0
  2
_OPEN
 10
6690.9096284635816
 20
3960.0947293060549
 30
0.0
 41
80.0
 42
80.0
 43
80.0
 50
270.0
  0
TEXT
  8
3
  40
120
  5
7E3F
  62
0
  72
0
  71
0
 10
6350.91
 20
4189.13
 30
0.000000
  1
φ1000
  0
POINT
  5
7E1D
  8
DEFPOINTS
  6
CONTINUOUS
 62
     0
 10
6346.9695214635813
 20
4960.0947293060563
 30
0.0
  0
POINT
  5
7E1E
  8
DEFPOINTS
  6
CONTINUOUS
 62
     0
 10
6346.9695214635813
 20
3960.0947293060549
 30
0.0
  0
POINT
  5
7E1F
  8
DEFPOINTS
  6
CONTINUOUS
 62
     0
 10
6690.9096284635816
 20
3960.0947293060549
 30
0.0
  0
ENDBLK
  5
7D0D
  8
0
  0
BLOCK
  8
0
  2
*D15
 70
     1
 10
0.0
 20
0.0
 30
0.0
  3
*D15
  1

  0
LINE
  5
7E20
  8
3
  6
CONTINUOUS
 62
     0
 10
5251.9695214635822
 20
3545.0947293060549
 30
0.0
 11
5251.9695214635822
 21
3231.350535306055
 31
0.0
  0
LINE
  5
7E21
  8
3
  6
CONTINUOUS
 62
     0
 10
5868.9695214635813
 20
3545.0947293060549
 30
0.0
 11
5868.9695214635813
 21
3231.350535306055
 31
0.0
  0
LINE
  5
7E22
  8
3
  6
CONTINUOUS
 62
     0
 10
5331.9695214635813
 20
3271.350535306055
 30
0.0
 11
5788.9695214635813
 21
3271.350535306055
 31
0.0
  0
INSERT
  5
7E23
  8
3
  6
CONTINUOUS
 62
     0
  2
_OPEN
 10
5251.9695214635822
 20
3271.350535306055
 30
0.0
 41
80.0
 42
80.0
 43
80.0
 50
180.0
  0
INSERT
  5
7E24
  8
3
  6
CONTINUOUS
 62
     0
  2
_OPEN
 10
5868.9695214635813
 20
3271.350535306055
 30
0.0
 41
80.0
 42
80.0
 43
80.0
  0
TEXT
  8
3
  40
120
  5
7E40
  62
0
  72
0
  71
0
 10
5366.11
 20
3158.95
 30
0.000000
  1
617
  0
POINT
  5
7E26
  8
DEFPOINTS
  6
CONTINUOUS
 62
     0
 10
5251.9695214635822
 20
3565.0947293060549
 30
0.0
  0
POINT
  5
7E27
  8
DEFPOINTS
  6
CONTINUOUS
 62
     0
 10
5868.9695214635813
 20
3565.0947293060549
 30
0.0
  0
POINT
  5
7E28
  8
DEFPOINTS
  6
CONTINUOUS
 62
     0
 10
5868.9695214635813
 20
3271.350535306055
 30
0.0
  0
ENDBLK
  5
7C3A
  8
0
  0
BLOCK
  8
0
  2
*D16
 70
     1
 10
0.0
 20
0.0
 30
0.0
  3
*D16
  1

  0
LINE
  5
7CF9
  8
0
  6
BYBLOCK
 62
     0
 10
5868.9695214635813
 20
3953.2449846493942
 30
0.0
 11
5868.9695214635813
 21
3638.2865856493931
 31
0.0
  0
LINE
  5
7CFA
  8
0
  6
BYBLOCK
 62
     0
 10
6311.9695214635813
 20
3953.2449846493942
 30
0.0
 11
6311.9695214635813
 21
3638.2865856493931
 31
0.0
  0
LINE
  5
7CFB
  8
0
  6
BYBLOCK
 62
     0
 10
5948.9695214635813
 20
3678.2865856493931
 30
0.0
 11
6231.9695214635813
 21
3678.2865856493931
 31
0.0
  0
TEXT
  5
7CFC
  8
3
 62
     0
 10
5936.1838071778657
 20
3710.6214240431432
 30
0.0
 40
120.0
  1
443
  0
INSERT
  5
7CFD
  8
0
  6
BYBLOCK
 62
     0
  2
_OPEN
 10
5868.9695214635813
 20
3678.2865856493931
 30
0.0
 41
80.0
 42
80.0
 43
80.0
 50
180.0
  0
INSERT
  5
7CFE
  8
0
  6
BYBLOCK
 62
     0
  2
_OPEN
 10
6311.9695214635813
 20
3678.2865856493931
 30
0.0
 41
80.0
 42
80.0
 43
80.0
  0
POINT
  5
7CFF
  8
DEFPOINTS
  6
BYBLOCK
 62
     0
 10
5868.9695214635813
 20
3973.2449846493928
 30
0.0
  0
POINT
  5
7D00
  8
DEFPOINTS
  6
BYBLOCK
 62
     0
 10
6311.9695214635813
 20
3973.2449846493928
 30
0.0
  0
POINT
  5
7D01
  8
DEFPOINTS
  6
BYBLOCK
 62
     0
 10
6311.9695214635813
 20
3678.2865856493931
 30
0.0
  0
ENDBLK
  5
7D02
  8
0
  0
BLOCK
  8
0
  2
*D17
 70
     1
 10
0.0
 20
0.0
 30
0.0
  3
*D17
  1

  0
LINE
  5
7E29
  8
3
 62
     0
 10
1486.8733058969881
 20
4505.5947293060553
 30
0.0
 11
1486.8733058969881
 21
5919.7198139038628
 31
0.0
  0
LINE
  5
7E2A
  8
3
 62
     0
 10
3701.8733058969879
 20
3710.0947293060549
 30
0.0
 11
3701.8733058969879
 21
5919.7198139038628
 31
0.0
  0
LINE
  5
7E2B
  8
3
 62
     0
 10
1566.8733058969881
 20
5879.7198139038628
 30
0.0
 11
3621.8733058969879
 21
5879.7198139038628
 31
0.0
  0
INSERT
  5
7E2C
  8
3
 62
     0
  2
_OPEN
 10
1486.8733058969881
 20
5879.7198139038628
 30
0.0
 41
80.0
 42
80.0
 43
80.0
 50
180.0
  0
INSERT
  5
7E2D
  8
3
 62
     0
  2
_OPEN
 10
3701.8733058969879
 20
5879.7198139038628
 30
0.0
 41
80.0
 42
80.0
 43
80.0
  0
TEXT
  8
3
  40
120
  5
7E41
  62
0
  72
0
  71
0
 10
2504.95
 20
5767.32
 30
0.000000
  1
2215
  0
POINT
  5
7E2F
  8
DEFPOINTS
 62
     0
 10
1486.8733058969881
 20
4485.5947293060553
 30
0.0
  0
POINT
  5
7E30
  8
DEFPOINTS
 62
     0
 10
3701.8733058969879
 20
3690.0947293060549
 30
0.0
  0
POINT
  5
7E31
  8
DEFPOINTS
 62
     0
 10
3701.8733058969879
 20
5879.7198139038628
 30
0.0
  0
ENDBLK
  5
7D7E
  8
0
  0
ENDSEC
  0
SECTION
  2
ENTITIES
  0
POLYLINE
  5
7A6A
  8
1
  6
CONTINUOUS
 66
     1
 10
0.0
 20
0.0
 30
0.0
  0
VERTEX
  5
7DA2
  8
1
  6
CONTINUOUS
 10
3280.8733058969879
 20
5140.0947293060553
 30
0.0
  0
VERTEX
  5
7DA3
  8
1
  6
CONTINUOUS
 10
3222.8733058969879
 20
4460.0947293060563
 30
0.0
 42
-0.4
  0
VERTEX
  5
7DA4
  8
1
  6
CONTINUOUS
 10
2280.8733058969879
 20
3589.0947293060549
 30
0.0
 42
-0.4
  0
VERTEX
  5
7DA5
  8
1
  6
CONTINUOUS
 10
1487.973305896988
 20
4465.5947293060553
 30
0.0
 42
-0.4
  0
VERTEX
  5
7DA6
  8
1
  6
CONTINUOUS
 10
2146.3733058969879
 20
5061.2947293060552
 30
0.0
  0
VERTEX
  5
7DA7
  8
1
  6
CONTINUOUS
 10
2250.8733058969879
 20
5051.0947293060553
 30
0.0
 42
-0.4
  0
SEQEND
  5
7DA8
  8
1
  6
CONTINUOUS
  0
LINE
  5
7A72
  8
1
  6
CONTINUOUS
 10
2706.8733058969879
 20
8460.6077728762102
 30
0.0
 11
3701.8733058969879
 21
8460.6077728762102
 31
0.0
  0
LINE
  5
7A73
  8
1
  6
CONTINUOUS
 10
2366.8733058969879
 20
7400.6077728762102
 30
0.0
 11
3326.8733058969879
 21
7400.6077728762102
 31
0.0
  0
LINE
  5
7A74
  8
1
  6
CONTINUOUS
 10
3354.8733058969892
 20
3738.4947293060541
 30
0.0
 11
2113.2733058969889
 21
4217.4947293060541
 31
0.0
  0
LINE
  5
7A75
  8
1
  6
CONTINUOUS
 10
3390.8733058969879
 20
3831.7947293060552
 30
0.0
 11
2149.2733058969889
 21
4310.7947293060561
 31
0.0
  0
LINE
  5
7A76
  8
1
  6
CONTINUOUS
 10
3515.3733058969879
 20
4104.3947293060537
 30
0.0
 11
2321.8733058969879
 21
4693.1947293060539
 31
0.0
  0
LINE
  5
7A77
  8
1
  6
CONTINUOUS
 10
3471.073305896989
 20
4014.6947293060548
 30
0.0
 11
2277.6733058969889
 21
4603.494729306055
 31
0.0
  0
LINE
  5
7A78
  8
1
  6
CONTINUOUS
 10
1946.8733058969881
 20
7337.6077728762102
 30
0.0
 11
3626.8733058969879
 21
7337.6077728762102
 31
0.0
  0
LINE
  5
7A79
  8
1
  6
CONTINUOUS
 10
1946.8733058969881
 20
7537.6077728762102
 30
0.0
 11
3626.8733058969879
 21
7537.6077728762102
 31
0.0
  0
LINE
  5
7A7A
  8
1
  6
CONTINUOUS
 10
2197.8733058969879
 20
5140.0947293060553
 30
0.0
 11
3333.8733058969879
 21
5140.0947293060553
 31
0.0
  0
LINE
  5
7A7B
  8
1
  6
CONTINUOUS
 10
1581.8733058969881
 20
3565.0947293060549
 30
0.0
 11
3701.8733058969879
 21
3565.0947293060549
 31
0.0
  0
LINE
  5
7A7C
  8
1
  6
CONTINUOUS
 10
1581.8733058969881
 20
3690.0947293060549
 30
0.0
 11
3701.8733058969879
 21
3690.0947293060549
 31
0.0
  0
ARC
  5
7A7D
  8
1
  6
CONTINUOUS
 10
3426.8733058969879
 20
3925.0947293060549
 30
0.0
 40
182.5
 50
326.60000000000002
 51
213.40000000000001
  0
LINE
  5
7A7E
  8
1
  6
CONTINUOUS
 10
3609.3733058969879
 20
7561.0077728762108
 30
0.0
 11
3244.3733058969879
 21
7561.0077728762108
 31
0.0
  0
LINE
  5
7A7F
  8
1
  6
CONTINUOUS
 10
3609.3733058969879
 20
8122.5077728762089
 30
0.0
 11
3280.8733058969879
 21
8122.5077728762089
 31
0.0
  0
LINE
  5
7A80
  8
1
  6
CONTINUOUS
 10
3636.8733058969892
 20
3745.0947293060549
 30
0.0
 11
3216.8733058969879
 21
3745.0947293060549
 31
0.0
  0
LINE
  5
7A81
  8
1
  6
CONTINUOUS
 10
1946.8733058969881
 20
7337.6077728762102
 30
0.0
 11
1946.8733058969881
 21
7537.6077728762102
 31
0.0
  0
LINE
  5
7A82
  8
2
  6
CENTER
 10
6413.0538344635806
 20
4460.0947293060563
 30
0.0
 11
5064.0598944635813
 21
4460.0947293060563
 31
0.0
  0
CIRCLE
  5
7A83
  8
1
  6
CONTINUOUS
 10
2206.8733058969879
 20
4460.0947293060563
 30
0.0
 40
160.0
  0
CIRCLE
  5
7A84
  8
1
  6
CONTINUOUS
 10
2206.8733058969879
 20
4460.0947293060563
 30
0.0
 40
500.0
  0
CIRCLE
  5
7A85
  8
1
  6
CONTINUOUS
 10
2206.8733058969879
 20
4460.0947293060563
 30
0.0
 40
550.0
  0
ARC
  5
7A86
  8
1
  6
CONTINUOUS
 10
2206.8733058969879
 20
4460.0947293060563
 30
0.0
 40
260.0
 50
63.700000000000003
 51
248.89999999999989
  0
LINE
  5
7A87
  8
1
  6
CONTINUOUS
 10
1581.8733058969881
 20
3690.0947293060549
 30
0.0
 11
1581.8733058969881
 21
3565.0947293060549
 31
0.0
  0
LINE
  5
7A88
  8
2
  6
CENTER
 10
2206.8733058969879
 20
8621.6680628762078
 30
0.0
 11
2206.8733058969879
 21
7260.7028908762104
 31
0.0
  0
LINE
  5
7A89
  8
1
  6
CONTINUOUS
 10
3264.8733058969879
 20
3815.0947293060549
 30
0.0
 11
3274.4733058969882
 21
3824.5947293060549
 31
0.0
  0
LINE
  5
7A8A
  8
1
  6
CONTINUOUS
 10
3264.8733058969879
 20
3745.0947293060549
 30
0.0
 11
3264.8733058969879
 21
3815.0947293060549
 31
0.0
  0
LINE
  5
7A8B
  8
1
  6
CONTINUOUS
 10
3201.8733058969879
 20
3690.0947293060549
 30
0.0
 11
3216.8733058969879
 21
3745.0947293060549
 31
0.0
  0
LINE
  5
7A8C
  8
1
  6
CONTINUOUS
 10
2250.8733058969879
 20
5090.0947293060563
 30
0.0
 11
3280.8733058969879
 21
5090.0947293060563
 31
0.0
  0
LINE
  5
7A8D
  8
1
  6
CONTINUOUS
 10
2250.8733058969879
 20
5051.0947293060553
 30
0.0
 11
2250.8733058969879
 21
5140.0947293060553
 31
0.0
  0
LINE
  5
7A8E
  8
1
  6
CONTINUOUS
 10
2046.8733058969881
 20
7387.6077728762102
 30
0.0
 11
2366.8733058969879
 21
7387.6077728762102
 31
0.0
  0
LINE
  5
7A8F
  8
1
  6
CONTINUOUS
 10
2046.8733058969881
 20
7487.6077728762093
 30
0.0
 11
2366.8733058969879
 21
7487.6077728762093
 31
0.0
  0
LINE
  5
7A90
  8
1
  6
CONTINUOUS
 10
1483.973305896988
 20
8392.6077728762102
 30
0.0
 11
3280.8733058969879
 21
8392.6077728762102
 31
0.0
  0
LINE
  5
7A91
  8
1
  6
CONTINUOUS
 10
1483.973305896988
 20
7642.6077728762102
 30
0.0
 11
3280.8733058969879
 21
7642.6077728762102
 31
0.0
  0
LINE
  5
7A92
  8
1
  6
CONTINUOUS
 10
1656.8733058969881
 20
8495.6077728762102
 30
0.0
 11
2756.8733058969879
 21
8495.6077728762102
 31
0.0
  0
LINE
  5
7A93
  8
1
  6
CONTINUOUS
 10
1483.973305896988
 20
7642.6077728762102
 30
0.0
 11
1483.973305896988
 21
8392.6077728762102
 31
0.0
  0
LINE
  5
7A94
  8
1
  6
CONTINUOUS
 10
1581.8733058969881
 20
7400.6077728762102
 30
0.0
 11
2046.8733058969881
 21
7400.6077728762102
 31
0.0
  0
LINE
  5
7A95
  8
1
  6
CONTINUOUS
 10
1581.8733058969881
 20
7642.6077728762102
 30
0.0
 11
1581.8733058969881
 21
7400.6077728762102
 31
0.0
  0
LINE
  5
7A96
  8
1
  6
CONTINUOUS
 10
2046.8733058969881
 20
7387.6077728762102
 30
0.0
 11
2046.8733058969881
 21
7487.6077728762093
 31
0.0
  0
LINE
  5
7A97
  8
1
  6
CONTINUOUS
 10
1581.8733058969881
 20
8460.6077728762102
 30
0.0
 11
1581.8733058969881
 21
8392.6077728762102
 31
0.0
  0
LINE
  5
7A98
  8
1
  6
CONTINUOUS
 10
1581.8733058969881
 20
8460.6077728762102
 30
0.0
 11
1706.8733058969881
 21
8460.6077728762102
 31
0.0
  0
LINE
  5
7A99
  8
1
  6
CONTINUOUS
 10
1706.8733058969881
 20
8392.6077728762102
 30
0.0
 11
1706.8733058969881
 21
8495.6077728762102
 31
0.0
  0
LINE
  5
7A9A
  8
1
  6
CONTINUOUS
 10
3280.8733058969879
 20
8392.6077728762102
 30
0.0
 11
2250.8733058969879
 21
7642.6077728762102
 31
0.0
  0
LINE
  5
7A9B
  8
1
  6
CONTINUOUS
 10
2250.8733058969879
 20
8392.6077728762102
 30
0.0
 11
3280.8733058969879
 21
7642.6077728762102
 31
0.0
  0
LINE
  5
7A9C
  8
1
  6
CONTINUOUS
 10
2250.8733058969879
 20
7642.6077728762102
 30
0.0
 11
2250.8733058969879
 21
8392.6077728762102
 31
0.0
  0
LINE
  5
7A9D
  8
1
  6
CONTINUOUS
 10
2230.8733058969879
 20
7487.6077728762093
 30
0.0
 11
2230.8733058969879
 21
7642.6077728762102
 31
0.0
  0
LINE
  5
7A9E
  8
1
  6
CONTINUOUS
 10
2182.8733058969879
 20
7487.6077728762093
 30
0.0
 11
2182.8733058969879
 21
7642.6077728762102
 31
0.0
  0
LINE
  5
7A9F
  8
1
  6
CONTINUOUS
 10
2366.8733058969879
 20
7387.6077728762102
 30
0.0
 11
2366.8733058969879
 21
7487.6077728762093
 31
0.0
  0
LINE
  5
7AA0
  8
1
  6
CONTINUOUS
 10
3280.8733058969879
 20
7642.6077728762102
 30
0.0
 11
3280.8733058969879
 21
8392.6077728762102
 31
0.0
  0
LINE
  5
7AA1
  8
1
  6
CONTINUOUS
 10
3244.3733058969879
 20
7561.0077728762108
 30
0.0
 11
3244.3733058969879
 21
7642.6077728762102
 31
0.0
  0
LINE
  5
7AA2
  8
1
  6
CONTINUOUS
 10
2706.8733058969879
 20
8392.6077728762102
 30
0.0
 11
2706.8733058969879
 21
8495.6077728762102
 31
0.0
  0
LINE
  5
7AA3
  8
1
  6
CONTINUOUS
 10
3626.8733058969879
 20
7337.6077728762102
 30
0.0
 11
3626.8733058969879
 21
7537.6077728762102
 31
0.0
  0
ARC
  5
7AA4
  8
1
  6
CONTINUOUS
 10
3426.8733058969879
 20
3925.0947293060549
 30
0.0
 40
200.0
 50
248.89999999999989
 51
63.700000000000003
  0
LINE
  5
7AA5
  8
1
  6
CONTINUOUS
 10
3588.8733058969879
 20
3815.0947293060549
 30
0.0
 11
3579.2733058969879
 21
3824.5947293060549
 31
0.0
  0
LINE
  5
7AA6
  8
1
  6
CONTINUOUS
 10
3588.8733058969879
 20
3745.0947293060549
 30
0.0
 11
3588.8733058969879
 21
3815.0947293060549
 31
0.0
  0
CIRCLE
  5
7AA7
  8
1
  6
CONTINUOUS
 10
3426.8733058969879
 20
3925.0947293060549
 30
0.0
 40
100.0
  0
LINE
  5
7AA8
  8
2
  6
CENTER
 10
3426.8733058969879
 20
3820.0947293060549
 30
0.0
 11
3426.8733058969879
 21
4030.0947293060549
 31
0.0
  0
LINE
  5
7AA9
  8
2
  6
CENTER
 10
3531.8733058969879
 20
3925.0947293060549
 30
0.0
 11
3321.8733058969879
 21
3925.0947293060549
 31
0.0
  0
LINE
  5
7AAA
  8
1
  6
CONTINUOUS
 10
3701.8733058969879
 20
3690.0947293060549
 30
0.0
 11
3701.8733058969879
 21
3565.0947293060549
 31
0.0
  0
LINE
  5
7AAB
  8
1
  6
CONTINUOUS
 10
3651.8733058969879
 20
3690.0947293060549
 30
0.0
 11
3636.8733058969892
 21
3745.0947293060549
 31
0.0
  0
LINE
  5
7AAC
  8
1
  6
CONTINUOUS
 10
3701.8733058969879
 20
8460.6077728762102
 30
0.0
 11
3701.8733058969879
 21
7400.6077728762102
 31
0.0
  0
LINE
  5
7AAD
  8
1
  6
CONTINUOUS
 10
3526.8733058969879
 20
7400.6077728762102
 30
0.0
 11
3701.8733058969879
 21
7400.6077728762102
 31
0.0
  0
LINE
  5
7AAE
  8
1
  6
CONTINUOUS
 10
3402.8733058969879
 20
7487.6077728762093
 30
0.0
 11
3402.8733058969879
 21
7561.0077728762108
 31
0.0
  0
LINE
  5
7AAF
  8
1
  6
CONTINUOUS
 10
3450.8733058969879
 20
7487.6077728762093
 30
0.0
 11
3450.8733058969879
 21
7561.0077728762108
 31
0.0
  0
LINE
  5
7AB0
  8
1
  6
CONTINUOUS
 10
3326.8733058969879
 20
7487.6077728762093
 30
0.0
 11
3526.8733058969879
 21
7487.6077728762093
 31
0.0
  0
LINE
  5
7AB1
  8
1
  6
CONTINUOUS
 10
3326.8733058969879
 20
7387.6077728762102
 30
0.0
 11
3526.8733058969879
 21
7387.6077728762102
 31
0.0
  0
LINE
  5
7AB2
  8
1
  6
CONTINUOUS
 10
3326.8733058969879
 20
7387.6077728762102
 30
0.0
 11
3326.8733058969879
 21
7487.6077728762093
 31
0.0
  0
LINE
  5
7AB3
  8
1
  6
CONTINUOUS
 10
3526.8733058969879
 20
7387.6077728762102
 30
0.0
 11
3526.8733058969879
 21
7487.6077728762093
 31
0.0
  0
LINE
  5
7AB4
  8
1
  6
CONTINUOUS
 10
3609.3733058969879
 20
7561.0077728762108
 30
0.0
 11
3609.3733058969879
 21
8122.5077728762089
 31
0.0
  0
LINE
  5
7AB5
  8
1
  6
CONTINUOUS
 10
6293.9695214635813
 20
5140.0947293060553
 30
0.0
 11
5443.9695214635813
 21
5140.0947293060553
 31
0.0
  0
LINE
  5
7AB6
  8
1
  6
CONTINUOUS
 10
6311.9695214635813
 20
3565.0947293060549
 30
0.0
 11
5251.9695214635822
 21
3565.0947293060549
 31
0.0
  0
LINE
  5
7AB7
  8
1
  6
CONTINUOUS
 10
6311.9695214635813
 20
3690.0947293060549
 30
0.0
 11
5251.9695214635822
 21
3690.0947293060549
 31
0.0
  0
LINE
  5
7AB8
  8
1
  6
CONTINUOUS
 10
6243.9695214635813
 20
5090.0947293060563
 30
0.0
 11
5493.9695214635813
 21
5090.0947293060563
 31
0.0
  0
LINE
  5
7AB9
  8
1
  6
CONTINUOUS
 10
5493.9695214635813
 20
5140.0947293060553
 30
0.0
 11
5493.9695214635813
 21
3690.0947293060549
 31
0.0
  0
LINE
  5
7ABA
  8
1
  6
CONTINUOUS
 10
5388.9695214635813
 20
4726.7947293060552
 30
0.0
 11
5388.9695214635813
 21
3725.0947293060549
 31
0.0
  0
LINE
  5
7ABB
  8
1
  6
CONTINUOUS
 10
5188.9695214635813
 20
4726.7947293060552
 30
0.0
 11
5188.9695214635813
 21
3725.0947293060549
 31
0.0
  0
LINE
  5
7ABC
  8
1
  6
CONTINUOUS
 10
5493.9695214635813
 20
3907.7947293060552
 30
0.0
 11
5338.9695214635822
 21
3907.7947293060552
 31
0.0
  0
LINE
  5
7ABD
  8
1
  6
CONTINUOUS
 10
5493.9695214635813
 20
3955.7947293060552
 30
0.0
 11
5338.9695214635822
 21
3955.7947293060552
 31
0.0
  0
LINE
  5
7ABE
  8
1
  6
CONTINUOUS
 10
5251.9695214635822
 20
3690.0947293060549
 30
0.0
 11
5251.9695214635822
 21
3565.0947293060549
 31
0.0
  0
LINE
  5
7ABF
  8
1
  6
CONTINUOUS
 10
5188.9695214635813
 20
3725.0947293060549
 30
0.0
 11
5388.9695214635813
 21
3725.0947293060549
 31
0.0
  0
LINE
  5
7AC0
  8
1
  6
CONTINUOUS
 10
5238.9695214635813
 20
4025.0947293060549
 30
0.0
 11
5338.9695214635822
 21
4025.0947293060549
 31
0.0
  0
LINE
  5
7AC1
  8
1
  6
CONTINUOUS
 10
5238.9695214635813
 20
3825.0947293060549
 30
0.0
 11
5338.9695214635822
 21
3825.0947293060549
 31
0.0
  0
LINE
  5
7AC2
  8
1
  6
CONTINUOUS
 10
5238.9695214635813
 20
4025.0947293060549
 30
0.0
 11
5238.9695214635813
 21
3825.0947293060549
 31
0.0
  0
LINE
  5
7AC3
  8
1
  6
CONTINUOUS
 10
5338.9695214635822
 20
4025.0947293060549
 30
0.0
 11
5338.9695214635822
 21
3825.0947293060549
 31
0.0
  0
LINE
  5
7AC4
  8
1
  6
CONTINUOUS
 10
5493.9695214635813
 20
4490.7947293060552
 30
0.0
 11
5338.9695214635822
 21
4490.7947293060552
 31
0.0
  0
LINE
  5
7AC5
  8
1
  6
CONTINUOUS
 10
5493.9695214635813
 20
4442.7947293060552
 30
0.0
 11
5338.9695214635822
 21
4442.7947293060552
 31
0.0
  0
LINE
  5
7AC6
  8
1
  6
CONTINUOUS
 10
5188.9695214635813
 20
4726.7947293060552
 30
0.0
 11
5388.9695214635813
 21
4726.7947293060552
 31
0.0
  0
LINE
  5
7AC7
  8
1
  6
CONTINUOUS
 10
5238.9695214635813
 20
4626.7947293060543
 30
0.0
 11
5238.9695214635813
 21
4293.2947293060552
 31
0.0
  0
LINE
  5
7AC8
  8
1
  6
CONTINUOUS
 10
5338.9695214635822
 20
4626.7947293060543
 30
0.0
 11
5338.9695214635822
 21
4293.2947293060552
 31
0.0
  0
LINE
  5
7AC9
  8
1
  6
CONTINUOUS
 10
5238.9695214635813
 20
4626.7947293060543
 30
0.0
 11
5338.9695214635822
 21
4626.7947293060543
 31
0.0
  0
LINE
  5
7ACA
  8
1
  6
CONTINUOUS
 10
5238.9695214635813
 20
4293.2947293060552
 30
0.0
 11
5338.9695214635822
 21
4293.2947293060552
 31
0.0
  0
LINE
  5
7ACB
  8
1
  6
CONTINUOUS
 10
6346.9695214635813
 20
5010.0947293060563
 30
0.0
 11
6346.9695214635813
 21
3910.0947293060558
 31
0.0
  0
LINE
  5
7ACC
  8
1
  6
CONTINUOUS
 10
6243.9695214635813
 20
5140.0947293060553
 30
0.0
 11
6243.9695214635813
 21
3690.0947293060549
 31
0.0
  0
LINE
  5
7ACD
  8
1
  6
CONTINUOUS
 10
6346.9695214635813
 20
3960.0947293060549
 30
0.0
 11
6243.9695214635813
 21
3960.0947293060549
 31
0.0
  0
LINE
  5
7ACE
  8
1
  6
CONTINUOUS
 10
6311.9695214635813
 20
3690.0947293060549
 30
0.0
 11
6311.9695214635813
 21
3565.0947293060549
 31
0.0
  0
LINE
  5
7ACF
  8
1
  6
CONTINUOUS
 10
6346.9695214635813
 20
4960.0947293060563
 30
0.0
 11
6243.9695214635813
 21
4960.0947293060563
 31
0.0
  0
DIMENSION
  5
7AE3
  8
3
  6
CONTINUOUS
  2
*D1
 10
2206.8733058969879
 20
3234.7195373060549
 30
0.0
 11
1932.5875916112741
 21
3234.7195373060549
 31
0.0
 70
   128
 13
1581.8733058969881
 23
3565.0947293060549
 33
0.0
 14
2206.8733058969879
 24
3500.6672303060559
 34
0.0
1001
ACAD
1000
DSTYLE
1002
{
1070
   287
1070
     3
1070
    40
1040
40.0
1070
   143
1040
0.039
1070
   172
1070
     1
1070
   271
1070
     0
1070
   279
1070
     0
1070
   288
1070
     1
1002
}
  0
DIMENSION
  5
7AEF
  8
3
  6
CONTINUOUS
  2
*D2
 10
3701.8733058969879
 20
3234.7195373060549
 30
0.0
 11
2954.3733058969879
 21
3334.7195373060549
 31
0.0
 70
     0
 13
2206.8733058969879
 23
3500.6672303060559
 33
0.0
 14
3701.8733058969879
 24
3565.0947293060549
 34
0.0
1001
ACAD
1000
DSTYLE
1002
{
1070
   287
1070
     3
1070
    40
1040
40.0
1070
   143
1040
0.039
1070
   172
1070
     1
1070
   271
1070
     0
1070
   279
1070
     0
1070
   288
1070
     1
1002
}
  0
DIMENSION
  5
7AFC
  8
3
  6
CONTINUOUS
  2
*D3
 10
3280.8733058969879
 20
5358.9966653060546
 30
0.0
 11
2751.6425908969882
 21
5358.9966653060546
 31
0.0
 70
   128
 13
2250.8733058969879
 23
5140.0947293060553
 33
0.0
 14
3280.8733058969879
 24
5140.0947293060553
 34
0.0
1001
ACAD
1000
DSTYLE
1002
{
1070
   287
1070
     3
1070
    40
1040
40.0
1070
   143
1040
0.039
1070
   172
1070
     1
1070
   271
1070
     0
1070
   279
1070
     0
1070
   288
1070
     1
1002
}
  0
DIMENSION
  5
7B09
  8
3
  6
CONTINUOUS
  2
*D4
 10
2206.8733058969879
 20
5629.3280773060551
 30
0.0
 11
1847.4963008969869
 21
5629.3280773060551
 31
0.0
 70
   128
 13
1486.8733058969881
 23
4465.5947293060553
 33
0.0
 14
2206.8733058969879
 24
5055.3894663060546
 34
0.0
1001
ACAD
1000
DSTYLE
1002
{
1070
   287
1070
     3
1070
    40
1040
40.0
1070
   143
1040
0.039
1070
   172
1070
     1
1070
   271
1070
     0
1070
   279
1070
     0
1070
   288
1070
     1
1002
}
  0
DIMENSION
  5
7B15
  8
3
  6
CONTINUOUS
  2
*D5
 10
3280.8733058969879
 20
5629.3280773060551
 30
0.0
 11
2743.8733058969879
 21
5729.3280773060551
 31
0.0
 70
     0
 13
2206.8733058969879
 23
5055.3894663060546
 33
0.0
 14
3280.8733058969879
 24
5140.0947293060553
 34
0.0
1001
ACAD
1000
DSTYLE
1002
{
1070
   287
1070
     3
1070
    40
1040
40.0
1070
   143
1040
0.039
1070
   172
1070
     1
1070
   271
1070
     0
1070
   279
1070
     0
1070
   288
1070
     1
1002
}
  0
DIMENSION
  5
7B22
  8
3
  6
CONTINUOUS
  2
*D6
 10
3995.6163870466021
 20
4460.0947293060563
 30
0.0
 11
3995.6163870466021
 21
4865.8090150203407
 31
0.0
 70
   128
 13
3333.8733058969879
 23
5140.0947293060553
 33
0.0
 14
3222.8733058969879
 24
4460.0947293060563
 34
0.0
 50
90.0
1001
ACAD
1000
DSTYLE
1002
{
1070
   287
1070
     3
1070
    40
1040
40.0
1070
   143
1040
0.039
1070
   172
1070
     1
1070
   271
1070
     0
1070
   279
1070
     0
1070
   288
1070
     1
1002
}
  0
DIMENSION
  5
7B2E
  8
3
  6
CONTINUOUS
  2
*D7
 10
3995.6163870466021
 20
3565.0947293060549
 30
0.0
 11
3895.6163870466021
 21
4012.5947293060549
 31
0.0
 70
     0
 13
3222.8733058969879
 23
4460.0947293060563
 33
0.0
 14
3701.8733058969879
 24
3565.0947293060549
 34
0.0
 50
90.0
1001
ACAD
1000
DSTYLE
1002
{
1070
   287
1070
     3
1070
    40
1040
40.0
1070
   143
1040
0.039
1070
   172
1070
     1
1070
   271
1070
     0
1070
   279
1070
     0
1070
   288
1070
     1
1002
}
  0
DIMENSION
  5
7B3B
  8
3
  6
CONTINUOUS
  2
*D8
 10
4274.4169281927889
 20
3565.0947293060549
 30
0.0
 11
4274.416928192788
 21
4394.1946513060548
 31
0.0
 70
   128
 13
3333.8733058969879
 23
5140.0947293060553
 33
0.0
 14
3701.8733058969879
 24
3565.0947293060549
 34
0.0
 50
90.0
1001
ACAD
1000
DSTYLE
1002
{
1070
   287
1070
     3
1070
    40
1040
40.0
1070
   143
1040
0.039
1070
   172
1070
     1
1070
   271
1070
     0
1070
   279
1070
     0
1070
   288
1070
     1
1002
}
  0
DIMENSION
  5
7B48
  8
3
  6
CONTINUOUS
  2
*D9
 10
3701.8733058969879
 20
6955.5778648762098
 30
0.0
 11
2618.4624348969878
 21
6955.5778648762098
 31
0.0
 70
   128
 13
1581.8733058969881
 23
7400.6077728762102
 33
0.0
 14
3701.8733058969879
 24
7400.6077728762102
 34
0.0
1001
ACAD
1000
DSTYLE
1002
{
1070
   287
1070
     3
1070
    40
1040
40.0
1070
   143
1040
0.039
1070
   172
1070
     1
1070
   271
1070
     0
1070
   279
1070
     0
1070
   288
1070
     1
1002
}
  0
DIMENSION
  5
7B55
  8
3
  6
CONTINUOUS
  2
*D10
 10
4121.3002678969897
 20
7400.6077728762102
 30
0.0
 11
4121.3002678969879
 21
7969.8071298762097
 31
0.0
 70
   128
 13
3701.8733058969879
 23
8460.6077728762102
 33
0.0
 14
3701.8733058969879
 24
7400.6077728762102
 34
0.0
 50
90.0
1001
ACAD
1000
DSTYLE
1002
{
1070
   287
1070
     3
1070
    40
1040
40.0
1070
   143
1040
0.039
1070
   172
1070
     1
1070
   271
1070
     0
1070
   279
1070
     0
1070
   288
1070
     1
1002
}
  0
LINE
  5
7B56
  8
2
  6
CENTER
 10
3421.3825388969881
 20
8017.6077728762102
 30
0.0
 11
1347.770340896988
 21
8017.6077728762102
 31
0.0
  0
LINE
  5
7B57
  8
2
  6
CENTER
 10
2206.8733058969879
 20
5186.2898323060554
 30
0.0
 11
2206.8733058969879
 21
3500.6672303060559
 31
0.0
  0
LINE
  5
7B58
  8
2
  6
CENTER
 10
5868.9695214635813
 20
5351.1988773060557
 30
0.0
 11
5868.9695214635813
 21
3295.7604923060549
 31
0.0
  0
DIMENSION
  5
7B65
  8
3
  6
CONTINUOUS
  2
*D11
 10
6243.9695214635813
 20
5340.7051353060551
 30
0.0
 11
5869.6607341062481
 21
5340.7051353060551
 31
0.0
 70
   128
 13
5493.9695214635813
 23
5140.0947293060553
 33
0.0
 14
6243.9695214635813
 24
5140.0947293060553
 34
0.0
1001
ACAD
1000
DSTYLE
1002
{
1070
   287
1070
     3
1070
    40
1040
40.0
1070
   143
1040
0.039
1070
   172
1070
     1
1070
   271
1070
     0
1070
   279
1070
     0
1070
   288
1070
     1
1002
}
  0
DIMENSION
  5
7B72
  8
3
  6
CONTINUOUS
  2
*D12
 10
5868.9695214635813
 20
5638.2591460224157
 30
0.0
 11
5577.5409500350097
 21
5638.2591460224157
 31
0.0
 70
   128
  1
MAX\P770
 13
5188.9695214635813
 23
4726.7947293060552
 33
0.0
 14
5868.9695214635813
 24
5542.4276083060549
 34
0.0
1001
ACAD
1000
DSTYLE
1002
{
1070
   287
1070
     3
1070
    40
1040
40.0
1070
   143
1040
0.039
1070
   172
1070
     1
1070
   271
1070
     0
1070
   279
1070
     0
1070
   288
1070
     1
1002
}
  0
DIMENSION
  5
7B80
  8
3
  6
CONTINUOUS
  2
*D13
 10
6346.9695214635813
 20
5638.8662640224138
 30
0.0
 11
6107.9695214635813
 21
5741.1741047409159
 31
0.0
 12
0.0
 22
-408.1502553433383
 32
0.0
 70
   128
 13
5868.9695214635813
 23
5542.4276083060549
 33
0.0
 14
6346.9695214635813
 24
5010.0947293060563
 34
0.0
1001
ACAD
1000
DSTYLE
1002
{
1070
   288
1070
     1
1070
   172
1070
     1
1070
    40
1040
40.0
1070
   271
1070
     0
1070
   143
1040
0.039
1002
}
  0
DIMENSION
  5
7BA3
  8
3
  6
CONTINUOUS
  2
*D14
 10
6690.9096284635816
 20
3960.0947293060549
 30
0.0
 11
6690.9096284635816
 21
4401.5272513060536
 31
0.0
 70
   128
 13
6346.9695214635813
 23
4960.0947293060563
 33
0.0
 14
6346.9695214635813
 24
3960.0947293060549
 34
0.0
 50
90.0
1001
ACAD
1000
DSTYLE
1002
{
1070
   287
1070
     3
1070
     3
1000
φ<>
1070
    40
1040
40.0
1070
   143
1040
0.039
1070
   172
1070
     1
1070
   271
1070
     0
1070
   279
1070
     0
1070
   288
1070
     1
1002
}
  0
DIMENSION
  5
7BB0
  8
3
  6
CONTINUOUS
  2
*D15
 10
5868.9695214635813
 20
3271.350535306055
 30
0.0
 11
5606.1123786064391
 21
3271.350535306055
 31
0.0
 70
   128
 13
5251.9695214635822
 23
3565.0947293060549
 33
0.0
 14
5868.9695214635813
 24
3565.0947293060549
 34
0.0
1001
ACAD
1000
DSTYLE
1002
{
1070
   287
1070
     3
1070
    40
1040
40.0
1070
   143
1040
0.039
1070
   172
1070
     1
1070
   271
1070
     0
1070
   279
1070
     0
1070
   288
1070
     1
1002
}
  0
DIMENSION
  5
7BBE
  8
3
  6
CONTINUOUS
  2
*D16
 10
6311.9695214635813
 20
3270.1363303060548
 30
0.0
 11
6090.4695214635822
 21
3362.4711686998048
 31
0.0
 12
0.0
 22
-408.1502553433383
 32
0.0
 70
   128
 13
5868.9695214635813
 23
3565.0947293060549
 33
0.0
 14
6311.9695214635813
 24
3565.0947293060549
 34
0.0
1001
ACAD
1000
DSTYLE
1002
{
1070
   288
1070
     1
1070
   172
1070
     1
1070
    40
1040
40.0
1070
   271
1070
     0
1070
   143
1040
0.039
1002
}
  0
LINE
  5
7BD5
  8
2
  6
CENTER
 10
3372.9315638969888
 20
4460.0947293060563
 30
0.0
 11
1423.1354438969879
 21
4460.0947293060563
 31
0.0
  0
LINE
  5
7BD6
  8
4
  6
CONTINUOUS
 10
7400.0
 20
2000.0
 30
0.0
 11
7400.0
 21
1200.0
 31
0.0
  0
LINE
  5
7BD7
  8
4
  6
CONTINUOUS
 10
4600.0
 20
2000.0
 30
0.0
 11
4600.0
 21
1200.0
 31
0.0
  0
LINE
  5
7BD8
  8
4
  6
CONTINUOUS
 10
2600.0
 20
2000.0
 30
0.0
 11
2600.0
 21
1200.0
 31
0.0
  0
LINE
  5
7BDB
  8
4
  6
CONTINUOUS
 10
2600.0
 20
1200.0
 30
0.0
 11
7400.0
 21
1200.0
 31
0.0
  0
LINE
  5
7BDC
  8
4
  6
CONTINUOUS
 10
2600.0
 20
1600.0
 30
0.0
 11
7400.0
 21
1600.0
 31
0.0
  0
TEXT
  5
7BDD
  8
4
  6
CONTINUOUS
 10
2754.0083232000002
 20
1726.1721031999989
 30
0.0
 40
200.0
  1
機器名称
  0
TEXT
  5
7BDE
  8
4
  6
CONTINUOUS
 10
2745.032424
 20
1286.5806264
 30
0.0
 40
200.0
  1
機器型番
  0
TEXT
  5
7BDF
  8
4
  6
CONTINUOUS
 10
4710.7149823999989
 20
1690.2870751999999
 30
0.0
 40
168.88888879999999
  1
ミツヤリミットロードファン
  0
TEXT
  5
7BE0
  8
4
  6
CONTINUOUS
 10
4746.6179824000001
 20
1268.6383367999999
 30
0.0
 40
200.0
  1
LL#6-4
  0
TEXT
  5
7BE2
  8
4
  6
CONTINUOUS
 10
3619.1430624
 20
9533.7153655999991
 30
0.0
 40
216.0
  1
床置ベット
  0
TEXT
  5
7BE3
  8
4
  6
CONTINUOUS
 10
1264.6703735999999
 20
10135.5239048
 30
0.0
 40
240.0
  1
ベルト駆動式片吸込両持リミットロードファン
  0
LINE
  5
7BE4
  8
4
  6
CONTINUOUS
 10
1000.0
 20
9877.635016799999
 30
0.0
 11
7400.0
 21
9877.635016799999
 31
0.0
  0
LINE
  5
7BE5
  8
4
  6
CONTINUOUS
 10
1000.0
 20
10677.635016800001
 30
0.0
 11
7400.0
 21
10677.635016800001
 31
0.0
  0
LINE
  5
7BE6
  8
4
  6
CONTINUOUS
 10
2600.0
 20
2000.0
 30
0.0
 11
7400.0
 21
2000.0
 31
0.0
  0
LINE
  5
7BE7
  8
4
  6
CONTINUOUS
 10
1000.0
 20
10677.635016800001
 30
0.0
 11
1000.0
 21
9877.635016799999
 31
0.0
  0
TEXT
  5
7BE8
  8
4
  6
CONTINUOUS
 10
1875.7077336
 20
9529.2779104000001
 30
0.0
 40
216.0
  1
左回転上向
  0
TEXT
  5
7BE9
  8
4
  6
CONTINUOUS
 10
5875.8782375999999
 20
10824.244326399999
 30
0.0
 40
224.0
  1
No.
  0
TEXT
  5
7BEA
  8
4
  6
CONTINUOUS
 10
5245.1842504000006
 20
9533.7153655999991
 30
0.0
 40
216.0
  1
縮尺：1/40
  0
LINE
  5
7BEB
  8
4
  6
CONTINUOUS
 10
7400.0
 20
10677.635016800001
 30
0.0
 11
7400.0
 21
9877.635016799999
 31
0.0
  0
LINE
  5
7BED
  8
4
  6
CONTINUOUS
 10
5762.4696895999996
 20
10725.0543328
 30
0.0
 11
5762.4696895999996
 21
11146.609046400001
 31
0.0
  0
LINE
  5
7BEE
  8
4
  6
CONTINUOUS
 10
5762.4696895999996
 20
11146.609046400001
 30
0.0
 11
7400.0
 21
11146.609046400001
 31
0.0
  0
LINE
  5
7BEF
  8
4
  6
CONTINUOUS
 10
7400.0
 20
11146.609046400001
 30
0.0
 11
7400.0
 21
10725.0543328
 31
0.0
  0
LINE
  5
7BF0
  8
4
  6
CONTINUOUS
 10
7400.0
 20
10725.0543328
 30
0.0
 11
5762.4696895999996
 21
10725.0543328
 31
0.0
  0
DIMENSION
  5
7D7F
  8
3
  2
*D17
 10
3701.8733058969879
 20
5879.7198139038628
 30
0.0
 11
2744.9540304163602
 21
5879.7198139038628
 31
0.0
 70
   128
 13
1486.8733058969881
 23
4485.5947293060553
 33
0.0
 14
3701.8733058969879
 24
3690.0947293060549
 34
0.0
1001
ACAD
1000
DSTYLE
1002
{
1070
   287
1070
     3
1070
    40
1040
40.0
1070
   143
1040
0.039
1070
   172
1070
     1
1070
   271
1070
     0
1070
   279
1070
     0
1070
   288
1070
     1
1002
}
  0
ENDSEC
  0
EOF
