  0
SECTION
  2
HEADER
  9
$ACADVER
  1
AC1009
  9
$INSBASE
 10
0.0
 20
0.0
 30
0.0
  9
$EXTMIN
 10
0.0
 20
0.0
 30
0.0
  9
$EXTMAX
 10
7350.0
 20
10325.0
 30
0.0
  9
$LIMMIN
 10
0.0
 20
0.0
  9
$LIMMAX
 10
297.0
 20
210.0
  9
$ORTHOMODE
 70
     0
  9
$REGENMODE
 70
     1
  9
$FILLMODE
 70
     0
  9
$QTEXTMODE
 70
     0
  9
$MIRRTEXT
 70
     1
  9
$DRAGMODE
 70
     2
  9
$LTSCALE
 40
100.0
  9
$OSMODE
 70
    37
  9
$ATTMODE
 70
     1
  9
$TEXTSIZE
 40
180.0
  9
$TRACEWID
 40
0.05
  9
$TEXTSTYLE
  7
STANDARD
  9
$CLAYER
  8
3
  9
$CELTYPE
  6
BYLAYER
  9
$CECOLOR
 62
   256
  9
$DIMSCALE
 40
35.0
  9
$DIMASZ
 40
2.0
  9
$DIMEXO
 40
0.5
  9
$DIMDLI
 40
10.0
  9
$DIMRND
 40
0.0
  9
$DIMDLE
 40
0.0
  9
$DIMEXE
 40
1.0
  9
$DIMTP
 40
1.0
  9
$DIMTM
 40
1.0
  9
$DIMTXT
 40
3.0
  9
$DIMCEN
 40
0.0
  9
$DIMTSZ
 40
0.0
  9
$DIMTOL
 70
     0
  9
$DIMLIM
 70
     0
  9
$DIMTIH
 70
     0
  9
$DIMTOH
 70
     0
  9
$DIMSE1
 70
     0
  9
$DIMSE2
 70
     0
  9
$DIMTAD
 70
     1
  9
$DIMZIN
 70
     8
  9
$DIMBLK
  1

  9
$DIMASO
 70
     1
  9
$DIMSHO
 70
     1
  9
$DIMPOST
  1
φ<>
  9
$DIMAPOST
  1

  9
$DIMALT
 70
     0
  9
$DIMALTD
 70
     2
  9
$DIMALTF
 40
0.039
  9
$DIMLFAC
 40
1.0
  9
$DIMTOFL
 70
     1
  9
$DIMTVP
 40
0.0
  9
$DIMTIX
 70
     0
  9
$DIMSOXD
 70
     0
  9
$DIMSAH
 70
     1
  9
$DIMBLK1
  1
OPEN
  9
$DIMBLK2
  1
OPEN
  9
$DIMSTYLE
  2
IGA
  9
$DIMCLRD
 70
     0
  9
$DIMCLRE
 70
     0
  9
$DIMCLRT
 70
     0
  9
$DIMTFAC
 40
10.0
  9
$DIMGAP
 40
1.0
  9
$LUNITS
 70
     2
  9
$LUPREC
 70
     3
  9
$SKETCHINC
 40
0.1
  9
$FILLETRAD
 40
50.0
  9
$AUNITS
 70
     0
  9
$AUPREC
 70
     0
  9
$MENU
  1
acad
  9
$ELEVATION
 40
0.0
  9
$PELEVATION
 40
0.0
  9
$THICKNESS
 40
0.0
  9
$LIMCHECK
 70
     0
  9
$BLIPMODE
 70
     0
  9
$CHAMFERA
 40
0.0
  9
$CHAMFERB
 40
0.0
  9
$SKPOLY
 70
     0
  9
$TDCREATE
 40
2452780.3973718751
  9
$TDUPDATE
 40
2454953.6458608219
  9
$TDINDWG
 40
0.0458436343
  9
$TDUSRTIMER
 40
0.0458436343
  9
$USRTIMER
 70
     1
  9
$ANGBASE
 50
0.0
  9
$ANGDIR
 70
     0
  9
$PDMODE
 70
     0
  9
$PDSIZE
 40
0.0
  9
$PLINEWID
 40
0.0
  9
$COORDS
 70
     1
  9
$SPLFRAME
 70
     0
  9
$SPLINETYPE
 70
     6
  9
$SPLINESEGS
 70
     8
  9
$ATTDIA
 70
     0
  9
$ATTREQ
 70
     1
  9
$HANDLING
 70
 10241
  9
$HANDSEED
  5
82DA
  9
$SURFTAB1
 70
     6
  9
$SURFTAB2
 70
     6
  9
$SURFTYPE
 70
     6
  9
$SURFU
 70
     6
  9
$SURFV
 70
     6
  9
$UCSNAME
  2

  9
$UCSORG
 10
0.0
 20
0.0
 30
0.0
  9
$UCSXDIR
 10
1.0
 20
0.0
 30
0.0
  9
$UCSYDIR
 10
0.0
 20
1.0
 30
0.0
  9
$PUCSNAME
  2

  9
$PUCSORG
 10
0.0
 20
0.0
 30
0.0
  9
$PUCSXDIR
 10
1.0
 20
0.0
 30
0.0
  9
$PUCSYDIR
 10
0.0
 20
1.0
 30
0.0
  9
$USERI1
 70
     0
  9
$USERI2
 70
     0
  9
$USERI3
 70
     0
  9
$USERI4
 70
     0
  9
$USERI5
 70
     0
  9
$USERR1
 40
0.0
  9
$USERR2
 40
0.0
  9
$USERR3
 40
0.0
  9
$USERR4
 40
0.0
  9
$USERR5
 40
0.0
  9
$WORLDVIEW
 70
     1
  9
$SHADEDGE
 70
     3
  9
$SHADEDIF
 70
    70
  9
$TILEMODE
 70
     1
  9
$MAXACTVP
 70
    16
  9
$PLIMCHECK
 70
     0
  9
$PEXTMIN
 10
1.0000000000000000E+020
 20
1.0000000000000000E+020
 30
1.0000000000000000E+020
  9
$PEXTMAX
 10
-1.0000000000000000E+020
 20
-1.0000000000000000E+020
 30
-1.0000000000000000E+020
  9
$PLIMMIN
 10
0.0
 20
0.0
  9
$PLIMMAX
 10
12.0
 20
9.0
  9
$UNITMODE
 70
     0
  9
$VISRETAIN
 70
     0
  9
$PLINEGEN
 70
     0
  9
$PSLTSCALE
 70
     1
  0
ENDSEC
  0
SECTION
  2
TABLES
  0
TABLE
  2
VPORT
 70
     2
  0
VPORT
  2
*ACTIVE
 70
     0
 10
0.0
 20
0.0
 11
1.0
 21
1.0
 12
6950.1620347250737
 22
1158.762780266366
 13
0.0
 23
0.0
 14
10.0
 24
10.0
 15
10.0
 25
10.0
 16
0.0
 26
0.0
 36
1.0
 17
0.0
 27
0.0
 37
0.0
 40
3099.0307868665668
 41
3.1666666666666661
 42
50.0
 43
0.0
 44
0.0
 50
0.0
 51
0.0
 71
     0
 72
   100
 73
     1
 74
     0
 75
     0
 76
     0
 77
     0
 78
     0
  0
ENDTAB
  0
TABLE
  2
LTYPE
 70
     2
  0
LTYPE
  2
CONTINUOUS
 70
     0
  3
Solid line
 72
    65
 73
     0
 40
0.0
  0
LTYPE
  2
CENTER
 70
     0
  3
____ _ ____ _ ____ _ ____ _ ____ _ ____ _ ____ 
 72
    65
 73
     4
 40
2.0
 49
1.25
 49
-0.25
 49
0.25
 49
-0.25
  0
ENDTAB
  0
TABLE
  2
LAYER
 70
     6
  0
LAYER
  2
0
 70
     0
 62
     7
  6
CONTINUOUS
  0
LAYER
  2
3
 70
     0
 62
     2
  6
CONTINUOUS
  0
LAYER
  2
2
 70
     0
 62
     3
  6
CENTER
  0
LAYER
  2
1
 70
     0
 62
     4
  6
CONTINUOUS
  0
LAYER
  2
4
 70
     0
 62
     7
  6
CONTINUOUS
  0
LAYER
  2
DEFPOINTS
 70
     0
 62
     7
  6
CONTINUOUS
  0
ENDTAB
  0
TABLE
  2
STYLE
 70
     1
  0
STYLE
  2
STANDARD
 70
     0
 40
0.0
 41
1.0
 50
0.0
 71
     0
 42
180.0
  3
simplex.shx
  4
extfont.shx
  0
ENDTAB
  0
TABLE
  2
VIEW
 70
     0
  0
ENDTAB
  0
TABLE
  2
UCS
 70
     0
  0
ENDTAB
  0
TABLE
  2
APPID
 70
     1
  0
APPID
  2
ACAD
 70
     0
  0
ENDTAB
  0
TABLE
  2
DIMSTYLE
 70
     1
  0
DIMSTYLE
  2
IGA
 70
     0
  3

  4

  5

  6
OPEN
  7
OPEN
 40
2.0
 41
2.0
 42
0.5
 43
10.0
 44
1.0
 45
0.0
 46
0.0
 47
1.0
 48
1.0
140
3.0
141
0.0
142
0.0
143
0.03937
144
1.0
145
0.0
146
10.0
147
1.0
 71
     0
 72
     0
 73
     0
 74
     0
 75
     0
 76
     0
 77
     1
 78
     8
170
     0
171
     2
172
     0
173
     1
174
     0
175
     0
176
     0
177
     0
178
     0
  0
ENDTAB
  0
ENDSEC
  0
SECTION
  2
BLOCKS
  0
BLOCK
  8
0
  2
$MODEL_SPACE
 70
     0
 10
0.0
 20
0.0
 30
0.0
  3
$MODEL_SPACE
  1

  0
ENDBLK
  5
1B
  8
0
  0
BLOCK
 67
     1
  8
0
  2
$PAPER_SPACE
 70
     0
 10
0.0
 20
0.0
 30
0.0
  3
$PAPER_SPACE
  1

  0
ENDBLK
  5
18
 67
     1
  8
0
  0
BLOCK
  8
0
  2
YA_N
 70
     0
 10
0.0
 20
0.0
 30
0.0
  3
YA_N
  1

  0
ENDBLK
  5
79FE
  8
0
  0
BLOCK
  8
0
  2
_OPEN
 70
     0
 10
0.0
 20
0.0
 30
0.0
  3
_OPEN
  1

  0
LINE
  5
7B99
  8
0
  6
BYBLOCK
 62
     0
 10
-1.0
 20
0.1666666666666666
 30
0.0
 11
0.0
 21
0.0
 31
0.0
  0
LINE
  5
7B9A
  8
0
  6
BYBLOCK
 62
     0
 10
0.0
 20
0.0
 30
0.0
 11
-1.0
 21
-0.1666666666666666
 31
0.0
  0
LINE
  5
7B9B
  8
0
  6
BYBLOCK
 62
     0
 10
0.0
 20
0.0
 30
0.0
 11
-1.0
 21
0.0
 31
0.0
  0
ENDBLK
  5
7B9C
  8
0
  0
BLOCK
  8
0
  2
*D2
 70
     1
 10
0.0
 20
0.0
 30
0.0
  3
*D2
  1

  0
LINE
  5
81DF
  8
3
 62
     0
 10
2092.4213007562762
 20
4306.7736665579241
 30
0.0
 11
2092.4213007562762
 21
4644.753141881436
 31
0.0
  0
LINE
  5
81E0
  8
3
 62
     0
 10
1018.421300756277
 20
4247.1576840602957
 30
0.0
 11
1018.421300756277
 21
4644.753141881436
 31
0.0
  0
LINE
  5
81E1
  8
3
 62
     0
 10
2022.4213007562751
 20
4609.753141881436
 30
0.0
 11
1088.4213007562771
 21
4609.753141881436
 31
0.0
  0
INSERT
  5
81E2
  8
3
 62
     0
  2
_OPEN
 10
2092.4213007562762
 20
4609.753141881436
 30
0.0
 41
70.0
 42
70.0
 43
70.0
  0
INSERT
  5
81E3
  8
3
 62
     0
  2
_OPEN
 10
1018.421300756277
 20
4609.753141881436
 30
0.0
 41
70.0
 42
70.0
 43
70.0
 50
180.0
  0
TEXT
  8
3
  40
105
  5
82C1
  62
0
  72
0
  71
0
 10
1347.30
 20
4511.40
 30
0.000000
  1
1074
  0
POINT
  5
81E5
  8
DEFPOINTS
 62
     0
 10
2092.4213007562762
 20
4289.2736665579241
 30
0.0
  0
POINT
  5
81E6
  8
DEFPOINTS
 62
     0
 10
1018.421300756277
 20
4229.6576840602957
 30
0.0
  0
POINT
  5
81E7
  8
DEFPOINTS
 62
     0
 10
1018.421300756277
 20
4609.753141881436
 30
0.0
  0
ENDBLK
  5
80FC
  8
0
  0
BLOCK
  8
0
  2
*D3
 70
     1
 10
0.0
 20
0.0
 30
0.0
  3
*D3
  1

  0
LINE
  5
81E8
  8
3
 62
     0
 10
1018.421300756277
 20
4264.6576840602957
 30
0.0
 11
1018.421300756277
 21
4395.84929603813
 31
0.0
  0
LINE
  5
81E9
  8
3
 62
     0
 10
2048.4213007562748
 20
4247.1576840602957
 30
0.0
 11
2048.4213007562748
 21
4395.84929603813
 31
0.0
  0
LINE
  5
81EA
  8
3
 62
     0
 10
1088.4213007562771
 20
4360.8492960381291
 30
0.0
 11
1978.4213007562751
 21
4360.8492960381291
 31
0.0
  0
INSERT
  5
81EB
  8
3
 62
     0
  2
_OPEN
 10
1018.421300756277
 20
4360.8492960381291
 30
0.0
 41
70.0
 42
70.0
 43
70.0
 50
180.0
  0
INSERT
  5
81EC
  8
3
 62
     0
  2
_OPEN
 10
2048.4213007562748
 20
4360.8492960381291
 30
0.0
 41
70.0
 42
70.0
 43
70.0
  0
TEXT
  8
3
  40
105
  5
82C2
  62
0
  72
0
  71
0
 10
1357.27
 20
4262.50
 30
0.000000
  1
1030
  0
POINT
  5
81EE
  8
DEFPOINTS
 62
     0
 10
1018.421300756277
 20
4247.1576840602957
 30
0.0
  0
POINT
  5
81EF
  8
DEFPOINTS
 62
     0
 10
2048.4213007562748
 20
4229.6576840602957
 30
0.0
  0
POINT
  5
81F0
  8
DEFPOINTS
 62
     0
 10
2048.4213007562748
 20
4360.8492960381291
 30
0.0
  0
ENDBLK
  5
80F1
  8
0
  0
BLOCK
  8
0
  2
*D4
 70
     1
 10
0.0
 20
0.0
 30
0.0
  3
*D4
  1

  0
LINE
  5
81F1
  8
3
 62
     0
 10
2812.4213007562771
 20
3493.1576840602961
 30
0.0
 11
2812.4213007562771
 21
4644.753141881436
 31
0.0
  0
LINE
  5
81F2
  8
3
 62
     0
 10
2162.4213007562762
 20
4609.753141881436
 30
0.0
 11
2742.4213007562771
 21
4609.753141881436
 31
0.0
  0
INSERT
  5
81F3
  8
3
 62
     0
  2
_OPEN
 10
2092.4213007562762
 20
4609.753141881436
 30
0.0
 41
70.0
 42
70.0
 43
70.0
 50
180.0
  0
INSERT
  5
81F4
  8
3
 62
     0
  2
_OPEN
 10
2812.4213007562771
 20
4609.753141881436
 30
0.0
 41
70.0
 42
70.0
 43
70.0
  0
TEXT
  8
3
  40
105
  5
82C3
  62
0
  72
0
  71
0
 10
2242.42
 20
4511.40
 30
0.000000
  1
720
  0
POINT
  5
81F6
  8
DEFPOINTS
 62
     0
 10
2092.4213007562762
 20
4289.2736665579241
 30
0.0
  0
POINT
  5
81F7
  8
DEFPOINTS
 62
     0
 10
2812.4213007562771
 20
3475.6576840602961
 30
0.0
  0
POINT
  5
81F8
  8
DEFPOINTS
 62
     0
 10
2812.4213007562771
 20
4609.753141881436
 30
0.0
  0
ENDBLK
  5
8106
  8
0
  0
BLOCK
  8
0
  2
*D5
 70
     1
 10
0.0
 20
0.0
 30
0.0
  3
*D5
  1

  0
LINE
  5
81F9
  8
3
 62
     0
 10
2118.9213007562771
 20
4229.6576840602957
 30
0.0
 11
3239.405728062266
 21
4229.6576840602957
 31
0.0
  0
LINE
  5
81FA
  8
3
 62
     0
 10
2906.4676235291099
 20
3549.6576840602938
 30
0.0
 11
3239.405728062266
 21
3549.6576840602938
 31
0.0
  0
LINE
  5
81FB
  8
3
 62
     0
 10
3204.4057280622651
 20
4159.6576840602957
 30
0.0
 11
3204.4057280622651
 21
3619.6576840602929
 31
0.0
  0
INSERT
  5
81FC
  8
3
 62
     0
  2
_OPEN
 10
3204.4057280622651
 20
4229.6576840602957
 30
0.0
 41
70.0
 42
70.0
 43
70.0
 50
90.0
  0
INSERT
  5
81FD
  8
3
 62
     0
  2
_OPEN
 10
3204.4057280622651
 20
3549.6576840602938
 30
0.0
 41
70.0
 42
70.0
 43
70.0
 50
270.0
  0
TEXT
  8
3
  40
105
  5
82C4
  62
0
  72
0
  71
0
 10
2906.91
 20
3746.16
 30
0.000000
  1
680
  0
POINT
  5
81FF
  8
DEFPOINTS
 62
     0
 10
2101.4213007562771
 20
4229.6576840602957
 30
0.0
  0
POINT
  5
8200
  8
DEFPOINTS
 62
     0
 10
2888.9676235291099
 20
3549.6576840602938
 30
0.0
  0
POINT
  5
8201
  8
DEFPOINTS
 62
     0
 10
3204.4057280622651
 20
3549.6576840602938
 30
0.0
  0
ENDBLK
  5
80D1
  8
0
  0
BLOCK
  8
0
  2
*D6
 70
     1
 10
0.0
 20
0.0
 30
0.0
  3
*D6
  1

  0
LINE
  5
8202
  8
3
 62
     0
 10
2906.4676235291099
 20
3549.6576840602938
 30
0.0
 11
3239.405728062266
 21
3549.6576840602938
 31
0.0
  0
LINE
  5
8203
  8
3
 62
     0
 10
2734.921300756278
 20
2654.6576840602961
 30
0.0
 11
3239.4057280622651
 21
2654.6576840602952
 31
0.0
  0
LINE
  5
8204
  8
3
 62
     0
 10
3204.4057280622651
 20
3479.6576840602938
 30
0.0
 11
3204.4057280622651
 21
2724.6576840602952
 31
0.0
  0
INSERT
  5
8205
  8
3
 62
     0
  2
_OPEN
 10
3204.4057280622651
 20
3549.6576840602938
 30
0.0
 41
70.0
 42
70.0
 43
70.0
 50
90.0
  0
INSERT
  5
8206
  8
3
 62
     0
  2
_OPEN
 10
3204.4057280622651
 20
2654.6576840602952
 30
0.0
 41
70.0
 42
70.0
 43
70.0
 50
270.0
  0
TEXT
  8
3
  40
105
  5
82C5
  62
0
  72
0
  71
0
 10
2906.91
 20
2916.31
 30
0.000000
  1
895
  0
POINT
  5
8208
  8
DEFPOINTS
 62
     0
 10
2888.9676235291099
 20
3549.6576840602938
 30
0.0
  0
POINT
  5
8209
  8
DEFPOINTS
 62
     0
 10
2717.4213007562771
 20
2654.6576840602961
 30
0.0
  0
POINT
  5
820A
  8
DEFPOINTS
 62
     0
 10
3204.4057280622651
 20
2654.6576840602952
 30
0.0
  0
ENDBLK
  5
80C6
  8
0
  0
BLOCK
  8
0
  2
*D7
 70
     1
 10
0.0
 20
0.0
 30
0.0
  3
*D7
  1

  0
LINE
  5
820B
  8
3
 62
     0
 10
5220.8516480335184
 20
4247.1576840602957
 30
0.0
 11
5220.8516480335184
 21
4380.7531896904111
 31
0.0
  0
LINE
  5
820C
  8
3
 62
     0
 10
5970.8516480335184
 20
4247.1576840602957
 30
0.0
 11
5970.8516480335184
 21
4380.7531896904111
 31
0.0
  0
LINE
  5
820D
  8
3
 62
     0
 10
5290.8516480335174
 20
4345.753189690412
 30
0.0
 11
5900.8516480335184
 21
4345.753189690412
 31
0.0
  0
INSERT
  5
820E
  8
3
 62
     0
  2
_OPEN
 10
5220.8516480335184
 20
4345.753189690412
 30
0.0
 41
70.0
 42
70.0
 43
70.0
 50
180.0
  0
INSERT
  5
820F
  8
3
 62
     0
  2
_OPEN
 10
5970.8516480335184
 20
4345.753189690412
 30
0.0
 41
70.0
 42
70.0
 43
70.0
  0
TEXT
  8
3
  40
105
  5
82C6
  62
0
  72
0
  71
0
 10
5385.28
 20
4247.40
 30
0.000000
  1
750
  0
POINT
  5
8211
  8
DEFPOINTS
 62
     0
 10
5220.8516480335184
 20
4229.6576840602947
 30
0.0
  0
POINT
  5
8212
  8
DEFPOINTS
 62
     0
 10
5970.8516480335184
 20
4229.6576840602947
 30
0.0
  0
POINT
  5
8213
  8
DEFPOINTS
 62
     0
 10
5970.8516480335184
 20
4345.753189690412
 30
0.0
  0
ENDBLK
  5
7E4A
  8
0
  0
BLOCK
  8
0
  2
*D8
 70
     1
 10
0.0
 20
0.0
 30
0.0
  3
*D8
  1

  0
LINE
  5
8214
  8
3
 62
     0
 10
5973.8516480335193
 20
4247.1576840602957
 30
0.0
 11
5973.8516480335193
 21
4598.6342249530207
 31
0.0
  0
LINE
  5
8215
  8
3
 62
     0
 10
5595.8516480335184
 20
4503.1897528358177
 30
0.0
 11
5595.8516480335184
 21
4598.6342249530207
 31
0.0
  0
LINE
  5
8216
  8
3
 62
     0
 10
6043.8516480335184
 20
4563.6342249530207
 30
0.0
 11
6113.8516480335184
 21
4563.6342249530207
 31
0.0
  0
LINE
  5
8217
  8
3
 62
     0
 10
5525.8516480335184
 20
4563.6342249530207
 30
0.0
 11
5455.8516480335193
 21
4563.6342249530207
 31
0.0
  0
LINE
  5
8218
  8
3
 62
     0
 10
5973.8516480335193
 20
4563.6342249530207
 30
0.0
 11
5595.8516480335184
 21
4563.6342249530207
 31
0.0
  0
INSERT
  5
8219
  8
3
 62
     0
  2
_OPEN
 10
5973.8516480335193
 20
4563.6342249530207
 30
0.0
 41
70.0
 42
70.0
 43
70.0
 50
180.0
  0
INSERT
  5
821A
  8
3
 62
     0
  2
_OPEN
 10
5595.8516480335184
 20
4563.6342249530207
 30
0.0
 41
70.0
 42
70.0
 43
70.0
  0
TEXT
  8
3
  40
105
  5
82C7
  62
0
  72
0
  71
0
 10
5574.85
 20
4465.28
 30
0.000000
  1
378
  0
POINT
  5
821C
  8
DEFPOINTS
 62
     0
 10
5973.8516480335193
 20
4229.6576840602947
 30
0.0
  0
POINT
  5
821D
  8
DEFPOINTS
 62
     0
 10
5595.8516480335184
 20
4485.6897528358186
 30
0.0
  0
POINT
  5
821E
  8
DEFPOINTS
 62
     0
 10
5595.8516480335184
 20
4563.6342249530207
 30
0.0
  0
ENDBLK
  5
7E76
  8
0
  0
BLOCK
  8
0
  2
*D9
 70
     1
 10
0.0
 20
0.0
 30
0.0
  3
*D9
  1

  0
LINE
  5
821F
  8
3
 62
     0
 10
4178.8516480335184
 20
3847.1576840602952
 30
0.0
 11
4178.8516480335184
 21
4598.6342249530207
 31
0.0
  0
LINE
  5
8220
  8
3
 62
     0
 10
5525.8516480335184
 20
4563.6342249530207
 30
0.0
 11
4248.8516480335184
 21
4563.6342249530207
 31
0.0
  0
INSERT
  5
8221
  8
3
 62
     0
  2
_OPEN
 10
5595.8516480335184
 20
4563.6342249530207
 30
0.0
 41
70.0
 42
70.0
 43
70.0
  0
INSERT
  5
8222
  8
3
 62
     0
  2
_OPEN
 10
4178.8516480335184
 20
4563.6342249530207
 30
0.0
 41
70.0
 42
70.0
 43
70.0
 50
180.0
  0
TEXT
  8
3
  40
105
  5
82C8
  62
0
  72
0
  71
0
 10
4677.35
 20
4552.78
 30
0.000000
  1
MAX
  0
TEXT
  8
3
  40
105
  5
82C9
  62
0
  72
0
  71
0
 10
4677.35
 20
4416.28
 30
0.000000
  1
1450
  0
POINT
  5
8224
  8
DEFPOINTS
 62
     0
 10
5595.8516480335184
 20
4485.6897528358186
 30
0.0
  0
POINT
  5
8225
  8
DEFPOINTS
 62
     0
 10
4178.8516480335184
 20
3829.6576840602952
 30
0.0
  0
POINT
  5
8226
  8
DEFPOINTS
 62
     0
 10
4178.8516480335184
 20
4563.6342249530207
 30
0.0
  0
ENDBLK
  5
7E8A
  8
0
  0
BLOCK
  8
0
  2
*D10
 70
     1
 10
0.0
 20
0.0
 30
0.0
  3
*D10
  1

  0
LINE
  5
8227
  8
3
 62
     0
 10
2812.4213007562771
 20
3493.1576840602961
 30
0.0
 11
2812.4213007562771
 21
4881.6987677295219
 31
0.0
  0
LINE
  5
8228
  8
3
 62
     0
 10
965.42130075627574
 20
4247.1576840602957
 30
0.0
 11
965.42130075627574
 21
4881.6987677295219
 31
0.0
  0
LINE
  5
8229
  8
3
 62
     0
 10
2742.4213007562771
 20
4846.6987677295219
 30
0.0
 11
1035.4213007562751
 21
4846.6987677295219
 31
0.0
  0
INSERT
  5
822A
  8
3
 62
     0
  2
_OPEN
 10
2812.4213007562771
 20
4846.6987677295219
 30
0.0
 41
70.0
 42
70.0
 43
70.0
  0
INSERT
  5
822B
  8
3
 62
     0
  2
_OPEN
 10
965.42130075627574
 20
4846.6987677295219
 30
0.0
 41
70.0
 42
70.0
 43
70.0
 50
180.0
  0
TEXT
  8
3
  40
105
  5
82CA
  62
0
  72
0
  71
0
 10
1753.22
 20
4748.35
 30
0.000000
  1
1847
  0
POINT
  5
822D
  8
DEFPOINTS
 62
     0
 10
2812.4213007562771
 20
3475.6576840602961
 30
0.0
  0
POINT
  5
822E
  8
DEFPOINTS
 62
     0
 10
965.42130075627574
 20
4229.6576840602957
 30
0.0
  0
POINT
  5
822F
  8
DEFPOINTS
 62
     0
 10
965.42130075627574
 20
4846.6987677295219
 30
0.0
  0
ENDBLK
  5
80DC
  8
0
  0
BLOCK
  8
0
  2
*D11
 70
     1
 10
0.0
 20
0.0
 30
0.0
  3
*D11
  1

  0
LINE
  5
8230
  8
3
 62
     0
 10
2717.4213007562771
 20
7339.4027449923778
 30
0.0
 11
2717.4213007562771
 21
7616.0877544920368
 31
0.0
  0
LINE
  5
8231
  8
3
 62
     0
 10
1467.4213007562771
 20
7339.4027449923806
 30
0.0
 11
1467.4213007562771
 21
7616.0877544920368
 31
0.0
  0
LINE
  5
8232
  8
3
 62
     0
 10
2647.421300756278
 20
7581.0877544920368
 30
0.0
 11
1537.4213007562771
 21
7581.0877544920368
 31
0.0
  0
INSERT
  5
8233
  8
3
 62
     0
  2
_OPEN
 10
2717.4213007562771
 20
7581.0877544920368
 30
0.0
 41
70.0
 42
70.0
 43
70.0
  0
INSERT
  5
8234
  8
3
 62
     0
  2
_OPEN
 10
1467.4213007562771
 20
7581.0877544920368
 30
0.0
 41
70.0
 42
70.0
 43
70.0
 50
180.0
  0
TEXT
  8
3
  40
105
  5
82CB
  62
0
  72
0
  71
0
 10
1884.86
 20
7482.74
 30
0.000000
  1
1250
  0
POINT
  5
8236
  8
DEFPOINTS
 62
     0
 10
2717.4213007562771
 20
7321.9027449923778
 30
0.0
  0
POINT
  5
8237
  8
DEFPOINTS
 62
     0
 10
1467.4213007562771
 20
7321.9027449923824
 30
0.0
  0
POINT
  5
8238
  8
DEFPOINTS
 62
     0
 10
1467.4213007562771
 20
7581.0877544920368
 30
0.0
  0
ENDBLK
  5
808B
  8
0
  0
BLOCK
  8
0
  2
*D12
 70
     1
 10
0.0
 20
0.0
 30
0.0
  3
*D12
  1

  0
LINE
  5
8239
  8
3
 62
     0
 10
1467.4213007562771
 20
7339.4027449923806
 30
0.0
 11
1467.4213007562771
 21
7616.0877544920368
 31
0.0
  0
LINE
  5
823A
  8
3
 62
     0
 10
1152.4213007562771
 20
6514.546931312233
 30
0.0
 11
1152.4213007562771
 21
7616.0877544920368
 31
0.0
  0
LINE
  5
823B
  8
3
 62
     0
 10
1397.4213007562771
 20
7581.0877544920368
 30
0.0
 11
1222.4213007562771
 21
7581.0877544920368
 31
0.0
  0
LINE
  5
823C
  8
3
 62
     0
 10
1152.4213007562771
 20
7581.0877544920368
 30
0.0
 11
762.42130075627745
 21
7581.0877544920368
 31
0.0
  0
INSERT
  5
823D
  8
3
 62
     0
  2
_OPEN
 10
1467.4213007562771
 20
7581.0877544920368
 30
0.0
 41
70.0
 42
70.0
 43
70.0
  0
INSERT
  5
823E
  8
3
 62
     0
  2
_OPEN
 10
1152.4213007562771
 20
7581.0877544920368
 30
0.0
 41
70.0
 42
70.0
 43
70.0
 50
180.0
  0
TEXT
  8
3
  40
105
  5
82CC
  62
0
  72
0
  71
0
 10
712.421
 20
7482.74
 30
0.000000
  1
315
  0
POINT
  5
8240
  8
DEFPOINTS
 62
     0
 10
1467.4213007562771
 20
7321.9027449923824
 30
0.0
  0
POINT
  5
8241
  8
DEFPOINTS
 62
     0
 10
1152.4213007562771
 20
6497.046931312233
 30
0.0
  0
POINT
  5
8242
  8
DEFPOINTS
 62
     0
 10
1152.4213007562771
 20
7581.0877544920368
 30
0.0
  0
ENDBLK
  5
8097
  8
0
  0
BLOCK
  8
0
  2
*D13
 70
     1
 10
0.0
 20
0.0
 30
0.0
  3
*D13
  1

  0
LINE
  5
8243
  8
3
 62
     0
 10
2734.921300756278
 20
7321.9027449923778
 30
0.0
 11
3145.2588620638139
 21
7321.9027449923778
 31
0.0
  0
LINE
  5
8244
  8
3
 62
     0
 10
2734.921300756278
 20
6431.9027449923788
 30
0.0
 11
3145.258862063813
 21
6431.9027449923788
 31
0.0
  0
LINE
  5
8245
  8
3
 62
     0
 10
3110.2588620638139
 20
7251.9027449923778
 30
0.0
 11
3110.258862063813
 21
6501.9027449923797
 31
0.0
  0
INSERT
  5
8246
  8
3
 62
     0
  2
_OPEN
 10
3110.2588620638139
 20
7321.9027449923778
 30
0.0
 41
70.0
 42
70.0
 43
70.0
 50
90.0
  0
INSERT
  5
8247
  8
3
 62
     0
  2
_OPEN
 10
3110.258862063813
 20
6431.9027449923788
 30
0.0
 41
70.0
 42
70.0
 43
70.0
 50
270.0
  0
TEXT
  8
3
  40
105
  5
82CD
  62
0
  72
0
  71
0
 10
2812.76
 20
6709.35
 30
0.000000
  1
890
  0
POINT
  5
8249
  8
DEFPOINTS
 62
     0
 10
2717.4213007562771
 20
7321.9027449923778
 30
0.0
  0
POINT
  5
824A
  8
DEFPOINTS
 62
     0
 10
2717.4213007562771
 20
6431.9027449923788
 30
0.0
  0
POINT
  5
824B
  8
DEFPOINTS
 62
     0
 10
3110.258862063813
 20
6431.9027449923788
 30
0.0
  0
ENDBLK
  5
8080
  8
0
  0
BLOCK
  8
0
  2
*D14
 70
     1
 10
0.0
 20
0.0
 30
0.0
  3
*D14
  1

  0
LINE
  5
824C
  8
3
 62
     0
 10
2454.9213007562771
 20
5608.9027449923769
 30
0.0
 11
3145.2588620638121
 21
5608.9027449923769
 31
0.0
  0
LINE
  5
824D
  8
3
 62
     0
 10
3110.2588620638121
 20
6361.9027449923797
 30
0.0
 11
3110.2588620638121
 21
5678.9027449923769
 31
0.0
  0
INSERT
  5
824E
  8
3
 62
     0
  2
_OPEN
 10
3110.2588620638121
 20
6431.9027449923788
 30
0.0
 41
70.0
 42
70.0
 43
70.0
 50
90.0
  0
INSERT
  5
824F
  8
3
 62
     0
  2
_OPEN
 10
3110.2588620638121
 20
5608.9027449923769
 30
0.0
 41
70.0
 42
70.0
 43
70.0
 50
270.0
  0
TEXT
  8
3
  40
105
  5
82CE
  62
0
  72
0
  71
0
 10
2812.76
 20
5834.55
 30
0.000000
  1
823
  0
POINT
  5
8251
  8
DEFPOINTS
 62
     0
 10
2717.4213007562771
 20
6431.9027449923788
 30
0.0
  0
POINT
  5
8252
  8
DEFPOINTS
 62
     0
 10
2437.4213007562771
 20
5608.9027449923769
 30
0.0
  0
POINT
  5
8253
  8
DEFPOINTS
 62
     0
 10
3110.2588620638121
 20
5608.9027449923769
 30
0.0
  0
ENDBLK
  5
8075
  8
0
  0
BLOCK
  8
0
  2
*D15
 70
     1
 10
0.0
 20
0.0
 30
0.0
  3
*D15
  1

  0
LINE
  5
8254
  8
3
 62
     0
 10
2717.4213007562771
 20
6414.4027449923788
 30
0.0
 11
2717.4213007562771
 21
5161.7332850005332
 31
0.0
  0
LINE
  5
8255
  8
3
 62
     0
 10
2437.4213007562771
 20
5591.4027449923778
 30
0.0
 11
2437.4213007562771
 21
5161.7332850005332
 31
0.0
  0
LINE
  5
8256
  8
3
 62
     0
 10
2507.4213007562771
 20
5196.7332850005332
 30
0.0
 11
2647.421300756278
 21
5196.7332850005332
 31
0.0
  0
LINE
  5
8257
  8
3
 62
     0
 10
2717.4213007562771
 20
5196.7332850005332
 30
0.0
 11
3127.4213007562771
 21
5196.7332850005332
 31
0.0
  0
INSERT
  5
8258
  8
3
 62
     0
  2
_OPEN
 10
2437.4213007562771
 20
5196.7332850005332
 30
0.0
 41
70.0
 42
70.0
 43
70.0
 50
180.0
  0
INSERT
  5
8259
  8
3
 62
     0
  2
_OPEN
 10
2717.4213007562771
 20
5196.7332850005332
 30
0.0
 41
70.0
 42
70.0
 43
70.0
  0
TEXT
  8
3
  40
105
  5
82CF
  62
0
  72
0
  71
0
 10
2747.42
 20
5098.38
 30
0.000000
  1
280
  0
POINT
  5
825B
  8
DEFPOINTS
 62
     0
 10
2717.4213007562771
 20
6431.9027449923788
 30
0.0
  0
POINT
  5
825C
  8
DEFPOINTS
 62
     0
 10
2437.4213007562771
 20
5608.9027449923769
 30
0.0
  0
POINT
  5
825D
  8
DEFPOINTS
 62
     0
 10
2437.4213007562771
 20
5196.7332850005332
 30
0.0
  0
ENDBLK
  5
806B
  8
0
  0
BLOCK
  8
0
  2
*D16
 70
     1
 10
0.0
 20
0.0
 30
0.0
  3
*D16
  1

  0
LINE
  5
825E
  8
3
 62
     0
 10
1152.4213007562771
 20
5591.4027449923806
 30
0.0
 11
1152.4213007562771
 21
5161.7332850005332
 31
0.0
  0
LINE
  5
825F
  8
3
 62
     0
 10
2367.4213007562771
 20
5196.7332850005332
 30
0.0
 11
1222.4213007562771
 21
5196.7332850005332
 31
0.0
  0
INSERT
  5
8260
  8
3
 62
     0
  2
_OPEN
 10
2437.4213007562771
 20
5196.7332850005332
 30
0.0
 41
70.0
 42
70.0
 43
70.0
  0
INSERT
  5
8261
  8
3
 62
     0
  2
_OPEN
 10
1152.4213007562771
 20
5196.7332850005332
 30
0.0
 41
70.0
 42
70.0
 43
70.0
 50
180.0
  0
TEXT
  8
3
  40
105
  5
82D0
  62
0
  72
0
  71
0
 10
1584.92
 20
5098.38
 30
0.000000
  1
1285
  0
POINT
  5
8263
  8
DEFPOINTS
 62
     0
 10
2437.4213007562771
 20
5608.9027449923769
 30
0.0
  0
POINT
  5
8264
  8
DEFPOINTS
 62
     0
 10
1152.4213007562771
 20
5608.9027449923824
 30
0.0
  0
POINT
  5
8265
  8
DEFPOINTS
 62
     0
 10
1152.4213007562771
 20
5196.7332850005332
 30
0.0
  0
ENDBLK
  5
805F
  8
0
  0
BLOCK
  8
0
  2
*D17
 70
     1
 10
0.0
 20
0.0
 30
0.0
  3
*D17
  1

  0
LINE
  5
8266
  8
3
 62
     0
 10
1134.9213007562771
 20
5608.9027449923824
 30
0.0
 11
609.88609744824589
 21
5608.9027449923824
 31
0.0
  0
LINE
  5
8267
  8
3
 62
     0
 10
1134.9213007562771
 20
6496.9027449923806
 30
0.0
 11
609.88609744824612
 21
6496.9027449923806
 31
0.0
  0
LINE
  5
8268
  8
3
 62
     0
 10
644.88609744824578
 20
5678.9027449923806
 30
0.0
 11
644.88609744824612
 21
6426.9027449923806
 31
0.0
  0
INSERT
  5
8269
  8
3
 62
     0
  2
_OPEN
 10
644.88609744824578
 20
5608.9027449923824
 30
0.0
 41
70.0
 42
70.0
 43
70.0
 50
270.0
  0
INSERT
  5
826A
  8
3
 62
     0
  2
_OPEN
 10
644.88609744824612
 20
6496.9027449923806
 30
0.0
 41
70.0
 42
70.0
 43
70.0
 50
90.0
  0
TEXT
  8
3
  40
105
  5
82D1
  62
0
  72
0
  71
0
 10
347.386
 20
5822.67
 30
0.000000
  1
888
  0
POINT
  5
826C
  8
DEFPOINTS
 62
     0
 10
1152.4213007562771
 20
5608.9027449923824
 30
0.0
  0
POINT
  5
826D
  8
DEFPOINTS
 62
     0
 10
1152.4213007562771
 20
6496.9027449923806
 30
0.0
  0
POINT
  5
826E
  8
DEFPOINTS
 62
     0
 10
644.88609744824612
 20
6496.9027449923806
 30
0.0
  0
ENDBLK
  5
8055
  8
0
  0
BLOCK
  8
0
  2
_DOT
 70
     0
 10
0.0
 20
0.0
 30
0.0
  3
_DOT
  1

  0
LINE
  5
8041
  8
0
  6
BYBLOCK
 62
     0
 10
0.0
 20
0.0
 30
0.0
 11
-1.0
 21
-0.0000000000000284
 31
0.0
  0
POLYLINE
  5
8042
  8
0
  6
BYBLOCK
 62
     0
 66
     1
 10
0.0
 20
0.0
 30
0.0
 70
     1
 40
0.1666666666666666
 41
0.1666666666666666
  0
VERTEX
  5
826F
  8
0
  6
BYBLOCK
 62
     0
 10
-0.0833333333333286
 20
-0.0000000000000284
 30
0.0
 42
1.0
  0
VERTEX
  5
8270
  8
0
  6
BYBLOCK
 62
     0
 10
0.0833333333333286
 20
-0.0000000000000284
 30
0.0
 42
1.0
  0
SEQEND
  5
8271
  8
0
  6
BYBLOCK
 62
     0
  0
ENDBLK
  5
801B
  8
0
  0
BLOCK
  8
0
  2
*D19
 70
     1
 10
0.0
 20
0.0
 30
0.0
  3
*D19
  1

  0
LINE
  5
8272
  8
3
 62
     0
 10
1152.4213007562771
 20
2492.1576840602961
 30
0.0
 11
1152.4213007562771
 21
2235.1280382032201
 31
0.0
  0
LINE
  5
8273
  8
3
 62
     0
 10
2092.4213007562762
 20
2492.1576840602961
 30
0.0
 11
2092.4213007562762
 21
2235.1280382032201
 31
0.0
  0
LINE
  5
8274
  8
3
 62
     0
 10
1222.4213007562771
 20
2270.1280382032201
 30
0.0
 11
2022.4213007562751
 21
2270.1280382032201
 31
0.0
  0
INSERT
  5
8275
  8
3
 62
     0
  2
_OPEN
 10
1152.4213007562771
 20
2270.1280382032201
 30
0.0
 41
70.0
 42
70.0
 43
70.0
 50
180.0
  0
INSERT
  5
8276
  8
3
 62
     0
  2
_OPEN
 10
2092.4213007562762
 20
2270.1280382032201
 30
0.0
 41
70.0
 42
70.0
 43
70.0
  0
TEXT
  8
3
  40
105
  5
82D2
  62
0
  72
0
  71
0
 10
1412.42
 20
2171.78
 30
0.000000
  1
940
  0
POINT
  5
8278
  8
DEFPOINTS
 62
     0
 10
1152.4213007562771
 20
2509.6576840602961
 30
0.0
  0
POINT
  5
8279
  8
DEFPOINTS
 62
     0
 10
2092.4213007562762
 20
2509.6576840602961
 30
0.0
  0
POINT
  5
827A
  8
DEFPOINTS
 62
     0
 10
2092.4213007562762
 20
2270.1280382032201
 30
0.0
  0
ENDBLK
  5
8122
  8
0
  0
BLOCK
  8
0
  2
*D20
 70
     1
 10
0.0
 20
0.0
 30
0.0
  3
*D20
  1

  0
LINE
  5
827B
  8
3
 62
     0
 10
2092.4213007562762
 20
2492.1576840602961
 30
0.0
 11
2092.4213007562762
 21
2235.1280382032201
 31
0.0
  0
LINE
  5
827C
  8
3
 62
     0
 10
2717.4213007562771
 20
2492.1576840602961
 30
0.0
 11
2717.4213007562771
 21
2235.1280382032201
 31
0.0
  0
LINE
  5
827D
  8
3
 62
     0
 10
2162.4213007562762
 20
2270.1280382032201
 30
0.0
 11
2647.421300756278
 21
2270.1280382032201
 31
0.0
  0
INSERT
  5
827E
  8
3
 62
     0
  2
_OPEN
 10
2092.4213007562762
 20
2270.1280382032201
 30
0.0
 41
70.0
 42
70.0
 43
70.0
 50
180.0
  0
INSERT
  5
827F
  8
3
 62
     0
  2
_OPEN
 10
2717.4213007562771
 20
2270.1280382032201
 30
0.0
 41
70.0
 42
70.0
 43
70.0
  0
TEXT
  8
3
  40
105
  5
82D3
  62
0
  72
0
  71
0
 10
2194.92
 20
2171.78
 30
0.000000
  1
625
  0
POINT
  5
8281
  8
DEFPOINTS
 62
     0
 10
2092.4213007562762
 20
2509.6576840602961
 30
0.0
  0
POINT
  5
8282
  8
DEFPOINTS
 62
     0
 10
2717.4213007562771
 20
2509.6576840602961
 30
0.0
  0
POINT
  5
8283
  8
DEFPOINTS
 62
     0
 10
2717.4213007562771
 20
2270.1280382032201
 30
0.0
  0
ENDBLK
  5
812F
  8
0
  0
BLOCK
  8
0
  2
*D21
 70
     1
 10
0.0
 20
0.0
 30
0.0
  3
*D21
  1

  0
LINE
  5
8284
  8
3
 62
     0
 10
4327.8516480335184
 20
2492.1576840602952
 30
0.0
 11
4327.8516480335184
 21
2235.1280382032201
 31
0.0
  0
LINE
  5
8285
  8
3
 62
     0
 10
5595.8516480335184
 20
2492.1576840602952
 30
0.0
 11
5595.8516480335184
 21
2235.1280382032201
 31
0.0
  0
LINE
  5
8286
  8
3
 62
     0
 10
4397.8516480335184
 20
2270.1280382032201
 30
0.0
 11
5525.8516480335184
 21
2270.1280382032201
 31
0.0
  0
INSERT
  5
8287
  8
3
 62
     0
  2
_OPEN
 10
4327.8516480335184
 20
2270.1280382032201
 30
0.0
 41
70.0
 42
70.0
 43
70.0
 50
180.0
  0
INSERT
  5
8288
  8
3
 62
     0
  2
_OPEN
 10
5595.8516480335184
 20
2270.1280382032201
 30
0.0
 41
70.0
 42
70.0
 43
70.0
  0
TEXT
  8
3
  40
105
  5
82D4
  62
0
  72
0
  71
0
 10
4751.85
 20
2171.78
 30
0.000000
  1
1268
  0
POINT
  5
828A
  8
DEFPOINTS
 62
     0
 10
4327.8516480335184
 20
2509.6576840602952
 30
0.0
  0
POINT
  5
828B
  8
DEFPOINTS
 62
     0
 10
5595.8516480335184
 20
2509.6576840602952
 30
0.0
  0
POINT
  5
828C
  8
DEFPOINTS
 62
     0
 10
5595.8516480335184
 20
2270.1280382032201
 30
0.0
  0
ENDBLK
  5
8149
  8
0
  0
BLOCK
  8
0
  2
*D22
 70
     1
 10
0.0
 20
0.0
 30
0.0
  3
*D22
  1

  0
LINE
  5
828D
  8
3
 62
     0
 10
5595.8516480335184
 20
2492.1576840602952
 30
0.0
 11
5595.8516480335184
 21
2235.1280382032201
 31
0.0
  0
LINE
  5
828E
  8
3
 62
     0
 10
6040.8516480335193
 20
2492.1576840602952
 30
0.0
 11
6040.8516480335193
 21
2235.1280382032201
 31
0.0
  0
LINE
  5
828F
  8
3
 62
     0
 10
5665.8516480335193
 20
2270.1280382032201
 30
0.0
 11
5970.8516480335184
 21
2270.1280382032201
 31
0.0
  0
INSERT
  5
8290
  8
3
 62
     0
  2
_OPEN
 10
5595.8516480335184
 20
2270.1280382032201
 30
0.0
 41
70.0
 42
70.0
 43
70.0
 50
180.0
  0
INSERT
  5
8291
  8
3
 62
     0
  2
_OPEN
 10
6040.8516480335193
 20
2270.1280382032201
 30
0.0
 41
70.0
 42
70.0
 43
70.0
  0
TEXT
  8
3
  40
105
  5
82D5
  62
0
  72
0
  71
0
 10
5608.35
 20
2171.78
 30
0.000000
  1
445
  0
POINT
  5
8293
  8
DEFPOINTS
 62
     0
 10
5595.8516480335184
 20
2509.6576840602952
 30
0.0
  0
POINT
  5
8294
  8
DEFPOINTS
 62
     0
 10
6040.8516480335193
 20
2509.6576840602952
 30
0.0
  0
POINT
  5
8295
  8
DEFPOINTS
 62
     0
 10
6040.8516480335193
 20
2270.1280382032201
 30
0.0
  0
ENDBLK
  5
8158
  8
0
  0
BLOCK
  8
0
  2
*D23
 70
     1
 10
0.0
 20
0.0
 30
0.0
  3
*D23
  1

  0
LINE
  5
8296
  8
3
 62
     0
 10
2734.921300756278
 20
2634.6576840602961
 30
0.0
 11
3236.8566057397552
 21
2634.6576840602952
 31
0.0
  0
LINE
  5
8297
  8
3
 62
     0
 10
2734.921300756278
 20
2509.6576840602961
 30
0.0
 11
3236.8566057397552
 21
2509.6576840602952
 31
0.0
  0
LINE
  5
8298
  8
3
 62
     0
 10
3201.8566057397552
 20
2704.6576840602952
 30
0.0
 11
3201.8566057397552
 21
2774.6576840602952
 31
0.0
  0
LINE
  5
8299
  8
3
 62
     0
 10
3201.8566057397552
 20
2439.6576840602952
 30
0.0
 11
3201.8566057397552
 21
2049.6576840602952
 31
0.0
  0
LINE
  5
829A
  8
3
 62
     0
 10
3201.8566057397552
 20
2634.6576840602952
 30
0.0
 11
3201.8566057397552
 21
2509.6576840602952
 31
0.0
  0
INSERT
  5
829B
  8
3
 62
     0
  2
_DOT
 10
3201.8566057397552
 20
2634.6576840602952
 30
0.0
 41
70.0
 42
70.0
 43
70.0
 50
270.0
  0
INSERT
  5
829C
  8
3
 62
     0
  2
_OPEN
 10
3201.8566057397552
 20
2509.6576840602952
 30
0.0
 41
70.0
 42
70.0
 43
70.0
 50
90.0
  0
TEXT
  8
3
  40
105
  5
82D6
  62
0
  72
0
  71
0
 10
2904.36
 20
2023.81
 30
0.000000
  1
125
  0
POINT
  5
829E
  8
DEFPOINTS
 62
     0
 10
2717.4213007562771
 20
2634.6576840602961
 30
0.0
  0
POINT
  5
829F
  8
DEFPOINTS
 62
     0
 10
2717.4213007562771
 20
2509.6576840602961
 30
0.0
  0
POINT
  5
82A0
  8
DEFPOINTS
 62
     0
 10
3201.8566057397552
 20
2509.6576840602952
 30
0.0
  0
ENDBLK
  5
818D
  8
0
  0
BLOCK
  8
0
  2
*D24
 70
     1
 10
0.0
 20
0.0
 30
0.0
  3
*D24
  1

  0
LINE
  5
82A1
  8
3
 62
     0
 10
2734.921300756278
 20
2634.6576840602961
 30
0.0
 11
3236.8566057397552
 21
2634.6576840602952
 31
0.0
  0
LINE
  5
82A2
  8
3
 62
     0
 10
2734.921300756278
 20
2654.6576840602961
 30
0.0
 11
3236.8566057397552
 21
2654.6576840602952
 31
0.0
  0
LINE
  5
82A3
  8
3
 62
     0
 10
3201.8566057397552
 20
2564.6576840602952
 30
0.0
 11
3201.8566057397552
 21
2494.6576840602961
 31
0.0
  0
LINE
  5
82A4
  8
3
 62
     0
 10
3201.8566057397552
 20
2724.6576840602952
 30
0.0
 11
3201.8566057397552
 21
2794.6576840602952
 31
0.0
  0
LINE
  5
82A5
  8
3
 62
     0
 10
3201.8566057397552
 20
2644.6576840602952
 30
0.0
 11
3529.3566057397552
 21
2742.9076840602952
 31
0.0
  0
LINE
  5
82A6
  8
3
 62
     0
 10
3529.3566057397552
 20
2742.9076840602952
 30
0.0
 11
3529.3566057397552
 21
3117.9076840602952
 31
0.0
  0
TEXT
  8
3
  40
105
  5
82D7
  62
0
  72
0
  71
0
 10
3204.36
 20
2744.56
 30
0.000000
  1
(20)
  0
LINE
  5
82A8
  8
3
 62
     0
 10
3201.8566057397552
 20
2634.6576840602952
 30
0.0
 11
3201.8566057397552
 21
2654.6576840602952
 31
0.0
  0
LINE
  5
82A9
  8
3
 62
     0
 10
3201.8566057397552
 20
2634.6576840602952
 30
0.0
 11
3201.8566057397552
 21
2654.6576840602952
 31
0.0
  0
INSERT
  5
82AA
  8
3
 62
     0
  2
_DOT
 10
3201.8566057397552
 20
2634.6576840602952
 30
0.0
 41
70.0
 42
70.0
 43
70.0
 50
90.0
  0
INSERT
  5
82AB
  8
3
 62
     0
  2
_OPEN
 10
3201.8566057397552
 20
2654.6576840602952
 30
0.0
 41
70.0
 42
70.0
 43
70.0
 50
270.0
  0
POINT
  5
82AC
  8
DEFPOINTS
 62
     0
 10
2717.4213007562771
 20
2634.6576840602961
 30
0.0
  0
POINT
  5
82AD
  8
DEFPOINTS
 62
     0
 10
2717.4213007562771
 20
2654.6576840602961
 30
0.0
  0
POINT
  5
82AE
  8
DEFPOINTS
 62
     0
 10
3201.8566057397552
 20
2654.6576840602952
 30
0.0
  0
ENDBLK
  5
819E
  8
0
  0
BLOCK
  8
0
  2
*D25
 70
     1
 10
0.0
 20
0.0
 30
0.0
  3
*D25
  1

  0
LINE
  5
82AF
  8
3
 62
     0
 10
2118.9213007562771
 20
4229.6576840602957
 30
0.0
 11
3637.2778108687489
 21
4229.6576840602957
 31
0.0
  0
LINE
  5
82B0
  8
3
 62
     0
 10
2734.921300756278
 20
2509.6576840602961
 30
0.0
 11
3637.2778108687489
 21
2509.6576840602952
 31
0.0
  0
LINE
  5
82B1
  8
3
 62
     0
 10
3602.2778108687489
 20
4159.6576840602957
 30
0.0
 11
3602.277810868748
 21
2579.6576840602952
 31
0.0
  0
INSERT
  5
82B2
  8
3
 62
     0
  2
_OPEN
 10
3602.2778108687489
 20
4229.6576840602957
 30
0.0
 41
70.0
 42
70.0
 43
70.0
 50
90.0
  0
INSERT
  5
82B3
  8
3
 62
     0
  2
_OPEN
 10
3602.277810868748
 20
2509.6576840602952
 30
0.0
 41
70.0
 42
70.0
 43
70.0
 50
270.0
  0
TEXT
  8
3
  40
105
  5
82D8
  62
0
  72
0
  71
0
 10
3277.28
 20
3183.81
 30
0.000000
  1
(1720)
  0
POINT
  5
82B5
  8
DEFPOINTS
 62
     0
 10
2101.4213007562771
 20
4229.6576840602957
 30
0.0
  0
POINT
  5
82B6
  8
DEFPOINTS
 62
     0
 10
2717.4213007562771
 20
2509.6576840602961
 30
0.0
  0
POINT
  5
82B7
  8
DEFPOINTS
 62
     0
 10
3602.277810868748
 20
2509.6576840602952
 30
0.0
  0
ENDBLK
  5
81AB
  8
0
  0
BLOCK
  8
0
  2
*D26
 70
     1
 10
0.0
 20
0.0
 30
0.0
  3
*D26
  1

  0
LINE
  5
82B8
  8
3
 62
     0
 10
5991.3516480335184
 20
4049.6576840602952
 30
0.0
 11
6332.4655520259757
 21
4049.6576840602952
 31
0.0
  0
LINE
  5
82B9
  8
3
 62
     0
 10
5991.3516480335184
 20
3049.6576840602952
 30
0.0
 11
6332.4655520259757
 21
3049.6576840602952
 31
0.0
  0
LINE
  5
82BA
  8
3
 62
     0
 10
6297.4655520259757
 20
3979.6576840602952
 30
0.0
 11
6297.4655520259757
 21
3119.6576840602952
 31
0.0
  0
INSERT
  5
82BB
  8
3
 62
     0
  2
_OPEN
 10
6297.4655520259757
 20
4049.6576840602952
 30
0.0
 41
70.0
 42
70.0
 43
70.0
 50
90.0
  0
INSERT
  5
82BC
  8
3
 62
     0
  2
_OPEN
 10
6297.4655520259757
 20
3049.6576840602952
 30
0.0
 41
70.0
 42
70.0
 43
70.0
 50
270.0
  0
TEXT
  8
3
  40
105
  5
82D9
  62
0
  72
0
  71
0
 10
5999.97
 20
3363.81
 30
0.000000
  1
φ1000
  0
POINT
  5
82BE
  8
DEFPOINTS
 62
     0
 10
5973.8516480335193
 20
4049.6576840602952
 30
0.0
  0
POINT
  5
82BF
  8
DEFPOINTS
 62
     0
 10
5973.8516480335184
 20
3049.6576840602952
 30
0.0
  0
POINT
  5
82C0
  8
DEFPOINTS
 62
     0
 10
6297.4655520259757
 20
3049.6576840602952
 30
0.0
  0
ENDBLK
  5
81C4
  8
0
  0
ENDSEC
  0
SECTION
  2
ENTITIES
  0
INSERT
  5
7AD4
  8
0
  2
YA_N
 10
319.24491920201172
 20
77.340217050523734
 30
0.0
  0
ARC
  5
7AD6
  8
1
 10
2018.4213007562751
 20
3623.6576840602961
 30
0.0
 40
942.0
 50
242.42915624056241
 51
243.6327841138683
  0
ARC
  5
7AD7
  8
1
 10
2018.4213007562771
 20
3475.6576840602961
 30
0.0
 40
794.0
 50
301.58534249022841
 51
5.347669749838734
  0
ARC
  5
7AD8
  8
1
 10
2152.9213007562748
 20
3489.1576840602961
 30
0.0
 40
659.49999999999989
 50
5.2634952030669719
 51
95.263495203066967
  0
ARC
  5
7AD9
  8
1
 10
2152.9213007562748
 20
3610.1576840602961
 30
0.0
 40
538.49999999999989
 50
96.450749714859896
 51
101.18967456276251
  0
LINE
  5
7ADA
  8
1
 10
2048.4213007562748
 20
4138.4208760394458
 30
0.0
 11
2048.4213007562748
 21
4229.6576840602957
 31
0.0
  0
LINE
  5
7ADB
  8
1
 10
965.42130075627574
 20
4229.6576840602957
 30
0.0
 11
2101.4213007562771
 21
4229.6576840602957
 31
0.0
  0
LINE
  5
7ADC
  8
1
 10
1018.421300756277
 20
4229.6576840602957
 30
0.0
 11
1079.332380578853
 21
3549.657684060297
 31
0.0
  0
LINE
  5
7ADE
  8
1
 10
965.42130075627574
 20
4179.6576840602938
 30
0.0
 11
965.42130075627574
 21
4229.6576840602957
 31
0.0
  0
LINE
  5
7ADF
  8
1
 10
2101.4213007562762
 20
4179.6576840602966
 30
0.0
 11
2101.4213007562771
 21
4229.6576840602957
 31
0.0
  0
LINE
  5
7AE0
  8
1
 10
965.42130075627745
 20
4179.6576840602966
 30
0.0
 11
2101.4213007562762
 21
4179.6576840602966
 31
0.0
  0
LINE
  5
7AE1
  8
1
 10
965.42130075627574
 20
4225.6576840602938
 30
0.0
 11
2101.4213007562771
 21
4225.6576840602984
 31
0.0
  0
LINE
  5
7AE5
  8
1
 10
1152.4213007562771
 20
2779.6576840602938
 30
0.0
 11
2717.4213007562771
 21
2779.6576840602961
 31
0.0
  0
LINE
  5
7AE6
  8
1
 10
2717.4213007562771
 20
2779.6576840602961
 30
0.0
 11
2717.4213007562771
 21
2654.6576840602961
 31
0.0
  0
LINE
  5
7AE7
  8
1
 10
1152.4213007562771
 20
2779.6576840602961
 30
0.0
 11
1152.4213007562771
 21
2654.6576840602961
 31
0.0
  0
LINE
  5
7AEB
  8
2
 10
2092.4213007562771
 20
7380.9640441817082
 30
0.0
 11
2092.4213007562771
 21
5418.7087528310021
 31
0.0
  0
LINE
  5
7AEC
  8
2
 10
885.67751902298176
 20
6876.9027449923806
 30
0.0
 11
2876.2633963214171
 21
6876.9027449923797
 31
0.0
  0
LINE
  5
7AED
  8
2
 10
4202.3612036459363
 20
3549.6576840602952
 30
0.0
 11
6097.8265410141203
 21
3549.6576840602952
 31
0.0
  0
LINE
  5
7AEE
  8
2
 10
5595.8516480335184
 20
4329.0065131478514
 30
0.0
 11
5595.8516480335184
 21
2509.6576840602952
 31
0.0
  0
LINE
  5
7AEF
  8
1
 10
4327.8516480335184
 20
2654.6576840602952
 30
0.0
 11
6040.8516480335193
 21
2654.6576840602952
 31
0.0
1001
ACAD
1000
ASC_BOUNDS
1002
{
1070
    19
1002
}
  0
LINE
  5
7AF0
  8
1
 10
4327.8516480335184
 20
2779.6576840602952
 30
0.0
 11
6040.8516480335193
 21
2779.6576840602952
 31
0.0
  0
LINE
  5
7AF1
  8
1
 10
4327.8516480335184
 20
2779.6576840602952
 30
0.0
 11
4327.8516480335184
 21
2654.6576840602952
 31
0.0
  0
LINE
  5
7AF5
  8
1
 10
6040.8516480335193
 20
2779.6576840602952
 30
0.0
 11
6040.8516480335193
 21
2654.6576840602952
 31
0.0
  0
LINE
  5
7AF6
  8
1
 10
5970.8516480335184
 20
4229.6576840602947
 30
0.0
 11
5970.8516480335184
 21
2779.6576840602952
 31
0.0
  0
LINE
  5
7AF7
  8
1
 10
5220.8516480335184
 20
4229.6576840602947
 30
0.0
 11
5220.8516480335156
 21
2779.6576840602952
 31
0.0
  0
LINE
  5
7AF9
  8
1
 10
5218.5516480335182
 20
4229.6576840602947
 30
0.0
 11
5218.55164803352
 21
2779.6576840602952
 31
0.0
  0
LINE
  5
7AFC
  8
2
 10
2092.4213007562762
 20
4289.2736665579241
 30
0.0
 11
2092.4213007562762
 21
2509.6576840602961
 31
0.0
  0
LINE
  5
7AFD
  8
2
 10
2888.9676235291099
 20
3549.6576840602938
 30
0.0
 11
966.18147972796385
 21
3549.6576840602952
 31
0.0
  0
LINE
  5
7AFF
  8
1
 10
1152.4213007562771
 20
2654.6576840602961
 30
0.0
 11
2717.4213007562771
 21
2654.6576840602961
 31
0.0
1001
ACAD
1000
ASC_BOUNDS
1002
{
1070
    19
1002
}
  0
POINT
  5
7B00
  8
1
 10
1197.4213007562751
 20
2654.6576840602961
 30
0.0
  0
POINT
  5
7B01
  8
1
 10
1197.4213007562751
 20
2654.6576840602961
 30
0.0
  0
INSERT
  5
7B02
  8
0
  2
YA_N
 10
-1323.964918958505
 20
-1333.0926101928389
 30
0.0
 41
25.0
 42
25.0
 43
25.0
  0
LINE
  5
7B04
  8
2
 10
1382.4213007562771
 20
3278.4733580602951
 30
0.0
 11
1382.4213007562771
 21
2679.55694369909
 31
0.0
  0
CIRCLE
  5
7B06
  8
1
 10
2092.4213007562762
 20
3549.6576840602938
 30
0.0
 40
165.09999999999991
  0
CIRCLE
  5
7B07
  8
1
 10
1382.4213007562771
 20
3029.6576840602938
 30
0.0
 40
114.3
  0
POINT
  5
7B08
  8
1
 10
1247.4213007562751
 20
2654.6576840602961
 30
0.0
  0
POINT
  5
7B09
  8
1
 10
1247.4213007562751
 20
2654.6576840602961
 30
0.0
  0
LINE
  5
7B0A
  8
1
 10
6023.8516480335184
 20
4229.6576840602947
 30
0.0
 11
6023.8516480335184
 21
4179.6576840602957
 31
0.0
  0
LINE
  5
7B0B
  8
1
 10
5167.8516480335193
 20
4229.6576840602947
 30
0.0
 11
5167.8516480335193
 21
4179.6576840602938
 31
0.0
  0
INSERT
  5
7B0C
  8
0
  2
YA_N
 10
-831.64864387704301
 20
-916.68199648309155
 30
0.0
 41
25.0
 42
25.0
 43
25.0
  0
LINE
  5
7B1C
  8
1
 10
1467.4213007562771
 20
7321.9027449923824
 30
0.0
 11
2717.4213007562771
 21
7321.9027449923778
 31
0.0
  0
LINE
  5
7B1D
  8
1
 10
2437.4213007562771
 20
6431.9027449923806
 30
0.0
 11
2717.4213007562771
 21
6431.9027449923788
 31
0.0
  0
LINE
  5
7B1E
  8
1
 10
2717.4213007562771
 20
7321.9027449923797
 30
0.0
 11
2717.4213007562771
 21
7251.9027449923778
 31
0.0
  0
LINE
  5
7B1F
  8
1
 10
1467.4213007562771
 20
7321.9027449923824
 30
0.0
 11
1467.4213007562771
 21
7301.9027449923806
 31
0.0
  0
LINE
  5
7B20
  8
1
 10
1152.4213007562771
 20
6496.9027449923824
 30
0.0
 11
1152.4213007562771
 21
5608.9027449923824
 31
0.0
  0
LINE
  5
7B21
  8
1
 10
1152.4213007562771
 20
5608.9027449923824
 30
0.0
 11
2437.4213007562771
 21
5608.9027449923769
 31
0.0
  0
LINE
  5
7B29
  8
1
 10
2437.4213007562771
 20
6431.9027449923788
 30
0.0
 11
2437.4213007562771
 21
5608.9027449923797
 31
0.0
  0
LINE
  5
7B38
  8
1
 10
5150.8516480335184
 20
2779.6576840602952
 30
0.0
 11
5150.8516480335184
 21
2654.6576840602952
 31
0.0
  0
LINE
  5
7B3A
  8
1
 10
4388.8516480335184
 20
3469.6576840602952
 30
0.0
 11
4388.8516480335156
 21
2779.6576840602952
 31
0.0
  0
LINE
  5
7B3B
  8
1
 10
4388.8516480335184
 20
3469.6576840602952
 30
0.0
 11
5122.8516480335174
 21
3469.6576840602952
 31
0.0
  0
LINE
  5
7B3C
  8
1
 10
5122.8516480335174
 20
3469.6576840602952
 30
0.0
 11
5122.8516480335174
 21
2779.6576840602952
 31
0.0
  0
LINE
  5
7B3E
  8
1
 10
4345.8516480335184
 20
3587.1576840602952
 30
0.0
 11
5220.8516480335156
 21
3587.1576840602952
 31
0.0
  0
LINE
  5
7B3F
  8
1
 10
4345.8516480335156
 20
3512.1576840602952
 30
0.0
 11
5220.8516480335156
 21
3512.1576840602952
 31
0.0
  0
LINE
  5
7B43
  8
1
 10
4345.8516480335156
 20
3587.1576840602952
 30
0.0
 11
4345.8516480335156
 21
3512.1576840602952
 31
0.0
  0
LINE
  5
7B44
  8
1
 10
4340.8516480335174
 20
3577.1576840602952
 30
0.0
 11
4345.8516480335184
 21
3577.1576840602952
 31
0.0
  0
LINE
  5
7B45
  8
1
 10
4340.8516480335174
 20
3522.1576840602952
 30
0.0
 11
4345.8516480335184
 21
3522.1576840602952
 31
0.0
  0
LINE
  5
7B46
  8
1
 10
4230.8516480335156
 20
3714.7576840602951
 30
0.0
 11
4340.8516480335156
 21
3714.7576840602951
 31
0.0
  0
LINE
  5
7B47
  8
1
 10
4230.8516480335184
 20
3384.5576840602948
 30
0.0
 11
4340.8516480335193
 21
3384.5576840602948
 31
0.0
  0
LINE
  5
7B48
  8
2
 10
4202.3612036459363
 20
3014.6576840602952
 30
0.0
 11
4382.628524634315
 21
3014.6576840602952
 31
0.0
  0
LINE
  5
7B49
  8
1
 10
4230.8516480335174
 20
3714.7576840602951
 30
0.0
 11
4230.8516480335184
 21
2900.3576840602959
 31
0.0
  0
LINE
  5
7B4A
  8
1
 10
4230.8516480335184
 20
3128.9576840602949
 30
0.0
 11
4340.8516480335193
 21
3128.9576840602949
 31
0.0
  0
LINE
  5
7B4B
  8
1
 10
4230.8516480335184
 20
2900.3576840602959
 30
0.0
 11
4340.8516480335193
 21
2900.3576840602959
 31
0.0
  0
LINE
  5
7B4C
  8
1
 10
4340.8516480335174
 20
3714.757684060296
 30
0.0
 11
4340.8516480335193
 21
2900.3576840602959
 31
0.0
  0
LINE
  5
7B4D
  8
1
 10
4378.8516480335184
 20
3829.6576840602952
 30
0.0
 11
4378.8516480335156
 21
2794.6576840602952
 31
0.0
  0
LINE
  5
7B4E
  8
1
 10
4178.8516480335184
 20
3829.6576840602952
 30
0.0
 11
4178.8516480335174
 21
2794.6576840602952
 31
0.0
  0
LINE
  5
7B4F
  8
1
 10
4178.8516480335184
 20
3829.6576840602952
 30
0.0
 11
4378.8516480335184
 21
3829.6576840602952
 31
0.0
  0
LINE
  5
7B50
  8
1
 10
4178.8516480335174
 20
2794.6576840602952
 30
0.0
 11
4378.8516480335156
 21
2794.6576840602952
 31
0.0
  0
LINE
  5
7B54
  8
1
 10
2437.4213007562748
 20
2779.6576840602952
 30
0.0
 11
2437.4213007562748
 21
2654.6576840602961
 31
0.0
  0
POINT
  5
7B56
  8
1
 10
2317.4213007562748
 20
2654.6576840602961
 30
0.0
  0
POINT
  5
7B57
  8
1
 10
2317.4213007562748
 20
2654.6576840602961
 30
0.0
  0
POINT
  5
7B58
  8
1
 10
2367.4213007562762
 20
2654.6576840602961
 30
0.0
  0
POINT
  5
7B59
  8
1
 10
2367.4213007562762
 20
2654.6576840602961
 30
0.0
  0
POINT
  5
7B5B
  8
1
 10
2717.4213007562771
 20
2654.6576840602961
 30
0.0
  0
LINE
  5
7B5E
  8
1
 10
5167.8516480335193
 20
4229.6576840602947
 30
0.0
 11
6023.8516480335184
 21
4229.6576840602947
 31
0.0
  0
LINE
  5
7B5F
  8
1
 10
5167.8516480335193
 20
4179.6576840602957
 30
0.0
 11
6023.8516480335184
 21
4179.6576840602957
 31
0.0
  0
LINE
  5
7B60
  8
1
 10
5167.8516480335193
 20
4225.6576840602957
 30
0.0
 11
6023.8516480335184
 21
4225.6576840602957
 31
0.0
  0
POINT
  5
7B61
  8
1
 10
4178.8516480335184
 20
3829.6576840602952
 30
0.0
  0
POINT
  5
7B62
  8
1
 10
5973.8516480335156
 20
4229.6576840602947
 30
0.0
  0
INSERT
  5
7B64
  8
0
  2
YA_N
 10
11899.076749181109
 20
-304.87141365756861
 30
0.0
  0
INSERT
  5
7B66
  8
0
  2
YA_N
 10
10255.86691102059
 20
-1715.3042409009311
 30
0.0
 41
25.0
 42
25.0
 43
25.0
  0
INSERT
  5
7B68
  8
0
  2
YA_N
 10
10748.18318610206
 20
-1298.893627191183
 30
0.0
 41
25.0
 42
25.0
 43
25.0
  0
INSERT
  5
7B6B
  8
0
  2
YA_N
 10
14177.2584996237
 20
-2162.1696740489292
 30
0.0
  0
LINE
  5
7B6D
  8
1
 10
1582.4213007562751
 20
2819.6576840602952
 30
0.0
 11
1582.4213007562771
 21
2779.6576840602952
 31
0.0
  0
LINE
  5
7B6E
  8
1
 10
1182.4213007562771
 20
2819.6576840602938
 30
0.0
 11
1182.4213007562771
 21
2779.6576840602938
 31
0.0
  0
LINE
  5
7B6F
  8
1
 10
1182.4213007562771
 20
2819.6576840602938
 30
0.0
 11
1582.4213007562751
 21
2819.6576840602952
 31
0.0
  0
ARC
  5
7B71
  8
1
 10
1382.4213007562771
 20
3029.6576840602952
 30
0.0
 40
162.0
 50
286.13379196202322
 51
253.86620803797629
  0
LINE
  5
7B72
  8
2
 10
1534.9213007562771
 20
3029.6576840602952
 30
0.0
 11
1242.812665708019
 21
3029.6576840602938
 31
0.0
  0
LINE
  5
7B73
  8
1
 10
1427.438063957273
 20
2874.0379840512569
 30
0.0
 11
1337.4045375552389
 21
2874.0379840512569
 31
0.0
  0
LINE
  5
7B74
  8
1
 10
1536.4213007562771
 20
2887.6576840602952
 30
0.0
 11
1515.078966626972
 21
2936.6741173092691
 31
0.0
  0
LINE
  5
7B75
  8
1
 10
1567.4213007562771
 20
2869.6576840602952
 30
0.0
 11
1197.4213007562771
 21
2869.6576840602952
 31
0.0
  0
LINE
  5
7B76
  8
1
 10
1536.4213007562771
 20
2887.6576840602952
 30
0.0
 11
1477.7677819340111
 21
2887.6576840602952
 31
0.0
  0
LINE
  5
7B77
  8
1
 10
1536.4213007562771
 20
2869.6576840602952
 30
0.0
 11
1536.4213007562771
 21
2887.6576840602952
 31
0.0
  0
LINE
  5
7B78
  8
1
 10
1509.4213007562771
 20
2849.1576840602952
 30
0.0
 11
1509.4213007562771
 21
2917.353294819558
 31
0.0
  0
LINE
  5
7B79
  8
1
 10
1476.4213007562771
 20
2897.7183040405262
 30
0.0
 11
1476.4213007562771
 21
2869.6576840602952
 31
0.0
  0
LINE
  5
7B7A
  8
1
 10
1228.4213007562771
 20
2887.6576840602952
 30
0.0
 11
1249.7636348855831
 21
2936.6741173092691
 31
0.0
  0
LINE
  5
7B7B
  8
1
 10
1255.4213007562771
 20
2849.1576840602952
 30
0.0
 11
1255.4213007562771
 21
2917.353294819558
 31
0.0
  0
LINE
  5
7B7C
  8
1
 10
1228.4213007562771
 20
2869.6576840602952
 30
0.0
 11
1288.4213007562771
 21
2869.6576840602952
 31
0.0
  0
LINE
  5
7B7D
  8
1
 10
1228.4213007562771
 20
2887.6576840602952
 30
0.0
 11
1287.0748195785411
 21
2887.6576840602952
 31
0.0
  0
LINE
  5
7B7E
  8
1
 10
1288.4213007562771
 20
2897.7183040405262
 30
0.0
 11
1288.4213007562771
 21
2869.6576840602952
 31
0.0
  0
LINE
  5
7B7F
  8
1
 10
1228.4213007562771
 20
2869.6576840602952
 30
0.0
 11
1228.4213007562771
 21
2887.6576840602952
 31
0.0
  0
LINE
  5
7B80
  8
1
 10
1197.4213007562771
 20
2869.6576840602952
 30
0.0
 11
1197.4213007562771
 21
2819.6576840602938
 31
0.0
  0
LINE
  5
7B81
  8
1
 10
1567.4213007562771
 20
2869.6576840602952
 30
0.0
 11
1567.4213007562771
 21
2819.6576840602952
 31
0.0
  0
ARC
  5
7B82
  8
1
 10
2092.4213007562762
 20
3549.6576840602938
 30
0.0
 40
280.0
 50
302.30952653425902
 51
130.12814799697
  0
ARC
  5
7B83
  8
1
 10
1382.4213007562771
 20
3029.6576840602938
 30
0.0
 40
220.0
 50
130.12814799697
 51
302.30952653425902
  0
LINE
  5
7B84
  8
1
 10
1987.342559311151
 20
3677.0015810334462
 30
0.0
 11
1309.6744797558049
 21
3117.8188435032448
 31
0.0
  0
LINE
  5
7B85
  8
1
 10
1911.961485850406
 20
3763.7470467202338
 30
0.0
 11
1240.631446187379
 21
3197.870754721675
 31
0.0
  0
LINE
  5
7B86
  8
1
 10
2182.1228264493038
 20
3411.0516009025082
 30
0.0
 11
1444.522357005294
 21
2933.6996264895201
 31
0.0
  0
LINE
  5
7B87
  8
1
 10
2242.0793080443291
 20
3313.0092510323761
 30
0.0
 11
1500.009735054032
 21
2843.7196295383592
 31
0.0
  0
INSERT
  5
7B88
  8
0
  2
YA_N
 10
14490.7857069929
 20
-1261.3712952520541
 30
0.0
  0
INSERT
  5
7B8A
  8
0
  2
YA_N
 10
12847.575868832389
 20
-2671.8041224954168
 30
0.0
 41
25.0
 42
25.0
 43
25.0
  0
INSERT
  5
7B8C
  8
0
  2
YA_N
 10
13339.89214391385
 20
-2255.3935087856689
 30
0.0
 41
25.0
 42
25.0
 43
25.0
  0
INSERT
  5
7B8F
  8
0
  2
YA_N
 10
16768.96745743549
 20
-3118.6695556434138
 30
0.0
  0
LINE
  5
7C57
  8
1
 10
4230.8516480335184
 20
2993.6576840602961
 30
0.0
 11
4340.8516480296466
 21
2993.6576840602961
 31
0.0
  0
LINE
  5
7C58
  8
1
 10
4230.8516480335184
 20
3035.6576840602952
 30
0.0
 11
4340.8516480296466
 21
3035.6576840602961
 31
0.0
  0
LINE
  5
7C5F
  8
1
 10
4230.8516480335184
 20
3035.6576840602952
 30
0.0
 11
4230.8516480335184
 21
2993.6576840602952
 31
0.0
  0
LINE
  5
7C83
  8
1
 10
2129.921300756278
 20
5626.9027449923797
 30
0.0
 11
2129.9213007562771
 21
6501.9027449923778
 31
0.0
  0
LINE
  5
7C84
  8
1
 10
2054.9213007562771
 20
5626.9027449923788
 30
0.0
 11
2054.9213007562771
 21
6501.9027449923778
 31
0.0
  0
LINE
  5
7C88
  8
2
 10
1382.4213007562771
 20
6251.1476713301636
 30
0.0
 11
1382.4213007562771
 21
5429.5402182805192
 31
0.0
  0
LINE
  5
7C8E
  8
1
 10
2372.4213007562771
 20
5459.9027449923797
 30
0.0
 11
1162.4213007562771
 21
5459.9027449923788
 31
0.0
  0
LINE
  5
7C8F
  8
1
 10
2372.4213007562771
 20
5659.9027449923788
 30
0.0
 11
1162.4213007562771
 21
5659.9027449923778
 31
0.0
  0
LINE
  5
7C90
  8
1
 10
2257.5213007562779
 20
5621.9027449923788
 30
0.0
 11
1268.1213007562781
 21
5621.9027449923797
 31
0.0
  0
LINE
  5
7C91
  8
1
 10
2257.5213007562779
 20
5511.9027449923788
 30
0.0
 11
1268.1213007562781
 21
5511.9027449923788
 31
0.0
  0
LINE
  5
7C97
  8
1
 10
1544.4213007562771
 20
5640.7810251749506
 30
0.0
 11
1220.4213007562771
 21
5640.7810251749506
 31
0.0
  0
LINE
  5
7C98
  8
1
 10
1324.203851773678
 20
5629.902744993371
 30
0.0
 11
1440.638749738875
 21
5629.902744993371
 31
0.0
  0
LINE
  5
7C9A
  8
1
 10
1162.4213007562771
 20
5459.9027449923778
 30
0.0
 11
1162.4213007562771
 21
5659.9027449923778
 31
0.0
  0
LINE
  5
7C9D
  8
1
 10
1268.1213007562781
 20
5511.9027449923788
 30
0.0
 11
1268.1213007562781
 21
5621.9027449923806
 31
0.0
  0
LINE
  5
7C9E
  8
2
 10
1382.4213007562771
 20
5483.4123006047967
 30
0.0
 11
1382.4213007562771
 21
5663.6796215931772
 31
0.0
  0
LINE
  5
7C9F
  8
1
 10
1403.4213007562771
 20
5511.9027449923788
 30
0.0
 11
1403.4213007562771
 21
5621.9027449885089
 31
0.0
  0
LINE
  5
7CA0
  8
1
 10
1361.4213007562771
 20
5511.9027449923788
 30
0.0
 11
1361.4213007562771
 21
5621.9027449885089
 31
0.0
  0
LINE
  5
7CA1
  8
1
 10
1403.4213007562771
 20
5511.9027449923788
 30
0.0
 11
1361.4213007562771
 21
5511.9027449923788
 31
0.0
  0
LINE
  5
7CA2
  8
1
 10
1324.203851773678
 20
5640.7810251749506
 30
0.0
 11
1324.203851773678
 21
5629.902744993371
 31
0.0
  0
LINE
  5
7CA3
  8
1
 10
1410.842609702124
 20
5621.9027449885089
 30
0.0
 11
1410.842609702124
 21
5629.902744993371
 31
0.0
  0
LINE
  5
7CA4
  8
1
 10
1351.9999918104311
 20
5621.9027449885089
 30
0.0
 11
1351.9999918104311
 21
5629.902744993371
 31
0.0
  0
LINE
  5
7CA5
  8
1
 10
1351.9999918104311
 20
5621.9027449885089
 30
0.0
 11
1410.842609702124
 21
5621.9027449885089
 31
0.0
  0
LINE
  5
7CA6
  8
1
 10
2327.4213007562771
 20
5669.9027449923824
 30
0.0
 11
2129.9213007562771
 21
5669.9027449923788
 31
0.0
  0
LINE
  5
7CA7
  8
1
 10
1496.7213007562759
 20
5511.9027449923788
 30
0.0
 11
1496.7213007562759
 21
5621.9027449923797
 31
0.0
  0
LINE
  5
7CA8
  8
1
 10
1440.638749738875
 20
5640.7810251749506
 30
0.0
 11
1440.638749738875
 21
5629.902744993371
 31
0.0
  0
LINE
  5
7CA9
  8
1
 10
1927.321300756277
 20
5511.9027449923788
 30
0.0
 11
1927.321300756277
 21
5621.9027449923797
 31
0.0
  0
LINE
  5
7CAC
  8
1
 10
1220.4213007562771
 20
6114.902744993371
 30
0.0
 11
1220.4213007562771
 21
5640.7810251749524
 31
0.0
  0
LINE
  5
7CAF
  8
1
 10
1544.4213007562771
 20
6114.902744993371
 30
0.0
 11
1544.4213007562771
 21
5640.7810251749524
 31
0.0
  0
LINE
  5
7CB0
  8
1
 10
1544.4213007562771
 20
5709.3721531646806
 30
0.0
 11
1544.4213007562771
 21
5951.6191931251014
 31
0.0
  0
LINE
  5
7CB4
  8
1
 10
2372.4213007562771
 20
5459.9027449923797
 30
0.0
 11
2372.4213007562771
 21
5659.9027449923788
 31
0.0
  0
POINT
  5
7CB5
  8
1
 10
2372.4213007562771
 20
5459.9027449923797
 30
0.0
  0
LINE
  5
7CB6
  8
1
 10
2064.9213007562771
 20
5621.9027449923788
 30
0.0
 11
2064.9213007562771
 21
5626.9027449923788
 31
0.0
  0
LINE
  5
7CB7
  8
1
 10
2119.9213007562771
 20
5621.9027449923788
 30
0.0
 11
2119.9213007562771
 21
5626.9027449923788
 31
0.0
  0
LINE
  5
7CB8
  8
1
 10
2129.9213007562771
 20
5626.9027449923788
 30
0.0
 11
2054.9213007562762
 21
5626.9027449923778
 31
0.0
  0
LINE
  5
7CB9
  8
1
 10
2257.5213007562779
 20
5511.9027449923778
 30
0.0
 11
2257.5213007562779
 21
5621.9027449923778
 31
0.0
  0
LINE
  5
7CBC
  8
1
 10
2812.4213007562789
 20
7251.9027449923797
 30
0.0
 11
2098.4213007562771
 21
7251.9027449923778
 31
0.0
  0
LINE
  5
7CBF
  8
1
 10
2812.4213007562789
 20
6501.9027449923778
 30
0.0
 11
2098.4213007562771
 21
6501.9027449923778
 31
0.0
  0
LINE
  5
7CC1
  8
1
 10
2327.4213007562771
 20
6403.9027449923788
 30
0.0
 11
2129.9213007562771
 21
6403.9027449923778
 31
0.0
  0
LINE
  5
7CC2
  8
1
 10
1220.4213007562771
 20
6114.902744993371
 30
0.0
 11
1544.4213007562771
 21
6114.902744993371
 31
0.0
  0
LINE
  5
7CD3
  8
1
 10
2054.9213007562771
 20
6403.9027449923778
 30
0.0
 11
1857.4213007562771
 21
6403.9027449923778
 31
0.0
  0
LINE
  5
7CD4
  8
1
 10
2054.9213007562771
 20
5669.9027449923806
 30
0.0
 11
1857.4213007562771
 21
5669.9027449923788
 31
0.0
  0
LINE
  5
7CD6
  8
1
 10
1018.421300756277
 20
7251.9027449923778
 30
0.0
 11
1018.421300756277
 21
6501.9027449923778
 31
0.0
  0
LINE
  5
7CD7
  8
1
 10
2048.4213007562771
 20
7251.9027449923797
 30
0.0
 11
2048.4213007562789
 21
6501.9027449923778
 31
0.0
  0
LINE
  5
7CD8
  8
1
 10
2098.4213007562771
 20
7301.9027449923788
 30
0.0
 11
968.42130075627745
 21
7301.9027449923806
 31
0.0
  0
LINE
  5
7CD9
  8
1
 10
968.42130075627745
 20
7301.9027449923806
 30
0.0
 11
968.42130075627847
 21
6449.6027449923822
 31
0.0
  0
LINE
  5
7CDA
  8
1
 10
2098.4213007562789
 20
6449.6027449923804
 30
0.0
 11
968.42130075627847
 21
6449.6027449923822
 31
0.0
  0
LINE
  5
7CDB
  8
1
 10
2098.4213007562771
 20
7301.9027449923788
 30
0.0
 11
2098.4213007562789
 21
6449.6027449923804
 31
0.0
  0
LINE
  5
7CDC
  8
1
 10
2048.4213007562771
 20
7251.9027449923778
 30
0.0
 11
1018.421300756278
 21
7251.9027449923797
 31
0.0
  0
LINE
  5
7CDE
  8
1
 10
2048.4213007562789
 20
6501.9027449923778
 30
0.0
 11
1018.421300756278
 21
6501.9027449923778
 31
0.0
  0
LINE
  5
7CDF
  8
1
 10
2812.4213007562771
 20
7251.9027449923778
 30
0.0
 11
2812.4213007562771
 21
6501.9027449923778
 31
0.0
  0
LINE
  5
7CE0
  8
1
 10
2717.4213007562771
 20
6501.9027449923797
 30
0.0
 11
2717.4213007562771
 21
6431.9027449923788
 31
0.0
  0
LINE
  5
7CE1
  8
1
 10
1018.421300756277
 20
7251.9027449923797
 30
0.0
 11
2048.4213007562789
 21
6501.9027449923778
 31
0.0
  0
LINE
  5
7CE2
  8
1
 10
2048.4213007562771
 20
7251.9027449923778
 30
0.0
 11
1018.421300756278
 21
6501.9027449923778
 31
0.0
  0
LINE
  5
7CE4
  8
4
 10
6475.0
 20
1750.0
 30
0.0
 11
6475.0
 21
1050.0
 31
0.0
  0
LINE
  5
7CE5
  8
4
 10
4025.0
 20
1750.0
 30
0.0
 11
4025.0
 21
1050.0
 31
0.0
  0
LINE
  5
7CE6
  8
4
 10
2275.0
 20
1750.0
 30
0.0
 11
2275.0
 21
1050.0
 31
0.0
  0
LINE
  5
7CE9
  8
4
 10
2275.0
 20
1050.0
 30
0.0
 11
6475.0
 21
1050.0
 31
0.0
  0
LINE
  5
7CEA
  8
4
 10
2275.0
 20
1400.0
 30
0.0
 11
6475.0
 21
1400.0
 31
0.0
  0
TEXT
  5
7CEB
  8
4
 10
2409.7572829641558
 20
1510.4005905331451
 30
0.0
 40
175.0
  1
機器名称
  0
TEXT
  5
7CEC
  8
4
 10
2401.9033710867911
 20
1125.7580485620381
 30
0.0
 40
175.0
  1
機器型番
  0
TEXT
  5
7CED
  8
4
 10
4121.875609206827
 20
1479.00119135149
 30
0.0
 40
150.0
  1
ミツヤリミットロ－ﾄﾞファン
  0
TEXT
  5
7CEE
  8
4
 10
4153.2907345491822
 20
1110.0585449798009
 30
0.0
 40
175.0
  1
LL#6-1
  0
TEXT
  5
7CF0
  8
4
 10
2703.2355611836979
 20
8342.0009446638051
 30
0.0
 40
188.99999999999989
  1
床置防振ベット
  0
TEXT
  5
7CF1
  8
4
 10
1056.5865766530619
 20
8868.5834166975455
 30
0.0
 40
252.0
  1
遠心式片吸込片持リミットロ－ﾄﾞファン
  0
LINE
  5
7CF2
  8
4
 10
875.0
 20
8642.9306399268171
 30
0.0
 11
6475.0
 21
8642.9306399268171
 31
0.0
  0
LINE
  5
7CF3
  8
4
 10
875.0
 20
9342.9306399268171
 30
0.0
 11
6475.0
 21
9342.9306399268171
 31
0.0
  0
LINE
  5
7CF4
  8
4
 10
2275.0
 20
1750.0
 30
0.0
 11
6475.0
 21
1750.0
 31
0.0
  0
LINE
  5
7CF5
  8
4
 10
875.0
 20
9342.9306399268171
 30
0.0
 11
875.0
 21
8642.9306399268171
 31
0.0
  0
TEXT
  5
7CF6
  8
4
 10
1177.7296483342391
 20
8338.1181714122031
 30
0.0
 40
188.99999999999989
  1
右回転上向
  0
TEXT
  5
7CF7
  8
4
 10
5141.3934573725146
 20
9471.21378523358
 30
0.0
 40
196.0
  1
No.
  0
TEXT
  5
7CF8
  8
4
 10
4589.5362191000459
 20
8342.0009446638051
 30
0.0
 40
188.99999999999989
  1
縮尺：1/35
  0
LINE
  5
7CF9
  8
4
 10
6475.0
 20
9342.9306399268171
 30
0.0
 11
6475.0
 21
8642.9306399268171
 31
0.0
  0
LINE
  5
7CFA
  8
4
 10
7350.0
 20
10325.0
 30
0.0
 11
7350.0
 21
10325.0
 31
0.0
  0
LINE
  5
7CFB
  8
4
 10
5042.160978259526
 20
9384.4225409389055
 30
0.0
 11
5042.160978259526
 21
9753.2829154241354
 31
0.0
  0
LINE
  5
7CFC
  8
4
 10
5042.160978259526
 20
9753.2829154241354
 30
0.0
 11
6475.0
 21
9753.2829154241354
 31
0.0
  0
LINE
  5
7CFD
  8
4
 10
6475.0
 20
9753.2829154241354
 30
0.0
 11
6475.0
 21
9384.4225409389055
 31
0.0
  0
LINE
  5
7CFE
  8
4
 10
6475.0
 20
9384.4225409389055
 30
0.0
 11
5042.160978259526
 21
9384.4225409389055
 31
0.0
  0
LINE
  5
7CFF
  8
4
 10
0.0
 20
0.0
 30
0.0
 11
0.0
 21
10325.0
 31
0.0
  0
LINE
  5
7D00
  8
4
 10
0.0
 20
10325.0
 30
0.0
 11
7350.0
 21
10325.0
 31
0.0
  0
LINE
  5
7D01
  8
4
 10
7350.0
 20
10325.0
 30
0.0
 11
7350.0
 21
0.0
 31
0.0
  0
LINE
  5
7D02
  8
4
 10
7350.0
 20
0.0
 30
0.0
 11
0.0
 21
0.0
 31
0.0
  0
DIMENSION
  5
7D14
  8
3
  2
*D2
 10
1018.421300756277
 20
4609.753141881436
 30
0.0
 11
1557.3044001228479
 21
4609.753141881436
 31
0.0
 70
   128
 13
2092.4213007562762
 23
4289.2736665579241
 33
0.0
 14
1018.421300756277
 24
4229.6576840602957
 34
0.0
1001
ACAD
1000
DSTYLE
1002
{
1070
   287
1070
     3
1070
    40
1040
35.0
1070
   143
1040
0.039
1070
   172
1070
     1
1070
   271
1070
     0
1070
   279
1070
     0
1070
   288
1070
     1
1002
}
  0
DIMENSION
  5
7D2C
  8
3
  2
*D3
 10
2048.4213007562748
 20
4360.8492960381291
 30
0.0
 11
1567.267825443166
 21
4360.8492960381291
 31
0.0
 70
   128
 13
1018.421300756277
 23
4247.1576840602957
 33
0.0
 14
2048.4213007562748
 24
4229.6576840602957
 34
0.0
1001
ACAD
1000
DSTYLE
1002
{
1070
   287
1070
     3
1070
    40
1040
35.0
1070
   143
1040
0.039
1070
   172
1070
     1
1070
   271
1070
     0
1070
   279
1070
     0
1070
   288
1070
     1
1002
}
  0
DIMENSION
  5
7D38
  8
3
  2
*D4
 10
2812.4213007562771
 20
4609.753141881436
 30
0.0
 11
2452.4213007562762
 21
4697.253141881436
 31
0.0
 70
     0
 13
2092.4213007562762
 23
4289.2736665579241
 33
0.0
 14
2812.4213007562771
 24
3475.6576840602961
 34
0.0
1001
ACAD
1000
DSTYLE
1002
{
1070
   287
1070
     4
1070
    40
1040
35.0
1070
    75
1070
     1
1070
   143
1040
0.039
1070
   172
1070
     1
1070
   271
1070
     0
1070
   279
1070
     1
1070
   288
1070
     1
1002
}
  0
DIMENSION
  5
7D45
  8
3
  2
*D5
 10
3204.4057280622651
 20
3549.6576840602938
 30
0.0
 11
3204.4057280622651
 21
3932.0132497937948
 31
0.0
 70
   128
 13
2101.4213007562771
 23
4229.6576840602957
 33
0.0
 14
2888.9676235291099
 24
3549.6576840602938
 34
0.0
 50
270.0
1001
ACAD
1000
DSTYLE
1002
{
1070
   287
1070
     3
1070
    40
1040
35.0
1070
   143
1040
0.039
1070
   172
1070
     1
1070
   271
1070
     0
1070
   279
1070
     0
1070
   288
1070
     1
1002
}
  0
DIMENSION
  5
7D5C
  8
3
  2
*D6
 10
3204.4057280622651
 20
2654.6576840602952
 30
0.0
 11
3116.9057280622651
 21
3102.1576840602961
 31
0.0
 70
     0
 13
2888.9676235291099
 23
3549.6576840602938
 33
0.0
 14
2717.4213007562771
 24
2654.6576840602961
 34
0.0
 50
270.0
1001
ACAD
1000
DSTYLE
1002
{
1070
   287
1070
     3
1070
    40
1040
35.0
1070
   143
1040
0.039
1070
   172
1070
     1
1070
   271
1070
     0
1070
   279
1070
     0
1070
   288
1070
     1
1002
}
  0
DIMENSION
  5
7E4B
  8
3
  2
*D7
 10
5970.8516480335184
 20
4345.753189690412
 30
0.0
 11
5595.2782945911167
 21
4345.753189690412
 31
0.0
 70
   128
 13
5220.8516480335184
 23
4229.6576840602947
 33
0.0
 14
5970.8516480335184
 24
4229.6576840602947
 34
0.0
1001
ACAD
1000
DSTYLE
1002
{
1070
   287
1070
     3
1070
    40
1040
35.0
1070
   143
1040
0.039
1070
   172
1070
     1
1070
   271
1070
     0
1070
   279
1070
     0
1070
   288
1070
     1
1002
}
  0
LINE
  5
7E4C
  8
1
 10
5973.8516480335193
 20
4229.6576840602947
 30
0.0
 11
5973.8516480335184
 21
2779.6576840602952
 31
0.0
  0
DIMENSION
  5
7E5D
  8
3
  2
*D8
 10
5595.8516480335184
 20
4563.6342249530207
 30
0.0
 11
5784.8516480335193
 21
4563.6342249530207
 31
0.0
 70
   128
 13
5973.8516480335193
 23
4229.6576840602947
 33
0.0
 14
5595.8516480335184
 24
4485.6897528358186
 34
0.0
1001
ACAD
1000
DSTYLE
1002
{
1070
   287
1070
     3
1070
    40
1040
35.0
1070
   143
1040
0.039
1070
   172
1070
     1
1070
   271
1070
     0
1070
   279
1070
     0
1070
   288
1070
     1
1002
}
  0
DIMENSION
  5
7E69
  8
3
  2
*D9
 10
4178.8516480335184
 20
4563.6342249530207
 30
0.0
 11
4887.3516480335193
 21
4738.6342249530198
 31
0.0
 70
     0
  1
MAX\P1450
 13
5595.8516480335184
 23
4485.6897528358186
 33
0.0
 14
4178.8516480335184
 24
3829.6576840602952
 34
0.0
1001
ACAD
1000
DSTYLE
1002
{
1070
   287
1070
     4
1070
    40
1040
35.0
1070
    75
1070
     1
1070
   143
1040
0.039
1070
   172
1070
     1
1070
   271
1070
     0
1070
   279
1070
     1
1070
   288
1070
     1
1002
}
  0
ARC
  5
7E8B
  8
1
 10
2018.4213007562751
 20
3623.6576840602961
 30
0.0
 40
942.0
 50
184.50558452664441
 51
213.8432305585481
  0
DIMENSION
  5
7EA5
  8
3
  2
*D10
 10
965.42130075627574
 20
4846.6987677295219
 30
0.0
 11
1963.2226402314191
 21
4846.6987677295219
 31
0.0
 70
   128
 13
2812.4213007562771
 23
3475.6576840602961
 33
0.0
 14
965.42130075627574
 24
4229.6576840602957
 34
0.0
1001
ACAD
1000
DSTYLE
1002
{
1070
   287
1070
     3
1070
    40
1040
35.0
1070
   143
1040
0.039
1070
   172
1070
     1
1070
   271
1070
     0
1070
   279
1070
     0
1070
   288
1070
     1
1002
}
  0
DIMENSION
  5
7EB2
  8
3
  2
*D11
 10
1467.4213007562771
 20
7581.0877544920368
 30
0.0
 11
2094.8586321062612
 21
7581.0877544920368
 31
0.0
 70
   128
 13
2717.4213007562771
 23
7321.9027449923778
 33
0.0
 14
1467.4213007562771
 24
7321.9027449923824
 34
0.0
1001
ACAD
1000
DSTYLE
1002
{
1070
   287
1070
     3
1070
    40
1040
35.0
1070
   143
1040
0.039
1070
   172
1070
     1
1070
   271
1070
     0
1070
   279
1070
     0
1070
   288
1070
     1
1002
}
  0
DIMENSION
  5
7EC0
  8
3
  2
*D12
 10
1152.4213007562771
 20
7581.0877544920368
 30
0.0
 11
922.42130075627745
 21
7668.5877544920368
 31
0.0
 70
     0
 13
1467.4213007562771
 23
7321.9027449923824
 33
0.0
 14
1152.4213007562771
 24
6497.046931312233
 34
0.0
1001
ACAD
1000
DSTYLE
1002
{
1070
   287
1070
     3
1070
    40
1040
35.0
1070
   143
1040
0.039
1070
   172
1070
     1
1070
   271
1070
     0
1070
   279
1070
     0
1070
   288
1070
     1
1002
}
  0
DIMENSION
  5
7ECD
  8
3
  2
*D13
 10
3110.258862063813
 20
6431.9027449923788
 30
0.0
 11
3110.2588620638121
 21
6895.1953534050399
 31
0.0
 70
   128
 13
2717.4213007562771
 23
7321.9027449923778
 33
0.0
 14
2717.4213007562771
 24
6431.9027449923788
 34
0.0
 50
270.0
1001
ACAD
1000
DSTYLE
1002
{
1070
   287
1070
     3
1070
    40
1040
35.0
1070
   143
1040
0.039
1070
   172
1070
     1
1070
   271
1070
     0
1070
   279
1070
     0
1070
   288
1070
     1
1002
}
  0
DIMENSION
  5
7ED9
  8
3
  2
*D14
 10
3110.2588620638121
 20
5608.9027449923769
 30
0.0
 11
3022.7588620638112
 21
6020.4027449923797
 31
0.0
 70
     0
 13
2717.4213007562771
 23
6431.9027449923788
 33
0.0
 14
2437.4213007562771
 24
5608.9027449923769
 34
0.0
 50
270.0
1001
ACAD
1000
DSTYLE
1002
{
1070
   287
1070
     4
1070
    40
1040
35.0
1070
    75
1070
     1
1070
   143
1040
0.039
1070
   172
1070
     1
1070
   271
1070
     0
1070
   279
1070
     1
1070
   288
1070
     1
1002
}
  0
DIMENSION
  5
7EE7
  8
3
  2
*D15
 10
2437.4213007562771
 20
5196.7332850005332
 30
0.0
 11
2957.4213007562771
 21
5196.7332850005332
 31
0.0
 70
   128
 13
2717.4213007562771
 23
6431.9027449923788
 33
0.0
 14
2437.4213007562771
 24
5608.9027449923769
 34
0.0
1001
ACAD
1000
DSTYLE
1002
{
1070
   287
1070
     3
1070
    40
1040
35.0
1070
   143
1040
0.039
1070
   172
1070
     1
1070
   271
1070
     0
1070
   279
1070
     0
1070
   288
1070
     1
1002
}
  0
DIMENSION
  5
7EFF
  8
3
  2
*D16
 10
1152.4213007562771
 20
5196.7332850005332
 30
0.0
 11
1794.9213007562771
 21
5284.2332850005332
 31
0.0
 70
     0
 13
2437.4213007562771
 23
5608.9027449923769
 33
0.0
 14
1152.4213007562771
 24
5608.9027449923824
 34
0.0
1001
ACAD
1000
DSTYLE
1002
{
1070
   287
1070
     4
1070
    40
1040
35.0
1070
    75
1070
     1
1070
   143
1040
0.039
1070
   172
1070
     1
1070
   271
1070
     0
1070
   279
1070
     1
1070
   288
1070
     1
1002
}
  0
DIMENSION
  5
7F0D
  8
3
  2
*D17
 10
644.88609744824612
 20
6496.9027449923806
 30
0.0
 11
644.88609744824498
 21
6008.5178432890862
 31
0.0
 70
   128
 13
1152.4213007562771
 23
5608.9027449923824
 33
0.0
 14
1152.4213007562771
 24
6496.9027449923806
 34
0.0
 50
270.0
1001
ACAD
1000
DSTYLE
1002
{
1070
   287
1070
     3
1070
    40
1040
35.0
1070
   143
1040
0.039
1070
   172
1070
     1
1070
   271
1070
     0
1070
   279
1070
     0
1070
   288
1070
     1
1002
}
  0
LINE
  5
7F0E
  8
1
 10
1152.4213007562801
 20
6496.9027449923806
 30
0.0
 11
1467.4213007562771
 21
6496.9027449923806
 31
0.0
  0
LINE
  5
7F26
  8
1
 10
1467.4213007562771
 20
6501.9027449923778
 30
0.0
 11
1467.4213007562771
 21
6496.9027449923797
 31
0.0
  0
DIMENSION
  5
8123
  8
3
  2
*D19
 10
2092.4213007562762
 20
2270.1280382032201
 30
0.0
 11
1622.421300756276
 21
2357.6280382032201
 31
0.0
 70
     0
 13
1152.4213007562771
 23
2509.6576840602961
 33
0.0
 14
2092.4213007562762
 24
2509.6576840602961
 34
0.0
1001
ACAD
1000
DSTYLE
1002
{
1070
   287
1070
     3
1070
    40
1040
35.0
1070
   143
1040
0.039
1070
   172
1070
     1
1070
   271
1070
     0
1070
   279
1070
     0
1002
}
  0
DIMENSION
  5
8130
  8
3
  2
*D20
 10
2717.4213007562771
 20
2270.1280382032201
 30
0.0
 11
2404.9213007562762
 21
2357.6280382032201
 31
0.0
 70
     0
 13
2092.4213007562762
 23
2509.6576840602961
 33
0.0
 14
2717.4213007562771
 24
2509.6576840602961
 34
0.0
1001
ACAD
1000
DSTYLE
1002
{
1070
   287
1070
     3
1070
    40
1040
35.0
1070
   143
1040
0.039
1070
   172
1070
     1
1070
   271
1070
     0
1070
   279
1070
     0
1002
}
  0
DIMENSION
  5
814A
  8
3
  2
*D21
 10
5595.8516480335184
 20
2270.1280382032201
 30
0.0
 11
4961.8516480335193
 21
2357.6280382032201
 31
0.0
 70
     0
 13
4327.8516480335184
 23
2509.6576840602952
 33
0.0
 14
5595.8516480335184
 24
2509.6576840602952
 34
0.0
1001
ACAD
1000
DSTYLE
1002
{
1070
   287
1070
     3
1070
    40
1040
35.0
1070
   143
1040
0.039
1070
   172
1070
     1
1070
   271
1070
     0
1070
   279
1070
     0
1002
}
  0
DIMENSION
  5
8159
  8
3
  2
*D22
 10
6040.8516480335193
 20
2270.1280382032201
 30
0.0
 11
5818.3516480335193
 21
2357.6280382032201
 31
0.0
 70
     0
 13
5595.8516480335184
 23
2509.6576840602952
 33
0.0
 14
6040.8516480335193
 24
2509.6576840602952
 34
0.0
1001
ACAD
1000
DSTYLE
1002
{
1070
   287
1070
     3
1070
    40
1040
35.0
1070
   143
1040
0.039
1070
   172
1070
     1
1070
   271
1070
     0
1070
   279
1070
     0
1002
}
  0
LINE
  5
816F
  8
1
 10
1857.421300756276
 20
3469.6576840602952
 30
0.0
 11
2327.4213007562748
 21
3469.6576840602952
 31
0.0
  0
LINE
  5
8171
  8
1
 10
2327.4213007562748
 20
3469.6576840602952
 30
0.0
 11
2437.4213007562748
 21
2779.6576840602952
 31
0.0
  0
LINE
  5
8172
  8
1
 10
1857.4213007562751
 20
3469.6576840602952
 30
0.0
 11
1747.4213007562751
 21
2779.6576840602952
 31
0.0
  0
LINE
  5
8173
  8
1
 10
2327.4213007562771
 20
6403.9027449923788
 30
0.0
 11
2327.4213007562771
 21
5669.9027449923824
 31
0.0
  0
LINE
  5
8174
  8
1
 10
1857.4213007562771
 20
6403.902744992376
 30
0.0
 11
1857.4213007562771
 21
5669.9027449923788
 31
0.0
  0
LINE
  5
8176
  8
1
 10
4327.8516480335184
 20
2634.6576840602952
 30
0.0
 11
6040.8516480335193
 21
2634.6576840602952
 31
0.0
  0
LINE
  5
8177
  8
1
 10
4327.8516480335184
 20
2509.6576840602952
 30
0.0
 11
6040.8516480335193
 21
2509.6576840602952
 31
0.0
1001
ACAD
1000
ASC_BOUNDS
1002
{
1070
    19
1002
}
  0
LINE
  5
8178
  8
1
 10
6040.8516480335193
 20
2634.6576840602952
 30
0.0
 11
6040.8516480335193
 21
2509.6576840602952
 31
0.0
  0
LINE
  5
8179
  8
1
 10
5150.8516480335184
 20
2634.6576840602952
 30
0.0
 11
5150.8516480335184
 21
2509.6576840602952
 31
0.0
  0
LINE
  5
817A
  8
1
 10
4327.8516480335184
 20
2634.6576840602952
 30
0.0
 11
4327.8516480335184
 21
2509.6576840602952
 31
0.0
  0
LINE
  5
817B
  8
1
 10
1152.4213007562771
 20
2634.6576840602952
 30
0.0
 11
2717.4213007562771
 21
2634.6576840602961
 31
0.0
  0
LINE
  5
817C
  8
1
 10
2717.4213007562771
 20
2634.6576840602961
 30
0.0
 11
2717.4213007562771
 21
2509.6576840602961
 31
0.0
  0
LINE
  5
817D
  8
1
 10
1152.4213007562771
 20
2509.6576840602961
 30
0.0
 11
2717.4213007562771
 21
2509.6576840602961
 31
0.0
1001
ACAD
1000
ASC_BOUNDS
1002
{
1070
    19
1002
}
  0
LINE
  5
817E
  8
1
 10
2437.4213007562748
 20
2634.6576840602952
 30
0.0
 11
2437.4213007562748
 21
2509.6576840602961
 31
0.0
  0
LINE
  5
817F
  8
1
 10
1152.4213007562771
 20
2634.6576840602961
 30
0.0
 11
1152.4213007562771
 21
2509.6576840602961
 31
0.0
  0
DIMENSION
  5
818E
  8
3
  2
*D23
 10
3201.8566057397552
 20
2509.6576840602952
 30
0.0
 11
3114.3566057397538
 21
2209.6576840602961
 31
0.0
 70
     0
 13
2717.4213007562771
 23
2634.6576840602961
 33
0.0
 14
2717.4213007562771
 24
2509.6576840602961
 34
0.0
 50
90.0
1001
ACAD
1000
DSTYLE
1002
{
1070
   287
1070
     3
1070
    40
1040
35.0
1070
   143
1040
0.039
1070
   172
1070
     1
1070
   271
1070
     0
1070
   279
1070
     0
1070
     6
1000
DOT
1002
}
  0
DIMENSION
  5
819F
  8
3
  2
*D24
 10
3201.8566057397552
 20
2654.6576840602952
 30
0.0
 11
3414.3566057397538
 21
2777.9076840602961
 31
0.0
 70
     0
 13
2717.4213007562771
 23
2634.6576840602961
 33
0.0
 14
2717.4213007562771
 24
2654.6576840602961
 34
0.0
 50
90.0
1001
ACAD
1000
DSTYLE
1002
{
1070
   287
1070
     4
1070
     3
1000
(<>)
1070
    40
1040
35.0
1070
   143
1040
0.039
1070
   172
1070
     1
1070
   271
1070
     0
1070
   279
1070
     1
1070
     6
1000
DOT
1002
}
  0
DIMENSION
  5
81AC
  8
3
  2
*D25
 10
3602.277810868748
 20
2509.6576840602952
 30
0.0
 11
3487.277810868748
 21
3369.657684060297
 31
0.0
 70
     0
 13
2101.4213007562771
 23
4229.6576840602957
 33
0.0
 14
2717.4213007562771
 24
2509.6576840602961
 34
0.0
 50
90.0
1001
ACAD
1000
DSTYLE
1002
{
1070
   287
1070
     4
1070
     3
1000
(<>)
1070
    40
1040
35.0
1070
   143
1040
0.039
1070
   172
1070
     1
1070
   271
1070
     0
1070
   279
1070
     1
1002
}
  0
DIMENSION
  5
81C5
  8
3
  2
*D26
 10
6297.4655520259757
 20
3049.6576840602952
 30
0.0
 11
6209.9655520259757
 21
3549.6576840602961
 31
0.0
 70
     0
 13
5973.8516480335193
 23
4049.6576840602952
 33
0.0
 14
5973.8516480335184
 24
3049.6576840602952
 34
0.0
 50
90.0
1001
ACAD
1000
DSTYLE
1002
{
1070
   287
1070
     4
1070
     3
1000
φ<>
1070
    40
1040
35.0
1070
   143
1040
0.039
1070
   172
1070
     1
1070
   271
1070
     0
1070
   279
1070
     1
1002
}
  0
ENDSEC
  0
EOF
