  0
SECTION
  2
HEADER
  9
$ACADVER
  1
AC1009
  9
$INSBASE
 10
0.0
 20
0.0
 30
0.0
  9
$EXTMIN
 10
0.0
 20
0.0
 30
0.0
  9
$EXTMAX
 10
7350.0
 20
10325.0
 30
0.0
  9
$LIMMIN
 10
0.0
 20
0.0
  9
$LIMMAX
 10
297.0
 20
210.0
  9
$ORTHOMODE
 70
     0
  9
$REGENMODE
 70
     1
  9
$FILLMODE
 70
     0
  9
$QTEXTMODE
 70
     0
  9
$MIRRTEXT
 70
     1
  9
$DRAGMODE
 70
     2
  9
$LTSCALE
 40
100.0
  9
$OSMODE
 70
    37
  9
$ATTMODE
 70
     1
  9
$TEXTSIZE
 40
180.0
  9
$TRACEWID
 40
0.05
  9
$TEXTSTYLE
  7
STANDARD
  9
$CLAYER
  8
3
  9
$CELTYPE
  6
BYLAYER
  9
$CECOLOR
 62
   256
  9
$DIMSCALE
 40
35.0
  9
$DIMASZ
 40
2.0
  9
$DIMEXO
 40
0.5
  9
$DIMDLI
 40
10.0
  9
$DIMRND
 40
0.0
  9
$DIMDLE
 40
0.0
  9
$DIMEXE
 40
1.0
  9
$DIMTP
 40
1.0
  9
$DIMTM
 40
1.0
  9
$DIMTXT
 40
3.0
  9
$DIMCEN
 40
0.0
  9
$DIMTSZ
 40
0.0
  9
$DIMTOL
 70
     0
  9
$DIMLIM
 70
     0
  9
$DIMTIH
 70
     0
  9
$DIMTOH
 70
     0
  9
$DIMSE1
 70
     0
  9
$DIMSE2
 70
     0
  9
$DIMTAD
 70
     1
  9
$DIMZIN
 70
     8
  9
$DIMBLK
  1

  9
$DIMASO
 70
     1
  9
$DIMSHO
 70
     1
  9
$DIMPOST
  1
φ<>
  9
$DIMAPOST
  1

  9
$DIMALT
 70
     0
  9
$DIMALTD
 70
     2
  9
$DIMALTF
 40
0.039
  9
$DIMLFAC
 40
1.0
  9
$DIMTOFL
 70
     1
  9
$DIMTVP
 40
0.0
  9
$DIMTIX
 70
     0
  9
$DIMSOXD
 70
     0
  9
$DIMSAH
 70
     1
  9
$DIMBLK1
  1
OPEN
  9
$DIMBLK2
  1
OPEN
  9
$DIMSTYLE
  2
IGA
  9
$DIMCLRD
 70
     0
  9
$DIMCLRE
 70
     0
  9
$DIMCLRT
 70
     0
  9
$DIMTFAC
 40
10.0
  9
$DIMGAP
 40
1.0
  9
$LUNITS
 70
     2
  9
$LUPREC
 70
     3
  9
$SKETCHINC
 40
0.1
  9
$FILLETRAD
 40
50.0
  9
$AUNITS
 70
     0
  9
$AUPREC
 70
     0
  9
$MENU
  1
acad
  9
$ELEVATION
 40
0.0
  9
$PELEVATION
 40
0.0
  9
$THICKNESS
 40
0.0
  9
$LIMCHECK
 70
     0
  9
$BLIPMODE
 70
     0
  9
$CHAMFERA
 40
0.5
  9
$CHAMFERB
 40
0.5
  9
$SKPOLY
 70
     0
  9
$TDCREATE
 40
2452779.654074884
  9
$TDUPDATE
 40
2454953.6456477782
  9
$TDINDWG
 40
0.0252601852
  9
$TDUSRTIMER
 40
0.0252601852
  9
$USRTIMER
 70
     1
  9
$ANGBASE
 50
0.0
  9
$ANGDIR
 70
     0
  9
$PDMODE
 70
     0
  9
$PDSIZE
 40
0.0
  9
$PLINEWID
 40
0.0
  9
$COORDS
 70
     1
  9
$SPLFRAME
 70
     0
  9
$SPLINETYPE
 70
     6
  9
$SPLINESEGS
 70
     8
  9
$ATTDIA
 70
     0
  9
$ATTREQ
 70
     1
  9
$HANDLING
 70
 10241
  9
$HANDSEED
  5
8300
  9
$SURFTAB1
 70
     6
  9
$SURFTAB2
 70
     6
  9
$SURFTYPE
 70
     6
  9
$SURFU
 70
     6
  9
$SURFV
 70
     6
  9
$UCSNAME
  2

  9
$UCSORG
 10
0.0
 20
0.0
 30
0.0
  9
$UCSXDIR
 10
1.0
 20
0.0
 30
0.0
  9
$UCSYDIR
 10
0.0
 20
1.0
 30
0.0
  9
$PUCSNAME
  2

  9
$PUCSORG
 10
0.0
 20
0.0
 30
0.0
  9
$PUCSXDIR
 10
1.0
 20
0.0
 30
0.0
  9
$PUCSYDIR
 10
0.0
 20
1.0
 30
0.0
  9
$USERI1
 70
     0
  9
$USERI2
 70
     0
  9
$USERI3
 70
     0
  9
$USERI4
 70
     0
  9
$USERI5
 70
     0
  9
$USERR1
 40
0.0
  9
$USERR2
 40
0.0
  9
$USERR3
 40
0.0
  9
$USERR4
 40
0.0
  9
$USERR5
 40
0.0
  9
$WORLDVIEW
 70
     1
  9
$SHADEDGE
 70
     3
  9
$SHADEDIF
 70
    70
  9
$TILEMODE
 70
     1
  9
$MAXACTVP
 70
    16
  9
$PLIMCHECK
 70
     0
  9
$PEXTMIN
 10
1.0000000000000000E+020
 20
1.0000000000000000E+020
 30
1.0000000000000000E+020
  9
$PEXTMAX
 10
-1.0000000000000000E+020
 20
-1.0000000000000000E+020
 30
-1.0000000000000000E+020
  9
$PLIMMIN
 10
0.0
 20
0.0
  9
$PLIMMAX
 10
12.0
 20
9.0
  9
$UNITMODE
 70
     0
  9
$VISRETAIN
 70
     0
  9
$PLINEGEN
 70
     0
  9
$PSLTSCALE
 70
     1
  0
ENDSEC
  0
SECTION
  2
TABLES
  0
TABLE
  2
VPORT
 70
     2
  0
VPORT
  2
*ACTIVE
 70
     0
 10
0.0
 20
0.0
 11
1.0
 21
1.0
 12
6931.6907083859542
 22
1117.0806702786349
 13
0.0
 23
0.0
 14
10.0
 24
10.0
 15
10.0
 25
10.0
 16
0.0
 26
0.0
 36
1.0
 17
0.0
 27
0.0
 37
0.0
 40
3066.2945573643051
 41
3.1666666666666661
 42
50.0
 43
0.0
 44
0.0
 50
0.0
 51
0.0
 71
     0
 72
   100
 73
     1
 74
     0
 75
     0
 76
     0
 77
     0
 78
     0
  0
ENDTAB
  0
TABLE
  2
LTYPE
 70
     2
  0
LTYPE
  2
CONTINUOUS
 70
     0
  3
Solid line
 72
    65
 73
     0
 40
0.0
  0
LTYPE
  2
CENTER
 70
     0
  3
____ _ ____ _ ____ _ ____ _ ____ _ ____ _ ____ 
 72
    65
 73
     4
 40
2.0
 49
1.25
 49
-0.25
 49
0.25
 49
-0.25
  0
ENDTAB
  0
TABLE
  2
LAYER
 70
     6
  0
LAYER
  2
0
 70
     0
 62
     7
  6
CONTINUOUS
  0
LAYER
  2
3
 70
     0
 62
     2
  6
CONTINUOUS
  0
LAYER
  2
2
 70
     0
 62
     3
  6
CENTER
  0
LAYER
  2
1
 70
     0
 62
     4
  6
CONTINUOUS
  0
LAYER
  2
4
 70
     0
 62
     7
  6
CONTINUOUS
  0
LAYER
  2
DEFPOINTS
 70
     0
 62
     7
  6
CONTINUOUS
  0
ENDTAB
  0
TABLE
  2
STYLE
 70
     1
  0
STYLE
  2
STANDARD
 70
     0
 40
0.0
 41
1.0
 50
0.0
 71
     0
 42
180.0
  3
simplex.shx
  4
extfont.shx
  0
ENDTAB
  0
TABLE
  2
VIEW
 70
     0
  0
ENDTAB
  0
TABLE
  2
UCS
 70
     0
  0
ENDTAB
  0
TABLE
  2
APPID
 70
     1
  0
APPID
  2
ACAD
 70
     0
  0
ENDTAB
  0
TABLE
  2
DIMSTYLE
 70
     1
  0
DIMSTYLE
  2
IGA
 70
     0
  3

  4

  5

  6
OPEN
  7
OPEN
 40
2.0
 41
2.0
 42
0.5
 43
10.0
 44
1.0
 45
0.0
 46
0.0
 47
1.0
 48
1.0
140
3.0
141
0.0
142
0.0
143
0.03937
144
1.0
145
0.0
146
10.0
147
1.0
 71
     0
 72
     0
 73
     0
 74
     0
 75
     0
 76
     0
 77
     1
 78
     8
170
     0
171
     2
172
     0
173
     1
174
     0
175
     0
176
     0
177
     0
178
     0
  0
ENDTAB
  0
ENDSEC
  0
SECTION
  2
BLOCKS
  0
BLOCK
  8
0
  2
$MODEL_SPACE
 70
     0
 10
0.0
 20
0.0
 30
0.0
  3
$MODEL_SPACE
  1

  0
ENDBLK
  5
1B
  8
0
  0
BLOCK
 67
     1
  8
0
  2
$PAPER_SPACE
 70
     0
 10
0.0
 20
0.0
 30
0.0
  3
$PAPER_SPACE
  1

  0
ENDBLK
  5
18
 67
     1
  8
0
  0
BLOCK
  8
0
  2
YA_N
 70
     0
 10
0.0
 20
0.0
 30
0.0
  3
YA_N
  1

  0
ENDBLK
  5
7B50
  8
0
  0
BLOCK
  8
0
  2
_OPEN
 70
     0
 10
0.0
 20
0.0
 30
0.0
  3
_OPEN
  1

  0
LINE
  5
7D93
  8
0
  6
BYBLOCK
 62
     0
 10
-1.0
 20
0.1666666666666666
 30
0.0
 11
0.0
 21
0.0
 31
0.0
  0
LINE
  5
7D94
  8
0
  6
BYBLOCK
 62
     0
 10
0.0
 20
0.0
 30
0.0
 11
-1.0
 21
-0.1666666666666666
 31
0.0
  0
LINE
  5
7D95
  8
0
  6
BYBLOCK
 62
     0
 10
0.0
 20
0.0
 30
0.0
 11
-1.0
 21
0.0
 31
0.0
  0
ENDBLK
  5
7D96
  8
0
  0
BLOCK
  8
0
  2
*D2
 70
     1
 10
0.0
 20
0.0
 30
0.0
  3
*D2
  1

  0
LINE
  5
8210
  8
3
 62
     0
 10
3022.100216056514
 20
7609.5478776188766
 30
0.0
 11
3022.100216056514
 21
7910.0585764809948
 31
0.0
  0
LINE
  5
8211
  8
3
 62
     0
 10
1772.100216056514
 20
7609.5478776188738
 30
0.0
 11
1772.100216056514
 21
7910.0585764809948
 31
0.0
  0
LINE
  5
8212
  8
3
 62
     0
 10
2952.100216056514
 20
7875.0585764809948
 30
0.0
 11
1842.1002160565149
 21
7875.0585764809948
 31
0.0
  0
INSERT
  5
8213
  8
3
 62
     0
  2
_OPEN
 10
3022.100216056514
 20
7875.0585764809948
 30
0.0
 41
70.0
 42
70.0
 43
70.0
  0
INSERT
  5
8214
  8
3
 62
     0
  2
_OPEN
 10
1772.100216056514
 20
7875.0585764809948
 30
0.0
 41
70.0
 42
70.0
 43
70.0
 50
180.0
  0
TEXT
  8
3
  40
105
  5
82E8
  62
0
  72
0
  71
0
 10
2166.69
 20
7776.71
 30
0.000000
  1
1250
  0
POINT
  5
8216
  8
DEFPOINTS
 62
     0
 10
3022.100216056514
 20
7592.0478776188784
 30
0.0
  0
POINT
  5
8217
  8
DEFPOINTS
 62
     0
 10
1772.100216056514
 20
7592.0478776188738
 30
0.0
  0
POINT
  5
8218
  8
DEFPOINTS
 62
     0
 10
1772.100216056514
 20
7875.0585764809948
 30
0.0
  0
ENDBLK
  5
8081
  8
0
  0
BLOCK
  8
0
  2
*D3
 70
     1
 10
0.0
 20
0.0
 30
0.0
  3
*D3
  1

  0
LINE
  5
8219
  8
3
 62
     0
 10
1754.600216056514
 20
7592.0478776188738
 30
0.0
 11
1291.883573129352
 21
7592.0478776188738
 31
0.0
  0
LINE
  5
821A
  8
3
 62
     0
 10
1754.600216056514
 20
6702.0478776188747
 30
0.0
 11
1291.883573129352
 21
6702.0478776188747
 31
0.0
  0
LINE
  5
821B
  8
3
 62
     0
 10
1326.883573129352
 20
7522.0478776188738
 30
0.0
 11
1326.883573129352
 21
6772.0478776188747
 31
0.0
  0
INSERT
  5
821C
  8
3
 62
     0
  2
_OPEN
 10
1326.883573129352
 20
7592.0478776188738
 30
0.0
 41
70.0
 42
70.0
 43
70.0
 50
90.0
  0
INSERT
  5
821D
  8
3
 62
     0
  2
_OPEN
 10
1326.883573129352
 20
6702.0478776188747
 30
0.0
 41
70.0
 42
70.0
 43
70.0
 50
270.0
  0
TEXT
  8
3
  40
105
  5
82E9
  62
0
  72
0
  71
0
 10
1029.38
 20
6966.10
 30
0.000000
  1
890
  0
POINT
  5
821F
  8
DEFPOINTS
 62
     0
 10
1772.100216056514
 20
7592.0478776188738
 30
0.0
  0
POINT
  5
8220
  8
DEFPOINTS
 62
     0
 10
1772.100216056514
 20
6702.0478776188747
 30
0.0
  0
POINT
  5
8221
  8
DEFPOINTS
 62
     0
 10
1326.883573129352
 20
6702.0478776188747
 30
0.0
  0
ENDBLK
  5
8096
  8
0
  0
BLOCK
  8
0
  2
*D4
 70
     1
 10
0.0
 20
0.0
 30
0.0
  3
*D4
  1

  0
LINE
  5
8222
  8
3
 62
     0
 10
3337.100216056514
 20
5861.5478776188756
 30
0.0
 11
3337.100216056514
 21
5343.0318328217581
 31
0.0
  0
LINE
  5
8223
  8
3
 62
     0
 10
2052.1002160565149
 20
5861.5478776188738
 30
0.0
 11
2052.1002160565149
 21
5343.0318328217581
 31
0.0
  0
LINE
  5
8224
  8
3
 62
     0
 10
3267.1002160565149
 20
5378.0318328217581
 30
0.0
 11
2122.100216056514
 21
5378.0318328217581
 31
0.0
  0
INSERT
  5
8225
  8
3
 62
     0
  2
_OPEN
 10
3337.100216056514
 20
5378.0318328217581
 30
0.0
 41
70.0
 42
70.0
 43
70.0
  0
INSERT
  5
8226
  8
3
 62
     0
  2
_OPEN
 10
2052.1002160565149
 20
5378.0318328217581
 30
0.0
 41
70.0
 42
70.0
 43
70.0
 50
180.0
  0
TEXT
  8
3
  40
105
  5
82EA
  62
0
  72
0
  71
0
 10
2494.93
 20
5279.68
 30
0.000000
  1
1285
  0
POINT
  5
8228
  8
DEFPOINTS
 62
     0
 10
3337.100216056514
 20
5879.0478776188766
 30
0.0
  0
POINT
  5
8229
  8
DEFPOINTS
 62
     0
 10
2052.1002160565149
 20
5879.0478776188738
 30
0.0
  0
POINT
  5
822A
  8
DEFPOINTS
 62
     0
 10
2052.1002160565149
 20
5378.0318328217581
 30
0.0
  0
ENDBLK
  5
8076
  8
0
  0
BLOCK
  8
0
  2
*D5
 70
     1
 10
0.0
 20
0.0
 30
0.0
  3
*D5
  1

  0
LINE
  5
822B
  8
3
 62
     0
 10
2052.1002160565149
 20
5861.5478776188738
 30
0.0
 11
2052.1002160565149
 21
5343.0318328217581
 31
0.0
  0
LINE
  5
822C
  8
3
 62
     0
 10
1772.100216056514
 20
6684.5478776188747
 30
0.0
 11
1772.100216056514
 21
5343.0318328217581
 31
0.0
  0
LINE
  5
822D
  8
3
 62
     0
 10
1982.1002160565149
 20
5378.0318328217581
 30
0.0
 11
1842.1002160565149
 21
5378.0318328217581
 31
0.0
  0
LINE
  5
822E
  8
3
 62
     0
 10
1772.100216056514
 20
5378.0318328217581
 30
0.0
 11
1362.100216056514
 21
5378.0318328217581
 31
0.0
  0
INSERT
  5
822F
  8
3
 62
     0
  2
_OPEN
 10
2052.1002160565149
 20
5378.0318328217581
 30
0.0
 41
70.0
 42
70.0
 43
70.0
  0
INSERT
  5
8230
  8
3
 62
     0
  2
_OPEN
 10
1772.100216056514
 20
5378.0318328217581
 30
0.0
 41
70.0
 42
70.0
 43
70.0
 50
180.0
  0
TEXT
  8
3
  40
105
  5
82EB
  62
0
  72
0
  71
0
 10
1322.10
 20
5279.68
 30
0.000000
  1
280
  0
POINT
  5
8232
  8
DEFPOINTS
 62
     0
 10
2052.1002160565149
 20
5879.0478776188738
 30
0.0
  0
POINT
  5
8233
  8
DEFPOINTS
 62
     0
 10
1772.100216056514
 20
6702.0478776188747
 30
0.0
  0
POINT
  5
8234
  8
DEFPOINTS
 62
     0
 10
1772.100216056514
 20
5378.0318328217581
 30
0.0
  0
ENDBLK
  5
80AC
  8
0
  0
BLOCK
  8
0
  2
*D6
 70
     1
 10
0.0
 20
0.0
 30
0.0
  3
*D6
  1

  0
LINE
  5
8235
  8
3
 62
     0
 10
3354.6002160565149
 20
6767.0478776188766
 30
0.0
 11
3573.3371080550792
 21
6767.0478776188766
 31
0.0
  0
LINE
  5
8236
  8
3
 62
     0
 10
3354.6002160565149
 20
5879.0478776188766
 30
0.0
 11
3573.3371080550792
 21
5879.0478776188766
 31
0.0
  0
LINE
  5
8237
  8
3
 62
     0
 10
3538.3371080550792
 20
6697.0478776188766
 30
0.0
 11
3538.3371080550792
 21
5949.0478776188766
 31
0.0
  0
INSERT
  5
8238
  8
3
 62
     0
  2
_OPEN
 10
3538.3371080550792
 20
6767.0478776188766
 30
0.0
 41
70.0
 42
70.0
 43
70.0
 50
90.0
  0
INSERT
  5
8239
  8
3
 62
     0
  2
_OPEN
 10
3538.3371080550792
 20
5879.0478776188766
 30
0.0
 41
70.0
 42
70.0
 43
70.0
 50
270.0
  0
TEXT
  8
3
  40
105
  5
82EC
  62
0
  72
0
  71
0
 10
3240.84
 20
6087.15
 30
0.000000
  1
888
  0
POINT
  5
823B
  8
DEFPOINTS
 62
     0
 10
3337.100216056514
 20
6767.0478776188766
 30
0.0
  0
POINT
  5
823C
  8
DEFPOINTS
 62
     0
 10
3337.100216056514
 20
5879.0478776188766
 30
0.0
  0
POINT
  5
823D
  8
DEFPOINTS
 62
     0
 10
3538.3371080550792
 20
5879.0478776188766
 30
0.0
  0
ENDBLK
  5
806B
  8
0
  0
BLOCK
  8
0
  2
*D7
 70
     1
 10
0.0
 20
0.0
 30
0.0
  3
*D7
  1

  0
LINE
  5
8083
  8
0
  6
BYBLOCK
 62
     0
 10
3337.100216056514
 20
6784.5478776188766
 30
0.0
 11
3337.100216056514
 21
7910.0585764809948
 31
0.0
  0
LINE
  5
8084
  8
0
  6
BYBLOCK
 62
     0
 10
3092.1002160565149
 20
7875.0585764809948
 30
0.0
 11
3267.1002160565149
 21
7875.0585764809948
 31
0.0
  0
TEXT
  5
8085
  8
3
 62
     0
 10
3054.6002160565149
 20
7962.5585764809948
 30
0.0
 40
105.0
  1
315
  0
INSERT
  5
8086
  8
0
  6
BYBLOCK
 62
     0
  2
_OPEN
 10
3022.100216056514
 20
7875.0585764809948
 30
0.0
 41
70.0
 42
70.0
 43
70.0
 50
180.0
  0
INSERT
  5
8087
  8
0
  6
BYBLOCK
 62
     0
  2
_OPEN
 10
3337.100216056514
 20
7875.0585764809948
 30
0.0
 41
70.0
 42
70.0
 43
70.0
  0
POINT
  5
8088
  8
DEFPOINTS
  6
BYBLOCK
 62
     0
 10
3022.100216056514
 20
7592.0478776188784
 30
0.0
  0
POINT
  5
8089
  8
DEFPOINTS
  6
BYBLOCK
 62
     0
 10
3337.100216056514
 20
6767.0478776188766
 30
0.0
  0
POINT
  5
808A
  8
DEFPOINTS
  6
BYBLOCK
 62
     0
 10
3337.100216056514
 20
7875.0585764809948
 30
0.0
  0
ENDBLK
  5
808B
  8
0
  0
BLOCK
  8
0
  2
*D8
 70
     1
 10
0.0
 20
0.0
 30
0.0
  3
*D8
  1

  0
LINE
  5
823E
  8
3
 62
     0
 10
1717.1002160565149
 20
4366.0317812317144
 30
0.0
 11
1717.1002160565149
 21
4610.4046228858451
 31
0.0
  0
LINE
  5
823F
  8
3
 62
     0
 10
2397.1002160565158
 20
4403.9476735721537
 30
0.0
 11
2397.1002160565158
 21
4610.4046228858451
 31
0.0
  0
LINE
  5
8240
  8
3
 62
     0
 10
1787.1002160565149
 20
4575.404622885846
 30
0.0
 11
2327.1002160565158
 21
4575.404622885846
 31
0.0
  0
INSERT
  5
8241
  8
3
 62
     0
  2
_OPEN
 10
1717.1002160565149
 20
4575.404622885846
 30
0.0
 41
70.0
 42
70.0
 43
70.0
 50
180.0
  0
INSERT
  5
8242
  8
3
 62
     0
  2
_OPEN
 10
2397.1002160565158
 20
4575.404622885846
 30
0.0
 41
70.0
 42
70.0
 43
70.0
  0
TEXT
  8
3
  40
105
  5
82ED
  62
0
  72
0
  71
0
 10
1871.72
 20
4477.05
 30
0.000000
  1
680
  0
POINT
  5
8244
  8
DEFPOINTS
 62
     0
 10
1717.1002160565149
 20
4348.5317812317126
 30
0.0
  0
POINT
  5
8245
  8
DEFPOINTS
 62
     0
 10
2397.1002160565158
 20
4386.4476735721537
 30
0.0
  0
POINT
  5
8246
  8
DEFPOINTS
 62
     0
 10
2397.1002160565158
 20
4575.404622885846
 30
0.0
  0
ENDBLK
  5
80E5
  8
0
  0
BLOCK
  8
0
  2
*D9
 70
     1
 10
0.0
 20
0.0
 30
0.0
  3
*D9
  1

  0
LINE
  5
8247
  8
3
 62
     0
 10
3265.1002160565149
 20
3313.0317812317139
 30
0.0
 11
3265.1002160565149
 21
4610.4046228858451
 31
0.0
  0
LINE
  5
8248
  8
3
 62
     0
 10
2467.1002160565158
 20
4575.404622885846
 30
0.0
 11
3195.100216056514
 21
4575.404622885846
 31
0.0
  0
INSERT
  5
8249
  8
3
 62
     0
  2
_OPEN
 10
2397.1002160565158
 20
4575.404622885846
 30
0.0
 41
70.0
 42
70.0
 43
70.0
 50
180.0
  0
INSERT
  5
824A
  8
3
 62
     0
  2
_OPEN
 10
3265.1002160565149
 20
4575.404622885846
 30
0.0
 41
70.0
 42
70.0
 43
70.0
  0
TEXT
  8
3
  40
105
  5
82EE
  62
0
  72
0
  71
0
 10
2621.10
 20
4477.05
 30
0.000000
  1
868
  0
POINT
  5
824C
  8
DEFPOINTS
 62
     0
 10
2397.1002160565158
 20
4386.4476735721537
 30
0.0
  0
POINT
  5
824D
  8
DEFPOINTS
 62
     0
 10
3265.1002160565149
 20
3295.531781231713
 30
0.0
  0
POINT
  5
824E
  8
DEFPOINTS
 62
     0
 10
3265.1002160565149
 20
4575.404622885846
 30
0.0
  0
ENDBLK
  5
80EF
  8
0
  0
BLOCK
  8
0
  2
*D10
 70
     1
 10
0.0
 20
0.0
 30
0.0
  3
*D10
  1

  0
LINE
  5
824F
  8
3
 62
     0
 10
1699.600216056514
 20
4295.5317812317126
 30
0.0
 11
1428.3072601787501
 21
4295.5317812317126
 31
0.0
  0
LINE
  5
8250
  8
3
 62
     0
 10
1699.600216056514
 20
3265.531781231713
 30
0.0
 11
1428.3072601787501
 21
3265.531781231713
 31
0.0
  0
LINE
  5
8251
  8
3
 62
     0
 10
1463.3072601787501
 20
4225.5317812317144
 30
0.0
 11
1463.3072601787501
 21
3335.5317812317139
 31
0.0
  0
INSERT
  5
8252
  8
3
 62
     0
  2
_OPEN
 10
1463.3072601787501
 20
4295.5317812317126
 30
0.0
 41
70.0
 42
70.0
 43
70.0
 50
90.0
  0
INSERT
  5
8253
  8
3
 62
     0
  2
_OPEN
 10
1463.3072601787501
 20
3265.531781231713
 30
0.0
 41
70.0
 42
70.0
 43
70.0
 50
270.0
  0
TEXT
  8
3
  40
105
  5
82EF
  62
0
  72
0
  71
0
 10
1165.81
 20
3631.15
 30
0.000000
  1
1030
  0
POINT
  5
8255
  8
DEFPOINTS
 62
     0
 10
1717.1002160565149
 20
4295.5317812317126
 30
0.0
  0
POINT
  5
8256
  8
DEFPOINTS
 62
     0
 10
1717.1002160565149
 20
3265.531781231713
 30
0.0
  0
POINT
  5
8257
  8
DEFPOINTS
 62
     0
 10
1463.3072601787501
 20
3265.531781231713
 30
0.0
  0
ENDBLK
  5
8110
  8
0
  0
BLOCK
  8
0
  2
*D11
 70
     1
 10
0.0
 20
0.0
 30
0.0
  3
*D11
  1

  0
LINE
  5
8258
  8
3
 62
     0
 10
1682.1002160565149
 20
4295.5317812317126
 30
0.0
 11
1210.4583929871451
 21
4295.5317812317126
 31
0.0
  0
LINE
  5
8259
  8
3
 62
     0
 10
1639.9842335588869
 20
3221.5317812317139
 30
0.0
 11
1210.458392987144
 21
3221.5317812317139
 31
0.0
  0
LINE
  5
825A
  8
3
 62
     0
 10
1245.4583929871451
 20
4225.5317812317144
 30
0.0
 11
1245.458392987144
 21
3291.531781231713
 31
0.0
  0
INSERT
  5
825B
  8
3
 62
     0
  2
_OPEN
 10
1245.4583929871451
 20
4295.5317812317126
 30
0.0
 41
70.0
 42
70.0
 43
70.0
 50
90.0
  0
INSERT
  5
825C
  8
3
 62
     0
  2
_OPEN
 10
1245.458392987144
 20
3221.5317812317139
 30
0.0
 41
70.0
 42
70.0
 43
70.0
 50
270.0
  0
TEXT
  8
3
  40
105
  5
82F0
  62
0
  72
0
  71
0
 10
947.958
 20
3673.28
 30
0.000000
  1
1074
  0
POINT
  5
825E
  8
DEFPOINTS
 62
     0
 10
1699.600216056514
 20
4295.5317812317126
 30
0.0
  0
POINT
  5
825F
  8
DEFPOINTS
 62
     0
 10
1657.4842335588869
 20
3221.5317812317139
 30
0.0
  0
POINT
  5
8260
  8
DEFPOINTS
 62
     0
 10
1245.458392987144
 20
3221.5317812317139
 30
0.0
  0
ENDBLK
  5
8105
  8
0
  0
BLOCK
  8
0
  2
*D12
 70
     1
 10
0.0
 20
0.0
 30
0.0
  3
*D12
  1

  0
LINE
  5
8261
  8
3
 62
     0
 10
1754.600216056514
 20
2471.5317812317148
 30
0.0
 11
1210.458392987144
 21
2471.5317812317148
 31
0.0
  0
LINE
  5
8262
  8
3
 62
     0
 10
1245.458392987144
 20
3151.531781231713
 30
0.0
 11
1245.458392987144
 21
2541.5317812317148
 31
0.0
  0
INSERT
  5
8263
  8
3
 62
     0
  2
_OPEN
 10
1245.458392987144
 20
3221.5317812317139
 30
0.0
 41
70.0
 42
70.0
 43
70.0
 50
90.0
  0
INSERT
  5
8264
  8
3
 62
     0
  2
_OPEN
 10
1245.458392987144
 20
2471.5317812317148
 30
0.0
 41
70.0
 42
70.0
 43
70.0
 50
270.0
  0
TEXT
  8
3
  40
105
  5
82F1
  62
0
  72
0
  71
0
 10
947.958
 20
2660.68
 30
0.000000
  1
750
  0
POINT
  5
8266
  8
DEFPOINTS
 62
     0
 10
1657.4842335588869
 20
3221.5317812317139
 30
0.0
  0
POINT
  5
8267
  8
DEFPOINTS
 62
     0
 10
1772.100216056514
 20
2471.5317812317148
 30
0.0
  0
POINT
  5
8268
  8
DEFPOINTS
 62
     0
 10
1245.458392987144
 20
2471.5317812317148
 30
0.0
  0
ENDBLK
  5
811A
  8
0
  0
BLOCK
  8
0
  2
*D13
 70
     1
 10
0.0
 20
0.0
 30
0.0
  3
*D13
  1

  0
LINE
  5
8269
  8
3
 62
     0
 10
5418.3135360545612
 20
4313.0317812317144
 30
0.0
 11
5418.3135360545612
 21
4519.0100562860571
 31
0.0
  0
LINE
  5
826A
  8
3
 62
     0
 10
6168.3135360545612
 20
4313.0317812317144
 30
0.0
 11
6168.3135360545612
 21
4519.0100562860571
 31
0.0
  0
LINE
  5
826B
  8
3
 62
     0
 10
5488.3135360545602
 20
4484.0100562860571
 30
0.0
 11
6098.3135360545602
 21
4484.0100562860571
 31
0.0
  0
INSERT
  5
826C
  8
3
 62
     0
  2
_OPEN
 10
5418.3135360545612
 20
4484.0100562860571
 30
0.0
 41
70.0
 42
70.0
 43
70.0
 50
180.0
  0
INSERT
  5
826D
  8
3
 62
     0
  2
_OPEN
 10
6168.3135360545612
 20
4484.0100562860571
 30
0.0
 41
70.0
 42
70.0
 43
70.0
  0
TEXT
  8
3
  40
105
  5
82F2
  62
0
  72
0
  71
0
 10
5584.68
 20
4385.66
 30
0.000000
  1
750
  0
POINT
  5
826F
  8
DEFPOINTS
 62
     0
 10
5418.3135360545612
 20
4295.5317812317153
 30
0.0
  0
POINT
  5
8270
  8
DEFPOINTS
 62
     0
 10
6168.3135360545612
 20
4295.5317812317153
 30
0.0
  0
POINT
  5
8271
  8
DEFPOINTS
 62
     0
 10
6168.3135360545612
 20
4484.0100562860571
 30
0.0
  0
ENDBLK
  5
7F46
  8
0
  0
BLOCK
  8
0
  2
*D14
 70
     1
 10
0.0
 20
0.0
 30
0.0
  3
*D14
  1

  0
LINE
  5
8272
  8
3
 62
     0
 10
6171.3135360545612
 20
4366.0317812317144
 30
0.0
 11
6171.3135360545612
 21
4806.386249902931
 31
0.0
  0
LINE
  5
8273
  8
3
 62
     0
 10
5793.3135360545612
 20
4678.8295487321593
 30
0.0
 11
5793.3135360545612
 21
4806.386249902931
 31
0.0
  0
LINE
  5
8274
  8
3
 62
     0
 10
6241.3135360545602
 20
4771.3862499029301
 30
0.0
 11
6311.3135360545602
 21
4771.3862499029301
 31
0.0
  0
LINE
  5
8275
  8
3
 62
     0
 10
5723.3135360545602
 20
4771.3862499029301
 30
0.0
 11
5653.3135360545602
 21
4771.3862499029301
 31
0.0
  0
LINE
  5
8276
  8
3
 62
     0
 10
6171.3135360545612
 20
4771.3862499029301
 30
0.0
 11
5793.3135360545612
 21
4771.3862499029301
 31
0.0
  0
INSERT
  5
8277
  8
3
 62
     0
  2
_OPEN
 10
6171.3135360545612
 20
4771.3862499029301
 30
0.0
 41
70.0
 42
70.0
 43
70.0
 50
180.0
  0
INSERT
  5
8278
  8
3
 62
     0
  2
_OPEN
 10
5793.3135360545612
 20
4771.3862499029301
 30
0.0
 41
70.0
 42
70.0
 43
70.0
  0
TEXT
  8
3
  40
105
  5
82F3
  62
0
  72
0
  71
0
 10
5772.31
 20
4673.04
 30
0.000000
  1
378
  0
POINT
  5
827A
  8
DEFPOINTS
 62
     0
 10
6171.3135360545612
 20
4348.5317812317144
 30
0.0
  0
POINT
  5
827B
  8
DEFPOINTS
 62
     0
 10
5793.3135360545612
 20
4661.3295487321593
 30
0.0
  0
POINT
  5
827C
  8
DEFPOINTS
 62
     0
 10
5793.3135360545612
 20
4771.3862499029301
 30
0.0
  0
ENDBLK
  5
7F74
  8
0
  0
BLOCK
  8
0
  2
*D15
 70
     1
 10
0.0
 20
0.0
 30
0.0
  3
*D15
  1

  0
LINE
  5
827D
  8
3
 62
     0
 10
4376.3135360545602
 20
3519.0317812317139
 30
0.0
 11
4376.3135360545602
 21
4806.386249902931
 31
0.0
  0
LINE
  5
827E
  8
3
 62
     0
 10
5723.3135360545602
 20
4771.3862499029301
 30
0.0
 11
4446.3135360545593
 21
4771.3862499029301
 31
0.0
  0
INSERT
  5
827F
  8
3
 62
     0
  2
_OPEN
 10
5793.3135360545612
 20
4771.3862499029301
 30
0.0
 41
70.0
 42
70.0
 43
70.0
  0
INSERT
  5
8280
  8
3
 62
     0
  2
_OPEN
 10
4376.3135360545602
 20
4771.3862499029301
 30
0.0
 41
70.0
 42
70.0
 43
70.0
 50
180.0
  0
TEXT
  8
3
  40
105
  5
82F4
  62
0
  72
0
  71
0
 10
4874.81
 20
4760.54
 30
0.000000
  1
MAX
  0
TEXT
  8
3
  40
105
  5
82F5
  62
0
  72
0
  71
0
 10
4874.81
 20
4624.04
 30
0.000000
  1
1450
  0
POINT
  5
8282
  8
DEFPOINTS
 62
     0
 10
5793.3135360545612
 20
4661.3295487321593
 30
0.0
  0
POINT
  5
8283
  8
DEFPOINTS
 62
     0
 10
4376.3135360545602
 20
3501.5317812317139
 30
0.0
  0
POINT
  5
8284
  8
DEFPOINTS
 62
     0
 10
4376.3135360545602
 20
4771.3862499029301
 30
0.0
  0
ENDBLK
  5
7FDA
  8
0
  0
BLOCK
  8
0
  2
*D16
 70
     1
 10
0.0
 20
0.0
 30
0.0
  3
*D16
  1

  0
LINE
  5
8285
  8
3
 62
     0
 10
1717.1002160565149
 20
4366.0317812317144
 30
0.0
 11
1717.1002160565149
 21
4890.3182795304929
 31
0.0
  0
LINE
  5
8286
  8
3
 62
     0
 10
3337.1002160565158
 20
2614.0317812317148
 30
0.0
 11
3337.1002160565158
 21
4890.3182795304929
 31
0.0
  0
LINE
  5
8287
  8
3
 62
     0
 10
1787.1002160565149
 20
4855.3182795304929
 30
0.0
 11
3267.1002160565149
 21
4855.3182795304929
 31
0.0
  0
INSERT
  5
8288
  8
3
 62
     0
  2
_OPEN
 10
1717.1002160565149
 20
4855.3182795304929
 30
0.0
 41
70.0
 42
70.0
 43
70.0
 50
180.0
  0
INSERT
  5
8289
  8
3
 62
     0
  2
_OPEN
 10
3337.1002160565158
 20
4855.3182795304929
 30
0.0
 41
70.0
 42
70.0
 43
70.0
  0
TEXT
  8
3
  40
105
  5
82F6
  62
0
  72
0
  71
0
 10
2380.70
 20
4756.97
 30
0.000000
  1
1620
  0
POINT
  5
828B
  8
DEFPOINTS
 62
     0
 10
1717.1002160565149
 20
4348.5317812317126
 30
0.0
  0
POINT
  5
828C
  8
DEFPOINTS
 62
     0
 10
3337.1002160565158
 20
2596.5317812317148
 30
0.0
  0
POINT
  5
828D
  8
DEFPOINTS
 62
     0
 10
3337.1002160565158
 20
4855.3182795304929
 30
0.0
  0
ENDBLK
  5
8060
  8
0
  0
BLOCK
  8
0
  2
_DOT
 70
     0
 10
0.0
 20
0.0
 30
0.0
  3
_DOT
  1

  0
LINE
  5
804C
  8
0
  6
BYBLOCK
 62
     0
 10
0.0
 20
0.0
 30
0.0
 11
-1.0
 21
-0.0000000000000284
 31
0.0
  0
POLYLINE
  5
804D
  8
0
  6
BYBLOCK
 62
     0
 66
     1
 10
0.0
 20
0.0
 30
0.0
 70
     1
 40
0.1666666666666666
 41
0.1666666666666666
  0
VERTEX
  5
8296
  8
0
  6
BYBLOCK
 62
     0
 10
-0.0833333333333286
 20
-0.0000000000000284
 30
0.0
 42
1.0
  0
VERTEX
  5
8297
  8
0
  6
BYBLOCK
 62
     0
 10
0.0833333333333286
 20
-0.0000000000000284
 30
0.0
 42
1.0
  0
SEQEND
  5
8298
  8
0
  6
BYBLOCK
 62
     0
  0
ENDBLK
  5
7FAA
  8
0
  0
BLOCK
  8
0
  2
*D18
 70
     1
 10
0.0
 20
0.0
 30
0.0
  3
*D18
  1

  0
LINE
  5
828E
  8
3
 62
     0
 10
2034.6002160565149
 20
5879.0478776188747
 30
0.0
 11
1291.8835731293509
 21
5879.0478776188747
 31
0.0
  0
LINE
  5
828F
  8
3
 62
     0
 10
1326.8835731293509
 20
6632.0478776188766
 30
0.0
 11
1326.8835731293509
 21
5949.0478776188747
 31
0.0
  0
INSERT
  5
8290
  8
3
 62
     0
  2
_OPEN
 10
1326.8835731293509
 20
6702.0478776188747
 30
0.0
 41
70.0
 42
70.0
 43
70.0
 50
90.0
  0
INSERT
  5
8291
  8
3
 62
     0
  2
_OPEN
 10
1326.8835731293509
 20
5879.0478776188747
 30
0.0
 41
70.0
 42
70.0
 43
70.0
 50
270.0
  0
TEXT
  8
3
  40
105
  5
82F7
  62
0
  72
0
  71
0
 10
1029.38
 20
6104.70
 30
0.000000
  1
823
  0
POINT
  5
8293
  8
DEFPOINTS
 62
     0
 10
1772.100216056514
 20
6702.0478776188747
 30
0.0
  0
POINT
  5
8294
  8
DEFPOINTS
 62
     0
 10
2052.1002160565149
 20
5879.0478776188738
 30
0.0
  0
POINT
  5
8295
  8
DEFPOINTS
 62
     0
 10
1326.8835731293509
 20
5879.0478776188747
 30
0.0
  0
ENDBLK
  5
80A0
  8
0
  0
BLOCK
  8
0
  2
*D19
 70
     1
 10
0.0
 20
0.0
 30
0.0
  3
*D19
  1

  0
LINE
  5
8299
  8
3
 62
     0
 10
1772.100216056514
 20
2309.0317812317148
 30
0.0
 11
1772.100216056514
 21
2062.784085461426
 31
0.0
  0
LINE
  5
829A
  8
3
 62
     0
 10
2397.1002160565158
 20
2309.0317812317148
 30
0.0
 11
2397.1002160565158
 21
2062.784085461426
 31
0.0
  0
LINE
  5
829B
  8
3
 62
     0
 10
1842.1002160565149
 20
2097.784085461426
 30
0.0
 11
2327.1002160565158
 21
2097.784085461426
 31
0.0
  0
INSERT
  5
829C
  8
3
 62
     0
  2
_OPEN
 10
1772.100216056514
 20
2097.784085461426
 30
0.0
 41
70.0
 42
70.0
 43
70.0
 50
180.0
  0
INSERT
  5
829D
  8
3
 62
     0
  2
_OPEN
 10
2397.1002160565158
 20
2097.784085461426
 30
0.0
 41
70.0
 42
70.0
 43
70.0
  0
TEXT
  8
3
  40
105
  5
82F8
  62
0
  72
0
  71
0
 10
1874.60
 20
1999.43
 30
0.000000
  1
625
  0
POINT
  5
829F
  8
DEFPOINTS
 62
     0
 10
1772.100216056514
 20
2326.5317812317148
 30
0.0
  0
POINT
  5
82A0
  8
DEFPOINTS
 62
     0
 10
2397.1002160565158
 20
2326.5317812317148
 30
0.0
  0
POINT
  5
82A1
  8
DEFPOINTS
 62
     0
 10
2397.1002160565158
 20
2097.784085461426
 30
0.0
  0
ENDBLK
  5
815E
  8
0
  0
BLOCK
  8
0
  2
*D20
 70
     1
 10
0.0
 20
0.0
 30
0.0
  3
*D20
  1

  0
LINE
  5
82A2
  8
3
 62
     0
 10
2397.1002160565158
 20
2309.0317812317148
 30
0.0
 11
2397.1002160565158
 21
2062.784085461426
 31
0.0
  0
LINE
  5
82A3
  8
3
 62
     0
 10
3337.1002160565158
 20
2309.0317812317148
 30
0.0
 11
3337.1002160565158
 21
2062.784085461426
 31
0.0
  0
LINE
  5
82A4
  8
3
 62
     0
 10
2467.1002160565158
 20
2097.784085461426
 30
0.0
 11
3267.1002160565149
 21
2097.784085461426
 31
0.0
  0
INSERT
  5
82A5
  8
3
 62
     0
  2
_OPEN
 10
2397.1002160565158
 20
2097.784085461426
 30
0.0
 41
70.0
 42
70.0
 43
70.0
 50
180.0
  0
INSERT
  5
82A6
  8
3
 62
     0
  2
_OPEN
 10
3337.1002160565158
 20
2097.784085461426
 30
0.0
 41
70.0
 42
70.0
 43
70.0
  0
TEXT
  8
3
  40
105
  5
82F9
  62
0
  72
0
  71
0
 10
2657.10
 20
1999.43
 30
0.000000
  1
940
  0
POINT
  5
82A8
  8
DEFPOINTS
 62
     0
 10
2397.1002160565158
 20
2326.5317812317148
 30
0.0
  0
POINT
  5
82A9
  8
DEFPOINTS
 62
     0
 10
3337.1002160565158
 20
2326.5317812317148
 30
0.0
  0
POINT
  5
82AA
  8
DEFPOINTS
 62
     0
 10
3337.1002160565158
 20
2097.784085461426
 30
0.0
  0
ENDBLK
  5
816B
  8
0
  0
BLOCK
  8
0
  2
*D21
 70
     1
 10
0.0
 20
0.0
 30
0.0
  3
*D21
  1

  0
LINE
  5
82AB
  8
3
 62
     0
 10
4525.3135360545602
 20
2309.0317812317139
 30
0.0
 11
4525.3135360545602
 21
2062.784085461426
 31
0.0
  0
LINE
  5
82AC
  8
3
 62
     0
 10
5793.3135360545612
 20
2309.0317812317139
 30
0.0
 11
5793.3135360545612
 21
2062.784085461426
 31
0.0
  0
LINE
  5
82AD
  8
3
 62
     0
 10
4595.3135360545602
 20
2097.784085461426
 30
0.0
 11
5723.3135360545602
 21
2097.784085461426
 31
0.0
  0
INSERT
  5
82AE
  8
3
 62
     0
  2
_OPEN
 10
4525.3135360545602
 20
2097.784085461426
 30
0.0
 41
70.0
 42
70.0
 43
70.0
 50
180.0
  0
INSERT
  5
82AF
  8
3
 62
     0
  2
_OPEN
 10
5793.3135360545612
 20
2097.784085461426
 30
0.0
 41
70.0
 42
70.0
 43
70.0
  0
TEXT
  8
3
  40
105
  5
82FA
  62
0
  72
0
  71
0
 10
4949.31
 20
1999.43
 30
0.000000
  1
1268
  0
POINT
  5
82B1
  8
DEFPOINTS
 62
     0
 10
4525.3135360545602
 20
2326.5317812317139
 30
0.0
  0
POINT
  5
82B2
  8
DEFPOINTS
 62
     0
 10
5793.3135360545612
 20
2326.5317812317139
 30
0.0
  0
POINT
  5
82B3
  8
DEFPOINTS
 62
     0
 10
5793.3135360545612
 20
2097.784085461426
 30
0.0
  0
ENDBLK
  5
8178
  8
0
  0
BLOCK
  8
0
  2
*D22
 70
     1
 10
0.0
 20
0.0
 30
0.0
  3
*D22
  1

  0
LINE
  5
82B4
  8
3
 62
     0
 10
5793.3135360545612
 20
2309.0317812317139
 30
0.0
 11
5793.3135360545612
 21
2062.784085461426
 31
0.0
  0
LINE
  5
82B5
  8
3
 62
     0
 10
6238.3135360545602
 20
2309.0317812317139
 30
0.0
 11
6238.3135360545602
 21
2062.784085461426
 31
0.0
  0
LINE
  5
82B6
  8
3
 62
     0
 10
5863.3135360545602
 20
2097.784085461426
 30
0.0
 11
6168.3135360545612
 21
2097.784085461426
 31
0.0
  0
INSERT
  5
82B7
  8
3
 62
     0
  2
_OPEN
 10
5793.3135360545612
 20
2097.784085461426
 30
0.0
 41
70.0
 42
70.0
 43
70.0
 50
180.0
  0
INSERT
  5
82B8
  8
3
 62
     0
  2
_OPEN
 10
6238.3135360545602
 20
2097.784085461426
 30
0.0
 41
70.0
 42
70.0
 43
70.0
  0
TEXT
  8
3
  40
105
  5
82FB
  62
0
  72
0
  71
0
 10
5805.81
 20
1999.43
 30
0.000000
  1
445
  0
POINT
  5
82BA
  8
DEFPOINTS
 62
     0
 10
5793.3135360545612
 20
2326.5317812317139
 30
0.0
  0
POINT
  5
82BB
  8
DEFPOINTS
 62
     0
 10
6238.3135360545602
 20
2326.5317812317139
 30
0.0
  0
POINT
  5
82BC
  8
DEFPOINTS
 62
     0
 10
6238.3135360545602
 20
2097.784085461426
 30
0.0
  0
ENDBLK
  5
8187
  8
0
  0
BLOCK
  8
0
  2
*D23
 70
     1
 10
0.0
 20
0.0
 30
0.0
  3
*D23
  1

  0
LINE
  5
82BD
  8
3
 62
     0
 10
1754.600216056514
 20
2451.5317812317148
 30
0.0
 11
1213.73295863573
 21
2451.5317812317148
 31
0.0
  0
LINE
  5
82BE
  8
3
 62
     0
 10
1754.600216056514
 20
2326.5317812317148
 30
0.0
 11
1213.73295863573
 21
2326.5317812317148
 31
0.0
  0
LINE
  5
82BF
  8
3
 62
     0
 10
1248.73295863573
 20
2521.5317812317148
 30
0.0
 11
1248.73295863573
 21
2591.5317812317148
 31
0.0
  0
LINE
  5
82C0
  8
3
 62
     0
 10
1248.73295863573
 20
2256.5317812317148
 30
0.0
 11
1248.73295863573
 21
1866.5317812317151
 31
0.0
  0
LINE
  5
82C1
  8
3
 62
     0
 10
1248.73295863573
 20
2451.5317812317148
 30
0.0
 11
1248.73295863573
 21
2326.5317812317148
 31
0.0
  0
INSERT
  5
82C2
  8
3
 62
     0
  2
_DOT
 10
1248.73295863573
 20
2451.5317812317148
 30
0.0
 41
70.0
 42
70.0
 43
70.0
 50
270.0
  0
INSERT
  5
82C3
  8
3
 62
     0
  2
_OPEN
 10
1248.73295863573
 20
2326.5317812317148
 30
0.0
 41
70.0
 42
70.0
 43
70.0
 50
90.0
  0
TEXT
  8
3
  40
105
  5
82FC
  62
0
  72
0
  71
0
 10
951.233
 20
1840.68
 30
0.000000
  1
125
  0
POINT
  5
82C5
  8
DEFPOINTS
 62
     0
 10
1772.100216056514
 20
2451.5317812317148
 30
0.0
  0
POINT
  5
82C6
  8
DEFPOINTS
 62
     0
 10
1772.100216056514
 20
2326.5317812317148
 30
0.0
  0
POINT
  5
82C7
  8
DEFPOINTS
 62
     0
 10
1248.73295863573
 20
2326.5317812317148
 30
0.0
  0
ENDBLK
  5
81C0
  8
0
  0
BLOCK
  8
0
  2
*D24
 70
     1
 10
0.0
 20
0.0
 30
0.0
  3
*D24
  1

  0
LINE
  5
82C8
  8
3
 62
     0
 10
1754.600216056514
 20
2451.5317812317148
 30
0.0
 11
1213.73295863573
 21
2451.5317812317148
 31
0.0
  0
LINE
  5
82C9
  8
3
 62
     0
 10
1754.600216056514
 20
2471.5317812317148
 30
0.0
 11
1213.73295863573
 21
2471.5317812317148
 31
0.0
  0
LINE
  5
82CA
  8
3
 62
     0
 10
1248.73295863573
 20
2381.5317812317148
 30
0.0
 11
1248.73295863573
 21
2311.5317812317148
 31
0.0
  0
LINE
  5
82CB
  8
3
 62
     0
 10
1248.73295863573
 20
2541.5317812317148
 30
0.0
 11
1248.73295863573
 21
2611.5317812317148
 31
0.0
  0
LINE
  5
82CC
  8
3
 62
     0
 10
1248.73295863573
 20
2461.5317812317148
 30
0.0
 11
1081.23295863573
 21
2511.7817812317148
 31
0.0
  0
LINE
  5
82CD
  8
3
 62
     0
 10
1081.23295863573
 20
2511.7817812317148
 30
0.0
 11
1081.23295863573
 21
2886.7817812317148
 31
0.0
  0
TEXT
  8
3
  40
105
  5
82FD
  62
0
  72
0
  71
0
 10
756.233
 20
2513.43
 30
0.000000
  1
(20)
  0
LINE
  5
82CF
  8
3
 62
     0
 10
1248.73295863573
 20
2451.5317812317148
 30
0.0
 11
1248.73295863573
 21
2471.5317812317148
 31
0.0
  0
LINE
  5
82D0
  8
3
 62
     0
 10
1248.73295863573
 20
2451.5317812317148
 30
0.0
 11
1248.73295863573
 21
2471.5317812317148
 31
0.0
  0
INSERT
  5
82D1
  8
3
 62
     0
  2
_DOT
 10
1248.73295863573
 20
2451.5317812317148
 30
0.0
 41
70.0
 42
70.0
 43
70.0
 50
90.0
  0
INSERT
  5
82D2
  8
3
 62
     0
  2
_OPEN
 10
1248.73295863573
 20
2471.5317812317148
 30
0.0
 41
70.0
 42
70.0
 43
70.0
 50
270.0
  0
POINT
  5
82D3
  8
DEFPOINTS
 62
     0
 10
1772.100216056514
 20
2451.5317812317148
 30
0.0
  0
POINT
  5
82D4
  8
DEFPOINTS
 62
     0
 10
1772.100216056514
 20
2471.5317812317148
 30
0.0
  0
POINT
  5
82D5
  8
DEFPOINTS
 62
     0
 10
1248.73295863573
 20
2471.5317812317148
 30
0.0
  0
ENDBLK
  5
81D1
  8
0
  0
BLOCK
  8
0
  2
*D25
 70
     1
 10
0.0
 20
0.0
 30
0.0
  3
*D25
  1

  0
LINE
  5
82D6
  8
3
 62
     0
 10
1699.600216056514
 20
4348.5317812317126
 30
0.0
 11
814.44648058504436
 21
4348.5317812317126
 31
0.0
  0
LINE
  5
82D7
  8
3
 62
     0
 10
1754.600216056514
 20
2326.5317812317148
 30
0.0
 11
814.4464805850439
 21
2326.5317812317148
 31
0.0
  0
LINE
  5
82D8
  8
3
 62
     0
 10
849.44648058504436
 20
4278.5317812317144
 30
0.0
 11
849.4464805850439
 21
2396.5317812317148
 31
0.0
  0
INSERT
  5
82D9
  8
3
 62
     0
  2
_OPEN
 10
849.44648058504436
 20
4348.5317812317126
 30
0.0
 41
70.0
 42
70.0
 43
70.0
 50
90.0
  0
INSERT
  5
82DA
  8
3
 62
     0
  2
_OPEN
 10
849.4464805850439
 20
2326.5317812317148
 30
0.0
 41
70.0
 42
70.0
 43
70.0
 50
270.0
  0
TEXT
  8
3
  40
105
  5
82FE
  62
0
  72
0
  71
0
 10
524.446
 20
3151.68
 30
0.000000
  1
(2022)
  0
POINT
  5
82DC
  8
DEFPOINTS
 62
     0
 10
1717.1002160565149
 20
4348.5317812317126
 30
0.0
  0
POINT
  5
82DD
  8
DEFPOINTS
 62
     0
 10
1772.100216056514
 20
2326.5317812317148
 30
0.0
  0
POINT
  5
82DE
  8
DEFPOINTS
 62
     0
 10
849.4464805850439
 20
2326.5317812317148
 30
0.0
  0
ENDBLK
  5
81DE
  8
0
  0
BLOCK
  8
0
  2
*D26
 70
     1
 10
0.0
 20
0.0
 30
0.0
  3
*D26
  1

  0
LINE
  5
82DF
  8
3
 62
     0
 10
6190.013536054561
 20
3721.5317812317139
 30
0.0
 11
6534.7853093689273
 21
3721.5317812317139
 31
0.0
  0
LINE
  5
82E0
  8
3
 62
     0
 10
6190.013536054561
 20
2721.5317812317139
 30
0.0
 11
6534.7853093689273
 21
2721.5317812317139
 31
0.0
  0
LINE
  5
82E1
  8
3
 62
     0
 10
6499.7853093689264
 20
3651.5317812317139
 30
0.0
 11
6499.7853093689264
 21
2791.5317812317139
 31
0.0
  0
INSERT
  5
82E2
  8
3
 62
     0
  2
_OPEN
 10
6499.7853093689264
 20
3721.5317812317139
 30
0.0
 41
70.0
 42
70.0
 43
70.0
 50
90.0
  0
INSERT
  5
82E3
  8
3
 62
     0
  2
_OPEN
 10
6499.7853093689264
 20
2721.5317812317139
 30
0.0
 41
70.0
 42
70.0
 43
70.0
 50
270.0
  0
TEXT
  8
3
  40
105
  5
82FF
  62
0
  72
0
  71
0
 10
6202.29
 20
3035.68
 30
0.000000
  1
φ1000
  0
POINT
  5
82E5
  8
DEFPOINTS
 62
     0
 10
6172.513536054561
 20
3721.5317812317139
 30
0.0
  0
POINT
  5
82E6
  8
DEFPOINTS
 62
     0
 10
6172.513536054561
 20
2721.5317812317139
 30
0.0
  0
POINT
  5
82E7
  8
DEFPOINTS
 62
     0
 10
6499.7853093689264
 20
2721.5317812317139
 30
0.0
  0
ENDBLK
  5
81F5
  8
0
  0
ENDSEC
  0
SECTION
  2
ENTITIES
  0
INSERT
  5
7CA0
  8
0
  2
YA_N
 10
4435.6620037513776
 20
82.140128153376281
 30
0.0
  0
ARC
  5
7CA2
  8
1
 10
2323.1002160565149
 20
3295.531781231713
 30
0.0
 40
942.0
 50
355.49441547335562
 51
85.494415473355588
  0
ARC
  5
7CA3
  8
1
 10
2471.1002160565149
 20
3295.531781231713
 30
0.0
 40
794.0
 50
336.55126504039441
 51
354.65233025016119
  0
ARC
  5
7CA4
  8
1
 10
2457.6002160565149
 20
3161.031781231713
 30
0.0
 40
659.49999999999989
 50
174.73650479693299
 51
232.90803019558419
  0
LINE
  5
7CA5
  8
1
 10
1799.7184285872299
 20
3265.531781231713
 30
0.0
 11
1717.1002160565149
 21
3265.531781231713
 31
0.0
  0
LINE
  5
7CA6
  8
1
 10
1717.1002160565149
 20
4348.5317812317126
 30
0.0
 11
1717.1002160565149
 21
3212.5317812317121
 31
0.0
  0
LINE
  5
7CA7
  8
1
 10
1717.1002160565149
 20
4295.5317812317126
 30
0.0
 11
2397.100216056514
 21
4234.6207014091369
 31
0.0
  0
LINE
  5
7CA8
  8
1
 10
1767.100216056516
 20
4348.5317812317126
 30
0.0
 11
1717.1002160565149
 21
4348.5317812317126
 31
0.0
  0
LINE
  5
7CA9
  8
1
 10
1767.1002160565149
 20
3212.531781231713
 30
0.0
 11
1717.1002160565149
 21
3212.5317812317121
 31
0.0
  0
LINE
  5
7CAA
  8
1
 10
1767.1002160565149
 20
4348.5317812317116
 30
0.0
 11
1767.1002160565149
 21
3212.531781231713
 31
0.0
  0
LINE
  5
7CAB
  8
1
 10
1721.100216056516
 20
4348.5317812317126
 30
0.0
 11
1721.100216056512
 21
3212.5317812317121
 31
0.0
  0
LINE
  5
7CAC
  8
1
 10
3337.1002160565158
 20
2596.5317812317139
 30
0.0
 11
2907.1002160565158
 21
2596.5317812317139
 31
0.0
  0
LINE
  5
7CAD
  8
1
 10
1772.100216056514
 20
2596.5317812317148
 30
0.0
 11
1772.100216056514
 21
2471.5317812317148
 31
0.0
  0
LINE
  5
7CAE
  8
1
 10
3337.1002160565158
 20
2596.5317812317148
 30
0.0
 11
3337.1002160565158
 21
2471.5317812317148
 31
0.0
  0
LINE
  5
7CAF
  8
2
 10
4399.8230916669781
 20
3221.5317812317139
 30
0.0
 11
6295.2884290351612
 21
3221.5317812317139
 31
0.0
  0
LINE
  5
7CB0
  8
2
 10
5793.3135360545612
 20
4449.6337164980623
 30
0.0
 11
5793.3135360545621
 21
2326.5317812317139
 31
0.0
  0
LINE
  5
7CB1
  8
1
 10
4525.3135360545602
 20
2471.5317812317139
 30
0.0
 11
6238.3135360545602
 21
2471.5317812317139
 31
0.0
1001
ACAD
1000
ASC_BOUNDS
1002
{
1070
    19
1002
}
  0
LINE
  5
7CB2
  8
1
 10
4525.3135360545602
 20
2596.5317812317139
 30
0.0
 11
6238.3135360545602
 21
2596.5317812317139
 31
0.0
  0
LINE
  5
7CB3
  8
1
 10
4525.3135360545602
 20
2596.5317812317139
 30
0.0
 11
4525.3135360545602
 21
2471.5317812317139
 31
0.0
  0
LINE
  5
7CB4
  8
1
 10
6238.3135360545602
 20
2596.5317812317139
 30
0.0
 11
6238.3135360545602
 21
2471.5317812317139
 31
0.0
  0
LINE
  5
7CB5
  8
1
 10
6168.3135360545612
 20
4348.5317812317144
 30
0.0
 11
6168.3135360545621
 21
3221.5317812317139
 31
0.0
  0
LINE
  5
7CB6
  8
1
 10
5418.3135360545612
 20
4348.5317812317144
 30
0.0
 11
5418.3135360545612
 21
3221.5317812317139
 31
0.0
  0
LINE
  5
7CB7
  8
1
 10
6170.6135360545613
 20
4348.5317812317144
 30
0.0
 11
6170.6135360545613
 21
3221.5317812317139
 31
0.0
  0
LINE
  5
7CB8
  8
1
 10
5416.0135360545601
 20
4348.5317812317144
 30
0.0
 11
5416.013536054561
 21
3221.5317812317139
 31
0.0
  0
LINE
  5
7CB9
  8
2
 10
2397.1002160565158
 20
4386.4476735721537
 30
0.0
 11
2397.1002160565158
 21
2326.5317812317148
 31
0.0
  0
LINE
  5
7CBA
  8
2
 10
1657.4842335588869
 20
3221.5317812317139
 30
0.0
 11
3329.6151321127231
 21
3221.5317812317139
 31
0.0
  0
LINE
  5
7CBB
  8
1
 10
3337.1002160565158
 20
2471.5317812317148
 30
0.0
 11
1772.100216056514
 21
2471.5317812317148
 31
0.0
1001
ACAD
1000
ASC_BOUNDS
1002
{
1070
    19
1002
}
  0
INSERT
  5
7CBC
  8
0
  2
YA_N
 10
2792.4521655908611
 20
-1328.2926990899871
 30
0.0
 41
25.0
 42
25.0
 43
25.0
  0
LINE
  5
7CBE
  8
2
 10
3107.1002160565149
 20
3095.3474552317148
 30
0.0
 11
3107.1002160565149
 21
2538.9451533669958
 31
0.0
  0
CIRCLE
  5
7CBF
  8
1
 10
2397.1002160565158
 20
3221.5317812317139
 30
0.0
 40
165.09999999999991
  0
CIRCLE
  5
7CC0
  8
1
 10
3107.1002160565149
 20
2846.5317812317139
 30
0.0
 40
114.3
  0
LINE
  5
7CC5
  8
1
 10
5365.3135360545612
 20
4348.5317812317144
 30
0.0
 11
6221.3135360545612
 21
4348.5317812317144
 31
0.0
  0
LINE
  5
7CC6
  8
1
 10
6221.3135360545612
 20
4348.5317812317144
 30
0.0
 11
6221.3135360545612
 21
3212.5317812317139
 31
0.0
  0
LINE
  5
7CC7
  8
1
 10
5365.3135360545612
 20
4348.5317812317162
 30
0.0
 11
5365.3135360545612
 21
3259.0317812317139
 31
0.0
  0
LINE
  5
7CC8
  8
1
 10
5418.3135360545612
 20
4295.5317812317153
 30
0.0
 11
6168.3135360545612
 21
4295.5317812317153
 31
0.0
  0
INSERT
  5
7CC9
  8
0
  2
YA_N
 10
3284.7684406723238
 20
-911.882085380239
 30
0.0
 41
25.0
 42
25.0
 43
25.0
  0
LINE
  5
7CCD
  8
1
 10
5418.3135360545612
 20
4298.5317812317144
 30
0.0
 11
6168.3135360545612
 21
4298.5317812317144
 31
0.0
  0
LINE
  5
7CD1
  8
1
 10
5418.3135360545612
 20
3221.5317812317139
 30
0.0
 11
5418.3135360545612
 21
2596.5317812317139
 31
0.0
  0
LINE
  5
7CD2
  8
1
 10
5416.013536054561
 20
3221.5317812317139
 30
0.0
 11
5416.013536054561
 21
2596.5317812317139
 31
0.0
  0
LINE
  5
7CD3
  8
1
 10
6168.3135360545612
 20
3221.5317812317139
 30
0.0
 11
6168.3135360545621
 21
2596.5317812317139
 31
0.0
  0
LINE
  5
7CD4
  8
1
 10
6170.6135360545604
 20
3221.5317812317139
 30
0.0
 11
6170.6135360545613
 21
2596.5317812317139
 31
0.0
  0
LINE
  5
7CE2
  8
1
 10
3022.100216056514
 20
7592.0478776188784
 30
0.0
 11
1772.100216056514
 21
7592.0478776188738
 31
0.0
  0
LINE
  5
7CE3
  8
1
 10
2052.1002160565149
 20
6702.0478776188747
 30
0.0
 11
1772.100216056514
 21
6702.0478776188747
 31
0.0
  0
LINE
  5
7CE4
  8
1
 10
1772.100216056514
 20
7592.0478776188738
 30
0.0
 11
1772.100216056514
 21
7522.0478776188729
 31
0.0
  0
LINE
  5
7CE5
  8
1
 10
3022.100216056514
 20
7592.0478776188784
 30
0.0
 11
3022.100216056514
 21
7522.0478776188747
 31
0.0
  0
LINE
  5
7CE6
  8
1
 10
3337.100216056514
 20
6767.0478776188766
 30
0.0
 11
3337.100216056514
 21
5879.0478776188766
 31
0.0
  0
LINE
  5
7CE7
  8
1
 10
3337.100216056514
 20
5879.0478776188766
 30
0.0
 11
2052.1002160565149
 21
5879.0478776188738
 31
0.0
  0
LINE
  5
7CE8
  8
1
 10
3337.100216056514
 20
6767.0478776188766
 30
0.0
 11
3022.100216056514
 21
6767.0478776188766
 31
0.0
  0
LINE
  5
7CE9
  8
1
 10
2052.1002160565149
 20
6702.0478776188747
 30
0.0
 11
2052.1002160565149
 21
5879.0478776188747
 31
0.0
  0
LINE
  5
7CEF
  8
1
 10
4586.3135360545602
 20
3141.5317812317139
 30
0.0
 11
4586.3135360545593
 21
3008.5317812317148
 31
0.0
  0
LINE
  5
7CF0
  8
1
 10
4586.3135360545602
 20
3141.5317812317139
 30
0.0
 11
5320.3135360545593
 21
3141.5317812317139
 31
0.0
  0
LINE
  5
7CF1
  8
1
 10
5320.3135360545602
 20
3141.5317812317139
 30
0.0
 11
5320.3135360545602
 21
2596.5317812317139
 31
0.0
  0
LINE
  5
7CF2
  8
1
 10
4543.3135360545612
 20
3259.0317812317139
 30
0.0
 11
5416.0135360545601
 21
3259.0317812317139
 31
0.0
  0
LINE
  5
7CF3
  8
1
 10
4543.3135360545612
 20
3184.0317812317139
 30
0.0
 11
5416.013536054561
 21
3184.0317812317139
 31
0.0
  0
LINE
  5
7CF7
  8
1
 10
4543.3135360545612
 20
3259.0317812317139
 30
0.0
 11
4543.3135360545612
 21
3184.0317812317139
 31
0.0
  0
LINE
  5
7CF8
  8
1
 10
4538.3135360545602
 20
3249.0317812317139
 30
0.0
 11
4543.3135360545612
 21
3249.0317812317139
 31
0.0
  0
LINE
  5
7CF9
  8
1
 10
4538.3135360545602
 20
3194.0317812317139
 30
0.0
 11
4543.3135360545612
 21
3194.0317812317139
 31
0.0
  0
LINE
  5
7CFA
  8
1
 10
4428.3135360545593
 20
3386.6317812317138
 30
0.0
 11
4538.3135360545593
 21
3386.6317812317138
 31
0.0
  0
LINE
  5
7CFB
  8
1
 10
4428.3135360545602
 20
3056.431781231714
 30
0.0
 11
4538.3135360545602
 21
3056.431781231714
 31
0.0
  0
LINE
  5
7CFD
  8
1
 10
4428.3135360545602
 20
3386.6317812317138
 30
0.0
 11
4428.3135360545612
 21
2732.2317812317142
 31
0.0
  0
LINE
  5
7CFE
  8
1
 10
4428.3135360545621
 20
2960.8317812317141
 30
0.0
 11
4538.3135360545621
 21
2960.8317812317141
 31
0.0
  0
LINE
  5
7CFF
  8
1
 10
4428.3135360545621
 20
2732.2317812317142
 30
0.0
 11
4538.3135360545621
 21
2732.2317812317142
 31
0.0
  0
LINE
  5
7D00
  8
1
 10
4538.3135360545602
 20
3386.6317812317152
 30
0.0
 11
4538.3135360545602
 21
2732.2317812317142
 31
0.0
  0
LINE
  5
7D01
  8
1
 10
4576.3135360545602
 20
3501.5317812317139
 30
0.0
 11
4576.3135360545593
 21
2626.5317812317139
 31
0.0
  0
LINE
  5
7D02
  8
1
 10
4376.3135360545602
 20
3501.5317812317139
 30
0.0
 11
4376.3135360545602
 21
2626.5317812317139
 31
0.0
  0
LINE
  5
7D03
  8
1
 10
4376.3135360545602
 20
3501.5317812317139
 30
0.0
 11
4576.3135360545602
 21
3501.5317812317139
 31
0.0
  0
LINE
  5
7D04
  8
1
 10
4376.3135360545602
 20
2626.5317812317139
 30
0.0
 11
4576.3135360545602
 21
2626.5317812317139
 31
0.0
  0
LINE
  5
7D05
  8
1
 10
6171.3135360545612
 20
4348.5317812317144
 30
0.0
 11
6171.3135360545612
 21
3771.5317812317139
 31
0.0
  0
POINT
  5
7D06
  8
1
 10
4376.3135360545602
 20
3501.5317812317139
 30
0.0
  0
LINE
  5
7D08
  8
1
 10
2052.1002160565158
 20
2596.5317812317148
 30
0.0
 11
2052.1002160565158
 21
2471.5317812317148
 31
0.0
  0
POINT
  5
7D0D
  8
1
 10
1772.100216056514
 20
2471.5317812317148
 30
0.0
  0
INSERT
  5
7D0E
  8
0
  2
YA_N
 10
6713.8437541939684
 20
-1775.1581322379841
 30
0.0
  0
LINE
  5
7D11
  8
1
 10
6172.513536054561
 20
3799.0317812317139
 30
0.0
 11
6172.513536054561
 21
2644.0317812317139
 31
0.0
  0
LINE
  5
7D12
  8
1
 10
6170.9135360545606
 20
3799.0317812317139
 30
0.0
 11
6172.513536054561
 21
3799.0317812317139
 31
0.0
  0
ARC
  5
7D15
  8
1
 10
2397.1002160565158
 20
3221.5317812317139
 30
0.0
 40
599.0
 50
175.7875009220854
 51
180.0
  0
LINE
  5
7D16
  8
1
 10
3062.0834528555192
 20
2690.9120812226761
 30
0.0
 11
3152.1169792575538
 21
2690.9120812226761
 31
0.0
  0
ARC
  5
7D17
  8
1
 10
3107.1002160565149
 20
2846.5317812317139
 30
0.0
 40
162.0
 50
286.13379196202362
 51
253.86620803797669
  0
LINE
  5
7D18
  8
2
 10
2895.599773638161
 20
2846.5317812317139
 30
0.0
 11
3301.086403228961
 21
2846.5317812317139
 31
0.0
  0
LINE
  5
7D1A
  8
1
 10
2953.1002160565149
 20
2704.5317812317139
 30
0.0
 11
3011.753734878781
 21
2704.5317812317139
 31
0.0
  0
LINE
  5
7D1B
  8
1
 10
2902.1002160565158
 20
2686.5317812317139
 30
0.0
 11
3312.1002160565158
 21
2686.5317812317139
 31
0.0
  0
LINE
  5
7D1C
  8
1
 10
2953.1002160565149
 20
2704.5317812317139
 30
0.0
 11
2974.4425501858209
 21
2753.5482144806879
 31
0.0
  0
LINE
  5
7D1D
  8
1
 10
2953.1002160565149
 20
2686.5317812317139
 30
0.0
 11
2953.1002160565149
 21
2704.5317812317139
 31
0.0
  0
LINE
  5
7D1E
  8
1
 10
3013.1002160565158
 20
2714.592401211949
 30
0.0
 11
3013.1002160565158
 21
2686.5317812317139
 31
0.0
  0
LINE
  5
7D1F
  8
1
 10
2980.1002160565149
 20
2666.0317812317139
 30
0.0
 11
2980.1002160565149
 21
2734.2273919909771
 31
0.0
  0
LINE
  5
7D21
  8
1
 10
3261.1002160565149
 20
2686.5317812317139
 30
0.0
 11
3261.1002160565149
 21
2704.5317812317139
 31
0.0
  0
LINE
  5
7D22
  8
1
 10
3201.1002160565149
 20
2714.592401211949
 30
0.0
 11
3201.1002160565149
 21
2686.5317812317139
 31
0.0
  0
LINE
  5
7D23
  8
1
 10
3234.1002160565158
 20
2666.0317812317139
 30
0.0
 11
3234.1002160565158
 21
2734.2273919909771
 31
0.0
  0
LINE
  5
7D24
  8
1
 10
3261.1002160565149
 20
2686.5317812317139
 30
0.0
 11
3201.1002160565149
 21
2686.5317812317139
 31
0.0
  0
LINE
  5
7D25
  8
1
 10
3261.1002160565149
 20
2704.5317812317139
 30
0.0
 11
3201.1002160565149
 21
2704.5317812317139
 31
0.0
  0
LINE
  5
7D26
  8
1
 10
3261.1002160565149
 20
2704.5317812317139
 30
0.0
 11
3239.7578819272098
 21
2753.5482144806879
 31
0.0
  0
LINE
  5
7D27
  8
1
 10
3312.1002160565158
 20
2636.5317812317139
 30
0.0
 11
2902.1002160565158
 21
2636.5317812317139
 31
0.0
  0
LINE
  5
7D28
  8
1
 10
3307.1002160565149
 20
2636.5317812317139
 30
0.0
 11
3307.1002160565149
 21
2596.5317812317139
 31
0.0
  0
LINE
  5
7D29
  8
1
 10
2907.1002160565158
 20
2636.5317812317139
 30
0.0
 11
2907.1002160565158
 21
2596.5317812317139
 31
0.0
  0
LINE
  5
7D2A
  8
1
 10
3312.1002160565158
 20
2636.5317812317139
 30
0.0
 11
3312.1002160565158
 21
2686.5317812317139
 31
0.0
  0
LINE
  5
7D2B
  8
1
 10
2902.1002160565158
 20
2636.5317812317139
 30
0.0
 11
2902.1002160565158
 21
2686.5317812317139
 31
0.0
  0
LINE
  5
7D2C
  8
1
 10
3166.769020206983
 20
2944.020877089933
 30
0.0
 11
2483.2884887183031
 21
3362.3493641380301
 31
0.0
  0
LINE
  5
7D2D
  8
1
 10
3059.867704779037
 20
2742.4472969008448
 30
0.0
 11
2300.1628847403699
 21
3087.1938430427722
 31
0.0
  0
ARC
  5
7D2E
  8
1
 10
2397.1002160565158
 20
3221.5317812317139
 30
0.0
 40
280.0
 50
57.872971371133971
 51
246.44377648895031
  0
ARC
  5
7D2F
  8
1
 10
3107.1002160565149
 20
2846.5317812317139
 30
0.0
 40
220.0
 50
246.44377648895031
 51
57.872971371133971
  0
LINE
  5
7D30
  8
1
 10
3224.0958069567691
 20
3032.8434333361938
 30
0.0
 11
2546.0036953841109
 21
3458.6557020919599
 31
0.0
  0
LINE
  5
7D31
  8
1
 10
3019.1774856781899
 20
2644.864745048751
 30
0.0
 11
2285.1985592113751
 21
2964.8646442715799
 31
0.0
  0
LINE
  5
7D32
  8
1
 10
3337.1002160565158
 20
2596.5317812317148
 30
0.0
 11
1772.100216056514
 21
2596.5317812317148
 31
0.0
1001
ACAD
1000
ASC_BOUNDS
1002
{
1070
    19
1002
}
  0
LINE
  5
7D33
  8
1
 10
5348.3135360545602
 20
2596.5317812317139
 30
0.0
 11
5348.3135360545602
 21
2471.5317812317139
 31
0.0
  0
ARC
  5
7D34
  8
1
 10
2471.1002160565149
 20
3295.531781231713
 30
0.0
 40
794.0
 50
298.31506794739943
 51
303.30655169897108
  0
LINE
  5
7D35
  8
1
 10
2434.600216056514
 20
5897.0478776188738
 30
0.0
 11
2434.600216056514
 21
6769.7478776188746
 31
0.0
  0
LINE
  5
7D36
  8
1
 10
2117.1002160565149
 20
5730.0478776188747
 30
0.0
 11
3327.100216056514
 21
5730.0478776188747
 31
0.0
  0
LINE
  5
7D37
  8
1
 10
2117.1002160565149
 20
5930.0478776188747
 30
0.0
 11
3327.100216056514
 21
5930.0478776188738
 31
0.0
  0
LINE
  5
7D38
  8
1
 10
2232.0002160565159
 20
5892.0478776188747
 30
0.0
 11
3221.4002160565151
 21
5892.0478776188747
 31
0.0
  0
LINE
  5
7D39
  8
1
 10
2232.0002160565159
 20
5782.0478776188747
 30
0.0
 11
3221.4002160565151
 21
5782.0478776188747
 31
0.0
  0
LINE
  5
7D3A
  8
1
 10
1717.1002160565149
 20
6719.0478776188756
 30
0.0
 11
1767.1002160565149
 21
6719.0478776188756
 31
0.0
  0
LINE
  5
7D3D
  8
2
 10
3107.1002160565149
 20
6406.491596075085
 30
0.0
 11
3107.1002160565149
 21
5700.4171363955074
 31
0.0
  0
LINE
  5
7D40
  8
1
 10
3269.100216056514
 20
5927.9974083478746
 30
0.0
 11
2945.1002160565149
 21
5927.9974083478746
 31
0.0
  0
LINE
  5
7D42
  8
1
 10
3076.6789071106682
 20
5909.1191281614329
 30
0.0
 11
3135.5215250023612
 21
5909.1191281614329
 31
0.0
  0
LINE
  5
7D43
  8
1
 10
3048.882767073917
 20
5917.1191281662941
 30
0.0
 11
3165.3176650391142
 21
5917.1191281662941
 31
0.0
  0
LINE
  5
7D44
  8
1
 10
3128.1002160565149
 20
5799.1191281653037
 30
0.0
 11
3086.100216056514
 21
5799.1191281653037
 31
0.0
  0
LINE
  5
7D45
  8
1
 10
3327.100216056514
 20
5730.0478776188747
 30
0.0
 11
3327.100216056514
 21
5930.0478776188747
 31
0.0
  0
LINE
  5
7D46
  8
1
 10
3221.4002160565151
 20
5782.0478776188756
 30
0.0
 11
3221.4002160565151
 21
5892.0478776188756
 31
0.0
  0
LINE
  5
7D48
  8
1
 10
3128.1002160565149
 20
5799.1191281653037
 30
0.0
 11
3128.1002160565172
 21
5909.1191281614329
 31
0.0
  0
LINE
  5
7D4A
  8
1
 10
3165.3176650391142
 20
5927.9974083478746
 30
0.0
 11
3165.3176650391142
 21
5917.1191281662941
 31
0.0
  0
LINE
  5
7D4B
  8
1
 10
3135.5215250023612
 20
5909.1191281614329
 30
0.0
 11
3135.5215250023612
 21
5917.1191281662941
 31
0.0
  0
LINE
  5
7D4C
  8
1
 10
2992.8002160565152
 20
5782.0478776188756
 30
0.0
 11
2992.8002160565152
 21
5892.0478776188756
 31
0.0
  0
LINE
  5
7D4D
  8
1
 10
2562.2002160565171
 20
5782.0478776188747
 30
0.0
 11
2562.2002160565171
 21
5892.0478776188747
 31
0.0
  0
LINE
  5
7D4E
  8
1
 10
2162.1002160565149
 20
5940.0478776188747
 30
0.0
 11
2359.600216056514
 21
5940.0478776188738
 31
0.0
  0
LINE
  5
7D4F
  8
1
 10
3086.1002160565158
 20
5799.1191281653037
 30
0.0
 11
3086.1002160565158
 21
5909.1191281614329
 31
0.0
  0
LINE
  5
7D50
  8
1
 10
3076.6789071106682
 20
5909.1191281614329
 30
0.0
 11
3076.67890711067
 21
5917.1191281662941
 31
0.0
  0
LINE
  5
7D51
  8
1
 10
3048.882767073917
 20
5927.9974083478746
 30
0.0
 11
3048.882767073917
 21
5917.1191281662941
 31
0.0
  0
LINE
  5
7D53
  8
1
 10
2424.6002160565149
 20
5892.0478776188747
 30
0.0
 11
2424.6002160565149
 21
5897.0478776188747
 31
0.0
  0
LINE
  5
7D54
  8
1
 10
2369.6002160565149
 20
5892.0478776188747
 30
0.0
 11
2369.6002160565149
 21
5897.0478776188747
 31
0.0
  0
LINE
  5
7D55
  8
1
 10
2359.600216056514
 20
5897.0478776188747
 30
0.0
 11
2434.6002160565149
 21
5897.0478776188747
 31
0.0
  0
LINE
  5
7D58
  8
1
 10
2359.600216056514
 20
5897.0478776188747
 30
0.0
 11
2359.600216056514
 21
6772.0478776188738
 31
0.0
  0
LINE
  5
7D5A
  8
1
 10
3269.100216056514
 20
5996.5885363376037
 30
0.0
 11
3269.100216056514
 21
6238.8355762980264
 31
0.0
  0
LINE
  5
7D5B
  8
1
 10
3269.1002160565149
 20
6402.119128166295
 30
0.0
 11
3269.1002160565149
 21
5927.9974083478746
 31
0.0
  0
LINE
  5
7D5C
  8
1
 10
2945.100216056514
 20
5996.5885363376037
 30
0.0
 11
2945.100216056514
 21
6238.8355762980264
 31
0.0
  0
LINE
  5
7D5D
  8
1
 10
2945.100216056514
 20
6402.119128166295
 30
0.0
 11
2945.1002160565149
 21
5927.9974083478764
 31
0.0
  0
LINE
  5
7D5F
  8
1
 10
2945.100216056514
 20
6402.119128166295
 30
0.0
 11
3269.100216056514
 21
6402.119128166295
 31
0.0
  0
LINE
  5
7D60
  8
1
 10
2162.1002160565149
 20
6674.0478776188738
 30
0.0
 11
2359.600216056514
 21
6674.0478776188747
 31
0.0
  0
LINE
  5
7D61
  8
1
 10
2117.1002160565149
 20
5730.0478776188747
 30
0.0
 11
2117.1002160565149
 21
5930.0478776188747
 31
0.0
  0
LINE
  5
7D62
  8
1
 10
2232.0002160565159
 20
5782.0478776188729
 30
0.0
 11
2232.0002160565159
 21
5892.0478776188738
 31
0.0
  0
POINT
  5
7D63
  8
1
 10
2117.1002160565149
 20
5730.0478776188747
 30
0.0
  0
LINE
  5
7D64
  8
2
 10
1639.517134728208
 20
7147.0478776188747
 30
0.0
 11
3292.1002160565149
 21
7147.0478776188747
 31
0.0
  0
LINE
  5
7D65
  8
1
 10
1717.1002160565149
 20
7575.0478776188738
 30
0.0
 11
1767.1002160565149
 21
7575.0478776188738
 31
0.0
  0
LINE
  5
7D66
  8
1
 10
1717.1002160565149
 20
6772.0478776188738
 30
0.0
 11
3265.1002160565149
 21
6772.0478776188738
 31
0.0
  0
LINE
  5
7D67
  8
1
 10
1717.1002160565149
 20
7522.0478776188738
 30
0.0
 11
3265.1002160565149
 21
7522.0478776188747
 31
0.0
  0
LINE
  5
7D68
  8
2
 10
2397.100216056514
 20
5702.0530982226337
 30
0.0
 11
2397.100216056514
 21
7556.6236554980569
 31
0.0
  0
LINE
  5
7D6B
  8
1
 10
2434.600216056514
 20
6674.0478776188747
 30
0.0
 11
2632.1002160565149
 21
6674.0478776188747
 31
0.0
  0
LINE
  5
7D6C
  8
1
 10
2434.600216056514
 20
5940.0478776188747
 30
0.0
 11
2632.1002160565149
 21
5940.0478776188747
 31
0.0
  0
LINE
  5
7D6D
  8
1
 10
1717.1002160565149
 20
6719.0478776188756
 30
0.0
 11
1717.1002160565149
 21
7575.0478776188738
 31
0.0
  0
LINE
  5
7D6E
  8
1
 10
1767.1002160565149
 20
6719.0478776188756
 30
0.0
 11
1767.1002160565149
 21
7575.0478776188738
 31
0.0
  0
LINE
  5
7D6F
  8
1
 10
3265.1002160565149
 20
6772.0478776188738
 30
0.0
 11
3265.1002160565149
 21
7522.0478776188747
 31
0.0
  0
LINE
  5
7D70
  8
1
 10
3022.100216056514
 20
6772.0478776188738
 30
0.0
 11
3022.100216056514
 21
6767.0478776188766
 31
0.0
  0
LINE
  5
7D71
  8
1
 10
1772.100216056514
 20
6772.0478776188738
 30
0.0
 11
1772.100216056514
 21
6702.0478776188747
 31
0.0
  0
LINE
  5
7D72
  8
4
 10
6475.0
 20
1750.0
 30
0.0
 11
6475.0
 21
1050.0
 31
0.0
  0
LINE
  5
7D73
  8
4
 10
4025.0
 20
1750.0
 30
0.0
 11
4025.0
 21
1050.0
 31
0.0
  0
LINE
  5
7D74
  8
4
 10
2275.0
 20
1750.0
 30
0.0
 11
2275.0
 21
1050.0
 31
0.0
  0
LINE
  5
7D77
  8
4
 10
2275.0
 20
1050.0
 30
0.0
 11
6475.0
 21
1050.0
 31
0.0
  0
LINE
  5
7D78
  8
4
 10
2275.0
 20
1400.0
 30
0.0
 11
6475.0
 21
1400.0
 31
0.0
  0
TEXT
  5
7D79
  8
4
 10
2409.7572829641558
 20
1510.4005905331451
 30
0.0
 40
175.0
  1
機器名称
  0
TEXT
  5
7D7A
  8
4
 10
2401.9033710867911
 20
1125.7580485620381
 30
0.0
 40
175.0
  1
機器型番
  0
TEXT
  5
7D7B
  8
4
 10
4121.875609206827
 20
1479.00119135149
 30
0.0
 40
150.0
  1
ミツヤリミットロ－ﾄﾞファン
  0
TEXT
  5
7D7C
  8
4
 10
4153.2907345491822
 20
1110.0585449798009
 30
0.0
 40
175.0
  1
LL#6-1
  0
TEXT
  5
7D7E
  8
4
 10
2682.2591629365711
 20
8342.0009446638051
 30
0.0
 40
188.99999999999989
  1
床置防振ベット
  0
TEXT
  5
7D7F
  8
4
 10
1056.5865766530619
 20
8868.5834166975455
 30
0.0
 40
252.0
  1
遠心式片吸込片持リミットロ－ﾄﾞファン
  0
LINE
  5
7D80
  8
4
 10
875.0
 20
8642.9306399268171
 30
0.0
 11
6475.0
 21
8642.9306399268171
 31
0.0
  0
LINE
  5
7D81
  8
4
 10
875.0
 20
9342.9306399268171
 30
0.0
 11
6475.0
 21
9342.9306399268171
 31
0.0
  0
LINE
  5
7D82
  8
4
 10
2275.0
 20
1750.0
 30
0.0
 11
6475.0
 21
1750.0
 31
0.0
  0
LINE
  5
7D83
  8
4
 10
875.0
 20
9342.9306399268171
 30
0.0
 11
875.0
 21
8642.9306399268171
 31
0.0
  0
TEXT
  5
7D84
  8
4
 10
1156.7532500871121
 20
8338.1181714122031
 30
0.0
 40
188.99999999999989
  1
左回転左横向
  0
TEXT
  5
7D85
  8
4
 10
5141.3934573725146
 20
9471.21378523358
 30
0.0
 40
196.0
  1
No.
  0
TEXT
  5
7D86
  8
4
 10
4589.5362191000459
 20
8342.0009446638051
 30
0.0
 40
188.99999999999989
  1
縮尺：1/35
  0
LINE
  5
7D87
  8
4
 10
6475.0
 20
9342.9306399268171
 30
0.0
 11
6475.0
 21
8642.9306399268171
 31
0.0
  0
LINE
  5
7D88
  8
4
 10
7350.0
 20
10325.0
 30
0.0
 11
7350.0
 21
10325.0
 31
0.0
  0
LINE
  5
7D89
  8
4
 10
5042.160978259526
 20
9384.4225409389055
 30
0.0
 11
5042.160978259526
 21
9753.2829154241354
 31
0.0
  0
LINE
  5
7D8A
  8
4
 10
5042.160978259526
 20
9753.2829154241354
 30
0.0
 11
6475.0
 21
9753.2829154241354
 31
0.0
  0
LINE
  5
7D8B
  8
4
 10
6475.0
 20
9753.2829154241354
 30
0.0
 11
6475.0
 21
9384.4225409389055
 31
0.0
  0
LINE
  5
7D8C
  8
4
 10
6475.0
 20
9384.4225409389055
 30
0.0
 11
5042.160978259526
 21
9384.4225409389055
 31
0.0
  0
LINE
  5
7D8D
  8
4
 10
0.0
 20
0.0
 30
0.0
 11
0.0
 21
10325.0
 31
0.0
  0
LINE
  5
7D8E
  8
4
 10
0.0
 20
10325.0
 30
0.0
 11
7350.0
 21
10325.0
 31
0.0
  0
LINE
  5
7D8F
  8
4
 10
7350.0
 20
10325.0
 30
0.0
 11
7350.0
 21
0.0
 31
0.0
  0
LINE
  5
7D90
  8
4
 10
7350.0
 20
0.0
 30
0.0
 11
0.0
 21
0.0
 31
0.0
  0
DIMENSION
  5
7DA4
  8
3
  2
*D2
 10
1772.100216056514
 20
7875.0585764809948
 30
0.0
 11
2376.686039964457
 21
7875.0585764809948
 31
0.0
 70
   128
 13
3022.100216056514
 23
7592.0478776188784
 33
0.0
 14
1772.100216056514
 24
7592.0478776188738
 34
0.0
1001
ACAD
1000
DSTYLE
1002
{
1070
   287
1070
     3
1070
    40
1040
35.0
1070
   143
1040
0.039
1070
   172
1070
     1
1070
   271
1070
     0
1070
   279
1070
     0
1070
   288
1070
     1
1002
}
  0
DIMENSION
  5
7DB1
  8
3
  2
*D3
 10
1326.883573129352
 20
6702.0478776188747
 30
0.0
 11
1326.8835731293509
 21
7151.9457237715678
 31
0.0
 70
   128
 13
1772.100216056514
 23
7592.0478776188738
 33
0.0
 14
1772.100216056514
 24
6702.0478776188747
 34
0.0
 50
270.0
1001
ACAD
1000
DSTYLE
1002
{
1070
   287
1070
     3
1070
    40
1040
35.0
1070
   143
1040
0.039
1070
   172
1070
     1
1070
   271
1070
     0
1070
   279
1070
     0
1070
   288
1070
     1
1002
}
  0
DIMENSION
  5
7DCA
  8
3
  2
*D4
 10
2052.1002160565149
 20
5378.0318328217581
 30
0.0
 11
2704.926474210602
 21
5378.0318328217581
 31
0.0
 70
   128
 13
3337.100216056514
 23
5879.0478776188766
 33
0.0
 14
2052.1002160565149
 24
5879.0478776188738
 34
0.0
1001
ACAD
1000
DSTYLE
1002
{
1070
   287
1070
     3
1070
    40
1040
35.0
1070
   143
1040
0.039
1070
   172
1070
     1
1070
   271
1070
     0
1070
   279
1070
     0
1070
   288
1070
     1
1002
}
  0
DIMENSION
  5
7DD8
  8
3
  2
*D5
 10
1772.100216056514
 20
5378.0318328217581
 30
0.0
 11
1532.100216056514
 21
5465.5318328217581
 31
0.0
 70
     0
 13
2052.1002160565149
 23
5879.0478776188738
 33
0.0
 14
1772.100216056514
 24
6702.0478776188747
 34
0.0
1001
ACAD
1000
DSTYLE
1002
{
1070
   287
1070
     3
1070
    40
1040
35.0
1070
   143
1040
0.039
1070
   172
1070
     1
1070
   271
1070
     0
1070
   279
1070
     0
1070
   288
1070
     1
1002
}
  0
DIMENSION
  5
7DE5
  8
3
  2
*D6
 10
3538.3371080550792
 20
5879.0478776188766
 30
0.0
 11
3538.3371080550778
 21
6273.0031504138833
 31
0.0
 70
   128
 13
3337.100216056514
 23
6767.0478776188766
 33
0.0
 14
3337.100216056514
 24
5879.0478776188766
 34
0.0
 50
270.0
1001
ACAD
1000
DSTYLE
1002
{
1070
   287
1070
     3
1070
    40
1040
35.0
1070
   143
1040
0.039
1070
   172
1070
     1
1070
   271
1070
     0
1070
   279
1070
     0
1070
   288
1070
     1
1002
}
  0
DIMENSION
  5
7DF3
  8
3
  2
*D7
 10
3337.100216056514
 20
7875.0585764809948
 30
0.0
 11
3179.6002160565149
 21
8015.0585764809939
 31
0.0
 70
     0
 13
3022.100216056514
 23
7592.0478776188784
 33
0.0
 14
3337.100216056514
 24
6767.0478776188766
 34
0.0
1001
ACAD
1000
DSTYLE
1002
{
1070
   288
1070
     1
1070
   172
1070
     1
1070
    75
1070
     1
1070
    40
1040
35.0
1070
   271
1070
     0
1070
   143
1040
0.039
1002
}
  0
DIMENSION
  5
7E20
  8
3
  2
*D8
 10
2397.1002160565158
 20
4575.404622885846
 30
0.0
 11
2081.7170419366371
 21
4575.404622885846
 31
0.0
 70
   128
 13
1717.1002160565149
 23
4348.5317812317126
 33
0.0
 14
2397.1002160565158
 24
4386.4476735721537
 34
0.0
1001
ACAD
1000
DSTYLE
1002
{
1070
   287
1070
     3
1070
    40
1040
35.0
1070
   143
1040
0.039
1070
   172
1070
     1
1070
   271
1070
     0
1070
   279
1070
     0
1070
   288
1070
     1
1002
}
  0
DIMENSION
  5
7E2C
  8
3
  2
*D9
 10
3265.1002160565149
 20
4575.404622885846
 30
0.0
 11
2831.1002160565149
 21
4662.904622885846
 31
0.0
 70
     0
 13
2397.1002160565158
 23
4386.4476735721537
 33
0.0
 14
3265.1002160565149
 24
3295.531781231713
 34
0.0
1001
ACAD
1000
DSTYLE
1002
{
1070
   287
1070
     4
1070
    40
1040
35.0
1070
    75
1070
     1
1070
   143
1040
0.039
1070
   172
1070
     1
1070
   271
1070
     0
1070
   279
1070
     1
1070
   288
1070
     1
1002
}
  0
DIMENSION
  5
7E39
  8
3
  2
*D10
 10
1463.3072601787501
 20
3265.531781231713
 30
0.0
 11
1463.3072601787501
 21
3816.9990316663211
 31
0.0
 70
   128
 13
1717.1002160565149
 23
4295.5317812317126
 33
0.0
 14
1717.1002160565149
 24
3265.531781231713
 34
0.0
 50
270.0
1001
ACAD
1000
DSTYLE
1002
{
1070
   287
1070
     3
1070
    40
1040
35.0
1070
   143
1040
0.039
1070
   172
1070
     1
1070
   271
1070
     0
1070
   279
1070
     0
1070
   288
1070
     1
1002
}
  0
DIMENSION
  5
7E46
  8
3
  2
*D11
 10
1245.458392987144
 20
3221.5317812317139
 30
0.0
 11
1245.458392987144
 21
3859.1326622215311
 31
0.0
 70
   128
 13
1699.600216056514
 23
4295.5317812317126
 33
0.0
 14
1657.4842335588869
 24
3221.5317812317139
 34
0.0
 50
270.0
1001
ACAD
1000
DSTYLE
1002
{
1070
   287
1070
     3
1070
    40
1040
35.0
1070
   143
1040
0.039
1070
   172
1070
     1
1070
   271
1070
     0
1070
   279
1070
     0
1070
   288
1070
     1
1002
}
  0
DIMENSION
  5
7E52
  8
3
  2
*D12
 10
1245.458392987144
 20
2471.5317812317148
 30
0.0
 11
1157.958392987143
 21
2846.5317812317139
 31
0.0
 70
     0
 13
1657.4842335588869
 23
3221.5317812317139
 33
0.0
 14
1772.100216056514
 24
2471.5317812317148
 34
0.0
 50
270.0
1001
ACAD
1000
DSTYLE
1002
{
1070
   287
1070
     4
1070
    40
1040
35.0
1070
    75
1070
     1
1070
   143
1040
0.039
1070
   172
1070
     1
1070
   271
1070
     0
1070
   279
1070
     1
1070
   288
1070
     1
1002
}
  0
DIMENSION
  5
7EBD
  8
3
  2
*D13
 10
6168.3135360545612
 20
4484.0100562860571
 30
0.0
 11
5794.6756321233552
 21
4484.0100562860571
 31
0.0
 70
   128
 13
5418.3135360545612
 23
4295.5317812317153
 33
0.0
 14
6168.3135360545612
 24
4295.5317812317153
 34
0.0
1001
ACAD
1000
DSTYLE
1002
{
1070
   287
1070
     3
1070
    40
1040
35.0
1070
   143
1040
0.039
1070
   172
1070
     1
1070
   271
1070
     0
1070
   279
1070
     0
1070
   288
1070
     1
1002
}
  0
DIMENSION
  5
7ECC
  8
3
  2
*D14
 10
5793.3135360545612
 20
4771.3862499029301
 30
0.0
 11
5982.3135360545612
 21
4771.3862499029301
 31
0.0
 70
   128
 13
6171.3135360545612
 23
4348.5317812317144
 33
0.0
 14
5793.3135360545612
 24
4661.3295487321593
 34
0.0
1001
ACAD
1000
DSTYLE
1002
{
1070
   287
1070
     3
1070
    40
1040
35.0
1070
   143
1040
0.039
1070
   172
1070
     1
1070
   271
1070
     0
1070
   279
1070
     0
1070
   288
1070
     1
1002
}
  0
DIMENSION
  5
7ED8
  8
3
  2
*D15
 10
4376.3135360545602
 20
4771.3862499029301
 30
0.0
 11
5084.8135360545612
 21
4946.386249902931
 31
0.0
 70
     0
  1
MAX\P1450
 13
5793.3135360545612
 23
4661.3295487321593
 33
0.0
 14
4376.3135360545602
 24
3501.5317812317139
 34
0.0
1001
ACAD
1000
DSTYLE
1002
{
1070
   287
1070
     4
1070
    40
1040
35.0
1070
    75
1070
     1
1070
   143
1040
0.039
1070
   172
1070
     1
1070
   271
1070
     0
1070
   279
1070
     1
1070
   288
1070
     1
1002
}
  0
DIMENSION
  5
7F8E
  8
3
  2
*D16
 10
3337.1002160565158
 20
4855.3182795304929
 30
0.0
 11
2590.6952499136451
 21
4855.3182795304929
 31
0.0
 70
   128
 13
1717.1002160565149
 23
4348.5317812317126
 33
0.0
 14
3337.1002160565158
 24
2596.5317812317148
 34
0.0
1001
ACAD
1000
DSTYLE
1002
{
1070
   287
1070
     3
1070
    40
1040
35.0
1070
   143
1040
0.039
1070
   172
1070
     1
1070
   271
1070
     0
1070
   279
1070
     0
1070
   288
1070
     1
1002
}
  0
DIMENSION
  5
7FF5
  8
3
  2
*D18
 10
1326.8835731293509
 20
5879.0478776188747
 30
0.0
 11
1239.38357312935
 21
6290.5478776188756
 31
0.0
 70
     0
 13
1772.100216056514
 23
6702.0478776188747
 33
0.0
 14
2052.1002160565149
 24
5879.0478776188738
 34
0.0
 50
270.0
1001
ACAD
1000
DSTYLE
1002
{
1070
   287
1070
     4
1070
    40
1040
35.0
1070
    75
1070
     1
1070
   143
1040
0.039
1070
   172
1070
     1
1070
   271
1070
     0
1070
   279
1070
     1
1070
   288
1070
     1
1002
}
  0
LINE
  5
8120
  8
1
 10
5031.3135360555534
 20
3008.5317812317148
 30
0.0
 11
5031.3135360555516
 21
2684.5317812317139
 31
0.0
  0
LINE
  5
8121
  8
1
 10
4538.3135360506903
 20
2876.9530901775602
 30
0.0
 11
4538.3135360506903
 21
2818.1104722858681
 31
0.0
  0
LINE
  5
8122
  8
1
 10
4546.3135360555516
 20
2904.7492302143119
 30
0.0
 11
4546.3135360555516
 21
2788.3143322491151
 31
0.0
  0
LINE
  5
8123
  8
1
 10
4428.3135360545612
 20
2825.5317812317139
 30
0.0
 11
4428.3135360545612
 21
2867.5317812317139
 31
0.0
  0
LINE
  5
8124
  8
1
 10
4557.1918162371321
 20
2684.5317812317139
 30
0.0
 11
4557.1918162371321
 21
3008.5317812317148
 31
0.0
  0
LINE
  5
8129
  8
1
 10
4428.3135360545612
 20
2867.5317812317121
 30
0.0
 11
4538.3135360506903
 21
2867.5317812317121
 31
0.0
  0
LINE
  5
812A
  8
1
 10
4538.3135360506903
 20
2876.9530901775602
 30
0.0
 11
4546.3135360555516
 21
2876.9530901775588
 31
0.0
  0
LINE
  5
812B
  8
1
 10
4557.1918162371321
 20
2904.7492302143119
 30
0.0
 11
4546.3135360555516
 21
2904.7492302143119
 31
0.0
  0
LINE
  5
812E
  8
1
 10
4625.7829442268621
 20
3008.5317812317139
 30
0.0
 11
4868.0299841872829
 21
3008.5317812317139
 31
0.0
  0
LINE
  5
812F
  8
1
 10
5031.3135360555534
 20
3008.5317812317148
 30
0.0
 11
4557.1918162371321
 21
3008.5317812317148
 31
0.0
  0
LINE
  5
8132
  8
2
 10
5035.6860039643434
 20
2846.5317812317139
 30
0.0
 11
4329.611544284764
 21
2846.5317812317139
 31
0.0
  0
LINE
  5
8135
  8
1
 10
4428.3135360545612
 20
2825.5317812317139
 30
0.0
 11
4538.3135360506903
 21
2825.5317812317121
 31
0.0
  0
LINE
  5
8136
  8
1
 10
4557.1918162371321
 20
2788.3143322491151
 30
0.0
 11
4546.3135360555516
 21
2788.3143322491151
 31
0.0
  0
LINE
  5
8137
  8
1
 10
4538.3135360506903
 20
2818.1104722858681
 30
0.0
 11
4546.3135360555516
 21
2818.1104722858681
 31
0.0
  0
LINE
  5
813C
  8
1
 10
4625.7829442268621
 20
2684.5317812317139
 30
0.0
 11
4868.0299841872829
 21
2684.5317812317139
 31
0.0
  0
LINE
  5
813D
  8
1
 10
5031.3135360555516
 20
2684.5317812317139
 30
0.0
 11
4557.1918162371321
 21
2684.5317812317139
 31
0.0
  0
LINE
  5
814A
  8
1
 10
4586.3135360545593
 20
2684.5317812317139
 30
0.0
 11
4586.3135360545602
 21
2596.5317812317139
 31
0.0
  0
LINE
  5
814B
  8
1
 10
4926.5088759969376
 20
2684.5317812317139
 30
0.0
 11
4926.5088759969376
 21
2596.5317812317139
 31
0.0
  0
LINE
  5
814C
  8
1
 10
4608.9756371204348
 20
2684.5317812317139
 30
0.0
 11
4608.9756371204348
 21
2596.5317812317139
 31
0.0
  0
LINE
  5
814D
  8
1
 10
4608.9756371204348
 20
2636.5317812317139
 30
0.0
 11
4926.5088759969376
 21
2636.5317812317139
 31
0.0
  0
LINE
  5
814E
  8
1
 10
6172.513536054561
 20
3212.5317812317139
 30
0.0
 11
6221.3135360545612
 21
3212.5317812317139
 31
0.0
  0
DIMENSION
  5
815F
  8
3
  2
*D19
 10
2397.1002160565158
 20
2097.784085461426
 30
0.0
 11
2084.6002160565158
 21
2185.284085461426
 31
0.0
 70
     0
 13
1772.100216056514
 23
2326.5317812317148
 33
0.0
 14
2397.1002160565158
 24
2326.5317812317148
 34
0.0
1001
ACAD
1000
DSTYLE
1002
{
1070
   287
1070
     3
1070
    40
1040
35.0
1070
   143
1040
0.039
1070
   172
1070
     1
1070
   271
1070
     0
1070
   279
1070
     0
1002
}
  0
DIMENSION
  5
816C
  8
3
  2
*D20
 10
3337.1002160565158
 20
2097.784085461426
 30
0.0
 11
2867.1002160565158
 21
2185.284085461426
 31
0.0
 70
     0
 13
2397.1002160565158
 23
2326.5317812317148
 33
0.0
 14
3337.1002160565158
 24
2326.5317812317148
 34
0.0
1001
ACAD
1000
DSTYLE
1002
{
1070
   287
1070
     3
1070
    40
1040
35.0
1070
   143
1040
0.039
1070
   172
1070
     1
1070
   271
1070
     0
1070
   279
1070
     0
1002
}
  0
DIMENSION
  5
8179
  8
3
  2
*D21
 10
5793.3135360545612
 20
2097.784085461426
 30
0.0
 11
5159.3135360545602
 21
2185.284085461426
 31
0.0
 70
     0
 13
4525.3135360545602
 23
2326.5317812317139
 33
0.0
 14
5793.3135360545612
 24
2326.5317812317139
 34
0.0
1001
ACAD
1000
DSTYLE
1002
{
1070
   287
1070
     3
1070
    40
1040
35.0
1070
   143
1040
0.039
1070
   172
1070
     1
1070
   271
1070
     0
1070
   279
1070
     0
1002
}
  0
DIMENSION
  5
8188
  8
3
  2
*D22
 10
6238.3135360545602
 20
2097.784085461426
 30
0.0
 11
6015.8135360545602
 21
2185.284085461426
 31
0.0
 70
     0
 13
5793.3135360545612
 23
2326.5317812317139
 33
0.0
 14
6238.3135360545602
 24
2326.5317812317139
 34
0.0
1001
ACAD
1000
DSTYLE
1002
{
1070
   287
1070
     3
1070
    40
1040
35.0
1070
   143
1040
0.039
1070
   172
1070
     1
1070
   271
1070
     0
1070
   279
1070
     0
1002
}
  0
LINE
  5
819E
  8
1
 10
2162.1002160565158
 20
3141.5317812317139
 30
0.0
 11
2632.1002160565172
 21
3141.5317812317139
 31
0.0
  0
LINE
  5
81A0
  8
1
 10
2162.1002160565158
 20
3141.5317812317139
 30
0.0
 11
2052.1002160565158
 21
2596.5317812317148
 31
0.0
  0
LINE
  5
81A1
  8
1
 10
2632.1002160565172
 20
3141.5317812317139
 30
0.0
 11
2742.1002160565158
 21
2596.5317812317148
 31
0.0
  0
LINE
  5
81A4
  8
1
 10
2162.1002160565149
 20
5940.0478776188747
 30
0.0
 11
2162.1002160565149
 21
6674.0478776188738
 31
0.0
  0
LINE
  5
81A5
  8
1
 10
2632.1002160565149
 20
5940.0478776188747
 30
0.0
 11
2632.1002160565158
 21
6674.0478776188747
 31
0.0
  0
LINE
  5
81A9
  8
1
 10
4525.3135360545602
 20
2451.5317812317139
 30
0.0
 11
6238.3135360545602
 21
2451.5317812317139
 31
0.0
  0
LINE
  5
81AA
  8
1
 10
4525.3135360545602
 20
2326.5317812317139
 30
0.0
 11
6238.3135360545602
 21
2326.5317812317139
 31
0.0
1001
ACAD
1000
ASC_BOUNDS
1002
{
1070
    19
1002
}
  0
LINE
  5
81AB
  8
1
 10
6238.3135360545602
 20
2451.5317812317139
 30
0.0
 11
6238.3135360545602
 21
2326.5317812317139
 31
0.0
  0
LINE
  5
81AC
  8
1
 10
4525.3135360545602
 20
2451.5317812317139
 30
0.0
 11
4525.3135360545602
 21
2326.5317812317139
 31
0.0
  0
LINE
  5
81AD
  8
1
 10
5348.3135360545602
 20
2451.5317812317139
 30
0.0
 11
5348.3135360545602
 21
2326.5317812317139
 31
0.0
  0
LINE
  5
81AE
  8
1
 10
3337.1002160565158
 20
2326.5317812317148
 30
0.0
 11
1772.100216056514
 21
2326.5317812317148
 31
0.0
1001
ACAD
1000
ASC_BOUNDS
1002
{
1070
    19
1002
}
  0
LINE
  5
81AF
  8
1
 10
3337.1002160565158
 20
2451.5317812317148
 30
0.0
 11
3337.1002160565158
 21
2326.5317812317148
 31
0.0
  0
LINE
  5
81B0
  8
1
 10
1772.100216056514
 20
2451.5317812317148
 30
0.0
 11
1772.100216056514
 21
2326.5317812317148
 31
0.0
  0
LINE
  5
81B1
  8
1
 10
2052.1002160565158
 20
2451.5317812317148
 30
0.0
 11
2052.1002160565158
 21
2326.5317812317148
 31
0.0
  0
LINE
  5
81B2
  8
1
 10
3337.1002160565158
 20
2451.5317812317148
 30
0.0
 11
1772.100216056514
 21
2451.5317812317148
 31
0.0
1001
ACAD
1000
ASC_BOUNDS
1002
{
1070
    19
1002
}
  0
DIMENSION
  5
81C1
  8
3
  2
*D23
 10
1248.73295863573
 20
2326.5317812317148
 30
0.0
 11
1161.2329586357289
 21
2026.5317812317151
 31
0.0
 70
     0
 13
1772.100216056514
 23
2451.5317812317148
 33
0.0
 14
1772.100216056514
 24
2326.5317812317148
 34
0.0
 50
90.0
1001
ACAD
1000
DSTYLE
1002
{
1070
   287
1070
     3
1070
    40
1040
35.0
1070
   143
1040
0.039
1070
   172
1070
     1
1070
   271
1070
     0
1070
   279
1070
     0
1070
     6
1000
DOT
1002
}
  0
DIMENSION
  5
81D2
  8
3
  2
*D24
 10
1248.73295863573
 20
2471.5317812317148
 30
0.0
 11
966.23295863572957
 21
2546.7817812317148
 31
0.0
 70
     0
 13
1772.100216056514
 23
2451.5317812317148
 33
0.0
 14
1772.100216056514
 24
2471.5317812317148
 34
0.0
 50
90.0
1001
ACAD
1000
DSTYLE
1002
{
1070
   287
1070
     4
1070
     3
1000
(<>)
1070
    40
1040
35.0
1070
   143
1040
0.039
1070
   172
1070
     1
1070
   271
1070
     0
1070
   279
1070
     1
1070
     6
1000
DOT
1002
}
  0
DIMENSION
  5
81DF
  8
3
  2
*D25
 10
849.4464805850439
 20
2326.5317812317148
 30
0.0
 11
734.44648058504345
 21
3337.5317812317139
 31
0.0
 70
     0
 13
1717.1002160565149
 23
4348.5317812317126
 33
0.0
 14
1772.100216056514
 24
2326.5317812317148
 34
0.0
 50
90.0
1001
ACAD
1000
DSTYLE
1002
{
1070
   287
1070
     4
1070
     3
1000
(<>)
1070
    40
1040
35.0
1070
   143
1040
0.039
1070
   172
1070
     1
1070
   271
1070
     0
1070
   279
1070
     1
1002
}
  0
DIMENSION
  5
81F6
  8
3
  2
*D26
 10
6499.7853093689264
 20
2721.5317812317139
 30
0.0
 11
6412.2853093689246
 21
3221.5317812317148
 31
0.0
 70
     0
 13
6172.513536054561
 23
3721.5317812317139
 33
0.0
 14
6172.513536054561
 24
2721.5317812317139
 34
0.0
 50
90.0
1001
ACAD
1000
DSTYLE
1002
{
1070
   287
1070
     4
1070
     3
1000
φ<>
1070
    40
1040
35.0
1070
   143
1040
0.039
1070
   172
1070
     1
1070
   271
1070
     0
1070
   279
1070
     1
1002
}
  0
ENDSEC
  0
EOF
