  0
SECTION
  2
HEADER
  9
$ACADVER
  1
AC1009
  9
$INSBASE
 10
0.0
 20
0.0
 30
0.0
  9
$EXTMIN
 10
0.0
 20
0.0
 30
0.0
  9
$EXTMAX
 10
7350.0
 20
10325.0
 30
0.0
  9
$LIMMIN
 10
0.0
 20
0.0
  9
$LIMMAX
 10
297.0
 20
210.0
  9
$ORTHOMODE
 70
     0
  9
$REGENMODE
 70
     1
  9
$FILLMODE
 70
     0
  9
$QTEXTMODE
 70
     0
  9
$MIRRTEXT
 70
     1
  9
$DRAGMODE
 70
     2
  9
$LTSCALE
 40
100.0
  9
$OSMODE
 70
    37
  9
$ATTMODE
 70
     1
  9
$TEXTSIZE
 40
180.0
  9
$TRACEWID
 40
0.05
  9
$TEXTSTYLE
  7
STANDARD
  9
$CLAYER
  8
3
  9
$CELTYPE
  6
BYLAYER
  9
$CECOLOR
 62
   256
  9
$DIMSCALE
 40
35.0
  9
$DIMASZ
 40
2.0
  9
$DIMEXO
 40
0.5
  9
$DIMDLI
 40
10.0
  9
$DIMRND
 40
0.0
  9
$DIMDLE
 40
0.0
  9
$DIMEXE
 40
1.0
  9
$DIMTP
 40
1.0
  9
$DIMTM
 40
1.0
  9
$DIMTXT
 40
3.0
  9
$DIMCEN
 40
0.0
  9
$DIMTSZ
 40
0.0
  9
$DIMTOL
 70
     0
  9
$DIMLIM
 70
     0
  9
$DIMTIH
 70
     0
  9
$DIMTOH
 70
     0
  9
$DIMSE1
 70
     0
  9
$DIMSE2
 70
     0
  9
$DIMTAD
 70
     1
  9
$DIMZIN
 70
     8
  9
$DIMBLK
  1

  9
$DIMASO
 70
     1
  9
$DIMSHO
 70
     1
  9
$DIMPOST
  1
φ<>
  9
$DIMAPOST
  1

  9
$DIMALT
 70
     0
  9
$DIMALTD
 70
     2
  9
$DIMALTF
 40
0.039
  9
$DIMLFAC
 40
1.0
  9
$DIMTOFL
 70
     1
  9
$DIMTVP
 40
0.0
  9
$DIMTIX
 70
     0
  9
$DIMSOXD
 70
     0
  9
$DIMSAH
 70
     1
  9
$DIMBLK1
  1
OPEN
  9
$DIMBLK2
  1
OPEN
  9
$DIMSTYLE
  2
IGA
  9
$DIMCLRD
 70
     0
  9
$DIMCLRE
 70
     0
  9
$DIMCLRT
 70
     0
  9
$DIMTFAC
 40
10.0
  9
$DIMGAP
 40
1.0
  9
$LUNITS
 70
     2
  9
$LUPREC
 70
     3
  9
$SKETCHINC
 40
0.1
  9
$FILLETRAD
 40
50.0
  9
$AUNITS
 70
     0
  9
$AUPREC
 70
     0
  9
$MENU
  1
acad
  9
$ELEVATION
 40
0.0
  9
$PELEVATION
 40
0.0
  9
$THICKNESS
 40
0.0
  9
$LIMCHECK
 70
     0
  9
$BLIPMODE
 70
     0
  9
$CHAMFERA
 40
0.5
  9
$CHAMFERB
 40
0.5
  9
$SKPOLY
 70
     0
  9
$TDCREATE
 40
2452779.654074884
  9
$TDUPDATE
 40
2454953.6455908101
  9
$TDINDWG
 40
0.0336711574
  9
$TDUSRTIMER
 40
0.0336711574
  9
$USRTIMER
 70
     1
  9
$ANGBASE
 50
0.0
  9
$ANGDIR
 70
     0
  9
$PDMODE
 70
     0
  9
$PDSIZE
 40
0.0
  9
$PLINEWID
 40
0.0
  9
$COORDS
 70
     1
  9
$SPLFRAME
 70
     0
  9
$SPLINETYPE
 70
     6
  9
$SPLINESEGS
 70
     8
  9
$ATTDIA
 70
     0
  9
$ATTREQ
 70
     1
  9
$HANDLING
 70
 10241
  9
$HANDSEED
  5
8432
  9
$SURFTAB1
 70
     6
  9
$SURFTAB2
 70
     6
  9
$SURFTYPE
 70
     6
  9
$SURFU
 70
     6
  9
$SURFV
 70
     6
  9
$UCSNAME
  2

  9
$UCSORG
 10
0.0
 20
0.0
 30
0.0
  9
$UCSXDIR
 10
1.0
 20
0.0
 30
0.0
  9
$UCSYDIR
 10
0.0
 20
1.0
 30
0.0
  9
$PUCSNAME
  2

  9
$PUCSORG
 10
0.0
 20
0.0
 30
0.0
  9
$PUCSXDIR
 10
1.0
 20
0.0
 30
0.0
  9
$PUCSYDIR
 10
0.0
 20
1.0
 30
0.0
  9
$USERI1
 70
     0
  9
$USERI2
 70
     0
  9
$USERI3
 70
     0
  9
$USERI4
 70
     0
  9
$USERI5
 70
     0
  9
$USERR1
 40
0.0
  9
$USERR2
 40
0.0
  9
$USERR3
 40
0.0
  9
$USERR4
 40
0.0
  9
$USERR5
 40
0.0
  9
$WORLDVIEW
 70
     1
  9
$SHADEDGE
 70
     3
  9
$SHADEDIF
 70
    70
  9
$TILEMODE
 70
     1
  9
$MAXACTVP
 70
    16
  9
$PLIMCHECK
 70
     0
  9
$PEXTMIN
 10
1.0000000000000000E+020
 20
1.0000000000000000E+020
 30
1.0000000000000000E+020
  9
$PEXTMAX
 10
-1.0000000000000000E+020
 20
-1.0000000000000000E+020
 30
-1.0000000000000000E+020
  9
$PLIMMIN
 10
0.0
 20
0.0
  9
$PLIMMAX
 10
12.0
 20
9.0
  9
$UNITMODE
 70
     0
  9
$VISRETAIN
 70
     0
  9
$PLINEGEN
 70
     0
  9
$PSLTSCALE
 70
     1
  0
ENDSEC
  0
SECTION
  2
TABLES
  0
TABLE
  2
VPORT
 70
     2
  0
VPORT
  2
*ACTIVE
 70
     0
 10
0.0
 20
0.0
 11
1.0
 21
1.0
 12
6791.6801809501721
 22
1158.762780266366
 13
0.0
 23
0.0
 14
10.0
 24
10.0
 15
10.0
 25
10.0
 16
0.0
 26
0.0
 36
1.0
 17
0.0
 27
0.0
 37
0.0
 40
2946.2616769329861
 41
3.1666666666666661
 42
50.0
 43
0.0
 44
0.0
 50
0.0
 51
0.0
 71
     0
 72
   100
 73
     1
 74
     0
 75
     0
 76
     0
 77
     0
 78
     0
  0
ENDTAB
  0
TABLE
  2
LTYPE
 70
     2
  0
LTYPE
  2
CONTINUOUS
 70
     0
  3
Solid line
 72
    65
 73
     0
 40
0.0
  0
LTYPE
  2
CENTER
 70
     0
  3
____ _ ____ _ ____ _ ____ _ ____ _ ____ _ ____ 
 72
    65
 73
     4
 40
2.0
 49
1.25
 49
-0.25
 49
0.25
 49
-0.25
  0
ENDTAB
  0
TABLE
  2
LAYER
 70
     6
  0
LAYER
  2
0
 70
     0
 62
     7
  6
CONTINUOUS
  0
LAYER
  2
3
 70
     0
 62
     2
  6
CONTINUOUS
  0
LAYER
  2
2
 70
     0
 62
     3
  6
CENTER
  0
LAYER
  2
1
 70
     0
 62
     4
  6
CONTINUOUS
  0
LAYER
  2
4
 70
     0
 62
     7
  6
CONTINUOUS
  0
LAYER
  2
DEFPOINTS
 70
     0
 62
     7
  6
CONTINUOUS
  0
ENDTAB
  0
TABLE
  2
STYLE
 70
     1
  0
STYLE
  2
STANDARD
 70
     0
 40
0.0
 41
1.0
 50
0.0
 71
     0
 42
180.0
  3
simplex.shx
  4
extfont.shx
  0
ENDTAB
  0
TABLE
  2
VIEW
 70
     0
  0
ENDTAB
  0
TABLE
  2
UCS
 70
     0
  0
ENDTAB
  0
TABLE
  2
APPID
 70
     1
  0
APPID
  2
ACAD
 70
     0
  0
ENDTAB
  0
TABLE
  2
DIMSTYLE
 70
     1
  0
DIMSTYLE
  2
IGA
 70
     0
  3

  4

  5

  6
OPEN
  7
OPEN
 40
2.0
 41
2.0
 42
0.5
 43
10.0
 44
1.0
 45
0.0
 46
0.0
 47
1.0
 48
1.0
140
3.0
141
0.0
142
0.0
143
0.03937
144
1.0
145
0.0
146
10.0
147
1.0
 71
     0
 72
     0
 73
     0
 74
     0
 75
     0
 76
     0
 77
     1
 78
     8
170
     0
171
     2
172
     0
173
     1
174
     0
175
     0
176
     0
177
     0
178
     0
  0
ENDTAB
  0
ENDSEC
  0
SECTION
  2
BLOCKS
  0
BLOCK
  8
0
  2
$MODEL_SPACE
 70
     0
 10
0.0
 20
0.0
 30
0.0
  3
$MODEL_SPACE
  1

  0
ENDBLK
  5
1B
  8
0
  0
BLOCK
 67
     1
  8
0
  2
$PAPER_SPACE
 70
     0
 10
0.0
 20
0.0
 30
0.0
  3
$PAPER_SPACE
  1

  0
ENDBLK
  5
18
 67
     1
  8
0
  0
BLOCK
  8
0
  2
YA_N
 70
     0
 10
0.0
 20
0.0
 30
0.0
  3
YA_N
  1

  0
ENDBLK
  5
7B50
  8
0
  0
BLOCK
  8
0
  2
_OPEN
 70
     0
 10
0.0
 20
0.0
 30
0.0
  3
_OPEN
  1

  0
LINE
  5
7D93
  8
0
  6
BYBLOCK
 62
     0
 10
-1.0
 20
0.1666666666666666
 30
0.0
 11
0.0
 21
0.0
 31
0.0
  0
LINE
  5
7D94
  8
0
  6
BYBLOCK
 62
     0
 10
0.0
 20
0.0
 30
0.0
 11
-1.0
 21
-0.1666666666666666
 31
0.0
  0
LINE
  5
7D95
  8
0
  6
BYBLOCK
 62
     0
 10
0.0
 20
0.0
 30
0.0
 11
-1.0
 21
0.0
 31
0.0
  0
ENDBLK
  5
7D96
  8
0
  0
BLOCK
  8
0
  2
*D2
 70
     1
 10
0.0
 20
0.0
 30
0.0
  3
*D2
  1

  0
LINE
  5
8353
  8
3
 62
     0
 10
3099.3526654963821
 20
7744.6413506426989
 30
0.0
 11
3099.3526654963821
 21
8045.1520495048171
 31
0.0
  0
LINE
  5
8354
  8
3
 62
     0
 10
1849.3526654963821
 20
7744.6413506426961
 30
0.0
 11
1849.3526654963821
 21
8045.1520495048171
 31
0.0
  0
LINE
  5
8355
  8
3
 62
     0
 10
3029.3526654963821
 20
8010.1520495048171
 30
0.0
 11
1919.3526654963821
 21
8010.1520495048171
 31
0.0
  0
INSERT
  5
8356
  8
3
 62
     0
  2
_OPEN
 10
3099.3526654963821
 20
8010.1520495048171
 30
0.0
 41
70.0
 42
70.0
 43
70.0
  0
INSERT
  5
8357
  8
3
 62
     0
  2
_OPEN
 10
1849.3526654963821
 20
8010.1520495048171
 30
0.0
 41
70.0
 42
70.0
 43
70.0
 50
180.0
  0
TEXT
  8
3
  40
105
  5
841B
  62
0
  72
0
  71
0
 10
2243.94
 20
7911.80
 30
0.000000
  1
1250
  0
POINT
  5
8359
  8
DEFPOINTS
 62
     0
 10
3099.3526654963821
 20
7727.1413506426998
 30
0.0
  0
POINT
  5
835A
  8
DEFPOINTS
 62
     0
 10
1849.3526654963821
 20
7727.1413506426961
 30
0.0
  0
POINT
  5
835B
  8
DEFPOINTS
 62
     0
 10
1849.3526654963821
 20
8010.1520495048171
 30
0.0
  0
ENDBLK
  5
8068
  8
0
  0
BLOCK
  8
0
  2
*D3
 70
     1
 10
0.0
 20
0.0
 30
0.0
  3
*D3
  1

  0
LINE
  5
835C
  8
3
 62
     0
 10
1831.8526654963821
 20
7727.1413506426961
 30
0.0
 11
1369.1360225692199
 21
7727.1413506426961
 31
0.0
  0
LINE
  5
835D
  8
3
 62
     0
 10
1831.8526654963821
 20
6837.141350642697
 30
0.0
 11
1369.136022569219
 21
6837.141350642697
 31
0.0
  0
LINE
  5
835E
  8
3
 62
     0
 10
1404.1360225692199
 20
7657.1413506426961
 30
0.0
 11
1404.1360225692199
 21
6907.1413506426979
 31
0.0
  0
INSERT
  5
835F
  8
3
 62
     0
  2
_OPEN
 10
1404.1360225692199
 20
7727.1413506426961
 30
0.0
 41
70.0
 42
70.0
 43
70.0
 50
90.0
  0
INSERT
  5
8360
  8
3
 62
     0
  2
_OPEN
 10
1404.1360225692199
 20
6837.141350642697
 30
0.0
 41
70.0
 42
70.0
 43
70.0
 50
270.0
  0
TEXT
  8
3
  40
105
  5
841C
  62
0
  72
0
  71
0
 10
1106.64
 20
7101.19
 30
0.000000
  1
890
  0
POINT
  5
8362
  8
DEFPOINTS
 62
     0
 10
1849.3526654963821
 20
7727.1413506426961
 30
0.0
  0
POINT
  5
8363
  8
DEFPOINTS
 62
     0
 10
1849.3526654963821
 20
6837.141350642697
 30
0.0
  0
POINT
  5
8364
  8
DEFPOINTS
 62
     0
 10
1404.1360225692199
 20
6837.141350642697
 30
0.0
  0
ENDBLK
  5
8088
  8
0
  0
BLOCK
  8
0
  2
*D4
 70
     1
 10
0.0
 20
0.0
 30
0.0
  3
*D4
  1

  0
LINE
  5
8365
  8
3
 62
     0
 10
3414.3526654963821
 20
5996.6413506426989
 30
0.0
 11
3414.3526654963821
 21
5478.1253058455804
 31
0.0
  0
LINE
  5
8366
  8
3
 62
     0
 10
2129.3526654963821
 20
5996.6413506426961
 30
0.0
 11
2129.3526654963821
 21
5478.1253058455804
 31
0.0
  0
LINE
  5
8367
  8
3
 62
     0
 10
3344.3526654963821
 20
5513.1253058455804
 30
0.0
 11
2199.3526654963821
 21
5513.1253058455804
 31
0.0
  0
INSERT
  5
8368
  8
3
 62
     0
  2
_OPEN
 10
3414.3526654963821
 20
5513.1253058455804
 30
0.0
 41
70.0
 42
70.0
 43
70.0
  0
INSERT
  5
8369
  8
3
 62
     0
  2
_OPEN
 10
2129.3526654963821
 20
5513.1253058455804
 30
0.0
 41
70.0
 42
70.0
 43
70.0
 50
180.0
  0
TEXT
  8
3
  40
105
  5
841D
  62
0
  72
0
  71
0
 10
2572.18
 20
5414.78
 30
0.000000
  1
1285
  0
POINT
  5
836B
  8
DEFPOINTS
 62
     0
 10
3414.3526654963821
 20
6014.1413506426989
 30
0.0
  0
POINT
  5
836C
  8
DEFPOINTS
 62
     0
 10
2129.3526654963821
 20
6014.1413506426961
 30
0.0
  0
POINT
  5
836D
  8
DEFPOINTS
 62
     0
 10
2129.3526654963821
 20
5513.1253058455804
 30
0.0
  0
ENDBLK
  5
8073
  8
0
  0
BLOCK
  8
0
  2
*D5
 70
     1
 10
0.0
 20
0.0
 30
0.0
  3
*D5
  1

  0
LINE
  5
836E
  8
3
 62
     0
 10
2129.3526654963821
 20
5996.6413506426961
 30
0.0
 11
2129.3526654963821
 21
5478.1253058455804
 31
0.0
  0
LINE
  5
836F
  8
3
 62
     0
 10
1849.3526654963821
 20
6819.641350642697
 30
0.0
 11
1849.3526654963821
 21
5478.1253058455804
 31
0.0
  0
LINE
  5
8370
  8
3
 62
     0
 10
2059.3526654963821
 20
5513.1253058455804
 30
0.0
 11
1919.3526654963821
 21
5513.1253058455804
 31
0.0
  0
LINE
  5
8371
  8
3
 62
     0
 10
1849.3526654963821
 20
5513.1253058455804
 30
0.0
 11
1439.3526654963821
 21
5513.1253058455804
 31
0.0
  0
INSERT
  5
8372
  8
3
 62
     0
  2
_OPEN
 10
2129.3526654963821
 20
5513.1253058455804
 30
0.0
 41
70.0
 42
70.0
 43
70.0
  0
INSERT
  5
8373
  8
3
 62
     0
  2
_OPEN
 10
1849.3526654963821
 20
5513.1253058455804
 30
0.0
 41
70.0
 42
70.0
 43
70.0
 50
180.0
  0
TEXT
  8
3
  40
105
  5
841E
  62
0
  72
0
  71
0
 10
1399.35
 20
5414.78
 30
0.000000
  1
280
  0
POINT
  5
8375
  8
DEFPOINTS
 62
     0
 10
2129.3526654963821
 20
6014.1413506426961
 30
0.0
  0
POINT
  5
8376
  8
DEFPOINTS
 62
     0
 10
1849.3526654963821
 20
6837.141350642697
 30
0.0
  0
POINT
  5
8377
  8
DEFPOINTS
 62
     0
 10
1849.3526654963821
 20
5513.1253058455804
 30
0.0
  0
ENDBLK
  5
809E
  8
0
  0
BLOCK
  8
0
  2
*D6
 70
     1
 10
0.0
 20
0.0
 30
0.0
  3
*D6
  1

  0
LINE
  5
8378
  8
3
 62
     0
 10
3431.8526654963821
 20
6902.1413506426998
 30
0.0
 11
3650.5895574949468
 21
6902.1413506426998
 31
0.0
  0
LINE
  5
8379
  8
3
 62
     0
 10
3431.8526654963821
 20
6014.1413506426989
 30
0.0
 11
3650.5895574949468
 21
6014.1413506426989
 31
0.0
  0
LINE
  5
837A
  8
3
 62
     0
 10
3615.5895574949468
 20
6832.1413506426989
 30
0.0
 11
3615.5895574949468
 21
6084.1413506426989
 31
0.0
  0
INSERT
  5
837B
  8
3
 62
     0
  2
_OPEN
 10
3615.5895574949468
 20
6902.1413506426998
 30
0.0
 41
70.0
 42
70.0
 43
70.0
 50
90.0
  0
INSERT
  5
837C
  8
3
 62
     0
  2
_OPEN
 10
3615.5895574949468
 20
6014.1413506426989
 30
0.0
 41
70.0
 42
70.0
 43
70.0
 50
270.0
  0
TEXT
  8
3
  40
105
  5
841F
  62
0
  72
0
  71
0
 10
3318.09
 20
6222.25
 30
0.000000
  1
888
  0
POINT
  5
837E
  8
DEFPOINTS
 62
     0
 10
3414.3526654963821
 20
6902.1413506426998
 30
0.0
  0
POINT
  5
837F
  8
DEFPOINTS
 62
     0
 10
3414.3526654963821
 20
6014.1413506426989
 30
0.0
  0
POINT
  5
8380
  8
DEFPOINTS
 62
     0
 10
3615.5895574949468
 20
6014.1413506426989
 30
0.0
  0
ENDBLK
  5
805D
  8
0
  0
BLOCK
  8
0
  2
*D7
 70
     1
 10
0.0
 20
0.0
 30
0.0
  3
*D7
  1

  0
LINE
  5
8075
  8
0
  6
BYBLOCK
 62
     0
 10
3414.3526654963821
 20
6784.5478776188766
 30
0.0
 11
3414.3526654963821
 21
7910.0585764809948
 31
0.0
  0
LINE
  5
8076
  8
0
  6
BYBLOCK
 62
     0
 10
3169.3526654963821
 20
7875.0585764809948
 30
0.0
 11
3344.3526654963821
 21
7875.0585764809948
 31
0.0
  0
TEXT
  5
8077
  8
3
 62
     0
 10
3131.8526654963821
 20
7962.5585764809948
 30
0.0
 40
105.0
  1
315
  0
INSERT
  5
8078
  8
0
  6
BYBLOCK
 62
     0
  2
_OPEN
 10
3099.3526654963821
 20
7875.0585764809948
 30
0.0
 41
70.0
 42
70.0
 43
70.0
 50
180.0
  0
INSERT
  5
8079
  8
0
  6
BYBLOCK
 62
     0
  2
_OPEN
 10
3414.3526654963821
 20
7875.0585764809948
 30
0.0
 41
70.0
 42
70.0
 43
70.0
  0
POINT
  5
807A
  8
DEFPOINTS
  6
BYBLOCK
 62
     0
 10
3099.3526654963821
 20
7592.0478776188784
 30
0.0
  0
POINT
  5
807B
  8
DEFPOINTS
  6
BYBLOCK
 62
     0
 10
3414.3526654963821
 20
6767.0478776188766
 30
0.0
  0
POINT
  5
807C
  8
DEFPOINTS
  6
BYBLOCK
 62
     0
 10
3414.3526654963821
 20
7875.0585764809948
 30
0.0
  0
ENDBLK
  5
807D
  8
0
  0
BLOCK
  8
0
  2
*D8
 70
     1
 10
0.0
 20
0.0
 30
0.0
  3
*D8
  1

  0
LINE
  5
8381
  8
3
 62
     0
 10
1794.3526654963821
 20
3764.512004221493
 30
0.0
 11
1794.3526654963821
 21
4706.1063463344981
 31
0.0
  0
LINE
  5
8382
  8
3
 62
     0
 10
2474.3526654963839
 20
4499.6493970208057
 30
0.0
 11
2474.3526654963839
 21
4706.1063463344981
 31
0.0
  0
LINE
  5
8383
  8
3
 62
     0
 10
1864.3526654963821
 20
4671.1063463344981
 30
0.0
 11
2404.3526654963839
 21
4671.1063463344981
 31
0.0
  0
INSERT
  5
8384
  8
3
 62
     0
  2
_OPEN
 10
1794.3526654963821
 20
4671.1063463344981
 30
0.0
 41
70.0
 42
70.0
 43
70.0
 50
180.0
  0
INSERT
  5
8385
  8
3
 62
     0
  2
_OPEN
 10
2474.3526654963839
 20
4671.1063463344981
 30
0.0
 41
70.0
 42
70.0
 43
70.0
  0
TEXT
  8
3
  40
105
  5
8420
  62
0
  72
0
  71
0
 10
1948.97
 20
4572.76
 30
0.000000
  1
680
  0
POINT
  5
8387
  8
DEFPOINTS
 62
     0
 10
1794.3526654963821
 20
3747.012004221493
 30
0.0
  0
POINT
  5
8388
  8
DEFPOINTS
 62
     0
 10
2474.3526654963839
 20
4482.1493970208066
 30
0.0
  0
POINT
  5
8389
  8
DEFPOINTS
 62
     0
 10
2474.3526654963839
 20
4671.1063463344981
 30
0.0
  0
ENDBLK
  5
821C
  8
0
  0
BLOCK
  8
0
  2
*D9
 70
     1
 10
0.0
 20
0.0
 30
0.0
  3
*D9
  1

  0
LINE
  5
838A
  8
3
 62
     0
 10
3342.3526654963821
 20
3640.7114953030391
 30
0.0
 11
3342.3526654963821
 21
4706.1063463344981
 31
0.0
  0
LINE
  5
838B
  8
3
 62
     0
 10
2544.3526654963839
 20
4671.1063463344981
 30
0.0
 11
3272.352665496383
 21
4671.1063463344981
 31
0.0
  0
INSERT
  5
838C
  8
3
 62
     0
  2
_OPEN
 10
2474.3526654963839
 20
4671.1063463344981
 30
0.0
 41
70.0
 42
70.0
 43
70.0
 50
180.0
  0
INSERT
  5
838D
  8
3
 62
     0
  2
_OPEN
 10
3342.3526654963821
 20
4671.1063463344981
 30
0.0
 41
70.0
 42
70.0
 43
70.0
  0
TEXT
  8
3
  40
105
  5
8421
  62
0
  72
0
  71
0
 10
2698.35
 20
4572.76
 30
0.000000
  1
868
  0
POINT
  5
838F
  8
DEFPOINTS
 62
     0
 10
2474.3526654963839
 20
4482.1493970208066
 30
0.0
  0
POINT
  5
8390
  8
DEFPOINTS
 62
     0
 10
3342.3526654963821
 20
3623.2114953030391
 30
0.0
  0
POINT
  5
8391
  8
DEFPOINTS
 62
     0
 10
3342.3526654963821
 20
4671.1063463344981
 30
0.0
  0
ENDBLK
  5
8206
  8
0
  0
BLOCK
  8
0
  2
*D10
 70
     1
 10
0.0
 20
0.0
 30
0.0
  3
*D10
  1

  0
LINE
  5
8392
  8
3
 62
     0
 10
1776.8526654963821
 20
2668.6065508041388
 30
0.0
 11
1505.559709618617
 21
2668.6065508041388
 31
0.0
  0
LINE
  5
8393
  8
3
 62
     0
 10
1776.8526654963821
 20
3698.6065508041388
 30
0.0
 11
1505.5597096186179
 21
3698.6065508041388
 31
0.0
  0
LINE
  5
8394
  8
3
 62
     0
 10
1540.5597096186179
 20
2738.6065508041388
 30
0.0
 11
1540.5597096186179
 21
3628.6065508041388
 31
0.0
  0
INSERT
  5
8395
  8
3
 62
     0
  2
_OPEN
 10
1540.5597096186179
 20
2668.6065508041388
 30
0.0
 41
70.0
 42
70.0
 43
70.0
 50
270.0
  0
INSERT
  5
8396
  8
3
 62
     0
  2
_OPEN
 10
1540.5597096186179
 20
3698.6065508041388
 30
0.0
 41
70.0
 42
70.0
 43
70.0
 50
90.0
  0
TEXT
  8
3
  40
105
  5
8422
  62
0
  72
0
  71
0
 10
1243.06
 20
2961.29
 30
0.000000
  1
1030
  0
POINT
  5
8398
  8
DEFPOINTS
 62
     0
 10
1794.3526654963821
 20
2668.6065508041388
 30
0.0
  0
POINT
  5
8399
  8
DEFPOINTS
 62
     0
 10
1794.3526654963821
 20
3698.6065508041388
 30
0.0
  0
POINT
  5
839A
  8
DEFPOINTS
 62
     0
 10
1540.5597096186179
 20
3698.6065508041388
 30
0.0
  0
ENDBLK
  5
81DB
  8
0
  0
BLOCK
  8
0
  2
*D11
 70
     1
 10
0.0
 20
0.0
 30
0.0
  3
*D11
  1

  0
LINE
  5
839B
  8
3
 62
     0
 10
1759.3526654963821
 20
2668.6065508041388
 30
0.0
 11
1287.710842427012
 21
2668.6065508041388
 31
0.0
  0
LINE
  5
839C
  8
3
 62
     0
 10
1717.236682998755
 20
3742.6065508041388
 30
0.0
 11
1287.710842427012
 21
3742.6065508041388
 31
0.0
  0
LINE
  5
839D
  8
3
 62
     0
 10
1322.710842427012
 20
2738.6065508041388
 30
0.0
 11
1322.710842427012
 21
3672.6065508041388
 31
0.0
  0
INSERT
  5
839E
  8
3
 62
     0
  2
_OPEN
 10
1322.710842427012
 20
2668.6065508041388
 30
0.0
 41
70.0
 42
70.0
 43
70.0
 50
270.0
  0
INSERT
  5
839F
  8
3
 62
     0
  2
_OPEN
 10
1322.710842427012
 20
3742.6065508041388
 30
0.0
 41
70.0
 42
70.0
 43
70.0
 50
90.0
  0
TEXT
  8
3
  40
105
  5
8423
  62
0
  72
0
  71
0
 10
1025.21
 20
2919.16
 30
0.000000
  1
1074
  0
POINT
  5
83A1
  8
DEFPOINTS
 62
     0
 10
1776.8526654963821
 20
2668.6065508041388
 30
0.0
  0
POINT
  5
83A2
  8
DEFPOINTS
 62
     0
 10
1734.736682998755
 20
3742.6065508041388
 30
0.0
  0
POINT
  5
83A3
  8
DEFPOINTS
 62
     0
 10
1322.710842427012
 20
3742.6065508041388
 30
0.0
  0
ENDBLK
  5
81D0
  8
0
  0
BLOCK
  8
0
  2
*D12
 70
     1
 10
0.0
 20
0.0
 30
0.0
  3
*D12
  1

  0
LINE
  5
83A4
  8
3
 62
     0
 10
1717.236682998755
 20
3742.606550804137
 30
0.0
 11
1007.147323135076
 21
3742.6065508041379
 31
0.0
  0
LINE
  5
83A5
  8
3
 62
     0
 10
1831.8526654963821
 20
2532.6065508041388
 30
0.0
 11
1007.147323135075
 21
2532.6065508041388
 31
0.0
  0
LINE
  5
83A6
  8
3
 62
     0
 10
1042.1473231350751
 20
3672.606550804137
 30
0.0
 11
1042.1473231350751
 21
2602.6065508041388
 31
0.0
  0
INSERT
  5
83A7
  8
3
 62
     0
  2
_OPEN
 10
1042.1473231350751
 20
3742.606550804137
 30
0.0
 41
70.0
 42
70.0
 43
70.0
 50
90.0
  0
INSERT
  5
83A8
  8
3
 62
     0
  2
_OPEN
 10
1042.1473231350751
 20
2532.6065508041388
 30
0.0
 41
70.0
 42
70.0
 43
70.0
 50
270.0
  0
TEXT
  8
3
  40
105
  5
8424
  62
0
  72
0
  71
0
 10
744.647
 20
2951.76
 30
0.000000
  1
1210
  0
POINT
  5
83AA
  8
DEFPOINTS
 62
     0
 10
1734.736682998755
 20
3742.606550804137
 30
0.0
  0
POINT
  5
83AB
  8
DEFPOINTS
 62
     0
 10
1849.3526654963821
 20
2532.6065508041388
 30
0.0
  0
POINT
  5
83AC
  8
DEFPOINTS
 62
     0
 10
1042.1473231350751
 20
2532.6065508041388
 30
0.0
  0
ENDBLK
  5
8227
  8
0
  0
BLOCK
  8
0
  2
*D13
 70
     1
 10
0.0
 20
0.0
 30
0.0
  3
*D13
  1

  0
LINE
  5
83AD
  8
3
 62
     0
 10
5418.3135360545612
 20
4466.7389069482842
 30
0.0
 11
5418.3135360545612
 21
4672.7171820026269
 31
0.0
  0
LINE
  5
83AE
  8
3
 62
     0
 10
6168.3135360545612
 20
4466.7389069482842
 30
0.0
 11
6168.3135360545612
 21
4672.7171820026269
 31
0.0
  0
LINE
  5
83AF
  8
3
 62
     0
 10
5488.3135360545602
 20
4637.7171820026269
 30
0.0
 11
6098.3135360545602
 21
4637.7171820026269
 31
0.0
  0
INSERT
  5
83B0
  8
3
 62
     0
  2
_OPEN
 10
5418.3135360545612
 20
4637.7171820026269
 30
0.0
 41
70.0
 42
70.0
 43
70.0
 50
180.0
  0
INSERT
  5
83B1
  8
3
 62
     0
  2
_OPEN
 10
6168.3135360545612
 20
4637.7171820026269
 30
0.0
 41
70.0
 42
70.0
 43
70.0
  0
TEXT
  8
3
  40
105
  5
8425
  62
0
  72
0
  71
0
 10
5584.68
 20
4539.37
 30
0.000000
  1
750
  0
POINT
  5
83B3
  8
DEFPOINTS
 62
     0
 10
5418.3135360545612
 20
4449.2389069482833
 30
0.0
  0
POINT
  5
83B4
  8
DEFPOINTS
 62
     0
 10
6168.3135360545612
 20
4449.2389069482833
 30
0.0
  0
POINT
  5
83B5
  8
DEFPOINTS
 62
     0
 10
6168.3135360545612
 20
4637.7171820026269
 30
0.0
  0
ENDBLK
  5
7F46
  8
0
  0
BLOCK
  8
0
  2
*D14
 70
     1
 10
0.0
 20
0.0
 30
0.0
  3
*D14
  1

  0
LINE
  5
83B6
  8
3
 62
     0
 10
6171.3135360545612
 20
4519.7389069482842
 30
0.0
 11
6171.3135360545612
 21
4960.0933756195009
 31
0.0
  0
LINE
  5
83B7
  8
3
 62
     0
 10
5793.3135360545612
 20
4832.5366744487292
 30
0.0
 11
5793.3135360545612
 21
4960.0933756195009
 31
0.0
  0
LINE
  5
83B8
  8
3
 62
     0
 10
6241.3135360545602
 20
4925.0933756195009
 30
0.0
 11
6311.3135360545602
 21
4925.0933756195009
 31
0.0
  0
LINE
  5
83B9
  8
3
 62
     0
 10
5723.3135360545602
 20
4925.0933756195009
 30
0.0
 11
5653.3135360545602
 21
4925.0933756195009
 31
0.0
  0
LINE
  5
83BA
  8
3
 62
     0
 10
6171.3135360545612
 20
4925.0933756195009
 30
0.0
 11
5793.3135360545612
 21
4925.0933756195009
 31
0.0
  0
INSERT
  5
83BB
  8
3
 62
     0
  2
_OPEN
 10
6171.3135360545612
 20
4925.0933756195009
 30
0.0
 41
70.0
 42
70.0
 43
70.0
 50
180.0
  0
INSERT
  5
83BC
  8
3
 62
     0
  2
_OPEN
 10
5793.3135360545612
 20
4925.0933756195009
 30
0.0
 41
70.0
 42
70.0
 43
70.0
  0
TEXT
  8
3
  40
105
  5
8426
  62
0
  72
0
  71
0
 10
5772.31
 20
4826.74
 30
0.000000
  1
378
  0
POINT
  5
83BE
  8
DEFPOINTS
 62
     0
 10
6171.3135360545612
 20
4502.2389069482842
 30
0.0
  0
POINT
  5
83BF
  8
DEFPOINTS
 62
     0
 10
5793.3135360545612
 20
4815.0366744487292
 30
0.0
  0
POINT
  5
83C0
  8
DEFPOINTS
 62
     0
 10
5793.3135360545612
 20
4925.0933756195009
 30
0.0
  0
ENDBLK
  5
7F74
  8
0
  0
BLOCK
  8
0
  2
*D15
 70
     1
 10
0.0
 20
0.0
 30
0.0
  3
*D15
  1

  0
LINE
  5
83C1
  8
3
 62
     0
 10
4376.3135360545602
 20
4040.1065508041379
 30
0.0
 11
4376.3135360545602
 21
4960.0933756195009
 31
0.0
  0
LINE
  5
83C2
  8
3
 62
     0
 10
5723.3135360545602
 20
4925.0933756195009
 30
0.0
 11
4446.3135360545593
 21
4925.0933756195009
 31
0.0
  0
INSERT
  5
83C3
  8
3
 62
     0
  2
_OPEN
 10
5793.3135360545612
 20
4925.0933756195009
 30
0.0
 41
70.0
 42
70.0
 43
70.0
  0
INSERT
  5
83C4
  8
3
 62
     0
  2
_OPEN
 10
4376.3135360545602
 20
4925.0933756195009
 30
0.0
 41
70.0
 42
70.0
 43
70.0
 50
180.0
  0
TEXT
  8
3
  40
105
  5
8427
  62
0
  72
0
  71
0
 10
4874.81
 20
4914.24
 30
0.000000
  1
MAX
  0
TEXT
  8
3
  40
105
  5
8428
  62
0
  72
0
  71
0
 10
4874.81
 20
4777.74
 30
0.000000
  1
1450
  0
POINT
  5
83C6
  8
DEFPOINTS
 62
     0
 10
5793.3135360545612
 20
4815.0366744487292
 30
0.0
  0
POINT
  5
83C7
  8
DEFPOINTS
 62
     0
 10
4376.3135360545602
 20
4022.6065508041379
 30
0.0
  0
POINT
  5
83C8
  8
DEFPOINTS
 62
     0
 10
4376.3135360545602
 20
4925.0933756195009
 30
0.0
  0
ENDBLK
  5
8261
  8
0
  0
BLOCK
  8
0
  2
*D16
 70
     1
 10
0.0
 20
0.0
 30
0.0
  3
*D16
  1

  0
LINE
  5
83C9
  8
3
 62
     0
 10
1794.3526654963821
 20
3764.512004221493
 30
0.0
 11
1794.3526654963821
 21
4986.0200029791449
 31
0.0
  0
LINE
  5
83CA
  8
3
 62
     0
 10
3414.352665496383
 20
2675.1065508041388
 30
0.0
 11
3414.352665496383
 21
4986.0200029791449
 31
0.0
  0
LINE
  5
83CB
  8
3
 62
     0
 10
1864.3526654963821
 20
4951.0200029791449
 30
0.0
 11
3344.352665496383
 21
4951.0200029791449
 31
0.0
  0
INSERT
  5
83CC
  8
3
 62
     0
  2
_OPEN
 10
1794.3526654963821
 20
4951.0200029791449
 30
0.0
 41
70.0
 42
70.0
 43
70.0
 50
180.0
  0
INSERT
  5
83CD
  8
3
 62
     0
  2
_OPEN
 10
3414.352665496383
 20
4951.0200029791449
 30
0.0
 41
70.0
 42
70.0
 43
70.0
  0
TEXT
  8
3
  40
105
  5
8429
  62
0
  72
0
  71
0
 10
2457.95
 20
4852.67
 30
0.000000
  1
1620
  0
POINT
  5
83CF
  8
DEFPOINTS
 62
     0
 10
1794.3526654963821
 20
3747.012004221493
 30
0.0
  0
POINT
  5
83D0
  8
DEFPOINTS
 62
     0
 10
3414.352665496383
 20
2657.6065508041388
 30
0.0
  0
POINT
  5
83D1
  8
DEFPOINTS
 62
     0
 10
3414.352665496383
 20
4951.0200029791449
 30
0.0
  0
ENDBLK
  5
8211
  8
0
  0
BLOCK
  8
0
  2
_DOT
 70
     0
 10
0.0
 20
0.0
 30
0.0
  3
_DOT
  1

  0
LINE
  5
804C
  8
0
  6
BYBLOCK
 62
     0
 10
0.0
 20
0.0
 30
0.0
 11
-1.0
 21
-0.0000000000000284
 31
0.0
  0
POLYLINE
  5
804D
  8
0
  6
BYBLOCK
 62
     0
 66
     1
 10
0.0
 20
0.0
 30
0.0
 70
     1
 40
0.1666666666666666
 41
0.1666666666666666
  0
VERTEX
  5
83DA
  8
0
  6
BYBLOCK
 62
     0
 10
-0.0833333333333286
 20
-0.0000000000000284
 30
0.0
 42
1.0
  0
VERTEX
  5
83DB
  8
0
  6
BYBLOCK
 62
     0
 10
0.0833333333333286
 20
-0.0000000000000284
 30
0.0
 42
1.0
  0
SEQEND
  5
83DC
  8
0
  6
BYBLOCK
 62
     0
  0
ENDBLK
  5
7FAA
  8
0
  0
BLOCK
  8
0
  2
*D18
 70
     1
 10
0.0
 20
0.0
 30
0.0
  3
*D18
  1

  0
LINE
  5
83D2
  8
3
 62
     0
 10
2111.8526654963821
 20
6014.1413506426961
 30
0.0
 11
1369.1360225692181
 21
6014.141350642697
 31
0.0
  0
LINE
  5
83D3
  8
3
 62
     0
 10
1404.1360225692181
 20
6767.1413506426989
 30
0.0
 11
1404.1360225692181
 21
6084.141350642697
 31
0.0
  0
INSERT
  5
83D4
  8
3
 62
     0
  2
_OPEN
 10
1404.1360225692181
 20
6837.141350642697
 30
0.0
 41
70.0
 42
70.0
 43
70.0
 50
90.0
  0
INSERT
  5
83D5
  8
3
 62
     0
  2
_OPEN
 10
1404.1360225692181
 20
6014.141350642697
 30
0.0
 41
70.0
 42
70.0
 43
70.0
 50
270.0
  0
TEXT
  8
3
  40
105
  5
842A
  62
0
  72
0
  71
0
 10
1106.64
 20
6239.79
 30
0.000000
  1
823
  0
POINT
  5
83D7
  8
DEFPOINTS
 62
     0
 10
1849.3526654963821
 20
6837.141350642697
 30
0.0
  0
POINT
  5
83D8
  8
DEFPOINTS
 62
     0
 10
2129.3526654963821
 20
6014.1413506426961
 30
0.0
  0
POINT
  5
83D9
  8
DEFPOINTS
 62
     0
 10
1404.1360225692181
 20
6014.141350642697
 30
0.0
  0
ENDBLK
  5
8092
  8
0
  0
BLOCK
  8
0
  2
*D19
 70
     1
 10
0.0
 20
0.0
 30
0.0
  3
*D19
  1

  0
LINE
  5
83DD
  8
3
 62
     0
 10
2530.8526654963821
 20
4462.6065508041393
 30
0.0
 11
1007.147323135075
 21
4462.6065508041402
 31
0.0
  0
LINE
  5
83DE
  8
3
 62
     0
 10
1042.1473231350751
 20
3812.6065508041379
 30
0.0
 11
1042.1473231350751
 21
4392.6065508041402
 31
0.0
  0
INSERT
  5
83DF
  8
3
 62
     0
  2
_OPEN
 10
1042.1473231350751
 20
3742.606550804137
 30
0.0
 41
70.0
 42
70.0
 43
70.0
 50
270.0
  0
INSERT
  5
83E0
  8
3
 62
     0
  2
_OPEN
 10
1042.1473231350751
 20
4462.6065508041402
 30
0.0
 41
70.0
 42
70.0
 43
70.0
 50
90.0
  0
TEXT
  8
3
  40
105
  5
842B
  62
0
  72
0
  71
0
 10
744.647
 20
3916.76
 30
0.000000
  1
720
  0
POINT
  5
83E2
  8
DEFPOINTS
 62
     0
 10
1734.736682998755
 20
3742.606550804137
 30
0.0
  0
POINT
  5
83E3
  8
DEFPOINTS
 62
     0
 10
2548.3526654963821
 20
4462.6065508041393
 30
0.0
  0
POINT
  5
83E4
  8
DEFPOINTS
 62
     0
 10
1042.1473231350751
 20
4462.6065508041402
 30
0.0
  0
ENDBLK
  5
8256
  8
0
  0
BLOCK
  8
0
  2
*D20
 70
     1
 10
0.0
 20
0.0
 30
0.0
  3
*D20
  1

  0
LINE
  5
83E5
  8
3
 62
     0
 10
1849.3526654963821
 20
2515.1065508041388
 30
0.0
 11
1849.3526654963821
 21
2275.4772722154989
 31
0.0
  0
LINE
  5
83E6
  8
3
 62
     0
 10
2474.3526654963839
 20
2515.1065508041388
 30
0.0
 11
2474.3526654963839
 21
2275.4772722154989
 31
0.0
  0
LINE
  5
83E7
  8
3
 62
     0
 10
1919.3526654963821
 20
2310.4772722154989
 30
0.0
 11
2404.3526654963839
 21
2310.4772722154989
 31
0.0
  0
INSERT
  5
83E8
  8
3
 62
     0
  2
_OPEN
 10
1849.3526654963821
 20
2310.4772722154989
 30
0.0
 41
70.0
 42
70.0
 43
70.0
 50
180.0
  0
INSERT
  5
83E9
  8
3
 62
     0
  2
_OPEN
 10
2474.3526654963839
 20
2310.4772722154989
 30
0.0
 41
70.0
 42
70.0
 43
70.0
  0
TEXT
  8
3
  40
105
  5
842C
  62
0
  72
0
  71
0
 10
1951.85
 20
2212.13
 30
0.000000
  1
625
  0
POINT
  5
83EB
  8
DEFPOINTS
 62
     0
 10
1849.3526654963821
 20
2532.6065508041388
 30
0.0
  0
POINT
  5
83EC
  8
DEFPOINTS
 62
     0
 10
2474.3526654963839
 20
2532.6065508041388
 30
0.0
  0
POINT
  5
83ED
  8
DEFPOINTS
 62
     0
 10
2474.3526654963839
 20
2310.4772722154989
 30
0.0
  0
ENDBLK
  5
82D7
  8
0
  0
BLOCK
  8
0
  2
*D21
 70
     1
 10
0.0
 20
0.0
 30
0.0
  3
*D21
  1

  0
LINE
  5
83EE
  8
3
 62
     0
 10
2474.3526654963839
 20
2515.1065508041388
 30
0.0
 11
2474.3526654963839
 21
2275.4772722154989
 31
0.0
  0
LINE
  5
83EF
  8
3
 62
     0
 10
3414.352665496383
 20
2515.1065508041388
 30
0.0
 11
3414.352665496383
 21
2275.4772722154989
 31
0.0
  0
LINE
  5
83F0
  8
3
 62
     0
 10
2544.3526654963839
 20
2310.4772722154989
 30
0.0
 11
3344.352665496383
 21
2310.4772722154989
 31
0.0
  0
INSERT
  5
83F1
  8
3
 62
     0
  2
_OPEN
 10
2474.3526654963839
 20
2310.4772722154989
 30
0.0
 41
70.0
 42
70.0
 43
70.0
 50
180.0
  0
INSERT
  5
83F2
  8
3
 62
     0
  2
_OPEN
 10
3414.352665496383
 20
2310.4772722154989
 30
0.0
 41
70.0
 42
70.0
 43
70.0
  0
TEXT
  8
3
  40
105
  5
842D
  62
0
  72
0
  71
0
 10
2734.35
 20
2212.13
 30
0.000000
  1
940
  0
POINT
  5
83F4
  8
DEFPOINTS
 62
     0
 10
2474.3526654963839
 20
2532.6065508041388
 30
0.0
  0
POINT
  5
83F5
  8
DEFPOINTS
 62
     0
 10
3414.352665496383
 20
2532.6065508041388
 30
0.0
  0
POINT
  5
83F6
  8
DEFPOINTS
 62
     0
 10
3414.352665496383
 20
2310.4772722154989
 30
0.0
  0
ENDBLK
  5
82E4
  8
0
  0
BLOCK
  8
0
  2
*D22
 70
     1
 10
0.0
 20
0.0
 30
0.0
  3
*D22
  1

  0
LINE
  5
83F7
  8
3
 62
     0
 10
4525.3135360545602
 20
2515.1065508041379
 30
0.0
 11
4525.3135360545602
 21
2275.4772722154989
 31
0.0
  0
LINE
  5
83F8
  8
3
 62
     0
 10
5793.3135360545612
 20
2515.1065508041379
 30
0.0
 11
5793.3135360545612
 21
2275.4772722154989
 31
0.0
  0
LINE
  5
83F9
  8
3
 62
     0
 10
4595.3135360545602
 20
2310.4772722154989
 30
0.0
 11
5723.3135360545602
 21
2310.4772722154989
 31
0.0
  0
INSERT
  5
83FA
  8
3
 62
     0
  2
_OPEN
 10
4525.3135360545602
 20
2310.4772722154989
 30
0.0
 41
70.0
 42
70.0
 43
70.0
 50
180.0
  0
INSERT
  5
83FB
  8
3
 62
     0
  2
_OPEN
 10
5793.3135360545612
 20
2310.4772722154989
 30
0.0
 41
70.0
 42
70.0
 43
70.0
  0
TEXT
  8
3
  40
105
  5
842E
  62
0
  72
0
  71
0
 10
4949.31
 20
2212.13
 30
0.000000
  1
1268
  0
POINT
  5
83FD
  8
DEFPOINTS
 62
     0
 10
4525.3135360545602
 20
2532.6065508041379
 30
0.0
  0
POINT
  5
83FE
  8
DEFPOINTS
 62
     0
 10
5793.3135360545612
 20
2532.6065508041379
 30
0.0
  0
POINT
  5
83FF
  8
DEFPOINTS
 62
     0
 10
5793.3135360545612
 20
2310.4772722154989
 30
0.0
  0
ENDBLK
  5
82F1
  8
0
  0
BLOCK
  8
0
  2
*D23
 70
     1
 10
0.0
 20
0.0
 30
0.0
  3
*D23
  1

  0
LINE
  5
8400
  8
3
 62
     0
 10
5793.3135360545612
 20
2515.1065508041379
 30
0.0
 11
5793.3135360545612
 21
2275.4772722154989
 31
0.0
  0
LINE
  5
8401
  8
3
 62
     0
 10
6238.3135360545602
 20
2515.1065508041379
 30
0.0
 11
6238.3135360545602
 21
2275.4772722154989
 31
0.0
  0
LINE
  5
8402
  8
3
 62
     0
 10
5863.3135360545602
 20
2310.4772722154989
 30
0.0
 11
6168.3135360545612
 21
2310.4772722154989
 31
0.0
  0
INSERT
  5
8403
  8
3
 62
     0
  2
_OPEN
 10
5793.3135360545612
 20
2310.4772722154989
 30
0.0
 41
70.0
 42
70.0
 43
70.0
 50
180.0
  0
INSERT
  5
8404
  8
3
 62
     0
  2
_OPEN
 10
6238.3135360545602
 20
2310.4772722154989
 30
0.0
 41
70.0
 42
70.0
 43
70.0
  0
TEXT
  8
3
  40
105
  5
842F
  62
0
  72
0
  71
0
 10
5805.81
 20
2212.13
 30
0.000000
  1
445
  0
POINT
  5
8406
  8
DEFPOINTS
 62
     0
 10
5793.3135360545612
 20
2532.6065508041379
 30
0.0
  0
POINT
  5
8407
  8
DEFPOINTS
 62
     0
 10
6238.3135360545602
 20
2532.6065508041379
 30
0.0
  0
POINT
  5
8408
  8
DEFPOINTS
 62
     0
 10
6238.3135360545602
 20
2310.4772722154989
 30
0.0
  0
ENDBLK
  5
8300
  8
0
  0
BLOCK
  8
0
  2
*D24
 70
     1
 10
0.0
 20
0.0
 30
0.0
  3
*D24
  1

  0
LINE
  5
8409
  8
3
 62
     0
 10
2513.3526654963821
 20
4462.6065508041393
 30
0.0
 11
739.62422900603326
 21
4462.6065508041402
 31
0.0
  0
LINE
  5
840A
  8
3
 62
     0
 10
1831.8526654963821
 20
2532.6065508041388
 30
0.0
 11
739.62422900603281
 21
2532.6065508041388
 31
0.0
  0
LINE
  5
840B
  8
3
 62
     0
 10
774.62422900603315
 20
4392.6065508041402
 30
0.0
 11
774.62422900603269
 21
2602.6065508041388
 31
0.0
  0
INSERT
  5
840C
  8
3
 62
     0
  2
_OPEN
 10
774.62422900603315
 20
4462.6065508041402
 30
0.0
 41
70.0
 42
70.0
 43
70.0
 50
90.0
  0
INSERT
  5
840D
  8
3
 62
     0
  2
_OPEN
 10
774.62422900603269
 20
2532.6065508041388
 30
0.0
 41
70.0
 42
70.0
 43
70.0
 50
270.0
  0
TEXT
  8
3
  40
105
  5
8430
  62
0
  72
0
  71
0
 10
477.124
 20
3311.76
 30
0.000000
  1
1930
  0
POINT
  5
840F
  8
DEFPOINTS
 62
     0
 10
2530.8526654963821
 20
4462.6065508041393
 30
0.0
  0
POINT
  5
8410
  8
DEFPOINTS
 62
     0
 10
1849.3526654963821
 20
2532.6065508041388
 30
0.0
  0
POINT
  5
8411
  8
DEFPOINTS
 62
     0
 10
774.62422900603269
 20
2532.6065508041388
 30
0.0
  0
ENDBLK
  5
830D
  8
0
  0
BLOCK
  8
0
  2
*D25
 70
     1
 10
0.0
 20
0.0
 30
0.0
  3
*D25
  1

  0
LINE
  5
8412
  8
3
 62
     0
 10
6190.013536054561
 20
4242.6065508041384
 30
0.0
 11
6541.7943875934734
 21
4242.6065508041384
 31
0.0
  0
LINE
  5
8413
  8
3
 62
     0
 10
6190.013536054561
 20
3242.6065508041379
 30
0.0
 11
6541.7943875934734
 21
3242.6065508041379
 31
0.0
  0
LINE
  5
8414
  8
3
 62
     0
 10
6506.7943875934734
 20
4172.6065508041393
 30
0.0
 11
6506.7943875934734
 21
3312.6065508041379
 31
0.0
  0
INSERT
  5
8415
  8
3
 62
     0
  2
_OPEN
 10
6506.7943875934734
 20
4242.6065508041384
 30
0.0
 41
70.0
 42
70.0
 43
70.0
 50
90.0
  0
INSERT
  5
8416
  8
3
 62
     0
  2
_OPEN
 10
6506.7943875934734
 20
3242.6065508041379
 30
0.0
 41
70.0
 42
70.0
 43
70.0
 50
270.0
  0
TEXT
  8
3
  40
105
  5
8431
  62
0
  72
0
  71
0
 10
6209.29
 20
3556.76
 30
0.000000
  1
φ1000
  0
POINT
  5
8418
  8
DEFPOINTS
 62
     0
 10
6172.513536054561
 20
4242.6065508041384
 30
0.0
  0
POINT
  5
8419
  8
DEFPOINTS
 62
     0
 10
6172.513536054561
 20
3242.6065508041379
 30
0.0
  0
POINT
  5
841A
  8
DEFPOINTS
 62
     0
 10
6506.7943875934734
 20
3242.6065508041379
 30
0.0
  0
ENDBLK
  5
8337
  8
0
  0
ENDSEC
  0
SECTION
  2
ENTITIES
  0
INSERT
  5
7CA0
  8
0
  2
YA_N
 10
4435.6620037513776
 20
82.140128153376281
 30
0.0
  0
ARC
  5
7CA2
  8
1
 10
2400.3526654963821
 20
3668.6065508041388
 30
0.0
 40
942.0
 50
295.23522270543032
 51
312.48112005740609
  0
ARC
  5
7CA3
  8
1
 10
2548.3526654963821
 20
3668.6065508041388
 30
0.0
 40
794.0
 50
5.3476697498387589
 51
23.448734959604799
  0
ARC
  5
7CA4
  8
1
 10
2534.8526654963821
 20
3803.1065508041388
 30
0.0
 40
659.49999999999989
 50
95.263495203066924
 51
185.2634952030669
  0
LINE
  5
7CA5
  8
1
 10
1876.9708780270969
 20
3698.6065508041388
 30
0.0
 11
1794.3526654963821
 21
3698.6065508041388
 31
0.0
  0
LINE
  5
7CA6
  8
1
 10
1794.3526654963821
 20
2615.6065508041388
 30
0.0
 11
1794.3526654963821
 21
3751.6065508041402
 31
0.0
  0
LINE
  5
7CA7
  8
1
 10
1794.3526654963821
 20
2668.6065508041388
 30
0.0
 11
2133.8855076467598
 21
2699.0202449962098
 31
0.0
  0
LINE
  5
7CA8
  8
1
 10
1844.3526654963839
 20
2615.6065508041388
 30
0.0
 11
1794.3526654963821
 21
2615.6065508041388
 31
0.0
  0
LINE
  5
7CA9
  8
1
 10
1844.3526654963821
 20
3751.6065508041388
 30
0.0
 11
1794.3526654963821
 21
3751.6065508041402
 31
0.0
  0
LINE
  5
7CAA
  8
1
 10
1844.3526654963821
 20
2615.6065508041402
 30
0.0
 11
1844.3526654963821
 21
3751.6065508041388
 31
0.0
  0
LINE
  5
7CAB
  8
1
 10
1798.3526654963839
 20
2615.6065508041388
 30
0.0
 11
1798.35266549638
 21
3751.6065508041402
 31
0.0
  0
LINE
  5
7CAC
  8
1
 10
3414.352665496383
 20
2657.6065508041379
 30
0.0
 11
2984.352665496383
 21
2657.6065508041379
 31
0.0
  0
LINE
  5
7CAD
  8
1
 10
1849.3526654963821
 20
2657.6065508041388
 30
0.0
 11
1849.3526654963821
 21
2532.6065508041388
 31
0.0
  0
LINE
  5
7CAE
  8
1
 10
3414.352665496383
 20
2657.6065508041388
 30
0.0
 11
3414.352665496383
 21
2532.6065508041388
 31
0.0
  0
LINE
  5
7CAF
  8
2
 10
4399.8230916669781
 20
3742.6065508041379
 30
0.0
 11
6295.2884290351612
 21
3742.6065508041379
 31
0.0
  0
LINE
  5
7CB0
  8
2
 10
5793.3135360545612
 20
4603.3408422146313
 30
0.0
 11
5793.3135360545612
 21
2532.6065508041379
 31
0.0
  0
LINE
  5
7CB1
  8
1
 10
4525.3135360545602
 20
2532.6065508041379
 30
0.0
 11
6238.3135360545602
 21
2532.6065508041379
 31
0.0
1001
ACAD
1000
ASC_BOUNDS
1002
{
1070
    19
1002
}
  0
LINE
  5
7CB2
  8
1
 10
4525.3135360545602
 20
2657.6065508041379
 30
0.0
 11
6238.3135360545602
 21
2657.6065508041379
 31
0.0
  0
LINE
  5
7CB3
  8
1
 10
4525.3135360545602
 20
2657.6065508041379
 30
0.0
 11
4525.3135360545602
 21
2532.6065508041379
 31
0.0
  0
LINE
  5
7CB4
  8
1
 10
6238.3135360545602
 20
2657.6065508041379
 30
0.0
 11
6238.3135360545602
 21
2532.6065508041379
 31
0.0
  0
LINE
  5
7CB5
  8
1
 10
6168.3135360545612
 20
2657.6065508041388
 30
0.0
 11
6168.3135360545612
 21
3753.6065508041379
 31
0.0
  0
LINE
  5
7CB6
  8
1
 10
5418.3135360545612
 20
2657.6065508041379
 30
0.0
 11
5418.3135360545612
 21
3742.6065508041388
 31
0.0
  0
LINE
  5
7CB7
  8
1
 10
6170.6135360545613
 20
2657.6065508041379
 30
0.0
 11
6170.6135360545613
 21
3756.6065508041379
 31
0.0
  0
LINE
  5
7CB8
  8
1
 10
5416.0135360545601
 20
2657.6065508041379
 30
0.0
 11
5416.013536054561
 21
3742.6065508041388
 31
0.0
  0
LINE
  5
7CB9
  8
2
 10
2474.3526654963839
 20
4482.1493970208066
 30
0.0
 11
2474.3526654963839
 21
2532.6065508041388
 31
0.0
  0
LINE
  5
7CBA
  8
2
 10
1734.736682998755
 20
3742.606550804137
 30
0.0
 11
3406.8675815525912
 21
3742.6065508041379
 31
0.0
  0
LINE
  5
7CBB
  8
1
 10
3414.352665496383
 20
2532.6065508041388
 30
0.0
 11
1849.3526654963821
 21
2532.6065508041388
 31
0.0
1001
ACAD
1000
ASC_BOUNDS
1002
{
1070
    19
1002
}
  0
INSERT
  5
7CBC
  8
0
  2
YA_N
 10
2792.4521655908611
 20
-1328.2926990899871
 30
0.0
 41
25.0
 42
25.0
 43
25.0
  0
LINE
  5
7CBE
  8
2
 10
3184.352665496383
 20
3156.4222248041378
 30
0.0
 11
3184.352665496383
 21
2600.0199229394202
 31
0.0
  0
CIRCLE
  5
7CBF
  8
1
 10
2474.3526654963839
 20
3742.6065508041379
 30
0.0
 40
165.09999999999991
  0
CIRCLE
  5
7CC0
  8
1
 10
3184.352665496383
 20
2907.6065508041379
 30
0.0
 40
114.3
  0
LINE
  5
7CC6
  8
1
 10
6221.3135360545612
 20
2657.6065508041379
 30
0.0
 11
6221.3135360545612
 21
3751.6065508041402
 31
0.0
  0
LINE
  5
7CC7
  8
1
 10
5365.3135360545612
 20
2657.6065508041379
 30
0.0
 11
5365.3135360545612
 21
3705.1065508041379
 31
0.0
  0
LINE
  5
7CC8
  8
1
 10
5418.3135360545612
 20
2668.6065508041379
 30
0.0
 11
6168.3135360545612
 21
2668.6065508041379
 31
0.0
  0
INSERT
  5
7CC9
  8
0
  2
YA_N
 10
3284.7684406723238
 20
-911.882085380239
 30
0.0
 41
25.0
 42
25.0
 43
25.0
  0
LINE
  5
7CCD
  8
1
 10
5418.3135360545612
 20
2665.6065508041379
 30
0.0
 11
6168.3135360545612
 21
2665.6065508041379
 31
0.0
  0
LINE
  5
7CD1
  8
1
 10
5418.3135360545621
 20
3742.6065508041388
 30
0.0
 11
5418.3135360545612
 21
4462.6065508041384
 31
0.0
  0
LINE
  5
7CD2
  8
1
 10
5416.013536054561
 20
3742.6065508041388
 30
0.0
 11
5416.013536054561
 21
4462.6065508041384
 31
0.0
  0
LINE
  5
7CD3
  8
1
 10
6168.3135360545621
 20
3742.6065508041388
 30
0.0
 11
6168.3135360545621
 21
4462.6065508041384
 31
0.0
  0
LINE
  5
7CD4
  8
1
 10
6170.6135360545613
 20
3742.6065508041388
 30
0.0
 11
6170.6135360545613
 21
4462.6065508041384
 31
0.0
  0
LINE
  5
7CE2
  8
1
 10
3099.3526654963821
 20
7727.1413506426998
 30
0.0
 11
1849.3526654963821
 21
7727.1413506426961
 31
0.0
  0
LINE
  5
7CE3
  8
1
 10
2129.3526654963821
 20
6837.141350642697
 30
0.0
 11
1849.3526654963821
 21
6837.141350642697
 31
0.0
  0
LINE
  5
7CE4
  8
1
 10
1849.3526654963821
 20
7727.1413506426961
 30
0.0
 11
1849.3526654963821
 21
7657.1413506426952
 31
0.0
  0
LINE
  5
7CE5
  8
1
 10
3099.3526654963821
 20
7727.1413506426998
 30
0.0
 11
3099.3526654963821
 21
7657.1413506426979
 31
0.0
  0
LINE
  5
7CE6
  8
1
 10
3414.3526654963821
 20
6902.1413506426998
 30
0.0
 11
3414.3526654963821
 21
6014.1413506426989
 31
0.0
  0
LINE
  5
7CE7
  8
1
 10
3414.3526654963821
 20
6014.1413506426989
 30
0.0
 11
2129.3526654963821
 21
6014.1413506426961
 31
0.0
  0
LINE
  5
7CE8
  8
1
 10
3414.3526654963821
 20
6902.1413506426998
 30
0.0
 11
3099.3526654963821
 21
6902.1413506426998
 31
0.0
  0
LINE
  5
7CE9
  8
1
 10
2129.3526654963821
 20
6837.141350642697
 30
0.0
 11
2129.3526654963821
 21
6014.141350642697
 31
0.0
  0
LINE
  5
7CEF
  8
1
 10
4586.3135360545602
 20
3662.6065508041379
 30
0.0
 11
4586.3135360545602
 21
3069.6065508041379
 31
0.0
  0
LINE
  5
7CF0
  8
1
 10
4586.3135360545602
 20
3662.6065508041379
 30
0.0
 11
5320.3135360545593
 21
3662.6065508041379
 31
0.0
  0
LINE
  5
7CF1
  8
1
 10
5320.3135360545602
 20
3662.6065508041379
 30
0.0
 11
5320.3135360545593
 21
2657.6065508041379
 31
0.0
  0
LINE
  5
7CF2
  8
1
 10
4543.3135360545593
 20
3780.1065508041379
 30
0.0
 11
5416.0135360545601
 21
3780.1065508041379
 31
0.0
  0
LINE
  5
7CF3
  8
1
 10
4543.3135360545612
 20
3705.1065508041379
 30
0.0
 11
5416.013536054561
 21
3705.1065508041379
 31
0.0
  0
LINE
  5
7CF7
  8
1
 10
4543.3135360545593
 20
3780.1065508041379
 30
0.0
 11
4543.3135360545612
 21
3705.1065508041379
 31
0.0
  0
LINE
  5
7CF8
  8
1
 10
4538.3135360545602
 20
3770.1065508041379
 30
0.0
 11
4543.3135360545612
 21
3770.1065508041379
 31
0.0
  0
LINE
  5
7CF9
  8
1
 10
4538.3135360545602
 20
3715.1065508041379
 30
0.0
 11
4543.3135360545612
 21
3715.1065508041379
 31
0.0
  0
LINE
  5
7CFA
  8
1
 10
4428.3135360545593
 20
3907.7065508041378
 30
0.0
 11
4538.3135360545593
 21
3907.7065508041378
 31
0.0
  0
LINE
  5
7CFB
  8
1
 10
4428.3135360545602
 20
3577.506550804138
 30
0.0
 11
4538.3135360545602
 21
3577.506550804138
 31
0.0
  0
LINE
  5
7CFD
  8
1
 10
4428.3135360545602
 20
3907.7065508041378
 30
0.0
 11
4428.3135360545612
 21
2793.3065508041382
 31
0.0
  0
LINE
  5
7CFE
  8
1
 10
4428.3135360545621
 20
3021.9065508041381
 30
0.0
 11
4538.3135360545621
 21
3021.9065508041381
 31
0.0
  0
LINE
  5
7CFF
  8
1
 10
4428.3135360545621
 20
2793.3065508041382
 30
0.0
 11
4538.3135360545621
 21
2793.3065508041382
 31
0.0
  0
LINE
  5
7D00
  8
1
 10
4538.3135360545602
 20
3907.7065508041378
 30
0.0
 11
4538.3135360545602
 21
2793.3065508041382
 31
0.0
  0
LINE
  5
7D01
  8
1
 10
4576.3135360545602
 20
4022.6065508041379
 30
0.0
 11
4576.3135360545593
 21
2687.6065508041379
 31
0.0
  0
LINE
  5
7D02
  8
1
 10
4376.3135360545602
 20
4022.6065508041379
 30
0.0
 11
4376.3135360545602
 21
2687.6065508041379
 31
0.0
  0
LINE
  5
7D03
  8
1
 10
4376.3135360545602
 20
4022.6065508041379
 30
0.0
 11
4576.3135360545602
 21
4022.6065508041379
 31
0.0
  0
LINE
  5
7D04
  8
1
 10
4376.3135360545602
 20
2687.6065508041379
 30
0.0
 11
4576.3135360545602
 21
2687.6065508041379
 31
0.0
  0
LINE
  5
7D05
  8
1
 10
6171.3135360545612
 20
2657.6065508041379
 30
0.0
 11
6171.3135360545612
 21
3247.6065508041379
 31
0.0
  0
POINT
  5
7D06
  8
1
 10
4376.3135360545602
 20
4022.6065508041379
 30
0.0
  0
LINE
  5
7D08
  8
1
 10
2129.3526654963839
 20
2657.6065508041388
 30
0.0
 11
2129.3526654963839
 21
2532.6065508041388
 31
0.0
  0
POINT
  5
7D0D
  8
1
 10
1849.3526654963821
 20
2532.6065508041388
 30
0.0
  0
INSERT
  5
7D0E
  8
0
  2
YA_N
 10
6713.8437541939684
 20
-1775.1581322379841
 30
0.0
  0
LINE
  5
7D11
  8
1
 10
6172.513536054561
 20
3220.1065508041379
 30
0.0
 11
6172.513536054561
 21
4375.1065508041384
 31
0.0
  0
LINE
  5
7D12
  8
1
 10
6170.9135360545606
 20
3220.1065508041379
 30
0.0
 11
6172.513536054561
 21
3220.1065508041379
 31
0.0
  0
ARC
  5
7D15
  8
1
 10
2474.3526654963839
 20
3742.6065508041388
 30
0.0
 40
599.0
 50
179.99999999999989
 51
184.2124990779144
  0
LINE
  5
7D16
  8
1
 10
3139.3359022953869
 20
2751.9868507951001
 30
0.0
 11
3229.369428697421
 21
2751.9868507951001
 31
0.0
  0
ARC
  5
7D17
  8
1
 10
3184.352665496383
 20
2907.6065508041379
 30
0.0
 40
162.0
 50
286.13379196202362
 51
253.86620803797669
  0
LINE
  5
7D18
  8
2
 10
2972.8522230780291
 20
2907.6065508041379
 30
0.0
 11
3378.3388526688282
 21
2907.6065508041379
 31
0.0
  0
LINE
  5
7D1A
  8
1
 10
3030.352665496383
 20
2765.6065508041379
 30
0.0
 11
3089.0061843186481
 21
2765.6065508041379
 31
0.0
  0
LINE
  5
7D1B
  8
1
 10
2979.352665496383
 20
2747.6065508041379
 30
0.0
 11
3389.352665496383
 21
2747.6065508041379
 31
0.0
  0
LINE
  5
7D1C
  8
1
 10
3030.352665496383
 20
2765.6065508041379
 30
0.0
 11
3051.694999625689
 21
2814.6229840531118
 31
0.0
  0
LINE
  5
7D1D
  8
1
 10
3030.352665496383
 20
2747.6065508041379
 30
0.0
 11
3030.352665496383
 21
2765.6065508041379
 31
0.0
  0
LINE
  5
7D1E
  8
1
 10
3090.352665496383
 20
2775.667170784373
 30
0.0
 11
3090.352665496383
 21
2747.6065508041379
 31
0.0
  0
LINE
  5
7D1F
  8
1
 10
3057.352665496383
 20
2727.1065508041379
 30
0.0
 11
3057.352665496383
 21
2795.3021615634011
 31
0.0
  0
LINE
  5
7D21
  8
1
 10
3338.352665496383
 20
2747.6065508041379
 30
0.0
 11
3338.352665496383
 21
2765.6065508041379
 31
0.0
  0
LINE
  5
7D22
  8
1
 10
3278.352665496383
 20
2775.667170784373
 30
0.0
 11
3278.352665496383
 21
2747.6065508041379
 31
0.0
  0
LINE
  5
7D23
  8
1
 10
3311.352665496383
 20
2727.1065508041379
 30
0.0
 11
3311.352665496383
 21
2795.3021615634011
 31
0.0
  0
LINE
  5
7D24
  8
1
 10
3338.352665496383
 20
2747.6065508041379
 30
0.0
 11
3278.352665496383
 21
2747.6065508041379
 31
0.0
  0
LINE
  5
7D25
  8
1
 10
3338.352665496383
 20
2765.6065508041379
 30
0.0
 11
3278.352665496383
 21
2765.6065508041379
 31
0.0
  0
LINE
  5
7D26
  8
1
 10
3338.352665496383
 20
2765.6065508041379
 30
0.0
 11
3317.0103313670779
 21
2814.6229840531118
 31
0.0
  0
LINE
  5
7D27
  8
1
 10
3389.352665496383
 20
2697.6065508041379
 30
0.0
 11
2979.352665496383
 21
2697.6065508041379
 31
0.0
  0
LINE
  5
7D28
  8
1
 10
3384.3526654963839
 20
2697.6065508041379
 30
0.0
 11
3384.3526654963839
 21
2657.6065508041379
 31
0.0
  0
LINE
  5
7D29
  8
1
 10
2984.352665496383
 20
2697.6065508041379
 30
0.0
 11
2984.352665496383
 21
2657.6065508041379
 31
0.0
  0
LINE
  5
7D2A
  8
1
 10
3389.352665496383
 20
2697.6065508041379
 30
0.0
 11
3389.352665496383
 21
2747.6065508041379
 31
0.0
  0
LINE
  5
7D2B
  8
1
 10
2979.352665496383
 20
2697.6065508041379
 30
0.0
 11
2979.352665496383
 21
2747.6065508041379
 31
0.0
  0
LINE
  5
7D2C
  8
1
 10
3270.9961249477128
 20
2983.9624145559019
 30
0.0
 11
2610.9451461510898
 21
3833.9676253173602
 31
0.0
  0
LINE
  5
7D2D
  8
1
 10
3096.96232067659
 20
2831.3499635319131
 30
0.0
 11
2377.4153341802371
 21
3608.2686126151971
 31
0.0
  0
ARC
  5
7D2E
  8
1
 10
2474.3526654963839
 20
3742.6065508041379
 30
0.0
 40
280.0
 50
36.447941137527643
 51
225.46141765916261
  0
ARC
  5
7D2F
  8
1
 10
3184.352665496383
 20
2907.6065508041379
 30
0.0
 40
220.0
 50
219.1510879045538
 51
42.007703608836309
  0
LINE
  5
7D30
  8
1
 10
3359.788829232275
 20
3039.5654030105138
 30
0.0
 11
2694.061956637197
 21
3916.2237885733739
 31
0.0
  0
LINE
  5
7D31
  8
1
 10
3019.091076997523
 20
2762.8197362358292
 30
0.0
 11
2267.4493831875661
 21
3554.0973181001282
 31
0.0
  0
LINE
  5
7D32
  8
1
 10
3414.352665496383
 20
2657.6065508041388
 30
0.0
 11
1849.3526654963821
 21
2657.6065508041388
 31
0.0
1001
ACAD
1000
ASC_BOUNDS
1002
{
1070
    19
1002
}
  0
LINE
  5
7D33
  8
1
 10
5348.3135360545602
 20
2657.6065508041379
 30
0.0
 11
5348.3135360545602
 21
2532.6065508041379
 31
0.0
  0
ARC
  5
7D34
  8
1
 10
2548.3526654963821
 20
3668.6065508041388
 30
0.0
 40
794.0
 50
5.3476697498386372
 51
95.347669749838758
  0
LINE
  5
7D35
  8
1
 10
2511.852665496383
 20
6032.141350642697
 30
0.0
 11
2511.8526654963821
 21
6904.8413506426978
 31
0.0
  0
LINE
  5
7D36
  8
1
 10
2194.3526654963821
 20
5865.141350642697
 30
0.0
 11
3404.3526654963821
 21
5865.141350642697
 31
0.0
  0
LINE
  5
7D37
  8
1
 10
2194.3526654963821
 20
6065.141350642697
 30
0.0
 11
3404.3526654963821
 21
6065.1413506426961
 31
0.0
  0
LINE
  5
7D38
  8
1
 10
2309.252665496384
 20
6027.141350642697
 30
0.0
 11
3298.6526654963832
 21
6027.141350642697
 31
0.0
  0
LINE
  5
7D39
  8
1
 10
2309.252665496384
 20
5917.141350642697
 30
0.0
 11
3298.6526654963832
 21
5917.141350642697
 31
0.0
  0
LINE
  5
7D3A
  8
1
 10
1794.3526654963821
 20
6854.1413506426979
 30
0.0
 11
1844.3526654963821
 21
6854.1413506426989
 31
0.0
  0
LINE
  5
7D3D
  8
2
 10
3184.3526654963821
 20
6548.7605780503736
 30
0.0
 11
3184.3526654963821
 21
5842.6861183707961
 31
0.0
  0
LINE
  5
7D40
  8
1
 10
3346.3526654963821
 20
6063.0908813716978
 30
0.0
 11
3022.3526654963812
 21
6063.0908813716969
 31
0.0
  0
LINE
  5
7D42
  8
1
 10
3153.9313565505358
 20
6044.2126011852552
 30
0.0
 11
3212.7739744422279
 21
6044.2126011852552
 31
0.0
  0
LINE
  5
7D43
  8
1
 10
3126.1352165137851
 20
6052.2126011901173
 30
0.0
 11
3242.5701144789818
 21
6052.2126011901173
 31
0.0
  0
LINE
  5
7D44
  8
1
 10
3205.3526654963821
 20
5934.212601189126
 30
0.0
 11
3163.352665496383
 21
5934.212601189126
 31
0.0
  0
LINE
  5
7D45
  8
1
 10
3404.3526654963821
 20
5865.141350642697
 30
0.0
 11
3404.3526654963821
 21
6065.141350642697
 31
0.0
  0
LINE
  5
7D46
  8
1
 10
3298.6526654963832
 20
5917.1413506426979
 30
0.0
 11
3298.6526654963832
 21
6027.1413506426989
 31
0.0
  0
LINE
  5
7D48
  8
1
 10
3205.3526654963821
 20
5934.212601189126
 30
0.0
 11
3205.3526654963839
 21
6044.2126011852552
 31
0.0
  0
LINE
  5
7D4A
  8
1
 10
3242.5701144789818
 20
6063.0908813716969
 30
0.0
 11
3242.5701144789818
 21
6052.2126011901173
 31
0.0
  0
LINE
  5
7D4B
  8
1
 10
3212.7739744422279
 20
6044.2126011852552
 30
0.0
 11
3212.7739744422279
 21
6052.2126011901173
 31
0.0
  0
LINE
  5
7D4C
  8
1
 10
3070.0526654963828
 20
5917.1413506426979
 30
0.0
 11
3070.0526654963828
 21
6027.1413506426979
 31
0.0
  0
LINE
  5
7D4D
  8
1
 10
2639.4526654963852
 20
5917.141350642697
 30
0.0
 11
2639.4526654963852
 21
6027.141350642697
 31
0.0
  0
LINE
  5
7D4E
  8
1
 10
2239.352665496383
 20
6075.141350642697
 30
0.0
 11
2436.8526654963821
 21
6075.141350642697
 31
0.0
  0
LINE
  5
7D4F
  8
1
 10
3163.3526654963839
 20
5934.212601189126
 30
0.0
 11
3163.3526654963839
 21
6044.2126011852552
 31
0.0
  0
LINE
  5
7D50
  8
1
 10
3153.9313565505358
 20
6044.2126011852552
 30
0.0
 11
3153.9313565505381
 21
6052.2126011901173
 31
0.0
  0
LINE
  5
7D51
  8
1
 10
3126.1352165137851
 20
6063.0908813716969
 30
0.0
 11
3126.1352165137851
 21
6052.2126011901173
 31
0.0
  0
LINE
  5
7D53
  8
1
 10
2501.8526654963821
 20
6027.141350642697
 30
0.0
 11
2501.8526654963821
 21
6032.141350642697
 31
0.0
  0
LINE
  5
7D54
  8
1
 10
2446.8526654963821
 20
6027.141350642697
 30
0.0
 11
2446.8526654963821
 21
6032.141350642697
 31
0.0
  0
LINE
  5
7D55
  8
1
 10
2436.8526654963821
 20
6032.141350642697
 30
0.0
 11
2511.852665496383
 21
6032.141350642697
 31
0.0
  0
LINE
  5
7D58
  8
1
 10
2436.8526654963821
 20
6032.1413506426979
 30
0.0
 11
2436.8526654963821
 21
6907.1413506426979
 31
0.0
  0
LINE
  5
7D5A
  8
1
 10
3346.3526654963821
 20
6131.682009361426
 30
0.0
 11
3346.3526654963821
 21
6373.9290493218477
 31
0.0
  0
LINE
  5
7D5B
  8
1
 10
3346.3526654963821
 20
6537.2126011901191
 30
0.0
 11
3346.3526654963821
 21
6063.0908813716978
 31
0.0
  0
LINE
  5
7D5C
  8
1
 10
3022.352665496383
 20
6131.682009361426
 30
0.0
 11
3022.352665496383
 21
6373.9290493218477
 31
0.0
  0
LINE
  5
7D5D
  8
1
 10
3022.352665496383
 20
6537.2126011901173
 30
0.0
 11
3022.3526654963821
 21
6063.0908813716969
 31
0.0
  0
LINE
  5
7D5F
  8
1
 10
3022.352665496383
 20
6537.2126011901173
 30
0.0
 11
3346.3526654963821
 21
6537.2126011901191
 31
0.0
  0
LINE
  5
7D60
  8
1
 10
2239.3526654963821
 20
6809.141350642697
 30
0.0
 11
2436.8526654963821
 21
6809.141350642697
 31
0.0
  0
LINE
  5
7D61
  8
1
 10
2194.3526654963821
 20
5865.141350642697
 30
0.0
 11
2194.3526654963821
 21
6065.141350642697
 31
0.0
  0
LINE
  5
7D62
  8
1
 10
2309.252665496384
 20
5917.141350642697
 30
0.0
 11
2309.252665496384
 21
6027.1413506426961
 31
0.0
  0
POINT
  5
7D63
  8
1
 10
2194.3526654963821
 20
5865.141350642697
 30
0.0
  0
LINE
  5
7D64
  8
2
 10
1716.7695841680761
 20
7282.1413506426979
 30
0.0
 11
3369.3526654963821
 21
7282.1413506426979
 31
0.0
  0
LINE
  5
7D65
  8
1
 10
1794.3526654963821
 20
7710.141350642697
 30
0.0
 11
1844.3526654963821
 21
7710.141350642697
 31
0.0
  0
LINE
  5
7D66
  8
1
 10
1794.3526654963821
 20
6907.1413506426979
 30
0.0
 11
3342.3526654963821
 21
6907.1413506426979
 31
0.0
  0
LINE
  5
7D67
  8
1
 10
1794.3526654963821
 20
7657.1413506426961
 30
0.0
 11
3342.3526654963821
 21
7657.1413506426979
 31
0.0
  0
LINE
  5
7D68
  8
2
 10
2474.3526654963821
 20
5837.146571246456
 30
0.0
 11
2474.3526654963821
 21
7691.7171285218792
 31
0.0
  0
LINE
  5
7D6B
  8
1
 10
2511.8526654963821
 20
6809.141350642697
 30
0.0
 11
2709.3526654963821
 21
6809.141350642697
 31
0.0
  0
LINE
  5
7D6C
  8
1
 10
2511.852665496383
 20
6075.1413506426961
 30
0.0
 11
2709.352665496383
 21
6075.141350642697
 31
0.0
  0
LINE
  5
7D6D
  8
1
 10
1794.3526654963821
 20
6854.1413506426989
 30
0.0
 11
1794.3526654963821
 21
7710.141350642697
 31
0.0
  0
LINE
  5
7D6E
  8
1
 10
1844.3526654963821
 20
6854.1413506426989
 30
0.0
 11
1844.3526654963821
 21
7710.141350642697
 31
0.0
  0
LINE
  5
7D6F
  8
1
 10
3342.3526654963821
 20
6907.1413506426979
 30
0.0
 11
3342.3526654963821
 21
7657.1413506426979
 31
0.0
  0
LINE
  5
7D70
  8
1
 10
3099.3526654963821
 20
6907.1413506426979
 30
0.0
 11
3099.3526654963821
 21
6902.1413506426998
 31
0.0
  0
LINE
  5
7D71
  8
1
 10
1849.3526654963821
 20
6907.1413506426979
 30
0.0
 11
1849.3526654963821
 21
6837.141350642697
 31
0.0
  0
LINE
  5
7D72
  8
4
 10
6475.0
 20
1750.0
 30
0.0
 11
6475.0
 21
1050.0
 31
0.0
  0
LINE
  5
7D73
  8
4
 10
4025.0
 20
1750.0
 30
0.0
 11
4025.0
 21
1050.0
 31
0.0
  0
LINE
  5
7D74
  8
4
 10
2275.0
 20
1750.0
 30
0.0
 11
2275.0
 21
1050.0
 31
0.0
  0
LINE
  5
7D77
  8
4
 10
2275.0
 20
1050.0
 30
0.0
 11
6475.0
 21
1050.0
 31
0.0
  0
LINE
  5
7D78
  8
4
 10
2275.0
 20
1400.0
 30
0.0
 11
6475.0
 21
1400.0
 31
0.0
  0
TEXT
  5
7D79
  8
4
 10
2409.7572829641558
 20
1510.4005905331451
 30
0.0
 40
175.0
  1
機器名称
  0
TEXT
  5
7D7A
  8
4
 10
2401.9033710867911
 20
1125.7580485620381
 30
0.0
 40
175.0
  1
機器型番
  0
TEXT
  5
7D7B
  8
4
 10
4121.875609206827
 20
1479.00119135149
 30
0.0
 40
150.0
  1
ミツヤリミットロ－ﾄﾞファン
  0
TEXT
  5
7D7C
  8
4
 10
4153.2907345491822
 20
1110.0585449798009
 30
0.0
 40
175.0
  1
LL#6-1
  0
TEXT
  5
7D7E
  8
4
 10
2682.2591629365711
 20
8342.0009446638051
 30
0.0
 40
188.99999999999989
  1
床置ベット
  0
TEXT
  5
7D7F
  8
4
 10
1056.5865766530619
 20
8868.5834166975455
 30
0.0
 40
252.0
  1
遠心式片吸込片持リミットロ－ﾄﾞファン
  0
LINE
  5
7D80
  8
4
 10
875.0
 20
8642.9306399268171
 30
0.0
 11
6475.0
 21
8642.9306399268171
 31
0.0
  0
LINE
  5
7D81
  8
4
 10
875.0
 20
9342.9306399268171
 30
0.0
 11
6475.0
 21
9342.9306399268171
 31
0.0
  0
LINE
  5
7D82
  8
4
 10
2275.0
 20
1750.0
 30
0.0
 11
6475.0
 21
1750.0
 31
0.0
  0
LINE
  5
7D83
  8
4
 10
875.0
 20
9342.9306399268171
 30
0.0
 11
875.0
 21
8642.9306399268171
 31
0.0
  0
TEXT
  5
7D84
  8
4
 10
1156.7532500871121
 20
8338.1181714122031
 30
0.0
 40
188.99999999999989
  1
右回転左横向
  0
TEXT
  5
7D85
  8
4
 10
5141.3934573725146
 20
9471.21378523358
 30
0.0
 40
196.0
  1
No.
  0
TEXT
  5
7D86
  8
4
 10
4589.5362191000459
 20
8342.0009446638051
 30
0.0
 40
188.99999999999989
  1
縮尺：1/35
  0
LINE
  5
7D87
  8
4
 10
6475.0
 20
9342.9306399268171
 30
0.0
 11
6475.0
 21
8642.9306399268171
 31
0.0
  0
LINE
  5
7D88
  8
4
 10
7350.0
 20
10325.0
 30
0.0
 11
7350.0
 21
10325.0
 31
0.0
  0
LINE
  5
7D89
  8
4
 10
5042.160978259526
 20
9384.4225409389055
 30
0.0
 11
5042.160978259526
 21
9753.2829154241354
 31
0.0
  0
LINE
  5
7D8A
  8
4
 10
5042.160978259526
 20
9753.2829154241354
 30
0.0
 11
6475.0
 21
9753.2829154241354
 31
0.0
  0
LINE
  5
7D8B
  8
4
 10
6475.0
 20
9753.2829154241354
 30
0.0
 11
6475.0
 21
9384.4225409389055
 31
0.0
  0
LINE
  5
7D8C
  8
4
 10
6475.0
 20
9384.4225409389055
 30
0.0
 11
5042.160978259526
 21
9384.4225409389055
 31
0.0
  0
LINE
  5
7D8D
  8
4
 10
0.0
 20
0.0
 30
0.0
 11
0.0
 21
10325.0
 31
0.0
  0
LINE
  5
7D8E
  8
4
 10
0.0
 20
10325.0
 30
0.0
 11
7350.0
 21
10325.0
 31
0.0
  0
LINE
  5
7D8F
  8
4
 10
7350.0
 20
10325.0
 30
0.0
 11
7350.0
 21
0.0
 31
0.0
  0
LINE
  5
7D90
  8
4
 10
7350.0
 20
0.0
 30
0.0
 11
0.0
 21
0.0
 31
0.0
  0
DIMENSION
  5
7DA4
  8
3
  2
*D2
 10
1849.3526654963821
 20
8010.1520495048171
 30
0.0
 11
2453.9384894043251
 21
8010.1520495048171
 31
0.0
 70
   128
 13
3099.3526654963821
 23
7727.1413506426998
 33
0.0
 14
1849.3526654963821
 24
7727.1413506426961
 34
0.0
1001
ACAD
1000
DSTYLE
1002
{
1070
   287
1070
     3
1070
    40
1040
35.0
1070
   143
1040
0.039
1070
   172
1070
     1
1070
   271
1070
     0
1070
   279
1070
     0
1070
   288
1070
     1
1002
}
  0
DIMENSION
  5
7DB1
  8
3
  2
*D3
 10
1404.1360225692199
 20
6837.141350642697
 30
0.0
 11
1404.1360225692181
 21
7287.0391967953901
 31
0.0
 70
   128
 13
1849.3526654963821
 23
7727.1413506426961
 33
0.0
 14
1849.3526654963821
 24
6837.141350642697
 34
0.0
 50
270.0
1001
ACAD
1000
DSTYLE
1002
{
1070
   287
1070
     3
1070
    40
1040
35.0
1070
   143
1040
0.039
1070
   172
1070
     1
1070
   271
1070
     0
1070
   279
1070
     0
1070
   288
1070
     1
1002
}
  0
DIMENSION
  5
7DCA
  8
3
  2
*D4
 10
2129.3526654963821
 20
5513.1253058455804
 30
0.0
 11
2782.1789236504701
 21
5513.1253058455804
 31
0.0
 70
   128
 13
3414.3526654963821
 23
6014.1413506426989
 33
0.0
 14
2129.3526654963821
 24
6014.1413506426961
 34
0.0
1001
ACAD
1000
DSTYLE
1002
{
1070
   287
1070
     3
1070
    40
1040
35.0
1070
   143
1040
0.039
1070
   172
1070
     1
1070
   271
1070
     0
1070
   279
1070
     0
1070
   288
1070
     1
1002
}
  0
DIMENSION
  5
7DD8
  8
3
  2
*D5
 10
1849.3526654963821
 20
5513.1253058455804
 30
0.0
 11
1609.3526654963821
 21
5600.6253058455804
 31
0.0
 70
     0
 13
2129.3526654963821
 23
6014.1413506426961
 33
0.0
 14
1849.3526654963821
 24
6837.141350642697
 34
0.0
1001
ACAD
1000
DSTYLE
1002
{
1070
   287
1070
     3
1070
    40
1040
35.0
1070
   143
1040
0.039
1070
   172
1070
     1
1070
   271
1070
     0
1070
   279
1070
     0
1070
   288
1070
     1
1002
}
  0
DIMENSION
  5
7DE5
  8
3
  2
*D6
 10
3615.5895574949468
 20
6014.1413506426989
 30
0.0
 11
3615.5895574949459
 21
6408.0966234377038
 31
0.0
 70
   128
 13
3414.3526654963821
 23
6902.1413506426998
 33
0.0
 14
3414.3526654963821
 24
6014.1413506426989
 34
0.0
 50
270.0
1001
ACAD
1000
DSTYLE
1002
{
1070
   287
1070
     3
1070
    40
1040
35.0
1070
   143
1040
0.039
1070
   172
1070
     1
1070
   271
1070
     0
1070
   279
1070
     0
1070
   288
1070
     1
1002
}
  0
DIMENSION
  5
7DF3
  8
3
  2
*D7
 10
3414.3526654963821
 20
8010.1520495048171
 30
0.0
 11
3256.8526654963821
 21
8150.1520495048162
 31
0.0
 12
0.0
 22
135.0934730238223
 32
0.0
 70
     0
 13
3099.3526654963821
 23
7727.1413506426998
 33
0.0
 14
3414.3526654963821
 24
6902.1413506426998
 34
0.0
1001
ACAD
1000
DSTYLE
1002
{
1070
   288
1070
     1
1070
   172
1070
     1
1070
    75
1070
     1
1070
    40
1040
35.0
1070
   271
1070
     0
1070
   143
1040
0.039
1002
}
  0
DIMENSION
  5
7E20
  8
3
  2
*D8
 10
2474.3526654963839
 20
4671.1063463344981
 30
0.0
 11
2158.9694913765052
 21
4671.1063463344981
 31
0.0
 70
   128
 13
1794.3526654963821
 23
3747.012004221493
 33
0.0
 14
2474.3526654963839
 24
4482.1493970208066
 34
0.0
1001
ACAD
1000
DSTYLE
1002
{
1070
   287
1070
     3
1070
    40
1040
35.0
1070
   143
1040
0.039
1070
   172
1070
     1
1070
   271
1070
     0
1070
   279
1070
     0
1070
   288
1070
     1
1002
}
  0
DIMENSION
  5
7E2C
  8
3
  2
*D9
 10
3342.3526654963821
 20
4671.1063463344981
 30
0.0
 11
2908.352665496383
 21
4758.6063463344981
 31
0.0
 70
     0
 13
2474.3526654963839
 23
4482.1493970208066
 33
0.0
 14
3342.3526654963821
 24
3623.2114953030391
 34
0.0
1001
ACAD
1000
DSTYLE
1002
{
1070
   287
1070
     4
1070
    40
1040
35.0
1070
    75
1070
     1
1070
   143
1040
0.039
1070
   172
1070
     1
1070
   271
1070
     0
1070
   279
1070
     1
1070
   288
1070
     1
1002
}
  0
DIMENSION
  5
7E39
  8
3
  2
*D10
 10
1540.5597096186179
 20
3698.6065508041388
 30
0.0
 11
1540.559709618617
 21
3147.1393003695321
 31
0.0
 70
   128
 13
1794.3526654963821
 23
2668.6065508041388
 33
0.0
 14
1794.3526654963821
 24
3698.6065508041388
 34
0.0
 50
270.0
1001
ACAD
1000
DSTYLE
1002
{
1070
   287
1070
     3
1070
    40
1040
35.0
1070
   143
1040
0.039
1070
   172
1070
     1
1070
   271
1070
     0
1070
   279
1070
     0
1070
   288
1070
     1
1002
}
  0
DIMENSION
  5
7E46
  8
3
  2
*D11
 10
1322.710842427012
 20
3742.6065508041388
 30
0.0
 11
1322.7108424270109
 21
3105.0056698143212
 31
0.0
 70
   128
 13
1776.8526654963821
 23
2668.6065508041388
 33
0.0
 14
1734.736682998755
 24
3742.6065508041388
 34
0.0
 50
270.0
1001
ACAD
1000
DSTYLE
1002
{
1070
   287
1070
     3
1070
    40
1040
35.0
1070
   143
1040
0.039
1070
   172
1070
     1
1070
   271
1070
     0
1070
   279
1070
     0
1070
   288
1070
     1
1002
}
  0
DIMENSION
  5
7E52
  8
3
  2
*D12
 10
1042.1473231350751
 20
2532.6065508041388
 30
0.0
 11
954.64732313507545
 21
3137.6065508041388
 31
0.0
 70
     0
 13
1734.736682998755
 23
3742.606550804137
 33
0.0
 14
1849.3526654963821
 24
2532.6065508041388
 34
0.0
 50
270.0
1001
ACAD
1000
DSTYLE
1002
{
1070
   287
1070
     3
1070
    40
1040
35.0
1070
   143
1040
0.039
1070
   172
1070
     1
1070
   271
1070
     0
1070
   279
1070
     0
1070
   288
1070
     1
1002
}
  0
DIMENSION
  5
7EBD
  8
3
  2
*D13
 10
6168.3135360545612
 20
4637.7171820026269
 30
0.0
 11
5794.6756321233552
 21
4637.7171820026269
 31
0.0
 70
   128
 13
5418.3135360545612
 23
4449.2389069482833
 33
0.0
 14
6168.3135360545612
 24
4449.2389069482833
 34
0.0
1001
ACAD
1000
DSTYLE
1002
{
1070
   287
1070
     3
1070
    40
1040
35.0
1070
   143
1040
0.039
1070
   172
1070
     1
1070
   271
1070
     0
1070
   279
1070
     0
1070
   288
1070
     1
1002
}
  0
DIMENSION
  5
7ECC
  8
3
  2
*D14
 10
5793.3135360545612
 20
4925.0933756195009
 30
0.0
 11
5982.3135360545612
 21
4925.0933756195009
 31
0.0
 70
   128
 13
6171.3135360545612
 23
4502.2389069482842
 33
0.0
 14
5793.3135360545612
 24
4815.0366744487292
 34
0.0
1001
ACAD
1000
DSTYLE
1002
{
1070
   287
1070
     3
1070
    40
1040
35.0
1070
   143
1040
0.039
1070
   172
1070
     1
1070
   271
1070
     0
1070
   279
1070
     0
1070
   288
1070
     1
1002
}
  0
DIMENSION
  5
7ED8
  8
3
  2
*D15
 10
4376.3135360545602
 20
4925.0933756195009
 30
0.0
 11
5084.8135360545612
 21
5100.0933756195009
 31
0.0
 70
     0
  1
MAX\P1450
 13
5793.3135360545612
 23
4815.0366744487292
 33
0.0
 14
4376.3135360545602
 24
4022.6065508041379
 34
0.0
1001
ACAD
1000
DSTYLE
1002
{
1070
   287
1070
     4
1070
    40
1040
35.0
1070
    75
1070
     1
1070
   143
1040
0.039
1070
   172
1070
     1
1070
   271
1070
     0
1070
   279
1070
     1
1070
   288
1070
     1
1002
}
  0
DIMENSION
  5
7F8E
  8
3
  2
*D16
 10
3414.352665496383
 20
4951.0200029791449
 30
0.0
 11
2667.9476993535131
 21
4951.0200029791449
 31
0.0
 70
   128
 13
1794.3526654963821
 23
3747.012004221493
 33
0.0
 14
3414.352665496383
 24
2657.6065508041388
 34
0.0
1001
ACAD
1000
DSTYLE
1002
{
1070
   287
1070
     3
1070
    40
1040
35.0
1070
   143
1040
0.039
1070
   172
1070
     1
1070
   271
1070
     0
1070
   279
1070
     0
1070
   288
1070
     1
1002
}
  0
DIMENSION
  5
7FF5
  8
3
  2
*D18
 10
1404.1360225692181
 20
6014.141350642697
 30
0.0
 11
1316.6360225692169
 21
6425.6413506426979
 31
0.0
 70
     0
 13
1849.3526654963821
 23
6837.141350642697
 33
0.0
 14
2129.3526654963821
 24
6014.1413506426961
 34
0.0
 50
270.0
1001
ACAD
1000
DSTYLE
1002
{
1070
   287
1070
     4
1070
    40
1040
35.0
1070
    75
1070
     1
1070
   143
1040
0.039
1070
   172
1070
     1
1070
   271
1070
     0
1070
   279
1070
     1
1070
   288
1070
     1
1002
}
  0
DIMENSION
  5
824C
  8
3
  2
*D19
 10
1042.1473231350751
 20
4462.6065508041402
 30
0.0
 11
954.64732313507477
 21
4102.6065508041384
 31
0.0
 70
     0
 13
1734.736682998755
 23
3742.606550804137
 33
0.0
 14
2548.3526654963821
 24
4462.6065508041393
 34
0.0
 50
90.0
1001
ACAD
1000
DSTYLE
1002
{
1070
   287
1070
     4
1070
    40
1040
35.0
1070
    75
1070
     1
1070
   143
1040
0.039
1070
   172
1070
     1
1070
   271
1070
     0
1070
   279
1070
     1
1070
   288
1070
     1
1002
}
  0
LINE
  5
8257
  8
1
 10
5416.013536054561
 20
4462.6065508041384
 30
0.0
 11
6170.6135360545622
 21
4462.6065508041384
 31
0.0
  0
LINE
  5
8266
  8
1
 10
4557.1918162371321
 20
2745.6065508041379
 30
0.0
 11
4557.191816237133
 21
3069.6065508041379
 31
0.0
  0
LINE
  5
8267
  8
1
 10
5031.3135360555516
 20
3069.6065508041379
 30
0.0
 11
5031.3135360555516
 21
2745.6065508041379
 31
0.0
  0
LINE
  5
826B
  8
1
 10
4939.7510931805309
 20
3069.6065508041379
 30
0.0
 11
4625.7829442268603
 21
3069.6065508041379
 31
0.0
  0
LINE
  5
826C
  8
1
 10
4557.191816237133
 20
3069.6065508041379
 30
0.0
 11
5031.3135360555516
 21
3069.6065508041388
 31
0.0
  0
LINE
  5
8272
  8
1
 10
4428.3135360545612
 20
2886.6065508041379
 30
0.0
 11
4538.3135360506903
 21
2886.6065508041361
 31
0.0
  0
LINE
  5
8273
  8
1
 10
4428.3135360545612
 20
2928.6065508041361
 30
0.0
 11
4538.3135360506903
 21
2928.6065508041361
 31
0.0
  0
LINE
  5
8274
  8
2
 10
5096.9052759548931
 20
2907.6065508041379
 30
0.0
 11
4390.8308162753137
 21
2907.6065508041379
 31
0.0
  0
LINE
  5
8275
  8
1
 10
4428.3135360545612
 20
2886.6065508041379
 30
0.0
 11
4428.3135360545612
 21
2928.6065508041379
 31
0.0
  0
LINE
  5
8276
  8
1
 10
4939.7510931805309
 20
2745.6065508041379
 30
0.0
 11
4612.0751954456427
 21
2745.6065508041379
 31
0.0
  0
LINE
  5
8277
  8
1
 10
4557.1918162371312
 20
2745.6065508041379
 30
0.0
 11
5031.3135360555516
 21
2745.6065508041379
 31
0.0
  0
LINE
  5
8278
  8
1
 10
4546.3135360555516
 20
2965.8239997867349
 30
0.0
 11
4546.3135360555516
 21
2849.389101821539
 31
0.0
  0
LINE
  5
8279
  8
1
 10
4538.3135360506903
 20
2938.0278597499841
 30
0.0
 11
4538.3135360506903
 21
2879.1852418582921
 31
0.0
  0
LINE
  5
827A
  8
1
 10
4557.1918162371321
 20
2965.8239997867349
 30
0.0
 11
4546.3135360555516
 21
2965.8239997867349
 31
0.0
  0
LINE
  5
827B
  8
1
 10
4538.3135360506903
 20
2938.0278597499841
 30
0.0
 11
4546.3135360555516
 21
2938.0278597499828
 31
0.0
  0
LINE
  5
827C
  8
1
 10
4538.3135360506903
 20
2879.1852418582921
 30
0.0
 11
4546.3135360555516
 21
2879.1852418582921
 31
0.0
  0
LINE
  5
827D
  8
1
 10
4557.1918162371321
 20
2849.389101821539
 30
0.0
 11
4546.3135360555516
 21
2849.389101821539
 31
0.0
  0
LINE
  5
8281
  8
1
 10
4586.3135360545602
 20
2745.6065508041379
 30
0.0
 11
4586.3135360545593
 21
2657.6065508041379
 31
0.0
  0
LINE
  5
8282
  8
1
 10
4919.4744441752919
 20
2745.6065508041379
 30
0.0
 11
4919.4744441752919
 21
2657.6065508041379
 31
0.0
  0
LINE
  5
8283
  8
1
 10
4612.0751954456427
 20
2745.6065508041379
 30
0.0
 11
4612.0751954456427
 21
2657.6065508041379
 31
0.0
  0
LINE
  5
8284
  8
1
 10
4612.0751954456427
 20
2697.6065508041379
 30
0.0
 11
4919.4744441752919
 21
2697.6065508041379
 31
0.0
  0
DIMENSION
  5
82D8
  8
3
  2
*D20
 10
2474.3526654963839
 20
2310.4772722154989
 30
0.0
 11
2161.852665496383
 21
2397.9772722154989
 31
0.0
 70
     0
 13
1849.3526654963821
 23
2532.6065508041388
 33
0.0
 14
2474.3526654963839
 24
2532.6065508041388
 34
0.0
1001
ACAD
1000
DSTYLE
1002
{
1070
   287
1070
     3
1070
    40
1040
35.0
1070
   143
1040
0.039
1070
   172
1070
     1
1070
   271
1070
     0
1070
   279
1070
     0
1002
}
  0
DIMENSION
  5
82E5
  8
3
  2
*D21
 10
3414.352665496383
 20
2310.4772722154989
 30
0.0
 11
2944.352665496383
 21
2397.9772722154989
 31
0.0
 70
     0
 13
2474.3526654963839
 23
2532.6065508041388
 33
0.0
 14
3414.352665496383
 24
2532.6065508041388
 34
0.0
1001
ACAD
1000
DSTYLE
1002
{
1070
   287
1070
     3
1070
    40
1040
35.0
1070
   143
1040
0.039
1070
   172
1070
     1
1070
   271
1070
     0
1070
   279
1070
     0
1002
}
  0
DIMENSION
  5
82F2
  8
3
  2
*D22
 10
5793.3135360545612
 20
2310.4772722154989
 30
0.0
 11
5159.3135360545602
 21
2397.9772722154989
 31
0.0
 70
     0
 13
4525.3135360545602
 23
2532.6065508041379
 33
0.0
 14
5793.3135360545612
 24
2532.6065508041379
 34
0.0
1001
ACAD
1000
DSTYLE
1002
{
1070
   287
1070
     3
1070
    40
1040
35.0
1070
   143
1040
0.039
1070
   172
1070
     1
1070
   271
1070
     0
1070
   279
1070
     0
1002
}
  0
DIMENSION
  5
8301
  8
3
  2
*D23
 10
6238.3135360545602
 20
2310.4772722154989
 30
0.0
 11
6015.8135360545602
 21
2397.9772722154989
 31
0.0
 70
     0
 13
5793.3135360545612
 23
2532.6065508041379
 33
0.0
 14
6238.3135360545602
 24
2532.6065508041379
 34
0.0
1001
ACAD
1000
DSTYLE
1002
{
1070
   287
1070
     3
1070
    40
1040
35.0
1070
   143
1040
0.039
1070
   172
1070
     1
1070
   271
1070
     0
1070
   279
1070
     0
1002
}
  0
DIMENSION
  5
830E
  8
3
  2
*D24
 10
774.62422900603269
 20
2532.6065508041388
 30
0.0
 11
687.12422900603235
 21
3497.6065508041402
 31
0.0
 70
     0
 13
2530.8526654963821
 23
4462.6065508041393
 33
0.0
 14
1849.3526654963821
 24
2532.6065508041388
 34
0.0
 50
90.0
1001
ACAD
1000
DSTYLE
1002
{
1070
   287
1070
     3
1070
    40
1040
35.0
1070
   143
1040
0.039
1070
   172
1070
     1
1070
   271
1070
     0
1070
   279
1070
     0
1002
}
  0
LINE
  5
8319
  8
1
 10
2239.3526654963839
 20
3662.6065508041379
 30
0.0
 11
2709.3526654963839
 21
3662.6065508041379
 31
0.0
  0
LINE
  5
831B
  8
1
 10
2239.3526654963839
 20
3662.6065508041379
 30
0.0
 11
2129.3526654963839
 21
2657.6065508041388
 31
0.0
  0
LINE
  5
831C
  8
1
 10
2709.3526654963839
 20
3662.6065508041379
 30
0.0
 11
2819.3526654963839
 21
2657.6065508041388
 31
0.0
  0
LINE
  5
831D
  8
1
 10
2239.352665496383
 20
6075.141350642697
 30
0.0
 11
2239.352665496383
 21
6809.141350642697
 31
0.0
  0
LINE
  5
831E
  8
1
 10
2709.352665496383
 20
6075.141350642697
 30
0.0
 11
2709.352665496383
 21
6809.141350642697
 31
0.0
  0
ARC
  5
8325
  8
1
 10
2400.3526654963821
 20
3668.6065508041388
 30
0.0
 40
942.0
 50
319.22464770122781
 51
4.5055845266444052
  0
DIMENSION
  5
8338
  8
3
  2
*D25
 10
6506.7943875934734
 20
3242.6065508041379
 30
0.0
 11
6419.2943875934707
 21
3742.6065508041388
 31
0.0
 70
     0
 13
6172.513536054561
 23
4242.6065508041384
 33
0.0
 14
6172.513536054561
 24
3242.6065508041379
 34
0.0
 50
90.0
1001
ACAD
1000
DSTYLE
1002
{
1070
   287
1070
     3
1070
     3
1000
φ<>
1070
    40
1040
35.0
1070
   143
1040
0.039
1070
   172
1070
     1
1070
   271
1070
     0
1070
   279
1070
     0
1002
}
  0
LINE
  5
8339
  8
1
 10
6172.5135360545619
 20
3751.6065508041402
 30
0.0
 11
6221.3135360545612
 21
3751.6065508041402
 31
0.0
  0
ENDSEC
  0
EOF
