  0
SECTION
  2
HEADER
  9
$ACADVER
  1
AC1009
  9
$INSBASE
 10
0.0
 20
0.0
 30
0.0
  9
$EXTMIN
 10
0.0
 20
0.0
 30
0.0
  9
$EXTMAX
 10
7350.0
 20
10325.0
 30
0.0
  9
$LIMMIN
 10
0.0
 20
0.0
  9
$LIMMAX
 10
297.0
 20
210.0
  9
$ORTHOMODE
 70
     0
  9
$REGENMODE
 70
     1
  9
$FILLMODE
 70
     0
  9
$QTEXTMODE
 70
     0
  9
$MIRRTEXT
 70
     1
  9
$DRAGMODE
 70
     2
  9
$LTSCALE
 40
100.0
  9
$OSMODE
 70
    37
  9
$ATTMODE
 70
     1
  9
$TEXTSIZE
 40
180.0
  9
$TRACEWID
 40
0.05
  9
$TEXTSTYLE
  7
STANDARD
  9
$CLAYER
  8
3
  9
$CELTYPE
  6
BYLAYER
  9
$CECOLOR
 62
   256
  9
$DIMSCALE
 40
35.0
  9
$DIMASZ
 40
2.0
  9
$DIMEXO
 40
0.5
  9
$DIMDLI
 40
10.0
  9
$DIMRND
 40
0.0
  9
$DIMDLE
 40
0.0
  9
$DIMEXE
 40
1.0
  9
$DIMTP
 40
1.0
  9
$DIMTM
 40
1.0
  9
$DIMTXT
 40
3.0
  9
$DIMCEN
 40
0.0
  9
$DIMTSZ
 40
0.0
  9
$DIMTOL
 70
     0
  9
$DIMLIM
 70
     0
  9
$DIMTIH
 70
     0
  9
$DIMTOH
 70
     0
  9
$DIMSE1
 70
     0
  9
$DIMSE2
 70
     0
  9
$DIMTAD
 70
     1
  9
$DIMZIN
 70
     8
  9
$DIMBLK
  1

  9
$DIMASO
 70
     1
  9
$DIMSHO
 70
     1
  9
$DIMPOST
  1
φ<>
  9
$DIMAPOST
  1

  9
$DIMALT
 70
     0
  9
$DIMALTD
 70
     2
  9
$DIMALTF
 40
0.039
  9
$DIMLFAC
 40
1.0
  9
$DIMTOFL
 70
     1
  9
$DIMTVP
 40
0.0
  9
$DIMTIX
 70
     0
  9
$DIMSOXD
 70
     0
  9
$DIMSAH
 70
     1
  9
$DIMBLK1
  1
OPEN
  9
$DIMBLK2
  1
OPEN
  9
$DIMSTYLE
  2
IGA
  9
$DIMCLRD
 70
     0
  9
$DIMCLRE
 70
     0
  9
$DIMCLRT
 70
     0
  9
$DIMTFAC
 40
10.0
  9
$DIMGAP
 40
1.0
  9
$LUNITS
 70
     2
  9
$LUPREC
 70
     3
  9
$SKETCHINC
 40
0.1
  9
$FILLETRAD
 40
50.0
  9
$AUNITS
 70
     0
  9
$AUPREC
 70
     0
  9
$MENU
  1
acad
  9
$ELEVATION
 40
0.0
  9
$PELEVATION
 40
0.0
  9
$THICKNESS
 40
0.0
  9
$LIMCHECK
 70
     0
  9
$BLIPMODE
 70
     0
  9
$CHAMFERA
 40
0.5
  9
$CHAMFERB
 40
0.5
  9
$SKPOLY
 70
     0
  9
$TDCREATE
 40
2452779.654074884
  9
$TDUPDATE
 40
2454953.6454311339
  9
$TDINDWG
 40
0.0345724306
  9
$TDUSRTIMER
 40
0.0345724306
  9
$USRTIMER
 70
     1
  9
$ANGBASE
 50
0.0
  9
$ANGDIR
 70
     0
  9
$PDMODE
 70
     0
  9
$PDSIZE
 40
0.0
  9
$PLINEWID
 40
0.0
  9
$COORDS
 70
     1
  9
$SPLFRAME
 70
     0
  9
$SPLINETYPE
 70
     6
  9
$SPLINESEGS
 70
     8
  9
$ATTDIA
 70
     0
  9
$ATTREQ
 70
     1
  9
$HANDLING
 70
 10241
  9
$HANDSEED
  5
850C
  9
$SURFTAB1
 70
     6
  9
$SURFTAB2
 70
     6
  9
$SURFTYPE
 70
     6
  9
$SURFU
 70
     6
  9
$SURFV
 70
     6
  9
$UCSNAME
  2

  9
$UCSORG
 10
0.0
 20
0.0
 30
0.0
  9
$UCSXDIR
 10
1.0
 20
0.0
 30
0.0
  9
$UCSYDIR
 10
0.0
 20
1.0
 30
0.0
  9
$PUCSNAME
  2

  9
$PUCSORG
 10
0.0
 20
0.0
 30
0.0
  9
$PUCSXDIR
 10
1.0
 20
0.0
 30
0.0
  9
$PUCSYDIR
 10
0.0
 20
1.0
 30
0.0
  9
$USERI1
 70
     0
  9
$USERI2
 70
     0
  9
$USERI3
 70
     0
  9
$USERI4
 70
     0
  9
$USERI5
 70
     0
  9
$USERR1
 40
0.0
  9
$USERR2
 40
0.0
  9
$USERR3
 40
0.0
  9
$USERR4
 40
0.0
  9
$USERR5
 40
0.0
  9
$WORLDVIEW
 70
     1
  9
$SHADEDGE
 70
     3
  9
$SHADEDIF
 70
    70
  9
$TILEMODE
 70
     1
  9
$MAXACTVP
 70
    16
  9
$PLIMCHECK
 70
     0
  9
$PEXTMIN
 10
1.0000000000000000E+020
 20
1.0000000000000000E+020
 30
1.0000000000000000E+020
  9
$PEXTMAX
 10
-1.0000000000000000E+020
 20
-1.0000000000000000E+020
 30
-1.0000000000000000E+020
  9
$PLIMMIN
 10
0.0
 20
0.0
  9
$PLIMMAX
 10
12.0
 20
9.0
  9
$UNITMODE
 70
     0
  9
$VISRETAIN
 70
     0
  9
$PLINEGEN
 70
     0
  9
$PSLTSCALE
 70
     1
  0
ENDSEC
  0
SECTION
  2
TABLES
  0
TABLE
  2
VPORT
 70
     2
  0
VPORT
  2
*ACTIVE
 70
     0
 10
0.0
 20
0.0
 11
1.0
 21
1.0
 12
6738.0569396220953
 22
1133.7535084352751
 13
0.0
 23
0.0
 14
10.0
 24
10.0
 15
10.0
 25
10.0
 16
0.0
 26
0.0
 36
1.0
 17
0.0
 27
0.0
 37
0.0
 40
2880.7891595439291
 41
3.1666666666666661
 42
50.0
 43
0.0
 44
0.0
 50
0.0
 51
0.0
 71
     0
 72
   100
 73
     1
 74
     0
 75
     0
 76
     0
 77
     0
 78
     0
  0
ENDTAB
  0
TABLE
  2
LTYPE
 70
     2
  0
LTYPE
  2
CONTINUOUS
 70
     0
  3
Solid line
 72
    65
 73
     0
 40
0.0
  0
LTYPE
  2
CENTER
 70
     0
  3
____ _ ____ _ ____ _ ____ _ ____ _ ____ _ ____ 
 72
    65
 73
     4
 40
2.0
 49
1.25
 49
-0.25
 49
0.25
 49
-0.25
  0
ENDTAB
  0
TABLE
  2
LAYER
 70
     6
  0
LAYER
  2
0
 70
     0
 62
     7
  6
CONTINUOUS
  0
LAYER
  2
3
 70
     0
 62
     2
  6
CONTINUOUS
  0
LAYER
  2
2
 70
     0
 62
     3
  6
CENTER
  0
LAYER
  2
1
 70
     0
 62
     4
  6
CONTINUOUS
  0
LAYER
  2
4
 70
     0
 62
     7
  6
CONTINUOUS
  0
LAYER
  2
DEFPOINTS
 70
     0
 62
     7
  6
CONTINUOUS
  0
ENDTAB
  0
TABLE
  2
STYLE
 70
     1
  0
STYLE
  2
STANDARD
 70
     0
 40
0.0
 41
1.0
 50
0.0
 71
     0
 42
180.0
  3
simplex.shx
  4
extfont.shx
  0
ENDTAB
  0
TABLE
  2
VIEW
 70
     0
  0
ENDTAB
  0
TABLE
  2
UCS
 70
     0
  0
ENDTAB
  0
TABLE
  2
APPID
 70
     1
  0
APPID
  2
ACAD
 70
     0
  0
ENDTAB
  0
TABLE
  2
DIMSTYLE
 70
     1
  0
DIMSTYLE
  2
IGA
 70
     0
  3

  4

  5

  6
OPEN
  7
OPEN
 40
2.0
 41
2.0
 42
0.5
 43
10.0
 44
1.0
 45
0.0
 46
0.0
 47
1.0
 48
1.0
140
3.0
141
0.0
142
0.0
143
0.03937
144
1.0
145
0.0
146
10.0
147
1.0
 71
     0
 72
     0
 73
     0
 74
     0
 75
     0
 76
     0
 77
     1
 78
     8
170
     0
171
     2
172
     0
173
     1
174
     0
175
     0
176
     0
177
     0
178
     0
  0
ENDTAB
  0
ENDSEC
  0
SECTION
  2
BLOCKS
  0
BLOCK
  8
0
  2
$MODEL_SPACE
 70
     0
 10
0.0
 20
0.0
 30
0.0
  3
$MODEL_SPACE
  1

  0
ENDBLK
  5
1B
  8
0
  0
BLOCK
 67
     1
  8
0
  2
$PAPER_SPACE
 70
     0
 10
0.0
 20
0.0
 30
0.0
  3
$PAPER_SPACE
  1

  0
ENDBLK
  5
18
 67
     1
  8
0
  0
BLOCK
  8
0
  2
YA_N
 70
     0
 10
0.0
 20
0.0
 30
0.0
  3
YA_N
  1

  0
ENDBLK
  5
7B50
  8
0
  0
BLOCK
  8
0
  2
_OPEN
 70
     0
 10
0.0
 20
0.0
 30
0.0
  3
_OPEN
  1

  0
LINE
  5
7D93
  8
0
  6
BYBLOCK
 62
     0
 10
-1.0
 20
0.1666666666666666
 30
0.0
 11
0.0
 21
0.0
 31
0.0
  0
LINE
  5
7D94
  8
0
  6
BYBLOCK
 62
     0
 10
0.0
 20
0.0
 30
0.0
 11
-1.0
 21
-0.1666666666666666
 31
0.0
  0
LINE
  5
7D95
  8
0
  6
BYBLOCK
 62
     0
 10
0.0
 20
0.0
 30
0.0
 11
-1.0
 21
0.0
 31
0.0
  0
ENDBLK
  5
7D96
  8
0
  0
BLOCK
  8
0
  2
*D2
 70
     1
 10
0.0
 20
0.0
 30
0.0
  3
*D2
  1

  0
LINE
  5
842D
  8
3
 62
     0
 10
1052.9656931736199
 20
7744.6413506426989
 30
0.0
 11
1052.9656931736199
 21
8045.1520495048171
 31
0.0
  0
LINE
  5
842E
  8
3
 62
     0
 10
2302.9656931736208
 20
7744.6413506426961
 30
0.0
 11
2302.9656931736208
 21
8045.1520495048171
 31
0.0
  0
LINE
  5
842F
  8
3
 62
     0
 10
1122.9656931736199
 20
8010.1520495048171
 30
0.0
 11
2232.9656931736208
 21
8010.1520495048171
 31
0.0
  0
INSERT
  5
8430
  8
3
 62
     0
  2
_OPEN
 10
1052.9656931736199
 20
8010.1520495048171
 30
0.0
 41
70.0
 42
70.0
 43
70.0
 50
180.0
  0
INSERT
  5
8431
  8
3
 62
     0
  2
_OPEN
 10
2302.9656931736208
 20
8010.1520495048171
 30
0.0
 41
70.0
 42
70.0
 43
70.0
  0
TEXT
  8
3
  40
105
  5
84F5
  62
0
  72
0
  71
0
 10
1488.38
 20
7911.80
 30
0.000000
  1
1250
  0
POINT
  5
8433
  8
DEFPOINTS
 62
     0
 10
1052.9656931736199
 20
7727.1413506426998
 30
0.0
  0
POINT
  5
8434
  8
DEFPOINTS
 62
     0
 10
2302.9656931736208
 20
7727.1413506426961
 30
0.0
  0
POINT
  5
8435
  8
DEFPOINTS
 62
     0
 10
2302.9656931736208
 20
8010.1520495048171
 30
0.0
  0
ENDBLK
  5
837A
  8
0
  0
BLOCK
  8
0
  2
*D3
 70
     1
 10
0.0
 20
0.0
 30
0.0
  3
*D3
  1

  0
LINE
  5
8436
  8
3
 62
     0
 10
2320.4656931736208
 20
7727.1413506426961
 30
0.0
 11
2783.182336100786
 21
7727.1413506426961
 31
0.0
  0
LINE
  5
8437
  8
3
 62
     0
 10
2320.4656931736208
 20
6837.141350642697
 30
0.0
 11
2783.1823361007851
 21
6837.141350642697
 31
0.0
  0
LINE
  5
8438
  8
3
 62
     0
 10
2748.182336100786
 20
7657.1413506426961
 30
0.0
 11
2748.1823361007851
 21
6907.1413506426979
 31
0.0
  0
INSERT
  5
8439
  8
3
 62
     0
  2
_OPEN
 10
2748.182336100786
 20
7727.1413506426961
 30
0.0
 41
70.0
 42
70.0
 43
70.0
 50
90.0
  0
INSERT
  5
843A
  8
3
 62
     0
  2
_OPEN
 10
2748.1823361007851
 20
6837.141350642697
 30
0.0
 41
70.0
 42
70.0
 43
70.0
 50
270.0
  0
TEXT
  8
3
  40
105
  5
84F6
  62
0
  72
0
  71
0
 10
2450.68
 20
7101.19
 30
0.000000
  1
890
  0
POINT
  5
843C
  8
DEFPOINTS
 62
     0
 10
2302.9656931736208
 20
7727.1413506426961
 30
0.0
  0
POINT
  5
843D
  8
DEFPOINTS
 62
     0
 10
2302.9656931736208
 20
6837.141350642697
 30
0.0
  0
POINT
  5
843E
  8
DEFPOINTS
 62
     0
 10
2748.1823361007851
 20
6837.141350642697
 30
0.0
  0
ENDBLK
  5
8364
  8
0
  0
BLOCK
  8
0
  2
*D4
 70
     1
 10
0.0
 20
0.0
 30
0.0
  3
*D4
  1

  0
LINE
  5
843F
  8
3
 62
     0
 10
737.96569317362071
 20
5996.6413506426989
 30
0.0
 11
737.96569317362071
 21
5478.1253058455804
 31
0.0
  0
LINE
  5
8440
  8
3
 62
     0
 10
2022.9656931736199
 20
5996.6413506426961
 30
0.0
 11
2022.9656931736199
 21
5478.1253058455804
 31
0.0
  0
LINE
  5
8441
  8
3
 62
     0
 10
807.96569317362082
 20
5513.1253058455804
 30
0.0
 11
1952.9656931736199
 21
5513.1253058455804
 31
0.0
  0
INSERT
  5
8442
  8
3
 62
     0
  2
_OPEN
 10
737.96569317362071
 20
5513.1253058455804
 30
0.0
 41
70.0
 42
70.0
 43
70.0
 50
180.0
  0
INSERT
  5
8443
  8
3
 62
     0
  2
_OPEN
 10
2022.9656931736199
 20
5513.1253058455804
 30
0.0
 41
70.0
 42
70.0
 43
70.0
  0
TEXT
  8
3
  40
105
  5
84F7
  62
0
  72
0
  71
0
 10
1160.14
 20
5414.78
 30
0.000000
  1
1285
  0
POINT
  5
8445
  8
DEFPOINTS
 62
     0
 10
737.96569317362071
 20
6014.1413506426989
 30
0.0
  0
POINT
  5
8446
  8
DEFPOINTS
 62
     0
 10
2022.9656931736199
 20
6014.1413506426961
 30
0.0
  0
POINT
  5
8447
  8
DEFPOINTS
 62
     0
 10
2022.9656931736199
 20
5513.1253058455804
 30
0.0
  0
ENDBLK
  5
836F
  8
0
  0
BLOCK
  8
0
  2
*D5
 70
     1
 10
0.0
 20
0.0
 30
0.0
  3
*D5
  1

  0
LINE
  5
8448
  8
3
 62
     0
 10
2022.9656931736199
 20
5996.6413506426961
 30
0.0
 11
2022.9656931736199
 21
5478.1253058455804
 31
0.0
  0
LINE
  5
8449
  8
3
 62
     0
 10
2302.9656931736208
 20
6819.641350642697
 30
0.0
 11
2302.9656931736208
 21
5478.1253058455804
 31
0.0
  0
LINE
  5
844A
  8
3
 62
     0
 10
2092.9656931736199
 20
5513.1253058455804
 30
0.0
 11
2232.9656931736208
 21
5513.1253058455804
 31
0.0
  0
LINE
  5
844B
  8
3
 62
     0
 10
2302.9656931736208
 20
5513.1253058455804
 30
0.0
 11
2712.9656931736199
 21
5513.1253058455804
 31
0.0
  0
INSERT
  5
844C
  8
3
 62
     0
  2
_OPEN
 10
2022.9656931736199
 20
5513.1253058455804
 30
0.0
 41
70.0
 42
70.0
 43
70.0
 50
180.0
  0
INSERT
  5
844D
  8
3
 62
     0
  2
_OPEN
 10
2302.9656931736208
 20
5513.1253058455804
 30
0.0
 41
70.0
 42
70.0
 43
70.0
  0
TEXT
  8
3
  40
105
  5
84F8
  62
0
  72
0
  71
0
 10
2332.97
 20
5414.78
 30
0.000000
  1
280
  0
POINT
  5
844F
  8
DEFPOINTS
 62
     0
 10
2022.9656931736199
 20
6014.1413506426961
 30
0.0
  0
POINT
  5
8450
  8
DEFPOINTS
 62
     0
 10
2302.9656931736208
 20
6837.141350642697
 30
0.0
  0
POINT
  5
8451
  8
DEFPOINTS
 62
     0
 10
2302.9656931736208
 20
5513.1253058455804
 30
0.0
  0
ENDBLK
  5
8386
  8
0
  0
BLOCK
  8
0
  2
*D6
 70
     1
 10
0.0
 20
0.0
 30
0.0
  3
*D6
  1

  0
LINE
  5
8452
  8
3
 62
     0
 10
720.46569317362082
 20
6902.1413506426998
 30
0.0
 11
501.72880117505821
 21
6902.1413506426998
 31
0.0
  0
LINE
  5
8453
  8
3
 62
     0
 10
720.46569317362082
 20
6014.1413506426989
 30
0.0
 11
501.72880117505792
 21
6014.1413506426989
 31
0.0
  0
LINE
  5
8454
  8
3
 62
     0
 10
536.72880117505815
 20
6832.1413506426989
 30
0.0
 11
536.72880117505804
 21
6084.1413506426989
 31
0.0
  0
INSERT
  5
8455
  8
3
 62
     0
  2
_OPEN
 10
536.72880117505815
 20
6902.1413506426998
 30
0.0
 41
70.0
 42
70.0
 43
70.0
 50
90.0
  0
INSERT
  5
8456
  8
3
 62
     0
  2
_OPEN
 10
536.72880117505804
 20
6014.1413506426989
 30
0.0
 41
70.0
 42
70.0
 43
70.0
 50
270.0
  0
TEXT
  8
3
  40
105
  5
84F9
  62
0
  72
0
  71
0
 10
239.229
 20
6222.25
 30
0.000000
  1
888
  0
POINT
  5
8458
  8
DEFPOINTS
 62
     0
 10
737.96569317362071
 20
6902.1413506426998
 30
0.0
  0
POINT
  5
8459
  8
DEFPOINTS
 62
     0
 10
737.96569317362071
 20
6014.1413506426989
 30
0.0
  0
POINT
  5
845A
  8
DEFPOINTS
 62
     0
 10
536.72880117505804
 20
6014.1413506426989
 30
0.0
  0
ENDBLK
  5
8391
  8
0
  0
BLOCK
  8
0
  2
*D7
 70
     1
 10
0.0
 20
0.0
 30
0.0
  3
*D7
  1

  0
LINE
  5
8393
  8
0
  6
BYBLOCK
 62
     0
 10
737.96569317362071
 20
6919.6413506426989
 30
0.0
 11
737.96569317362071
 21
8045.1520495048171
 31
0.0
  0
LINE
  5
8394
  8
0
  6
BYBLOCK
 62
     0
 10
982.96569317362082
 20
8010.1520495048171
 30
0.0
 11
807.96569317362082
 21
8010.1520495048171
 31
0.0
  0
TEXT
  5
8395
  8
3
 62
     0
 10
770.46569317362082
 20
8097.652049504818
 30
0.0
 40
105.0
  1
315
  0
INSERT
  5
8396
  8
0
  6
BYBLOCK
 62
     0
  2
_OPEN
 10
1052.9656931736199
 20
8010.1520495048171
 30
0.0
 41
70.0
 42
70.0
 43
70.0
  0
INSERT
  5
8397
  8
0
  6
BYBLOCK
 62
     0
  2
_OPEN
 10
737.96569317362071
 20
8010.1520495048171
 30
0.0
 41
70.0
 42
70.0
 43
70.0
 50
180.0
  0
POINT
  5
8398
  8
DEFPOINTS
  6
BYBLOCK
 62
     0
 10
1052.9656931736199
 20
7727.1413506426998
 30
0.0
  0
POINT
  5
8399
  8
DEFPOINTS
  6
BYBLOCK
 62
     0
 10
737.96569317362071
 20
6902.1413506426998
 30
0.0
  0
POINT
  5
839A
  8
DEFPOINTS
  6
BYBLOCK
 62
     0
 10
737.96569317362071
 20
8010.1520495048171
 30
0.0
  0
ENDBLK
  5
839B
  8
0
  0
BLOCK
  8
0
  2
*D8
 70
     1
 10
0.0
 20
0.0
 30
0.0
  3
*D8
  1

  0
LINE
  5
845B
  8
3
 62
     0
 10
2357.9656931736208
 20
3764.512004221493
 30
0.0
 11
2357.9656931736208
 21
4706.1063463344981
 31
0.0
  0
LINE
  5
845C
  8
3
 62
     0
 10
1677.965693173619
 20
4499.6493970208057
 30
0.0
 11
1677.965693173619
 21
4706.1063463344981
 31
0.0
  0
LINE
  5
845D
  8
3
 62
     0
 10
2287.9656931736199
 20
4671.1063463344981
 30
0.0
 11
1747.965693173619
 21
4671.1063463344981
 31
0.0
  0
INSERT
  5
845E
  8
3
 62
     0
  2
_OPEN
 10
2357.9656931736208
 20
4671.1063463344981
 30
0.0
 41
70.0
 42
70.0
 43
70.0
  0
INSERT
  5
845F
  8
3
 62
     0
  2
_OPEN
 10
1677.965693173619
 20
4671.1063463344981
 30
0.0
 41
70.0
 42
70.0
 43
70.0
 50
180.0
  0
TEXT
  8
3
  40
105
  5
84FA
  62
0
  72
0
  71
0
 10
1783.35
 20
4572.76
 30
0.000000
  1
680
  0
POINT
  5
8461
  8
DEFPOINTS
 62
     0
 10
2357.9656931736208
 20
3747.012004221493
 30
0.0
  0
POINT
  5
8462
  8
DEFPOINTS
 62
     0
 10
1677.965693173619
 20
4482.1493970208066
 30
0.0
  0
POINT
  5
8463
  8
DEFPOINTS
 62
     0
 10
1677.965693173619
 20
4671.1063463344981
 30
0.0
  0
ENDBLK
  5
834F
  8
0
  0
BLOCK
  8
0
  2
*D9
 70
     1
 10
0.0
 20
0.0
 30
0.0
  3
*D9
  1

  0
LINE
  5
8464
  8
3
 62
     0
 10
809.96569317362071
 20
3640.7114953030391
 30
0.0
 11
809.96569317362093
 21
4706.1063463344981
 31
0.0
  0
LINE
  5
8465
  8
3
 62
     0
 10
1607.965693173619
 20
4671.1063463344981
 30
0.0
 11
879.96569317362082
 21
4671.1063463344981
 31
0.0
  0
INSERT
  5
8466
  8
3
 62
     0
  2
_OPEN
 10
1677.965693173619
 20
4671.1063463344981
 30
0.0
 41
70.0
 42
70.0
 43
70.0
  0
INSERT
  5
8467
  8
3
 62
     0
  2
_OPEN
 10
809.96569317362093
 20
4671.1063463344981
 30
0.0
 41
70.0
 42
70.0
 43
70.0
 50
180.0
  0
TEXT
  8
3
  40
105
  5
84FB
  62
0
  72
0
  71
0
 10
1033.97
 20
4572.76
 30
0.000000
  1
868
  0
POINT
  5
8469
  8
DEFPOINTS
 62
     0
 10
1677.965693173619
 20
4482.1493970208066
 30
0.0
  0
POINT
  5
846A
  8
DEFPOINTS
 62
     0
 10
809.96569317362071
 20
3623.2114953030391
 30
0.0
  0
POINT
  5
846B
  8
DEFPOINTS
 62
     0
 10
809.96569317362093
 20
4671.1063463344981
 30
0.0
  0
ENDBLK
  5
832F
  8
0
  0
BLOCK
  8
0
  2
*D10
 70
     1
 10
0.0
 20
0.0
 30
0.0
  3
*D10
  1

  0
LINE
  5
846C
  8
3
 62
     0
 10
2375.4656931736199
 20
2668.6065508041388
 30
0.0
 11
2646.7586490513859
 21
2668.6065508041388
 31
0.0
  0
LINE
  5
846D
  8
3
 62
     0
 10
2375.4656931736199
 20
3698.6065508041388
 30
0.0
 11
2646.7586490513868
 21
3698.6065508041388
 31
0.0
  0
LINE
  5
846E
  8
3
 62
     0
 10
2611.7586490513859
 20
2738.6065508041388
 30
0.0
 11
2611.7586490513859
 21
3628.6065508041388
 31
0.0
  0
INSERT
  5
846F
  8
3
 62
     0
  2
_OPEN
 10
2611.7586490513859
 20
2668.6065508041388
 30
0.0
 41
70.0
 42
70.0
 43
70.0
 50
270.0
  0
INSERT
  5
8470
  8
3
 62
     0
  2
_OPEN
 10
2611.7586490513859
 20
3698.6065508041388
 30
0.0
 41
70.0
 42
70.0
 43
70.0
 50
90.0
  0
TEXT
  8
3
  40
105
  5
84FC
  62
0
  72
0
  71
0
 10
2314.26
 20
2961.29
 30
0.000000
  1
1030
  0
POINT
  5
8472
  8
DEFPOINTS
 62
     0
 10
2357.9656931736208
 20
2668.6065508041388
 30
0.0
  0
POINT
  5
8473
  8
DEFPOINTS
 62
     0
 10
2357.9656931736208
 20
3698.6065508041388
 30
0.0
  0
POINT
  5
8474
  8
DEFPOINTS
 62
     0
 10
2611.7586490513859
 20
3698.6065508041388
 30
0.0
  0
ENDBLK
  5
833A
  8
0
  0
BLOCK
  8
0
  2
*D11
 70
     1
 10
0.0
 20
0.0
 30
0.0
  3
*D11
  1

  0
LINE
  5
8475
  8
3
 62
     0
 10
2392.9656931736199
 20
2668.6065508041388
 30
0.0
 11
2864.607516242992
 21
2668.6065508041388
 31
0.0
  0
LINE
  5
8476
  8
3
 62
     0
 10
2435.0816756712479
 20
3742.6065508041388
 30
0.0
 11
2864.607516242992
 21
3742.6065508041388
 31
0.0
  0
LINE
  5
8477
  8
3
 62
     0
 10
2829.607516242992
 20
2738.6065508041388
 30
0.0
 11
2829.607516242992
 21
3672.6065508041388
 31
0.0
  0
INSERT
  5
8478
  8
3
 62
     0
  2
_OPEN
 10
2829.607516242992
 20
2668.6065508041388
 30
0.0
 41
70.0
 42
70.0
 43
70.0
 50
270.0
  0
INSERT
  5
8479
  8
3
 62
     0
  2
_OPEN
 10
2829.607516242992
 20
3742.6065508041388
 30
0.0
 41
70.0
 42
70.0
 43
70.0
 50
90.0
  0
TEXT
  8
3
  40
105
  5
84FD
  62
0
  72
0
  71
0
 10
2532.11
 20
2919.16
 30
0.000000
  1
1074
  0
POINT
  5
847B
  8
DEFPOINTS
 62
     0
 10
2375.4656931736199
 20
2668.6065508041388
 30
0.0
  0
POINT
  5
847C
  8
DEFPOINTS
 62
     0
 10
2417.5816756712479
 20
3742.6065508041388
 30
0.0
  0
POINT
  5
847D
  8
DEFPOINTS
 62
     0
 10
2829.607516242992
 20
3742.6065508041388
 30
0.0
  0
ENDBLK
  5
830F
  8
0
  0
BLOCK
  8
0
  2
*D12
 70
     1
 10
0.0
 20
0.0
 30
0.0
  3
*D12
  1

  0
LINE
  5
847E
  8
3
 62
     0
 10
2435.0816756712479
 20
3742.606550804137
 30
0.0
 11
3145.1710355349278
 21
3742.6065508041361
 31
0.0
  0
LINE
  5
847F
  8
3
 62
     0
 10
2320.4656931736208
 20
2532.6065508041388
 30
0.0
 11
3145.1710355349269
 21
2532.6065508041388
 31
0.0
  0
LINE
  5
8480
  8
3
 62
     0
 10
3110.1710355349278
 20
3672.606550804137
 30
0.0
 11
3110.1710355349278
 21
2602.6065508041379
 31
0.0
  0
INSERT
  5
8481
  8
3
 62
     0
  2
_OPEN
 10
3110.1710355349278
 20
3742.6065508041361
 30
0.0
 41
70.0
 42
70.0
 43
70.0
 50
90.0
  0
INSERT
  5
8482
  8
3
 62
     0
  2
_OPEN
 10
3110.1710355349278
 20
2532.6065508041388
 30
0.0
 41
70.0
 42
70.0
 43
70.0
 50
270.0
  0
TEXT
  8
3
  40
105
  5
84FE
  62
0
  72
0
  71
0
 10
2812.67
 20
2951.76
 30
0.000000
  1
1210
  0
POINT
  5
8484
  8
DEFPOINTS
 62
     0
 10
2417.5816756712479
 20
3742.606550804137
 30
0.0
  0
POINT
  5
8485
  8
DEFPOINTS
 62
     0
 10
2302.9656931736208
 20
2532.6065508041388
 30
0.0
  0
POINT
  5
8486
  8
DEFPOINTS
 62
     0
 10
3110.1710355349278
 20
2532.6065508041388
 30
0.0
  0
ENDBLK
  5
8304
  8
0
  0
BLOCK
  8
0
  2
*D13
 70
     1
 10
0.0
 20
0.0
 30
0.0
  3
*D13
  1

  0
LINE
  5
8487
  8
3
 62
     0
 10
5418.3135360545612
 20
4466.7389069482842
 30
0.0
 11
5418.3135360545612
 21
4672.7171820026269
 31
0.0
  0
LINE
  5
8488
  8
3
 62
     0
 10
6168.3135360545612
 20
4466.7389069482842
 30
0.0
 11
6168.3135360545612
 21
4672.7171820026269
 31
0.0
  0
LINE
  5
8489
  8
3
 62
     0
 10
5488.3135360545602
 20
4637.7171820026269
 30
0.0
 11
6098.3135360545602
 21
4637.7171820026269
 31
0.0
  0
INSERT
  5
848A
  8
3
 62
     0
  2
_OPEN
 10
5418.3135360545612
 20
4637.7171820026269
 30
0.0
 41
70.0
 42
70.0
 43
70.0
 50
180.0
  0
INSERT
  5
848B
  8
3
 62
     0
  2
_OPEN
 10
6168.3135360545612
 20
4637.7171820026269
 30
0.0
 41
70.0
 42
70.0
 43
70.0
  0
TEXT
  8
3
  40
105
  5
84FF
  62
0
  72
0
  71
0
 10
5584.68
 20
4539.37
 30
0.000000
  1
750
  0
POINT
  5
848D
  8
DEFPOINTS
 62
     0
 10
5418.3135360545612
 20
4449.2389069482833
 30
0.0
  0
POINT
  5
848E
  8
DEFPOINTS
 62
     0
 10
6168.3135360545612
 20
4449.2389069482833
 30
0.0
  0
POINT
  5
848F
  8
DEFPOINTS
 62
     0
 10
6168.3135360545612
 20
4637.7171820026269
 30
0.0
  0
ENDBLK
  5
7F46
  8
0
  0
BLOCK
  8
0
  2
*D14
 70
     1
 10
0.0
 20
0.0
 30
0.0
  3
*D14
  1

  0
LINE
  5
8490
  8
3
 62
     0
 10
6171.3135360545612
 20
4519.7389069482842
 30
0.0
 11
6171.3135360545612
 21
4960.0933756195009
 31
0.0
  0
LINE
  5
8491
  8
3
 62
     0
 10
5793.3135360545612
 20
4832.5366744487292
 30
0.0
 11
5793.3135360545612
 21
4960.0933756195009
 31
0.0
  0
LINE
  5
8492
  8
3
 62
     0
 10
6241.3135360545602
 20
4925.0933756195009
 30
0.0
 11
6311.3135360545602
 21
4925.0933756195009
 31
0.0
  0
LINE
  5
8493
  8
3
 62
     0
 10
5723.3135360545602
 20
4925.0933756195009
 30
0.0
 11
5653.3135360545602
 21
4925.0933756195009
 31
0.0
  0
LINE
  5
8494
  8
3
 62
     0
 10
6171.3135360545612
 20
4925.0933756195009
 30
0.0
 11
5793.3135360545612
 21
4925.0933756195009
 31
0.0
  0
INSERT
  5
8495
  8
3
 62
     0
  2
_OPEN
 10
6171.3135360545612
 20
4925.0933756195009
 30
0.0
 41
70.0
 42
70.0
 43
70.0
 50
180.0
  0
INSERT
  5
8496
  8
3
 62
     0
  2
_OPEN
 10
5793.3135360545612
 20
4925.0933756195009
 30
0.0
 41
70.0
 42
70.0
 43
70.0
  0
TEXT
  8
3
  40
105
  5
8500
  62
0
  72
0
  71
0
 10
5772.31
 20
4826.74
 30
0.000000
  1
378
  0
POINT
  5
8498
  8
DEFPOINTS
 62
     0
 10
6171.3135360545612
 20
4502.2389069482842
 30
0.0
  0
POINT
  5
8499
  8
DEFPOINTS
 62
     0
 10
5793.3135360545612
 20
4815.0366744487292
 30
0.0
  0
POINT
  5
849A
  8
DEFPOINTS
 62
     0
 10
5793.3135360545612
 20
4925.0933756195009
 30
0.0
  0
ENDBLK
  5
7F74
  8
0
  0
BLOCK
  8
0
  2
*D15
 70
     1
 10
0.0
 20
0.0
 30
0.0
  3
*D15
  1

  0
LINE
  5
849B
  8
3
 62
     0
 10
4376.3135360545602
 20
4040.1065508041379
 30
0.0
 11
4376.3135360545602
 21
4960.0933756195009
 31
0.0
  0
LINE
  5
849C
  8
3
 62
     0
 10
5723.3135360545602
 20
4925.0933756195009
 30
0.0
 11
4446.3135360545593
 21
4925.0933756195009
 31
0.0
  0
INSERT
  5
849D
  8
3
 62
     0
  2
_OPEN
 10
5793.3135360545612
 20
4925.0933756195009
 30
0.0
 41
70.0
 42
70.0
 43
70.0
  0
INSERT
  5
849E
  8
3
 62
     0
  2
_OPEN
 10
4376.3135360545602
 20
4925.0933756195009
 30
0.0
 41
70.0
 42
70.0
 43
70.0
 50
180.0
  0
TEXT
  8
3
  40
105
  5
8501
  62
0
  72
0
  71
0
 10
4874.81
 20
4914.24
 30
0.000000
  1
MAX
  0
TEXT
  8
3
  40
105
  5
8502
  62
0
  72
0
  71
0
 10
4874.81
 20
4777.74
 30
0.000000
  1
1450
  0
POINT
  5
84A0
  8
DEFPOINTS
 62
     0
 10
5793.3135360545612
 20
4815.0366744487292
 30
0.0
  0
POINT
  5
84A1
  8
DEFPOINTS
 62
     0
 10
4376.3135360545602
 20
4022.6065508041379
 30
0.0
  0
POINT
  5
84A2
  8
DEFPOINTS
 62
     0
 10
4376.3135360545602
 20
4925.0933756195009
 30
0.0
  0
ENDBLK
  5
8261
  8
0
  0
BLOCK
  8
0
  2
*D16
 70
     1
 10
0.0
 20
0.0
 30
0.0
  3
*D16
  1

  0
LINE
  5
84A3
  8
3
 62
     0
 10
2357.9656931736208
 20
3764.512004221493
 30
0.0
 11
2357.9656931736208
 21
4986.0200029791449
 31
0.0
  0
LINE
  5
84A4
  8
3
 62
     0
 10
737.96569317361991
 20
2675.1065508041388
 30
0.0
 11
737.96569317361991
 21
4986.0200029791449
 31
0.0
  0
LINE
  5
84A5
  8
3
 62
     0
 10
2287.9656931736199
 20
4951.0200029791449
 30
0.0
 11
807.96569317362014
 21
4951.0200029791449
 31
0.0
  0
INSERT
  5
84A6
  8
3
 62
     0
  2
_OPEN
 10
2357.9656931736208
 20
4951.0200029791449
 30
0.0
 41
70.0
 42
70.0
 43
70.0
  0
INSERT
  5
84A7
  8
3
 62
     0
  2
_OPEN
 10
737.96569317361991
 20
4951.0200029791449
 30
0.0
 41
70.0
 42
70.0
 43
70.0
 50
180.0
  0
TEXT
  8
3
  40
105
  5
8503
  62
0
  72
0
  71
0
 10
1274.37
 20
4852.67
 30
0.000000
  1
1620
  0
POINT
  5
84A9
  8
DEFPOINTS
 62
     0
 10
2357.9656931736208
 20
3747.012004221493
 30
0.0
  0
POINT
  5
84AA
  8
DEFPOINTS
 62
     0
 10
737.96569317361991
 20
2657.6065508041388
 30
0.0
  0
POINT
  5
84AB
  8
DEFPOINTS
 62
     0
 10
737.96569317361991
 20
4951.0200029791449
 30
0.0
  0
ENDBLK
  5
831A
  8
0
  0
BLOCK
  8
0
  2
_DOT
 70
     0
 10
0.0
 20
0.0
 30
0.0
  3
_DOT
  1

  0
LINE
  5
804C
  8
0
  6
BYBLOCK
 62
     0
 10
0.0
 20
0.0
 30
0.0
 11
-1.0
 21
-0.0000000000000284
 31
0.0
  0
POLYLINE
  5
804D
  8
0
  6
BYBLOCK
 62
     0
 66
     1
 10
0.0
 20
0.0
 30
0.0
 70
     1
 40
0.1666666666666666
 41
0.1666666666666666
  0
VERTEX
  5
84B4
  8
0
  6
BYBLOCK
 62
     0
 10
-0.0833333333333286
 20
-0.0000000000000284
 30
0.0
 42
1.0
  0
VERTEX
  5
84B5
  8
0
  6
BYBLOCK
 62
     0
 10
0.0833333333333286
 20
-0.0000000000000284
 30
0.0
 42
1.0
  0
SEQEND
  5
84B6
  8
0
  6
BYBLOCK
 62
     0
  0
ENDBLK
  5
7FAA
  8
0
  0
BLOCK
  8
0
  2
*D18
 70
     1
 10
0.0
 20
0.0
 30
0.0
  3
*D18
  1

  0
LINE
  5
84AC
  8
3
 62
     0
 10
2040.4656931736199
 20
6014.1413506426961
 30
0.0
 11
2783.1823361007841
 21
6014.1413506426952
 31
0.0
  0
LINE
  5
84AD
  8
3
 62
     0
 10
2748.1823361007841
 20
6767.1413506426989
 30
0.0
 11
2748.1823361007841
 21
6084.1413506426961
 31
0.0
  0
INSERT
  5
84AE
  8
3
 62
     0
  2
_OPEN
 10
2748.1823361007841
 20
6837.141350642697
 30
0.0
 41
70.0
 42
70.0
 43
70.0
 50
90.0
  0
INSERT
  5
84AF
  8
3
 62
     0
  2
_OPEN
 10
2748.1823361007841
 20
6014.1413506426952
 30
0.0
 41
70.0
 42
70.0
 43
70.0
 50
270.0
  0
TEXT
  8
3
  40
105
  5
8504
  62
0
  72
0
  71
0
 10
2450.68
 20
6239.79
 30
0.000000
  1
823
  0
POINT
  5
84B1
  8
DEFPOINTS
 62
     0
 10
2302.9656931736208
 20
6837.141350642697
 30
0.0
  0
POINT
  5
84B2
  8
DEFPOINTS
 62
     0
 10
2022.9656931736199
 20
6014.1413506426961
 30
0.0
  0
POINT
  5
84B3
  8
DEFPOINTS
 62
     0
 10
2748.1823361007841
 20
6014.1413506426952
 30
0.0
  0
ENDBLK
  5
8359
  8
0
  0
BLOCK
  8
0
  2
*D19
 70
     1
 10
0.0
 20
0.0
 30
0.0
  3
*D19
  1

  0
LINE
  5
84B7
  8
3
 62
     0
 10
1621.4656931736199
 20
4462.6065508041393
 30
0.0
 11
3145.1710355349269
 21
4462.6065508041384
 31
0.0
  0
LINE
  5
84B8
  8
3
 62
     0
 10
3110.1710355349278
 20
3812.606550804137
 30
0.0
 11
3110.1710355349278
 21
4392.6065508041384
 31
0.0
  0
INSERT
  5
84B9
  8
3
 62
     0
  2
_OPEN
 10
3110.1710355349278
 20
3742.6065508041361
 30
0.0
 41
70.0
 42
70.0
 43
70.0
 50
270.0
  0
INSERT
  5
84BA
  8
3
 62
     0
  2
_OPEN
 10
3110.1710355349278
 20
4462.6065508041384
 30
0.0
 41
70.0
 42
70.0
 43
70.0
 50
90.0
  0
TEXT
  8
3
  40
105
  5
8505
  62
0
  72
0
  71
0
 10
2812.67
 20
3916.76
 30
0.000000
  1
720
  0
POINT
  5
84BC
  8
DEFPOINTS
 62
     0
 10
2417.5816756712479
 20
3742.606550804137
 30
0.0
  0
POINT
  5
84BD
  8
DEFPOINTS
 62
     0
 10
1603.9656931736199
 20
4462.6065508041393
 30
0.0
  0
POINT
  5
84BE
  8
DEFPOINTS
 62
     0
 10
3110.1710355349278
 20
4462.6065508041384
 30
0.0
  0
ENDBLK
  5
82E0
  8
0
  0
BLOCK
  8
0
  2
*D20
 70
     1
 10
0.0
 20
0.0
 30
0.0
  3
*D20
  1

  0
LINE
  5
84BF
  8
3
 62
     0
 10
737.96569317361991
 20
2515.1065508041388
 30
0.0
 11
737.96569317361991
 21
2257.284796187676
 31
0.0
  0
LINE
  5
84C0
  8
3
 62
     0
 10
1677.965693173619
 20
2515.1065508041388
 30
0.0
 11
1677.965693173619
 21
2257.284796187676
 31
0.0
  0
LINE
  5
84C1
  8
3
 62
     0
 10
807.96569317361991
 20
2292.2847961876751
 30
0.0
 11
1607.965693173619
 21
2292.2847961876751
 31
0.0
  0
INSERT
  5
84C2
  8
3
 62
     0
  2
_OPEN
 10
737.96569317361991
 20
2292.2847961876751
 30
0.0
 41
70.0
 42
70.0
 43
70.0
 50
180.0
  0
INSERT
  5
84C3
  8
3
 62
     0
  2
_OPEN
 10
1677.965693173619
 20
2292.2847961876751
 30
0.0
 41
70.0
 42
70.0
 43
70.0
  0
TEXT
  8
3
  40
105
  5
8506
  62
0
  72
0
  71
0
 10
997.966
 20
2193.93
 30
0.000000
  1
940
  0
POINT
  5
84C5
  8
DEFPOINTS
 62
     0
 10
737.96569317361991
 20
2532.6065508041388
 30
0.0
  0
POINT
  5
84C6
  8
DEFPOINTS
 62
     0
 10
1677.965693173619
 20
2532.6065508041388
 30
0.0
  0
POINT
  5
84C7
  8
DEFPOINTS
 62
     0
 10
1677.965693173619
 20
2292.2847961876751
 30
0.0
  0
ENDBLK
  5
83AC
  8
0
  0
BLOCK
  8
0
  2
*D21
 70
     1
 10
0.0
 20
0.0
 30
0.0
  3
*D21
  1

  0
LINE
  5
84C8
  8
3
 62
     0
 10
1677.965693173619
 20
2515.1065508041388
 30
0.0
 11
1677.965693173619
 21
2257.284796187676
 31
0.0
  0
LINE
  5
84C9
  8
3
 62
     0
 10
2302.9656931736208
 20
2515.1065508041388
 30
0.0
 11
2302.9656931736208
 21
2257.284796187676
 31
0.0
  0
LINE
  5
84CA
  8
3
 62
     0
 10
1747.965693173619
 20
2292.2847961876751
 30
0.0
 11
2232.9656931736208
 21
2292.2847961876751
 31
0.0
  0
INSERT
  5
84CB
  8
3
 62
     0
  2
_OPEN
 10
1677.965693173619
 20
2292.2847961876751
 30
0.0
 41
70.0
 42
70.0
 43
70.0
 50
180.0
  0
INSERT
  5
84CC
  8
3
 62
     0
  2
_OPEN
 10
2302.9656931736208
 20
2292.2847961876751
 30
0.0
 41
70.0
 42
70.0
 43
70.0
  0
TEXT
  8
3
  40
105
  5
8507
  62
0
  72
0
  71
0
 10
1780.47
 20
2193.93
 30
0.000000
  1
625
  0
POINT
  5
84CE
  8
DEFPOINTS
 62
     0
 10
1677.965693173619
 20
2532.6065508041388
 30
0.0
  0
POINT
  5
84CF
  8
DEFPOINTS
 62
     0
 10
2302.9656931736208
 20
2532.6065508041388
 30
0.0
  0
POINT
  5
84D0
  8
DEFPOINTS
 62
     0
 10
2302.9656931736208
 20
2292.2847961876751
 30
0.0
  0
ENDBLK
  5
83B9
  8
0
  0
BLOCK
  8
0
  2
*D22
 70
     1
 10
0.0
 20
0.0
 30
0.0
  3
*D22
  1

  0
LINE
  5
84D1
  8
3
 62
     0
 10
4525.3135360545602
 20
2515.1065508041379
 30
0.0
 11
4525.3135360545602
 21
2257.284796187676
 31
0.0
  0
LINE
  5
84D2
  8
3
 62
     0
 10
5793.3135360545612
 20
2515.1065508041379
 30
0.0
 11
5793.3135360545612
 21
2257.284796187676
 31
0.0
  0
LINE
  5
84D3
  8
3
 62
     0
 10
4595.3135360545602
 20
2292.2847961876751
 30
0.0
 11
5723.3135360545602
 21
2292.2847961876751
 31
0.0
  0
INSERT
  5
84D4
  8
3
 62
     0
  2
_OPEN
 10
4525.3135360545602
 20
2292.2847961876751
 30
0.0
 41
70.0
 42
70.0
 43
70.0
 50
180.0
  0
INSERT
  5
84D5
  8
3
 62
     0
  2
_OPEN
 10
5793.3135360545612
 20
2292.2847961876751
 30
0.0
 41
70.0
 42
70.0
 43
70.0
  0
TEXT
  8
3
  40
105
  5
8508
  62
0
  72
0
  71
0
 10
4949.31
 20
2193.93
 30
0.000000
  1
1268
  0
POINT
  5
84D7
  8
DEFPOINTS
 62
     0
 10
4525.3135360545602
 20
2532.6065508041379
 30
0.0
  0
POINT
  5
84D8
  8
DEFPOINTS
 62
     0
 10
5793.3135360545612
 20
2532.6065508041379
 30
0.0
  0
POINT
  5
84D9
  8
DEFPOINTS
 62
     0
 10
5793.3135360545612
 20
2292.2847961876751
 30
0.0
  0
ENDBLK
  5
83C6
  8
0
  0
BLOCK
  8
0
  2
*D23
 70
     1
 10
0.0
 20
0.0
 30
0.0
  3
*D23
  1

  0
LINE
  5
84DA
  8
3
 62
     0
 10
5793.3135360545612
 20
2515.1065508041379
 30
0.0
 11
5793.3135360545612
 21
2257.284796187676
 31
0.0
  0
LINE
  5
84DB
  8
3
 62
     0
 10
6238.3135360545602
 20
2515.1065508041379
 30
0.0
 11
6238.3135360545602
 21
2257.284796187676
 31
0.0
  0
LINE
  5
84DC
  8
3
 62
     0
 10
5863.3135360545602
 20
2292.2847961876751
 30
0.0
 11
6168.3135360545612
 21
2292.2847961876751
 31
0.0
  0
INSERT
  5
84DD
  8
3
 62
     0
  2
_OPEN
 10
5793.3135360545612
 20
2292.2847961876751
 30
0.0
 41
70.0
 42
70.0
 43
70.0
 50
180.0
  0
INSERT
  5
84DE
  8
3
 62
     0
  2
_OPEN
 10
6238.3135360545602
 20
2292.2847961876751
 30
0.0
 41
70.0
 42
70.0
 43
70.0
  0
TEXT
  8
3
  40
105
  5
8509
  62
0
  72
0
  71
0
 10
5805.81
 20
2193.93
 30
0.000000
  1
445
  0
POINT
  5
84E0
  8
DEFPOINTS
 62
     0
 10
5793.3135360545612
 20
2532.6065508041379
 30
0.0
  0
POINT
  5
84E1
  8
DEFPOINTS
 62
     0
 10
6238.3135360545602
 20
2532.6065508041379
 30
0.0
  0
POINT
  5
84E2
  8
DEFPOINTS
 62
     0
 10
6238.3135360545602
 20
2292.2847961876751
 30
0.0
  0
ENDBLK
  5
83D5
  8
0
  0
BLOCK
  8
0
  2
*D24
 70
     1
 10
0.0
 20
0.0
 30
0.0
  3
*D24
  1

  0
LINE
  5
84E3
  8
3
 62
     0
 10
1638.9656931736199
 20
4462.6065508041393
 30
0.0
 11
3401.7933795335771
 21
4462.6065508041384
 31
0.0
  0
LINE
  5
84E4
  8
3
 62
     0
 10
2320.4656931736208
 20
2532.6065508041388
 30
0.0
 11
3401.7933795335771
 21
2532.6065508041388
 31
0.0
  0
LINE
  5
84E5
  8
3
 62
     0
 10
3366.7933795335771
 20
4392.6065508041384
 30
0.0
 11
3366.7933795335771
 21
2602.6065508041379
 31
0.0
  0
INSERT
  5
84E6
  8
3
 62
     0
  2
_OPEN
 10
3366.7933795335771
 20
4462.6065508041384
 30
0.0
 41
70.0
 42
70.0
 43
70.0
 50
90.0
  0
INSERT
  5
84E7
  8
3
 62
     0
  2
_OPEN
 10
3366.7933795335771
 20
2532.6065508041388
 30
0.0
 41
70.0
 42
70.0
 43
70.0
 50
270.0
  0
TEXT
  8
3
  40
105
  5
850A
  62
0
  72
0
  71
0
 10
3069.29
 20
3311.76
 30
0.000000
  1
1930
  0
POINT
  5
84E9
  8
DEFPOINTS
 62
     0
 10
1621.4656931736199
 20
4462.6065508041393
 30
0.0
  0
POINT
  5
84EA
  8
DEFPOINTS
 62
     0
 10
2302.9656931736208
 20
2532.6065508041388
 30
0.0
  0
POINT
  5
84EB
  8
DEFPOINTS
 62
     0
 10
3366.7933795335771
 20
2532.6065508041388
 30
0.0
  0
ENDBLK
  5
83E2
  8
0
  0
BLOCK
  8
0
  2
*D25
 70
     1
 10
0.0
 20
0.0
 30
0.0
  3
*D25
  1

  0
LINE
  5
84EC
  8
3
 62
     0
 10
6190.013536054561
 20
4242.6065508041384
 30
0.0
 11
6549.7469769867312
 21
4242.6065508041384
 31
0.0
  0
LINE
  5
84ED
  8
3
 62
     0
 10
6190.013536054561
 20
3242.6065508041379
 30
0.0
 11
6549.7469769867312
 21
3242.6065508041379
 31
0.0
  0
LINE
  5
84EE
  8
3
 62
     0
 10
6514.7469769867321
 20
4172.6065508041393
 30
0.0
 11
6514.7469769867321
 21
3312.6065508041379
 31
0.0
  0
INSERT
  5
84EF
  8
3
 62
     0
  2
_OPEN
 10
6514.7469769867321
 20
4242.6065508041384
 30
0.0
 41
70.0
 42
70.0
 43
70.0
 50
90.0
  0
INSERT
  5
84F0
  8
3
 62
     0
  2
_OPEN
 10
6514.7469769867321
 20
3242.6065508041379
 30
0.0
 41
70.0
 42
70.0
 43
70.0
 50
270.0
  0
TEXT
  8
3
  40
105
  5
850B
  62
0
  72
0
  71
0
 10
6217.25
 20
3556.76
 30
0.000000
  1
φ1000
  0
POINT
  5
84F2
  8
DEFPOINTS
 62
     0
 10
6172.513536054561
 20
4242.6065508041384
 30
0.0
  0
POINT
  5
84F3
  8
DEFPOINTS
 62
     0
 10
6172.513536054561
 20
3242.6065508041379
 30
0.0
  0
POINT
  5
84F4
  8
DEFPOINTS
 62
     0
 10
6514.7469769867321
 20
3242.6065508041379
 30
0.0
  0
ENDBLK
  5
8410
  8
0
  0
ENDSEC
  0
SECTION
  2
ENTITIES
  0
INSERT
  5
7CA0
  8
0
  2
YA_N
 10
4435.6620037513776
 20
82.140128153376281
 30
0.0
  0
ARC
  5
7CA2
  8
1
 10
1751.9656931736199
 20
3668.6065508041388
 30
0.0
 40
942.0
 50
175.4944154733555
 51
220.77535229877211
  0
ARC
  5
7CA3
  8
1
 10
1603.9656931736199
 20
3668.6065508041388
 30
0.0
 40
794.0
 50
156.551265040396
 51
174.65233025016121
  0
ARC
  5
7CA4
  8
1
 10
1617.4656931736199
 20
3803.1065508041388
 30
0.0
 40
659.49999999999989
 50
354.73650479693299
 51
84.736504796933033
  0
LINE
  5
7CA5
  8
1
 10
2275.3474806429049
 20
3698.6065508041388
 30
0.0
 11
2357.9656931736208
 21
3698.6065508041388
 31
0.0
  0
LINE
  5
7CA6
  8
1
 10
2357.9656931736208
 20
2615.6065508041388
 30
0.0
 11
2357.9656931736208
 21
3751.6065508041402
 31
0.0
  0
LINE
  5
7CA7
  8
1
 10
2357.9656931736208
 20
2668.6065508041388
 30
0.0
 11
2018.4328510232431
 21
2699.0202449962098
 31
0.0
  0
LINE
  5
7CA8
  8
1
 10
2307.965693173619
 20
2615.6065508041388
 30
0.0
 11
2357.9656931736208
 21
2615.6065508041388
 31
0.0
  0
LINE
  5
7CA9
  8
1
 10
2307.9656931736199
 20
3751.6065508041388
 30
0.0
 11
2357.9656931736208
 21
3751.6065508041402
 31
0.0
  0
LINE
  5
7CAA
  8
1
 10
2307.9656931736199
 20
2615.6065508041402
 30
0.0
 11
2307.9656931736199
 21
3751.6065508041388
 31
0.0
  0
LINE
  5
7CAB
  8
1
 10
2353.965693173619
 20
2615.6065508041388
 30
0.0
 11
2353.9656931736231
 21
3751.6065508041402
 31
0.0
  0
LINE
  5
7CAC
  8
1
 10
737.96569317361991
 20
2657.6065508041379
 30
0.0
 11
1167.965693173619
 21
2657.6065508041379
 31
0.0
  0
LINE
  5
7CAD
  8
1
 10
2302.9656931736208
 20
2657.6065508041388
 30
0.0
 11
2302.9656931736208
 21
2532.6065508041388
 31
0.0
  0
LINE
  5
7CAE
  8
1
 10
737.96569317361991
 20
2657.6065508041388
 30
0.0
 11
737.96569317361991
 21
2532.6065508041388
 31
0.0
  0
LINE
  5
7CAF
  8
2
 10
4399.8230916669781
 20
3742.6065508041379
 30
0.0
 11
6295.2884290351612
 21
3742.6065508041379
 31
0.0
  0
LINE
  5
7CB0
  8
2
 10
5793.3135360545612
 20
4603.3408422146313
 30
0.0
 11
5793.3135360545612
 21
2532.6065508041379
 31
0.0
  0
LINE
  5
7CB1
  8
1
 10
4525.3135360545602
 20
2532.6065508041379
 30
0.0
 11
6238.3135360545602
 21
2532.6065508041379
 31
0.0
1001
ACAD
1000
ASC_BOUNDS
1002
{
1070
    19
1002
}
  0
LINE
  5
7CB2
  8
1
 10
4525.3135360545602
 20
2657.6065508041379
 30
0.0
 11
6238.3135360545602
 21
2657.6065508041379
 31
0.0
  0
LINE
  5
7CB3
  8
1
 10
4525.3135360545602
 20
2657.6065508041379
 30
0.0
 11
4525.3135360545602
 21
2532.6065508041379
 31
0.0
  0
LINE
  5
7CB4
  8
1
 10
6238.3135360545602
 20
2657.6065508041379
 30
0.0
 11
6238.3135360545602
 21
2532.6065508041379
 31
0.0
  0
LINE
  5
7CB5
  8
1
 10
6168.3135360545612
 20
2657.6065508041388
 30
0.0
 11
6168.3135360545612
 21
3753.6065508041379
 31
0.0
  0
LINE
  5
7CB6
  8
1
 10
5418.3135360545612
 20
2657.6065508041379
 30
0.0
 11
5418.3135360545612
 21
3742.6065508041388
 31
0.0
  0
LINE
  5
7CB7
  8
1
 10
6170.6135360545613
 20
2657.6065508041379
 30
0.0
 11
6170.6135360545613
 21
3756.6065508041379
 31
0.0
  0
LINE
  5
7CB8
  8
1
 10
5416.0135360545601
 20
2657.6065508041379
 30
0.0
 11
5416.013536054561
 21
3742.6065508041388
 31
0.0
  0
LINE
  5
7CB9
  8
2
 10
1677.965693173619
 20
4482.1493970208066
 30
0.0
 11
1677.965693173619
 21
2532.6065508041388
 31
0.0
  0
LINE
  5
7CBA
  8
2
 10
2417.5816756712479
 20
3742.606550804137
 30
0.0
 11
745.45077711741214
 21
3742.6065508041379
 31
0.0
  0
LINE
  5
7CBB
  8
1
 10
737.96569317361991
 20
2532.6065508041388
 30
0.0
 11
2302.9656931736208
 21
2532.6065508041388
 31
0.0
1001
ACAD
1000
ASC_BOUNDS
1002
{
1070
    19
1002
}
  0
INSERT
  5
7CBC
  8
0
  2
YA_N
 10
2792.4521655908611
 20
-1328.2926990899871
 30
0.0
 41
25.0
 42
25.0
 43
25.0
  0
LINE
  5
7CBE
  8
2
 10
967.9656931736198
 20
3156.4222248041378
 30
0.0
 11
967.9656931736198
 21
2600.0199229394202
 31
0.0
  0
CIRCLE
  5
7CBF
  8
1
 10
1677.965693173619
 20
3742.6065508041379
 30
0.0
 40
165.09999999999991
  0
CIRCLE
  5
7CC0
  8
1
 10
967.9656931736198
 20
2907.6065508041379
 30
0.0
 40
114.3
  0
LINE
  5
7CC6
  8
1
 10
6221.3135360545621
 20
2615.6065508041388
 30
0.0
 11
6221.3135360545612
 21
3751.6065508041402
 31
0.0
  0
LINE
  5
7CC7
  8
1
 10
5365.3135360545612
 20
2615.6065508041388
 30
0.0
 11
5365.3135360545612
 21
3751.6065508041402
 31
0.0
  0
INSERT
  5
7CC9
  8
0
  2
YA_N
 10
3284.7684406723238
 20
-911.882085380239
 30
0.0
 41
25.0
 42
25.0
 43
25.0
  0
LINE
  5
7CD1
  8
1
 10
5418.3135360545621
 20
3742.6065508041388
 30
0.0
 11
5418.3135360545612
 21
4462.6065508041384
 31
0.0
  0
LINE
  5
7CD2
  8
1
 10
5416.013536054561
 20
3742.6065508041388
 30
0.0
 11
5416.013536054561
 21
4462.6065508041384
 31
0.0
  0
LINE
  5
7CD3
  8
1
 10
6168.3135360545621
 20
3742.6065508041388
 30
0.0
 11
6168.3135360545621
 21
4462.6065508041384
 31
0.0
  0
LINE
  5
7CD4
  8
1
 10
6170.6135360545613
 20
3742.6065508041388
 30
0.0
 11
6170.6135360545613
 21
4462.6065508041384
 31
0.0
  0
LINE
  5
7CE2
  8
1
 10
1052.9656931736199
 20
7727.1413506426998
 30
0.0
 11
2302.9656931736208
 21
7727.1413506426961
 31
0.0
  0
LINE
  5
7CE3
  8
1
 10
2022.9656931736199
 20
6837.141350642697
 30
0.0
 11
2302.9656931736208
 21
6837.141350642697
 31
0.0
  0
LINE
  5
7CE4
  8
1
 10
2302.9656931736208
 20
7727.1413506426961
 30
0.0
 11
2302.9656931736208
 21
7657.1413506426952
 31
0.0
  0
LINE
  5
7CE5
  8
1
 10
1052.9656931736199
 20
7727.1413506426998
 30
0.0
 11
1052.9656931736199
 21
7657.1413506426979
 31
0.0
  0
LINE
  5
7CE6
  8
1
 10
737.96569317362071
 20
6902.1413506426998
 30
0.0
 11
737.96569317362071
 21
6014.1413506426989
 31
0.0
  0
LINE
  5
7CE7
  8
1
 10
737.96569317362071
 20
6014.1413506426989
 30
0.0
 11
2022.9656931736199
 21
6014.1413506426961
 31
0.0
  0
LINE
  5
7CE8
  8
1
 10
737.96569317362071
 20
6902.1413506426998
 30
0.0
 11
1052.9656931736199
 21
6902.1413506426998
 31
0.0
  0
LINE
  5
7CE9
  8
1
 10
2022.9656931736199
 20
6837.141350642697
 30
0.0
 11
2022.9656931736199
 21
6014.141350642697
 31
0.0
  0
LINE
  5
7CEF
  8
1
 10
4586.3135360545602
 20
3662.6065508041379
 30
0.0
 11
4586.3135360545602
 21
2657.6065508041379
 31
0.0
  0
LINE
  5
7CF0
  8
1
 10
4586.3135360545602
 20
3662.6065508041379
 30
0.0
 11
5320.3135360545593
 21
3662.6065508041379
 31
0.0
  0
LINE
  5
7CF1
  8
1
 10
5320.3135360545602
 20
3662.6065508041379
 30
0.0
 11
5320.3135360545593
 21
2657.6065508041379
 31
0.0
  0
LINE
  5
7CF2
  8
1
 10
4543.3135360545612
 20
3780.1065508041379
 30
0.0
 11
5416.0135360545601
 21
3780.1065508041379
 31
0.0
  0
LINE
  5
7CF3
  8
1
 10
4543.3135360545593
 20
3705.1065508041379
 30
0.0
 11
5365.3135360545612
 21
3705.1065508041379
 31
0.0
  0
LINE
  5
7CF7
  8
1
 10
4543.3135360545612
 20
3780.1065508041388
 30
0.0
 11
4543.3135360545612
 21
3705.1065508041388
 31
0.0
  0
LINE
  5
7CF8
  8
1
 10
4538.3135360545602
 20
3770.1065508041379
 30
0.0
 11
4543.3135360545612
 21
3770.1065508041379
 31
0.0
  0
LINE
  5
7CF9
  8
1
 10
4538.3135360545602
 20
3715.1065508041379
 30
0.0
 11
4543.3135360545612
 21
3715.1065508041379
 31
0.0
  0
LINE
  5
7CFA
  8
1
 10
4428.3135360545593
 20
3907.7065508041378
 30
0.0
 11
4538.3135360545593
 21
3907.7065508041378
 31
0.0
  0
LINE
  5
7CFB
  8
1
 10
4428.3135360545602
 20
3577.506550804138
 30
0.0
 11
4538.3135360545602
 21
3577.506550804138
 31
0.0
  0
LINE
  5
7CFD
  8
1
 10
4428.3135360545602
 20
3907.7065508041378
 30
0.0
 11
4428.3135360545612
 21
2793.3065508041382
 31
0.0
  0
LINE
  5
7CFE
  8
1
 10
4428.3135360545621
 20
3021.9065508041381
 30
0.0
 11
4538.3135360545621
 21
3021.9065508041381
 31
0.0
  0
LINE
  5
7CFF
  8
1
 10
4428.3135360545621
 20
2793.3065508041382
 30
0.0
 11
4538.3135360545621
 21
2793.3065508041382
 31
0.0
  0
LINE
  5
7D00
  8
1
 10
4538.3135360545602
 20
3907.7065508041378
 30
0.0
 11
4538.3135360545602
 21
2793.3065508041382
 31
0.0
  0
LINE
  5
7D01
  8
1
 10
4576.3135360545602
 20
4022.6065508041379
 30
0.0
 11
4576.3135360545593
 21
2687.6065508041379
 31
0.0
  0
LINE
  5
7D02
  8
1
 10
4376.3135360545602
 20
4022.6065508041379
 30
0.0
 11
4376.3135360545602
 21
2687.6065508041379
 31
0.0
  0
LINE
  5
7D03
  8
1
 10
4376.3135360545602
 20
4022.6065508041379
 30
0.0
 11
4576.3135360545602
 21
4022.6065508041379
 31
0.0
  0
LINE
  5
7D04
  8
1
 10
4376.3135360545602
 20
2687.6065508041379
 30
0.0
 11
4576.3135360545602
 21
2687.6065508041379
 31
0.0
  0
LINE
  5
7D05
  8
1
 10
6171.3135360545612
 20
2657.6065508041379
 30
0.0
 11
6171.3135360545612
 21
3247.6065508041379
 31
0.0
  0
POINT
  5
7D06
  8
1
 10
4376.3135360545602
 20
4022.6065508041379
 30
0.0
  0
LINE
  5
7D08
  8
1
 10
2022.965693173619
 20
2657.6065508041388
 30
0.0
 11
2022.965693173619
 21
2532.6065508041388
 31
0.0
  0
POINT
  5
7D0D
  8
1
 10
2302.9656931736208
 20
2532.6065508041388
 30
0.0
  0
INSERT
  5
7D0E
  8
0
  2
YA_N
 10
6713.8437541939684
 20
-1775.1581322379841
 30
0.0
  0
LINE
  5
7D11
  8
1
 10
6172.513536054561
 20
3220.1065508041379
 30
0.0
 11
6172.513536054561
 21
4375.1065508041384
 31
0.0
  0
LINE
  5
7D12
  8
1
 10
6170.9135360545606
 20
3220.1065508041379
 30
0.0
 11
6172.513536054561
 21
3220.1065508041379
 31
0.0
  0
ARC
  5
7D15
  8
1
 10
1677.965693173619
 20
3742.6065508041388
 30
0.0
 40
599.0
 50
355.78750092208548
 51
0.0000000000000509
  0
LINE
  5
7D16
  8
1
 10
1012.982456374616
 20
2751.9868507951001
 30
0.0
 11
922.94892997258205
 21
2751.9868507951001
 31
0.0
  0
ARC
  5
7D17
  8
1
 10
967.9656931736198
 20
2907.6065508041379
 30
0.0
 40
162.0
 50
286.13379196202322
 51
253.86620803797629
  0
LINE
  5
7D18
  8
2
 10
1179.4661355919741
 20
2907.6065508041379
 30
0.0
 11
773.97950600117474
 21
2907.6065508041379
 31
0.0
  0
LINE
  5
7D1A
  8
1
 10
1121.965693173619
 20
2765.6065508041379
 30
0.0
 11
1063.3121743513541
 21
2765.6065508041379
 31
0.0
  0
LINE
  5
7D1B
  8
1
 10
1172.9656931736199
 20
2747.6065508041379
 30
0.0
 11
762.96569317361991
 21
2747.6065508041379
 31
0.0
  0
LINE
  5
7D1C
  8
1
 10
1121.965693173619
 20
2765.6065508041379
 30
0.0
 11
1100.6233590443139
 21
2814.6229840531118
 31
0.0
  0
LINE
  5
7D1D
  8
1
 10
1121.965693173619
 20
2747.6065508041379
 30
0.0
 11
1121.965693173619
 21
2765.6065508041379
 31
0.0
  0
LINE
  5
7D1E
  8
1
 10
1061.9656931736199
 20
2775.667170784373
 30
0.0
 11
1061.9656931736199
 21
2747.6065508041379
 31
0.0
  0
LINE
  5
7D1F
  8
1
 10
1094.965693173619
 20
2727.1065508041379
 30
0.0
 11
1094.965693173619
 21
2795.3021615634011
 31
0.0
  0
LINE
  5
7D21
  8
1
 10
813.96569317361991
 20
2747.6065508041379
 30
0.0
 11
813.96569317361991
 21
2765.6065508041379
 31
0.0
  0
LINE
  5
7D22
  8
1
 10
873.96569317361991
 20
2775.667170784373
 30
0.0
 11
873.96569317361991
 21
2747.6065508041379
 31
0.0
  0
LINE
  5
7D23
  8
1
 10
840.96569317361991
 20
2727.1065508041379
 30
0.0
 11
840.96569317361991
 21
2795.3021615634011
 31
0.0
  0
LINE
  5
7D24
  8
1
 10
813.96569317361991
 20
2747.6065508041379
 30
0.0
 11
873.96569317361991
 21
2747.6065508041379
 31
0.0
  0
LINE
  5
7D25
  8
1
 10
813.96569317361991
 20
2765.6065508041379
 30
0.0
 11
873.96569317361991
 21
2765.6065508041379
 31
0.0
  0
LINE
  5
7D26
  8
1
 10
813.96569317361991
 20
2765.6065508041379
 30
0.0
 11
835.30802730292544
 21
2814.6229840531118
 31
0.0
  0
LINE
  5
7D27
  8
1
 10
762.96569317361991
 20
2697.6065508041379
 30
0.0
 11
1172.9656931736199
 21
2697.6065508041379
 31
0.0
  0
LINE
  5
7D28
  8
1
 10
767.9656931736198
 20
2697.6065508041379
 30
0.0
 11
767.9656931736198
 21
2657.6065508041379
 31
0.0
  0
LINE
  5
7D29
  8
1
 10
1167.965693173619
 20
2697.6065508041379
 30
0.0
 11
1167.965693173619
 21
2657.6065508041379
 31
0.0
  0
LINE
  5
7D2A
  8
1
 10
762.96569317361991
 20
2697.6065508041379
 30
0.0
 11
762.96569317361991
 21
2747.6065508041379
 31
0.0
  0
LINE
  5
7D2B
  8
1
 10
1172.9656931736199
 20
2697.6065508041379
 30
0.0
 11
1172.9656931736199
 21
2747.6065508041379
 31
0.0
  0
LINE
  5
7D2C
  8
1
 10
881.32223372229055
 20
2983.9624145559019
 30
0.0
 11
1541.3732125189119
 21
3833.9676253173602
 31
0.0
  0
LINE
  5
7D2D
  8
1
 10
1055.3560379934131
 20
2831.3499635319131
 30
0.0
 11
1774.9030244897649
 21
3608.2686126151971
 31
0.0
  0
ARC
  5
7D2E
  8
1
 10
1677.965693173619
 20
3742.6065508041379
 30
0.0
 40
280.0
 50
314.53858234083731
 51
143.55205886247231
  0
ARC
  5
7D2F
  8
1
 10
967.9656931736198
 20
2907.6065508041379
 30
0.0
 40
220.0
 50
137.99229639116359
 51
320.84891209544611
  0
LINE
  5
7D30
  8
1
 10
792.52952943772834
 20
3039.5654030105138
 30
0.0
 11
1458.2564020328059
 21
3916.2237885733739
 31
0.0
  0
LINE
  5
7D31
  8
1
 10
1133.227281672479
 20
2762.8197362358292
 30
0.0
 11
1884.868975482437
 21
3554.0973181001282
 31
0.0
  0
LINE
  5
7D32
  8
1
 10
737.96569317361991
 20
2657.6065508041388
 30
0.0
 11
2302.9656931736208
 21
2657.6065508041388
 31
0.0
1001
ACAD
1000
ASC_BOUNDS
1002
{
1070
    19
1002
}
  0
LINE
  5
7D33
  8
1
 10
5348.3135360545602
 20
2657.6065508041379
 30
0.0
 11
5348.3135360545602
 21
2532.6065508041379
 31
0.0
  0
ARC
  5
7D34
  8
1
 10
1603.9656931736199
 20
3668.6065508041388
 30
0.0
 40
794.0
 50
84.652330250161228
 51
174.6523302501613
  0
LINE
  5
7D35
  8
1
 10
1640.465693173621
 20
6032.141350642697
 30
0.0
 11
1640.465693173621
 21
6904.8413506426978
 31
0.0
  0
LINE
  5
7D36
  8
1
 10
1957.965693173621
 20
5865.141350642697
 30
0.0
 11
747.96569317362082
 21
5865.141350642697
 31
0.0
  0
LINE
  5
7D37
  8
1
 10
1957.965693173621
 20
6065.141350642697
 30
0.0
 11
747.96569317362082
 21
6065.1413506426961
 31
0.0
  0
LINE
  5
7D38
  8
1
 10
1843.0656931736189
 20
6027.141350642697
 30
0.0
 11
853.66569317361984
 21
6027.141350642697
 31
0.0
  0
LINE
  5
7D39
  8
1
 10
1843.0656931736189
 20
5917.141350642697
 30
0.0
 11
853.66569317361984
 21
5917.141350642697
 31
0.0
  0
LINE
  5
7D3A
  8
1
 10
2357.9656931736208
 20
6854.1413506426979
 30
0.0
 11
2307.9656931736199
 21
6854.1413506426989
 31
0.0
  0
LINE
  5
7D3D
  8
2
 10
967.96569317362071
 20
6541.5850690989073
 30
0.0
 11
967.96569317362071
 21
5835.5106094193288
 31
0.0
  0
LINE
  5
7D40
  8
1
 10
805.96569317362059
 20
6063.0908813716978
 30
0.0
 11
1129.9656931736199
 21
6063.0908813716978
 31
0.0
  0
LINE
  5
7D42
  8
1
 10
998.38700211946696
 20
6044.2126011852552
 30
0.0
 11
939.54438422777457
 21
6044.2126011852552
 31
0.0
  0
LINE
  5
7D43
  8
1
 10
1026.1831421562181
 20
6052.2126011901173
 30
0.0
 11
909.7482441910214
 21
6052.2126011901173
 31
0.0
  0
LINE
  5
7D44
  8
1
 10
946.96569317362082
 20
5934.212601189126
 30
0.0
 11
988.96569317362082
 21
5934.212601189126
 31
0.0
  0
LINE
  5
7D45
  8
1
 10
747.96569317362082
 20
5865.141350642697
 30
0.0
 11
747.96569317362082
 21
6065.141350642697
 31
0.0
  0
LINE
  5
7D46
  8
1
 10
853.66569317361984
 20
5917.1413506426979
 30
0.0
 11
853.66569317361984
 21
6027.1413506426989
 31
0.0
  0
LINE
  5
7D48
  8
1
 10
946.96569317362082
 20
5934.212601189126
 30
0.0
 11
946.965693173619
 21
6044.2126011852552
 31
0.0
  0
LINE
  5
7D4A
  8
1
 10
909.7482441910214
 20
6063.0908813716969
 30
0.0
 11
909.7482441910214
 21
6052.2126011901173
 31
0.0
  0
LINE
  5
7D4B
  8
1
 10
939.54438422777457
 20
6044.2126011852552
 30
0.0
 11
939.54438422777457
 21
6052.2126011901173
 31
0.0
  0
LINE
  5
7D4C
  8
1
 10
1082.2656931736201
 20
5917.1413506426979
 30
0.0
 11
1082.2656931736201
 21
6027.1413506426979
 31
0.0
  0
LINE
  5
7D4D
  8
1
 10
1512.865693173618
 20
5917.141350642697
 30
0.0
 11
1512.865693173618
 21
6027.141350642697
 31
0.0
  0
LINE
  5
7D4E
  8
1
 10
1912.9656931736199
 20
6075.1413506426961
 30
0.0
 11
1715.4656931736199
 21
6075.141350642697
 31
0.0
  0
LINE
  5
7D4F
  8
1
 10
988.965693173619
 20
5934.212601189126
 30
0.0
 11
988.965693173619
 21
6044.2126011852552
 31
0.0
  0
LINE
  5
7D50
  8
1
 10
998.38700211946696
 20
6044.2126011852552
 30
0.0
 11
998.38700211946525
 21
6052.2126011901173
 31
0.0
  0
LINE
  5
7D51
  8
1
 10
1026.1831421562181
 20
6063.0908813716969
 30
0.0
 11
1026.1831421562181
 21
6052.2126011901173
 31
0.0
  0
LINE
  5
7D53
  8
1
 10
1650.4656931736199
 20
6027.141350642697
 30
0.0
 11
1650.4656931736199
 21
6032.141350642697
 31
0.0
  0
LINE
  5
7D54
  8
1
 10
1705.4656931736199
 20
6027.141350642697
 30
0.0
 11
1705.4656931736199
 21
6032.141350642697
 31
0.0
  0
LINE
  5
7D55
  8
1
 10
1715.4656931736199
 20
6032.1413506426979
 30
0.0
 11
1640.465693173621
 21
6032.141350642697
 31
0.0
  0
LINE
  5
7D58
  8
1
 10
1715.4656931736199
 20
6032.141350642697
 30
0.0
 11
1715.4656931736199
 21
6907.1413506426979
 31
0.0
  0
LINE
  5
7D5A
  8
1
 10
805.96569317362082
 20
6131.682009361426
 30
0.0
 11
805.96569317362082
 21
6373.9290493218477
 31
0.0
  0
LINE
  5
7D5B
  8
1
 10
805.96569317362059
 20
6537.2126011901164
 30
0.0
 11
805.96569317362059
 21
6063.0908813716969
 31
0.0
  0
LINE
  5
7D5C
  8
1
 10
1129.9656931736199
 20
6131.682009361426
 30
0.0
 11
1129.9656931736199
 21
6373.9290493218477
 31
0.0
  0
LINE
  5
7D5D
  8
1
 10
1129.9656931736199
 20
6537.2126011901164
 30
0.0
 11
1129.9656931736199
 21
6063.0908813716969
 31
0.0
  0
LINE
  5
7D5F
  8
1
 10
1129.9656931736199
 20
6537.2126011901173
 30
0.0
 11
805.96569317362059
 21
6537.2126011901164
 31
0.0
  0
LINE
  5
7D60
  8
1
 10
1912.9656931736199
 20
6809.141350642697
 30
0.0
 11
1715.4656931736199
 21
6809.141350642697
 31
0.0
  0
LINE
  5
7D61
  8
1
 10
1957.965693173621
 20
5865.141350642697
 30
0.0
 11
1957.965693173621
 21
6065.141350642697
 31
0.0
  0
LINE
  5
7D62
  8
1
 10
1843.0656931736189
 20
5917.141350642697
 30
0.0
 11
1843.0656931736189
 21
6027.1413506426961
 31
0.0
  0
POINT
  5
7D63
  8
1
 10
1957.965693173621
 20
5865.141350642697
 30
0.0
  0
LINE
  5
7D64
  8
2
 10
2435.5487745019268
 20
7282.1413506426979
 30
0.0
 11
782.96569317362082
 21
7282.1413506426979
 31
0.0
  0
LINE
  5
7D65
  8
1
 10
2357.9656931736208
 20
7710.141350642697
 30
0.0
 11
2307.9656931736199
 21
7710.141350642697
 31
0.0
  0
LINE
  5
7D66
  8
1
 10
2357.9656931736208
 20
6907.1413506426979
 30
0.0
 11
809.96569317362071
 21
6907.1413506426979
 31
0.0
  0
LINE
  5
7D67
  8
1
 10
2357.9656931736208
 20
7657.1413506426961
 30
0.0
 11
809.96569317362071
 21
7657.1413506426979
 31
0.0
  0
LINE
  5
7D68
  8
2
 10
1677.965693173621
 20
5837.146571246456
 30
0.0
 11
1677.965693173621
 21
7691.7171285218792
 31
0.0
  0
LINE
  5
7D6B
  8
1
 10
1640.465693173621
 20
6809.141350642697
 30
0.0
 11
1442.9656931736199
 21
6809.141350642697
 31
0.0
  0
LINE
  5
7D6C
  8
1
 10
1640.465693173621
 20
6075.1413506426961
 30
0.0
 11
1442.9656931736199
 21
6075.141350642697
 31
0.0
  0
LINE
  5
7D6D
  8
1
 10
2357.9656931736208
 20
6854.1413506426989
 30
0.0
 11
2357.9656931736208
 21
7710.141350642697
 31
0.0
  0
LINE
  5
7D6E
  8
1
 10
2307.9656931736199
 20
6854.1413506426989
 30
0.0
 11
2307.9656931736199
 21
7710.141350642697
 31
0.0
  0
LINE
  5
7D6F
  8
1
 10
809.96569317362071
 20
6907.1413506426979
 30
0.0
 11
809.96569317362071
 21
7657.1413506426979
 31
0.0
  0
LINE
  5
7D70
  8
1
 10
1052.9656931736199
 20
6907.1413506426979
 30
0.0
 11
1052.9656931736199
 21
6902.1413506426998
 31
0.0
  0
LINE
  5
7D71
  8
1
 10
2302.9656931736208
 20
6907.1413506426979
 30
0.0
 11
2302.9656931736208
 21
6837.141350642697
 31
0.0
  0
LINE
  5
7D72
  8
4
 10
6475.0
 20
1750.0
 30
0.0
 11
6475.0
 21
1050.0
 31
0.0
  0
LINE
  5
7D73
  8
4
 10
4025.0
 20
1750.0
 30
0.0
 11
4025.0
 21
1050.0
 31
0.0
  0
LINE
  5
7D74
  8
4
 10
2275.0
 20
1750.0
 30
0.0
 11
2275.0
 21
1050.0
 31
0.0
  0
LINE
  5
7D77
  8
4
 10
2275.0
 20
1050.0
 30
0.0
 11
6475.0
 21
1050.0
 31
0.0
  0
LINE
  5
7D78
  8
4
 10
2275.0
 20
1400.0
 30
0.0
 11
6475.0
 21
1400.0
 31
0.0
  0
TEXT
  5
7D79
  8
4
 10
2409.7572829641558
 20
1510.4005905331451
 30
0.0
 40
175.0
  1
機器名称
  0
TEXT
  5
7D7A
  8
4
 10
2401.9033710867911
 20
1125.7580485620381
 30
0.0
 40
175.0
  1
機器型番
  0
TEXT
  5
7D7B
  8
4
 10
4121.875609206827
 20
1479.00119135149
 30
0.0
 40
150.0
  1
ミツヤリミットロ－ﾄﾞファン
  0
TEXT
  5
7D7C
  8
4
 10
4153.2907345491822
 20
1110.0585449798009
 30
0.0
 40
175.0
  1
LL#6-1
  0
TEXT
  5
7D7E
  8
4
 10
2682.2591629365711
 20
8342.0009446638051
 30
0.0
 40
188.99999999999989
  1
床置ベット
  0
TEXT
  5
7D7F
  8
4
 10
1056.5865766530619
 20
8868.5834166975455
 30
0.0
 40
252.0
  1
遠心式片吸込片持リミットロ－ﾄﾞファン
  0
LINE
  5
7D80
  8
4
 10
875.0
 20
8642.9306399268171
 30
0.0
 11
6475.0
 21
8642.9306399268171
 31
0.0
  0
LINE
  5
7D81
  8
4
 10
875.0
 20
9342.9306399268171
 30
0.0
 11
6475.0
 21
9342.9306399268171
 31
0.0
  0
LINE
  5
7D82
  8
4
 10
2275.0
 20
1750.0
 30
0.0
 11
6475.0
 21
1750.0
 31
0.0
  0
LINE
  5
7D83
  8
4
 10
875.0
 20
9342.9306399268171
 30
0.0
 11
875.0
 21
8642.9306399268171
 31
0.0
  0
TEXT
  5
7D84
  8
4
 10
1156.7532500871121
 20
8338.1181714122031
 30
0.0
 40
188.99999999999989
  1
左回転右横向
  0
TEXT
  5
7D85
  8
4
 10
5141.3934573725146
 20
9471.21378523358
 30
0.0
 40
196.0
  1
No.
  0
TEXT
  5
7D86
  8
4
 10
4589.5362191000459
 20
8342.0009446638051
 30
0.0
 40
188.99999999999989
  1
縮尺：1/35
  0
LINE
  5
7D87
  8
4
 10
6475.0
 20
9342.9306399268171
 30
0.0
 11
6475.0
 21
8642.9306399268171
 31
0.0
  0
LINE
  5
7D88
  8
4
 10
7350.0
 20
10325.0
 30
0.0
 11
7350.0
 21
10325.0
 31
0.0
  0
LINE
  5
7D89
  8
4
 10
5042.160978259526
 20
9384.4225409389055
 30
0.0
 11
5042.160978259526
 21
9753.2829154241354
 31
0.0
  0
LINE
  5
7D8A
  8
4
 10
5042.160978259526
 20
9753.2829154241354
 30
0.0
 11
6475.0
 21
9753.2829154241354
 31
0.0
  0
LINE
  5
7D8B
  8
4
 10
6475.0
 20
9753.2829154241354
 30
0.0
 11
6475.0
 21
9384.4225409389055
 31
0.0
  0
LINE
  5
7D8C
  8
4
 10
6475.0
 20
9384.4225409389055
 30
0.0
 11
5042.160978259526
 21
9384.4225409389055
 31
0.0
  0
LINE
  5
7D8D
  8
4
 10
0.0
 20
0.0
 30
0.0
 11
0.0
 21
10325.0
 31
0.0
  0
LINE
  5
7D8E
  8
4
 10
0.0
 20
10325.0
 30
0.0
 11
7350.0
 21
10325.0
 31
0.0
  0
LINE
  5
7D8F
  8
4
 10
7350.0
 20
10325.0
 30
0.0
 11
7350.0
 21
0.0
 31
0.0
  0
LINE
  5
7D90
  8
4
 10
7350.0
 20
0.0
 30
0.0
 11
0.0
 21
0.0
 31
0.0
  0
DIMENSION
  5
7DA4
  8
3
  2
*D2
 10
2302.9656931736208
 20
8010.1520495048171
 30
0.0
 11
1698.3798692656781
 21
8010.1520495048171
 31
0.0
 70
   128
 13
1052.9656931736199
 23
7727.1413506426998
 33
0.0
 14
2302.9656931736208
 24
7727.1413506426961
 34
0.0
1001
ACAD
1000
DSTYLE
1002
{
1070
   287
1070
     3
1070
    40
1040
35.0
1070
   143
1040
0.039
1070
   172
1070
     1
1070
   271
1070
     0
1070
   279
1070
     0
1070
   288
1070
     1
1002
}
  0
DIMENSION
  5
7DB1
  8
3
  2
*D3
 10
2748.1823361007851
 20
6837.141350642697
 30
0.0
 11
2748.1823361007841
 21
7287.0391967953901
 31
0.0
 70
   128
 13
2302.9656931736208
 23
7727.1413506426961
 33
0.0
 14
2302.9656931736208
 24
6837.141350642697
 34
0.0
 50
90.0
1001
ACAD
1000
DSTYLE
1002
{
1070
   287
1070
     3
1070
    40
1040
35.0
1070
   143
1040
0.039
1070
   172
1070
     1
1070
   271
1070
     0
1070
   279
1070
     0
1070
   288
1070
     1
1002
}
  0
DIMENSION
  5
7DCA
  8
3
  2
*D4
 10
2022.9656931736199
 20
5513.1253058455804
 30
0.0
 11
1370.139435019533
 21
5513.1253058455804
 31
0.0
 70
   128
 13
737.96569317362071
 23
6014.1413506426989
 33
0.0
 14
2022.9656931736199
 24
6014.1413506426961
 34
0.0
1001
ACAD
1000
DSTYLE
1002
{
1070
   287
1070
     3
1070
    40
1040
35.0
1070
   143
1040
0.039
1070
   172
1070
     1
1070
   271
1070
     0
1070
   279
1070
     0
1070
   288
1070
     1
1002
}
  0
DIMENSION
  5
7DD8
  8
3
  2
*D5
 10
2302.9656931736208
 20
5513.1253058455804
 30
0.0
 11
2542.9656931736199
 21
5600.6253058455804
 31
0.0
 70
     0
 13
2022.9656931736199
 23
6014.1413506426961
 33
0.0
 14
2302.9656931736208
 24
6837.141350642697
 34
0.0
1001
ACAD
1000
DSTYLE
1002
{
1070
   287
1070
     3
1070
    40
1040
35.0
1070
   143
1040
0.039
1070
   172
1070
     1
1070
   271
1070
     0
1070
   279
1070
     0
1070
   288
1070
     1
1002
}
  0
DIMENSION
  5
7DE5
  8
3
  2
*D6
 10
536.72880117505804
 20
6014.1413506426989
 30
0.0
 11
536.72880117505701
 21
6408.0966234377038
 31
0.0
 70
   128
 13
737.96569317362071
 23
6902.1413506426998
 33
0.0
 14
737.96569317362071
 24
6014.1413506426989
 34
0.0
 50
90.0
1001
ACAD
1000
DSTYLE
1002
{
1070
   287
1070
     3
1070
    40
1040
35.0
1070
   143
1040
0.039
1070
   172
1070
     1
1070
   271
1070
     0
1070
   279
1070
     0
1070
   288
1070
     1
1002
}
  0
DIMENSION
  5
7DF3
  8
3
  2
*D7
 10
737.96569317362071
 20
8010.1520495048171
 30
0.0
 11
895.46569317362082
 21
8150.1520495048162
 31
0.0
 70
     0
 13
1052.9656931736199
 23
7727.1413506426998
 33
0.0
 14
737.96569317362071
 24
6902.1413506426998
 34
0.0
1001
ACAD
1000
DSTYLE
1002
{
1070
   288
1070
     1
1070
   172
1070
     1
1070
    75
1070
     1
1070
    40
1040
35.0
1070
   271
1070
     0
1070
   143
1040
0.039
1002
}
  0
DIMENSION
  5
7E20
  8
3
  2
*D8
 10
1677.965693173619
 20
4671.1063463344981
 30
0.0
 11
1993.348867293498
 21
4671.1063463344981
 31
0.0
 70
   128
 13
2357.9656931736208
 23
3747.012004221493
 33
0.0
 14
1677.965693173619
 24
4482.1493970208066
 34
0.0
1001
ACAD
1000
DSTYLE
1002
{
1070
   287
1070
     3
1070
    40
1040
35.0
1070
   143
1040
0.039
1070
   172
1070
     1
1070
   271
1070
     0
1070
   279
1070
     0
1070
   288
1070
     1
1002
}
  0
DIMENSION
  5
7E2C
  8
3
  2
*D9
 10
809.96569317362093
 20
4671.1063463344981
 30
0.0
 11
1243.9656931736199
 21
4758.6063463344981
 31
0.0
 70
     0
 13
1677.965693173619
 23
4482.1493970208066
 33
0.0
 14
809.96569317362071
 24
3623.2114953030391
 34
0.0
1001
ACAD
1000
DSTYLE
1002
{
1070
   287
1070
     4
1070
    40
1040
35.0
1070
    75
1070
     1
1070
   143
1040
0.039
1070
   172
1070
     1
1070
   271
1070
     0
1070
   279
1070
     1
1070
   288
1070
     1
1002
}
  0
DIMENSION
  5
7E39
  8
3
  2
*D10
 10
2611.7586490513859
 20
3698.6065508041388
 30
0.0
 11
2611.758649051385
 21
3147.1393003695321
 31
0.0
 70
   128
 13
2357.9656931736208
 23
2668.6065508041388
 33
0.0
 14
2357.9656931736208
 24
3698.6065508041388
 34
0.0
 50
90.0
1001
ACAD
1000
DSTYLE
1002
{
1070
   287
1070
     3
1070
    40
1040
35.0
1070
   143
1040
0.039
1070
   172
1070
     1
1070
   271
1070
     0
1070
   279
1070
     0
1070
   288
1070
     1
1002
}
  0
DIMENSION
  5
7E46
  8
3
  2
*D11
 10
2829.607516242992
 20
3742.6065508041388
 30
0.0
 11
2829.6075162429911
 21
3105.0056698143212
 31
0.0
 70
   128
 13
2375.4656931736199
 23
2668.6065508041388
 33
0.0
 14
2417.5816756712479
 24
3742.6065508041388
 34
0.0
 50
90.0
1001
ACAD
1000
DSTYLE
1002
{
1070
   287
1070
     3
1070
    40
1040
35.0
1070
   143
1040
0.039
1070
   172
1070
     1
1070
   271
1070
     0
1070
   279
1070
     0
1070
   288
1070
     1
1002
}
  0
DIMENSION
  5
7E52
  8
3
  2
*D12
 10
3110.1710355349278
 20
2532.6065508041388
 30
0.0
 11
3022.6710355349269
 21
3137.6065508041388
 31
0.0
 70
     0
 13
2417.5816756712479
 23
3742.606550804137
 33
0.0
 14
2302.9656931736208
 24
2532.6065508041388
 34
0.0
 50
90.0
1001
ACAD
1000
DSTYLE
1002
{
1070
   287
1070
     3
1070
    40
1040
35.0
1070
   143
1040
0.039
1070
   172
1070
     1
1070
   271
1070
     0
1070
   279
1070
     0
1070
   288
1070
     1
1002
}
  0
DIMENSION
  5
7EBD
  8
3
  2
*D13
 10
6168.3135360545612
 20
4637.7171820026269
 30
0.0
 11
5794.6756321233552
 21
4637.7171820026269
 31
0.0
 70
   128
 13
5418.3135360545612
 23
4449.2389069482833
 33
0.0
 14
6168.3135360545612
 24
4449.2389069482833
 34
0.0
1001
ACAD
1000
DSTYLE
1002
{
1070
   287
1070
     3
1070
    40
1040
35.0
1070
   143
1040
0.039
1070
   172
1070
     1
1070
   271
1070
     0
1070
   279
1070
     0
1070
   288
1070
     1
1002
}
  0
DIMENSION
  5
7ECC
  8
3
  2
*D14
 10
5793.3135360545612
 20
4925.0933756195009
 30
0.0
 11
5982.3135360545612
 21
4925.0933756195009
 31
0.0
 70
   128
 13
6171.3135360545612
 23
4502.2389069482842
 33
0.0
 14
5793.3135360545612
 24
4815.0366744487292
 34
0.0
1001
ACAD
1000
DSTYLE
1002
{
1070
   287
1070
     3
1070
    40
1040
35.0
1070
   143
1040
0.039
1070
   172
1070
     1
1070
   271
1070
     0
1070
   279
1070
     0
1070
   288
1070
     1
1002
}
  0
DIMENSION
  5
7ED8
  8
3
  2
*D15
 10
4376.3135360545602
 20
4925.0933756195009
 30
0.0
 11
5084.8135360545612
 21
5100.0933756195009
 31
0.0
 70
     0
  1
MAX\P1450
 13
5793.3135360545612
 23
4815.0366744487292
 33
0.0
 14
4376.3135360545602
 24
4022.6065508041379
 34
0.0
1001
ACAD
1000
DSTYLE
1002
{
1070
   287
1070
     4
1070
    40
1040
35.0
1070
    75
1070
     1
1070
   143
1040
0.039
1070
   172
1070
     1
1070
   271
1070
     0
1070
   279
1070
     1
1070
   288
1070
     1
1002
}
  0
DIMENSION
  5
7F8E
  8
3
  2
*D16
 10
737.96569317361991
 20
4951.0200029791449
 30
0.0
 11
1484.3706593164891
 21
4951.0200029791449
 31
0.0
 70
   128
 13
2357.9656931736208
 23
3747.012004221493
 33
0.0
 14
737.96569317361991
 24
2657.6065508041388
 34
0.0
1001
ACAD
1000
DSTYLE
1002
{
1070
   287
1070
     3
1070
    40
1040
35.0
1070
   143
1040
0.039
1070
   172
1070
     1
1070
   271
1070
     0
1070
   279
1070
     0
1070
   288
1070
     1
1002
}
  0
DIMENSION
  5
7FF5
  8
3
  2
*D18
 10
2748.1823361007841
 20
6014.1413506426952
 30
0.0
 11
2660.6823361007841
 21
6425.6413506426979
 31
0.0
 70
     0
 13
2302.9656931736208
 23
6837.141350642697
 33
0.0
 14
2022.9656931736199
 24
6014.1413506426961
 34
0.0
 50
90.0
1001
ACAD
1000
DSTYLE
1002
{
1070
   287
1070
     4
1070
    40
1040
35.0
1070
    75
1070
     1
1070
   143
1040
0.039
1070
   172
1070
     1
1070
   271
1070
     0
1070
   279
1070
     1
1070
   288
1070
     1
1002
}
  0
DIMENSION
  5
824C
  8
3
  2
*D19
 10
3110.1710355349278
 20
4462.6065508041384
 30
0.0
 11
3022.6710355349269
 21
4102.6065508041384
 31
0.0
 70
     0
 13
2417.5816756712479
 23
3742.606550804137
 33
0.0
 14
1603.9656931736199
 24
4462.6065508041393
 34
0.0
 50
270.0
1001
ACAD
1000
DSTYLE
1002
{
1070
   287
1070
     4
1070
    40
1040
35.0
1070
    75
1070
     1
1070
   143
1040
0.039
1070
   172
1070
     1
1070
   271
1070
     0
1070
   279
1070
     1
1070
   288
1070
     1
1002
}
  0
LINE
  5
8257
  8
1
 10
5416.013536054561
 20
4462.6065508041384
 30
0.0
 11
6170.6135360545622
 21
4462.6065508041384
 31
0.0
  0
LINE
  5
8274
  8
2
 10
4630.8682916510879
 20
2907.6065508041379
 30
0.0
 11
4329.611544284764
 21
2907.6065508041379
 31
0.0
  0
DIMENSION
  5
83AD
  8
3
  2
*D20
 10
1677.965693173619
 20
2292.2847961876751
 30
0.0
 11
1207.965693173619
 21
2379.784796187676
 31
0.0
 70
     0
 13
737.96569317361991
 23
2532.6065508041388
 33
0.0
 14
1677.965693173619
 24
2532.6065508041388
 34
0.0
1001
ACAD
1000
DSTYLE
1002
{
1070
   287
1070
     3
1070
    40
1040
35.0
1070
   143
1040
0.039
1070
   172
1070
     1
1070
   271
1070
     0
1070
   279
1070
     0
1002
}
  0
DIMENSION
  5
83BA
  8
3
  2
*D21
 10
2302.9656931736208
 20
2292.2847961876751
 30
0.0
 11
1990.4656931736199
 21
2379.784796187676
 31
0.0
 70
     0
 13
1677.965693173619
 23
2532.6065508041388
 33
0.0
 14
2302.9656931736208
 24
2532.6065508041388
 34
0.0
1001
ACAD
1000
DSTYLE
1002
{
1070
   287
1070
     3
1070
    40
1040
35.0
1070
   143
1040
0.039
1070
   172
1070
     1
1070
   271
1070
     0
1070
   279
1070
     0
1002
}
  0
DIMENSION
  5
83C7
  8
3
  2
*D22
 10
5793.3135360545612
 20
2292.2847961876751
 30
0.0
 11
5159.3135360545602
 21
2379.784796187676
 31
0.0
 70
     0
 13
4525.3135360545602
 23
2532.6065508041379
 33
0.0
 14
5793.3135360545612
 24
2532.6065508041379
 34
0.0
1001
ACAD
1000
DSTYLE
1002
{
1070
   287
1070
     3
1070
    40
1040
35.0
1070
   143
1040
0.039
1070
   172
1070
     1
1070
   271
1070
     0
1070
   279
1070
     0
1002
}
  0
DIMENSION
  5
83D6
  8
3
  2
*D23
 10
6238.3135360545602
 20
2292.2847961876751
 30
0.0
 11
6015.8135360545602
 21
2379.784796187676
 31
0.0
 70
     0
 13
5793.3135360545612
 23
2532.6065508041379
 33
0.0
 14
6238.3135360545602
 24
2532.6065508041379
 34
0.0
1001
ACAD
1000
DSTYLE
1002
{
1070
   287
1070
     3
1070
    40
1040
35.0
1070
   143
1040
0.039
1070
   172
1070
     1
1070
   271
1070
     0
1070
   279
1070
     0
1002
}
  0
DIMENSION
  5
83E3
  8
3
  2
*D24
 10
3366.7933795335771
 20
2532.6065508041388
 30
0.0
 11
3279.2933795335771
 21
3497.6065508041388
 31
0.0
 70
     0
 13
1621.4656931736199
 23
4462.6065508041393
 33
0.0
 14
2302.9656931736208
 24
2532.6065508041388
 34
0.0
 50
90.0
1001
ACAD
1000
DSTYLE
1002
{
1070
   287
1070
     3
1070
    40
1040
35.0
1070
   143
1040
0.039
1070
   172
1070
     1
1070
   271
1070
     0
1070
   279
1070
     0
1002
}
  0
LINE
  5
83E5
  8
1
 10
5365.3135360545612
 20
2615.6065508041388
 30
0.0
 11
6221.3135360545612
 21
2615.6065508041388
 31
0.0
  0
LINE
  5
83E6
  8
1
 10
5418.3135360545621
 20
3698.6065508041388
 30
0.0
 11
6168.3135360545612
 21
3698.6065508041379
 31
0.0
  0
LINE
  5
83E7
  8
1
 10
5365.3135360545612
 20
3751.6065508041402
 30
0.0
 11
6221.3135360545612
 21
3751.6065508041402
 31
0.0
  0
LINE
  5
83E8
  8
1
 10
5418.3135360545621
 20
3698.6065508041388
 30
0.0
 11
6168.3135360545612
 21
2657.6065508041388
 31
0.0
  0
LINE
  5
83E9
  8
1
 10
6168.3135360545612
 20
3698.6065508041379
 30
0.0
 11
5418.3135360545612
 21
2657.6065508041379
 31
0.0
  0
LINE
  5
83F2
  8
1
 10
1442.965693173619
 20
3662.6065508041379
 30
0.0
 11
1912.965693173619
 21
3662.6065508041379
 31
0.0
  0
LINE
  5
83F4
  8
1
 10
1912.9656931736181
 20
3662.6065508041379
 30
0.0
 11
2022.965693173619
 21
2657.6065508041388
 31
0.0
  0
LINE
  5
83F5
  8
1
 10
1442.965693173619
 20
3662.6065508041379
 30
0.0
 11
1332.965693173619
 21
2657.6065508041388
 31
0.0
  0
LINE
  5
83F6
  8
1
 10
1442.9656931736199
 20
6075.141350642697
 30
0.0
 11
1442.9656931736199
 21
6809.141350642697
 31
0.0
  0
LINE
  5
83F7
  8
1
 10
1912.9656931736199
 20
6075.1413506426961
 30
0.0
 11
1912.9656931736199
 21
6809.141350642697
 31
0.0
  0
ARC
  5
83FE
  8
1
 10
1751.9656931736199
 20
3668.6065508041388
 30
0.0
 40
942.0
 50
227.51887994259371
 51
244.76477729456971
  0
DIMENSION
  5
8411
  8
3
  2
*D25
 10
6514.7469769867321
 20
3242.6065508041379
 30
0.0
 11
6427.2469769867294
 21
3742.6065508041388
 31
0.0
 70
     0
 13
6172.513536054561
 23
4242.6065508041384
 33
0.0
 14
6172.513536054561
 24
3242.6065508041379
 34
0.0
 50
90.0
1001
ACAD
1000
DSTYLE
1002
{
1070
   287
1070
     3
1070
     3
1000
φ<>
1070
    40
1040
35.0
1070
   143
1040
0.039
1070
   172
1070
     1
1070
   271
1070
     0
1070
   279
1070
     0
1002
}
  0
ENDSEC
  0
EOF
