  0
SECTION
  2
HEADER
  9
$ACADVER
  1
AC1027
  9
$ACADMAINTVER
 70
   125
  9
$DWGCODEPAGE
  3
ANSI_932
  9
$LASTSAVEDBY
  1
yasukiyo.ogawa
  9
$REQUIREDVERSIONS
160
                 0
  9
$INSBASE
 10
0.0
 20
0.0
 30
0.0
  9
$EXTMIN
 10
0.0
 20
0.0
 30
0.0
  9
$EXTMAX
 10
6300.0
 20
8850.0
 30
0.0
  9
$LIMMIN
 10
0.0
 20
0.0
  9
$LIMMAX
 10
297.0
 20
210.0
  9
$ORTHOMODE
 70
     1
  9
$REGENMODE
 70
     1
  9
$FILLMODE
 70
     0
  9
$QTEXTMODE
 70
     0
  9
$MIRRTEXT
 70
     1
  9
$LTSCALE
 40
100.0
  9
$ATTMODE
 70
     1
  9
$TEXTSIZE
 40
180.0
  9
$TRACEWID
 40
0.05
  9
$TEXTSTYLE
  7
STANDARD
  9
$CLAYER
  8
3
  9
$CELTYPE
  6
BYLAYER
  9
$CECOLOR
 62
   256
  9
$CELTSCALE
 40
1.0
  9
$DISPSILH
 70
     0
  9
$DIMSCALE
 40
30.0
  9
$DIMASZ
 40
2.0
  9
$DIMEXO
 40
0.5
  9
$DIMDLI
 40
10.0
  9
$DIMRND
 40
0.0
  9
$DIMDLE
 40
0.0
  9
$DIMEXE
 40
1.0
  9
$DIMTP
 40
1.0
  9
$DIMTM
 40
1.0
  9
$DIMTXT
 40
3.0
  9
$DIMCEN
 40
0.0
  9
$DIMTSZ
 40
0.0
  9
$DIMTOL
 70
     0
  9
$DIMLIM
 70
     0
  9
$DIMTIH
 70
     0
  9
$DIMTOH
 70
     0
  9
$DIMSE1
 70
     0
  9
$DIMSE2
 70
     0
  9
$DIMTAD
 70
     1
  9
$DIMZIN
 70
     8
  9
$DIMBLK
  1

  9
$DIMASO
 70
     1
  9
$DIMSHO
 70
     1
  9
$DIMPOST
  1
(<>)
  9
$DIMAPOST
  1

  9
$DIMALT
 70
     0
  9
$DIMALTD
 70
     2
  9
$DIMALTF
 40
0.039
  9
$DIMLFAC
 40
1.0
  9
$DIMTOFL
 70
     1
  9
$DIMTVP
 40
0.0
  9
$DIMTIX
 70
     0
  9
$DIMSOXD
 70
     0
  9
$DIMSAH
 70
     1
  9
$DIMBLK1
  1
OPEN
  9
$DIMBLK2
  1
OPEN
  9
$DIMSTYLE
  2
IGA
  9
$DIMCLRD
 70
     0
  9
$DIMCLRE
 70
     0
  9
$DIMCLRT
 70
     0
  9
$DIMTFAC
 40
10.0
  9
$DIMGAP
 40
1.0
  9
$DIMJUST
 70
     0
  9
$DIMSD1
 70
     0
  9
$DIMSD2
 70
     0
  9
$DIMTOLJ
 70
     1
  9
$DIMTZIN
 70
     8
  9
$DIMALTZ
 70
     0
  9
$DIMALTTZ
 70
     0
  9
$DIMUPT
 70
     0
  9
$DIMDEC
 70
     0
  9
$DIMTDEC
 70
     0
  9
$DIMALTU
 70
     2
  9
$DIMALTTD
 70
     2
  9
$DIMTXSTY
  7
STANDARD
  9
$DIMAUNIT
 70
     0
  9
$DIMADEC
 70
     0
  9
$DIMALTRND
 40
0.0
  9
$DIMAZIN
 70
     0
  9
$DIMDSEP
 70
    46
  9
$DIMATFIT
 70
     3
  9
$DIMFRAC
 70
     0
  9
$DIMLDRBLK
  1
OPEN
  9
$DIMLUNIT
 70
     2
  9
$DIMLWD
 70
    -2
  9
$DIMLWE
 70
    -2
  9
$DIMTMOVE
 70
     2
  9
$DIMFXL
 40
1.0
  9
$DIMFXLON
 70
     0
  9
$DIMJOGANG
 40
0.7853981633974483
  9
$DIMTFILL
 70
     0
  9
$DIMTFILLCLR
 70
     0
  9
$DIMARCSYM
 70
     0
  9
$DIMLTYPE
  6

  9
$DIMLTEX1
  6

  9
$DIMLTEX2
  6

  9
$DIMTXTDIRECTION
 70
     0
  9
$LUNITS
 70
     2
  9
$LUPREC
 70
     3
  9
$SKETCHINC
 40
0.1
  9
$FILLETRAD
 40
50.0
  9
$AUNITS
 70
     0
  9
$AUPREC
 70
     0
  9
$MENU
  1
acad
  9
$ELEVATION
 40
0.0
  9
$PELEVATION
 40
0.0
  9
$THICKNESS
 40
0.0
  9
$LIMCHECK
 70
     0
  9
$CHAMFERA
 40
0.5
  9
$CHAMFERB
 40
0.5
  9
$CHAMFERC
 40
20.0
  9
$CHAMFERD
 40
0.0
  9
$SKPOLY
 70
     0
  9
$TDCREATE
 40
2451382.542465278
  9
$TDUCREATE
 40
2451382.167473727
  9
$TDUPDATE
 40
2460241.643935185
  9
$TDUUPDATE
 40
2460241.268937489
  9
$TDINDWG
 40
0.0220996759
  9
$TDUSRTIMER
 40
0.0220996759
  9
$USRTIMER
 70
     1
  9
$ANGBASE
 50
0.0
  9
$ANGDIR
 70
     0
  9
$PDMODE
 70
     0
  9
$PDSIZE
 40
0.0
  9
$PLINEWID
 40
0.0
  9
$SPLFRAME
 70
     0
  9
$SPLINETYPE
 70
     6
  9
$SPLINESEGS
 70
     8
  9
$HANDSEED
  5
819C
  9
$SURFTAB1
 70
     6
  9
$SURFTAB2
 70
     6
  9
$SURFTYPE
 70
     6
  9
$SURFU
 70
     6
  9
$SURFV
 70
     6
  9
$UCSBASE
  2

  9
$UCSNAME
  2

  9
$UCSORG
 10
0.0
 20
0.0
 30
0.0
  9
$UCSXDIR
 10
1.0
 20
0.0
 30
0.0
  9
$UCSYDIR
 10
0.0
 20
1.0
 30
0.0
  9
$UCSORTHOREF
  2

  9
$UCSORTHOVIEW
 70
     0
  9
$UCSORGTOP
 10
0.0
 20
0.0
 30
0.0
  9
$UCSORGBOTTOM
 10
0.0
 20
0.0
 30
0.0
  9
$UCSORGLEFT
 10
0.0
 20
0.0
 30
0.0
  9
$UCSORGRIGHT
 10
0.0
 20
0.0
 30
0.0
  9
$UCSORGFRONT
 10
0.0
 20
0.0
 30
0.0
  9
$UCSORGBACK
 10
0.0
 20
0.0
 30
0.0
  9
$PUCSBASE
  2

  9
$PUCSNAME
  2

  9
$PUCSORG
 10
0.0
 20
0.0
 30
0.0
  9
$PUCSXDIR
 10
1.0
 20
0.0
 30
0.0
  9
$PUCSYDIR
 10
0.0
 20
1.0
 30
0.0
  9
$PUCSORTHOREF
  2

  9
$PUCSORTHOVIEW
 70
     0
  9
$PUCSORGTOP
 10
0.0
 20
0.0
 30
0.0
  9
$PUCSORGBOTTOM
 10
0.0
 20
0.0
 30
0.0
  9
$PUCSORGLEFT
 10
0.0
 20
0.0
 30
0.0
  9
$PUCSORGRIGHT
 10
0.0
 20
0.0
 30
0.0
  9
$PUCSORGFRONT
 10
0.0
 20
0.0
 30
0.0
  9
$PUCSORGBACK
 10
0.0
 20
0.0
 30
0.0
  9
$USERI1
 70
     0
  9
$USERI2
 70
     0
  9
$USERI3
 70
     0
  9
$USERI4
 70
     0
  9
$USERI5
 70
     0
  9
$USERR1
 40
0.0
  9
$USERR2
 40
0.0
  9
$USERR3
 40
0.0
  9
$USERR4
 40
0.0
  9
$USERR5
 40
0.0
  9
$WORLDVIEW
 70
     1
  9
$SHADEDGE
 70
     3
  9
$SHADEDIF
 70
    70
  9
$TILEMODE
 70
     1
  9
$MAXACTVP
 70
    16
  9
$PINSBASE
 10
0.0
 20
0.0
 30
0.0
  9
$PLIMCHECK
 70
     0
  9
$PEXTMIN
 10
1.000000000000000E+20
 20
1.000000000000000E+20
 30
1.000000000000000E+20
  9
$PEXTMAX
 10
-1.000000000000000E+20
 20
-1.000000000000000E+20
 30
-1.000000000000000E+20
  9
$PLIMMIN
 10
0.0
 20
0.0
  9
$PLIMMAX
 10
12.0
 20
9.0
  9
$UNITMODE
 70
     0
  9
$VISRETAIN
 70
     0
  9
$PLINEGEN
 70
     0
  9
$PSLTSCALE
 70
     1
  9
$TREEDEPTH
 70
  3020
  9
$CMLSTYLE
  2
STANDARD
  9
$CMLJUST
 70
     0
  9
$CMLSCALE
 40
20.0
  9
$PROXYGRAPHICS
 70
     1
  9
$MEASUREMENT
 70
     1
  9
$CELWEIGHT
370
    -1
  9
$ENDCAPS
280
     0
  9
$JOINSTYLE
280
     0
  9
$LWDISPLAY
290
     0
  9
$INSUNITS
 70
     0
  9
$HYPERLINKBASE
  1

  9
$STYLESHEET
  1

  9
$XEDIT
290
     1
  9
$CEPSNTYPE
380
     0
  9
$PSTYLEMODE
290
     1
  9
$FINGERPRINTGUID
  2
{F0D6CEAE-83CA-4482-9D5B-343B8FED2E2C}
  9
$VERSIONGUID
  2
{2FF1C6FB-529C-4C17-A0BA-366269A65CB6}
  9
$EXTNAMES
290
     1
  9
$PSVPSCALE
 40
0.0
  9
$OLESTARTUP
290
     0
  9
$SORTENTS
280
   127
  9
$INDEXCTL
280
     0
  9
$HIDETEXT
280
     0
  9
$XCLIPFRAME
280
     2
  9
$HALOGAP
280
     0
  9
$OBSCOLOR
 70
   257
  9
$OBSLTYPE
280
     0
  9
$INTERSECTIONDISPLAY
280
     0
  9
$INTERSECTIONCOLOR
 70
   257
  9
$DIMASSOC
280
     1
  9
$PROJECTNAME
  1

  9
$CAMERADISPLAY
290
     0
  9
$LENSLENGTH
 40
50.0
  9
$CAMERAHEIGHT
 40
0.0
  9
$STEPSPERSEC
 40
2.0
  9
$STEPSIZE
 40
6.0
  9
$3DDWFPREC
 40
2.0
  9
$PSOLWIDTH
 40
0.25
  9
$PSOLHEIGHT
 40
4.0
  9
$LOFTANG1
 40
1.570796326794896
  9
$LOFTANG2
 40
1.570796326794896
  9
$LOFTMAG1
 40
0.0
  9
$LOFTMAG2
 40
0.0
  9
$LOFTPARAM
 70
     7
  9
$LOFTNORMALS
280
     1
  9
$LATITUDE
 40
37.795
  9
$LONGITUDE
 40
-122.394
  9
$NORTHDIRECTION
 40
0.0
  9
$TIMEZONE
 70
 -8000
  9
$LIGHTGLYPHDISPLAY
280
     1
  9
$TILEMODELIGHTSYNCH
280
     1
  9
$CMATERIAL
347
8072
  9
$SOLIDHIST
280
     0
  9
$SHOWHIST
280
     1
  9
$DWFFRAME
280
     2
  9
$DGNFRAME
280
     0
  9
$REALWORLDSCALE
290
     1
  9
$INTERFERECOLOR
 62
     1
  9
$INTERFEREOBJVS
345
8094
  9
$INTERFEREVPVS
346
8091
  9
$CSHADOW
280
     0
  9
$SHADOWPLANELOCATION
 40
0.0
  0
ENDSEC
  0
SECTION
  2
CLASSES
  0
CLASS
  1
ACDBDICTIONARYWDFLT
  2
AcDbDictionaryWithDefault
  3
ObjectDBX Classes
 90
        0
 91
        1
280
     0
281
     0
  0
CLASS
  1
DICTIONARYVAR
  2
AcDbDictionaryVar
  3
ObjectDBX Classes
 90
        0
 91
       11
280
     0
281
     0
  0
CLASS
  1
MATERIAL
  2
AcDbMaterial
  3
ObjectDBX Classes
 90
     1153
 91
        3
280
     0
281
     0
  0
CLASS
  1
VISUALSTYLE
  2
AcDbVisualStyle
  3
ObjectDBX Classes
 90
     4095
 91
       24
280
     0
281
     0
  0
CLASS
  1
TABLESTYLE
  2
AcDbTableStyle
  3
ObjectDBX Classes
 90
     4095
 91
        1
280
     0
281
     0
  0
CLASS
  1
SCALE
  2
AcDbScale
  3
ObjectDBX Classes
 90
     1153
 91
       17
280
     0
281
     0
  0
CLASS
  1
MLEADERSTYLE
  2
AcDbMLeaderStyle
  3
ACDB_MLEADERSTYLE_CLASS
 90
     4095
 91
        1
280
     0
281
     0
  0
CLASS
  1
ACDBSECTIONVIEWSTYLE
  2
AcDbSectionViewStyle
  3
ObjectDBX Classes
 90
     1025
 91
        1
280
     0
281
     0
  0
CLASS
  1
ACDBDETAILVIEWSTYLE
  2
AcDbDetailViewStyle
  3
ObjectDBX Classes
 90
     1025
 91
        1
280
     0
281
     0
  0
CLASS
  1
CELLSTYLEMAP
  2
AcDbCellStyleMap
  3
ObjectDBX Classes
 90
     1152
 91
        1
280
     0
281
     0
  0
ENDSEC
  0
SECTION
  2
TABLES
  0
TABLE
  2
VPORT
  5
8
330
0
100
AcDbSymbolTable
 70
     1
1001
ACAD
1000
DbSaveVer
1071
      278
  0
VPORT
  5
806F
330
8
100
AcDbSymbolTableRecord
100
AcDbViewportTableRecord
  2
*Active
 70
     0
 10
0.0
 20
0.0
 11
1.0
 21
1.0
 12
4041.649710855568
 22
4405.967504263727
 13
0.0
 23
0.0
 14
10.0
 24
10.0
 15
10.0
 25
10.0
 16
0.0
 26
0.0
 36
1.0
 17
0.0
 27
0.0
 37
0.0
 40
8912.005692248101
 41
2.250314465408805
 42
50.0
 43
0.0
 44
0.0
 50
0.0
 51
0.0
 71
     0
 72
   100
 73
     1
 74
     0
 75
     0
 76
     0
 77
     0
 78
     0
281
     0
 65
     1
110
0.0
120
0.0
130
0.0
111
1.0
121
0.0
131
0.0
112
0.0
122
1.0
132
0.0
 79
     0
146
0.0
348
8090
 60
     3
 61
     5
292
     1
282
     1
141
0.0
142
0.0
 63
   250
421
  3355443
1001
ACAD_NAV_VCDISPLAY
1070
     3
  0
ENDTAB
  0
TABLE
  2
LTYPE
  5
5
330
0
100
AcDbSymbolTable
 70
     2
  0
LTYPE
  5
13
330
5
100
AcDbSymbolTableRecord
100
AcDbLinetypeTableRecord
  2
BYBLOCK
 70
     0
  3

 72
    65
 73
     0
 40
0.0
  0
LTYPE
  5
14
330
5
100
AcDbSymbolTableRecord
100
AcDbLinetypeTableRecord
  2
BYLAYER
 70
     0
  3

 72
    65
 73
     0
 40
0.0
  0
LTYPE
  5
15
330
5
100
AcDbSymbolTableRecord
100
AcDbLinetypeTableRecord
  2
CONTINUOUS
 70
     0
  3
Solid line
 72
    65
 73
     0
 40
0.0
  0
LTYPE
  5
1F
330
5
100
AcDbSymbolTableRecord
100
AcDbLinetypeTableRecord
  2
CENTER
 70
     0
  3
____ _ ____ _ ____ _ ____ _ ____ _ ____ _ ____ 
 72
    65
 73
     4
 40
2.0
 49
1.25
 74
     0
 49
-0.25
 74
     0
 49
0.25
 74
     0
 49
-0.25
 74
     0
  0
ENDTAB
  0
TABLE
  2
LAYER
  5
2
102
{ACAD_XDICTIONARY
360
8149
102
}
330
0
100
AcDbSymbolTable
 70
     6
  0
LAYER
  5
F
102
{ACAD_XDICTIONARY
360
813C
102
}
330
2
100
AcDbSymbolTableRecord
100
AcDbLayerTableRecord
  2
0
 70
     0
 62
     7
  6
CONTINUOUS
370
    -3
390
8022
347
8082
348
0
  0
LAYER
  5
31
102
{ACAD_XDICTIONARY
360
813E
102
}
330
2
100
AcDbSymbolTableRecord
100
AcDbLayerTableRecord
  2
3
 70
     0
 62
     2
  6
CONTINUOUS
370
    -3
390
8022
347
8082
348
0
  0
LAYER
  5
76D0
102
{ACAD_XDICTIONARY
360
8140
102
}
330
2
100
AcDbSymbolTableRecord
100
AcDbLayerTableRecord
  2
2
 70
     0
 62
     3
  6
CENTER
370
    -3
390
8022
347
8082
348
0
  0
LAYER
  5
76D1
102
{ACAD_XDICTIONARY
360
8142
102
}
330
2
100
AcDbSymbolTableRecord
100
AcDbLayerTableRecord
  2
1
 70
     0
 62
     4
  6
CONTINUOUS
370
    -3
390
8022
347
8082
348
0
  0
LAYER
  5
76D2
102
{ACAD_XDICTIONARY
360
8144
102
}
330
2
100
AcDbSymbolTableRecord
100
AcDbLayerTableRecord
  2
4
 70
     0
 62
     7
  6
CONTINUOUS
370
    -3
390
8022
347
8082
348
0
  0
LAYER
  5
7B39
330
2
100
AcDbSymbolTableRecord
100
AcDbLayerTableRecord
  2
DEFPOINTS
 70
     0
 62
     7
  6
CONTINUOUS
290
     0
370
    -3
390
8022
347
8082
348
0
  0
ENDTAB
  0
TABLE
  2
STYLE
  5
3
330
0
100
AcDbSymbolTable
 70
     1
  0
STYLE
  5
10
330
3
100
AcDbSymbolTableRecord
100
AcDbTextStyleTableRecord
  2
STANDARD
 70
     0
 40
0.0
 41
1.0
 50
0.0
 71
     0
 42
180.0
  3
simplex.shx
  4
extfont.shx
  0
ENDTAB
  0
TABLE
  2
VIEW
  5
6
330
0
100
AcDbSymbolTable
 70
     0
  0
ENDTAB
  0
TABLE
  2
UCS
  5
7
330
0
100
AcDbSymbolTable
 70
     0
  0
ENDTAB
  0
TABLE
  2
APPID
  5
9
330
0
100
AcDbSymbolTable
 70
     2
  0
APPID
  5
11
330
9
100
AcDbSymbolTableRecord
100
AcDbRegAppTableRecord
  2
ACAD
 70
     0
  0
APPID
  5
814F
330
9
100
AcDbSymbolTableRecord
100
AcDbRegAppTableRecord
  2
ACAD_NAV_VCDISPLAY
 70
     0
  0
ENDTAB
  0
TABLE
  2
DIMSTYLE
  5
A
330
0
100
AcDbSymbolTable
 70
     2
100
AcDbDimStyleTable
 71
     1
340
1D
  0
DIMSTYLE
105
1D
102
{ACAD_REACTORS
330
7CC4
330
7FF3
330
8000
330
80C1
330
80CE
102
}
330
A
100
AcDbSymbolTableRecord
100
AcDbDimStyleTableRecord
  2
IGA
 70
     0
 40
2.0
 41
2.0
 42
0.5
 43
10.0
 44
1.0
 47
1.0
 48
1.0
 73
     0
 74
     0
 77
     1
 78
     8
140
3.0
141
0.0
143
0.03937
146
10.0
147
1.0
173
     1
271
     1
272
     0
279
     2
284
     8
340
10
341
79FC
343
79FC
344
79FC
  0
DIMSTYLE
105
7B3B
102
{ACAD_REACTORS
330
7C17
330
7C1C
330
7C20
330
7C29
330
7C4B
330
7C4D
330
7C52
330
7C78
330
7C7B
330
7C84
330
7C89
330
7C8A
330
7C95
330
7C96
330
7C9B
330
7CB2
330
7CBD
102
}
330
A
100
AcDbSymbolTableRecord
100
AcDbDimStyleTableRecord
  2
MATSU
 70
     0
 41
2.0
 42
1.0
 43
10.0
 44
1.0
 73
     0
 74
     0
 77
     1
 78
     8
140
3.0
141
0.0
143
0.03937
147
0.5
172
     1
173
     1
176
   256
177
   256
178
   256
284
     8
289
     0
340
10
341
79FC
343
79FC
344
79FC
  0
ENDTAB
  0
TABLE
  2
BLOCK_RECORD
  5
1
330
0
100
AcDbSymbolTable
 70
    28
  0
BLOCK_RECORD
  5
19
102
{ACAD_XDICTIONARY
360
8050
102
}
330
1
100
AcDbSymbolTableRecord
100
AcDbBlockTableRecord
  2
*MODEL_SPACE
340
8025
 70
     0
280
     1
281
     0
  0
BLOCK_RECORD
  5
16
102
{ACAD_XDICTIONARY
360
804E
102
}
330
1
100
AcDbSymbolTableRecord
100
AcDbBlockTableRecord
  2
*PAPER_SPACE
340
8026
 70
     0
280
     1
281
     0
  0
BLOCK_RECORD
  5
79FC
330
1
100
AcDbSymbolTableRecord
100
AcDbBlockTableRecord
  2
_OPEN
340
0
102
{BLKREFS
331
7E9D
331
7E9E
331
7EA8
331
7EA9
331
7EB3
331
7EB4
331
7EBE
331
7EBF
331
7EC9
331
7ECA
331
7ED4
331
7ED5
331
7E3A
331
7E3B
331
7E5B
331
7E5C
331
7E71
331
7E72
331
7E87
331
7E88
331
7E92
331
7E93
331
7DED
331
7DEE
331
7E19
331
7E1A
331
80F0
331
80F1
331
80F9
331
80FA
331
8107
331
8108
331
8110
331
8111
331
8119
331
811A
331
8122
331
8123
331
812B
331
812C
331
8137
102
}
 70
     0
280
     1
281
     0
  0
BLOCK_RECORD
  5
7A0A
330
1
100
AcDbSymbolTableRecord
100
AcDbBlockTableRecord
  2
YA_N
340
0
102
{BLKREFS
331
7C03
331
7C07
331
7C09
102
}
 70
     0
280
     1
281
     0
  0
BLOCK_RECORD
  5
7CC6
330
1
100
AcDbSymbolTableRecord
100
AcDbBlockTableRecord
  2
*D2
340
0
 70
     0
280
     1
281
     0
  0
BLOCK_RECORD
  5
7CDE
330
1
100
AcDbSymbolTableRecord
100
AcDbBlockTableRecord
  2
*D3
340
0
 70
     0
280
     1
281
     0
  0
BLOCK_RECORD
  5
7CEA
330
1
100
AcDbSymbolTableRecord
100
AcDbBlockTableRecord
  2
*D4
340
0
 70
     0
280
     1
281
     0
  0
BLOCK_RECORD
  5
7CF6
330
1
100
AcDbSymbolTableRecord
100
AcDbBlockTableRecord
  2
*D5
340
0
 70
     0
280
     1
281
     0
  0
BLOCK_RECORD
  5
7D1A
330
1
100
AcDbSymbolTableRecord
100
AcDbBlockTableRecord
  2
*D8
340
0
 70
     0
280
     1
281
     0
  0
BLOCK_RECORD
  5
7D32
330
1
100
AcDbSymbolTableRecord
100
AcDbBlockTableRecord
  2
*D9
340
0
 70
     0
280
     1
281
     0
  0
BLOCK_RECORD
  5
7D3E
330
1
100
AcDbSymbolTableRecord
100
AcDbBlockTableRecord
  2
*D10
340
0
 70
     0
280
     1
281
     0
  0
BLOCK_RECORD
  5
7D56
330
1
100
AcDbSymbolTableRecord
100
AcDbBlockTableRecord
  2
*D11
340
0
 70
     0
280
     1
281
     0
  0
BLOCK_RECORD
  5
7D62
330
1
100
AcDbSymbolTableRecord
100
AcDbBlockTableRecord
  2
*D12
340
0
 70
     0
280
     1
281
     0
  0
BLOCK_RECORD
  5
7D6E
330
1
100
AcDbSymbolTableRecord
100
AcDbBlockTableRecord
  2
*D13
340
0
 70
     0
280
     1
281
     0
  0
BLOCK_RECORD
  5
7D7A
330
1
100
AcDbSymbolTableRecord
100
AcDbBlockTableRecord
  2
*D14
340
0
 70
     0
280
     1
281
     0
  0
BLOCK_RECORD
  5
7D86
330
1
100
AcDbSymbolTableRecord
100
AcDbBlockTableRecord
  2
*D15
340
0
 70
     0
280
     1
281
     0
  0
BLOCK_RECORD
  5
7D92
330
1
100
AcDbSymbolTableRecord
100
AcDbBlockTableRecord
  2
*D16
340
0
 70
     0
280
     1
281
     0
  0
BLOCK_RECORD
  5
7D9E
330
1
100
AcDbSymbolTableRecord
100
AcDbBlockTableRecord
  2
*D17
340
0
 70
     0
280
     1
281
     0
  0
BLOCK_RECORD
  5
7DAA
330
1
100
AcDbSymbolTableRecord
100
AcDbBlockTableRecord
  2
*D18
340
0
 70
     0
280
     1
281
     0
  0
BLOCK_RECORD
  5
7DB6
330
1
100
AcDbSymbolTableRecord
100
AcDbBlockTableRecord
  2
*D19
340
0
 70
     0
280
     1
281
     0
  0
BLOCK_RECORD
  5
7DC2
330
1
100
AcDbSymbolTableRecord
100
AcDbBlockTableRecord
  2
*D20
340
0
 70
     0
280
     1
281
     0
  0
BLOCK_RECORD
  5
7DDB
330
1
100
AcDbSymbolTableRecord
100
AcDbBlockTableRecord
  2
*D21
340
0
 70
     0
280
     1
281
     0
  0
BLOCK_RECORD
  5
7F7E
330
1
100
AcDbSymbolTableRecord
100
AcDbBlockTableRecord
  2
_DOT
340
0
102
{BLKREFS
331
8136
102
}
 70
     0
280
     1
281
     0
  0
BLOCK_RECORD
  5
7FE7
330
1
100
AcDbSymbolTableRecord
100
AcDbBlockTableRecord
  2
_NONE
340
0
 70
     0
280
     1
281
     0
  0
BLOCK_RECORD
  5
7FEB
330
1
100
AcDbSymbolTableRecord
100
AcDbBlockTableRecord
  2
*D24
340
0
 70
     0
280
     1
281
     0
  0
BLOCK_RECORD
  5
7FF4
330
1
100
AcDbSymbolTableRecord
100
AcDbBlockTableRecord
  2
*D25
340
0
 70
     0
280
     1
281
     0
  0
BLOCK_RECORD
  5
80C2
330
1
100
AcDbSymbolTableRecord
100
AcDbBlockTableRecord
  2
*D26
340
0
 70
     0
280
     1
281
     0
  0
BLOCK_RECORD
  5
80CF
330
1
100
AcDbSymbolTableRecord
100
AcDbBlockTableRecord
  2
*D27
340
0
 70
     0
280
     1
281
     0
  0
ENDTAB
  0
ENDSEC
  0
SECTION
  2
BLOCKS
  0
BLOCK
  5
1A
330
19
100
AcDbEntity
  8
0
100
AcDbBlockBegin
  2
*MODEL_SPACE
 70
     0
 10
0.0
 20
0.0
 30
0.0
  3
*MODEL_SPACE
  1

  0
ENDBLK
  5
1B
330
19
100
AcDbEntity
  8
0
100
AcDbBlockEnd
  0
BLOCK
  5
17
330
16
100
AcDbEntity
 67
     1
  8
0
100
AcDbBlockBegin
  2
*PAPER_SPACE
 70
     0
 10
0.0
 20
0.0
 30
0.0
  3
*PAPER_SPACE
  1

  0
ENDBLK
  5
18
330
16
100
AcDbEntity
 67
     1
  8
0
100
AcDbBlockEnd
  0
BLOCK
  5
7A00
330
79FC
100
AcDbEntity
  8
0
100
AcDbBlockBegin
  2
_OPEN
 70
     0
 10
0.0
 20
0.0
 30
0.0
  3
_OPEN
  1

  0
LINE
  5
79FD
330
79FC
100
AcDbEntity
  8
0
  6
ByBlock
 62
     0
100
AcDbLine
 10
-1.0
 20
0.1666666666666666
 30
0.0
 11
0.0
 21
0.0
 31
0.0
  0
LINE
  5
79FE
330
79FC
100
AcDbEntity
  8
0
  6
ByBlock
 62
     0
100
AcDbLine
 10
0.0
 20
0.0
 30
0.0
 11
-1.0
 21
-0.1666666666666666
 31
0.0
  0
LINE
  5
79FF
330
79FC
100
AcDbEntity
  8
0
  6
ByBlock
 62
     0
100
AcDbLine
 10
0.0
 20
0.0
 30
0.0
 11
-1.0
 21
0.0
 31
0.0
  0
ENDBLK
  5
7A01
330
79FC
100
AcDbEntity
  8
0
100
AcDbBlockEnd
  0
BLOCK
  5
7A0B
330
7A0A
100
AcDbEntity
  8
0
100
AcDbBlockBegin
  2
YA_N
 70
     0
 10
0.0
 20
0.0
 30
0.0
  3
YA_N
  1

  0
ENDBLK
  5
7A0C
330
7A0A
100
AcDbEntity
  8
0
100
AcDbBlockEnd
  0
BLOCK
  5
7DE9
330
7CC6
100
AcDbEntity
  8
0
100
AcDbBlockBegin
  2
*D2
 70
     1
 10
0.0
 20
0.0
 30
0.0
  3
*D2
  1

  0
LINE
  5
7DEA
330
7CC6
100
AcDbEntity
  8
0
  6
ByBlock
440
 16777216
100
AcDbLine
 10
4090.305828611461
 20
-169.8219045855367
 30
0.0
 11
4428.954048350989
 21
-169.8219045855367
 31
0.0
  0
LINE
  5
7DEB
330
7CC6
100
AcDbEntity
  8
0
  6
ByBlock
440
 16777216
100
AcDbLine
 10
4090.305828611463
 20
730.1780954144633
 30
0.0
 11
4428.954048350989
 21
730.1780954144633
 31
0.0
  0
LINE
  5
7DEC
330
7CC6
100
AcDbEntity
  8
0
  6
ByBlock
440
 16777216
100
AcDbLine
 10
4398.954048350989
 20
-109.8219045855367
 30
0.0
 11
4398.954048350989
 21
670.1780954144632
 31
0.0
  0
INSERT
  5
7DED
330
7CC6
100
AcDbEntity
  8
0
  6
ByBlock
440
 16777216
100
AcDbBlockReference
  2
_OPEN
 10
4398.954048350989
 20
-169.8219045855367
 30
0.0
 41
60.0
 42
60.0
 43
60.0
 50
270.0
  0
INSERT
  5
7DEE
330
7CC6
100
AcDbEntity
  8
0
  6
ByBlock
440
 16777216
100
AcDbBlockReference
  2
_OPEN
 10
4398.954048350989
 20
730.1780954144633
 30
0.0
 41
60.0
 42
60.0
 43
60.0
 50
90.0
  0
MTEXT
  5
7DEF
330
7CC6
100
AcDbEntity
  8
0
  6
ByBlock
440
 16777216
100
AcDbMText
 10
4338.954048350989
 20
280.1780954144633
 30
0.0
 40
90.0
 41
0.0
 46
0.0
 71
     5
 72
     5
  1
\A1;φ900
 11
0.0
 21
1.0
 31
0.0
 73
     1
 44
1.0
  0
POINT
  5
7DF0
330
7CC6
100
AcDbEntity
  8
DEFPOINTS
  6
ByBlock
 62
     0
440
 16777216
100
AcDbPoint
 10
4060.305828611461
 20
-169.8219045855367
 30
0.0
  0
POINT
  5
7DF1
330
7CC6
100
AcDbEntity
  8
DEFPOINTS
  6
ByBlock
 62
     0
440
 16777216
100
AcDbPoint
 10
4060.305828611464
 20
730.1780954144633
 30
0.0
  0
POINT
  5
7DF2
330
7CC6
100
AcDbEntity
  8
DEFPOINTS
  6
ByBlock
 62
     0
440
 16777216
100
AcDbPoint
 10
4398.954048350989
 20
730.1780954144633
 30
0.0
  0
ENDBLK
  5
7DF3
330
7CC6
100
AcDbEntity
  8
0
100
AcDbBlockEnd
  0
BLOCK
  5
7DFF
330
7CDE
100
AcDbEntity
  8
0
100
AcDbBlockBegin
  2
*D3
 70
     1
 10
0.0
 20
0.0
 30
0.0
  3
*D3
  1

  0
LINE
  5
810D
330
7CDE
100
AcDbEntity
  8
3
440
 16777216
370
    -2
100
AcDbLine
 10
4958.729016355527
 20
2005.75825455321
 30
0.0
 11
4958.729016355527
 21
1798.222379978286
 31
0.0
  0
LINE
  5
810E
330
7CDE
100
AcDbEntity
  8
3
440
 16777216
370
    -2
100
AcDbLine
 10
5616.729016355527
 20
2005.75825455321
 30
0.0
 11
5616.729016355527
 21
1798.222379978286
 31
0.0
  0
LINE
  5
810F
330
7CDE
100
AcDbEntity
  8
3
440
 16777216
370
    -2
100
AcDbLine
 10
5018.729016355528
 20
1828.222379978286
 30
0.0
 11
5556.729016355527
 21
1828.222379978286
 31
0.0
  0
INSERT
  5
8110
330
7CDE
100
AcDbEntity
  8
3
440
 16777216
370
    -2
100
AcDbBlockReference
  2
_OPEN
 10
4958.729016355527
 20
1828.222379978286
 30
0.0
 41
60.0
 42
60.0
 43
60.0
 50
180.0
  0
INSERT
  5
8111
330
7CDE
100
AcDbEntity
  8
3
440
 16777216
370
    -2
100
AcDbBlockReference
  2
_OPEN
 10
5616.729016355527
 20
1828.222379978286
 30
0.0
 41
60.0
 42
60.0
 43
60.0
  0
MTEXT
  5
8112
330
7CDE
100
AcDbEntity
  8
3
440
 16777216
100
AcDbMText
 10
5287.729016355527
 20
1888.222379978286
 30
0.0
 40
90.0
 41
0.0
 46
0.0
 71
     5
 72
     1
  1
\A1;658
 73
     1
 44
1.0
  0
POINT
  5
8113
330
7CDE
100
AcDbEntity
  8
DEFPOINTS
 62
     0
440
 16777216
100
AcDbPoint
 10
4958.729016355527
 20
2035.75825455321
 30
0.0
  0
POINT
  5
8114
330
7CDE
100
AcDbEntity
  8
DEFPOINTS
 62
     0
440
 16777216
100
AcDbPoint
 10
5616.729016355527
 20
2035.75825455321
 30
0.0
  0
POINT
  5
8115
330
7CDE
100
AcDbEntity
  8
DEFPOINTS
 62
     0
440
 16777216
100
AcDbPoint
 10
5616.729016355527
 20
1828.222379978286
 30
0.0
  0
ENDBLK
  5
7E09
330
7CDE
100
AcDbEntity
  8
0
100
AcDbBlockEnd
  0
BLOCK
  5
7E0A
330
7CEA
100
AcDbEntity
  8
0
100
AcDbBlockBegin
  2
*D4
 70
     1
 10
0.0
 20
0.0
 30
0.0
  3
*D4
  1

  0
LINE
  5
8116
330
7CEA
100
AcDbEntity
  8
3
440
 16777216
370
    -2
100
AcDbLine
 10
4116.729016355527
 20
2005.75825455321
 30
0.0
 11
4116.729016355527
 21
1798.222379978286
 31
0.0
  0
LINE
  5
8117
330
7CEA
100
AcDbEntity
  8
3
440
 16777216
370
    -2
100
AcDbLine
 10
4958.729016355527
 20
2005.75825455321
 30
0.0
 11
4958.729016355527
 21
1798.222379978286
 31
0.0
  0
LINE
  5
8118
330
7CEA
100
AcDbEntity
  8
3
440
 16777216
370
    -2
100
AcDbLine
 10
4176.729016355528
 20
1828.222379978286
 30
0.0
 11
4898.729016355527
 21
1828.222379978286
 31
0.0
  0
INSERT
  5
8119
330
7CEA
100
AcDbEntity
  8
3
440
 16777216
370
    -2
100
AcDbBlockReference
  2
_OPEN
 10
4116.729016355527
 20
1828.222379978286
 30
0.0
 41
60.0
 42
60.0
 43
60.0
 50
180.0
  0
INSERT
  5
811A
330
7CEA
100
AcDbEntity
  8
3
440
 16777216
370
    -2
100
AcDbBlockReference
  2
_OPEN
 10
4958.729016355527
 20
1828.222379978286
 30
0.0
 41
60.0
 42
60.0
 43
60.0
  0
MTEXT
  5
811B
330
7CEA
100
AcDbEntity
  8
3
440
 16777216
100
AcDbMText
 10
4537.729016355528
 20
1888.222379978286
 30
0.0
 40
90.0
 41
0.0
 46
0.0
 71
     5
 72
     1
  1
\A1;842
 73
     1
 44
1.0
  0
POINT
  5
811C
330
7CEA
100
AcDbEntity
  8
DEFPOINTS
 62
     0
440
 16777216
100
AcDbPoint
 10
4116.729016355527
 20
2035.75825455321
 30
0.0
  0
POINT
  5
811D
330
7CEA
100
AcDbEntity
  8
DEFPOINTS
 62
     0
440
 16777216
100
AcDbPoint
 10
4958.729016355527
 20
2035.75825455321
 30
0.0
  0
POINT
  5
811E
330
7CEA
100
AcDbEntity
  8
DEFPOINTS
 62
     0
440
 16777216
100
AcDbPoint
 10
4958.729016355527
 20
1828.222379978286
 30
0.0
  0
ENDBLK
  5
7E14
330
7CEA
100
AcDbEntity
  8
0
100
AcDbBlockEnd
  0
BLOCK
  5
7E15
330
7CF6
100
AcDbEntity
  8
0
100
AcDbBlockBegin
  2
*D5
 70
     1
 10
0.0
 20
0.0
 30
0.0
  3
*D5
  1

  0
LINE
  5
7E16
330
7CF6
100
AcDbEntity
  8
0
  6
ByBlock
440
 16777216
100
AcDbLine
 10
2874.805828611463
 20
1313.678095414463
 30
0.0
 11
2874.805828611463
 21
1462.121661027122
 31
0.0
  0
LINE
  5
7E17
330
7CF6
100
AcDbEntity
  8
0
  6
ByBlock
440
 16777216
100
AcDbLine
 10
4054.805828611462
 20
1313.678095414463
 30
0.0
 11
4054.805828611462
 21
1462.121661027122
 31
0.0
  0
LINE
  5
7E18
330
7CF6
100
AcDbEntity
  8
0
  6
ByBlock
440
 16777216
100
AcDbLine
 10
2934.805828611463
 20
1432.121661027122
 30
0.0
 11
3994.805828611463
 21
1432.121661027122
 31
0.0
  0
INSERT
  5
7E19
330
7CF6
100
AcDbEntity
  8
0
  6
ByBlock
440
 16777216
100
AcDbBlockReference
  2
_OPEN
 10
2874.805828611463
 20
1432.121661027122
 30
0.0
 41
60.0
 42
60.0
 43
60.0
 50
180.0
  0
INSERT
  5
7E1A
330
7CF6
100
AcDbEntity
  8
0
  6
ByBlock
440
 16777216
100
AcDbBlockReference
  2
_OPEN
 10
4054.805828611462
 20
1432.121661027122
 30
0.0
 41
60.0
 42
60.0
 43
60.0
  0
MTEXT
  5
7E1B
330
7CF6
100
AcDbEntity
  8
0
  6
ByBlock
440
 16777216
100
AcDbMText
 10
3464.805828611463
 20
1492.121661027122
 30
0.0
 40
90.0
 41
0.0
 46
0.0
 71
     5
 72
     5
  1
\A1;1180
 73
     1
 44
1.0
  0
POINT
  5
7E1C
330
7CF6
100
AcDbEntity
  8
DEFPOINTS
  6
ByBlock
 62
     0
440
 16777216
100
AcDbPoint
 10
2874.805828611463
 20
1283.678095414463
 30
0.0
  0
POINT
  5
7E1D
330
7CF6
100
AcDbEntity
  8
DEFPOINTS
  6
ByBlock
 62
     0
440
 16777216
100
AcDbPoint
 10
4054.805828611462
 20
1283.678095414463
 30
0.0
  0
POINT
  5
7E1E
330
7CF6
100
AcDbEntity
  8
DEFPOINTS
  6
ByBlock
 62
     0
440
 16777216
100
AcDbPoint
 10
4054.805828611462
 20
1432.121661027122
 30
0.0
  0
ENDBLK
  5
7E1F
330
7CF6
100
AcDbEntity
  8
0
100
AcDbBlockEnd
  0
BLOCK
  5
7E36
330
7D1A
100
AcDbEntity
  8
0
100
AcDbBlockBegin
  2
*D8
 70
     1
 10
0.0
 20
0.0
 30
0.0
  3
*D8
  1

  0
LINE
  5
7E37
330
7D1A
100
AcDbEntity
  8
0
  6
ByBlock
440
 16777216
100
AcDbLine
 10
1319.722313098157
 20
-244.8219045855371
 30
0.0
 11
1319.722313098157
 21
1646.363903777492
 31
0.0
  0
LINE
  5
7E38
330
7D1A
100
AcDbEntity
  8
0
  6
ByBlock
440
 16777216
100
AcDbLine
 10
-740.2776869018416
 20
1313.678095414463
 30
0.0
 11
-740.2776869018416
 21
1646.363903777492
 31
0.0
  0
LINE
  5
7E39
330
7D1A
100
AcDbEntity
  8
0
  6
ByBlock
440
 16777216
100
AcDbLine
 10
1259.722313098156
 20
1616.363903777492
 30
0.0
 11
-680.2776869018416
 21
1616.363903777492
 31
0.0
  0
INSERT
  5
7E3A
330
7D1A
100
AcDbEntity
  8
0
  6
ByBlock
440
 16777216
100
AcDbBlockReference
  2
_OPEN
 10
1319.722313098157
 20
1616.363903777492
 30
0.0
 41
60.0
 42
60.0
 43
60.0
  0
INSERT
  5
7E3B
330
7D1A
100
AcDbEntity
  8
0
  6
ByBlock
440
 16777216
100
AcDbBlockReference
  2
_OPEN
 10
-740.2776869018416
 20
1616.363903777492
 30
0.0
 41
60.0
 42
60.0
 43
60.0
 50
180.0
  0
MTEXT
  5
7E3C
330
7D1A
100
AcDbEntity
  8
0
  6
ByBlock
440
 16777216
100
AcDbMText
 10
289.7223130981574
 20
1676.363903777492
 30
0.0
 40
90.0
 41
0.0
 46
0.0
 71
     5
 72
     5
  1
\A1;2060
 73
     1
 44
1.0
  0
POINT
  5
7E3D
330
7D1A
100
AcDbEntity
  8
DEFPOINTS
  6
ByBlock
 62
     0
440
 16777216
100
AcDbPoint
 10
1319.722313098157
 20
-274.8219045855371
 30
0.0
  0
POINT
  5
7E3E
330
7D1A
100
AcDbEntity
  8
DEFPOINTS
  6
ByBlock
 62
     0
440
 16777216
100
AcDbPoint
 10
-740.2776869018416
 20
1283.678095414463
 30
0.0
  0
POINT
  5
7E3F
330
7D1A
100
AcDbEntity
  8
DEFPOINTS
  6
ByBlock
 62
     0
440
 16777216
100
AcDbPoint
 10
-740.2776869018416
 20
1616.363903777492
 30
0.0
  0
ENDBLK
  5
7E40
330
7D1A
100
AcDbEntity
  8
0
100
AcDbBlockEnd
  0
BLOCK
  5
7E4C
330
7D32
100
AcDbEntity
  8
0
100
AcDbBlockBegin
  2
*D9
 70
     1
 10
0.0
 20
0.0
 30
0.0
  3
*D9
  1

  0
LINE
  5
811F
330
7D32
100
AcDbEntity
  8
3
440
 16777216
370
    -2
100
AcDbLine
 10
3399.774027287854
 20
2005.75825455321
 30
0.0
 11
3399.774027287854
 21
1802.332155931801
 31
0.0
  0
LINE
  5
8120
330
7D32
100
AcDbEntity
  8
3
440
 16777216
370
    -2
100
AcDbLine
 10
1959.774027287854
 20
2005.75825455321
 30
0.0
 11
1959.774027287854
 21
1802.332155931801
 31
0.0
  0
LINE
  5
8121
330
7D32
100
AcDbEntity
  8
3
440
 16777216
370
    -2
100
AcDbLine
 10
3339.774027287854
 20
1832.332155931801
 30
0.0
 11
2019.774027287855
 21
1832.332155931801
 31
0.0
  0
INSERT
  5
8122
330
7D32
100
AcDbEntity
  8
3
440
 16777216
370
    -2
100
AcDbBlockReference
  2
_OPEN
 10
3399.774027287854
 20
1832.332155931801
 30
0.0
 41
60.0
 42
60.0
 43
60.0
  0
INSERT
  5
8123
330
7D32
100
AcDbEntity
  8
3
440
 16777216
370
    -2
100
AcDbBlockReference
  2
_OPEN
 10
1959.774027287854
 20
1832.332155931801
 30
0.0
 41
60.0
 42
60.0
 43
60.0
 50
180.0
  0
MTEXT
  5
8124
330
7D32
100
AcDbEntity
  8
3
440
 16777216
100
AcDbMText
 10
2679.774027287855
 20
1892.332155931801
 30
0.0
 40
90.0
 41
0.0
 46
0.0
 71
     5
 72
     1
  1
\A1;1440
 73
     1
 44
1.0
  0
POINT
  5
8125
330
7D32
100
AcDbEntity
  8
DEFPOINTS
 62
     0
440
 16777216
100
AcDbPoint
 10
3399.774027287854
 20
2035.75825455321
 30
0.0
  0
POINT
  5
8126
330
7D32
100
AcDbEntity
  8
DEFPOINTS
 62
     0
440
 16777216
100
AcDbPoint
 10
1959.774027287854
 20
2035.75825455321
 30
0.0
  0
POINT
  5
8127
330
7D32
100
AcDbEntity
  8
DEFPOINTS
 62
     0
440
 16777216
100
AcDbPoint
 10
1959.774027287854
 20
1832.332155931801
 30
0.0
  0
ENDBLK
  5
7E56
330
7D32
100
AcDbEntity
  8
0
100
AcDbBlockEnd
  0
BLOCK
  5
7E57
330
7D3E
100
AcDbEntity
  8
0
100
AcDbBlockBegin
  2
*D10
 70
     1
 10
0.0
 20
0.0
 30
0.0
  3
*D10
  1

  0
LINE
  5
7E58
330
7D3E
100
AcDbEntity
  8
0
  6
ByBlock
440
 16777216
100
AcDbLine
 10
-120.2776869018416
 20
1312.140537758021
 30
0.0
 11
-120.2776869018416
 21
1464.815705119519
 31
0.0
  0
LINE
  5
7E59
330
7D3E
100
AcDbEntity
  8
0
  6
ByBlock
440
 16777216
100
AcDbLine
 10
653.5539762259495
 20
310.1780954144633
 30
0.0
 11
653.5539762259495
 21
1464.815705119519
 31
0.0
  0
LINE
  5
7E5A
330
7D3E
100
AcDbEntity
  8
0
  6
ByBlock
440
 16777216
100
AcDbLine
 10
-60.27768690184166
 20
1434.815705119519
 30
0.0
 11
593.5539762259495
 21
1434.815705119519
 31
0.0
  0
INSERT
  5
7E5B
330
7D3E
100
AcDbEntity
  8
0
  6
ByBlock
440
 16777216
100
AcDbBlockReference
  2
_OPEN
 10
-120.2776869018416
 20
1434.815705119519
 30
0.0
 41
60.0
 42
60.0
 43
60.0
 50
180.0
  0
INSERT
  5
7E5C
330
7D3E
100
AcDbEntity
  8
0
  6
ByBlock
440
 16777216
100
AcDbBlockReference
  2
_OPEN
 10
653.5539762259495
 20
1434.815705119519
 30
0.0
 41
60.0
 42
60.0
 43
60.0
  0
MTEXT
  5
7E5D
330
7D3E
100
AcDbEntity
  8
0
  6
ByBlock
440
 16777216
100
AcDbMText
 10
266.6381446620539
 20
1494.815705119519
 30
0.0
 40
90.0
 41
0.0
 46
0.0
 71
     5
 72
     5
  1
\A1;777
 73
     1
 44
1.0
  0
POINT
  5
7E5E
330
7D3E
100
AcDbEntity
  8
DEFPOINTS
  6
ByBlock
 62
     0
440
 16777216
100
AcDbPoint
 10
-120.2776869018416
 20
1282.140537758021
 30
0.0
  0
POINT
  5
7E5F
330
7D3E
100
AcDbEntity
  8
DEFPOINTS
  6
ByBlock
 62
     0
440
 16777216
100
AcDbPoint
 10
653.5539762259495
 20
280.1780954144633
 30
0.0
  0
POINT
  5
7E60
330
7D3E
100
AcDbEntity
  8
DEFPOINTS
  6
ByBlock
 62
     0
440
 16777216
100
AcDbPoint
 10
653.5539762259495
 20
1434.815705119519
 30
0.0
  0
ENDBLK
  5
7E61
330
7D3E
100
AcDbEntity
  8
0
100
AcDbBlockEnd
  0
BLOCK
  5
7E6D
330
7D56
100
AcDbEntity
  8
0
100
AcDbBlockBegin
  2
*D11
 70
     1
 10
0.0
 20
0.0
 30
0.0
  3
*D11
  1

  0
LINE
  5
7E6E
330
7D56
100
AcDbEntity
  8
0
  6
ByBlock
440
 16777216
100
AcDbLine
 10
-806.5330256803882
 20
280.1780954144633
 30
0.0
 11
-1070.236095442915
 21
280.1780954144633
 31
0.0
  0
LINE
  5
7E6F
330
7D56
100
AcDbEntity
  8
0
  6
ByBlock
440
 16777216
100
AcDbLine
 10
-710.2776869018434
 20
-399.8219045855367
 30
0.0
 11
-1070.236095442915
 21
-399.8219045855367
 31
0.0
  0
LINE
  5
7E70
330
7D56
100
AcDbEntity
  8
0
  6
ByBlock
440
 16777216
100
AcDbLine
 10
-1040.236095442915
 20
220.1780954144633
 30
0.0
 11
-1040.236095442915
 21
-339.8219045855367
 31
0.0
  0
INSERT
  5
7E71
330
7D56
100
AcDbEntity
  8
0
  6
ByBlock
440
 16777216
100
AcDbBlockReference
  2
_OPEN
 10
-1040.236095442915
 20
280.1780954144633
 30
0.0
 41
60.0
 42
60.0
 43
60.0
 50
90.0
  0
INSERT
  5
7E72
330
7D56
100
AcDbEntity
  8
0
  6
ByBlock
440
 16777216
100
AcDbBlockReference
  2
_OPEN
 10
-1040.236095442915
 20
-399.8219045855367
 30
0.0
 41
60.0
 42
60.0
 43
60.0
 50
270.0
  0
MTEXT
  5
7E73
330
7D56
100
AcDbEntity
  8
0
  6
ByBlock
440
 16777216
100
AcDbMText
 10
-1100.236095442915
 20
-59.82190458553668
 30
0.0
 40
90.0
 41
0.0
 46
0.0
 71
     5
 72
     5
  1
\A1;680
 11
0.0
 21
1.0
 31
0.0
 73
     1
 44
1.0
  0
POINT
  5
7E74
330
7D56
100
AcDbEntity
  8
DEFPOINTS
  6
ByBlock
 62
     0
440
 16777216
100
AcDbPoint
 10
-776.5330256803881
 20
280.1780954144633
 30
0.0
  0
POINT
  5
7E75
330
7D56
100
AcDbEntity
  8
DEFPOINTS
  6
ByBlock
 62
     0
440
 16777216
100
AcDbPoint
 10
-680.2776869018434
 20
-399.8219045855367
 30
0.0
  0
POINT
  5
7E76
330
7D56
100
AcDbEntity
  8
DEFPOINTS
  6
ByBlock
 62
     0
440
 16777216
100
AcDbPoint
 10
-1040.236095442915
 20
-399.8219045855367
 30
0.0
  0
ENDBLK
  5
7E77
330
7D56
100
AcDbEntity
  8
0
100
AcDbBlockEnd
  0
BLOCK
  5
7E78
330
7D62
100
AcDbEntity
  8
0
100
AcDbBlockBegin
  2
*D12
 70
     1
 10
0.0
 20
0.0
 30
0.0
  3
*D12
  1

  0
LINE
  5
8128
330
7D62
100
AcDbEntity
  8
3
440
 16777216
370
    -2
100
AcDbLine
 10
1399.774027287852
 20
2005.75825455321
 30
0.0
 11
1399.774027287852
 21
1802.248000054615
 31
0.0
  0
LINE
  5
8129
330
7D62
100
AcDbEntity
  8
3
440
 16777216
370
    -2
100
AcDbLine
 10
1959.774027287854
 20
2005.75825455321
 30
0.0
 11
1959.774027287854
 21
1802.248000054615
 31
0.0
  0
LINE
  5
812A
330
7D62
100
AcDbEntity
  8
3
440
 16777216
370
    -2
100
AcDbLine
 10
1459.774027287853
 20
1832.248000054615
 30
0.0
 11
1899.774027287854
 21
1832.248000054615
 31
0.0
  0
INSERT
  5
812B
330
7D62
100
AcDbEntity
  8
3
440
 16777216
370
    -2
100
AcDbBlockReference
  2
_OPEN
 10
1399.774027287852
 20
1832.248000054615
 30
0.0
 41
60.0
 42
60.0
 43
60.0
 50
180.0
  0
INSERT
  5
812C
330
7D62
100
AcDbEntity
  8
3
440
 16777216
370
    -2
100
AcDbBlockReference
  2
_OPEN
 10
1959.774027287854
 20
1832.248000054615
 30
0.0
 41
60.0
 42
60.0
 43
60.0
  0
MTEXT
  5
812D
330
7D62
100
AcDbEntity
  8
3
440
 16777216
100
AcDbMText
 10
1679.774027287853
 20
1892.248000054615
 30
0.0
 40
90.0
 41
0.0
 46
0.0
 71
     5
 72
     1
  1
\A1;560
 73
     1
 44
1.0
  0
POINT
  5
812E
330
7D62
100
AcDbEntity
  8
DEFPOINTS
 62
     0
440
 16777216
100
AcDbPoint
 10
1399.774027287852
 20
2035.75825455321
 30
0.0
  0
POINT
  5
812F
330
7D62
100
AcDbEntity
  8
DEFPOINTS
 62
     0
440
 16777216
100
AcDbPoint
 10
1959.774027287854
 20
2035.75825455321
 30
0.0
  0
POINT
  5
8130
330
7D62
100
AcDbEntity
  8
DEFPOINTS
 62
     0
440
 16777216
100
AcDbPoint
 10
1959.774027287854
 20
1832.248000054615
 30
0.0
  0
ENDBLK
  5
7E82
330
7D62
100
AcDbEntity
  8
0
100
AcDbBlockEnd
  0
BLOCK
  5
7E83
330
7D6E
100
AcDbEntity
  8
0
100
AcDbBlockBegin
  2
*D13
 70
     1
 10
0.0
 20
0.0
 30
0.0
  3
*D13
  1

  0
LINE
  5
7E84
330
7D6E
100
AcDbEntity
  8
0
  6
ByBlock
440
 16777216
100
AcDbLine
 10
-740.2776869018416
 20
1313.678095414463
 30
0.0
 11
-740.2776869018416
 21
1464.572505130094
 31
0.0
  0
LINE
  5
7E85
330
7D6E
100
AcDbEntity
  8
0
  6
ByBlock
440
 16777216
100
AcDbLine
 10
-120.2776869018416
 20
1312.140537758021
 30
0.0
 11
-120.2776869018416
 21
1464.572505130094
 31
0.0
  0
LINE
  5
7E86
330
7D6E
100
AcDbEntity
  8
0
  6
ByBlock
440
 16777216
100
AcDbLine
 10
-680.2776869018416
 20
1434.572505130094
 30
0.0
 11
-180.2776869018416
 21
1434.572505130094
 31
0.0
  0
INSERT
  5
7E87
330
7D6E
100
AcDbEntity
  8
0
  6
ByBlock
440
 16777216
100
AcDbBlockReference
  2
_OPEN
 10
-740.2776869018416
 20
1434.572505130094
 30
0.0
 41
60.0
 42
60.0
 43
60.0
 50
180.0
  0
INSERT
  5
7E88
330
7D6E
100
AcDbEntity
  8
0
  6
ByBlock
440
 16777216
100
AcDbBlockReference
  2
_OPEN
 10
-120.2776869018416
 20
1434.572505130094
 30
0.0
 41
60.0
 42
60.0
 43
60.0
  0
MTEXT
  5
7E89
330
7D6E
100
AcDbEntity
  8
0
  6
ByBlock
440
 16777216
100
AcDbMText
 10
-430.2776869018416
 20
1494.572505130094
 30
0.0
 40
90.0
 41
0.0
 46
0.0
 71
     5
 72
     5
  1
\A1;620
 73
     1
 44
1.0
  0
POINT
  5
7E8A
330
7D6E
100
AcDbEntity
  8
DEFPOINTS
  6
ByBlock
 62
     0
440
 16777216
100
AcDbPoint
 10
-740.2776869018416
 20
1283.678095414463
 30
0.0
  0
POINT
  5
7E8B
330
7D6E
100
AcDbEntity
  8
DEFPOINTS
  6
ByBlock
 62
     0
440
 16777216
100
AcDbPoint
 10
-120.2776869018416
 20
1282.140537758021
 30
0.0
  0
POINT
  5
7E8C
330
7D6E
100
AcDbEntity
  8
DEFPOINTS
  6
ByBlock
 62
     0
440
 16777216
100
AcDbPoint
 10
-120.2776869018416
 20
1434.572505130094
 30
0.0
  0
ENDBLK
  5
7E8D
330
7D6E
100
AcDbEntity
  8
0
100
AcDbBlockEnd
  0
BLOCK
  5
7E8E
330
7D7A
100
AcDbEntity
  8
0
100
AcDbBlockBegin
  2
*D14
 70
     1
 10
0.0
 20
0.0
 30
0.0
  3
*D14
  1

  0
LINE
  5
7E8F
330
7D7A
100
AcDbEntity
  8
0
  6
ByBlock
440
 16777216
100
AcDbLine
 10
-770.2776869018416
 20
1241.178095414463
 30
0.0
 11
-1070.236095442915
 21
1241.178095414463
 31
0.0
  0
LINE
  5
7E90
330
7D7A
100
AcDbEntity
  8
0
  6
ByBlock
440
 16777216
100
AcDbLine
 10
-806.5330256803882
 20
280.1780954144633
 30
0.0
 11
-1070.236095442915
 21
280.1780954144633
 31
0.0
  0
LINE
  5
7E91
330
7D7A
100
AcDbEntity
  8
0
  6
ByBlock
440
 16777216
100
AcDbLine
 10
-1040.236095442915
 20
1181.178095414463
 30
0.0
 11
-1040.236095442915
 21
340.1780954144633
 31
0.0
  0
INSERT
  5
7E92
330
7D7A
100
AcDbEntity
  8
0
  6
ByBlock
440
 16777216
100
AcDbBlockReference
  2
_OPEN
 10
-1040.236095442915
 20
1241.178095414463
 30
0.0
 41
60.0
 42
60.0
 43
60.0
 50
90.0
  0
INSERT
  5
7E93
330
7D7A
100
AcDbEntity
  8
0
  6
ByBlock
440
 16777216
100
AcDbBlockReference
  2
_OPEN
 10
-1040.236095442915
 20
280.1780954144633
 30
0.0
 41
60.0
 42
60.0
 43
60.0
 50
270.0
  0
MTEXT
  5
7E94
330
7D7A
100
AcDbEntity
  8
0
  6
ByBlock
440
 16777216
100
AcDbMText
 10
-1100.236095442915
 20
760.6780954144633
 30
0.0
 40
90.0
 41
0.0
 46
0.0
 71
     5
 72
     5
  1
\A1;961
 11
0.0
 21
1.0
 31
0.0
 73
     1
 44
1.0
  0
POINT
  5
7E95
330
7D7A
100
AcDbEntity
  8
DEFPOINTS
  6
ByBlock
 62
     0
440
 16777216
100
AcDbPoint
 10
-740.2776869018416
 20
1241.178095414463
 30
0.0
  0
POINT
  5
7E96
330
7D7A
100
AcDbEntity
  8
DEFPOINTS
  6
ByBlock
 62
     0
440
 16777216
100
AcDbPoint
 10
-776.5330256803881
 20
280.1780954144633
 30
0.0
  0
POINT
  5
7E97
330
7D7A
100
AcDbEntity
  8
DEFPOINTS
  6
ByBlock
 62
     0
440
 16777216
100
AcDbPoint
 10
-1040.236095442915
 20
280.1780954144633
 30
0.0
  0
ENDBLK
  5
7E98
330
7D7A
100
AcDbEntity
  8
0
100
AcDbBlockEnd
  0
BLOCK
  5
7E99
330
7D86
100
AcDbEntity
  8
0
100
AcDbBlockBegin
  2
*D15
 70
     1
 10
0.0
 20
0.0
 30
0.0
  3
*D15
  1

  0
LINE
  5
7E9A
330
7D86
100
AcDbEntity
  8
0
  6
ByBlock
440
 16777216
100
AcDbLine
 10
-770.2776869018416
 20
1241.178095414463
 30
0.0
 11
-919.892795345053
 21
1241.178095414463
 31
0.0
  0
LINE
  5
7E9B
330
7D86
100
AcDbEntity
  8
0
  6
ByBlock
440
 16777216
100
AcDbLine
 10
-770.2776869018416
 20
316.1780954144633
 30
0.0
 11
-919.892795345053
 21
316.1780954144633
 31
0.0
  0
LINE
  5
7E9C
330
7D86
100
AcDbEntity
  8
0
  6
ByBlock
440
 16777216
100
AcDbLine
 10
-889.8927953450529
 20
1181.178095414463
 30
0.0
 11
-889.8927953450529
 21
376.1780954144633
 31
0.0
  0
INSERT
  5
7E9D
330
7D86
100
AcDbEntity
  8
0
  6
ByBlock
440
 16777216
100
AcDbBlockReference
  2
_OPEN
 10
-889.8927953450529
 20
1241.178095414463
 30
0.0
 41
60.0
 42
60.0
 43
60.0
 50
90.0
  0
INSERT
  5
7E9E
330
7D86
100
AcDbEntity
  8
0
  6
ByBlock
440
 16777216
100
AcDbBlockReference
  2
_OPEN
 10
-889.8927953450529
 20
316.1780954144633
 30
0.0
 41
60.0
 42
60.0
 43
60.0
 50
270.0
  0
MTEXT
  5
7E9F
330
7D86
100
AcDbEntity
  8
0
  6
ByBlock
440
 16777216
100
AcDbMText
 10
-949.8927953450529
 20
778.6780954144632
 30
0.0
 40
90.0
 41
0.0
 46
0.0
 71
     5
 72
     5
  1
\A1;925
 11
0.0
 21
1.0
 31
0.0
 73
     1
 44
1.0
  0
POINT
  5
7EA0
330
7D86
100
AcDbEntity
  8
DEFPOINTS
  6
ByBlock
 62
     0
440
 16777216
100
AcDbPoint
 10
-740.2776869018416
 20
1241.178095414463
 30
0.0
  0
POINT
  5
7EA1
330
7D86
100
AcDbEntity
  8
DEFPOINTS
  6
ByBlock
 62
     0
440
 16777216
100
AcDbPoint
 10
-740.2776869018416
 20
316.1780954144633
 30
0.0
  0
POINT
  5
7EA2
330
7D86
100
AcDbEntity
  8
DEFPOINTS
  6
ByBlock
 62
     0
440
 16777216
100
AcDbPoint
 10
-889.8927953450529
 20
316.1780954144633
 30
0.0
  0
ENDBLK
  5
7EA3
330
7D86
100
AcDbEntity
  8
0
100
AcDbBlockEnd
  0
BLOCK
  5
7EA4
330
7D92
100
AcDbEntity
  8
0
100
AcDbBlockBegin
  2
*D16
 70
     1
 10
0.0
 20
0.0
 30
0.0
  3
*D16
  1

  0
LINE
  5
7EA5
330
7D92
100
AcDbEntity
  8
0
  6
ByBlock
440
 16777216
100
AcDbLine
 10
1319.722313098158
 20
2504.814411033822
 30
0.0
 11
1319.722313098158
 21
2108.774986614504
 31
0.0
  0
LINE
  5
7EA6
330
7D92
100
AcDbEntity
  8
0
  6
ByBlock
440
 16777216
100
AcDbLine
 10
-680.2776869018434
 20
2504.814411033822
 30
0.0
 11
-680.2776869018434
 21
2108.774986614504
 31
0.0
  0
LINE
  5
7EA7
330
7D92
100
AcDbEntity
  8
0
  6
ByBlock
440
 16777216
100
AcDbLine
 10
1259.722313098158
 20
2138.774986614504
 30
0.0
 11
-620.2776869018435
 21
2138.774986614504
 31
0.0
  0
INSERT
  5
7EA8
330
7D92
100
AcDbEntity
  8
0
  6
ByBlock
440
 16777216
100
AcDbBlockReference
  2
_OPEN
 10
1319.722313098158
 20
2138.774986614504
 30
0.0
 41
60.0
 42
60.0
 43
60.0
  0
INSERT
  5
7EA9
330
7D92
100
AcDbEntity
  8
0
  6
ByBlock
440
 16777216
100
AcDbBlockReference
  2
_OPEN
 10
-680.2776869018434
 20
2138.774986614504
 30
0.0
 41
60.0
 42
60.0
 43
60.0
 50
180.0
  0
MTEXT
  5
7EAA
330
7D92
100
AcDbEntity
  8
0
  6
ByBlock
440
 16777216
100
AcDbMText
 10
319.7223130981574
 20
2198.774986614504
 30
0.0
 40
90.0
 41
0.0
 46
0.0
 71
     5
 72
     5
  1
\A1;2000
 73
     1
 44
1.0
  0
POINT
  5
7EAB
330
7D92
100
AcDbEntity
  8
DEFPOINTS
  6
ByBlock
 62
     0
440
 16777216
100
AcDbPoint
 10
1319.722313098158
 20
2534.814411033822
 30
0.0
  0
POINT
  5
7EAC
330
7D92
100
AcDbEntity
  8
DEFPOINTS
  6
ByBlock
 62
     0
440
 16777216
100
AcDbPoint
 10
-680.2776869018434
 20
2534.814411033822
 30
0.0
  0
POINT
  5
7EAD
330
7D92
100
AcDbEntity
  8
DEFPOINTS
  6
ByBlock
 62
     0
440
 16777216
100
AcDbPoint
 10
-680.2776869018434
 20
2138.774986614504
 30
0.0
  0
ENDBLK
  5
7EAE
330
7D92
100
AcDbEntity
  8
0
100
AcDbBlockEnd
  0
BLOCK
  5
7EAF
330
7D9E
100
AcDbEntity
  8
0
100
AcDbBlockBegin
  2
*D17
 70
     1
 10
0.0
 20
0.0
 30
0.0
  3
*D17
  1

  0
LINE
  5
7EB0
330
7D9E
100
AcDbEntity
  8
0
  6
ByBlock
440
 16777216
100
AcDbLine
 10
1319.722313098158
 20
3414.814411033822
 30
0.0
 11
1319.722313098158
 21
4362.896966628809
 31
0.0
  0
LINE
  5
7EB1
330
7D9E
100
AcDbEntity
  8
0
  6
ByBlock
440
 16777216
100
AcDbLine
 10
439.7223130981569
 20
4064.814411033821
 30
0.0
 11
439.7223130981569
 21
4362.896966628809
 31
0.0
  0
LINE
  5
7EB2
330
7D9E
100
AcDbEntity
  8
0
  6
ByBlock
440
 16777216
100
AcDbLine
 10
1259.722313098158
 20
4332.896966628808
 30
0.0
 11
499.7223130981569
 21
4332.896966628808
 31
0.0
  0
INSERT
  5
7EB3
330
7D9E
100
AcDbEntity
  8
0
  6
ByBlock
440
 16777216
100
AcDbBlockReference
  2
_OPEN
 10
1319.722313098158
 20
4332.896966628808
 30
0.0
 41
60.0
 42
60.0
 43
60.0
  0
INSERT
  5
7EB4
330
7D9E
100
AcDbEntity
  8
0
  6
ByBlock
440
 16777216
100
AcDbBlockReference
  2
_OPEN
 10
439.7223130981569
 20
4332.896966628808
 30
0.0
 41
60.0
 42
60.0
 43
60.0
 50
180.0
  0
MTEXT
  5
7EB5
330
7D9E
100
AcDbEntity
  8
0
  6
ByBlock
440
 16777216
100
AcDbMText
 10
879.7223130981574
 20
4392.896966628808
 30
0.0
 40
90.0
 41
0.0
 46
0.0
 71
     5
 72
     5
  1
\A1;880
 73
     1
 44
1.0
  0
POINT
  5
7EB6
330
7D9E
100
AcDbEntity
  8
DEFPOINTS
  6
ByBlock
 62
     0
440
 16777216
100
AcDbPoint
 10
1319.722313098158
 20
3384.814411033822
 30
0.0
  0
POINT
  5
7EB7
330
7D9E
100
AcDbEntity
  8
DEFPOINTS
  6
ByBlock
 62
     0
440
 16777216
100
AcDbPoint
 10
439.7223130981569
 20
4034.814411033821
 30
0.0
  0
POINT
  5
7EB8
330
7D9E
100
AcDbEntity
  8
DEFPOINTS
  6
ByBlock
 62
     0
440
 16777216
100
AcDbPoint
 10
439.7223130981569
 20
4332.896966628808
 30
0.0
  0
ENDBLK
  5
7EB9
330
7D9E
100
AcDbEntity
  8
0
100
AcDbBlockEnd
  0
BLOCK
  5
7EBA
330
7DAA
100
AcDbEntity
  8
0
100
AcDbBlockBegin
  2
*D18
 70
     1
 10
0.0
 20
0.0
 30
0.0
  3
*D18
  1

  0
LINE
  5
7EBB
330
7DAA
100
AcDbEntity
  8
0
  6
ByBlock
440
 16777216
100
AcDbLine
 10
1349.722313098158
 20
3384.814411033821
 30
0.0
 11
1647.705918182004
 21
3384.814411033821
 31
0.0
  0
LINE
  5
7EBC
330
7DAA
100
AcDbEntity
  8
0
  6
ByBlock
440
 16777216
100
AcDbLine
 10
1349.722313098158
 20
2534.814411033822
 30
0.0
 11
1647.705918182004
 21
2534.814411033822
 31
0.0
  0
LINE
  5
7EBD
330
7DAA
100
AcDbEntity
  8
0
  6
ByBlock
440
 16777216
100
AcDbLine
 10
1617.705918182004
 20
3324.814411033821
 30
0.0
 11
1617.705918182004
 21
2594.814411033822
 31
0.0
  0
INSERT
  5
7EBE
330
7DAA
100
AcDbEntity
  8
0
  6
ByBlock
440
 16777216
100
AcDbBlockReference
  2
_OPEN
 10
1617.705918182004
 20
3384.814411033821
 30
0.0
 41
60.0
 42
60.0
 43
60.0
 50
90.0
  0
INSERT
  5
7EBF
330
7DAA
100
AcDbEntity
  8
0
  6
ByBlock
440
 16777216
100
AcDbBlockReference
  2
_OPEN
 10
1617.705918182004
 20
2534.814411033822
 30
0.0
 41
60.0
 42
60.0
 43
60.0
 50
270.0
  0
MTEXT
  5
7EC0
330
7DAA
100
AcDbEntity
  8
0
  6
ByBlock
440
 16777216
100
AcDbMText
 10
1557.705918182004
 20
2959.814411033822
 30
0.0
 40
90.0
 41
0.0
 46
0.0
 71
     5
 72
     5
  1
\A1;850
 11
0.0
 21
1.0
 31
0.0
 73
     1
 44
1.0
  0
POINT
  5
7EC1
330
7DAA
100
AcDbEntity
  8
DEFPOINTS
  6
ByBlock
 62
     0
440
 16777216
100
AcDbPoint
 10
1319.722313098158
 20
3384.814411033821
 30
0.0
  0
POINT
  5
7EC2
330
7DAA
100
AcDbEntity
  8
DEFPOINTS
  6
ByBlock
 62
     0
440
 16777216
100
AcDbPoint
 10
1319.722313098158
 20
2534.814411033822
 30
0.0
  0
POINT
  5
7EC3
330
7DAA
100
AcDbEntity
  8
DEFPOINTS
  6
ByBlock
 62
     0
440
 16777216
100
AcDbPoint
 10
1617.705918182004
 20
2534.814411033822
 30
0.0
  0
ENDBLK
  5
7EC4
330
7DAA
100
AcDbEntity
  8
0
100
AcDbBlockEnd
  0
BLOCK
  5
7EC5
330
7DB6
100
AcDbEntity
  8
0
100
AcDbBlockBegin
  2
*D19
 70
     1
 10
0.0
 20
0.0
 30
0.0
  3
*D19
  1

  0
LINE
  5
7EC6
330
7DB6
100
AcDbEntity
  8
0
  6
ByBlock
440
 16777216
100
AcDbLine
 10
-710.2776869018434
 20
4034.814411033821
 30
0.0
 11
-1009.581933131758
 21
4034.814411033821
 31
0.0
  0
LINE
  5
7EC7
330
7DB6
100
AcDbEntity
  8
0
  6
ByBlock
440
 16777216
100
AcDbLine
 10
-710.2776869018434
 20
2534.814411033822
 30
0.0
 11
-1009.581933131758
 21
2534.814411033822
 31
0.0
  0
LINE
  5
7EC8
330
7DB6
100
AcDbEntity
  8
0
  6
ByBlock
440
 16777216
100
AcDbLine
 10
-979.5819331317579
 20
3974.814411033822
 30
0.0
 11
-979.5819331317579
 21
2594.814411033822
 31
0.0
  0
INSERT
  5
7EC9
330
7DB6
100
AcDbEntity
  8
0
  6
ByBlock
440
 16777216
100
AcDbBlockReference
  2
_OPEN
 10
-979.5819331317579
 20
4034.814411033821
 30
0.0
 41
60.0
 42
60.0
 43
60.0
 50
90.0
  0
INSERT
  5
7ECA
330
7DB6
100
AcDbEntity
  8
0
  6
ByBlock
440
 16777216
100
AcDbBlockReference
  2
_OPEN
 10
-979.5819331317579
 20
2534.814411033822
 30
0.0
 41
60.0
 42
60.0
 43
60.0
 50
270.0
  0
MTEXT
  5
7ECB
330
7DB6
100
AcDbEntity
  8
0
  6
ByBlock
440
 16777216
100
AcDbMText
 10
-1039.581933131758
 20
3284.814411033822
 30
0.0
 40
90.0
 41
0.0
 46
0.0
 71
     5
 72
     5
  1
\A1;1500
 11
0.0
 21
1.0
 31
0.0
 73
     1
 44
1.0
  0
POINT
  5
7ECC
330
7DB6
100
AcDbEntity
  8
DEFPOINTS
  6
ByBlock
 62
     0
440
 16777216
100
AcDbPoint
 10
-680.2776869018434
 20
4034.814411033821
 30
0.0
  0
POINT
  5
7ECD
330
7DB6
100
AcDbEntity
  8
DEFPOINTS
  6
ByBlock
 62
     0
440
 16777216
100
AcDbPoint
 10
-680.2776869018434
 20
2534.814411033822
 30
0.0
  0
POINT
  5
7ECE
330
7DB6
100
AcDbEntity
  8
DEFPOINTS
  6
ByBlock
 62
     0
440
 16777216
100
AcDbPoint
 10
-979.5819331317579
 20
2534.814411033822
 30
0.0
  0
ENDBLK
  5
7ECF
330
7DB6
100
AcDbEntity
  8
0
100
AcDbBlockEnd
  0
BLOCK
  5
7ED0
330
7DC2
100
AcDbEntity
  8
0
100
AcDbBlockBegin
  2
*D20
 70
     1
 10
0.0
 20
0.0
 30
0.0
  3
*D20
  1

  0
LINE
  5
7ED1
330
7DC2
100
AcDbEntity
  8
0
  6
ByBlock
440
 16777216
100
AcDbLine
 10
439.7223130981569
 20
4064.814411033821
 30
0.0
 11
439.7223130981569
 21
4362.896966628809
 31
0.0
  0
LINE
  5
7ED2
330
7DC2
100
AcDbEntity
  8
0
  6
ByBlock
440
 16777216
100
AcDbLine
 10
-680.2776869018434
 20
4064.814411033821
 30
0.0
 11
-680.2776869018434
 21
4362.896966628809
 31
0.0
  0
LINE
  5
7ED3
330
7DC2
100
AcDbEntity
  8
0
  6
ByBlock
440
 16777216
100
AcDbLine
 10
379.722313098157
 20
4332.896966628808
 30
0.0
 11
-620.2776869018435
 21
4332.896966628808
 31
0.0
  0
INSERT
  5
7ED4
330
7DC2
100
AcDbEntity
  8
0
  6
ByBlock
440
 16777216
100
AcDbBlockReference
  2
_OPEN
 10
439.7223130981569
 20
4332.896966628808
 30
0.0
 41
60.0
 42
60.0
 43
60.0
  0
INSERT
  5
7ED5
330
7DC2
100
AcDbEntity
  8
0
  6
ByBlock
440
 16777216
100
AcDbBlockReference
  2
_OPEN
 10
-680.2776869018434
 20
4332.896966628808
 30
0.0
 41
60.0
 42
60.0
 43
60.0
 50
180.0
  0
MTEXT
  5
7ED6
330
7DC2
100
AcDbEntity
  8
0
  6
ByBlock
440
 16777216
100
AcDbMText
 10
-120.2776869018432
 20
4392.896966628808
 30
0.0
 40
90.0
 41
0.0
 46
0.0
 71
     5
 72
     5
  1
\A1;1120
 73
     1
 44
1.0
  0
POINT
  5
7ED7
330
7DC2
100
AcDbEntity
  8
DEFPOINTS
  6
ByBlock
 62
     0
440
 16777216
100
AcDbPoint
 10
439.7223130981569
 20
4034.814411033821
 30
0.0
  0
POINT
  5
7ED8
330
7DC2
100
AcDbEntity
  8
DEFPOINTS
  6
ByBlock
 62
     0
440
 16777216
100
AcDbPoint
 10
-680.2776869018434
 20
4034.814411033821
 30
0.0
  0
POINT
  5
7ED9
330
7DC2
100
AcDbEntity
  8
DEFPOINTS
  6
ByBlock
 62
     0
440
 16777216
100
AcDbPoint
 10
-680.2776869018434
 20
4332.896966628808
 30
0.0
  0
ENDBLK
  5
7EDA
330
7DC2
100
AcDbEntity
  8
0
100
AcDbBlockEnd
  0
BLOCK
  5
7F95
330
7DDB
100
AcDbEntity
  8
0
100
AcDbBlockBegin
  2
*D21
 70
     1
 10
0.0
 20
0.0
 30
0.0
  3
*D21
  1

  0
LINE
  5
8131
330
7DDB
100
AcDbEntity
  8
3
 62
     0
440
 16777216
370
    -2
100
AcDbLine
 10
1384.774027287853
 20
2100.758254553209
 30
0.0
 11
1009.815618746781
 21
2100.75825455321
 31
0.0
  0
LINE
  5
8132
330
7DDB
100
AcDbEntity
  8
3
 62
     0
440
 16777216
370
    -2
100
AcDbLine
 10
1384.774027287853
 20
2035.75825455321
 30
0.0
 11
1009.815618746781
 21
2035.75825455321
 31
0.0
  0
LINE
  5
8133
330
7DDB
100
AcDbEntity
  8
3
 62
     0
440
 16777216
370
    -2
100
AcDbLine
 10
1039.815618746781
 20
2160.75825455321
 30
0.0
 11
1039.815618746781
 21
2220.75825455321
 31
0.0
  0
LINE
  5
8134
330
7DDB
100
AcDbEntity
  8
3
 62
     0
440
 16777216
370
    -2
100
AcDbLine
 10
1039.815618746781
 20
1975.758254553209
 30
0.0
 11
1039.815618746781
 21
1710.043968838923
 31
0.0
  0
LINE
  5
8135
330
7DDB
100
AcDbEntity
  8
3
 62
     0
440
 16777216
370
    -2
100
AcDbLine
 10
1039.815618746781
 20
2100.758254553209
 30
0.0
 11
1039.815618746781
 21
2035.75825455321
 31
0.0
  0
INSERT
  5
8136
330
7DDB
100
AcDbEntity
  8
3
 62
     0
440
 16777216
370
    -2
100
AcDbBlockReference
  2
_DOT
 10
1039.815618746781
 20
2100.758254553209
 30
0.0
 41
60.0
 42
60.0
 43
60.0
 50
270.0
  0
INSERT
  5
8137
330
7DDB
100
AcDbEntity
  8
3
 62
     0
440
 16777216
370
    -2
100
AcDbBlockReference
  2
_OPEN
 10
1039.815618746781
 20
2035.75825455321
 30
0.0
 41
60.0
 42
60.0
 43
60.0
 50
90.0
  0
MTEXT
  5
8138
330
7DDB
100
AcDbEntity
  8
3
 62
     0
440
 16777216
100
AcDbMText
 10
964.8156187467808
 20
1812.901111696067
 30
0.0
 40
90.0
 41
0.0
 46
0.0
 71
     5
 72
     1
  1
\A1;65
 11
0.0000000000000001
 21
1.0
 31
0.0
 73
     1
 44
1.0
  0
POINT
  5
8139
330
7DDB
100
AcDbEntity
  8
DEFPOINTS
 62
     0
440
 16777216
100
AcDbPoint
 10
1399.774027287852
 20
2100.758254553209
 30
0.0
  0
POINT
  5
813A
330
7DDB
100
AcDbEntity
  8
DEFPOINTS
 62
     0
440
 16777216
100
AcDbPoint
 10
1399.774027287852
 20
2035.75825455321
 30
0.0
  0
POINT
  5
813B
330
7DDB
100
AcDbEntity
  8
DEFPOINTS
 62
     0
440
 16777216
100
AcDbPoint
 10
1039.815618746781
 20
2035.75825455321
 30
0.0
  0
ENDBLK
  5
7FA1
330
7DDB
100
AcDbEntity
  8
0
100
AcDbBlockEnd
  0
BLOCK
  5
7F84
330
7F7E
100
AcDbEntity
  8
0
100
AcDbBlockBegin
  2
_DOT
 70
     0
 10
0.0
 20
0.0
 30
0.0
  3
_DOT
  1

  0
LWPOLYLINE
  5
7F7F
330
7F7E
100
AcDbEntity
  8
0
  6
ByBlock
 62
     0
100
AcDbPolyline
 90
        2
 70
     1
 43
0.25
 10
-0.125
 20
0.0
 42
1.0
 10
0.125
 20
0.0
 42
1.0
  0
LINE
  5
7F83
330
7F7E
100
AcDbEntity
  8
0
  6
ByBlock
 62
     0
100
AcDbLine
 10
-0.25
 20
0.0
 30
0.0
 11
-1.0
 21
0.0
 31
0.0
  0
ENDBLK
  5
7F85
330
7F7E
100
AcDbEntity
  8
0
100
AcDbBlockEnd
  0
BLOCK
  5
7FE8
330
7FE7
100
AcDbEntity
  8
0
100
AcDbBlockBegin
  2
_NONE
 70
     0
 10
0.0
 20
0.0
 30
0.0
  3
_NONE
  1

  0
CIRCLE
  5
7FE9
330
7FE7
100
AcDbEntity
  8
0
  6
ByBlock
 62
     0
100
AcDbCircle
 10
0.0
 20
0.0
 30
0.0
 40
0.25
  0
ENDBLK
  5
7FEA
330
7FE7
100
AcDbEntity
  8
0
100
AcDbBlockEnd
  0
BLOCK
  5
8013
330
7FEB
100
AcDbEntity
  8
0
100
AcDbBlockBegin
  2
*D24
 70
     1
 10
0.0
 20
0.0
 30
0.0
  3
*D24
  1

  0
LINE
  5
80FF
330
7FEB
100
AcDbEntity
  8
3
 62
     0
440
 16777216
370
    -2
100
AcDbLine
 10
1036.673925695719
 20
2100.758254553209
 30
0.0
 11
1036.673925695719
 21
2205.758254553209
 31
0.0
  0
MTEXT
  5
8100
330
7FEB
100
AcDbEntity
  8
3
 62
     0
440
 16777216
100
AcDbMText
 10
893.10249712429
 20
2153.25825455321
 30
0.0
 40
90.0
 41
0.0
 46
0.0
 71
     5
 72
     1
  1
\A1;  (105)
 11
0.0000000000000001
 21
1.0
 31
0.0
 73
     1
 44
1.0
  0
POINT
  5
8101
330
7FEB
100
AcDbEntity
  8
DEFPOINTS
 62
     0
440
 16777216
100
AcDbPoint
 10
1399.774027287852
 20
2100.758254553209
 30
0.0
  0
POINT
  5
8102
330
7FEB
100
AcDbEntity
  8
DEFPOINTS
 62
     0
440
 16777216
100
AcDbPoint
 10
1399.774027287854
 20
2205.758254553209
 30
0.0
  0
POINT
  5
8103
330
7FEB
100
AcDbEntity
  8
DEFPOINTS
 62
     0
440
 16777216
100
AcDbPoint
 10
1036.673925695719
 20
2205.758254553209
 30
0.0
  0
ENDBLK
  5
8019
330
7FEB
100
AcDbEntity
  8
0
100
AcDbBlockEnd
  0
BLOCK
  5
7FF5
330
7FF4
100
AcDbEntity
  8
0
100
AcDbBlockBegin
  2
*D25
 70
     1
 10
0.0
 20
0.0
 30
0.0
  3
*D25
  1

  0
LINE
  5
8104
330
7FF4
100
AcDbEntity
  8
3
 62
     0
440
 16777216
370
    -2
100
AcDbLine
 10
1324.774027287854
 20
3846.75825455321
 30
0.0
 11
740.5262167963087
 21
3846.75825455321
 31
0.0
  0
LINE
  5
8105
330
7FF4
100
AcDbEntity
  8
3
 62
     0
440
 16777216
370
    -2
100
AcDbLine
 10
1384.774027287853
 20
2035.75825455321
 30
0.0
 11
740.5262167963083
 21
2035.75825455321
 31
0.0
  0
LINE
  5
8106
330
7FF4
100
AcDbEntity
  8
3
 62
     0
440
 16777216
370
    -2
100
AcDbLine
 10
770.5262167963086
 20
3786.75825455321
 30
0.0
 11
770.5262167963082
 21
2095.75825455321
 31
0.0
  0
INSERT
  5
8107
330
7FF4
100
AcDbEntity
  8
3
 62
     0
440
 16777216
370
    -2
100
AcDbBlockReference
  2
_OPEN
 10
770.5262167963087
 20
3846.75825455321
 30
0.0
 41
60.0
 42
60.0
 43
60.0
 50
90.0
  0
INSERT
  5
8108
330
7FF4
100
AcDbEntity
  8
3
 62
     0
440
 16777216
370
    -2
100
AcDbBlockReference
  2
_OPEN
 10
770.5262167963082
 20
2035.75825455321
 30
0.0
 41
60.0
 42
60.0
 43
60.0
 50
270.0
  0
MTEXT
  5
8109
330
7FF4
100
AcDbEntity
  8
3
 62
     0
440
 16777216
100
AcDbMText
 10
671.9547882248795
 20
2941.25825455321
 30
0.0
 40
90.0
 41
0.0
 46
0.0
 71
     5
 72
     1
  1
\A1;(1811)
 11
0.0000000000000001
 21
1.0
 31
0.0
 73
     1
 44
1.0
  0
POINT
  5
810A
330
7FF4
100
AcDbEntity
  8
DEFPOINTS
 62
     0
440
 16777216
100
AcDbPoint
 10
1339.774027287854
 20
3846.75825455321
 30
0.0
  0
POINT
  5
810B
330
7FF4
100
AcDbEntity
  8
DEFPOINTS
 62
     0
440
 16777216
100
AcDbPoint
 10
1399.774027287852
 20
2035.75825455321
 30
0.0
  0
POINT
  5
810C
330
7FF4
100
AcDbEntity
  8
DEFPOINTS
 62
     0
440
 16777216
100
AcDbPoint
 10
770.5262167963082
 20
2035.75825455321
 30
0.0
  0
ENDBLK
  5
7FFF
330
7FF4
100
AcDbEntity
  8
0
100
AcDbBlockEnd
  0
BLOCK
  5
80C3
330
80C2
100
AcDbEntity
  8
0
100
AcDbBlockBegin
  2
*D26
 70
     1
 10
0.0
 20
0.0
 30
0.0
  3
*D26
  1

  0
LINE
  5
80ED
330
80C2
100
AcDbEntity
  8
3
 62
     0
440
 16777216
370
    -2
100
AcDbLine
 10
3988.729016355526
 20
3120.758254553209
 30
0.0
 11
3988.729016355526
 21
4295.963993458419
 31
0.0
  0
LINE
  5
80EE
330
80C2
100
AcDbEntity
  8
3
 62
     0
440
 16777216
370
    -2
100
AcDbLine
 10
4958.729016355529
 20
4157.701820165867
 30
0.0
 11
4958.729016355529
 21
4295.963993458419
 31
0.0
  0
LINE
  5
80EF
330
80C2
100
AcDbEntity
  8
3
 62
     0
440
 16777216
370
    -2
100
AcDbLine
 10
4048.729016355526
 20
4265.963993458419
 30
0.0
 11
4898.729016355529
 21
4265.963993458419
 31
0.0
  0
INSERT
  5
80F0
330
80C2
100
AcDbEntity
  8
3
 62
     0
440
 16777216
370
    -2
100
AcDbBlockReference
  2
_OPEN
 10
3988.729016355526
 20
4265.963993458419
 30
0.0
 41
60.0
 42
60.0
 43
60.0
 50
180.0
  0
INSERT
  5
80F1
330
80C2
100
AcDbEntity
  8
3
 62
     0
440
 16777216
370
    -2
100
AcDbBlockReference
  2
_OPEN
 10
4958.729016355529
 20
4265.963993458419
 30
0.0
 41
60.0
 42
60.0
 43
60.0
  0
MTEXT
  5
80F2
330
80C2
100
AcDbEntity
  8
3
 62
     0
440
 16777216
100
AcDbMText
 10
4473.729016355528
 20
4364.535422029848
 30
0.0
 40
90.0
 41
0.0
 46
0.0
 71
     5
 72
     1
  1
\A1;(970)
 73
     1
 44
1.0
  0
POINT
  5
80F3
330
80C2
100
AcDbEntity
  8
DEFPOINTS
 62
     0
440
 16777216
100
AcDbPoint
 10
3988.729016355526
 20
3105.75825455321
 30
0.0
  0
POINT
  5
80F4
330
80C2
100
AcDbEntity
  8
DEFPOINTS
 62
     0
440
 16777216
100
AcDbPoint
 10
4958.729016355529
 20
4142.701820165868
 30
0.0
  0
POINT
  5
80F5
330
80C2
100
AcDbEntity
  8
DEFPOINTS
 62
     0
440
 16777216
100
AcDbPoint
 10
4958.729016355529
 20
4265.963993458419
 30
0.0
  0
ENDBLK
  5
80C4
330
80C2
100
AcDbEntity
  8
0
100
AcDbBlockEnd
  0
BLOCK
  5
80D0
330
80CF
100
AcDbEntity
  8
0
100
AcDbBlockBegin
  2
*D27
 70
     1
 10
0.0
 20
0.0
 30
0.0
  3
*D27
  1

  0
LINE
  5
80F6
330
80CF
100
AcDbEntity
  8
3
 62
     0
440
 16777216
370
    -2
100
AcDbLine
 10
4958.729016355529
 20
4157.701820165867
 30
0.0
 11
4958.729016355529
 21
4295.963993458419
 31
0.0
  0
LINE
  5
80F7
330
80CF
100
AcDbEntity
  8
3
 62
     0
440
 16777216
370
    -2
100
AcDbLine
 10
5678.229016355527
 20
2861.25825455321
 30
0.0
 11
5678.229016355527
 21
4295.963993458419
 31
0.0
  0
LINE
  5
80F8
330
80CF
100
AcDbEntity
  8
3
 62
     0
440
 16777216
370
    -2
100
AcDbLine
 10
5018.729016355528
 20
4265.963993458419
 30
0.0
 11
5618.229016355527
 21
4265.963993458419
 31
0.0
  0
INSERT
  5
80F9
330
80CF
100
AcDbEntity
  8
3
 62
     0
440
 16777216
370
    -2
100
AcDbBlockReference
  2
_OPEN
 10
4958.729016355529
 20
4265.963993458419
 30
0.0
 41
60.0
 42
60.0
 43
60.0
 50
180.0
  0
INSERT
  5
80FA
330
80CF
100
AcDbEntity
  8
3
 62
     0
440
 16777216
370
    -2
100
AcDbBlockReference
  2
_OPEN
 10
5678.229016355527
 20
4265.963993458419
 30
0.0
 41
60.0
 42
60.0
 43
60.0
  0
MTEXT
  5
80FB
330
80CF
100
AcDbEntity
  8
3
 62
     0
440
 16777216
100
AcDbMText
 10
5318.479016355528
 20
4364.535422029848
 30
0.0
 40
90.0
 41
0.0
 46
0.0
 71
     5
 72
     1
  1
\A1;(720)
 73
     1
 44
1.0
  0
POINT
  5
80FC
330
80CF
100
AcDbEntity
  8
DEFPOINTS
 62
     0
440
 16777216
100
AcDbPoint
 10
4958.729016355529
 20
4142.701820165868
 30
0.0
  0
POINT
  5
80FD
330
80CF
100
AcDbEntity
  8
DEFPOINTS
 62
     0
440
 16777216
100
AcDbPoint
 10
5678.229016355527
 20
2846.25825455321
 30
0.0
  0
POINT
  5
80FE
330
80CF
100
AcDbEntity
  8
DEFPOINTS
 62
     0
440
 16777216
100
AcDbPoint
 10
5678.229016355527
 20
4265.963993458419
 30
0.0
  0
ENDBLK
  5
80D1
330
80CF
100
AcDbEntity
  8
0
100
AcDbBlockEnd
  0
ENDSEC
  0
SECTION
  2
ENTITIES
  0
INSERT
  5
7C03
330
19
100
AcDbEntity
  8
0
100
AcDbBlockReference
  2
YA_N
 10
6.0
 20
5.0
 30
0.0
  0
LINE
  5
7C05
330
19
100
AcDbEntity
  8
2
100
AcDbLine
 10
4068.14991770983
 20
2885.75825455321
 30
0.0
 11
5669.248664113265
 21
2885.75825455321
 31
0.0
  0
INSERT
  5
7C07
330
19
100
AcDbEntity
  8
0
100
AcDbBlockReference
  2
YA_N
 10
-1638.667820090515
 20
-980.7401201518077
 30
0.0
 41
20.0
 42
20.0
 43
20.0
  0
INSERT
  5
7C09
330
19
100
AcDbEntity
  8
0
100
AcDbBlockReference
  2
YA_N
 10
-1552.816625123014
 20
-1070.405552057982
 30
0.0
 41
20.0
 42
20.0
 43
20.0
  0
LINE
  5
7C0B
330
19
100
AcDbEntity
  8
2
100
AcDbLine
 10
3988.729016355529
 20
2605.75825455321
 30
0.0
 11
4772.229016355526
 21
2605.75825455321
 31
0.0
  0
LINE
  5
7C11
330
19
100
AcDbEntity
  8
1
100
AcDbLine
 10
4215.729016355527
 20
2790.75825455321
 30
0.0
 11
4215.729016355524
 21
2420.75825455321
 31
0.0
  0
LINE
  5
7C12
330
19
100
AcDbEntity
  8
1
100
AcDbLine
 10
4215.729016355527
 20
2790.75825455321
 30
0.0
 11
4772.229016355526
 21
2790.758254553211
 31
0.0
  0
LINE
  5
7C13
330
19
100
AcDbEntity
  8
1
100
AcDbLine
 10
4215.729016355524
 20
2420.75825455321
 30
0.0
 11
4772.229016355524
 21
2420.75825455321
 31
0.0
  0
LINE
  5
7C14
330
19
100
AcDbEntity
  8
1
100
AcDbLine
 10
4205.729016355526
 20
2630.75825455321
 30
0.0
 11
4215.729016355527
 21
2630.75825455321
 31
0.0
  0
LINE
  5
7C15
330
19
100
AcDbEntity
  8
1
100
AcDbLine
 10
4205.729016355526
 20
2580.75825455321
 30
0.0
 11
4215.729016355525
 21
2580.75825455321
 31
0.0
  0
DIMENSION
  5
7C17
330
19
100
AcDbEntity
  8
3
100
AcDbDimension
280
     0
  2
*D2
 10
5892.877236095054
 20
3335.75825455321
 30
0.0
 11
5832.877236095054
 21
2885.75825455321
 31
0.0
 12
1493.923187744065
 22
2605.580159138746
 32
0.0
 70
    32
  1
φ<>
 71
     5
 42
-1.0
 73
     0
 74
     0
 75
     0
  3
MATSU
100
AcDbAlignedDimension
 13
5554.229016355527
 23
2435.75825455321
 33
0.0
 14
5554.229016355529
 24
3335.75825455321
 34
0.0
 50
90.0
100
AcDbRotatedDimension
1001
ACAD
1000
DSTYLE
1002
{
1070
    40
1040
30.0
1002
}
  0
LINE
  5
7C18
330
19
100
AcDbEntity
  8
1
100
AcDbLine
 10
3988.729016355526
 20
3105.75825455321
 30
0.0
 11
3988.729016355531
 21
2385.75825455321
 31
0.0
  0
LINE
  5
7C19
330
19
100
AcDbEntity
  8
1
100
AcDbLine
 10
4205.729016355529
 20
3004.758254553209
 30
0.0
 11
4205.729016355524
 21
2486.75825455321
 31
0.0
  0
LINE
  5
7C1A
330
19
100
AcDbEntity
  8
1
100
AcDbLine
 10
4095.729016355529
 20
3004.758254553209
 30
0.0
 11
4095.729016355524
 21
2486.75825455321
 31
0.0
  0
DIMENSION
  5
7C1C
330
19
100
AcDbEntity
  8
3
100
AcDbDimension
280
     0
  2
*D3
 10
5616.729016355527
 20
1828.222379978286
 30
0.0
 11
5287.729016355527
 21
1888.222379978286
 31
0.0
 70
    32
 71
     5
 42
658.0
 73
     0
 74
     0
 75
     0
  3
MATSU
100
AcDbAlignedDimension
 13
4958.729016355527
 23
2035.75825455321
 33
0.0
 14
5616.729016355527
 24
2035.75825455321
 34
0.0
100
AcDbRotatedDimension
1001
ACAD
1000
DSTYLE
1002
{
1070
    40
1040
30.0
1002
}
  0
LINE
  5
7C1D
330
19
100
AcDbEntity
  8
1
100
AcDbLine
 10
4116.729016355527
 20
2035.75825455321
 30
0.0
 11
5616.729016355527
 21
2035.75825455321
 31
0.0
  0
LINE
  5
7C1E
330
19
100
AcDbEntity
  8
1
100
AcDbLine
 10
4116.729016355527
 20
2100.758254553209
 30
0.0
 11
5616.729016355527
 21
2100.758254553209
 31
0.0
1001
ACAD
1000
ASC_BOUNDS
1002
{
1070
    19
1002
}
  0
LINE
  5
7C1F
330
19
100
AcDbEntity
  8
1
100
AcDbLine
 10
4116.429016355527
 20
2330.758254553209
 30
0.0
 11
5616.729016355527
 21
2330.758254553209
 31
0.0
  0
DIMENSION
  5
7C20
330
19
100
AcDbEntity
  8
3
100
AcDbDimension
280
     0
  2
*D4
 10
4958.729016355527
 20
1828.222379978286
 30
0.0
 11
4537.729016355528
 21
1888.222379978286
 31
0.0
 70
    32
 71
     5
 42
841.9999999999991
 73
     0
 74
     0
 75
     0
  3
MATSU
100
AcDbAlignedDimension
 13
4116.729016355527
 23
2035.75825455321
 33
0.0
 14
4958.729016355527
 24
2035.75825455321
 34
0.0
100
AcDbRotatedDimension
1001
ACAD
1000
DSTYLE
1002
{
1070
    40
1040
30.0
1002
}
  0
LINE
  5
7C21
330
19
100
AcDbEntity
  8
1
100
AcDbLine
 10
4116.729016355527
 20
2100.758254553209
 30
0.0
 11
4116.729016355527
 21
2035.75825455321
 31
0.0
  0
LINE
  5
7C22
330
19
100
AcDbEntity
  8
1
100
AcDbLine
 10
4116.729016355527
 20
2330.758254553209
 30
0.0
 11
4116.729016355529
 21
2205.758254553209
 31
0.0
  0
LINE
  5
7C23
330
19
100
AcDbEntity
  8
1
100
AcDbLine
 10
3988.729016355531
 20
2385.75825455321
 30
0.0
 11
4230.729016355531
 21
2385.75825455321
 31
0.0
  0
LINE
  5
7C24
330
19
100
AcDbEntity
  8
1
100
AcDbLine
 10
4095.729016355524
 20
2486.75825455321
 30
0.0
 11
4205.729016355524
 21
2486.75825455321
 31
0.0
  0
LINE
  5
7C25
330
19
100
AcDbEntity
  8
1
100
AcDbLine
 10
4230.729016355531
 20
2405.75825455321
 30
0.0
 11
4230.729016355531
 21
2385.75825455321
 31
0.0
  0
LINE
  5
7C26
330
19
100
AcDbEntity
  8
1
100
AcDbLine
 10
5616.729016355527
 20
2100.758254553209
 30
0.0
 11
5616.729016355527
 21
2035.75825455321
 31
0.0
  0
LINE
  5
7C27
330
19
100
AcDbEntity
  8
1
100
AcDbLine
 10
4116.729016355527
 20
2205.758254553209
 30
0.0
 11
5616.729016355527
 21
2205.758254553209
 31
0.0
  0
LINE
  5
7C28
330
19
100
AcDbEntity
  8
1
100
AcDbLine
 10
5616.729016355527
 20
2330.758254553209
 30
0.0
 11
5616.729016355527
 21
2205.758254553209
 31
0.0
  0
DIMENSION
  5
7C29
330
19
100
AcDbEntity
  8
3
100
AcDbDimension
280
     0
  2
*D5
 10
5548.729016355527
 20
4037.701820165868
 30
0.0
 11
4958.729016355528
 21
4097.701820165869
 31
0.0
 12
1493.923187744065
 22
2605.580159138746
 32
0.0
 70
    32
 71
     5
 42
-1.0
 73
     0
 74
     0
 75
     0
  3
MATSU
100
AcDbAlignedDimension
 13
4368.729016355528
 23
3889.25825455321
 33
0.0
 14
5548.729016355527
 24
3889.25825455321
 34
0.0
100
AcDbRotatedDimension
1001
ACAD
1000
DSTYLE
1002
{
1070
    40
1040
30.0
1002
}
  0
LINE
  5
7C2B
330
19
100
AcDbEntity
  8
1
100
AcDbLine
 10
4958.729016355529
 20
3846.75825455321
 30
0.0
 11
5548.729016355527
 21
3846.75825455321
 31
0.0
  0
LINE
  5
7C2C
330
19
100
AcDbEntity
  8
1
100
AcDbLine
 10
4368.729016355528
 20
3846.758254553209
 30
0.0
 11
4368.729016355528
 21
2790.75825455321
 31
0.0
  0
LINE
  5
7C2E
330
19
100
AcDbEntity
  8
1
100
AcDbLine
 10
4230.729016355527
 20
2824.75825455321
 30
0.0
 11
4230.729016355527
 21
2790.75825455321
 31
0.0
  0
LINE
  5
7C2F
330
19
100
AcDbEntity
  8
1
100
AcDbLine
 10
4095.729016355526
 20
2724.75825455321
 30
0.0
 11
4205.729016355526
 21
2724.75825455321
 31
0.0
  0
LINE
  5
7C30
330
19
100
AcDbEntity
  8
1
100
AcDbLine
 10
4095.729016355526
 20
2766.75825455321
 30
0.0
 11
4205.729016355527
 21
2766.75825455321
 31
0.0
  0
LINE
  5
7C31
330
19
100
AcDbEntity
  8
1
100
AcDbLine
 10
4095.729016355529
 20
3004.758254553209
 30
0.0
 11
4205.729016355529
 21
3004.758254553209
 31
0.0
  0
LINE
  5
7C32
330
19
100
AcDbEntity
  8
1
100
AcDbLine
 10
4210.729016355528
 20
2920.75825455321
 30
0.0
 11
4210.729016355528
 21
2850.758254553209
 31
0.0
  0
LINE
  5
7C33
330
19
100
AcDbEntity
  8
1
100
AcDbLine
 10
4237.729016355528
 20
2936.55825455321
 30
0.0
 11
4237.729016355528
 21
2834.29764656738
 31
0.0
  0
LINE
  5
7C34
330
19
100
AcDbEntity
  8
1
100
AcDbLine
 10
4240.729016355528
 20
2834.758254553209
 30
0.0
 11
4368.729016355529
 21
2834.758254553209
 31
0.0
  0
LINE
  5
7C35
330
19
100
AcDbEntity
  8
1
100
AcDbLine
 10
4210.729016355528
 20
2850.758254553209
 30
0.0
 11
4237.729016355528
 21
2850.758254553209
 31
0.0
  0
LINE
  5
7C36
330
19
100
AcDbEntity
  8
1
100
AcDbLine
 10
4205.729016355528
 20
2858.25825455321
 30
0.0
 11
4210.729016355528
 21
2858.25825455321
 31
0.0
  0
ARC
  5
7C37
330
19
100
AcDbEntity
  8
1
100
AcDbCircle
 10
4240.729016355528
 20
2824.75825455321
 30
0.0
 40
10.0
100
AcDbArc
 50
90.0
 51
180.0000000000003
  0
LINE
  5
7C38
330
19
100
AcDbEntity
  8
1
100
AcDbLine
 10
4210.729016355528
 20
2920.75825455321
 30
0.0
 11
4237.729016355528
 21
2920.75825455321
 31
0.0
  0
LINE
  5
7C39
330
19
100
AcDbEntity
  8
1
100
AcDbLine
 10
4205.729016355528
 20
2913.258254553209
 30
0.0
 11
4210.729016355528
 21
2913.258254553209
 31
0.0
  0
LINE
  5
7C3A
330
19
100
AcDbEntity
  8
1
100
AcDbLine
 10
4237.729016355528
 20
2936.55825455321
 30
0.0
 11
4368.729016355528
 21
2936.55825455321
 31
0.0
  0
LINE
  5
7C3B
330
19
100
AcDbEntity
  8
1
100
AcDbLine
 10
3988.729016355526
 20
3105.75825455321
 30
0.0
 11
4230.729016355527
 21
3105.75825455321
 31
0.0
  0
POINT
  5
7C3C
330
19
100
AcDbEntity
  8
1
100
AcDbPoint
 10
3988.729016355526
 20
3105.75825455321
 30
0.0
  0
LINE
  5
7C3D
330
19
100
AcDbEntity
  8
1
100
AcDbLine
 10
4230.729016355526
 20
3105.758254553211
 30
0.0
 11
4230.729016355527
 21
3085.75825455321
 31
0.0
  0
LINE
  5
7C3E
330
19
100
AcDbEntity
  8
1
100
AcDbLine
 10
4958.729016355527
 20
3846.75825455321
 30
0.0
 11
4368.729016355528
 21
3846.75825455321
 31
0.0
  0
LINE
  5
7C3F
330
19
100
AcDbEntity
  8
1
100
AcDbLine
 10
5548.729016355527
 20
3846.75825455321
 30
0.0
 11
5548.729016355526
 21
2330.758254553209
 31
0.0
  0
ARC
  5
7C40
330
19
100
AcDbEntity
  8
1
100
AcDbCircle
 10
5668.229016355527
 20
2746.25825455321
 30
0.0
 40
10.0
100
AcDbArc
 50
270.0
 51
0.0000000000003257
  0
ARC
  5
7C41
330
19
100
AcDbEntity
  8
1
100
AcDbCircle
 10
5668.229016355527
 20
2846.25825455321
 30
0.0
 40
10.0
100
AcDbArc
 50
0.0000000000003257
 51
90.0
  0
LINE
  5
7C42
330
19
100
AcDbEntity
  8
1
100
AcDbLine
 10
5548.729016355526
 20
2736.25825455321
 30
0.0
 11
5668.229016355527
 21
2736.25825455321
 31
0.0
  0
LINE
  5
7C43
330
19
100
AcDbEntity
  8
1
100
AcDbLine
 10
5548.729016355526
 20
2856.25825455321
 30
0.0
 11
5668.229016355527
 21
2856.25825455321
 31
0.0
  0
LINE
  5
7C44
330
19
100
AcDbEntity
  8
1
100
AcDbLine
 10
5678.229016355527
 20
2846.25825455321
 30
0.0
 11
5678.229016355527
 21
2746.25825455321
 31
0.0
  0
POINT
  5
7C45
330
19
100
AcDbEntity
  8
1
100
AcDbPoint
 10
5678.229016355527
 20
2846.25825455321
 30
0.0
  0
LINE
  5
7C4A
330
19
100
AcDbEntity
  8
2
100
AcDbLine
 10
4958.729016355529
 20
4027.960095101892
 30
0.0
 11
4958.729016355528
 21
2035.75825455321
 31
0.0
  0
DIMENSION
  5
7C4B
330
19
100
AcDbEntity
  8
3
100
AcDbDimension
280
     0
  2
*D8
 10
1339.774027287854
 20
4221.944062916239
 30
0.0
 11
2369.774027287854
 21
4281.944062916237
 31
0.0
 12
2080.051714189696
 22
2605.580159138746
 32
0.0
 70
    32
 71
     5
 42
-1.0
 73
     0
 74
     0
 75
     0
  3
MATSU
100
AcDbAlignedDimension
 13
3399.774027287853
 23
2330.758254553209
 33
0.0
 14
1339.774027287854
 24
3889.25825455321
 34
0.0
100
AcDbRotatedDimension
1001
ACAD
1000
DSTYLE
1002
{
1070
    40
1040
30.0
1002
}
  0
DIMENSION
  5
7C4D
330
19
100
AcDbEntity
  8
3
100
AcDbDimension
280
     0
  2
*D9
 10
1959.774027287854
 20
1832.332155931801
 30
0.0
 11
2679.774027287855
 21
1892.332155931801
 31
0.0
 70
    32
 71
     5
 42
1440.0
 73
     0
 74
     0
 75
     0
  3
MATSU
100
AcDbAlignedDimension
 13
3399.774027287854
 23
2035.75825455321
 33
0.0
 14
1959.774027287854
 24
2035.75825455321
 34
0.0
100
AcDbRotatedDimension
1001
ACAD
1000
DSTYLE
1002
{
1070
    40
1040
30.0
1002
}
  0
LINE
  5
7C4E
330
19
100
AcDbEntity
  8
1
100
AcDbLine
 10
1909.783511854442
 20
2671.513188410016
 30
0.0
 11
3109.783511854442
 21
2391.513188410015
 31
0.0
  0
LINE
  5
7C4F
330
19
100
AcDbEntity
  8
1
100
AcDbLine
 10
1932.73370303069
 20
2769.871150593937
 30
0.0
 11
3132.73370303069
 21
2489.871150593936
 31
0.0
  0
LINE
  5
7C50
330
19
100
AcDbEntity
  8
1
100
AcDbLine
 10
1986.814351545017
 20
3001.645358512483
 30
0.0
 11
3186.814351545018
 21
2721.645358512483
 31
0.0
  0
LINE
  5
7C51
330
19
100
AcDbEntity
  8
1
100
AcDbLine
 10
2009.764542721267
 20
3100.003320696404
 30
0.0
 11
3209.764542721267
 21
2820.003320696404
 31
0.0
  0
DIMENSION
  5
7C52
330
19
100
AcDbEntity
  8
3
100
AcDbDimension
280
     0
  2
*D10
 10
2733.605690415646
 20
4040.395864258266
 30
0.0
 11
2346.689858851751
 21
4100.395864258266
 31
0.0
 12
2080.051714189696
 22
2605.580159138746
 32
0.0
 70
    32
  1
777
 71
     5
 42
-1.0
 73
     0
 74
     0
 75
     0
  3
MATSU
100
AcDbAlignedDimension
 13
1959.774027287854
 23
3887.720696896767
 33
0.0
 14
2733.605690415646
 24
2885.75825455321
 34
0.0
100
AcDbRotatedDimension
1001
ACAD
1000
DSTYLE
1002
{
1070
    40
1040
30.0
1002
}
  0
LINE
  5
7C53
330
19
100
AcDbEntity
  8
1
100
AcDbLine
 10
3399.774027287854
 20
2035.75825455321
 30
0.0
 11
1399.774027287852
 21
2035.75825455321
 31
0.0
  0
LINE
  5
7C54
330
19
100
AcDbEntity
  8
1
100
AcDbLine
 10
3399.774027287854
 20
2100.758254553209
 30
0.0
 11
1399.774027287852
 21
2100.758254553209
 31
0.0
1001
ACAD
1000
ASC_BOUNDS
1002
{
1070
    19
1002
}
  0
LINE
  5
7C55
330
19
100
AcDbEntity
  8
1
100
AcDbLine
 10
3399.774027287853
 20
2330.758254553209
 30
0.0
 11
1399.774027287852
 21
2330.758254553209
 31
0.0
  0
LINE
  5
7C56
330
19
100
AcDbEntity
  8
1
100
AcDbLine
 10
3399.774027287853
 20
2205.758254553209
 30
0.0
 11
1399.774027287852
 21
2205.758254553209
 31
0.0
1001
ACAD
1000
ASC_BOUNDS
1002
{
1070
    19
1002
}
  0
ARC
  5
7C57
330
19
100
AcDbEntity
  8
1
100
AcDbCircle
 10
2026.774027287855
 20
2952.75825455321
 30
0.0
 40
710.0
100
AcDbArc
 50
298.8297595425644
 51
354.5851582938706
  0
ARC
  5
7C58
330
19
100
AcDbEntity
  8
1
100
AcDbCircle
 10
1892.774027287854
 20
2952.75825455321
 30
0.0
 40
844.0
100
AcDbArc
 50
355.446847612781
 51
85.44684761278096
  0
LINE
  5
7C59
330
19
100
AcDbEntity
  8
2
100
AcDbLine
 10
1303.518688509308
 20
2885.75825455321
 30
0.0
 11
2805.098781926547
 21
2885.75825455321
 31
0.0
  0
ARC
  5
7C5A
330
19
100
AcDbEntity
  8
1
100
AcDbCircle
 10
3159.774027287855
 20
2605.75825455321
 30
0.0
 40
220.0
100
AcDbArc
 50
256.8659776936037
 51
76.86597769360365
  0
CIRCLE
  5
7C5B
330
19
100
AcDbEntity
  8
1
100
AcDbCircle
 10
3159.774027287855
 20
2605.75825455321
 30
0.0
 40
119.0
  0
ARC
  5
7C5C
330
19
100
AcDbEntity
  8
1
100
AcDbCircle
 10
3159.774027287855
 20
2605.75825455321
 30
0.0
 40
185.0
100
AcDbArc
 50
287.945251
 51
252.054749
  0
LINE
  5
7C5D
330
19
100
AcDbEntity
  8
2
100
AcDbLine
 10
3159.774027287855
 20
2873.760745549313
 30
0.0
 11
3159.774027287854
 21
2035.75825455321
 31
0.0
  0
LINE
  5
7C5E
330
19
100
AcDbEntity
  8
1
100
AcDbLine
 10
3229.774027287855
 20
2415.75825455321
 30
0.0
 11
3089.774027287855
 21
2415.75825455321
 31
0.0
  0
LINE
  5
7C60
330
19
100
AcDbEntity
  8
1
100
AcDbLine
 10
3384.774027287855
 20
2370.758254553209
 30
0.0
 11
2934.774027287854
 21
2370.758254553209
 31
0.0
  0
LINE
  5
7C61
330
19
100
AcDbEntity
  8
2
100
AcDbLine
 10
3425.232719684109
 20
2605.75825455321
 30
0.0
 11
2944.931100834021
 21
2605.75825455321
 31
0.0
  0
LINE
  5
7C63
330
19
100
AcDbEntity
  8
1
100
AcDbLine
 10
3399.774027287853
 20
2330.758254553209
 30
0.0
 11
3399.774027287853
 21
2205.758254553209
 31
0.0
  0
LINE
  5
7C64
330
19
100
AcDbEntity
  8
1
100
AcDbLine
 10
3399.774027287854
 20
2100.758254553209
 30
0.0
 11
3399.774027287854
 21
2035.75825455321
 31
0.0
  0
LINE
  5
7C65
330
19
100
AcDbEntity
  8
1
100
AcDbLine
 10
3369.875565688977
 20
2425.75825455321
 30
0.0
 11
3229.774027287855
 21
2425.75825455321
 31
0.0
  0
LINE
  5
7C66
330
19
100
AcDbEntity
  8
1
100
AcDbLine
 10
3384.774027287855
 20
2370.758254553209
 30
0.0
 11
3369.875565688977
 21
2425.75825455321
 31
0.0
  0
LINE
  5
7C67
330
19
100
AcDbEntity
  8
1
100
AcDbLine
 10
3359.774027287855
 20
2370.758254553209
 30
0.0
 11
3359.774027287855
 21
2330.758254553209
 31
0.0
  0
LINE
  5
7C68
330
19
100
AcDbEntity
  8
1
100
AcDbLine
 10
3229.774027287855
 20
2425.75825455321
 30
0.0
 11
3229.774027287855
 21
2415.75825455321
 31
0.0
  0
LINE
  5
7C6A
330
19
100
AcDbEntity
  8
1
100
AcDbLine
 10
3321.774027287855
 20
2501.01728755321
 30
0.0
 11
3315.390116287854
 21
2505.71504155321
 31
0.0
  0
LINE
  5
7C6B
330
19
100
AcDbEntity
  8
1
100
AcDbLine
 10
3321.774027287855
 20
2501.01728755321
 30
0.0
 11
3321.774027287855
 21
2425.75825455321
 31
0.0
  0
LINE
  5
7C6C
330
19
100
AcDbEntity
  8
1
100
AcDbLine
 10
3102.774027287855
 20
2429.75825455321
 30
0.0
 11
3216.774027287855
 21
2429.75825455321
 31
0.0
  0
LINE
  5
7C6D
330
19
100
AcDbEntity
  8
1
100
AcDbLine
 10
3089.774027287855
 20
2425.75825455321
 30
0.0
 11
3089.774027287855
 21
2415.75825455321
 31
0.0
  0
LINE
  5
7C6E
330
19
100
AcDbEntity
  8
1
100
AcDbLine
 10
2934.774027287854
 20
2370.758254553209
 30
0.0
 11
2949.976343922367
 21
2425.75825455321
 31
0.0
  0
LINE
  5
7C70
330
19
100
AcDbEntity
  8
1
100
AcDbLine
 10
2959.774027287855
 20
2370.758254553209
 30
0.0
 11
2959.774027287855
 21
2330.758254553209
 31
0.0
  0
LINE
  5
7C71
330
19
100
AcDbEntity
  8
1
100
AcDbLine
 10
3089.774027287855
 20
2425.75825455321
 30
0.0
 11
2949.976343922367
 21
2425.75825455321
 31
0.0
  0
LINE
  5
7C72
330
19
100
AcDbEntity
  8
1
100
AcDbLine
 10
2997.774027287855
 20
2501.01728755321
 30
0.0
 11
3004.157999287854
 21
2505.71504155321
 31
0.0
  0
LINE
  5
7C73
330
19
100
AcDbEntity
  8
1
100
AcDbLine
 10
2997.774027287855
 20
2501.01728755321
 30
0.0
 11
2997.774027287855
 21
2425.75825455321
 31
0.0
  0
POINT
  5
7C74
330
19
100
AcDbEntity
  8
1
100
AcDbPoint
 10
2733.605690415647
 20
2885.75825455321
 30
0.0
  0
CIRCLE
  5
7C76
330
19
100
AcDbEntity
  8
1
100
AcDbCircle
 10
1959.774027287854
 20
2885.75825455321
 30
0.0
 40
490.0
  0
CIRCLE
  5
7C77
330
19
100
AcDbEntity
  8
1
100
AcDbCircle
 10
1959.774027287854
 20
2885.75825455321
 30
0.0
 40
450.0
  0
DIMENSION
  5
7C78
330
19
100
AcDbEntity
  8
3
100
AcDbDimension
280
     0
  2
*D11
 10
1039.815618746781
 20
2205.758254553209
 30
0.0
 11
979.8156187467812
 21
2545.75825455321
 31
0.0
 12
2080.051714189696
 22
2605.580159138746
 32
0.0
 70
    32
 71
     5
 42
-1.0
 73
     0
 74
     0
 75
     0
  3
MATSU
100
AcDbAlignedDimension
 13
1303.518688509308
 23
2885.75825455321
 33
0.0
 14
1399.774027287852
 24
2205.758254553209
 34
0.0
 50
90.0
100
AcDbRotatedDimension
1001
ACAD
1000
DSTYLE
1002
{
1070
    40
1040
30.0
1002
}
  0
ARC
  5
7C79
330
19
100
AcDbEntity
  8
1
100
AcDbCircle
 10
2013.274027287855
 20
2832.25825455321
 30
0.0
 40
589.5
100
AcDbArc
 50
174.7929639116505
 51
238.2901706598649
  0
LINE
  5
7C7A
330
19
100
AcDbEntity
  8
2
100
AcDbLine
 10
1959.774027287854
 20
3887.720696896767
 30
0.0
 11
1959.774027287854
 21
2035.75825455321
 31
0.0
  0
DIMENSION
  5
7C7B
330
19
100
AcDbEntity
  8
3
100
AcDbDimension
280
     0
  2
*D12
 10
1959.774027287854
 20
1832.248000054615
 30
0.0
 11
1679.774027287853
 21
1892.248000054615
 31
0.0
 70
    32
 71
     5
 42
560.0000000000018
 73
     0
 74
     0
 75
     0
  3
MATSU
100
AcDbAlignedDimension
 13
1399.774027287852
 23
2035.75825455321
 33
0.0
 14
1959.774027287854
 24
2035.75825455321
 34
0.0
100
AcDbRotatedDimension
1001
ACAD
1000
DSTYLE
1002
{
1070
    40
1040
30.0
1002
}
  0
LINE
  5
7C7C
330
19
100
AcDbEntity
  8
1
100
AcDbLine
 10
1694.774027287854
 20
2336.75825455321
 30
0.0
 11
1694.774027287854
 21
2330.758254553209
 31
0.0
  0
LINE
  5
7C7D
330
19
100
AcDbEntity
  8
1
100
AcDbLine
 10
1399.774027287854
 20
2330.758254553209
 30
0.0
 11
1399.774027287854
 21
2205.758254553209
 31
0.0
  0
LINE
  5
7C7E
330
19
100
AcDbEntity
  8
1
100
AcDbLine
 10
1399.774027287852
 20
2100.758254553209
 30
0.0
 11
1399.774027287852
 21
2035.75825455321
 31
0.0
  0
POINT
  5
7C7F
330
19
100
AcDbEntity
  8
1
100
AcDbPoint
 10
1399.774027287852
 20
2035.75825455321
 30
0.0
  0
POINT
  5
7C80
330
19
100
AcDbEntity
  8
1
100
AcDbPoint
 10
1399.774027287854
 20
2205.758254553209
 30
0.0
  0
POINT
  5
7C81
330
19
100
AcDbEntity
  8
1
100
AcDbPoint
 10
1399.774027287852
 20
2100.758254553209
 30
0.0
  0
POINT
  5
7C82
330
19
100
AcDbEntity
  8
1
100
AcDbPoint
 10
1399.774027287852
 20
2100.758254553209
 30
0.0
  0
POINT
  5
7C83
330
19
100
AcDbEntity
  8
1
100
AcDbPoint
 10
1039.585086504272
 20
2035.75825455321
 30
0.0
  0
DIMENSION
  5
7C84
330
19
100
AcDbEntity
  8
3
100
AcDbDimension
280
     0
  2
*D13
 10
1959.774027287854
 20
4040.15266426884
 30
0.0
 11
1649.774027287854
 21
4100.15266426884
 31
0.0
 12
2080.051714189696
 22
2605.580159138746
 32
0.0
 70
    32
 71
     5
 42
-1.0
 73
     0
 74
     0
 75
     0
  3
MATSU
100
AcDbAlignedDimension
 13
1339.774027287854
 23
3889.25825455321
 33
0.0
 14
1959.774027287854
 24
3887.720696896767
 34
0.0
100
AcDbRotatedDimension
1001
ACAD
1000
DSTYLE
1002
{
1070
    40
1040
30.0
1002
}
  0
LINE
  5
7C85
330
19
100
AcDbEntity
  8
1
100
AcDbLine
 10
1339.774027287854
 20
3846.75825455321
 30
0.0
 11
1959.774027287854
 21
3794.094691420174
 31
0.0
  0
CIRCLE
  5
7C86
330
19
100
AcDbEntity
  8
1
100
AcDbCircle
 10
1959.774027287854
 20
2885.75825455321
 30
0.0
 40
119.0
  0
ARC
  5
7C87
330
19
100
AcDbEntity
  8
1
100
AcDbCircle
 10
1959.774027287854
 20
2885.75825455321
 30
0.0
 40
220.0
100
AcDbArc
 50
76.86597769360365
 51
256.8659776936037
  0
LINE
  5
7C88
330
19
100
AcDbEntity
  8
1
100
AcDbLine
 10
1379.774027287854
 20
3843.36060531882
 30
0.0
 11
1379.774027287854
 21
2921.75825455321
 31
0.0
  0
DIMENSION
  5
7C89
330
19
100
AcDbEntity
  8
3
100
AcDbDimension
280
     0
  2
*D14
 10
1039.815618746781
 20
2885.75825455321
 30
0.0
 11
979.8156187467812
 21
3366.25825455321
 31
0.0
 12
2080.051714189696
 22
2605.580159138746
 32
0.0
 70
    32
 71
     5
 42
-1.0
 73
     0
 74
     0
 75
     0
  3
MATSU
100
AcDbAlignedDimension
 13
1339.774027287854
 23
3846.75825455321
 33
0.0
 14
1303.518688509308
 24
2885.75825455321
 34
0.0
 50
90.0
100
AcDbRotatedDimension
1001
ACAD
1000
DSTYLE
1002
{
1070
    40
1040
30.0
1002
}
  0
DIMENSION
  5
7C8A
330
19
100
AcDbEntity
  8
3
100
AcDbDimension
280
     0
  2
*D15
 10
1190.158918844643
 20
2921.75825455321
 30
0.0
 11
1130.158918844643
 21
3384.25825455321
 31
0.0
 12
2080.051714189696
 22
2605.580159138746
 32
0.0
 70
    32
 71
     5
 42
-1.0
 73
     0
 74
     0
 75
     0
  3
MATSU
100
AcDbAlignedDimension
 13
1339.774027287854
 23
3846.75825455321
 33
0.0
 14
1339.774027287854
 24
2921.75825455321
 34
0.0
 50
90.0
100
AcDbRotatedDimension
1001
ACAD
1000
DSTYLE
1002
{
1070
    40
1040
30.0
1002
}
  0
LINE
  5
7C8B
330
19
100
AcDbEntity
  8
1
100
AcDbLine
 10
1342.774027287854
 20
3889.25825455321
 30
0.0
 11
1342.774027287854
 21
2879.25825455321
 31
0.0
  0
LINE
  5
7C8C
330
19
100
AcDbEntity
  8
1
100
AcDbLine
 10
1339.774027287854
 20
3889.25825455321
 30
0.0
 11
1339.774027287854
 21
2879.25825455321
 31
0.0
  0
LINE
  5
7C8D
330
19
100
AcDbEntity
  8
1
100
AcDbLine
 10
1339.774027287854
 20
2921.75825455321
 30
0.0
 11
1432.147461906837
 21
2921.75825455321
 31
0.0
  0
ARC
  5
7C8E
330
19
100
AcDbEntity
  8
1
100
AcDbCircle
 10
1906.274027287854
 20
2832.25825455321
 30
0.0
 40
482.5
100
AcDbArc
 50
169.3101682930905
 51
173.6339060194799
  0
LINE
  5
7C8F
330
19
100
AcDbEntity
  8
1
100
AcDbLine
 10
1339.774027287854
 20
2879.25825455321
 30
0.0
 11
1342.774027287854
 21
2879.25825455321
 31
0.0
  0
LINE
  5
7C90
330
19
100
AcDbEntity
  8
1
100
AcDbLine
 10
1339.774027287854
 20
3889.25825455321
 30
0.0
 11
1342.774027287854
 21
3889.25825455321
 31
0.0
  0
LINE
  5
7C91
330
19
100
AcDbEntity
  8
1
100
AcDbLine
 10
3379.774027287855
 20
5101.571662032373
 30
0.0
 11
1739.774027287855
 21
5101.571662032373
 31
0.0
  0
LINE
  5
7C92
330
19
100
AcDbEntity
  8
1
100
AcDbLine
 10
3379.774027287855
 20
4901.571662032373
 30
0.0
 11
1739.774027287855
 21
4901.571662032373
 31
0.0
  0
LINE
  5
7C93
330
19
100
AcDbEntity
  8
1
100
AcDbLine
 10
2736.774027287853
 20
5281.571662032373
 30
0.0
 11
1339.774027287853
 21
5281.571662032373
 31
0.0
  0
LINE
  5
7C94
330
19
100
AcDbEntity
  8
1
100
AcDbLine
 10
2736.774027287853
 20
6461.571662032373
 30
0.0
 11
1339.774027287853
 21
6461.571662032373
 31
0.0
  0
DIMENSION
  5
7C95
330
19
100
AcDbEntity
  8
3
100
AcDbDimension
280
     0
  2
*D16
 10
1399.774027287852
 20
4633.532237613056
 30
0.0
 11
2399.774027287854
 21
4633.532237613056
 31
0.0
 12
2080.051714189696
 22
2494.757250998552
 32
0.0
 70
   160
 71
     5
 42
-1.0
 73
     0
 74
     0
 75
     0
  3
MATSU
100
AcDbAlignedDimension
 13
3399.774027287854
 23
5029.571662032373
 33
0.0
 14
1399.774027287852
 24
5029.571662032373
 34
0.0
100
AcDbRotatedDimension
1001
ACAD
1000
DSTYLE
1002
{
1070
    40
1040
30.0
1002
}
  0
DIMENSION
  5
7C96
330
19
100
AcDbEntity
  8
3
100
AcDbDimension
280
     0
  2
*D17
 10
2519.774027287853
 20
6827.654217627359
 30
0.0
 11
2959.774027287854
 21
6887.65421762736
 31
0.0
 12
2080.051714189696
 22
2494.757250998552
 32
0.0
 70
    32
 71
     5
 42
-1.0
 73
     0
 74
     0
 75
     0
  3
MATSU
100
AcDbAlignedDimension
 13
3399.774027287854
 23
5879.571662032373
 33
0.0
 14
2519.774027287853
 24
6529.571662032373
 34
0.0
100
AcDbRotatedDimension
1001
ACAD
1000
DSTYLE
1002
{
1070
    40
1040
30.0
1002
}
  0
LINE
  5
7C97
330
19
100
AcDbEntity
  8
2
100
AcDbLine
 10
2736.774027287853
 20
5871.571662032373
 30
0.0
 11
1267.689753875103
 21
5871.571662032373
 31
0.0
  0
LINE
  5
7C98
330
19
100
AcDbEntity
  8
1
100
AcDbLine
 10
3399.774027287854
 20
5879.571662032373
 30
0.0
 11
2736.774027287853
 21
5879.571662032373
 31
0.0
  0
LINE
  5
7C99
330
19
100
AcDbEntity
  8
1
100
AcDbLine
 10
3399.774027287854
 20
5029.571662032373
 30
0.0
 11
1399.774027287852
 21
5029.571662032373
 31
0.0
  0
LINE
  5
7C9A
330
19
100
AcDbEntity
  8
1
100
AcDbLine
 10
2736.774027287853
 20
5281.571662032373
 30
0.0
 11
2736.774027287853
 21
6461.571662032373
 31
0.0
  0
DIMENSION
  5
7C9B
330
19
100
AcDbEntity
  8
3
100
AcDbDimension
280
     0
  2
*D18
 10
3697.7576323717
 20
5029.571662032373
 30
0.0
 11
3637.7576323717
 21
5454.571662032373
 31
0.0
 12
2080.051714189696
 22
2494.757250998552
 32
0.0
 70
    32
 71
     5
 42
-1.0
 73
     0
 74
     0
 75
     0
  3
MATSU
100
AcDbAlignedDimension
 13
3399.774027287854
 23
5879.571662032373
 33
0.0
 14
3399.774027287854
 24
5029.571662032373
 34
0.0
 50
270.0
100
AcDbRotatedDimension
1001
ACAD
1000
DSTYLE
1002
{
1070
    40
1040
30.0
1002
}
  0
LINE
  5
7C9C
330
19
100
AcDbEntity
  8
2
100
AcDbLine
 10
3159.774027287853
 20
5643.071662032373
 30
0.0
 11
3159.774027287853
 21
4956.781867032374
 31
0.0
  0
LINE
  5
7C9D
330
19
100
AcDbEntity
  8
1
100
AcDbLine
 10
3278.774027287853
 20
4966.571662032372
 30
0.0
 11
3278.774027287853
 21
5076.571662032373
 31
0.0
  0
LINE
  5
7C9E
330
19
100
AcDbEntity
  8
1
100
AcDbLine
 10
3040.774027287853
 20
4966.571662032372
 30
0.0
 11
3040.774027287853
 21
5076.571662032373
 31
0.0
  0
LINE
  5
7C9F
330
19
100
AcDbEntity
  8
1
100
AcDbLine
 10
3379.774027287855
 20
4901.571662032373
 30
0.0
 11
3379.774027287855
 21
5101.571662032373
 31
0.0
  0
LINE
  5
7CA0
330
19
100
AcDbEntity
  8
1
100
AcDbLine
 10
3399.774027287854
 20
5879.571662032373
 30
0.0
 11
3399.774027287854
 21
5029.571662032373
 31
0.0
  0
LINE
  5
7CA1
330
19
100
AcDbEntity
  8
1
100
AcDbLine
 10
3278.774027287853
 20
4966.571662032373
 30
0.0
 11
3040.774027287853
 21
4966.571662032372
 31
0.0
  0
LINE
  5
7CA2
330
19
100
AcDbEntity
  8
1
100
AcDbLine
 10
3132.274027287853
 20
4966.571662032373
 30
0.0
 11
3183.774027287853
 21
4966.571662032373
 31
0.0
  0
LINE
  5
7CA3
330
19
100
AcDbEntity
  8
1
100
AcDbLine
 10
3344.774027287853
 20
5643.071662032373
 30
0.0
 11
2974.774027287853
 21
5643.071662032372
 31
0.0
  0
LINE
  5
7CA4
330
19
100
AcDbEntity
  8
1
100
AcDbLine
 10
2974.774027287853
 20
5086.571662032373
 30
0.0
 11
3159.774027287853
 21
5086.571662032373
 31
0.0
  0
LINE
  5
7CA5
330
19
100
AcDbEntity
  8
1
100
AcDbLine
 10
3278.774027287853
 20
5076.571662032373
 30
0.0
 11
3040.774027287853
 21
5076.571662032373
 31
0.0
  0
LINE
  5
7CA6
330
19
100
AcDbEntity
  8
1
100
AcDbLine
 10
3344.774027287853
 20
5086.571662032373
 30
0.0
 11
3344.774027287853
 21
5643.071662032373
 31
0.0
  0
LINE
  5
7CA7
330
19
100
AcDbEntity
  8
1
100
AcDbLine
 10
3344.774027287853
 20
5086.571662032373
 30
0.0
 11
3159.774027287853
 21
5086.571662032373
 31
0.0
  0
LINE
  5
7CA8
330
19
100
AcDbEntity
  8
1
100
AcDbLine
 10
3184.774027287853
 20
5076.571662032374
 30
0.0
 11
3134.774027287853
 21
5076.571662032374
 31
0.0
  0
LINE
  5
7CA9
330
19
100
AcDbEntity
  8
1
100
AcDbLine
 10
3184.774027287853
 20
5076.571662032374
 30
0.0
 11
3184.774027287853
 21
5086.571662032373
 31
0.0
  0
ARC
  5
7CAA
330
19
100
AcDbEntity
  8
1
100
AcDbCircle
 10
3222.774027287853
 20
5088.571662032374
 30
0.0
 40
2.0
100
AcDbArc
 50
270.0
 51
0.0
  0
LINE
  5
7CAB
330
19
100
AcDbEntity
  8
1
100
AcDbLine
 10
3224.774027287853
 20
5101.571662032373
 30
0.0
 11
3224.774027287853
 21
5088.571662032374
 31
0.0
  0
LINE
  5
7CAC
330
19
100
AcDbEntity
  8
1
100
AcDbLine
 10
3134.774027287853
 20
5076.571662032374
 30
0.0
 11
3134.774027287853
 21
5086.571662032373
 31
0.0
  0
LINE
  5
7CAD
330
19
100
AcDbEntity
  8
1
100
AcDbLine
 10
2974.774027287853
 20
5086.571662032373
 30
0.0
 11
2974.774027287853
 21
5643.071662032372
 31
0.0
  0
ARC
  5
7CAE
330
19
100
AcDbEntity
  8
1
100
AcDbCircle
 10
3096.774027287853
 20
5088.571662032374
 30
0.0
 40
2.0
100
AcDbArc
 50
180.0
 51
270.0
  0
LINE
  5
7CAF
330
19
100
AcDbEntity
  8
1
100
AcDbLine
 10
3094.774027287853
 20
5101.571662032373
 30
0.0
 11
3094.774027287853
 21
5088.571662032374
 31
0.0
  0
LINE
  5
7CB0
330
19
100
AcDbEntity
  8
1
100
AcDbLine
 10
1342.774027287853
 20
5241.571662032373
 30
0.0
 11
1342.774027287853
 21
6501.571662032373
 31
0.0
  0
LINE
  5
7CB1
330
19
100
AcDbEntity
  8
1
100
AcDbLine
 10
1339.774027287853
 20
5241.571662032373
 30
0.0
 11
1339.774027287853
 21
6501.571662032373
 31
0.0
  0
DIMENSION
  5
7CB2
330
19
100
AcDbEntity
  8
3
100
AcDbDimension
280
     0
  2
*D19
 10
1100.469781057938
 20
5029.571662032373
 30
0.0
 11
1040.469781057938
 21
5779.571662032373
 31
0.0
 12
2080.051714189696
 22
2494.757250998552
 32
0.0
 70
    32
 71
     5
 42
-1.0
 73
     0
 74
     0
 75
     0
  3
MATSU
100
AcDbAlignedDimension
 13
1399.774027287852
 23
6529.571662032373
 33
0.0
 14
1399.774027287852
 24
5029.571662032373
 34
0.0
 50
270.0
100
AcDbRotatedDimension
1001
ACAD
1000
DSTYLE
1002
{
1070
    40
1040
30.0
1002
}
  0
LINE
  5
7CB3
330
19
100
AcDbEntity
  8
2
100
AcDbLine
 10
1959.774027287853
 20
4901.571662032374
 30
0.0
 11
1959.774027287853
 21
6668.659078765185
 31
0.0
  0
LINE
  5
7CB4
330
19
100
AcDbEntity
  8
1
100
AcDbLine
 10
2519.774027287853
 20
6461.571662032373
 30
0.0
 11
2519.774027287853
 21
6529.571662032373
 31
0.0
  0
LINE
  5
7CB5
330
19
100
AcDbEntity
  8
1
100
AcDbLine
 10
1399.774027287852
 20
5029.571662032373
 30
0.0
 11
1399.774027287852
 21
5281.571662032373
 31
0.0
  0
LINE
  5
7CB6
330
19
100
AcDbEntity
  8
1
100
AcDbLine
 10
2078.774027287852
 20
4966.571662032372
 30
0.0
 11
2078.774027287852
 21
5076.571662032373
 31
0.0
  0
LINE
  5
7CB7
330
19
100
AcDbEntity
  8
1
100
AcDbLine
 10
1840.774027287853
 20
4966.571662032372
 30
0.0
 11
1840.774027287853
 21
5076.571662032373
 31
0.0
  0
LINE
  5
7CB8
330
19
100
AcDbEntity
  8
1
100
AcDbLine
 10
1739.774027287855
 20
4901.571662032374
 30
0.0
 11
1739.774027287855
 21
5101.571662032373
 31
0.0
  0
LINE
  5
7CB9
330
19
100
AcDbEntity
  8
1
100
AcDbLine
 10
2078.774027287852
 20
4966.571662032372
 30
0.0
 11
1840.774027287853
 21
4966.571662032372
 31
0.0
  0
LINE
  5
7CBA
330
19
100
AcDbEntity
  8
1
100
AcDbLine
 10
2078.774027287852
 20
5076.571662032373
 30
0.0
 11
1840.774027287853
 21
5076.571662032373
 31
0.0
  0
LINE
  5
7CBB
330
19
100
AcDbEntity
  8
1
100
AcDbLine
 10
1994.774027287853
 20
5076.571662032373
 30
0.0
 11
1994.774027287853
 21
5281.571662032373
 31
0.0
  0
LINE
  5
7CBC
330
19
100
AcDbEntity
  8
1
100
AcDbLine
 10
1924.774027287853
 20
5076.571662032373
 30
0.0
 11
1924.774027287853
 21
5281.571662032373
 31
0.0
  0
DIMENSION
  5
7CBD
330
19
100
AcDbEntity
  8
3
100
AcDbDimension
280
     0
  2
*D20
 10
1399.774027287852
 20
6827.654217627359
 30
0.0
 11
1959.774027287853
 21
6887.65421762736
 31
0.0
 12
2080.051714189696
 22
2494.757250998552
 32
0.0
 70
    32
 71
     5
 42
-1.0
 73
     0
 74
     0
 75
     0
  3
MATSU
100
AcDbAlignedDimension
 13
2519.774027287853
 23
6529.571662032373
 33
0.0
 14
1399.774027287852
 24
6529.571662032373
 34
0.0
100
AcDbRotatedDimension
1001
ACAD
1000
DSTYLE
1002
{
1070
    40
1040
30.0
1002
}
  0
LINE
  5
7CBE
330
19
100
AcDbEntity
  8
1
100
AcDbLine
 10
2519.774027287853
 20
6529.571662032373
 30
0.0
 11
1399.774027287852
 21
6529.571662032373
 31
0.0
  0
LINE
  5
7CBF
330
19
100
AcDbEntity
  8
1
100
AcDbLine
 10
4772.229016355526
 20
2790.758254553205
 30
0.0
 11
4772.229016355524
 21
2420.758254553205
 31
0.0
  0
LINE
  5
7CC0
330
19
100
AcDbEntity
  8
1
100
AcDbLine
 10
4652.229016355525
 20
2420.75825455321
 30
0.0
 11
4652.229016355522
 21
2330.758254553209
 31
0.0
  0
LINE
  5
7CC1
330
19
100
AcDbEntity
  8
1
100
AcDbLine
 10
4242.229016355524
 20
2420.75825455321
 30
0.0
 11
4242.229016355522
 21
2330.758254553209
 31
0.0
  0
LINE
  5
7CC2
330
19
100
AcDbEntity
  8
1
100
AcDbLine
 10
4242.229016355524
 20
2365.75825455321
 30
0.0
 11
4652.229016355522
 21
2365.75825455321
 31
0.0
  0
DIMENSION
  5
7CC4
330
19
100
AcDbEntity
  8
3
100
AcDbDimension
280
     0
  2
*D21
 10
1039.815618746781
 20
2035.75825455321
 30
0.0
 11
964.8156187467808
 21
1812.901111696067
 31
0.0
 70
    32
 71
     5
 42
65.00000000000023
 73
     0
 74
     0
 75
     0
  3
IGA
100
AcDbAlignedDimension
 13
1399.774027287852
 23
2100.758254553209
 33
0.0
 14
1399.774027287852
 24
2035.75825455321
 34
0.0
 50
90.0
100
AcDbRotatedDimension
1001
ACAD
1000
DSTYLE
1002
{
1070
   287
1070
     3
1070
    40
1040
30.0
1070
   143
1040
0.039
1070
   172
1070
     1
1070
   271
1070
     0
1070
   279
1070
     0
1070
   288
1070
     1
1070
     6
1000
DOT
1002
}
  0
LINE
  5
7CC5
330
19
100
AcDbEntity
  8
1
100
AcDbLine
 10
1399.774027287852
 20
6461.571662032373
 30
0.0
 11
1399.774027287852
 21
6529.571662032373
 31
0.0
  0
LINE
  5
7EF4
330
19
100
AcDbEntity
  8
4
100
AcDbLine
 10
5550.0
 20
1210.115599408855
 30
0.0
 11
5550.0
 21
610.115599408855
 31
0.0
  0
LINE
  5
7EF5
330
19
100
AcDbEntity
  8
4
100
AcDbLine
 10
3450.0
 20
1210.115599408855
 30
0.0
 11
3450.0
 21
610.115599408855
 31
0.0
  0
LINE
  5
7EF6
330
19
100
AcDbEntity
  8
4
100
AcDbLine
 10
1950.0
 20
1210.115599408855
 30
0.0
 11
1950.0
 21
610.115599408855
 31
0.0
  0
LINE
  5
7EF9
330
19
100
AcDbEntity
  8
4
100
AcDbLine
 10
1950.0
 20
610.1155994088549
 30
0.0
 11
5550.0
 21
610.1155994088549
 31
0.0
  0
LINE
  5
7EFA
330
19
100
AcDbEntity
  8
4
100
AcDbLine
 10
1950.0
 20
910.1155994088548
 30
0.0
 11
5550.0
 21
910.1155994088548
 31
0.0
  0
TEXT
  5
7EFB
330
19
100
AcDbEntity
  8
4
100
AcDbText
 10
2065.506242540705
 20
1004.744677008693
 30
0.0
 40
150.0
  1
機器名称
100
AcDbText
  0
TEXT
  5
7EFC
330
19
100
AcDbEntity
  8
4
100
AcDbText
 10
2058.774318074393
 20
675.0510696048877
 30
0.0
 40
150.0
  1
機器型番
100
AcDbText
  0
TEXT
  5
7EFD
330
19
100
AcDbEntity
  8
4
100
AcDbText
 10
3534.535607353896
 20
972.8477712787926
 30
0.0
 40
120.0
  1
ミツヤリミットロードファン
100
AcDbText
  0
TEXT
  5
7EFE
330
19
100
AcDbEntity
  8
4
100
AcDbText
 10
3559.963486756442
 20
661.594352248685
 30
0.0
 40
150.0
  1
LL#5 1/2-5
100
AcDbText
  0
TEXT
  5
7F00
330
19
100
AcDbEntity
  8
4
100
AcDbText
 10
2429.213701168927
 20
7150.286523997547
 30
0.0
 40
161.9999999999999
  1
床置防振ベット
100
AcDbText
  0
TEXT
  5
7F01
330
19
100
AcDbEntity
  8
4
100
AcDbText
 10
948.5027799883392
 20
7601.642928597894
 30
0.0
 40
216.0
  1
遠心式両吸込両持リミットロードファン
100
AcDbText
  0
LINE
  5
7F02
330
19
100
AcDbEntity
  8
4
100
AcDbLine
 10
750.0
 20
7408.226262794414
 30
0.0
 11
5550.0
 21
7408.226262794414
 31
0.0
  0
LINE
  5
7F03
330
19
100
AcDbEntity
  8
4
100
AcDbLine
 10
750.0
 20
8008.226262794414
 30
0.0
 11
5550.0
 21
8008.226262794414
 31
0.0
  0
LINE
  5
7F04
330
19
100
AcDbEntity
  8
4
100
AcDbLine
 10
1950.0
 20
1210.115599408855
 30
0.0
 11
5550.0
 21
1210.115599408855
 31
0.0
  0
LINE
  5
7F05
330
19
100
AcDbEntity
  8
4
100
AcDbLine
 10
750.0
 20
8008.226262794414
 30
0.0
 11
750.0
 21
7408.226262794414
 31
0.0
  0
TEXT
  5
7F06
330
19
100
AcDbEntity
  8
4
100
AcDbText
 10
1121.63720444082
 20
7146.95843263903
 30
0.0
 40
161.9999999999999
  1
左回転左横向
100
AcDbText
  0
TEXT
  5
7F07
330
19
100
AcDbEntity
  8
4
100
AcDbText
 10
4406.908677747869
 20
8118.183244485926
 30
0.0
 40
168.0
  1
No.
100
AcDbText
  0
TEXT
  5
7F08
330
19
100
AcDbEntity
  8
4
100
AcDbText
 10
3933.88818780004
 20
7150.286523997547
 30
0.0
 40
161.9999999999999
  1
縮尺：1/30
100
AcDbText
  0
LINE
  5
7F09
330
19
100
AcDbEntity
  8
4
100
AcDbLine
 10
5550.0
 20
8008.226262794414
 30
0.0
 11
5550.0
 21
7408.226262794414
 31
0.0
  0
LINE
  5
7F0A
330
19
100
AcDbEntity
  8
4
100
AcDbLine
 10
6300.0
 20
8850.0
 30
0.0
 11
6300.0
 21
8850.0
 31
0.0
  0
LINE
  5
7F0B
330
19
100
AcDbEntity
  8
4
100
AcDbLine
 10
4321.852267079594
 20
8043.790749376205
 30
0.0
 11
4321.852267079594
 21
8359.956784649257
 31
0.0
  0
LINE
  5
7F0C
330
19
100
AcDbEntity
  8
4
100
AcDbLine
 10
4321.852267079594
 20
8359.956784649257
 30
0.0
 11
5550.0
 21
8359.956784649257
 31
0.0
  0
LINE
  5
7F0D
330
19
100
AcDbEntity
  8
4
100
AcDbLine
 10
5550.0
 20
8359.956784649257
 30
0.0
 11
5550.0
 21
8043.790749376205
 31
0.0
  0
LINE
  5
7F0E
330
19
100
AcDbEntity
  8
4
100
AcDbLine
 10
5550.0
 20
8043.790749376205
 30
0.0
 11
4321.852267079594
 21
8043.790749376205
 31
0.0
  0
LINE
  5
7F0F
330
19
100
AcDbEntity
  8
4
100
AcDbLine
 10
0.0
 20
0.0
 30
0.0
 11
0.0
 21
8850.0
 31
0.0
  0
LINE
  5
7F10
330
19
100
AcDbEntity
  8
4
100
AcDbLine
 10
0.0
 20
8850.0
 30
0.0
 11
6300.0
 21
8850.0
 31
0.0
  0
LINE
  5
7F11
330
19
100
AcDbEntity
  8
4
100
AcDbLine
 10
6300.0
 20
8850.0
 30
0.0
 11
6300.0
 21
0.0
 31
0.0
  0
LINE
  5
7F12
330
19
100
AcDbEntity
  8
4
100
AcDbLine
 10
6300.0
 20
0.0
 30
0.0
 11
0.0
 21
0.0
 31
0.0
  0
DIMENSION
  5
7FF3
330
19
100
AcDbEntity
  8
3
100
AcDbDimension
280
     0
  2
*D24
 10
1036.673925695719
 20
2205.758254553209
 30
0.0
 11
893.10249712429
 21
2153.25825455321
 31
0.0
 70
    32
  1
  <>
 71
     5
 42
105.0
 73
     0
 74
     0
 75
     0
  3
IGA
100
AcDbAlignedDimension
 13
1399.774027287852
 23
2100.758254553209
 33
0.0
 14
1399.774027287854
 24
2205.758254553209
 34
0.0
 50
90.0
100
AcDbRotatedDimension
1001
ACAD
1000
DSTYLE
1002
{
1070
   172
1070
     1
1070
    76
1070
     1
1070
    75
1070
     1
1070
    40
1040
30.0
1070
     3
1000
(<>)
1070
   271
1070
     0
1070
     7
1000
_NONE
1070
     6
1000
_NONE
1070
   143
1040
0.039
1002
}
  0
DIMENSION
  5
8000
330
19
100
AcDbEntity
  8
3
100
AcDbDimension
280
     0
  2
*D25
 10
770.5262167963082
 20
2035.75825455321
 30
0.0
 11
671.9547882248795
 21
2941.25825455321
 31
0.0
 70
    32
 71
     5
 42
1811.0
 73
     0
 74
     0
 75
     0
  3
IGA
100
AcDbAlignedDimension
 13
1339.774027287854
 23
3846.75825455321
 33
0.0
 14
1399.774027287852
 24
2035.75825455321
 34
0.0
 50
90.0
100
AcDbRotatedDimension
1001
ACAD
1000
DSTYLE
1002
{
1070
   172
1070
     1
1070
    40
1040
30.0
1070
     3
1000
(<>)
1070
   271
1070
     0
1070
   143
1040
0.039
1002
}
  0
DIMENSION
  5
80C1
330
19
100
AcDbEntity
  8
3
100
AcDbDimension
280
     0
  2
*D26
 10
4958.729016355529
 20
4265.963993458419
 30
0.0
 11
4473.729016355528
 21
4364.535422029848
 31
0.0
 70
    32
 71
     5
 42
970.0000000000027
 73
     0
 74
     0
 75
     0
  3
IGA
100
AcDbAlignedDimension
 13
3988.729016355526
 23
3105.75825455321
 33
0.0
 14
4958.729016355529
 24
4142.701820165868
 34
0.0
100
AcDbRotatedDimension
1001
ACAD
1000
DSTYLE
1002
{
1070
     3
1000
(<>)
1070
    40
1040
30.0
1070
   143
1040
0.039
1070
   172
1070
     1
1070
   271
1070
     0
1002
}
  0
DIMENSION
  5
80CE
330
19
100
AcDbEntity
  8
3
100
AcDbDimension
280
     0
  2
*D27
 10
5678.229016355527
 20
4265.963993458419
 30
0.0
 11
5318.479016355528
 21
4364.535422029848
 31
0.0
 70
    32
 71
     5
 42
719.4999999999981
 73
     0
 74
     0
 75
     0
  3
IGA
100
AcDbAlignedDimension
 13
4958.729016355529
 23
4142.701820165868
 33
0.0
 14
5678.229016355527
 24
2846.25825455321
 34
0.0
100
AcDbRotatedDimension
1001
ACAD
1000
DSTYLE
1002
{
1070
     3
1000
(<>)
1070
    40
1040
30.0
1070
   143
1040
0.039
1070
   172
1070
     1
1070
   271
1070
     0
1002
}
  0
ENDSEC
  0
SECTION
  2
OBJECTS
  0
DICTIONARY
  5
C
330
0
100
AcDbDictionary
281
     1
  3
ACAD_CIP_PREVIOUS_PRODUCT_INFO
350
80C0
  3
ACAD_COLOR
350
80A3
  3
ACAD_DETAILVIEWSTYLE
350
80BC
  3
ACAD_GROUP
350
D
  3
ACAD_LAYOUT
350
8023
  3
ACAD_MATERIAL
350
8071
  3
ACAD_MLEADERSTYLE
350
80B8
  3
ACAD_MLINESTYLE
350
E
  3
ACAD_PLOTSETTINGS
350
8024
  3
ACAD_PLOTSTYLENAME
350
8021
  3
ACAD_SCALELIST
350
80A6
  3
ACAD_SECTIONVIEWSTYLE
350
80BA
  3
ACAD_TABLESTYLE
350
80A4
  3
ACAD_VISUALSTYLE
350
808A
  3
ACDB_RECOMPOSE_DATA
350
818F
  3
AcDbVariableDictionary
350
8068
  3
AcDsDecomposeData
350
8195
  0
DICTIONARY
  5
8149
330
2
100
AcDbDictionary
280
     1
281
     1
  3
ACAD_LAYERSTATES
360
814A
  0
DICTIONARY
  5
813C
330
F
100
AcDbDictionary
280
     1
281
     1
  3
ADSK_XREC_LAYER_RECONCILED
360
813D
  0
DICTIONARY
  5
813E
330
31
100
AcDbDictionary
280
     1
281
     1
  3
ADSK_XREC_LAYER_RECONCILED
360
813F
  0
DICTIONARY
  5
8140
330
76D0
100
AcDbDictionary
280
     1
281
     1
  3
ADSK_XREC_LAYER_RECONCILED
360
8141
  0
DICTIONARY
  5
8142
330
76D1
100
AcDbDictionary
280
     1
281
     1
  3
ADSK_XREC_LAYER_RECONCILED
360
8143
  0
DICTIONARY
  5
8144
330
76D2
100
AcDbDictionary
280
     1
281
     1
  3
ADSK_XREC_LAYER_RECONCILED
360
8145
  0
DICTIONARY
  5
8050
330
19
100
AcDbDictionary
280
     1
281
     1
  3
ACAD_LAYOUTSELFREF
360
8051
  0
DICTIONARY
  5
804E
330
16
100
AcDbDictionary
280
     1
281
     1
  3
ACAD_LAYOUTSELFREF
360
804F
  0
XRECORD
  5
80C0
102
{ACAD_REACTORS
330
C
102
}
330
C
100
AcDbXrecord
280
     1
300
ACDLT
300
2023
300

  0
DICTIONARY
  5
80A3
102
{ACAD_REACTORS
330
C
102
}
330
C
100
AcDbDictionary
281
     1
  0
DICTIONARY
  5
80BC
102
{ACAD_REACTORS
330
C
102
}
330
C
100
AcDbDictionary
281
     1
  3
Metric50
350
80BD
  0
DICTIONARY
  5
D
102
{ACAD_REACTORS
330
C
102
}
330
C
100
AcDbDictionary
281
     1
  0
DICTIONARY
  5
8023
102
{ACAD_REACTORS
330
C
102
}
330
C
100
AcDbDictionary
281
     1
  3
Model
350
8025
  3
ﾚｲｱｳﾄ1
350
8026
  0
DICTIONARY
  5
8071
102
{ACAD_REACTORS
330
C
102
}
330
C
100
AcDbDictionary
281
     1
  3
ByBlock
350
807A
  3
ByLayer
350
8072
  3
Global
350
8082
  0
DICTIONARY
  5
80B8
102
{ACAD_REACTORS
330
C
102
}
330
C
100
AcDbDictionary
281
     1
  3
Standard
350
80B9
  0
DICTIONARY
  5
E
102
{ACAD_REACTORS
330
C
102
}
330
C
100
AcDbDictionary
281
     1
  3
STANDARD
350
1C
  0
DICTIONARY
  5
8024
102
{ACAD_REACTORS
330
C
102
}
330
C
100
AcDbDictionary
281
     1
  0
ACDBDICTIONARYWDFLT
  5
8021
102
{ACAD_REACTORS
330
C
102
}
330
C
100
AcDbDictionary
281
     1
  3
Normal
350
8022
100
AcDbDictionaryWithDefault
340
8022
  0
DICTIONARY
  5
80A6
102
{ACAD_REACTORS
330
C
102
}
330
C
100
AcDbDictionary
281
     1
  3
A0
350
80A7
  3
A1
350
80A8
  3
A2
350
80A9
  3
A3
350
80AA
  3
A4
350
80AB
  3
A5
350
80AC
  3
A6
350
80AD
  3
A7
350
80AE
  3
A8
350
80AF
  3
A9
350
80B0
  3
B0
350
80B1
  3
B1
350
80B2
  3
B2
350
80B3
  3
B3
350
80B4
  3
B4
350
80B5
  3
B5
350
80B6
  3
B6
350
80B7
  0
DICTIONARY
  5
80BA
102
{ACAD_REACTORS
330
C
102
}
330
C
100
AcDbDictionary
281
     1
  3
Metric50
350
80BB
  0
DICTIONARY
  5
80A4
102
{ACAD_REACTORS
330
C
102
}
330
C
100
AcDbDictionary
281
     1
  3
Standard
350
80A5
  0
DICTIONARY
  5
808A
102
{ACAD_REACTORS
330
C
102
}
330
C
100
AcDbDictionary
281
     1
  3
2dWireframe
350
8090
  3
Basic
350
808F
  3
Brighten
350
8096
  3
ColorChange
350
809A
  3
Conceptual
350
8093
  3
Dim
350
8095
  3
EdgeColorOff
350
80A2
  3
Facepattern
350
8099
  3
Flat
350
808B
  3
FlatWithEdges
350
808C
  3
Gouraud
350
808D
  3
GouraudWithEdges
350
808E
  3
Hidden
350
8092
  3
JitterOff
350
80A0
  3
Linepattern
350
8098
  3
OverhangOff
350
80A1
  3
Realistic
350
8094
  3
Shaded
350
809F
  3
Shaded with edges
350
809E
  3
Shades of Gray
350
809B
  3
Sketchy
350
809C
  3
Thicken
350
8097
  3
Wireframe
350
8091
  3
X-Ray
350
809D
  0
XRECORD
  5
818F
102
{ACAD_REACTORS
330
C
102
}
330
C
100
AcDbXrecord
280
     1
 90
        1
330
80A5
  0
DICTIONARY
  5
8068
102
{ACAD_REACTORS
330
C
102
}
330
C
100
AcDbDictionary
281
     1
  3
CANNOSCALE
350
8184
  3
CMLEADERSTYLE
350
8180
  3
CTABLESTYLE
350
817F
  3
CVIEWDETAILSTYLE
350
8181
  3
CVIEWSECTIONSTYLE
350
8182
  3
DIMASSOC
350
8069
  3
LAYEREVAL
350
8186
  3
LAYERNOTIFY
350
8187
  3
LIGHTINGUNITS
350
8185
  3
MARKUPASSISTMODE
350
818C
  3
MSLTSCALE
350
8183
  0
DICTIONARY
  5
8195
102
{ACAD_REACTORS
330
C
102
}
330
C
100
AcDbDictionary
281
     1
  3
AcDsRecords
350
8197
  3
AcDsSchemas
350
8196
1001
ACAD
1070
     2
  0
DICTIONARY
  5
814A
102
{ACAD_REACTORS
330
8149
102
}
330
8149
100
AcDbDictionary
281
     1
  0
XRECORD
  5
813D
102
{ACAD_REACTORS
330
813C
102
}
330
813C
100
AcDbXrecord
280
     1
290
     1
  0
XRECORD
  5
813F
102
{ACAD_REACTORS
330
813E
102
}
330
813E
100
AcDbXrecord
280
     1
290
     1
  0
XRECORD
  5
8141
102
{ACAD_REACTORS
330
8140
102
}
330
8140
100
AcDbXrecord
280
     1
290
     1
  0
XRECORD
  5
8143
102
{ACAD_REACTORS
330
8142
102
}
330
8142
100
AcDbXrecord
280
     1
290
     1
  0
XRECORD
  5
8145
102
{ACAD_REACTORS
330
8144
102
}
330
8144
100
AcDbXrecord
280
     1
290
     1
  0
XRECORD
  5
8051
102
{ACAD_REACTORS
330
8050
102
}
330
8050
100
AcDbXrecord
280
     1
340
19
  0
XRECORD
  5
804F
102
{ACAD_REACTORS
330
804E
102
}
330
804E
100
AcDbXrecord
280
     1
340
16
  0
ACDBDETAILVIEWSTYLE
  5
80BD
102
{ACAD_XDICTIONARY
360
819A
102
}
102
{ACAD_REACTORS
330
80BC
102
}
330
80BC
100
AcDbModelDocViewStyle
 70
     0
  3
Metric50
290
     0
100
AcDbDetailViewStyle
 70
     0
 71
     0
 90
        3
 71
     1
340
10
 62
   256
 40
5.0
340
0
 62
   256
 40
5.0
300

 40
0.0
280
     1
 71
     2
340
15
 90
       25
 62
   256
 71
     3
340
10
 62
   256
 40
5.0
 90
        0
 40
15.0
 90
        1
300
%<\AcVar ViewDetailId>% (%<\AcVar ViewScale \f "%sn">%)
 71
     4
340
15
 90
       25
 62
   256
340
15
 90
       25
 62
   256
280
     0
  0
LAYOUT
  5
8025
102
{ACAD_REACTORS
330
8023
102
}
330
8023
100
AcDbPlotSettings
  1

  2
\\Txbo34x8944cqyd\EPSON LP-6100
  4

  6

 40
0.0
 41
0.0
 42
0.0
 43
0.0
 44
0.0
 45
0.0
 46
0.0
 47
0.0
 48
0.0
 49
0.0
140
0.0
141
0.0
142
1.0
143
1.0
 70
  1712
 72
     0
 73
     0
 74
     0
  7
GOD2000TABLE.ctb
 75
     0
147
1.0
 76
     0
 77
     2
 78
   300
148
0.0
149
0.0
100
AcDbLayout
  1
Model
 70
     1
 71
     0
 10
0.0
 20
0.0
 11
12.0
 21
9.0
 12
0.0
 22
0.0
 32
0.0
 14
0.0
 24
0.0
 34
0.0
 15
0.0
 25
0.0
 35
0.0
146
0.0
 13
0.0
 23
0.0
 33
0.0
 16
1.0
 26
0.0
 36
0.0
 17
0.0
 27
1.0
 37
0.0
 76
     0
330
19
331
806F
  0
LAYOUT
  5
8026
102
{ACAD_REACTORS
330
8023
102
}
330
8023
100
AcDbPlotSettings
  1

  2
\\Txbo34x8944cqyd\EPSON LP-6100
  4

  6

 40
0.0
 41
0.0
 42
0.0
 43
0.0
 44
0.0
 45
0.0
 46
0.0
 47
0.0
 48
0.0
 49
0.0
140
0.0
141
0.0
142
1.0
143
1.0
 70
   688
 72
     0
 73
     0
 74
     5
  7
GOD2000TABLE.ctb
 75
    16
147
1.0
 76
     0
 77
     2
 78
   300
148
0.0
149
0.0
100
AcDbLayout
  1
ﾚｲｱｳﾄ1
 70
     1
 71
     1
 10
0.0
 20
0.0
 11
12.0
 21
9.0
 12
0.0
 22
0.0
 32
0.0
 14
1.000000000000000E+20
 24
1.000000000000000E+20
 34
1.000000000000000E+20
 15
-1.000000000000000E+20
 25
-1.000000000000000E+20
 35
-1.000000000000000E+20
146
0.0
 13
0.0
 23
0.0
 33
0.0
 16
1.0
 26
0.0
 36
0.0
 17
0.0
 27
1.0
 37
0.0
 76
     0
330
16
  0
MATERIAL
  5
807A
102
{ACAD_XDICTIONARY
360
807B
102
}
102
{ACAD_REACTORS
330
8071
102
}
330
8071
100
AcDbMaterial
  1
ByBlock
 72
     0
 43
0.0208333333333333
 43
0.0
 43
0.0
 43
0.0
 43
0.0
 43
0.0208333333333333
 43
0.0
 43
0.0
 43
0.0
 43
0.0
 43
1.0
 43
0.0
 43
0.0
 43
0.0
 43
0.0
 43
1.0
 77
     0
 47
0.0208333333333333
 47
0.0
 47
0.0
 47
0.0
 47
0.0
 47
0.0208333333333333
 47
0.0
 47
0.0
 47
0.0
 47
0.0
 47
1.0
 47
0.0
 47
0.0
 47
0.0
 47
0.0
 47
1.0
171
     0
 49
0.0208333333333333
 49
0.0
 49
0.0
 49
0.0
 49
0.0
 49
0.0208333333333333
 49
0.0
 49
0.0
 49
0.0
 49
0.0
 49
1.0
 49
0.0
 49
0.0
 49
0.0
 49
0.0
 49
1.0
175
     0
142
0.0208333333333333
142
0.0
142
0.0
142
0.0
142
0.0
142
0.0208333333333333
142
0.0
142
0.0
142
0.0
142
0.0
142
1.0
142
0.0
142
0.0
142
0.0
142
0.0
142
1.0
179
     0
144
0.0208333333333333
144
0.0
144
0.0
144
0.0
144
0.0
144
0.0208333333333333
144
0.0
144
0.0
144
0.0
144
0.0
144
1.0
144
0.0
144
0.0
144
0.0
144
0.0
144
1.0
147
0.0208333333333333
147
0.0
147
0.0
147
0.0
147
0.0
147
0.0208333333333333
147
0.0
147
0.0
147
0.0
147
0.0
147
1.0
147
0.0
147
0.0
147
0.0
147
0.0
147
1.0
  0
MATERIAL
  5
8072
102
{ACAD_XDICTIONARY
360
8073
102
}
102
{ACAD_REACTORS
330
8071
102
}
330
8071
100
AcDbMaterial
  1
ByLayer
 72
     0
 43
0.0208333333333333
 43
0.0
 43
0.0
 43
0.0
 43
0.0
 43
0.0208333333333333
 43
0.0
 43
0.0
 43
0.0
 43
0.0
 43
1.0
 43
0.0
 43
0.0
 43
0.0
 43
0.0
 43
1.0
 77
     0
 47
0.0208333333333333
 47
0.0
 47
0.0
 47
0.0
 47
0.0
 47
0.0208333333333333
 47
0.0
 47
0.0
 47
0.0
 47
0.0
 47
1.0
 47
0.0
 47
0.0
 47
0.0
 47
0.0
 47
1.0
171
     0
 49
0.0208333333333333
 49
0.0
 49
0.0
 49
0.0
 49
0.0
 49
0.0208333333333333
 49
0.0
 49
0.0
 49
0.0
 49
0.0
 49
1.0
 49
0.0
 49
0.0
 49
0.0
 49
0.0
 49
1.0
175
     0
142
0.0208333333333333
142
0.0
142
0.0
142
0.0
142
0.0
142
0.0208333333333333
142
0.0
142
0.0
142
0.0
142
0.0
142
1.0
142
0.0
142
0.0
142
0.0
142
0.0
142
1.0
179
     0
144
0.0208333333333333
144
0.0
144
0.0
144
0.0
144
0.0
144
0.0208333333333333
144
0.0
144
0.0
144
0.0
144
0.0
144
1.0
144
0.0
144
0.0
144
0.0
144
0.0
144
1.0
147
0.0208333333333333
147
0.0
147
0.0
147
0.0
147
0.0
147
0.0208333333333333
147
0.0
147
0.0
147
0.0
147
0.0
147
1.0
147
0.0
147
0.0
147
0.0
147
0.0
147
1.0
  0
MATERIAL
  5
8082
102
{ACAD_XDICTIONARY
360
8083
102
}
102
{ACAD_REACTORS
330
8071
102
}
330
8071
100
AcDbMaterial
  1
Global
 72
     0
 43
0.0208333333333333
 43
0.0
 43
0.0
 43
0.0
 43
0.0
 43
0.0208333333333333
 43
0.0
 43
0.0
 43
0.0
 43
0.0
 43
1.0
 43
0.0
 43
0.0
 43
0.0
 43
0.0
 43
1.0
 77
     0
 47
0.0208333333333333
 47
0.0
 47
0.0
 47
0.0
 47
0.0
 47
0.0208333333333333
 47
0.0
 47
0.0
 47
0.0
 47
0.0
 47
1.0
 47
0.0
 47
0.0
 47
0.0
 47
0.0
 47
1.0
171
     0
 49
0.0208333333333333
 49
0.0
 49
0.0
 49
0.0
 49
0.0
 49
0.0208333333333333
 49
0.0
 49
0.0
 49
0.0
 49
0.0
 49
1.0
 49
0.0
 49
0.0
 49
0.0
 49
0.0
 49
1.0
175
     0
142
0.0208333333333333
142
0.0
142
0.0
142
0.0
142
0.0
142
0.0208333333333333
142
0.0
142
0.0
142
0.0
142
0.0
142
1.0
142
0.0
142
0.0
142
0.0
142
0.0
142
1.0
179
     0
144
0.0208333333333333
144
0.0
144
0.0
144
0.0
144
0.0
144
0.0208333333333333
144
0.0
144
0.0
144
0.0
144
0.0
144
1.0
144
0.0
144
0.0
144
0.0
144
0.0
144
1.0
147
0.0208333333333333
147
0.0
147
0.0
147
0.0
147
0.0
147
0.0208333333333333
147
0.0
147
0.0
147
0.0
147
0.0
147
1.0
147
0.0
147
0.0
147
0.0
147
0.0
147
1.0
  0
MLEADERSTYLE
  5
80B9
102
{ACAD_REACTORS
330
80B8
102
}
330
80B8
100
AcDbMLeaderStyle
179
     2
170
     2
171
     1
172
     0
 90
        2
 40
0.0
 41
0.0
173
     1
 91
-1056964608
340
13
 92
       -2
290
     1
 42
2.0
291
     1
 43
0.36
  3
Standard
 44
4.0
300

342
10
174
     1
178
     6
175
     1
176
     0
 93
-1056964608
 45
4.0
292
     0
297
     0
 46
4.0
 94
-1056964608
 47
1.0
 49
1.0
140
1.0
293
     1
141
0.0
294
     1
177
     0
142
1.0
295
     0
296
     0
143
0.125
271
     0
272
     9
273
     9
298
     1
  0
MLINESTYLE
  5
1C
102
{ACAD_REACTORS
330
E
102
}
330
E
100
AcDbMlineStyle
  2
STANDARD
 70
     0
  3

 62
     0
 51
90.0
 52
90.0
 71
     2
 49
0.5
 62
   256
  6
BYLAYER
 49
-0.5
 62
   256
  6
BYLAYER
  0
ACDBPLACEHOLDER
  5
8022
102
{ACAD_REACTORS
330
8021
102
}
330
8021
  0
SCALE
  5
80A7
102
{ACAD_REACTORS
330
80A6
102
}
330
80A6
100
AcDbScale
 70
     0
300
1:1
140
1.0
141
1.0
290
     1
  0
SCALE
  5
80A8
102
{ACAD_REACTORS
330
80A6
102
}
330
80A6
100
AcDbScale
 70
     0
300
1:2
140
1.0
141
2.0
290
     0
  0
SCALE
  5
80A9
102
{ACAD_REACTORS
330
80A6
102
}
330
80A6
100
AcDbScale
 70
     0
300
1:4
140
1.0
141
4.0
290
     0
  0
SCALE
  5
80AA
102
{ACAD_REACTORS
330
80A6
102
}
330
80A6
100
AcDbScale
 70
     0
300
1:5
140
1.0
141
5.0
290
     0
  0
SCALE
  5
80AB
102
{ACAD_REACTORS
330
80A6
102
}
330
80A6
100
AcDbScale
 70
     0
300
1:8
140
1.0
141
8.0
290
     0
  0
SCALE
  5
80AC
102
{ACAD_REACTORS
330
80A6
102
}
330
80A6
100
AcDbScale
 70
     0
300
1:10
140
1.0
141
10.0
290
     0
  0
SCALE
  5
80AD
102
{ACAD_REACTORS
330
80A6
102
}
330
80A6
100
AcDbScale
 70
     0
300
1:16
140
1.0
141
16.0
290
     0
  0
SCALE
  5
80AE
102
{ACAD_REACTORS
330
80A6
102
}
330
80A6
100
AcDbScale
 70
     0
300
1:20
140
1.0
141
20.0
290
     0
  0
SCALE
  5
80AF
102
{ACAD_REACTORS
330
80A6
102
}
330
80A6
100
AcDbScale
 70
     0
300
1:30
140
1.0
141
30.0
290
     0
  0
SCALE
  5
80B0
102
{ACAD_REACTORS
330
80A6
102
}
330
80A6
100
AcDbScale
 70
     0
300
1:40
140
1.0
141
40.0
290
     0
  0
SCALE
  5
80B1
102
{ACAD_REACTORS
330
80A6
102
}
330
80A6
100
AcDbScale
 70
     0
300
1:50
140
1.0
141
50.0
290
     0
  0
SCALE
  5
80B2
102
{ACAD_REACTORS
330
80A6
102
}
330
80A6
100
AcDbScale
 70
     0
300
1:100
140
1.0
141
100.0
290
     0
  0
SCALE
  5
80B3
102
{ACAD_REACTORS
330
80A6
102
}
330
80A6
100
AcDbScale
 70
     0
300
2:1
140
2.0
141
1.0
290
     0
  0
SCALE
  5
80B4
102
{ACAD_REACTORS
330
80A6
102
}
330
80A6
100
AcDbScale
 70
     0
300
4:1
140
4.0
141
1.0
290
     0
  0
SCALE
  5
80B5
102
{ACAD_REACTORS
330
80A6
102
}
330
80A6
100
AcDbScale
 70
     0
300
8:1
140
8.0
141
1.0
290
     0
  0
SCALE
  5
80B6
102
{ACAD_REACTORS
330
80A6
102
}
330
80A6
100
AcDbScale
 70
     0
300
10:1
140
10.0
141
1.0
290
     0
  0
SCALE
  5
80B7
102
{ACAD_REACTORS
330
80A6
102
}
330
80A6
100
AcDbScale
 70
     0
300
100:1
140
100.0
141
1.0
290
     0
  0
ACDBSECTIONVIEWSTYLE
  5
80BB
102
{ACAD_XDICTIONARY
360
8198
102
}
102
{ACAD_REACTORS
330
80BA
102
}
330
80BA
100
AcDbModelDocViewStyle
 70
     0
  3
Metric50
290
     0
100
AcDbSectionViewStyle
 70
     0
 71
     0
 90
      102
 71
     1
340
10
 62
   256
 40
5.0
340
0
340
0
 62
   256
 40
5.0
300
I, O, Q, S, X, Z
 40
10.0
 90
        0
 40
2.5
 90
        0
 71
     2
340
15
 90
       25
 62
   256
340
15
 90
       50
 62
   256
 40
5.0
 40
2.5
 40
5.0
 71
     3
340
10
 62
   256
 40
5.0
 90
        0
 40
15.0
 90
        1
300
%<\AcVar ViewSectionStartId>%-%<\AcVar ViewSectionEndId>% (%<\AcVar ViewScale \f "%sn">%)
 71
     4
 62
   256
 62
   257
300
ANSI31
 40
1.0
 90
        0
290
     0
290
     0
 90
        6
 40
0.0
 40
1.570796326794896
 40
0.2617993877991494
 40
1.308996938995747
 40
-0.2617993877991494
 40
1.832595714594046
  0
TABLESTYLE
  5
80A5
102
{ACAD_XDICTIONARY
360
818D
102
}
102
{ACAD_REACTORS
330
80A4
102
}
330
80A4
100
AcDbTableStyle
280
     0
  3
Standard
 70
     0
 71
     0
 40
1.5
 41
1.5
280
     0
281
     0
  7
STANDARD
140
4.5
170
     2
 62
     0
 63
     7
283
     0
 90
      512
 91
        0
  1

274
    -2
284
     1
 64
     0
275
    -2
285
     1
 65
     0
276
    -2
286
     1
 66
     0
277
    -2
287
     1
 67
     0
278
    -2
288
     1
 68
     0
279
    -2
289
     1
 69
     0
  7
STANDARD
140
6.0
170
     5
 62
     0
 63
     7
283
     0
 90
      512
 91
        0
  1

274
    -2
284
     1
 64
     0
275
    -2
285
     1
 65
     0
276
    -2
286
     1
 66
     0
277
    -2
287
     1
 67
     0
278
    -2
288
     1
 68
     0
279
    -2
289
     1
 69
     0
  7
STANDARD
140
4.5
170
     5
 62
     0
 63
     7
283
     0
 90
      512
 91
        0
  1

274
    -2
284
     1
 64
     0
275
    -2
285
     1
 65
     0
276
    -2
286
     1
 66
     0
277
    -2
287
     1
 67
     0
278
    -2
288
     1
 68
     0
279
    -2
289
     1
 69
     0
  0
VISUALSTYLE
  5
8090
102
{ACAD_REACTORS
330
808A
102
}
330
808A
100
AcDbVisualStyle
  2
2dWireframe
 70
     4
177
     3
291
     0
 70
    58
 90
        0
176
     1
 90
        2
176
     1
 90
        0
176
     1
 90
        0
176
     1
 40
0.6
176
     1
 40
30.0
176
     1
 62
     7
420
 16777215
176
     1
 90
        1
176
     1
 90
        4
176
     1
 62
     7
176
     1
 62
   257
176
     1
 90
        1
176
     1
 90
        1
176
     1
 40
1.0
176
     1
 90
        0
176
     1
 62
   257
176
     1
 40
1.0
176
     1
 90
        1
176
     1
 90
        6
176
     1
 90
        2
176
     1
 62
     7
176
     1
 90
        5
176
     1
 90
        0
176
     1
 90
        0
176
     1
290
     0
176
     1
 90
        1
176
     1
 40
0.0
176
     1
 90
        0
176
     1
290
     1
176
     1
290
     1
176
     1
290
     0
176
     1
290
     0
176
     1
290
     0
176
     1
290
     0
176
     1
290
     0
176
     1
290
     0
176
     1
290
     0
176
     1
 90
       50
176
     1
 40
0.0
176
     1
 40
1.0
176
     1
 90
        0
176
     1
 62
    18
420
        0
176
     1
 90
       50
176
     1
 90
        3
176
     1
 62
     5
420
      255
176
     1
290
     0
176
     1
 90
       50
176
     1
 90
       50
176
     1
 90
       50
176
     1
290
     0
176
     1
 90
       50
176
     1
 62
   256
176
     0
 40
1.0
176
     0
 90
        2
176
     1
  1
strokes_ogs.tif
176
     1
290
     0
176
     1
 40
1.0
176
     1
 40
1.0
176
     1
1001
ACAD
1000
AcDbSavedByObjectVersion
1070
     0
  0
VISUALSTYLE
  5
808F
102
{ACAD_REACTORS
330
808A
102
}
330
808A
100
AcDbVisualStyle
  2
Basic
 70
     7
177
     3
291
     1
 70
    58
 90
        1
176
     1
 90
        0
176
     1
 90
        1
176
     1
 90
        0
176
     1
 40
0.6
176
     1
 40
30.0
176
     1
 62
     7
420
 16777215
176
     1
 90
        0
176
     1
 90
        4
176
     1
 62
     7
176
     1
 62
   257
176
     1
 90
        1
176
     1
 90
        1
176
     1
 40
1.0
176
     1
 90
        8
176
     1
 62
     7
176
     1
 40
1.0
176
     1
 90
        1
176
     1
 90
        6
176
     1
 90
        2
176
     1
 62
     7
176
     1
 90
        5
176
     1
 90
        0
176
     1
 90
        0
176
     1
290
     0
176
     1
 90
        1
176
     1
 40
0.0
176
     1
 90
        0
176
     1
290
     0
176
     1
290
     1
176
     1
290
     1
176
     1
290
     0
176
     1
290
     0
176
     1
290
     0
176
     1
290
     0
176
     1
290
     0
176
     1
290
     0
176
     1
 90
       50
176
     1
 40
0.0
176
     1
 40
1.0
176
     1
 90
        0
176
     1
 62
    18
420
        0
176
     1
 90
       50
176
     1
 90
        3
176
     1
 62
     5
420
      255
176
     1
290
     0
176
     1
 90
       50
176
     1
 90
       50
176
     1
 90
       50
176
     1
290
     0
176
     1
 90
       50
176
     1
 62
   256
176
     0
 40
1.0
176
     0
 90
        2
176
     1
  1
strokes_ogs.tif
176
     1
290
     0
176
     1
 40
1.0
176
     1
 40
1.0
176
     1
1001
ACAD
1000
AcDbSavedByObjectVersion
1070
     0
  0
VISUALSTYLE
  5
8096
102
{ACAD_REACTORS
330
808A
102
}
330
808A
100
AcDbVisualStyle
  2
Brighten
 70
    12
177
     3
291
     1
 70
    58
 90
        2
176
     1
 90
        2
176
     1
 90
        0
176
     1
 90
        0
176
     1
 40
0.6
176
     1
 40
30.0
176
     1
 62
     7
420
 16777215
176
     1
 90
        1
176
     1
 90
        4
176
     1
 62
     7
176
     1
 62
   257
176
     1
 90
        1
176
     1
 90
        1
176
     1
 40
1.0
176
     1
 90
        8
176
     1
 62
     7
176
     1
 40
1.0
176
     1
 90
        1
176
     1
 90
        6
176
     1
 90
        2
176
     1
 62
     7
176
     1
 90
        5
176
     1
 90
        0
176
     1
 90
        0
176
     1
290
     0
176
     1
 90
        1
176
     1
 40
50.0
176
     1
 90
        0
176
     1
290
     0
176
     1
290
     1
176
     1
290
     1
176
     1
290
     0
176
     1
290
     0
176
     1
290
     0
176
     1
290
     0
176
     1
290
     0
176
     1
290
     0
176
     1
 90
       50
176
     1
 40
0.0
176
     1
 40
1.0
176
     1
 90
        0
176
     1
 62
    18
420
        0
176
     1
 90
       50
176
     1
 90
        3
176
     1
 62
     5
420
      255
176
     1
290
     0
176
     1
 90
       50
176
     1
 90
       50
176
     1
 90
       50
176
     1
290
     0
176
     1
 90
       50
176
     1
 62
   256
176
     0
 40
1.0
176
     0
 90
        2
176
     1
  1
strokes_ogs.tif
176
     1
290
     0
176
     1
 40
1.0
176
     1
 40
1.0
176
     1
1001
ACAD
1000
AcDbSavedByObjectVersion
1070
     0
  0
VISUALSTYLE
  5
809A
102
{ACAD_REACTORS
330
808A
102
}
330
808A
100
AcDbVisualStyle
  2
ColorChange
 70
    16
177
     3
291
     1
 70
    58
 90
        2
176
     1
 90
        2
176
     1
 90
        3
176
     1
 90
        0
176
     1
 40
0.6
176
     1
 40
30.0
176
     1
 62
     8
420
  8421504
176
     1
 90
        1
176
     1
 90
        4
176
     1
 62
     7
176
     1
 62
   257
176
     1
 90
        1
176
     1
 90
        1
176
     1
 40
1.0
176
     1
 90
        8
176
     1
 62
     8
420
  8421504
176
     1
 40
1.0
176
     1
 90
        1
176
     1
 90
        6
176
     1
 90
        2
176
     1
 62
     7
176
     1
 90
        5
176
     1
 90
        0
176
     1
 90
        0
176
     1
290
     0
176
     1
 90
        1
176
     1
 40
0.0
176
     1
 90
        0
176
     1
290
     0
176
     1
290
     1
176
     1
290
     1
176
     1
290
     0
176
     1
290
     0
176
     1
290
     0
176
     1
290
     0
176
     1
290
     0
176
     1
290
     0
176
     1
 90
       50
176
     1
 40
0.0
176
     1
 40
1.0
176
     1
 90
        0
176
     1
 62
    18
420
        0
176
     1
 90
       50
176
     1
 90
        3
176
     1
 62
     5
420
      255
176
     1
290
     0
176
     1
 90
       50
176
     1
 90
       50
176
     1
 90
       50
176
     1
290
     0
176
     1
 90
       50
176
     1
 62
   256
176
     0
 40
1.0
176
     0
 90
        2
176
     1
  1
strokes_ogs.tif
176
     1
290
     0
176
     1
 40
1.0
176
     1
 40
1.0
176
     1
1001
ACAD
1000
AcDbSavedByObjectVersion
1070
     0
  0
VISUALSTYLE
  5
8093
102
{ACAD_REACTORS
330
808A
102
}
330
808A
100
AcDbVisualStyle
  2
Conceptual
 70
     9
177
     3
291
     0
 70
    58
 90
        3
176
     1
 90
        2
176
     1
 90
        0
176
     1
 90
        0
176
     1
 40
0.6
176
     1
 40
30.0
176
     1
 62
     7
420
 16777215
176
     1
 90
        2
176
     1
 90
        2
176
     1
 62
     7
176
     1
 62
   257
176
     1
 90
        1
176
     1
 90
        1
176
     1
 40
179.0
176
     1
 90
        8
176
     1
 62
     7
176
     1
 40
1.0
176
     1
 90
        1
176
     1
 90
        6
176
     1
 90
        2
176
     1
 62
     7
176
     1
 90
        3
176
     1
 90
        0
176
     1
 90
        0
176
     1
290
     0
176
     1
 90
        1
176
     1
 40
0.0
176
     1
 90
        0
176
     1
290
     0
176
     1
290
     1
176
     1
290
     1
176
     1
290
     0
176
     1
290
     0
176
     1
290
     0
176
     1
290
     0
176
     1
290
     0
176
     1
290
     0
176
     1
 90
       50
176
     1
 40
0.0
176
     1
 40
1.0
176
     1
 90
        0
176
     1
 62
    18
420
        0
176
     1
 90
       50
176
     1
 90
        3
176
     1
 62
     5
420
      255
176
     1
290
     0
176
     1
 90
       50
176
     1
 90
       50
176
     1
 90
       50
176
     1
290
     0
176
     1
 90
       50
176
     1
 62
   256
176
     0
 40
1.0
176
     0
 90
        2
176
     1
  1
strokes_ogs.tif
176
     1
290
     0
176
     1
 40
1.0
176
     1
 40
1.0
176
     1
1001
ACAD
1000
AcDbSavedByObjectVersion
1070
     0
  0
VISUALSTYLE
  5
8095
102
{ACAD_REACTORS
330
808A
102
}
330
808A
100
AcDbVisualStyle
  2
Dim
 70
    11
177
     3
291
     1
 70
    58
 90
        2
176
     1
 90
        2
176
     1
 90
        0
176
     1
 90
        0
176
     1
 40
0.6
176
     1
 40
30.0
176
     1
 62
     7
420
 16777215
176
     1
 90
        1
176
     1
 90
        4
176
     1
 62
     7
176
     1
 62
   257
176
     1
 90
        1
176
     1
 90
        1
176
     1
 40
1.0
176
     1
 90
        8
176
     1
 62
     7
176
     1
 40
1.0
176
     1
 90
        1
176
     1
 90
        6
176
     1
 90
        2
176
     1
 62
     7
176
     1
 90
        5
176
     1
 90
        0
176
     1
 90
        0
176
     1
290
     0
176
     1
 90
        1
176
     1
 40
-50.0
176
     1
 90
        0
176
     1
290
     0
176
     1
290
     1
176
     1
290
     1
176
     1
290
     0
176
     1
290
     0
176
     1
290
     0
176
     1
290
     0
176
     1
290
     0
176
     1
290
     0
176
     1
 90
       50
176
     1
 40
0.0
176
     1
 40
1.0
176
     1
 90
        0
176
     1
 62
    18
420
        0
176
     1
 90
       50
176
     1
 90
        3
176
     1
 62
     5
420
      255
176
     1
290
     0
176
     1
 90
       50
176
     1
 90
       50
176
     1
 90
       50
176
     1
290
     0
176
     1
 90
       50
176
     1
 62
   256
176
     0
 40
1.0
176
     0
 90
        2
176
     1
  1
strokes_ogs.tif
176
     1
290
     0
176
     1
 40
1.0
176
     1
 40
1.0
176
     1
1001
ACAD
1000
AcDbSavedByObjectVersion
1070
     0
  0
VISUALSTYLE
  5
80A2
102
{ACAD_REACTORS
330
808A
102
}
330
808A
100
AcDbVisualStyle
  2
EdgeColorOff
 70
    22
177
     3
291
     1
 70
    58
 90
        2
176
     0
 90
        2
176
     0
 90
        0
176
     0
 90
        0
176
     0
 40
0.6
176
     0
 40
30.0
176
     0
 62
     7
420
 16777215
176
     0
 90
        1
176
     0
 90
        4
176
     0
 62
     7
176
     0
 62
   257
176
     0
 90
        1
176
     0
 90
        1
176
     0
 40
1.0
176
     0
 90
        8
176
     2
 62
     7
176
     0
 40
1.0
176
     0
 90
        1
176
     0
 90
        6
176
     0
 90
        2
176
     0
 62
     7
176
     0
 90
        5
176
     0
 90
        0
176
     0
 90
        0
176
     0
290
     0
176
     0
 90
        1
176
     0
 40
0.0
176
     0
 90
        0
176
     0
290
     0
176
     0
290
     1
176
     0
290
     1
176
     0
290
     0
176
     0
290
     0
176
     0
290
     0
176
     0
290
     0
176
     0
290
     0
176
     0
290
     0
176
     0
 90
       50
176
     0
 40
0.0
176
     0
 40
1.0
176
     0
 90
        0
176
     0
 62
    18
420
        0
176
     0
 90
       50
176
     0
 90
        3
176
     0
 62
     5
420
      255
176
     0
290
     0
176
     0
 90
       50
176
     0
 90
       50
176
     0
 90
       50
176
     0
290
     0
176
     0
 90
       50
176
     0
 62
   256
176
     0
 40
1.0
176
     0
 90
        2
176
     0
  1
strokes_ogs.tif
176
     0
290
     0
176
     0
 40
1.0
176
     0
 40
1.0
176
     0
1001
ACAD
1000
AcDbSavedByObjectVersion
1070
     0
  0
VISUALSTYLE
  5
8099
102
{ACAD_REACTORS
330
808A
102
}
330
808A
100
AcDbVisualStyle
  2
Facepattern
 70
    15
177
     3
291
     1
 70
    58
 90
        2
176
     1
 90
        2
176
     1
 90
        0
176
     1
 90
        0
176
     1
 40
0.6
176
     1
 40
30.0
176
     1
 62
     7
420
 16777215
176
     1
 90
        1
176
     1
 90
        4
176
     1
 62
     7
176
     1
 62
   257
176
     1
 90
        1
176
     1
 90
        1
176
     1
 40
1.0
176
     1
 90
        8
176
     1
 62
     7
176
     1
 40
1.0
176
     1
 90
        1
176
     1
 90
        6
176
     1
 90
        2
176
     1
 62
     7
176
     1
 90
        5
176
     1
 90
        0
176
     1
 90
        0
176
     1
290
     0
176
     1
 90
        1
176
     1
 40
0.0
176
     1
 90
        0
176
     1
290
     0
176
     1
290
     1
176
     1
290
     1
176
     1
290
     0
176
     1
290
     0
176
     1
290
     0
176
     1
290
     0
176
     1
290
     0
176
     1
290
     0
176
     1
 90
       50
176
     1
 40
0.0
176
     1
 40
1.0
176
     1
 90
        0
176
     1
 62
    18
420
        0
176
     1
 90
       50
176
     1
 90
        3
176
     1
 62
     5
420
      255
176
     1
290
     0
176
     1
 90
       50
176
     1
 90
       50
176
     1
 90
       50
176
     1
290
     0
176
     1
 90
       50
176
     1
 62
   256
176
     0
 40
1.0
176
     0
 90
        2
176
     1
  1
strokes_ogs.tif
176
     1
290
     0
176
     1
 40
1.0
176
     1
 40
1.0
176
     1
1001
ACAD
1000
AcDbSavedByObjectVersion
1070
     0
  0
VISUALSTYLE
  5
808B
102
{ACAD_REACTORS
330
808A
102
}
330
808A
100
AcDbVisualStyle
  2
Flat
 70
     0
177
     3
291
     1
 70
    58
 90
        2
176
     1
 90
        1
176
     1
 90
        1
176
     1
 90
        2
176
     1
 40
0.6
176
     1
 40
30.0
176
     1
 62
     7
420
 16777215
176
     1
 90
        0
176
     1
 90
        0
176
     1
 62
     7
176
     1
 62
   257
176
     1
 90
        1
176
     1
 90
        1
176
     1
 40
1.0
176
     1
 90
        8
176
     1
 62
     7
176
     1
 40
1.0
176
     1
 90
        1
176
     1
 90
        6
176
     1
 90
        2
176
     1
 62
     7
176
     1
 90
        5
176
     1
 90
        0
176
     1
 90
        0
176
     1
290
     0
176
     1
 90
       13
176
     1
 40
0.0
176
     1
 90
        0
176
     1
290
     0
176
     1
290
     1
176
     1
290
     1
176
     1
290
     0
176
     1
290
     0
176
     1
290
     0
176
     1
290
     0
176
     1
290
     0
176
     1
290
     0
176
     1
 90
       50
176
     1
 40
0.0
176
     1
 40
1.0
176
     1
 90
        0
176
     1
 62
    18
420
        0
176
     1
 90
       50
176
     1
 90
        3
176
     1
 62
     5
420
      255
176
     1
290
     0
176
     1
 90
       50
176
     1
 90
       50
176
     1
 90
       50
176
     1
290
     0
176
     1
 90
       50
176
     1
 62
   256
176
     0
 40
1.0
176
     0
 90
        2
176
     1
  1
strokes_ogs.tif
176
     1
290
     0
176
     1
 40
1.0
176
     1
 40
1.0
176
     1
1001
ACAD
1000
AcDbSavedByObjectVersion
1070
     0
  0
VISUALSTYLE
  5
808C
102
{ACAD_REACTORS
330
808A
102
}
330
808A
100
AcDbVisualStyle
  2
FlatWithEdges
 70
     1
177
     3
291
     1
 70
    58
 90
        2
176
     1
 90
        1
176
     1
 90
        1
176
     1
 90
        2
176
     1
 40
0.6
176
     1
 40
30.0
176
     1
 62
     7
420
 16777215
176
     1
 90
        1
176
     1
 90
        0
176
     1
 62
     7
176
     1
 62
   257
176
     1
 90
        1
176
     1
 90
        1
176
     1
 40
1.0
176
     1
 90
        0
176
     1
 62
   257
176
     1
 40
1.0
176
     1
 90
        1
176
     1
 90
        6
176
     1
 90
        2
176
     1
 62
     7
176
     1
 90
        5
176
     1
 90
        0
176
     1
 90
        0
176
     1
290
     0
176
     1
 90
       13
176
     1
 40
0.0
176
     1
 90
        0
176
     1
290
     0
176
     1
290
     1
176
     1
290
     1
176
     1
290
     0
176
     1
290
     0
176
     1
290
     0
176
     1
290
     0
176
     1
290
     0
176
     1
290
     0
176
     1
 90
       50
176
     1
 40
0.0
176
     1
 40
1.0
176
     1
 90
        0
176
     1
 62
    18
420
        0
176
     1
 90
       50
176
     1
 90
        3
176
     1
 62
     5
420
      255
176
     1
290
     0
176
     1
 90
       50
176
     1
 90
       50
176
     1
 90
       50
176
     1
290
     0
176
     1
 90
       50
176
     1
 62
   256
176
     0
 40
1.0
176
     0
 90
        2
176
     1
  1
strokes_ogs.tif
176
     1
290
     0
176
     1
 40
1.0
176
     1
 40
1.0
176
     1
1001
ACAD
1000
AcDbSavedByObjectVersion
1070
     0
  0
VISUALSTYLE
  5
808D
102
{ACAD_REACTORS
330
808A
102
}
330
808A
100
AcDbVisualStyle
  2
Gouraud
 70
     2
177
     3
291
     1
 70
    58
 90
        2
176
     1
 90
        2
176
     1
 90
        1
176
     1
 90
        2
176
     1
 40
0.6
176
     1
 40
30.0
176
     1
 62
     7
420
 16777215
176
     1
 90
        0
176
     1
 90
        0
176
     1
 62
     7
176
     1
 62
   257
176
     1
 90
        1
176
     1
 90
        1
176
     1
 40
1.0
176
     1
 90
        0
176
     1
 62
     7
176
     1
 40
1.0
176
     1
 90
        1
176
     1
 90
        6
176
     1
 90
        2
176
     1
 62
     7
176
     1
 90
        5
176
     1
 90
        0
176
     1
 90
        0
176
     1
290
     0
176
     1
 90
       13
176
     1
 40
0.0
176
     1
 90
        0
176
     1
290
     0
176
     1
290
     1
176
     1
290
     1
176
     1
290
     0
176
     1
290
     0
176
     1
290
     0
176
     1
290
     0
176
     1
290
     0
176
     1
290
     0
176
     1
 90
       50
176
     1
 40
0.0
176
     1
 40
1.0
176
     1
 90
        0
176
     1
 62
    18
420
        0
176
     1
 90
       50
176
     1
 90
        3
176
     1
 62
     5
420
      255
176
     1
290
     0
176
     1
 90
       50
176
     1
 90
       50
176
     1
 90
       50
176
     1
290
     0
176
     1
 90
       50
176
     1
 62
   256
176
     0
 40
1.0
176
     0
 90
        2
176
     1
  1
strokes_ogs.tif
176
     1
290
     0
176
     1
 40
1.0
176
     1
 40
1.0
176
     1
1001
ACAD
1000
AcDbSavedByObjectVersion
1070
     0
  0
VISUALSTYLE
  5
808E
102
{ACAD_REACTORS
330
808A
102
}
330
808A
100
AcDbVisualStyle
  2
GouraudWithEdges
 70
     3
177
     3
291
     1
 70
    58
 90
        2
176
     1
 90
        2
176
     1
 90
        1
176
     1
 90
        2
176
     1
 40
0.6
176
     1
 40
30.0
176
     1
 62
     7
420
 16777215
176
     1
 90
        1
176
     1
 90
        0
176
     1
 62
     7
176
     1
 62
   257
176
     1
 90
        1
176
     1
 90
        1
176
     1
 40
1.0
176
     1
 90
        0
176
     1
 62
   257
176
     1
 40
1.0
176
     1
 90
        1
176
     1
 90
        6
176
     1
 90
        2
176
     1
 62
     7
176
     1
 90
        5
176
     1
 90
        0
176
     1
 90
        0
176
     1
290
     0
176
     1
 90
       13
176
     1
 40
0.0
176
     1
 90
        0
176
     1
290
     0
176
     1
290
     1
176
     1
290
     1
176
     1
290
     0
176
     1
290
     0
176
     1
290
     0
176
     1
290
     0
176
     1
290
     0
176
     1
290
     0
176
     1
 90
       50
176
     1
 40
0.0
176
     1
 40
1.0
176
     1
 90
        0
176
     1
 62
    18
420
        0
176
     1
 90
       50
176
     1
 90
        3
176
     1
 62
     5
420
      255
176
     1
290
     0
176
     1
 90
       50
176
     1
 90
       50
176
     1
 90
       50
176
     1
290
     0
176
     1
 90
       50
176
     1
 62
   256
176
     0
 40
1.0
176
     0
 90
        2
176
     1
  1
strokes_ogs.tif
176
     1
290
     0
176
     1
 40
1.0
176
     1
 40
1.0
176
     1
1001
ACAD
1000
AcDbSavedByObjectVersion
1070
     0
  0
VISUALSTYLE
  5
8092
102
{ACAD_REACTORS
330
808A
102
}
330
808A
100
AcDbVisualStyle
  2
Hidden
 70
     6
177
     3
291
     0
 70
    58
 90
        1
176
     1
 90
        2
176
     1
 90
        2
176
     1
 90
        0
176
     1
 40
0.6
176
     1
 40
30.0
176
     1
 62
     7
420
 16777215
176
     1
 90
        2
176
     1
 90
        2
176
     1
 62
     7
176
     1
 62
   257
176
     1
 90
        2
176
     1
 90
        1
176
     1
 40
40.0
176
     1
 90
        0
176
     1
 62
   257
176
     1
 40
1.0
176
     1
 90
        1
176
     1
 90
        6
176
     1
 90
        2
176
     1
 62
     7
176
     1
 90
        3
176
     1
 90
        0
176
     1
 90
        0
176
     1
290
     0
176
     1
 90
        1
176
     1
 40
0.0
176
     1
 90
        0
176
     1
290
     0
176
     1
290
     1
176
     1
290
     1
176
     1
290
     0
176
     1
290
     0
176
     1
290
     0
176
     1
290
     0
176
     1
290
     0
176
     1
290
     0
176
     1
 90
       50
176
     1
 40
0.0
176
     1
 40
1.0
176
     1
 90
        0
176
     1
 62
    18
420
        0
176
     1
 90
       50
176
     1
 90
        3
176
     1
 62
     5
420
      255
176
     1
290
     0
176
     1
 90
       50
176
     1
 90
       50
176
     1
 90
       50
176
     1
290
     0
176
     1
 90
       50
176
     1
 62
   256
176
     0
 40
1.0
176
     0
 90
        2
176
     1
  1
strokes_ogs.tif
176
     1
290
     0
176
     1
 40
1.0
176
     1
 40
1.0
176
     1
1001
ACAD
1000
AcDbSavedByObjectVersion
1070
     0
  0
VISUALSTYLE
  5
80A0
102
{ACAD_REACTORS
330
808A
102
}
330
808A
100
AcDbVisualStyle
  2
JitterOff
 70
    20
177
     3
291
     1
 70
    58
 90
        2
176
     0
 90
        2
176
     0
 90
        0
176
     0
 90
        0
176
     0
 40
0.6
176
     0
 40
30.0
176
     0
 62
     7
420
 16777215
176
     0
 90
        1
176
     0
 90
        4
176
     0
 62
     7
176
     0
 62
   257
176
     0
 90
        1
176
     0
 90
        1
176
     0
 40
1.0
176
     0
 90
       10
176
     2
 62
     7
176
     0
 40
1.0
176
     0
 90
        1
176
     0
 90
        6
176
     0
 90
        2
176
     0
 62
     7
176
     0
 90
        5
176
     0
 90
        0
176
     0
 90
        0
176
     0
290
     0
176
     0
 90
        1
176
     0
 40
0.0
176
     0
 90
        0
176
     0
290
     0
176
     0
290
     1
176
     0
290
     1
176
     0
290
     0
176
     0
290
     0
176
     0
290
     0
176
     0
290
     0
176
     0
290
     0
176
     0
290
     0
176
     0
 90
       50
176
     0
 40
0.0
176
     0
 40
1.0
176
     0
 90
        0
176
     0
 62
    18
420
        0
176
     0
 90
       50
176
     0
 90
        3
176
     0
 62
     5
420
      255
176
     0
290
     0
176
     0
 90
       50
176
     0
 90
       50
176
     0
 90
       50
176
     0
290
     0
176
     0
 90
       50
176
     0
 62
   256
176
     0
 40
1.0
176
     0
 90
        2
176
     0
  1
strokes_ogs.tif
176
     0
290
     0
176
     0
 40
1.0
176
     0
 40
1.0
176
     0
1001
ACAD
1000
AcDbSavedByObjectVersion
1070
     0
  0
VISUALSTYLE
  5
8098
102
{ACAD_REACTORS
330
808A
102
}
330
808A
100
AcDbVisualStyle
  2
Linepattern
 70
    14
177
     3
291
     1
 70
    58
 90
        2
176
     1
 90
        2
176
     1
 90
        0
176
     1
 90
        0
176
     1
 40
0.6
176
     1
 40
30.0
176
     1
 62
     7
420
 16777215
176
     1
 90
        1
176
     1
 90
        4
176
     1
 62
     7
176
     1
 62
   257
176
     1
 90
        7
176
     1
 90
        7
176
     1
 40
1.0
176
     1
 90
        8
176
     1
 62
     7
176
     1
 40
1.0
176
     1
 90
        1
176
     1
 90
        6
176
     1
 90
        2
176
     1
 62
     7
176
     1
 90
        5
176
     1
 90
        0
176
     1
 90
        0
176
     1
290
     0
176
     1
 90
        1
176
     1
 40
0.0
176
     1
 90
        0
176
     1
290
     0
176
     1
290
     1
176
     1
290
     1
176
     1
290
     0
176
     1
290
     0
176
     1
290
     0
176
     1
290
     0
176
     1
290
     0
176
     1
290
     0
176
     1
 90
       50
176
     1
 40
0.0
176
     1
 40
1.0
176
     1
 90
        0
176
     1
 62
    18
420
        0
176
     1
 90
       50
176
     1
 90
        3
176
     1
 62
     5
420
      255
176
     1
290
     0
176
     1
 90
       50
176
     1
 90
       50
176
     1
 90
       50
176
     1
290
     0
176
     1
 90
       50
176
     1
 62
   256
176
     0
 40
1.0
176
     0
 90
        2
176
     1
  1
strokes_ogs.tif
176
     1
290
     0
176
     1
 40
1.0
176
     1
 40
1.0
176
     1
1001
ACAD
1000
AcDbSavedByObjectVersion
1070
     0
  0
VISUALSTYLE
  5
80A1
102
{ACAD_REACTORS
330
808A
102
}
330
808A
100
AcDbVisualStyle
  2
OverhangOff
 70
    21
177
     3
291
     1
 70
    58
 90
        2
176
     0
 90
        2
176
     0
 90
        0
176
     0
 90
        0
176
     0
 40
0.6
176
     0
 40
30.0
176
     0
 62
     7
420
 16777215
176
     0
 90
        1
176
     0
 90
        4
176
     0
 62
     7
176
     0
 62
   257
176
     0
 90
        1
176
     0
 90
        1
176
     0
 40
1.0
176
     0
 90
        9
176
     2
 62
     7
176
     0
 40
1.0
176
     0
 90
        1
176
     0
 90
        6
176
     0
 90
        2
176
     0
 62
     7
176
     0
 90
        5
176
     0
 90
        0
176
     0
 90
        0
176
     0
290
     0
176
     0
 90
        1
176
     0
 40
0.0
176
     0
 90
        0
176
     0
290
     0
176
     0
290
     1
176
     0
290
     1
176
     0
290
     0
176
     0
290
     0
176
     0
290
     0
176
     0
290
     0
176
     0
290
     0
176
     0
290
     0
176
     0
 90
       50
176
     0
 40
0.0
176
     0
 40
1.0
176
     0
 90
        0
176
     0
 62
    18
420
        0
176
     0
 90
       50
176
     0
 90
        3
176
     0
 62
     5
420
      255
176
     0
290
     0
176
     0
 90
       50
176
     0
 90
       50
176
     0
 90
       50
176
     0
290
     0
176
     0
 90
       50
176
     0
 62
   256
176
     0
 40
1.0
176
     0
 90
        2
176
     0
  1
strokes_ogs.tif
176
     0
290
     0
176
     0
 40
1.0
176
     0
 40
1.0
176
     0
1001
ACAD
1000
AcDbSavedByObjectVersion
1070
     0
  0
VISUALSTYLE
  5
8094
102
{ACAD_REACTORS
330
808A
102
}
330
808A
100
AcDbVisualStyle
  2
Realistic
 70
     8
177
     3
291
     0
 70
    58
 90
        2
176
     1
 90
        3
176
     1
 90
        0
176
     1
 90
        2
176
     1
 40
0.6
176
     1
 40
30.0
176
     1
 62
     7
420
 16777215
176
     1
 90
        0
176
     1
 90
        0
176
     1
 62
     7
176
     1
 62
   257
176
     1
 90
        1
176
     1
 90
        1
176
     1
 40
1.0
176
     1
 90
        8
176
     1
 62
   257
176
     1
 40
1.0
176
     1
 90
        1
176
     1
 90
        6
176
     1
 90
        2
176
     1
 62
     7
176
     1
 90
        3
176
     1
 90
        0
176
     1
 90
        0
176
     1
290
     0
176
     1
 90
       13
176
     1
 40
0.0
176
     1
 90
        0
176
     1
290
     0
176
     1
290
     1
176
     1
290
     1
176
     1
290
     0
176
     1
290
     0
176
     1
290
     0
176
     1
290
     0
176
     1
290
     0
176
     1
290
     0
176
     1
 90
       50
176
     1
 40
0.0
176
     1
 40
1.0
176
     1
 90
        0
176
     1
 62
    18
420
        0
176
     1
 90
       50
176
     1
 90
        3
176
     1
 62
     5
420
      255
176
     1
290
     0
176
     1
 90
       50
176
     1
 90
       50
176
     1
 90
       50
176
     1
290
     0
176
     1
 90
       50
176
     1
 62
   256
176
     0
 40
1.0
176
     0
 90
        2
176
     1
  1
strokes_ogs.tif
176
     1
290
     0
176
     1
 40
1.0
176
     1
 40
1.0
176
     1
1001
ACAD
1000
AcDbSavedByObjectVersion
1070
     0
  0
VISUALSTYLE
  5
809F
102
{ACAD_REACTORS
330
808A
102
}
330
808A
100
AcDbVisualStyle
  2
Shaded
 70
    27
177
     3
291
     0
 70
    58
 90
        2
176
     1
 90
        2
176
     1
 90
        1
176
     1
 90
        2
176
     1
 40
0.6
176
     1
 40
30.0
176
     1
 62
     7
420
 16777215
176
     1
 90
        0
176
     1
 90
        4
176
     1
 62
     7
176
     1
 62
   257
176
     1
 90
        1
176
     1
 90
        1
176
     1
 40
1.0
176
     1
 90
        8
176
     1
 62
   257
176
     1
 40
1.0
176
     1
 90
        1
176
     1
 90
        6
176
     1
 90
        2
176
     1
 62
     8
420
  7895160
176
     1
 90
        3
176
     1
 90
        0
176
     1
 90
        0
176
     1
290
     0
176
     1
 90
        5
176
     1
 40
0.0
176
     1
 90
        0
176
     1
290
     0
176
     1
290
     1
176
     1
290
     1
176
     1
290
     0
176
     1
290
     0
176
     1
290
     0
176
     1
290
     0
176
     1
290
     0
176
     1
290
     0
176
     1
 90
       50
176
     1
 40
0.0
176
     1
 40
1.0
176
     1
 90
        0
176
     1
 62
    18
420
        0
176
     1
 90
       50
176
     1
 90
        3
176
     1
 62
     5
420
      255
176
     1
290
     0
176
     1
 90
       50
176
     1
 90
       50
176
     1
 90
       50
176
     1
290
     0
176
     1
 90
       50
176
     1
 62
   256
176
     0
 40
1.0
176
     0
 90
        2
176
     1
  1
strokes_ogs.tif
176
     1
290
     0
176
     1
 40
1.0
176
     1
 40
1.0
176
     1
1001
ACAD
1000
AcDbSavedByObjectVersion
1070
     0
  0
VISUALSTYLE
  5
809E
102
{ACAD_REACTORS
330
808A
102
}
330
808A
100
AcDbVisualStyle
  2
Shaded with edges
 70
    26
177
     3
291
     0
 70
    58
 90
        2
176
     1
 90
        2
176
     1
 90
        1
176
     1
 90
        2
176
     1
 40
0.6
176
     1
 40
30.0
176
     1
 62
     7
420
 16777215
176
     1
 90
        1
176
     1
 90
        2
176
     1
 62
     7
176
     1
 62
   257
176
     1
 90
        2
176
     1
 90
        1
176
     1
 40
1.0
176
     1
 90
        8
176
     1
 62
   257
176
     1
 40
1.0
176
     1
 90
        1
176
     1
 90
        6
176
     1
 90
        2
176
     1
 62
     7
176
     1
 90
        3
176
     1
 90
        0
176
     1
 90
        0
176
     1
290
     0
176
     1
 90
        5
176
     1
 40
0.0
176
     1
 90
        0
176
     1
290
     0
176
     1
290
     1
176
     1
290
     1
176
     1
290
     0
176
     1
290
     0
176
     1
290
     0
176
     1
290
     0
176
     1
290
     0
176
     1
290
     0
176
     1
 90
       50
176
     1
 40
0.0
176
     1
 40
1.0
176
     1
 90
        0
176
     1
 62
    18
420
        0
176
     1
 90
       50
176
     1
 90
        3
176
     1
 62
     5
420
      255
176
     1
290
     0
176
     1
 90
       50
176
     1
 90
       50
176
     1
 90
       50
176
     1
290
     0
176
     1
 90
       50
176
     1
 62
   256
176
     0
 40
1.0
176
     0
 90
        2
176
     1
  1
strokes_ogs.tif
176
     1
290
     0
176
     1
 40
1.0
176
     1
 40
1.0
176
     1
1001
ACAD
1000
AcDbSavedByObjectVersion
1070
     0
  0
VISUALSTYLE
  5
809B
102
{ACAD_REACTORS
330
808A
102
}
330
808A
100
AcDbVisualStyle
  2
Shades of Gray
 70
    23
177
     3
291
     0
 70
    58
 90
        2
176
     1
 90
        2
176
     1
 90
        3
176
     1
 90
        0
176
     1
 40
0.6
176
     1
 40
30.0
176
     1
 62
     7
420
 16777215
176
     1
 90
        2
176
     1
 90
        2
176
     1
 62
     7
176
     1
 62
     7
176
     1
 90
        1
176
     1
 90
        1
176
     1
 40
40.0
176
     1
 90
        8
176
     1
 62
     7
176
     1
 40
1.0
176
     1
 90
        1
176
     1
 90
        6
176
     1
 90
        2
176
     1
 62
     7
176
     1
 90
        3
176
     1
 90
        0
176
     1
 90
        0
176
     1
290
     0
176
     1
 90
        1
176
     1
 40
0.0
176
     1
 90
        0
176
     1
290
     0
176
     1
290
     1
176
     1
290
     1
176
     1
290
     0
176
     1
290
     0
176
     1
290
     0
176
     1
290
     0
176
     1
290
     0
176
     1
290
     0
176
     1
 90
       50
176
     1
 40
0.0
176
     1
 40
1.0
176
     1
 90
        0
176
     1
 62
    18
420
        0
176
     1
 90
       50
176
     1
 90
        3
176
     1
 62
     5
420
      255
176
     1
290
     0
176
     1
 90
       50
176
     1
 90
       50
176
     1
 90
       50
176
     1
290
     0
176
     1
 90
       50
176
     1
 62
   256
176
     0
 40
1.0
176
     0
 90
        2
176
     1
  1
strokes_ogs.tif
176
     1
290
     0
176
     1
 40
1.0
176
     1
 40
1.0
176
     1
1001
ACAD
1000
AcDbSavedByObjectVersion
1070
     0
  0
VISUALSTYLE
  5
809C
102
{ACAD_REACTORS
330
808A
102
}
330
808A
100
AcDbVisualStyle
  2
Sketchy
 70
    24
177
     3
291
     0
 70
    58
 90
        1
176
     1
 90
        2
176
     1
 90
        2
176
     1
 90
        0
176
     1
 40
0.6
176
     1
 40
30.0
176
     1
 62
     7
420
 16777215
176
     1
 90
        2
176
     1
 90
        2
176
     1
 62
     7
176
     1
 62
     7
176
     1
 90
        1
176
     1
 90
        1
176
     1
 40
40.0
176
     1
 90
       11
176
     1
 62
     7
176
     1
 40
1.0
176
     1
 90
        1
176
     1
 90
        6
176
     1
 90
        2
176
     1
 62
     7
176
     1
 90
        6
176
     1
 90
        0
176
     1
 90
        0
176
     1
290
     0
176
     1
 90
        1
176
     1
 40
0.0
176
     1
 90
        0
176
     1
290
     0
176
     1
290
     1
176
     1
290
     1
176
     1
290
     0
176
     1
290
     0
176
     1
290
     0
176
     1
290
     0
176
     1
290
     0
176
     1
290
     0
176
     1
 90
       50
176
     1
 40
0.0
176
     1
 40
1.0
176
     1
 90
        0
176
     1
 62
    18
420
        0
176
     1
 90
       50
176
     1
 90
        3
176
     1
 62
     5
420
      255
176
     1
290
     0
176
     1
 90
       50
176
     1
 90
       50
176
     1
 90
       50
176
     1
290
     0
176
     1
 90
       50
176
     1
 62
   256
176
     0
 40
1.0
176
     0
 90
        2
176
     1
  1
strokes_ogs.tif
176
     1
290
     0
176
     1
 40
1.0
176
     1
 40
1.0
176
     1
1001
ACAD
1000
AcDbSavedByObjectVersion
1070
     0
  0
VISUALSTYLE
  5
8097
102
{ACAD_REACTORS
330
808A
102
}
330
808A
100
AcDbVisualStyle
  2
Thicken
 70
    13
177
     3
291
     1
 70
    58
 90
        2
176
     1
 90
        2
176
     1
 90
        0
176
     1
 90
        0
176
     1
 40
0.6
176
     1
 40
30.0
176
     1
 62
     7
420
 16777215
176
     1
 90
        1
176
     1
 90
        4
176
     1
 62
     7
176
     1
 62
   257
176
     1
 90
        1
176
     1
 90
        1
176
     1
 40
1.0
176
     1
 90
       12
176
     1
 62
     7
176
     1
 40
1.0
176
     1
 90
        1
176
     1
 90
        6
176
     1
 90
        2
176
     1
 62
     7
176
     1
 90
        5
176
     1
 90
        0
176
     1
 90
        0
176
     1
290
     0
176
     1
 90
        1
176
     1
 40
0.0
176
     1
 90
        0
176
     1
290
     0
176
     1
290
     1
176
     1
290
     1
176
     1
290
     0
176
     1
290
     0
176
     1
290
     0
176
     1
290
     0
176
     1
290
     0
176
     1
290
     0
176
     1
 90
       50
176
     1
 40
0.0
176
     1
 40
1.0
176
     1
 90
        0
176
     1
 62
    18
420
        0
176
     1
 90
       50
176
     1
 90
        3
176
     1
 62
     5
420
      255
176
     1
290
     0
176
     1
 90
       50
176
     1
 90
       50
176
     1
 90
       50
176
     1
290
     0
176
     1
 90
       50
176
     1
 62
   256
176
     0
 40
1.0
176
     0
 90
        2
176
     1
  1
strokes_ogs.tif
176
     1
290
     0
176
     1
 40
1.0
176
     1
 40
1.0
176
     1
1001
ACAD
1000
AcDbSavedByObjectVersion
1070
     0
  0
VISUALSTYLE
  5
8091
102
{ACAD_REACTORS
330
808A
102
}
330
808A
100
AcDbVisualStyle
  2
Wireframe
 70
     5
177
     3
291
     0
 70
    58
 90
        0
176
     1
 90
        2
176
     1
 90
        0
176
     1
 90
        0
176
     1
 40
0.6
176
     1
 40
30.0
176
     1
 62
     7
420
 16777215
176
     1
 90
        1
176
     1
 90
        4
176
     1
 62
     7
176
     1
 62
   257
176
     1
 90
        1
176
     1
 90
        1
176
     1
 40
1.0
176
     1
 90
        0
176
     1
 62
   257
176
     1
 40
1.0
176
     1
 90
        1
176
     1
 90
        6
176
     1
 90
        2
176
     1
 62
     7
176
     1
 90
        3
176
     1
 90
        0
176
     1
 90
        0
176
     1
290
     0
176
     1
 90
        1
176
     1
 40
0.0
176
     1
 90
        0
176
     1
290
     0
176
     1
290
     1
176
     1
290
     1
176
     1
290
     0
176
     1
290
     0
176
     1
290
     0
176
     1
290
     0
176
     1
290
     0
176
     1
290
     0
176
     1
 90
       50
176
     1
 40
0.0
176
     1
 40
1.0
176
     1
 90
        0
176
     1
 62
    18
420
        0
176
     1
 90
       50
176
     1
 90
        3
176
     1
 62
     5
420
      255
176
     1
290
     0
176
     1
 90
       50
176
     1
 90
       50
176
     1
 90
       50
176
     1
290
     0
176
     1
 90
       50
176
     1
 62
   256
176
     0
 40
1.0
176
     0
 90
        2
176
     1
  1
strokes_ogs.tif
176
     1
290
     0
176
     1
 40
1.0
176
     1
 40
1.0
176
     1
1001
ACAD
1000
AcDbSavedByObjectVersion
1070
     0
  0
VISUALSTYLE
  5
809D
102
{ACAD_REACTORS
330
808A
102
}
330
808A
100
AcDbVisualStyle
  2
X-Ray
 70
    25
177
     3
291
     0
 70
    58
 90
        2
176
     1
 90
        2
176
     1
 90
        1
176
     1
 90
        1
176
     1
 40
0.5
176
     1
 40
30.0
176
     1
 62
     7
420
 16777215
176
     1
 90
        1
176
     1
 90
        0
176
     1
 62
     7
176
     1
 62
   257
176
     1
 90
        1
176
     1
 90
        1
176
     1
 40
1.0
176
     1
 90
        8
176
     1
 62
     7
176
     1
 40
1.0
176
     1
 90
        1
176
     1
 90
        6
176
     1
 90
        2
176
     1
 62
     7
176
     1
 90
        3
176
     1
 90
        0
176
     1
 90
        0
176
     1
290
     0
176
     1
 90
       13
176
     1
 40
0.0
176
     1
 90
        0
176
     1
290
     0
176
     1
290
     1
176
     1
290
     1
176
     1
290
     0
176
     1
290
     0
176
     1
290
     0
176
     1
290
     0
176
     1
290
     0
176
     1
290
     0
176
     1
 90
       50
176
     1
 40
0.0
176
     1
 40
1.0
176
     1
 90
        0
176
     1
 62
    18
420
        0
176
     1
 90
       50
176
     1
 90
        3
176
     1
 62
     5
420
      255
176
     1
290
     0
176
     1
 90
       50
176
     1
 90
       50
176
     1
 90
       50
176
     1
290
     0
176
     1
 90
       50
176
     1
 62
   256
176
     0
 40
1.0
176
     0
 90
        2
176
     1
  1
strokes_ogs.tif
176
     1
290
     0
176
     1
 40
1.0
176
     1
 40
1.0
176
     1
1001
ACAD
1000
AcDbSavedByObjectVersion
1070
     0
  0
DICTIONARYVAR
  5
8184
102
{ACAD_REACTORS
330
8068
102
}
330
8068
100
DictionaryVariables
280
     0
  1
1:1
  0
DICTIONARYVAR
  5
8180
102
{ACAD_REACTORS
330
8068
102
}
330
8068
100
DictionaryVariables
280
     0
  1
STANDARD
  0
DICTIONARYVAR
  5
817F
102
{ACAD_REACTORS
330
8068
102
}
330
8068
100
DictionaryVariables
280
     0
  1
STANDARD
  0
DICTIONARYVAR
  5
8181
102
{ACAD_REACTORS
330
8068
102
}
330
8068
100
DictionaryVariables
280
     0
  1
Metric50
  0
DICTIONARYVAR
  5
8182
102
{ACAD_REACTORS
330
8068
102
}
330
8068
100
DictionaryVariables
280
     0
  1
Metric50
  0
DICTIONARYVAR
  5
8069
102
{ACAD_REACTORS
330
8068
102
}
330
8068
100
DictionaryVariables
280
     0
  1
1
  0
DICTIONARYVAR
  5
8186
102
{ACAD_REACTORS
330
8068
102
}
330
8068
100
DictionaryVariables
280
     0
  1
1
  0
DICTIONARYVAR
  5
8187
102
{ACAD_REACTORS
330
8068
102
}
330
8068
100
DictionaryVariables
280
     0
  1
15
  0
DICTIONARYVAR
  5
8185
102
{ACAD_REACTORS
330
8068
102
}
330
8068
100
DictionaryVariables
280
     0
  1
0
  0
DICTIONARYVAR
  5
818C
102
{ACAD_REACTORS
330
8068
102
}
330
8068
100
DictionaryVariables
280
     0
  1
0
  0
DICTIONARYVAR
  5
8183
102
{ACAD_REACTORS
330
8068
102
}
330
8068
100
DictionaryVariables
280
     0
  1
0
  0
DICTIONARY
  5
8197
102
{ACAD_REACTORS
330
8195
102
}
330
8195
100
AcDbDictionary
281
     1
  0
DICTIONARY
  5
8196
102
{ACAD_REACTORS
330
8195
102
}
330
8195
100
AcDbDictionary
281
     1
  3
2045551106432
350
8190
  3
2045551106448
350
8191
  3
2045551106464
350
8192
  3
2045551106480
350
8193
  3
2045551106496
350
8194
  0
DICTIONARY
  5
819A
330
80BD
100
AcDbDictionary
280
     1
281
     1
  3
ACAD_XREC_ROUNDTRIP
360
819B
  0
DICTIONARY
  5
807B
330
807A
100
AcDbDictionary
280
     1
281
     1
  3
BUMPTILE
360
807D
  3
DIFFUSETILE
360
807C
  3
OPACITYTILE
360
8080
  3
REFLECTIONTILE
360
807F
  3
REFRACTIONTILE
360
8081
  3
SPECULARTILE
360
807E
  0
DICTIONARY
  5
8073
330
8072
100
AcDbDictionary
280
     1
281
     1
  3
BUMPTILE
360
8075
  3
DIFFUSETILE
360
8074
  3
OPACITYTILE
360
8078
  3
REFLECTIONTILE
360
8077
  3
REFRACTIONTILE
360
8079
  3
SPECULARTILE
360
8076
  0
DICTIONARY
  5
8083
330
8082
100
AcDbDictionary
280
     1
281
     1
  3
BUMPTILE
360
8085
  3
DIFFUSETILE
360
8084
  3
OPACITYTILE
360
8088
  3
REFLECTIONTILE
360
8087
  3
REFRACTIONTILE
360
8089
  3
SPECULARTILE
360
8086
  0
DICTIONARY
  5
8198
330
80BB
100
AcDbDictionary
280
     1
281
     1
  3
ACAD_XREC_ROUNDTRIP
360
8199
  0
DICTIONARY
  5
818D
330
80A5
100
AcDbDictionary
280
     1
281
     1
  3
ACAD_ROUNDTRIP_2008_TABLESTYLE_CELLSTYLEMAP
360
818E
  0
XRECORD
  5
8190
102
{ACAD_REACTORS
330
8196
102
}
330
8196
100
AcDbXrecord
280
     1
  1
AcDb_Thumbnail_Schema
102
{ATTRRECORD
341
8191
  2
AcDbDs::TreatedAsObjectData
280
     1
291
     1
102
ATTRRECORD}
102
{ATTRRECORD
341
8192
  2
AcDbDs::Legacy
280
     1
291
     1
102
ATTRRECORD}
  2
AcDbDs::ID
280
    10
 91
        8
102
{ATTRRECORD
341
8193
  2
AcDs:Indexable
280
     1
291
     1
102
ATTRRECORD}
102
{ATTRRECORD
341
8194
  2
AcDbDs::HandleAttribute
280
     7
282
     1
102
ATTRRECORD}
  2
Thumbnail_Data
280
    15
 91
        0
  0
XRECORD
  5
8191
102
{ACAD_REACTORS
330
8196
102
}
330
8196
100
AcDbXrecord
280
     1
  1
AcDbDs::TreatedAsObjectDataSchema
  2
AcDbDs::TreatedAsObjectData
280
     1
 91
        0
  0
XRECORD
  5
8192
102
{ACAD_REACTORS
330
8196
102
}
330
8196
100
AcDbXrecord
280
     1
  1
AcDbDs::LegacySchema
  2
AcDbDs::Legacy
280
     1
 91
        0
  0
XRECORD
  5
8193
102
{ACAD_REACTORS
330
8196
102
}
330
8196
100
AcDbXrecord
280
     1
  1
AcDbDs::IndexedPropertySchema
  2
AcDs:Indexable
280
     1
 91
        0
  0
XRECORD
  5
8194
102
{ACAD_REACTORS
330
8196
102
}
330
8196
100
AcDbXrecord
280
     1
  1
AcDbDs::HandleAttributeSchema
  2
AcDbDs::HandleAttribute
280
     7
 91
        1
284
     1
  0
XRECORD
  5
819B
102
{ACAD_REACTORS
330
819A
102
}
330
819A
100
AcDbXrecord
280
     1
102
DISPLAYNAME
  1
Metric50
102
FLAGS
 90
        0
  0
XRECORD
  5
807D
102
{ACAD_REACTORS
330
807B
102
}
330
807B
100
AcDbXrecord
280
     1
270
     1
271
     1
  0
XRECORD
  5
807C
102
{ACAD_REACTORS
330
807B
102
}
330
807B
100
AcDbXrecord
280
     1
270
     1
271
     1
  0
XRECORD
  5
8080
102
{ACAD_REACTORS
330
807B
102
}
330
807B
100
AcDbXrecord
280
     1
270
     1
271
     1
  0
XRECORD
  5
807F
102
{ACAD_REACTORS
330
807B
102
}
330
807B
100
AcDbXrecord
280
     1
270
     1
271
     1
  0
XRECORD
  5
8081
102
{ACAD_REACTORS
330
807B
102
}
330
807B
100
AcDbXrecord
280
     1
270
     1
271
     1
  0
XRECORD
  5
807E
102
{ACAD_REACTORS
330
807B
102
}
330
807B
100
AcDbXrecord
280
     1
270
     1
271
     1
  0
XRECORD
  5
8075
102
{ACAD_REACTORS
330
8073
102
}
330
8073
100
AcDbXrecord
280
     1
270
     1
271
     1
  0
XRECORD
  5
8074
102
{ACAD_REACTORS
330
8073
102
}
330
8073
100
AcDbXrecord
280
     1
270
     1
271
     1
  0
XRECORD
  5
8078
102
{ACAD_REACTORS
330
8073
102
}
330
8073
100
AcDbXrecord
280
     1
270
     1
271
     1
  0
XRECORD
  5
8077
102
{ACAD_REACTORS
330
8073
102
}
330
8073
100
AcDbXrecord
280
     1
270
     1
271
     1
  0
XRECORD
  5
8079
102
{ACAD_REACTORS
330
8073
102
}
330
8073
100
AcDbXrecord
280
     1
270
     1
271
     1
  0
XRECORD
  5
8076
102
{ACAD_REACTORS
330
8073
102
}
330
8073
100
AcDbXrecord
280
     1
270
     1
271
     1
  0
XRECORD
  5
8085
102
{ACAD_REACTORS
330
8083
102
}
330
8083
100
AcDbXrecord
280
     1
270
     1
271
     1
  0
XRECORD
  5
8084
102
{ACAD_REACTORS
330
8083
102
}
330
8083
100
AcDbXrecord
280
     1
270
     1
271
     1
  0
XRECORD
  5
8088
102
{ACAD_REACTORS
330
8083
102
}
330
8083
100
AcDbXrecord
280
     1
270
     1
271
     1
  0
XRECORD
  5
8087
102
{ACAD_REACTORS
330
8083
102
}
330
8083
100
AcDbXrecord
280
     1
270
     1
271
     1
  0
XRECORD
  5
8089
102
{ACAD_REACTORS
330
8083
102
}
330
8083
100
AcDbXrecord
280
     1
270
     1
271
     1
  0
XRECORD
  5
8086
102
{ACAD_REACTORS
330
8083
102
}
330
8083
100
AcDbXrecord
280
     1
270
     1
271
     1
  0
XRECORD
  5
8199
102
{ACAD_REACTORS
330
8198
102
}
330
8198
100
AcDbXrecord
280
     1
102
DISPLAYNAME
  1
Metric50
102
FLAGS
 90
        0
  0
CELLSTYLEMAP
  5
818E
102
{ACAD_REACTORS
330
818D
102
}
330
818D
100
AcDbCellStyleMap
 90
        3
300
CELLSTYLE
  1
TABLEFORMAT_BEGIN
 90
        5
170
     1
 91
        0
 92
    32768
 62
   257
 93
        1
300
CONTENTFORMAT
  1
CONTENTFORMAT_BEGIN
 90
        0
 91
        0
 92
      512
 93
        0
300

 40
0.0
140
1.0
 94
        5
 62
     0
340
10
144
6.0
309
CONTENTFORMAT_END
171
     1
301
MARGIN
  1
CELLMARGIN_BEGIN
 40
1.5
 40
1.5
 40
1.5
 40
1.5
 40
4.5
 40
4.5
309
CELLMARGIN_END
 94
        6
 95
        1
302
GRIDFORMAT
  1
GRIDFORMAT_BEGIN
 90
        0
 91
        1
 62
     0
 92
       -2
340
0
 93
        0
 40
1.125
309
GRIDFORMAT_END
 95
        2
302
GRIDFORMAT
  1
GRIDFORMAT_BEGIN
 90
        0
 91
        1
 62
     0
 92
       -2
340
0
 93
        0
 40
1.125
309
GRIDFORMAT_END
 95
        4
302
GRIDFORMAT
  1
GRIDFORMAT_BEGIN
 90
        0
 91
        1
 62
     0
 92
       -2
340
0
 93
        0
 40
1.125
309
GRIDFORMAT_END
 95
        8
302
GRIDFORMAT
  1
GRIDFORMAT_BEGIN
 90
        0
 91
        1
 62
     0
 92
       -2
340
0
 93
        0
 40
1.125
309
GRIDFORMAT_END
 95
       16
302
GRIDFORMAT
  1
GRIDFORMAT_BEGIN
 90
        0
 91
        1
 62
     0
 92
       -2
340
0
 93
        0
 40
1.125
309
GRIDFORMAT_END
 95
       32
302
GRIDFORMAT
  1
GRIDFORMAT_BEGIN
 90
        0
 91
        1
 62
     0
 92
       -2
340
0
 93
        0
 40
1.125
309
GRIDFORMAT_END
309
TABLEFORMAT_END
  1
CELLSTYLE_BEGIN
 90
        1
 91
        1
300
_TITLE
309
CELLSTYLE_END
300
CELLSTYLE
  1
TABLEFORMAT_BEGIN
 90
        5
170
     1
 91
        0
 92
        0
 62
   257
 93
        1
300
CONTENTFORMAT
  1
CONTENTFORMAT_BEGIN
 90
        0
 91
        0
 92
      512
 93
        0
300

 40
0.0
140
1.0
 94
        5
 62
     0
340
10
144
4.5
309
CONTENTFORMAT_END
171
     1
301
MARGIN
  1
CELLMARGIN_BEGIN
 40
1.5
 40
1.5
 40
1.5
 40
1.5
 40
4.5
 40
4.5
309
CELLMARGIN_END
 94
        6
 95
        1
302
GRIDFORMAT
  1
GRIDFORMAT_BEGIN
 90
        0
 91
        1
 62
     0
 92
       -2
340
0
 93
        0
 40
1.125
309
GRIDFORMAT_END
 95
        2
302
GRIDFORMAT
  1
GRIDFORMAT_BEGIN
 90
        0
 91
        1
 62
     0
 92
       -2
340
0
 93
        0
 40
1.125
309
GRIDFORMAT_END
 95
        4
302
GRIDFORMAT
  1
GRIDFORMAT_BEGIN
 90
        0
 91
        1
 62
     0
 92
       -2
340
0
 93
        0
 40
1.125
309
GRIDFORMAT_END
 95
        8
302
GRIDFORMAT
  1
GRIDFORMAT_BEGIN
 90
        0
 91
        1
 62
     0
 92
       -2
340
0
 93
        0
 40
1.125
309
GRIDFORMAT_END
 95
       16
302
GRIDFORMAT
  1
GRIDFORMAT_BEGIN
 90
        0
 91
        1
 62
     0
 92
       -2
340
0
 93
        0
 40
1.125
309
GRIDFORMAT_END
 95
       32
302
GRIDFORMAT
  1
GRIDFORMAT_BEGIN
 90
        0
 91
        1
 62
     0
 92
       -2
340
0
 93
        0
 40
1.125
309
GRIDFORMAT_END
309
TABLEFORMAT_END
  1
CELLSTYLE_BEGIN
 90
        2
 91
        1
300
_HEADER
309
CELLSTYLE_END
300
CELLSTYLE
  1
TABLEFORMAT_BEGIN
 90
        5
170
     1
 91
        0
 92
        0
 62
   257
 93
        1
300
CONTENTFORMAT
  1
CONTENTFORMAT_BEGIN
 90
        0
 91
        0
 92
      512
 93
        0
300

 40
0.0
140
1.0
 94
        2
 62
     0
340
10
144
4.5
309
CONTENTFORMAT_END
171
     1
301
MARGIN
  1
CELLMARGIN_BEGIN
 40
1.5
 40
1.5
 40
1.5
 40
1.5
 40
4.5
 40
4.5
309
CELLMARGIN_END
 94
        6
 95
        1
302
GRIDFORMAT
  1
GRIDFORMAT_BEGIN
 90
        0
 91
        1
 62
     0
 92
       -2
340
0
 93
        0
 40
1.125
309
GRIDFORMAT_END
 95
        2
302
GRIDFORMAT
  1
GRIDFORMAT_BEGIN
 90
        0
 91
        1
 62
     0
 92
       -2
340
0
 93
        0
 40
1.125
309
GRIDFORMAT_END
 95
        4
302
GRIDFORMAT
  1
GRIDFORMAT_BEGIN
 90
        0
 91
        1
 62
     0
 92
       -2
340
0
 93
        0
 40
1.125
309
GRIDFORMAT_END
 95
        8
302
GRIDFORMAT
  1
GRIDFORMAT_BEGIN
 90
        0
 91
        1
 62
     0
 92
       -2
340
0
 93
        0
 40
1.125
309
GRIDFORMAT_END
 95
       16
302
GRIDFORMAT
  1
GRIDFORMAT_BEGIN
 90
        0
 91
        1
 62
     0
 92
       -2
340
0
 93
        0
 40
1.125
309
GRIDFORMAT_END
 95
       32
302
GRIDFORMAT
  1
GRIDFORMAT_BEGIN
 90
        0
 91
        1
 62
     0
 92
       -2
340
0
 93
        0
 40
1.125
309
GRIDFORMAT_END
309
TABLEFORMAT_END
  1
CELLSTYLE_BEGIN
 90
        3
 91
        2
300
_DATA
309
CELLSTYLE_END
  0
ENDSEC
  0
SECTION
  2
ACDSDATA
 70
     2
 71
     8
  0
ACDSSCHEMA
 90
        0
  1
AcDb_Thumbnail_Schema
  2
AcDbDs::ID
280
    10
 91
        8
  2
Thumbnail_Data
280
    15
 91
        0
101
ACDSRECORD
 95
        0
 90
        1
  2
AcDbDs::TreatedAsObjectData
280
     1
291
     1
101
ACDSRECORD
 95
        0
 90
        2
  2
AcDbDs::Legacy
280
     1
291
     1
101
ACDSRECORD
  1
AcDbDs::ID
 90
        3
  2
AcDs:Indexable
280
     1
291
     1
101
ACDSRECORD
  1
AcDbDs::ID
 90
        4
  2
AcDbDs::HandleAttribute
280
     7
282
     1
  0
ACDSSCHEMA
 90
        1
  1
AcDbDs::TreatedAsObjectDataSchema
  2
AcDbDs::TreatedAsObjectData
280
     1
 91
        0
  0
ACDSSCHEMA
 90
        2
  1
AcDbDs::LegacySchema
  2
AcDbDs::Legacy
280
     1
 91
        0
  0
ACDSSCHEMA
 90
        3
  1
AcDbDs::IndexedPropertySchema
  2
AcDs:Indexable
280
     1
 91
        0
  0
ACDSSCHEMA
 90
        4
  1
AcDbDs::HandleAttributeSchema
  2
AcDbDs::HandleAttribute
280
     7
 91
        1
284
     1
  0
ACDSRECORD
 90
        0
  2
AcDbDs::ID
280
    10
320
8025
  2
Thumbnail_Data
280
    15
 94
     1742
310
89504E470D0A1A0A0000000D49484452000001000000007C0803000000B13B9E5A00000300504C5445000000000000C8C8C80000000000000000000000000000000000000000000000000000330000660000990000CC0000FF0033000033330033660033990033CC0033FF0066000066330066660066990066CC0066FF0099
310
000099330099660099990099CC0099FF00CC0000CC3300CC6600CC9900CCCC00CCFF00FF0000FF3300FF6600FF9900FFCC00FFFF3300003300333300663300993300CC3300FF3333003333333333663333993333CC3333FF3366003366333366663366993366CC3366FF3399003399333399663399993399CC3399FF33CC00
310
33CC3333CC6633CC9933CCCC33CCFF33FF0033FF3333FF6633FF9933FFCC33FFFF6600006600336600666600996600CC6600FF6633006633336633666633996633CC6633FF6666006666336666666666996666CC6666FF6699006699336699666699996699CC6699FF66CC0066CC3366CC6666CC9966CCCC66CCFF66FF0066
310
FF3366FF6666FF9966FFCC66FFFF9900009900339900669900999900CC9900FF9933009933339933669933999933CC9933FF9966009966339966669966999966CC9966FF9999009999339999669999999999CC9999FF99CC0099CC3399CC6699CC9999CCCC99CCFF99FF0099FF3399FF6699FF9999FFCC99FFFFCC0000CC00
310
33CC0066CC0099CC00CCCC00FFCC3300CC3333CC3366CC3399CC33CCCC33FFCC6600CC6633CC6666CC6699CC66CCCC66FFCC9900CC9933CC9966CC9999CC99CCCC99FFCCCC00CCCC33CCCC66CCCC99CCCCCCCCCCFFCCFF00CCFF33CCFF66CCFF99CCFFCCCCFFFFFF0000FF0033FF0066FF0099FF00CCFF00FFFF3300FF3333
310
FF3366FF3399FF33CCFF33FFFF6600FF6633FF6666FF6699FF66CCFF66FFFF9900FF9933FF9966FF9999FF99CCFF99FFFFCC00FFCC33FFCC66FFCC99FFCCCCFFCCFFFFFF00FFFF33FFFF66FFFF99FFFFCCFFFFFF0000000D0D0D1A1A1A2828283535354343435050505D5D5D6B6B6B787878868686939393A1A1A1AEAEAEBB
310
BBBBC9C9C9D6D6D6E4E4E4F1F1F1FFFFFF00000000000000000000000000000000000000000000000000000000000008F1915C000003824944415478DAED9D5B92EC200840598E3FEE7F336EC3FF3B89A880269DA99AB9131ECEA33AA63B158E80A0541AE0175AFDA5065A5A5575D90010000240000800EFB9D39BC9CF0B00
310
F1F1EA52035C03004EA0860FD00CE047330095005E76B1BF005001FD7A955EFE597AA71F40D3E30BF56EBFE4BDD372B0D3020040CF3EC5063C84FE5B51376A7F098D8C011F70EFDF5003AAD08079229C60008838407F2458E78CD867C1EE0B4514CC1C87997478EBFB64C798FCF0C70D001800AA5900B0863F20471FDF869A
310
00C600BCFBB201E03FDE69391A3B7203A0DC3517006E8E5D014801C01F80D3CCB36C9E34E04BC02177DA30700100840900E90B00012000048000603A0EF00DE04876524E6B9B01C1C38C4831807B0DC80FB52000D803306362C300EE9C603E3A0E00C532000800012000E45DF30500473DB333030058070001A0899F2F6CC1
310
781C40164593143E99CF0548C6B7AC079F3D90ADAF075000E9C2047C00B868EEF606A5C9FB0010BBC3CE4DE0C5977DD99D529B10F6E10E40310AE0D2F17D72929A019427B3401173A5EC560D80D6844905281F62051B1AD0C43EA56AA24D085CD0C2011C1FB26A021700B0A5F1362326B0A8F9AD06D0722ACD00C668F7A4EF
310
338065E54037001CC2537A91FD5E01101A600840170B0FFC0240213D03E01BC2E6019415C021A61700650B80C8E508004E6E28D853002368520FE0903D412790BFA30145B50F4027780A9E868C1E0060D6D300B4819F00D632B9C2B649AC01C8B326A8AB8004709AC90E805A1FC0008C601828050E80761B0280B9D0511AD9
310
FEF05F123131E63FB29E32E9D700DC043D0638917DF2F345CA4C03F21A32650B0080E483DDDA9B39A4391D64A0FBA5D304B2EE3860CC6E19079C40C00EE603BA3F9C1A9041792034E48056119307043473E203BAE1B3AC417720540A1DDE04623298B1F19506180180169EBA9B232B5FC50780EE0332CC4521BE46C68B468C
310
2443FDE62F8BA458898CAC9EE2A79502C0F220B91E00B38300E02744A75A00B44E6E5B26675D039C03280C407106604C61BB1D6058FAB6B563453780BEC90B7CA373B7FD3D16910B5D4DB302E05199DCFD69D5007EDEB294F900CF0020000480001000024000C0532E9F2A7B018074C278C0F67808FB7A31CB00AA78CAEA78
310
E8A83D00FBCEF138D9A1086601840FD87C791E79003F8C47EDFBF2011300B17EEB00369D08807DAD40F8808804034000080001200004005500BC7FF3B4A6F60F91DD580BB0E5F1530000000049454E44AE426082454E44AE426082
  0
ENDSEC
  0
EOF
