  0
SECTION
  2
HEADER
  9
$ACADVER
  1
AC1027
  9
$ACADMAINTVER
 70
   125
  9
$DWGCODEPAGE
  3
ANSI_932
  9
$LASTSAVEDBY
  1
yasukiyo.ogawa
  9
$REQUIREDVERSIONS
160
                 0
  9
$INSBASE
 10
0.0
 20
0.0
 30
0.0
  9
$EXTMIN
 10
0.0
 20
0.0
 30
0.0
  9
$EXTMAX
 10
6300.0
 20
8850.0
 30
0.0
  9
$LIMMIN
 10
0.0
 20
0.0
  9
$LIMMAX
 10
297.0
 20
210.0
  9
$ORTHOMODE
 70
     1
  9
$REGENMODE
 70
     1
  9
$FILLMODE
 70
     0
  9
$QTEXTMODE
 70
     0
  9
$MIRRTEXT
 70
     1
  9
$LTSCALE
 40
100.0
  9
$ATTMODE
 70
     1
  9
$TEXTSIZE
 40
180.0
  9
$TRACEWID
 40
0.05
  9
$TEXTSTYLE
  7
STANDARD
  9
$CLAYER
  8
3
  9
$CELTYPE
  6
BYLAYER
  9
$CECOLOR
 62
   256
  9
$CELTSCALE
 40
1.0
  9
$DISPSILH
 70
     0
  9
$DIMSCALE
 40
30.0
  9
$DIMASZ
 40
2.0
  9
$DIMEXO
 40
0.5
  9
$DIMDLI
 40
10.0
  9
$DIMRND
 40
0.0
  9
$DIMDLE
 40
0.0
  9
$DIMEXE
 40
1.0
  9
$DIMTP
 40
1.0
  9
$DIMTM
 40
1.0
  9
$DIMTXT
 40
3.0
  9
$DIMCEN
 40
0.0
  9
$DIMTSZ
 40
0.0
  9
$DIMTOL
 70
     0
  9
$DIMLIM
 70
     0
  9
$DIMTIH
 70
     0
  9
$DIMTOH
 70
     0
  9
$DIMSE1
 70
     0
  9
$DIMSE2
 70
     0
  9
$DIMTAD
 70
     1
  9
$DIMZIN
 70
     8
  9
$DIMBLK
  1

  9
$DIMASO
 70
     1
  9
$DIMSHO
 70
     1
  9
$DIMPOST
  1
(<>)
  9
$DIMAPOST
  1

  9
$DIMALT
 70
     0
  9
$DIMALTD
 70
     2
  9
$DIMALTF
 40
0.039
  9
$DIMLFAC
 40
1.0
  9
$DIMTOFL
 70
     1
  9
$DIMTVP
 40
0.0
  9
$DIMTIX
 70
     0
  9
$DIMSOXD
 70
     0
  9
$DIMSAH
 70
     1
  9
$DIMBLK1
  1
OPEN
  9
$DIMBLK2
  1
OPEN
  9
$DIMSTYLE
  2
IGA
  9
$DIMCLRD
 70
     0
  9
$DIMCLRE
 70
     0
  9
$DIMCLRT
 70
     0
  9
$DIMTFAC
 40
10.0
  9
$DIMGAP
 40
1.0
  9
$DIMJUST
 70
     0
  9
$DIMSD1
 70
     0
  9
$DIMSD2
 70
     0
  9
$DIMTOLJ
 70
     1
  9
$DIMTZIN
 70
     8
  9
$DIMALTZ
 70
     0
  9
$DIMALTTZ
 70
     0
  9
$DIMUPT
 70
     0
  9
$DIMDEC
 70
     0
  9
$DIMTDEC
 70
     0
  9
$DIMALTU
 70
     2
  9
$DIMALTTD
 70
     2
  9
$DIMTXSTY
  7
STANDARD
  9
$DIMAUNIT
 70
     0
  9
$DIMADEC
 70
     0
  9
$DIMALTRND
 40
0.0
  9
$DIMAZIN
 70
     0
  9
$DIMDSEP
 70
    46
  9
$DIMATFIT
 70
     3
  9
$DIMFRAC
 70
     0
  9
$DIMLDRBLK
  1
OPEN
  9
$DIMLUNIT
 70
     2
  9
$DIMLWD
 70
    -2
  9
$DIMLWE
 70
    -2
  9
$DIMTMOVE
 70
     2
  9
$DIMFXL
 40
1.0
  9
$DIMFXLON
 70
     0
  9
$DIMJOGANG
 40
0.7853981633974483
  9
$DIMTFILL
 70
     0
  9
$DIMTFILLCLR
 70
     0
  9
$DIMARCSYM
 70
     0
  9
$DIMLTYPE
  6

  9
$DIMLTEX1
  6

  9
$DIMLTEX2
  6

  9
$DIMTXTDIRECTION
 70
     0
  9
$LUNITS
 70
     2
  9
$LUPREC
 70
     3
  9
$SKETCHINC
 40
0.1
  9
$FILLETRAD
 40
50.0
  9
$AUNITS
 70
     0
  9
$AUPREC
 70
     0
  9
$MENU
  1
acad
  9
$ELEVATION
 40
0.0
  9
$PELEVATION
 40
0.0
  9
$THICKNESS
 40
0.0
  9
$LIMCHECK
 70
     0
  9
$CHAMFERA
 40
0.5
  9
$CHAMFERB
 40
0.5
  9
$CHAMFERC
 40
20.0
  9
$CHAMFERD
 40
0.0
  9
$SKPOLY
 70
     0
  9
$TDCREATE
 40
2451382.477662037
  9
$TDUCREATE
 40
2451382.102664815
  9
$TDUPDATE
 40
2460241.635914352
  9
$TDUUPDATE
 40
2460241.260918623
  9
$TDINDWG
 40
0.0334648958
  9
$TDUSRTIMER
 40
0.0334648958
  9
$USRTIMER
 70
     1
  9
$ANGBASE
 50
0.0
  9
$ANGDIR
 70
     0
  9
$PDMODE
 70
     0
  9
$PDSIZE
 40
0.0
  9
$PLINEWID
 40
0.0
  9
$SPLFRAME
 70
     0
  9
$SPLINETYPE
 70
     6
  9
$SPLINESEGS
 70
     8
  9
$HANDSEED
  5
8206
  9
$SURFTAB1
 70
     6
  9
$SURFTAB2
 70
     6
  9
$SURFTYPE
 70
     6
  9
$SURFU
 70
     6
  9
$SURFV
 70
     6
  9
$UCSBASE
  2

  9
$UCSNAME
  2

  9
$UCSORG
 10
0.0
 20
0.0
 30
0.0
  9
$UCSXDIR
 10
1.0
 20
0.0
 30
0.0
  9
$UCSYDIR
 10
0.0
 20
1.0
 30
0.0
  9
$UCSORTHOREF
  2

  9
$UCSORTHOVIEW
 70
     0
  9
$UCSORGTOP
 10
0.0
 20
0.0
 30
0.0
  9
$UCSORGBOTTOM
 10
0.0
 20
0.0
 30
0.0
  9
$UCSORGLEFT
 10
0.0
 20
0.0
 30
0.0
  9
$UCSORGRIGHT
 10
0.0
 20
0.0
 30
0.0
  9
$UCSORGFRONT
 10
0.0
 20
0.0
 30
0.0
  9
$UCSORGBACK
 10
0.0
 20
0.0
 30
0.0
  9
$PUCSBASE
  2

  9
$PUCSNAME
  2

  9
$PUCSORG
 10
0.0
 20
0.0
 30
0.0
  9
$PUCSXDIR
 10
1.0
 20
0.0
 30
0.0
  9
$PUCSYDIR
 10
0.0
 20
1.0
 30
0.0
  9
$PUCSORTHOREF
  2

  9
$PUCSORTHOVIEW
 70
     0
  9
$PUCSORGTOP
 10
0.0
 20
0.0
 30
0.0
  9
$PUCSORGBOTTOM
 10
0.0
 20
0.0
 30
0.0
  9
$PUCSORGLEFT
 10
0.0
 20
0.0
 30
0.0
  9
$PUCSORGRIGHT
 10
0.0
 20
0.0
 30
0.0
  9
$PUCSORGFRONT
 10
0.0
 20
0.0
 30
0.0
  9
$PUCSORGBACK
 10
0.0
 20
0.0
 30
0.0
  9
$USERI1
 70
     0
  9
$USERI2
 70
     0
  9
$USERI3
 70
     0
  9
$USERI4
 70
     0
  9
$USERI5
 70
     0
  9
$USERR1
 40
0.0
  9
$USERR2
 40
0.0
  9
$USERR3
 40
0.0
  9
$USERR4
 40
0.0
  9
$USERR5
 40
0.0
  9
$WORLDVIEW
 70
     1
  9
$SHADEDGE
 70
     3
  9
$SHADEDIF
 70
    70
  9
$TILEMODE
 70
     1
  9
$MAXACTVP
 70
    16
  9
$PINSBASE
 10
0.0
 20
0.0
 30
0.0
  9
$PLIMCHECK
 70
     0
  9
$PEXTMIN
 10
1.000000000000000E+20
 20
1.000000000000000E+20
 30
1.000000000000000E+20
  9
$PEXTMAX
 10
-1.000000000000000E+20
 20
-1.000000000000000E+20
 30
-1.000000000000000E+20
  9
$PLIMMIN
 10
0.0
 20
0.0
  9
$PLIMMAX
 10
12.0
 20
9.0
  9
$UNITMODE
 70
     0
  9
$VISRETAIN
 70
     0
  9
$PLINEGEN
 70
     0
  9
$PSLTSCALE
 70
     1
  9
$TREEDEPTH
 70
  3020
  9
$CMLSTYLE
  2
STANDARD
  9
$CMLJUST
 70
     0
  9
$CMLSCALE
 40
20.0
  9
$PROXYGRAPHICS
 70
     1
  9
$MEASUREMENT
 70
     1
  9
$CELWEIGHT
370
    -1
  9
$ENDCAPS
280
     0
  9
$JOINSTYLE
280
     0
  9
$LWDISPLAY
290
     0
  9
$INSUNITS
 70
     0
  9
$HYPERLINKBASE
  1

  9
$STYLESHEET
  1

  9
$XEDIT
290
     1
  9
$CEPSNTYPE
380
     0
  9
$PSTYLEMODE
290
     1
  9
$FINGERPRINTGUID
  2
{5335FADE-927D-46C5-AE57-CE3CEC179D7E}
  9
$VERSIONGUID
  2
{FB64D760-700A-4C92-9C6F-F3EDAECF6632}
  9
$EXTNAMES
290
     1
  9
$PSVPSCALE
 40
0.0
  9
$OLESTARTUP
290
     0
  9
$SORTENTS
280
   127
  9
$INDEXCTL
280
     0
  9
$HIDETEXT
280
     0
  9
$XCLIPFRAME
280
     2
  9
$HALOGAP
280
     0
  9
$OBSCOLOR
 70
   257
  9
$OBSLTYPE
280
     0
  9
$INTERSECTIONDISPLAY
280
     0
  9
$INTERSECTIONCOLOR
 70
   257
  9
$DIMASSOC
280
     1
  9
$PROJECTNAME
  1

  9
$CAMERADISPLAY
290
     0
  9
$LENSLENGTH
 40
50.0
  9
$CAMERAHEIGHT
 40
0.0
  9
$STEPSPERSEC
 40
2.0
  9
$STEPSIZE
 40
6.0
  9
$3DDWFPREC
 40
2.0
  9
$PSOLWIDTH
 40
0.25
  9
$PSOLHEIGHT
 40
4.0
  9
$LOFTANG1
 40
1.570796326794896
  9
$LOFTANG2
 40
1.570796326794896
  9
$LOFTMAG1
 40
0.0
  9
$LOFTMAG2
 40
0.0
  9
$LOFTPARAM
 70
     7
  9
$LOFTNORMALS
280
     1
  9
$LATITUDE
 40
37.795
  9
$LONGITUDE
 40
-122.394
  9
$NORTHDIRECTION
 40
0.0
  9
$TIMEZONE
 70
 -8000
  9
$LIGHTGLYPHDISPLAY
280
     1
  9
$TILEMODELIGHTSYNCH
280
     1
  9
$CMATERIAL
347
8143
  9
$SOLIDHIST
280
     0
  9
$SHOWHIST
280
     1
  9
$DWFFRAME
280
     2
  9
$DGNFRAME
280
     0
  9
$REALWORLDSCALE
290
     1
  9
$INTERFERECOLOR
 62
     1
  9
$INTERFEREOBJVS
345
8165
  9
$INTERFEREVPVS
346
8162
  9
$CSHADOW
280
     0
  9
$SHADOWPLANELOCATION
 40
0.0
  0
ENDSEC
  0
SECTION
  2
CLASSES
  0
CLASS
  1
ACDBDICTIONARYWDFLT
  2
AcDbDictionaryWithDefault
  3
ObjectDBX Classes
 90
        0
 91
        1
280
     0
281
     0
  0
CLASS
  1
DICTIONARYVAR
  2
AcDbDictionaryVar
  3
ObjectDBX Classes
 90
        0
 91
       11
280
     0
281
     0
  0
CLASS
  1
MATERIAL
  2
AcDbMaterial
  3
ObjectDBX Classes
 90
     1153
 91
        3
280
     0
281
     0
  0
CLASS
  1
VISUALSTYLE
  2
AcDbVisualStyle
  3
ObjectDBX Classes
 90
     4095
 91
       24
280
     0
281
     0
  0
CLASS
  1
TABLESTYLE
  2
AcDbTableStyle
  3
ObjectDBX Classes
 90
     4095
 91
        1
280
     0
281
     0
  0
CLASS
  1
SCALE
  2
AcDbScale
  3
ObjectDBX Classes
 90
     1153
 91
       17
280
     0
281
     0
  0
CLASS
  1
MLEADERSTYLE
  2
AcDbMLeaderStyle
  3
ACDB_MLEADERSTYLE_CLASS
 90
     4095
 91
        1
280
     0
281
     0
  0
CLASS
  1
ACDBSECTIONVIEWSTYLE
  2
AcDbSectionViewStyle
  3
ObjectDBX Classes
 90
     1025
 91
        1
280
     0
281
     0
  0
CLASS
  1
ACDBDETAILVIEWSTYLE
  2
AcDbDetailViewStyle
  3
ObjectDBX Classes
 90
     1025
 91
        1
280
     0
281
     0
  0
CLASS
  1
CELLSTYLEMAP
  2
AcDbCellStyleMap
  3
ObjectDBX Classes
 90
     1152
 91
        1
280
     0
281
     0
  0
ENDSEC
  0
SECTION
  2
TABLES
  0
TABLE
  2
VPORT
  5
8
330
0
100
AcDbSymbolTable
 70
     1
1001
ACAD
1000
DbSaveVer
1071
      278
  0
VPORT
  5
8140
330
8
100
AcDbSymbolTableRecord
100
AcDbViewportTableRecord
  2
*Active
 70
     0
 10
0.0
 20
0.0
 11
1.0
 21
1.0
 12
4041.170278991937
 22
4425.000020605514
 13
0.0
 23
0.0
 14
10.0
 24
10.0
 15
10.0
 25
10.0
 16
0.0
 26
0.0
 36
1.0
 17
0.0
 27
0.0
 37
0.0
 40
8907.213844128961
 41
2.250314465408805
 42
50.0
 43
0.0
 44
0.0
 50
0.0
 51
0.0
 71
     0
 72
   100
 73
     1
 74
     0
 75
     0
 76
     0
 77
     0
 78
     0
281
     0
 65
     1
110
0.0
120
0.0
130
0.0
111
1.0
121
0.0
131
0.0
112
0.0
122
1.0
132
0.0
 79
     0
146
0.0
348
8161
 60
     3
 61
     5
292
     1
282
     1
141
0.0
142
0.0
 63
   250
421
  3355443
1001
ACAD_NAV_VCDISPLAY
1070
     3
  0
ENDTAB
  0
TABLE
  2
LTYPE
  5
5
330
0
100
AcDbSymbolTable
 70
     2
  0
LTYPE
  5
13
330
5
100
AcDbSymbolTableRecord
100
AcDbLinetypeTableRecord
  2
BYBLOCK
 70
     0
  3

 72
    65
 73
     0
 40
0.0
  0
LTYPE
  5
14
330
5
100
AcDbSymbolTableRecord
100
AcDbLinetypeTableRecord
  2
BYLAYER
 70
     0
  3

 72
    65
 73
     0
 40
0.0
  0
LTYPE
  5
15
330
5
100
AcDbSymbolTableRecord
100
AcDbLinetypeTableRecord
  2
CONTINUOUS
 70
     0
  3
Solid line
 72
    65
 73
     0
 40
0.0
  0
LTYPE
  5
1F
330
5
100
AcDbSymbolTableRecord
100
AcDbLinetypeTableRecord
  2
CENTER
 70
     0
  3
____ _ ____ _ ____ _ ____ _ ____ _ ____ _ ____ 
 72
    65
 73
     4
 40
2.0
 49
1.25
 74
     0
 49
-0.25
 74
     0
 49
0.25
 74
     0
 49
-0.25
 74
     0
  0
ENDTAB
  0
TABLE
  2
LAYER
  5
2
102
{ACAD_XDICTIONARY
360
81DD
102
}
330
0
100
AcDbSymbolTable
 70
     6
  0
LAYER
  5
F
102
{ACAD_XDICTIONARY
360
81D0
102
}
330
2
100
AcDbSymbolTableRecord
100
AcDbLayerTableRecord
  2
0
 70
     0
 62
     7
  6
CONTINUOUS
370
    -3
390
804A
347
8153
348
0
  0
LAYER
  5
31
102
{ACAD_XDICTIONARY
360
81D2
102
}
330
2
100
AcDbSymbolTableRecord
100
AcDbLayerTableRecord
  2
3
 70
     0
 62
     2
  6
CONTINUOUS
370
    -3
390
804A
347
8153
348
0
  0
LAYER
  5
76D0
102
{ACAD_XDICTIONARY
360
81D4
102
}
330
2
100
AcDbSymbolTableRecord
100
AcDbLayerTableRecord
  2
2
 70
     0
 62
     3
  6
CENTER
370
    -3
390
804A
347
8153
348
0
  0
LAYER
  5
76D1
102
{ACAD_XDICTIONARY
360
81D6
102
}
330
2
100
AcDbSymbolTableRecord
100
AcDbLayerTableRecord
  2
1
 70
     0
 62
     4
  6
CONTINUOUS
370
    -3
390
804A
347
8153
348
0
  0
LAYER
  5
76D2
102
{ACAD_XDICTIONARY
360
81D8
102
}
330
2
100
AcDbSymbolTableRecord
100
AcDbLayerTableRecord
  2
4
 70
     0
 62
     7
  6
CONTINUOUS
370
    -3
390
804A
347
8153
348
0
  0
LAYER
  5
7B47
330
2
100
AcDbSymbolTableRecord
100
AcDbLayerTableRecord
  2
DEFPOINTS
 70
     0
 62
     7
  6
CONTINUOUS
290
     0
370
    -3
390
804A
347
8153
348
0
  0
ENDTAB
  0
TABLE
  2
STYLE
  5
3
330
0
100
AcDbSymbolTable
 70
     1
  0
STYLE
  5
10
330
3
100
AcDbSymbolTableRecord
100
AcDbTextStyleTableRecord
  2
STANDARD
 70
     0
 40
0.0
 41
1.0
 50
0.0
 71
     0
 42
180.0
  3
simplex.shx
  4
extfont.shx
  0
ENDTAB
  0
TABLE
  2
VIEW
  5
6
330
0
100
AcDbSymbolTable
 70
     0
  0
ENDTAB
  0
TABLE
  2
UCS
  5
7
330
0
100
AcDbSymbolTable
 70
     0
  0
ENDTAB
  0
TABLE
  2
APPID
  5
9
330
0
100
AcDbSymbolTable
 70
     2
  0
APPID
  5
11
330
9
100
AcDbSymbolTableRecord
100
AcDbRegAppTableRecord
  2
ACAD
 70
     0
  0
APPID
  5
81E3
330
9
100
AcDbSymbolTableRecord
100
AcDbRegAppTableRecord
  2
ACAD_NAV_VCDISPLAY
 70
     0
  0
ENDTAB
  0
TABLE
  2
DIMSTYLE
  5
A
330
0
100
AcDbSymbolTable
 70
     2
100
AcDbDimStyleTable
 71
     1
340
1D
  0
DIMSTYLE
105
1D
102
{ACAD_REACTORS
330
7CC5
330
7CC6
330
8035
330
8042
330
8192
330
819F
102
}
330
A
100
AcDbSymbolTableRecord
100
AcDbDimStyleTableRecord
  2
IGA
 70
     0
 40
2.0
 41
2.0
 42
0.5
 43
10.0
 44
1.0
 47
1.0
 48
1.0
 73
     0
 74
     0
 77
     1
 78
     8
140
3.0
141
0.0
143
0.03937
146
10.0
147
1.0
173
     1
271
     1
272
     0
279
     2
284
     8
340
10
341
7B03
343
7B03
344
7B03
  0
DIMSTYLE
105
7B48
102
{ACAD_REACTORS
330
7C45
330
7C46
330
7C47
330
7C48
330
7C59
330
7C5D
330
7C5E
330
7C5F
330
7C60
330
7C61
330
7C91
330
7C96
330
7C9A
330
7CA3
330
7CC8
330
7CC9
330
7CCB
102
}
330
A
100
AcDbSymbolTableRecord
100
AcDbDimStyleTableRecord
  2
DIA1
 70
     0
 41
2.0
 42
1.0
 43
10.0
 44
1.0
 73
     0
 74
     0
 77
     1
 78
     8
140
2.5
141
0.0
172
     1
176
     2
177
     2
178
     2
271
     1
272
     1
279
     2
284
     8
285
     8
286
     8
340
10
341
79FF
342
79FF
  0
ENDTAB
  0
TABLE
  2
BLOCK_RECORD
  5
1
330
0
100
AcDbSymbolTable
 70
    29
  0
BLOCK_RECORD
  5
19
102
{ACAD_XDICTIONARY
360
8078
102
}
330
1
100
AcDbSymbolTableRecord
100
AcDbBlockTableRecord
  2
*MODEL_SPACE
340
804D
 70
     0
280
     1
281
     0
  0
BLOCK_RECORD
  5
16
102
{ACAD_XDICTIONARY
360
8076
102
}
330
1
100
AcDbSymbolTableRecord
100
AcDbBlockTableRecord
  2
*PAPER_SPACE
340
804E
 70
     0
280
     1
281
     0
  0
BLOCK_RECORD
  5
79FC
330
1
100
AcDbSymbolTableRecord
100
AcDbBlockTableRecord
  2
YA_N
340
0
102
{BLKREFS
331
7C29
331
7C2B
331
7C12
102
}
 70
     0
280
     1
281
     0
  0
BLOCK_RECORD
  5
79FF
330
1
100
AcDbSymbolTableRecord
100
AcDbBlockTableRecord
  2
ARROW
340
0
102
{BLKREFS
331
811D
331
811E
331
8125
331
8126
331
812E
331
812F
331
8083
331
8084
331
808C
331
808D
331
8095
331
8096
331
809E
331
809F
331
80A7
331
80A8
331
80B0
331
80B1
331
80B9
331
80BA
331
80C2
331
80C3
331
80CB
331
80CC
331
80D4
331
80D5
331
80DD
331
80DE
331
80E6
331
80E7
331
80EF
331
80F0
331
80F8
331
80F9
102
}
 70
     0
280
     1
281
     0
  0
BLOCK_RECORD
  5
7B03
330
1
100
AcDbSymbolTableRecord
100
AcDbBlockTableRecord
  2
_OPEN
340
0
102
{BLKREFS
331
8115
331
7FF2
331
802E
331
802F
331
803B
331
803C
331
81C1
331
81C2
331
81CA
331
81CB
102
}
 70
     0
280
     1
281
     0
  0
BLOCK_RECORD
  5
7CD7
330
1
100
AcDbSymbolTableRecord
100
AcDbBlockTableRecord
  2
*D3
340
0
 70
     0
280
     1
281
     0
  0
BLOCK_RECORD
  5
7CE3
330
1
100
AcDbSymbolTableRecord
100
AcDbBlockTableRecord
  2
*D4
340
0
 70
     0
280
     1
281
     0
  0
BLOCK_RECORD
  5
7CEF
330
1
100
AcDbSymbolTableRecord
100
AcDbBlockTableRecord
  2
*D5
340
0
 70
     0
280
     1
281
     0
  0
BLOCK_RECORD
  5
7CFB
330
1
100
AcDbSymbolTableRecord
100
AcDbBlockTableRecord
  2
*D6
340
0
 70
     0
280
     1
281
     0
  0
BLOCK_RECORD
  5
7D07
330
1
100
AcDbSymbolTableRecord
100
AcDbBlockTableRecord
  2
*D7
340
0
 70
     0
280
     1
281
     0
  0
BLOCK_RECORD
  5
7D1F
330
1
100
AcDbSymbolTableRecord
100
AcDbBlockTableRecord
  2
*D8
340
0
 70
     0
280
     1
281
     0
  0
BLOCK_RECORD
  5
7D2B
330
1
100
AcDbSymbolTableRecord
100
AcDbBlockTableRecord
  2
*D9
340
0
 70
     0
280
     1
281
     0
  0
BLOCK_RECORD
  5
7D37
330
1
100
AcDbSymbolTableRecord
100
AcDbBlockTableRecord
  2
*D10
340
0
 70
     0
280
     1
281
     0
  0
BLOCK_RECORD
  5
7D43
330
1
100
AcDbSymbolTableRecord
100
AcDbBlockTableRecord
  2
*D11
340
0
 70
     0
280
     1
281
     0
  0
BLOCK_RECORD
  5
7D4F
330
1
100
AcDbSymbolTableRecord
100
AcDbBlockTableRecord
  2
*D12
340
0
 70
     0
280
     1
281
     0
  0
BLOCK_RECORD
  5
7D5B
330
1
100
AcDbSymbolTableRecord
100
AcDbBlockTableRecord
  2
*D13
340
0
 70
     0
280
     1
281
     0
  0
BLOCK_RECORD
  5
7D73
330
1
100
AcDbSymbolTableRecord
100
AcDbBlockTableRecord
  2
*D14
340
0
 70
     0
280
     1
281
     0
  0
BLOCK_RECORD
  5
7D7F
330
1
100
AcDbSymbolTableRecord
100
AcDbBlockTableRecord
  2
*D15
340
0
 70
     0
280
     1
281
     0
  0
BLOCK_RECORD
  5
7D8B
330
1
100
AcDbSymbolTableRecord
100
AcDbBlockTableRecord
  2
*D16
340
0
 70
     0
280
     1
281
     0
  0
BLOCK_RECORD
  5
7DAE
330
1
100
AcDbSymbolTableRecord
100
AcDbBlockTableRecord
  2
*D19
340
0
 70
     0
280
     1
281
     0
  0
BLOCK_RECORD
  5
7DBB
330
1
100
AcDbSymbolTableRecord
100
AcDbBlockTableRecord
  2
*D20
340
0
 70
     0
280
     1
281
     0
  0
BLOCK_RECORD
  5
7DC9
330
1
100
AcDbSymbolTableRecord
100
AcDbBlockTableRecord
  2
*D21
340
0
 70
     0
280
     1
281
     0
  0
BLOCK_RECORD
  5
7DD5
330
1
100
AcDbSymbolTableRecord
100
AcDbBlockTableRecord
  2
*D22
340
0
 70
     0
280
     1
281
     0
  0
BLOCK_RECORD
  5
7DEB
330
1
100
AcDbSymbolTableRecord
100
AcDbBlockTableRecord
  2
*D23
340
0
 70
     0
280
     1
281
     0
  0
BLOCK_RECORD
  5
7FCC
330
1
100
AcDbSymbolTableRecord
100
AcDbBlockTableRecord
  2
_DOT
340
0
102
{BLKREFS
331
8114
331
7FF3
102
}
 70
     0
280
     1
281
     0
  0
BLOCK_RECORD
  5
8029
330
1
100
AcDbSymbolTableRecord
100
AcDbBlockTableRecord
  2
*D25
340
0
 70
     0
280
     1
281
     0
  0
BLOCK_RECORD
  5
8036
330
1
100
AcDbSymbolTableRecord
100
AcDbBlockTableRecord
  2
*D26
340
0
 70
     0
280
     1
281
     0
  0
BLOCK_RECORD
  5
8193
330
1
100
AcDbSymbolTableRecord
100
AcDbBlockTableRecord
  2
*D27
340
0
 70
     0
280
     1
281
     0
  0
BLOCK_RECORD
  5
81A0
330
1
100
AcDbSymbolTableRecord
100
AcDbBlockTableRecord
  2
*D28
340
0
 70
     0
280
     1
281
     0
  0
ENDTAB
  0
ENDSEC
  0
SECTION
  2
BLOCKS
  0
BLOCK
  5
1A
330
19
100
AcDbEntity
  8
0
100
AcDbBlockBegin
  2
*MODEL_SPACE
 70
     0
 10
0.0
 20
0.0
 30
0.0
  3
*MODEL_SPACE
  1

  0
ENDBLK
  5
1B
330
19
100
AcDbEntity
  8
0
100
AcDbBlockEnd
  0
BLOCK
  5
17
330
16
100
AcDbEntity
 67
     1
  8
0
100
AcDbBlockBegin
  2
*PAPER_SPACE
 70
     0
 10
0.0
 20
0.0
 30
0.0
  3
*PAPER_SPACE
  1

  0
ENDBLK
  5
18
330
16
100
AcDbEntity
 67
     1
  8
0
100
AcDbBlockEnd
  0
BLOCK
  5
79FD
330
79FC
100
AcDbEntity
  8
0
100
AcDbBlockBegin
  2
YA_N
 70
     0
 10
0.0
 20
0.0
 30
0.0
  3
YA_N
  1

  0
ENDBLK
  5
79FE
330
79FC
100
AcDbEntity
  8
0
100
AcDbBlockEnd
  0
BLOCK
  5
7A03
330
79FF
100
AcDbEntity
  8
0
100
AcDbBlockBegin
  2
ARROW
 70
     0
 10
0.0
 20
0.0
 30
0.0
  3
ARROW
  1

  0
LINE
  5
7A00
330
79FF
100
AcDbEntity
  8
0
100
AcDbLine
 10
-0.9999999999999991
 20
0.1666666667000003
 30
0.0
 11
0.0
 21
0.0
 31
0.0
  0
LINE
  5
7A01
330
79FF
100
AcDbEntity
  8
0
100
AcDbLine
 10
-0.9999999999999991
 20
0.0
 30
0.0
 11
0.0
 21
0.0
 31
0.0
  0
LINE
  5
7A02
330
79FF
100
AcDbEntity
  8
0
100
AcDbLine
 10
-0.9999999999999991
 20
-0.1666666667000003
 30
0.0
 11
0.0
 21
0.0
 31
0.0
  0
ENDBLK
  5
7A04
330
79FF
100
AcDbEntity
  8
0
100
AcDbBlockEnd
  0
BLOCK
  5
7B07
330
7B03
100
AcDbEntity
  8
0
 48
10.0
100
AcDbBlockBegin
  2
_OPEN
 70
     0
 10
0.0
 20
0.0
 30
0.0
  3
_OPEN
  1

  0
LINE
  5
7B04
330
7B03
100
AcDbEntity
  8
0
  6
ByBlock
 62
     0
 48
10.0
100
AcDbLine
 10
-1.0
 20
0.1666666666666666
 30
0.0
 11
0.0
 21
0.0
 31
0.0
  0
LINE
  5
7B05
330
7B03
100
AcDbEntity
  8
0
  6
ByBlock
 62
     0
 48
10.0
100
AcDbLine
 10
0.0
 20
0.0
 30
0.0
 11
-1.0
 21
-0.1666666666666666
 31
0.0
  0
LINE
  5
7B06
330
7B03
100
AcDbEntity
  8
0
  6
ByBlock
 62
     0
 48
10.0
100
AcDbLine
 10
0.0
 20
0.0
 30
0.0
 11
-1.0
 21
0.0
 31
0.0
  0
ENDBLK
  5
7B08
330
7B03
100
AcDbEntity
  8
0
 48
10.0
100
AcDbBlockEnd
  0
BLOCK
  5
7E03
330
7CD7
100
AcDbEntity
  8
0
100
AcDbBlockBegin
  2
*D3
 70
     1
 10
0.0
 20
0.0
 30
0.0
  3
*D3
  1

  0
LINE
  5
8080
330
7CD7
100
AcDbEntity
  8
3
 62
     2
440
 16777216
100
AcDbLine
 10
1495.0418449583
 20
2227.515531982445
 30
0.0
 11
1495.0418449583
 21
1994.005277483849
 31
0.0
  0
LINE
  5
8081
330
7CD7
100
AcDbEntity
  8
3
 62
     2
440
 16777216
100
AcDbLine
 10
2055.041844958302
 20
2227.515531982445
 30
0.0
 11
2055.041844958302
 21
1994.005277483849
 31
0.0
  0
LINE
  5
8082
330
7CD7
100
AcDbEntity
  8
3
 62
     2
440
 16777216
100
AcDbLine
 10
1570.0418449583
 20
2024.005277483849
 30
0.0
 11
1980.041844958302
 21
2024.005277483849
 31
0.0
  0
INSERT
  5
8083
330
7CD7
100
AcDbEntity
  8
3
 62
     2
440
 16777216
100
AcDbBlockReference
  2
ARROW
 10
1495.0418449583
 20
2024.005277483849
 30
0.0
 41
75.0
 42
75.0
 43
75.0
 50
180.0
  0
INSERT
  5
8084
330
7CD7
100
AcDbEntity
  8
3
 62
     2
440
 16777216
100
AcDbBlockReference
  2
ARROW
 10
2055.041844958302
 20
2024.005277483849
 30
0.0
 41
75.0
 42
75.0
 43
75.0
  0
MTEXT
  5
8085
330
7CD7
100
AcDbEntity
  8
3
 62
     2
440
 16777216
100
AcDbMText
 10
1775.041844958301
 20
2099.00527748385
 30
0.0
 40
90.0
 41
0.0
 46
0.0
 71
     5
 72
     5
  1
\A1;560
 73
     1
 44
1.0
  0
POINT
  5
8086
330
7CD7
100
AcDbEntity
  8
DEFPOINTS
 62
     0
440
 16777216
100
AcDbPoint
 10
1495.0418449583
 20
2227.515531982445
 30
0.0
  0
POINT
  5
8087
330
7CD7
100
AcDbEntity
  8
DEFPOINTS
 62
     0
440
 16777216
100
AcDbPoint
 10
2055.041844958302
 20
2227.515531982445
 30
0.0
  0
POINT
  5
8088
330
7CD7
100
AcDbEntity
  8
DEFPOINTS
 62
     0
440
 16777216
100
AcDbPoint
 10
2055.041844958302
 20
2024.005277483849
 30
0.0
  0
ENDBLK
  5
7E0D
330
7CD7
100
AcDbEntity
  8
0
100
AcDbBlockEnd
  0
BLOCK
  5
7E0E
330
7CE3
100
AcDbEntity
  8
0
100
AcDbBlockBegin
  2
*D4
 70
     1
 10
0.0
 20
0.0
 30
0.0
  3
*D4
  1

  0
LINE
  5
8089
330
7CE3
100
AcDbEntity
  8
3
 62
     2
440
 16777216
100
AcDbLine
 10
1435.041844958304
 20
2476.515531982445
 30
0.0
 11
1255.426736515092
 21
2476.515531982445
 31
0.0
  0
LINE
  5
808A
330
7CE3
100
AcDbEntity
  8
3
 62
     2
440
 16777216
100
AcDbLine
 10
1435.041844958304
 20
3401.515531982445
 30
0.0
 11
1255.426736515093
 21
3401.515531982445
 31
0.0
  0
LINE
  5
808B
330
7CE3
100
AcDbEntity
  8
3
 62
     2
440
 16777216
100
AcDbLine
 10
1285.426736515092
 20
2551.515531982444
 30
0.0
 11
1285.426736515092
 21
3326.515531982444
 31
0.0
  0
INSERT
  5
808C
330
7CE3
100
AcDbEntity
  8
3
 62
     2
440
 16777216
100
AcDbBlockReference
  2
ARROW
 10
1285.426736515092
 20
2476.515531982445
 30
0.0
 41
75.0
 42
75.0
 43
75.0
 50
270.0
  0
INSERT
  5
808D
330
7CE3
100
AcDbEntity
  8
3
 62
     2
440
 16777216
100
AcDbBlockReference
  2
ARROW
 10
1285.426736515092
 20
3401.515531982445
 30
0.0
 41
75.0
 42
75.0
 43
75.0
 50
90.0
  0
MTEXT
  5
808E
330
7CE3
100
AcDbEntity
  8
3
 62
     2
440
 16777216
100
AcDbMText
 10
1210.426736515092
 20
2939.015531982445
 30
0.0
 40
90.0
 41
0.0
 46
0.0
 71
     5
 72
     5
  1
\A1;925
 11
0.0000000000000001
 21
1.0
 31
0.0
 73
     1
 44
1.0
  0
POINT
  5
808F
330
7CE3
100
AcDbEntity
  8
DEFPOINTS
 62
     0
440
 16777216
100
AcDbPoint
 10
1435.041844958304
 20
2476.515531982445
 30
0.0
  0
POINT
  5
8090
330
7CE3
100
AcDbEntity
  8
DEFPOINTS
 62
     0
440
 16777216
100
AcDbPoint
 10
1435.041844958304
 20
3401.515531982445
 30
0.0
  0
POINT
  5
8091
330
7CE3
100
AcDbEntity
  8
DEFPOINTS
 62
     0
440
 16777216
100
AcDbPoint
 10
1285.426736515092
 20
3401.515531982445
 30
0.0
  0
ENDBLK
  5
7E18
330
7CE3
100
AcDbEntity
  8
0
100
AcDbBlockEnd
  0
BLOCK
  5
7E19
330
7CEF
100
AcDbEntity
  8
0
100
AcDbBlockBegin
  2
*D5
 70
     1
 10
0.0
 20
0.0
 30
0.0
  3
*D5
  1

  0
LINE
  5
8092
330
7CEF
100
AcDbEntity
  8
3
 62
     2
440
 16777216
100
AcDbLine
 10
1435.041844958304
 20
2476.515531982445
 30
0.0
 11
1105.08343641723
 21
2476.515531982445
 31
0.0
  0
LINE
  5
8093
330
7CEF
100
AcDbEntity
  8
3
 62
     2
440
 16777216
100
AcDbLine
 10
1398.786506179757
 20
3437.515531982445
 30
0.0
 11
1105.08343641723
 21
3437.515531982445
 31
0.0
  0
LINE
  5
8094
330
7CEF
100
AcDbEntity
  8
3
 62
     2
440
 16777216
100
AcDbLine
 10
1135.08343641723
 20
2551.515531982444
 30
0.0
 11
1135.08343641723
 21
3362.515531982444
 31
0.0
  0
INSERT
  5
8095
330
7CEF
100
AcDbEntity
  8
3
 62
     2
440
 16777216
100
AcDbBlockReference
  2
ARROW
 10
1135.08343641723
 20
2476.515531982445
 30
0.0
 41
75.0
 42
75.0
 43
75.0
 50
270.0
  0
INSERT
  5
8096
330
7CEF
100
AcDbEntity
  8
3
 62
     2
440
 16777216
100
AcDbBlockReference
  2
ARROW
 10
1135.08343641723
 20
3437.515531982445
 30
0.0
 41
75.0
 42
75.0
 43
75.0
 50
90.0
  0
MTEXT
  5
8097
330
7CEF
100
AcDbEntity
  8
3
 62
     2
440
 16777216
100
AcDbMText
 10
1060.08343641723
 20
2957.015531982445
 30
0.0
 40
90.0
 41
0.0
 46
0.0
 71
     5
 72
     5
  1
\A1;961
 11
0.0000000000000001
 21
1.0
 31
0.0
 73
     1
 44
1.0
  0
POINT
  5
8098
330
7CEF
100
AcDbEntity
  8
DEFPOINTS
 62
     0
440
 16777216
100
AcDbPoint
 10
1435.041844958304
 20
2476.515531982445
 30
0.0
  0
POINT
  5
8099
330
7CEF
100
AcDbEntity
  8
DEFPOINTS
 62
     0
440
 16777216
100
AcDbPoint
 10
1398.786506179757
 20
3437.515531982445
 30
0.0
  0
POINT
  5
809A
330
7CEF
100
AcDbEntity
  8
DEFPOINTS
 62
     0
440
 16777216
100
AcDbPoint
 10
1135.08343641723
 20
3437.515531982445
 30
0.0
  0
ENDBLK
  5
7E23
330
7CEF
100
AcDbEntity
  8
0
100
AcDbBlockEnd
  0
BLOCK
  5
7E24
330
7CFB
100
AcDbEntity
  8
0
100
AcDbBlockBegin
  2
*D6
 70
     1
 10
0.0
 20
0.0
 30
0.0
  3
*D6
  1

  0
LINE
  5
809B
330
7CFB
100
AcDbEntity
  8
3
 62
     2
440
 16777216
100
AcDbLine
 10
1398.786506179757
 20
3437.515531982445
 30
0.0
 11
943.8973670054776
 21
3437.515531982445
 31
0.0
  0
LINE
  5
809C
330
7CFB
100
AcDbEntity
  8
3
 62
     2
440
 16777216
100
AcDbLine
 10
1495.0418449583
 20
2337.515531982444
 30
0.0
 11
943.8973670054775
 21
2337.515531982445
 31
0.0
  0
LINE
  5
809D
330
7CFB
100
AcDbEntity
  8
3
 62
     2
440
 16777216
100
AcDbLine
 10
973.8973670054777
 20
3362.515531982445
 30
0.0
 11
973.8973670054773
 21
2412.515531982445
 31
0.0
  0
INSERT
  5
809E
330
7CFB
100
AcDbEntity
  8
3
 62
     2
440
 16777216
100
AcDbBlockReference
  2
ARROW
 10
973.8973670054777
 20
3437.515531982445
 30
0.0
 41
75.0
 42
75.0
 43
75.0
 50
90.0
  0
INSERT
  5
809F
330
7CFB
100
AcDbEntity
  8
3
 62
     2
440
 16777216
100
AcDbBlockReference
  2
ARROW
 10
973.8973670054773
 20
2337.515531982445
 30
0.0
 41
75.0
 42
75.0
 43
75.0
 50
270.0
  0
MTEXT
  5
80A0
330
7CFB
100
AcDbEntity
  8
3
 62
     2
440
 16777216
100
AcDbMText
 10
898.8973670054772
 20
2887.515531982445
 30
0.0
 40
90.0
 41
0.0
 46
0.0
 71
     5
 72
     5
  1
\A1;1100
 11
0.0000000000000001
 21
1.0
 31
0.0
 73
     1
 44
1.0
  0
POINT
  5
80A1
330
7CFB
100
AcDbEntity
  8
DEFPOINTS
 62
     0
440
 16777216
100
AcDbPoint
 10
1398.786506179757
 20
3437.515531982445
 30
0.0
  0
POINT
  5
80A2
330
7CFB
100
AcDbEntity
  8
DEFPOINTS
 62
     0
440
 16777216
100
AcDbPoint
 10
1495.0418449583
 20
2337.515531982444
 30
0.0
  0
POINT
  5
80A3
330
7CFB
100
AcDbEntity
  8
DEFPOINTS
 62
     0
440
 16777216
100
AcDbPoint
 10
973.8973670054773
 20
2337.515531982445
 30
0.0
  0
ENDBLK
  5
7E2E
330
7CFB
100
AcDbEntity
  8
0
100
AcDbBlockEnd
  0
BLOCK
  5
7E2F
330
7D07
100
AcDbEntity
  8
0
100
AcDbBlockBegin
  2
*D7
 70
     1
 10
0.0
 20
0.0
 30
0.0
  3
*D7
  1

  0
LINE
  5
80A4
330
7D07
100
AcDbEntity
  8
3
 62
     2
440
 16777216
100
AcDbLine
 10
3495.041844958302
 20
2227.515531982445
 30
0.0
 11
3495.041844958302
 21
1994.089433361036
 31
0.0
  0
LINE
  5
80A5
330
7D07
100
AcDbEntity
  8
3
 62
     2
440
 16777216
100
AcDbLine
 10
2055.041844958302
 20
2227.515531982445
 30
0.0
 11
2055.041844958302
 21
1994.089433361036
 31
0.0
  0
LINE
  5
80A6
330
7D07
100
AcDbEntity
  8
3
 62
     2
440
 16777216
100
AcDbLine
 10
3420.041844958302
 20
2024.089433361036
 30
0.0
 11
2130.041844958302
 21
2024.089433361036
 31
0.0
  0
INSERT
  5
80A7
330
7D07
100
AcDbEntity
  8
3
 62
     2
440
 16777216
100
AcDbBlockReference
  2
ARROW
 10
3495.041844958302
 20
2024.089433361036
 30
0.0
 41
75.0
 42
75.0
 43
75.0
  0
INSERT
  5
80A8
330
7D07
100
AcDbEntity
  8
3
 62
     2
440
 16777216
100
AcDbBlockReference
  2
ARROW
 10
2055.041844958302
 20
2024.089433361036
 30
0.0
 41
75.0
 42
75.0
 43
75.0
 50
180.0
  0
MTEXT
  5
80A9
330
7D07
100
AcDbEntity
  8
3
 62
     2
440
 16777216
100
AcDbMText
 10
2775.041844958302
 20
2099.089433361036
 30
0.0
 40
90.0
 41
0.0
 46
0.0
 71
     5
 72
     5
  1
\A1;1440
 73
     1
 44
1.0
  0
POINT
  5
80AA
330
7D07
100
AcDbEntity
  8
DEFPOINTS
 62
     0
440
 16777216
100
AcDbPoint
 10
3495.041844958302
 20
2227.515531982445
 30
0.0
  0
POINT
  5
80AB
330
7D07
100
AcDbEntity
  8
DEFPOINTS
 62
     0
440
 16777216
100
AcDbPoint
 10
2055.041844958302
 20
2227.515531982445
 30
0.0
  0
POINT
  5
80AC
330
7D07
100
AcDbEntity
  8
DEFPOINTS
 62
     0
440
 16777216
100
AcDbPoint
 10
2055.041844958302
 20
2024.089433361036
 30
0.0
  0
ENDBLK
  5
7E39
330
7D07
100
AcDbEntity
  8
0
100
AcDbBlockEnd
  0
BLOCK
  5
7E45
330
7D1F
100
AcDbEntity
  8
0
100
AcDbBlockBegin
  2
*D8
 70
     1
 10
0.0
 20
0.0
 30
0.0
  3
*D8
  1

  0
LINE
  5
80AD
330
7D1F
100
AcDbEntity
  8
3
 62
     2
440
 16777216
100
AcDbLine
 10
2615.041844958303
 20
6613.633867065956
 30
0.0
 11
2615.041844958303
 21
6941.716422660944
 31
0.0
  0
LINE
  5
80AE
330
7D1F
100
AcDbEntity
  8
3
 62
     2
440
 16777216
100
AcDbLine
 10
1495.041844958303
 20
6613.633867065956
 30
0.0
 11
1495.041844958303
 21
6941.716422660944
 31
0.0
  0
LINE
  5
80AF
330
7D1F
100
AcDbEntity
  8
3
 62
     2
440
 16777216
100
AcDbLine
 10
2540.041844958303
 20
6911.716422660944
 30
0.0
 11
1570.041844958303
 21
6911.716422660944
 31
0.0
  0
INSERT
  5
80B0
330
7D1F
100
AcDbEntity
  8
3
 62
     2
440
 16777216
100
AcDbBlockReference
  2
ARROW
 10
2615.041844958303
 20
6911.716422660944
 30
0.0
 41
75.0
 42
75.0
 43
75.0
  0
INSERT
  5
80B1
330
7D1F
100
AcDbEntity
  8
3
 62
     2
440
 16777216
100
AcDbBlockReference
  2
ARROW
 10
1495.041844958303
 20
6911.716422660944
 30
0.0
 41
75.0
 42
75.0
 43
75.0
 50
180.0
  0
MTEXT
  5
80B2
330
7D1F
100
AcDbEntity
  8
3
 62
     2
440
 16777216
100
AcDbMText
 10
2055.041844958303
 20
6986.716422660944
 30
0.0
 40
90.0
 41
0.0
 46
0.0
 71
     5
 72
     5
  1
\A1;1120
 73
     1
 44
1.0
  0
POINT
  5
80B3
330
7D1F
100
AcDbEntity
  8
DEFPOINTS
 62
     0
440
 16777216
100
AcDbPoint
 10
2615.041844958303
 20
6613.633867065956
 30
0.0
  0
POINT
  5
80B4
330
7D1F
100
AcDbEntity
  8
DEFPOINTS
 62
     0
440
 16777216
100
AcDbPoint
 10
1495.041844958303
 20
6613.633867065956
 30
0.0
  0
POINT
  5
80B5
330
7D1F
100
AcDbEntity
  8
DEFPOINTS
 62
     0
440
 16777216
100
AcDbPoint
 10
1495.041844958303
 20
6911.716422660944
 30
0.0
  0
ENDBLK
  5
7E4F
330
7D1F
100
AcDbEntity
  8
0
100
AcDbBlockEnd
  0
BLOCK
  5
7F21
330
7D2B
100
AcDbEntity
  8
0
100
AcDbBlockBegin
  2
*D9
 70
     1
 10
0.0
 20
0.0
 30
0.0
  3
*D9
  1

  0
LINE
  5
80B6
330
7D2B
100
AcDbEntity
  8
3
 62
     2
440
 16777216
100
AcDbLine
 10
3495.041844958303
 20
5963.633867065957
 30
0.0
 11
3495.041844958303
 21
6941.716422660944
 31
0.0
  0
LINE
  5
80B7
330
7D2B
100
AcDbEntity
  8
3
 62
     2
440
 16777216
100
AcDbLine
 10
2615.041844958303
 20
6613.633867065956
 30
0.0
 11
2615.041844958303
 21
6941.716422660944
 31
0.0
  0
LINE
  5
80B8
330
7D2B
100
AcDbEntity
  8
3
 62
     2
440
 16777216
100
AcDbLine
 10
3420.041844958304
 20
6911.716422660944
 30
0.0
 11
2690.041844958303
 21
6911.716422660944
 31
0.0
  0
INSERT
  5
80B9
330
7D2B
100
AcDbEntity
  8
3
 62
     2
440
 16777216
100
AcDbBlockReference
  2
ARROW
 10
3495.041844958303
 20
6911.716422660944
 30
0.0
 41
75.0
 42
75.0
 43
75.0
  0
INSERT
  5
80BA
330
7D2B
100
AcDbEntity
  8
3
 62
     2
440
 16777216
100
AcDbBlockReference
  2
ARROW
 10
2615.041844958303
 20
6911.716422660944
 30
0.0
 41
75.0
 42
75.0
 43
75.0
 50
180.0
  0
MTEXT
  5
80BB
330
7D2B
100
AcDbEntity
  8
3
 62
     2
440
 16777216
100
AcDbMText
 10
3055.041844958303
 20
6986.716422660944
 30
0.0
 40
90.0
 41
0.0
 46
0.0
 71
     5
 72
     5
  1
\A1;880
 73
     1
 44
1.0
  0
POINT
  5
80BC
330
7D2B
100
AcDbEntity
  8
DEFPOINTS
 62
     0
440
 16777216
100
AcDbPoint
 10
3495.041844958303
 20
5963.633867065957
 30
0.0
  0
POINT
  5
80BD
330
7D2B
100
AcDbEntity
  8
DEFPOINTS
 62
     0
440
 16777216
100
AcDbPoint
 10
2615.041844958303
 20
6613.633867065956
 30
0.0
  0
POINT
  5
80BE
330
7D2B
100
AcDbEntity
  8
DEFPOINTS
 62
     0
440
 16777216
100
AcDbPoint
 10
2615.041844958303
 20
6911.716422660944
 30
0.0
  0
ENDBLK
  5
7F2B
330
7D2B
100
AcDbEntity
  8
0
100
AcDbBlockEnd
  0
BLOCK
  5
7E5B
330
7D37
100
AcDbEntity
  8
0
100
AcDbBlockBegin
  2
*D10
 70
     1
 10
0.0
 20
0.0
 30
0.0
  3
*D10
  1

  0
LINE
  5
80BF
330
7D37
100
AcDbEntity
  8
3
 62
     2
440
 16777216
100
AcDbLine
 10
3495.041844958303
 20
5113.633867065956
 30
0.0
 11
3495.041844958303
 21
4687.59444264664
 31
0.0
  0
LINE
  5
80C0
330
7D37
100
AcDbEntity
  8
3
 62
     2
440
 16777216
100
AcDbLine
 10
1495.041844958303
 20
5113.633867065956
 30
0.0
 11
1495.041844958303
 21
4687.59444264664
 31
0.0
  0
LINE
  5
80C1
330
7D37
100
AcDbEntity
  8
3
 62
     2
440
 16777216
100
AcDbLine
 10
3420.041844958304
 20
4717.594442646639
 30
0.0
 11
1570.041844958303
 21
4717.594442646639
 31
0.0
  0
INSERT
  5
80C2
330
7D37
100
AcDbEntity
  8
3
 62
     2
440
 16777216
100
AcDbBlockReference
  2
ARROW
 10
3495.041844958303
 20
4717.594442646639
 30
0.0
 41
75.0
 42
75.0
 43
75.0
  0
INSERT
  5
80C3
330
7D37
100
AcDbEntity
  8
3
 62
     2
440
 16777216
100
AcDbBlockReference
  2
ARROW
 10
1495.041844958303
 20
4717.594442646639
 30
0.0
 41
75.0
 42
75.0
 43
75.0
 50
180.0
  0
MTEXT
  5
80C4
330
7D37
100
AcDbEntity
  8
3
 62
     2
440
 16777216
100
AcDbMText
 10
2495.041844958303
 20
4792.594442646639
 30
0.0
 40
90.0
 41
0.0
 46
0.0
 71
     5
 72
     5
  1
\A1;2000
 73
     1
 44
1.0
  0
POINT
  5
80C5
330
7D37
100
AcDbEntity
  8
DEFPOINTS
 62
     0
440
 16777216
100
AcDbPoint
 10
3495.041844958303
 20
5113.633867065956
 30
0.0
  0
POINT
  5
80C6
330
7D37
100
AcDbEntity
  8
DEFPOINTS
 62
     0
440
 16777216
100
AcDbPoint
 10
1495.041844958303
 20
5113.633867065956
 30
0.0
  0
POINT
  5
80C7
330
7D37
100
AcDbEntity
  8
DEFPOINTS
 62
     0
440
 16777216
100
AcDbPoint
 10
1495.041844958303
 20
4717.594442646639
 30
0.0
  0
ENDBLK
  5
7E65
330
7D37
100
AcDbEntity
  8
0
100
AcDbBlockEnd
  0
BLOCK
  5
7F16
330
7D43
100
AcDbEntity
  8
0
100
AcDbBlockBegin
  2
*D11
 70
     1
 10
0.0
 20
0.0
 30
0.0
  3
*D11
  1

  0
LINE
  5
80C8
330
7D43
100
AcDbEntity
  8
3
 62
     2
440
 16777216
100
AcDbLine
 10
3495.041844958303
 20
5963.633867065957
 30
0.0
 11
3823.02545004215
 21
5963.633867065957
 31
0.0
  0
LINE
  5
80C9
330
7D43
100
AcDbEntity
  8
3
 62
     2
440
 16777216
100
AcDbLine
 10
3495.041844958303
 20
5113.633867065956
 30
0.0
 11
3823.02545004215
 21
5113.633867065956
 31
0.0
  0
LINE
  5
80CA
330
7D43
100
AcDbEntity
  8
3
 62
     2
440
 16777216
100
AcDbLine
 10
3793.025450042151
 20
5888.633867065957
 30
0.0
 11
3793.025450042151
 21
5188.633867065957
 31
0.0
  0
INSERT
  5
80CB
330
7D43
100
AcDbEntity
  8
3
 62
     2
440
 16777216
100
AcDbBlockReference
  2
ARROW
 10
3793.025450042151
 20
5963.633867065957
 30
0.0
 41
75.0
 42
75.0
 43
75.0
 50
90.0
  0
INSERT
  5
80CC
330
7D43
100
AcDbEntity
  8
3
 62
     2
440
 16777216
100
AcDbBlockReference
  2
ARROW
 10
3793.02545004215
 20
5113.633867065956
 30
0.0
 41
75.0
 42
75.0
 43
75.0
 50
270.0
  0
MTEXT
  5
80CD
330
7D43
100
AcDbEntity
  8
3
 62
     2
440
 16777216
100
AcDbMText
 10
3718.025450042149
 20
5538.633867065958
 30
0.0
 40
90.0
 41
0.0
 46
0.0
 71
     5
 72
     5
  1
\A1;850
 11
0.0000000000000001
 21
1.0
 31
0.0
 73
     1
 44
1.0
  0
POINT
  5
80CE
330
7D43
100
AcDbEntity
  8
DEFPOINTS
 62
     0
440
 16777216
100
AcDbPoint
 10
3495.041844958303
 20
5963.633867065957
 30
0.0
  0
POINT
  5
80CF
330
7D43
100
AcDbEntity
  8
DEFPOINTS
 62
     0
440
 16777216
100
AcDbPoint
 10
3495.041844958303
 20
5113.633867065956
 30
0.0
  0
POINT
  5
80D0
330
7D43
100
AcDbEntity
  8
DEFPOINTS
 62
     0
440
 16777216
100
AcDbPoint
 10
3793.02545004215
 20
5113.633867065956
 30
0.0
  0
ENDBLK
  5
7F20
330
7D43
100
AcDbEntity
  8
0
100
AcDbBlockEnd
  0
BLOCK
  5
7E71
330
7D4F
100
AcDbEntity
  8
0
100
AcDbBlockBegin
  2
*D12
 70
     1
 10
0.0
 20
0.0
 30
0.0
  3
*D12
  1

  0
LINE
  5
80D1
330
7D4F
100
AcDbEntity
  8
3
 62
     2
440
 16777216
100
AcDbLine
 10
1495.041844958303
 20
6613.633867065956
 30
0.0
 11
1165.737598728388
 21
6613.633867065956
 31
0.0
  0
LINE
  5
80D2
330
7D4F
100
AcDbEntity
  8
3
 62
     2
440
 16777216
100
AcDbLine
 10
1495.041844958303
 20
5113.633867065956
 30
0.0
 11
1165.737598728387
 21
5113.633867065956
 31
0.0
  0
LINE
  5
80D3
330
7D4F
100
AcDbEntity
  8
3
 62
     2
440
 16777216
100
AcDbLine
 10
1195.737598728388
 20
6538.633867065957
 30
0.0
 11
1195.737598728388
 21
5188.633867065957
 31
0.0
  0
INSERT
  5
80D4
330
7D4F
100
AcDbEntity
  8
3
 62
     2
440
 16777216
100
AcDbBlockReference
  2
ARROW
 10
1195.737598728388
 20
6613.633867065956
 30
0.0
 41
75.0
 42
75.0
 43
75.0
 50
90.0
  0
INSERT
  5
80D5
330
7D4F
100
AcDbEntity
  8
3
 62
     2
440
 16777216
100
AcDbBlockReference
  2
ARROW
 10
1195.737598728388
 20
5113.633867065956
 30
0.0
 41
75.0
 42
75.0
 43
75.0
 50
270.0
  0
MTEXT
  5
80D6
330
7D4F
100
AcDbEntity
  8
3
 62
     2
440
 16777216
100
AcDbMText
 10
1120.737598728387
 20
5863.633867065956
 30
0.0
 40
90.0
 41
0.0
 46
0.0
 71
     5
 72
     5
  1
\A1;1500
 11
0.0000000000000001
 21
1.0
 31
0.0
 73
     1
 44
1.0
  0
POINT
  5
80D7
330
7D4F
100
AcDbEntity
  8
DEFPOINTS
 62
     0
440
 16777216
100
AcDbPoint
 10
1495.041844958303
 20
6613.633867065956
 30
0.0
  0
POINT
  5
80D8
330
7D4F
100
AcDbEntity
  8
DEFPOINTS
 62
     0
440
 16777216
100
AcDbPoint
 10
1495.041844958303
 20
5113.633867065956
 30
0.0
  0
POINT
  5
80D9
330
7D4F
100
AcDbEntity
  8
DEFPOINTS
 62
     0
440
 16777216
100
AcDbPoint
 10
1195.737598728388
 20
5113.633867065956
 30
0.0
  0
ENDBLK
  5
7E7B
330
7D4F
100
AcDbEntity
  8
0
100
AcDbBlockEnd
  0
BLOCK
  5
7E7C
330
7D5B
100
AcDbEntity
  8
0
100
AcDbBlockBegin
  2
*D13
 70
     1
 10
0.0
 20
0.0
 30
0.0
  3
*D13
  1

  0
LINE
  5
80DA
330
7D5B
100
AcDbEntity
  8
3
 62
     2
440
 16777216
100
AcDbLine
 10
5414.722214209877
 20
2987.515531982444
 30
0.0
 11
5783.370433949404
 21
2987.515531982444
 31
0.0
  0
LINE
  5
80DB
330
7D5B
100
AcDbEntity
  8
3
 62
     2
440
 16777216
100
AcDbLine
 10
5414.722214209879
 20
3887.515531982444
 30
0.0
 11
5783.370433949404
 21
3887.515531982444
 31
0.0
  0
LINE
  5
80DC
330
7D5B
100
AcDbEntity
  8
3
 62
     2
440
 16777216
100
AcDbLine
 10
5753.370433949404
 20
3062.515531982445
 30
0.0
 11
5753.370433949404
 21
3812.515531982445
 31
0.0
  0
INSERT
  5
80DD
330
7D5B
100
AcDbEntity
  8
3
 62
     2
440
 16777216
100
AcDbBlockReference
  2
ARROW
 10
5753.370433949404
 20
2987.515531982444
 30
0.0
 41
75.0
 42
75.0
 43
75.0
 50
270.0
  0
INSERT
  5
80DE
330
7D5B
100
AcDbEntity
  8
3
 62
     2
440
 16777216
100
AcDbBlockReference
  2
ARROW
 10
5753.370433949404
 20
3887.515531982444
 30
0.0
 41
75.0
 42
75.0
 43
75.0
 50
90.0
  0
MTEXT
  5
80DF
330
7D5B
100
AcDbEntity
  8
3
 62
     2
440
 16777216
100
AcDbMText
 10
5678.370433949403
 20
3437.515531982445
 30
0.0
 40
90.0
 41
0.0
 46
0.0
 71
     5
 72
     5
  1
\A1;φ900
 11
0.0000000000000001
 21
1.0
 31
0.0
 73
     1
 44
1.0
  0
POINT
  5
80E0
330
7D5B
100
AcDbEntity
  8
DEFPOINTS
 62
     0
440
 16777216
100
AcDbPoint
 10
5414.722214209877
 20
2987.515531982444
 30
0.0
  0
POINT
  5
80E1
330
7D5B
100
AcDbEntity
  8
DEFPOINTS
 62
     0
440
 16777216
100
AcDbPoint
 10
5414.722214209879
 20
3887.515531982444
 30
0.0
  0
POINT
  5
80E2
330
7D5B
100
AcDbEntity
  8
DEFPOINTS
 62
     0
440
 16777216
100
AcDbPoint
 10
5753.370433949404
 20
3887.515531982444
 30
0.0
  0
ENDBLK
  5
7E86
330
7D5B
100
AcDbEntity
  8
0
100
AcDbBlockEnd
  0
BLOCK
  5
7E92
330
7D73
100
AcDbEntity
  8
0
100
AcDbBlockBegin
  2
*D14
 70
     1
 10
0.0
 20
0.0
 30
0.0
  3
*D14
  1

  0
LINE
  5
80E3
330
7D73
100
AcDbEntity
  8
3
 62
     2
440
 16777216
100
AcDbLine
 10
4819.222214209877
 20
2227.515531982445
 30
0.0
 11
4819.222214209877
 21
1989.979657407521
 31
0.0
  0
LINE
  5
80E4
330
7D73
100
AcDbEntity
  8
3
 62
     2
440
 16777216
100
AcDbLine
 10
5477.222214209877
 20
2227.515531982445
 30
0.0
 11
5477.222214209877
 21
1989.979657407521
 31
0.0
  0
LINE
  5
80E5
330
7D73
100
AcDbEntity
  8
3
 62
     2
440
 16777216
100
AcDbLine
 10
4894.222214209877
 20
2019.979657407521
 30
0.0
 11
5402.222214209877
 21
2019.979657407521
 31
0.0
  0
INSERT
  5
80E6
330
7D73
100
AcDbEntity
  8
3
 62
     2
440
 16777216
100
AcDbBlockReference
  2
ARROW
 10
4819.222214209877
 20
2019.979657407521
 30
0.0
 41
75.0
 42
75.0
 43
75.0
 50
180.0
  0
INSERT
  5
80E7
330
7D73
100
AcDbEntity
  8
3
 62
     2
440
 16777216
100
AcDbBlockReference
  2
ARROW
 10
5477.222214209877
 20
2019.979657407521
 30
0.0
 41
75.0
 42
75.0
 43
75.0
  0
MTEXT
  5
80E8
330
7D73
100
AcDbEntity
  8
3
 62
     2
440
 16777216
100
AcDbMText
 10
5148.222214209877
 20
2094.979657407521
 30
0.0
 40
90.0
 41
0.0
 46
0.0
 71
     5
 72
     5
  1
\A1;658
 73
     1
 44
1.0
  0
POINT
  5
80E9
330
7D73
100
AcDbEntity
  8
DEFPOINTS
 62
     0
440
 16777216
100
AcDbPoint
 10
4819.222214209877
 20
2227.515531982445
 30
0.0
  0
POINT
  5
80EA
330
7D73
100
AcDbEntity
  8
DEFPOINTS
 62
     0
440
 16777216
100
AcDbPoint
 10
5477.222214209877
 20
2227.515531982445
 30
0.0
  0
POINT
  5
80EB
330
7D73
100
AcDbEntity
  8
DEFPOINTS
 62
     0
440
 16777216
100
AcDbPoint
 10
5477.222214209877
 20
2019.979657407521
 30
0.0
  0
ENDBLK
  5
7E9C
330
7D73
100
AcDbEntity
  8
0
100
AcDbBlockEnd
  0
BLOCK
  5
7E9D
330
7D7F
100
AcDbEntity
  8
0
100
AcDbBlockBegin
  2
*D15
 70
     1
 10
0.0
 20
0.0
 30
0.0
  3
*D15
  1

  0
LINE
  5
80EC
330
7D7F
100
AcDbEntity
  8
3
 62
     2
440
 16777216
100
AcDbLine
 10
3977.222214209879
 20
2227.515531982445
 30
0.0
 11
3977.222214209879
 21
1989.979657407521
 31
0.0
  0
LINE
  5
80ED
330
7D7F
100
AcDbEntity
  8
3
 62
     2
440
 16777216
100
AcDbLine
 10
4819.222214209877
 20
2227.515531982445
 30
0.0
 11
4819.222214209877
 21
1989.979657407521
 31
0.0
  0
LINE
  5
80EE
330
7D7F
100
AcDbEntity
  8
3
 62
     2
440
 16777216
100
AcDbLine
 10
4052.222214209878
 20
2019.979657407521
 30
0.0
 11
4744.222214209877
 21
2019.979657407521
 31
0.0
  0
INSERT
  5
80EF
330
7D7F
100
AcDbEntity
  8
3
 62
     2
440
 16777216
100
AcDbBlockReference
  2
ARROW
 10
3977.222214209879
 20
2019.979657407521
 30
0.0
 41
75.0
 42
75.0
 43
75.0
 50
180.0
  0
INSERT
  5
80F0
330
7D7F
100
AcDbEntity
  8
3
 62
     2
440
 16777216
100
AcDbBlockReference
  2
ARROW
 10
4819.222214209877
 20
2019.979657407521
 30
0.0
 41
75.0
 42
75.0
 43
75.0
  0
MTEXT
  5
80F1
330
7D7F
100
AcDbEntity
  8
3
 62
     2
440
 16777216
100
AcDbMText
 10
4398.222214209878
 20
2094.979657407521
 30
0.0
 40
90.0
 41
0.0
 46
0.0
 71
     5
 72
     5
  1
\A1;842
 73
     1
 44
1.0
  0
POINT
  5
80F2
330
7D7F
100
AcDbEntity
  8
DEFPOINTS
 62
     0
440
 16777216
100
AcDbPoint
 10
3977.222214209879
 20
2227.515531982445
 30
0.0
  0
POINT
  5
80F3
330
7D7F
100
AcDbEntity
  8
DEFPOINTS
 62
     0
440
 16777216
100
AcDbPoint
 10
4819.222214209877
 20
2227.515531982445
 30
0.0
  0
POINT
  5
80F4
330
7D7F
100
AcDbEntity
  8
DEFPOINTS
 62
     0
440
 16777216
100
AcDbPoint
 10
4819.222214209877
 20
2019.979657407521
 30
0.0
  0
ENDBLK
  5
7EA7
330
7D7F
100
AcDbEntity
  8
0
100
AcDbBlockEnd
  0
BLOCK
  5
7EA8
330
7D8B
100
AcDbEntity
  8
0
100
AcDbBlockBegin
  2
*D16
 70
     1
 10
0.0
 20
0.0
 30
0.0
  3
*D16
  1

  0
LINE
  5
80F5
330
7D8B
100
AcDbEntity
  8
3
 62
     2
440
 16777216
100
AcDbLine
 10
4229.222214209878
 20
4123.015531982445
 30
0.0
 11
4229.222214209878
 21
4301.459097595103
 31
0.0
  0
LINE
  5
80F6
330
7D8B
100
AcDbEntity
  8
3
 62
     2
440
 16777216
100
AcDbLine
 10
5409.222214209877
 20
4123.015531982445
 30
0.0
 11
5409.222214209877
 21
4301.459097595103
 31
0.0
  0
LINE
  5
80F7
330
7D8B
100
AcDbEntity
  8
3
 62
     2
440
 16777216
100
AcDbLine
 10
4304.222214209878
 20
4271.459097595103
 30
0.0
 11
5334.222214209876
 21
4271.459097595103
 31
0.0
  0
INSERT
  5
80F8
330
7D8B
100
AcDbEntity
  8
3
 62
     2
440
 16777216
100
AcDbBlockReference
  2
ARROW
 10
4229.222214209878
 20
4271.459097595103
 30
0.0
 41
75.0
 42
75.0
 43
75.0
 50
180.0
  0
INSERT
  5
80F9
330
7D8B
100
AcDbEntity
  8
3
 62
     2
440
 16777216
100
AcDbBlockReference
  2
ARROW
 10
5409.222214209877
 20
4271.459097595103
 30
0.0
 41
75.0
 42
75.0
 43
75.0
  0
MTEXT
  5
80FA
330
7D8B
100
AcDbEntity
  8
3
 62
     2
440
 16777216
100
AcDbMText
 10
4819.222214209879
 20
4346.459097595103
 30
0.0
 40
90.0
 41
0.0
 46
0.0
 71
     5
 72
     5
  1
\A1;1180
 73
     1
 44
1.0
  0
POINT
  5
80FB
330
7D8B
100
AcDbEntity
  8
DEFPOINTS
 62
     0
440
 16777216
100
AcDbPoint
 10
4229.222214209878
 20
4123.015531982445
 30
0.0
  0
POINT
  5
80FC
330
7D8B
100
AcDbEntity
  8
DEFPOINTS
 62
     0
440
 16777216
100
AcDbPoint
 10
5409.222214209877
 20
4123.015531982445
 30
0.0
  0
POINT
  5
80FD
330
7D8B
100
AcDbEntity
  8
DEFPOINTS
 62
     0
440
 16777216
100
AcDbPoint
 10
5409.222214209877
 20
4271.459097595103
 30
0.0
  0
ENDBLK
  5
7EB2
330
7D8B
100
AcDbEntity
  8
0
100
AcDbBlockEnd
  0
BLOCK
  5
7FEB
330
7DAE
100
AcDbEntity
  8
0
100
AcDbBlockBegin
  2
*D19
 70
     1
 10
0.0
 20
0.0
 30
0.0
  3
*D19
  1

  0
LINE
  5
7FEC
330
7DAE
100
AcDbEntity
  8
0
  6
ByBlock
 62
     0
440
 16777216
100
AcDbLine
 10
1226.580858641922
 20
2337.515531982444
 30
0.0
 11
690.451312825724
 21
2337.515531982444
 31
0.0
  0
LINE
  5
7FED
330
7DAE
100
AcDbEntity
  8
0
  6
ByBlock
 62
     0
440
 16777216
100
AcDbLine
 10
1226.580858641922
 20
2292.515531982445
 30
0.0
 11
690.451312825724
 21
2292.515531982445
 31
0.0
  0
LINE
  5
7FEE
330
7DAE
100
AcDbEntity
  8
0
  6
ByBlock
 62
     0
440
 16777216
100
AcDbLine
 10
720.4513128257239
 20
2397.515531982445
 30
0.0
 11
720.4513128257239
 21
2457.515531982445
 31
0.0
  0
LINE
  5
7FEF
330
7DAE
100
AcDbEntity
  8
0
  6
ByBlock
 62
     0
440
 16777216
100
AcDbLine
 10
720.4513128257239
 20
2232.515531982445
 30
0.0
 11
720.4513128257239
 21
2172.515531982444
 31
0.0
  0
MTEXT
  5
7FF0
330
7DAE
100
AcDbEntity
  8
0
  6
ByBlock
 62
     0
440
 16777216
100
AcDbMText
 10
611.0948603797224
 20
2381.120443314885
 30
0.0
 40
90.0
 41
0.0
 46
0.0
 71
     5
 72
     5
  1
\A1;(45)
 11
0.0
 21
1.0
 31
0.0
 73
     1
 44
1.0
  0
LINE
  5
7FF1
330
7DAE
100
AcDbEntity
  8
0
  6
ByBlock
 62
     0
440
 16777216
100
AcDbLine
 10
720.4513128257239
 20
2337.515531982444
 30
0.0
 11
720.4513128257239
 21
2292.515531982445
 31
0.0
  0
INSERT
  5
7FF2
330
7DAE
100
AcDbEntity
  8
0
  6
ByBlock
 62
     0
440
 16777216
100
AcDbBlockReference
  2
_OPEN
 10
720.4513128257239
 20
2337.515531982444
 30
0.0
 41
60.0
 42
60.0
 43
60.0
 50
270.0
  0
INSERT
  5
7FF3
330
7DAE
100
AcDbEntity
  8
0
  6
ByBlock
 62
     0
440
 16777216
100
AcDbBlockReference
  2
_DOT
 10
720.4513128257239
 20
2292.515531982445
 30
0.0
 41
60.0
 42
60.0
 43
60.0
 50
90.0
  0
POINT
  5
7FF4
330
7DAE
100
AcDbEntity
  8
DEFPOINTS
  6
ByBlock
 62
     0
440
 16777216
100
AcDbPoint
 10
1241.580858641922
 20
2337.515531982444
 30
0.0
  0
POINT
  5
7FF5
330
7DAE
100
AcDbEntity
  8
DEFPOINTS
  6
ByBlock
 62
     0
440
 16777216
100
AcDbPoint
 10
1241.580858641922
 20
2292.515531982445
 30
0.0
  0
POINT
  5
7FF6
330
7DAE
100
AcDbEntity
  8
DEFPOINTS
  6
ByBlock
 62
     0
440
 16777216
100
AcDbPoint
 10
720.4513128257239
 20
2292.515531982445
 30
0.0
  0
ENDBLK
  5
7FF7
330
7DAE
100
AcDbEntity
  8
0
100
AcDbBlockEnd
  0
BLOCK
  5
7FDE
330
7DBB
100
AcDbEntity
  8
0
100
AcDbBlockBegin
  2
*D20
 70
     1
 10
0.0
 20
0.0
 30
0.0
  3
*D20
  1

  0
LINE
  5
810F
330
7DBB
100
AcDbEntity
  8
3
 62
     0
440
 16777216
100
AcDbLine
 10
1480.0418449583
 20
2292.515531982445
 30
0.0
 11
943.8973670054775
 21
2292.515531982445
 31
0.0
  0
LINE
  5
8110
330
7DBB
100
AcDbEntity
  8
3
 62
     0
440
 16777216
100
AcDbLine
 10
1480.0418449583
 20
2227.515531982445
 30
0.0
 11
943.8973670054775
 21
2227.515531982445
 31
0.0
  0
LINE
  5
8111
330
7DBB
100
AcDbEntity
  8
3
 62
     0
440
 16777216
100
AcDbLine
 10
973.8973670054775
 20
2352.515531982445
 30
0.0
 11
973.8973670054775
 21
2412.515531982445
 31
0.0
  0
LINE
  5
8112
330
7DBB
100
AcDbEntity
  8
3
 62
     0
440
 16777216
100
AcDbLine
 10
973.8973670054773
 20
2167.515531982445
 30
0.0
 11
973.8973670054773
 21
1901.801246268159
 31
0.0
  0
LINE
  5
8113
330
7DBB
100
AcDbEntity
  8
3
 62
     0
440
 16777216
100
AcDbLine
 10
973.8973670054773
 20
2292.515531982445
 30
0.0
 11
973.8973670054773
 21
2227.515531982445
 31
0.0
  0
INSERT
  5
8114
330
7DBB
100
AcDbEntity
  8
3
 62
     0
440
 16777216
100
AcDbBlockReference
  2
_DOT
 10
973.8973670054773
 20
2292.515531982445
 30
0.0
 41
60.0
 42
60.0
 43
60.0
 50
270.0
  0
INSERT
  5
8115
330
7DBB
100
AcDbEntity
  8
3
 62
     0
440
 16777216
100
AcDbBlockReference
  2
_OPEN
 10
973.8973670054773
 20
2227.515531982445
 30
0.0
 41
60.0
 42
60.0
 43
60.0
 50
90.0
  0
MTEXT
  5
8116
330
7DBB
100
AcDbEntity
  8
3
 62
     0
440
 16777216
100
AcDbMText
 10
898.8973670054772
 20
2004.658389125302
 30
0.0
 40
90.0
 41
0.0
 46
0.0
 71
     5
 72
     5
  1
\A1;65
 11
0.0000000000000001
 21
1.0
 31
0.0
 73
     1
 44
1.0
  0
POINT
  5
8117
330
7DBB
100
AcDbEntity
  8
DEFPOINTS
 62
     0
440
 16777216
100
AcDbPoint
 10
1495.0418449583
 20
2292.515531982445
 30
0.0
  0
POINT
  5
8118
330
7DBB
100
AcDbEntity
  8
DEFPOINTS
 62
     0
440
 16777216
100
AcDbPoint
 10
1495.0418449583
 20
2227.515531982445
 30
0.0
  0
POINT
  5
8119
330
7DBB
100
AcDbEntity
  8
DEFPOINTS
 62
     0
440
 16777216
100
AcDbPoint
 10
973.8973670054773
 20
2227.515531982445
 30
0.0
  0
ENDBLK
  5
7FEA
330
7DBB
100
AcDbEntity
  8
0
100
AcDbBlockEnd
  0
BLOCK
  5
7EE1
330
7DC9
100
AcDbEntity
  8
0
100
AcDbBlockBegin
  2
*D21
 70
     1
 10
0.0
 20
0.0
 30
0.0
  3
*D21
  1

  0
LINE
  5
811A
330
7DC9
100
AcDbEntity
  8
3
 62
     2
440
 16777216
100
AcDbLine
 10
1435.041844958304
 20
3437.515531982445
 30
0.0
 11
1435.041844958304
 21
4258.195297892455
 31
0.0
  0
LINE
  5
811B
330
7DC9
100
AcDbEntity
  8
3
 62
     2
440
 16777216
100
AcDbLine
 10
2055.041844958304
 20
4131.306323231398
 30
0.0
 11
2055.041844958304
 21
4258.195297892455
 31
0.0
  0
LINE
  5
811C
330
7DC9
100
AcDbEntity
  8
3
 62
     2
440
 16777216
100
AcDbLine
 10
1510.041844958304
 20
4228.195297892454
 30
0.0
 11
1980.041844958304
 21
4228.195297892454
 31
0.0
  0
INSERT
  5
811D
330
7DC9
100
AcDbEntity
  8
3
 62
     2
440
 16777216
100
AcDbBlockReference
  2
ARROW
 10
1435.041844958304
 20
4228.195297892454
 30
0.0
 41
75.0
 42
75.0
 43
75.0
 50
180.0
  0
INSERT
  5
811E
330
7DC9
100
AcDbEntity
  8
3
 62
     2
440
 16777216
100
AcDbBlockReference
  2
ARROW
 10
2055.041844958304
 20
4228.195297892454
 30
0.0
 41
75.0
 42
75.0
 43
75.0
  0
MTEXT
  5
811F
330
7DC9
100
AcDbEntity
  8
3
 62
     2
440
 16777216
100
AcDbMText
 10
1745.041844958304
 20
4303.195297892454
 30
0.0
 40
90.0
 41
0.0
 46
0.0
 71
     5
 72
     5
  1
\A1;620
 73
     1
 44
1.0
  0
POINT
  5
8120
330
7DC9
100
AcDbEntity
  8
DEFPOINTS
 62
     0
440
 16777216
100
AcDbPoint
 10
1435.041844958304
 20
3437.515531982445
 30
0.0
  0
POINT
  5
8121
330
7DC9
100
AcDbEntity
  8
DEFPOINTS
 62
     0
440
 16777216
100
AcDbPoint
 10
2055.041844958304
 20
4131.306323231398
 30
0.0
  0
POINT
  5
8122
330
7DC9
100
AcDbEntity
  8
DEFPOINTS
 62
     0
440
 16777216
100
AcDbPoint
 10
2055.041844958304
 20
4228.195297892454
 30
0.0
  0
ENDBLK
  5
7EEB
330
7DC9
100
AcDbEntity
  8
0
100
AcDbBlockEnd
  0
BLOCK
  5
7EEC
330
7DD5
100
AcDbEntity
  8
0
100
AcDbBlockBegin
  2
*D22
 70
     1
 10
0.0
 20
0.0
 30
0.0
  3
*D22
  1

  0
LINE
  5
8123
330
7DD5
100
AcDbEntity
  8
3
 62
     2
440
 16777216
100
AcDbLine
 10
2832.041844958304
 20
3370.515531982444
 30
0.0
 11
2832.041844958304
 21
4258.195297892455
 31
0.0
  0
LINE
  5
8124
330
7DD5
100
AcDbEntity
  8
3
 62
     2
440
 16777216
100
AcDbLine
 10
2130.041844958304
 20
4228.195297892454
 30
0.0
 11
2757.041844958304
 21
4228.195297892454
 31
0.0
  0
INSERT
  5
8125
330
7DD5
100
AcDbEntity
  8
3
 62
     2
440
 16777216
100
AcDbBlockReference
  2
ARROW
 10
2055.041844958304
 20
4228.195297892454
 30
0.0
 41
75.0
 42
75.0
 43
75.0
 50
180.0
  0
INSERT
  5
8126
330
7DD5
100
AcDbEntity
  8
3
 62
     2
440
 16777216
100
AcDbBlockReference
  2
ARROW
 10
2832.041844958304
 20
4228.195297892454
 30
0.0
 41
75.0
 42
75.0
 43
75.0
  0
MTEXT
  5
8127
330
7DD5
100
AcDbEntity
  8
3
 62
     2
440
 16777216
100
AcDbMText
 10
2443.541844958304
 20
4303.195297892454
 30
0.0
 40
90.0
 41
0.0
 46
0.0
 71
     5
 72
     5
  1
\A1;777
 73
     1
 44
1.0
  0
POINT
  5
8128
330
7DD5
100
AcDbEntity
  8
DEFPOINTS
 62
     0
440
 16777216
100
AcDbPoint
 10
2055.041844958304
 20
4131.306323231398
 30
0.0
  0
POINT
  5
8129
330
7DD5
100
AcDbEntity
  8
DEFPOINTS
 62
     0
440
 16777216
100
AcDbPoint
 10
2832.041844958304
 20
3370.515531982444
 30
0.0
  0
POINT
  5
812A
330
7DD5
100
AcDbEntity
  8
DEFPOINTS
 62
     0
440
 16777216
100
AcDbPoint
 10
2832.041844958304
 20
4228.195297892454
 30
0.0
  0
ENDBLK
  5
7EF5
330
7DD5
100
AcDbEntity
  8
0
100
AcDbBlockEnd
  0
BLOCK
  5
7F00
330
7DEB
100
AcDbEntity
  8
0
100
AcDbBlockBegin
  2
*D23
 70
     1
 10
0.0
 20
0.0
 30
0.0
  3
*D23
  1

  0
LINE
  5
812B
330
7DEB
100
AcDbEntity
  8
3
 62
     2
440
 16777216
100
AcDbLine
 10
3495.041844958301
 20
2462.515531982444
 30
0.0
 11
3495.041844958301
 21
4440.296725415139
 31
0.0
  0
LINE
  5
812C
330
7DEB
100
AcDbEntity
  8
3
 62
     2
440
 16777216
100
AcDbLine
 10
1435.041844958304
 20
3444.015531982444
 30
0.0
 11
1435.041844958304
 21
4440.296725415139
 31
0.0
  0
LINE
  5
812D
330
7DEB
100
AcDbEntity
  8
3
 62
     2
440
 16777216
100
AcDbLine
 10
3420.0418449583
 20
4410.296725415139
 30
0.0
 11
1510.041844958304
 21
4410.296725415139
 31
0.0
  0
INSERT
  5
812E
330
7DEB
100
AcDbEntity
  8
3
 62
     2
440
 16777216
100
AcDbBlockReference
  2
ARROW
 10
3495.041844958301
 20
4410.296725415139
 30
0.0
 41
75.0
 42
75.0
 43
75.0
  0
INSERT
  5
812F
330
7DEB
100
AcDbEntity
  8
3
 62
     2
440
 16777216
100
AcDbBlockReference
  2
ARROW
 10
1435.041844958304
 20
4410.296725415139
 30
0.0
 41
75.0
 42
75.0
 43
75.0
 50
180.0
  0
MTEXT
  5
8130
330
7DEB
100
AcDbEntity
  8
3
 62
     2
440
 16777216
100
AcDbMText
 10
2465.041844958302
 20
4485.296725415138
 30
0.0
 40
90.0
 41
0.0
 46
0.0
 71
     5
 72
     5
  1
\A1;2060
 73
     1
 44
1.0
  0
POINT
  5
8131
330
7DEB
100
AcDbEntity
  8
DEFPOINTS
 62
     0
440
 16777216
100
AcDbPoint
 10
3495.041844958301
 20
2462.515531982444
 30
0.0
  0
POINT
  5
8132
330
7DEB
100
AcDbEntity
  8
DEFPOINTS
 62
     0
440
 16777216
100
AcDbPoint
 10
1435.041844958304
 20
3444.015531982444
 30
0.0
  0
POINT
  5
8133
330
7DEB
100
AcDbEntity
  8
DEFPOINTS
 62
     0
440
 16777216
100
AcDbPoint
 10
1435.041844958304
 20
4410.296725415139
 30
0.0
  0
ENDBLK
  5
7F0A
330
7DEB
100
AcDbEntity
  8
0
100
AcDbBlockEnd
  0
BLOCK
  5
7FCD
330
7FCC
100
AcDbEntity
  8
0
100
AcDbBlockBegin
  2
_DOT
 70
     0
 10
0.0
 20
0.0
 30
0.0
  3
_DOT
  1

  0
LWPOLYLINE
  5
7FD7
330
7FCC
100
AcDbEntity
  8
0
  6
ByBlock
 62
     0
100
AcDbPolyline
 90
        2
 70
     1
 43
0.25
 10
-0.125
 20
0.0
 42
1.0
 10
0.125
 20
0.0
 42
1.0
  0
LINE
  5
7FDB
330
7FCC
100
AcDbEntity
  8
0
  6
ByBlock
 62
     0
100
AcDbLine
 10
-0.25
 20
0.0
 30
0.0
 11
-1.0
 21
0.0
 31
0.0
  0
ENDBLK
  5
7FD3
330
7FCC
100
AcDbEntity
  8
0
100
AcDbBlockEnd
  0
BLOCK
  5
802A
330
8029
100
AcDbEntity
  8
0
100
AcDbBlockBegin
  2
*D25
 70
     1
 10
0.0
 20
0.0
 30
0.0
  3
*D25
  1

  0
LINE
  5
802B
330
8029
100
AcDbEntity
  8
0
  6
ByBlock
 62
     0
440
 16777216
100
AcDbLine
 10
1383.786506179757
 20
3437.515531982445
 30
0.0
 11
945.5843789422651
 21
3437.515531982445
 31
0.0
  0
LINE
  5
802C
330
8029
100
AcDbEntity
  8
0
  6
ByBlock
 62
     0
440
 16777216
100
AcDbLine
 10
2107.041844958304
 20
4080.515531982444
 30
0.0
 11
945.5843789422651
 21
4080.515531982444
 31
0.0
  0
LINE
  5
802D
330
8029
100
AcDbEntity
  8
0
  6
ByBlock
 62
     0
440
 16777216
100
AcDbLine
 10
975.5843789422652
 20
3497.515531982445
 30
0.0
 11
975.5843789422652
 21
4020.515531982444
 31
0.0
  0
INSERT
  5
802E
330
8029
100
AcDbEntity
  8
0
  6
ByBlock
 62
     0
440
 16777216
100
AcDbBlockReference
  2
_OPEN
 10
975.5843789422652
 20
3437.515531982445
 30
0.0
 41
60.0
 42
60.0
 43
60.0
 50
270.0
  0
INSERT
  5
802F
330
8029
100
AcDbEntity
  8
0
  6
ByBlock
 62
     0
440
 16777216
100
AcDbBlockReference
  2
_OPEN
 10
975.5843789422652
 20
4080.515531982444
 30
0.0
 41
60.0
 42
60.0
 43
60.0
 50
90.0
  0
MTEXT
  5
8030
330
8029
100
AcDbEntity
  8
0
  6
ByBlock
 62
     0
440
 16777216
100
AcDbMText
 10
900.5843789422652
 20
3759.015531982445
 30
0.0
 40
90.0
 41
0.0
 46
0.0
 71
     5
 72
     5
  1
\A1;643
 11
0.0
 21
1.0
 31
0.0
 73
     1
 44
1.0
  0
POINT
  5
8031
330
8029
100
AcDbEntity
  8
DEFPOINTS
  6
ByBlock
 62
     0
440
 16777216
100
AcDbPoint
 10
1398.786506179757
 20
3437.515531982445
 30
0.0
  0
POINT
  5
8032
330
8029
100
AcDbEntity
  8
DEFPOINTS
  6
ByBlock
 62
     0
440
 16777216
100
AcDbPoint
 10
2122.041844958304
 20
4080.515531982444
 30
0.0
  0
POINT
  5
8033
330
8029
100
AcDbEntity
  8
DEFPOINTS
  6
ByBlock
 62
     0
440
 16777216
100
AcDbPoint
 10
975.5843789422652
 20
4080.515531982444
 30
0.0
  0
ENDBLK
  5
8034
330
8029
100
AcDbEntity
  8
0
100
AcDbBlockEnd
  0
BLOCK
  5
8037
330
8036
100
AcDbEntity
  8
0
100
AcDbBlockBegin
  2
*D26
 70
     1
 10
0.0
 20
0.0
 30
0.0
  3
*D26
  1

  0
LINE
  5
8038
330
8036
100
AcDbEntity
  8
0
  6
ByBlock
 62
     0
440
 16777216
100
AcDbLine
 10
2092.041844958304
 20
4080.515531982444
 30
0.0
 11
729.8013122600496
 21
4080.515531982444
 31
0.0
  0
LINE
  5
8039
330
8036
100
AcDbEntity
  8
0
  6
ByBlock
 62
     0
440
 16777216
100
AcDbLine
 10
1480.0418449583
 20
2227.515531982445
 30
0.0
 11
729.8013122600496
 21
2227.515531982445
 31
0.0
  0
LINE
  5
803A
330
8036
100
AcDbEntity
  8
0
  6
ByBlock
 62
     0
440
 16777216
100
AcDbLine
 10
759.8013122600495
 20
4020.515531982444
 30
0.0
 11
759.8013122600495
 21
2287.515531982444
 31
0.0
  0
INSERT
  5
803B
330
8036
100
AcDbEntity
  8
0
  6
ByBlock
 62
     0
440
 16777216
100
AcDbBlockReference
  2
_OPEN
 10
759.8013122600495
 20
4080.515531982444
 30
0.0
 41
60.0
 42
60.0
 43
60.0
 50
90.0
  0
INSERT
  5
803C
330
8036
100
AcDbEntity
  8
0
  6
ByBlock
 62
     0
440
 16777216
100
AcDbBlockReference
  2
_OPEN
 10
759.8013122600495
 20
2227.515531982445
 30
0.0
 41
60.0
 42
60.0
 43
60.0
 50
270.0
  0
MTEXT
  5
803D
330
8036
100
AcDbEntity
  8
0
  6
ByBlock
 62
     0
440
 16777216
100
AcDbMText
 10
661.2298836886211
 20
3154.015531982444
 30
0.0
 40
90.0
 41
0.0
 46
0.0
 71
     5
 72
     5
  1
\A1;(1853)
 11
0.0
 21
1.0
 31
0.0
 73
     1
 44
1.0
  0
POINT
  5
803E
330
8036
100
AcDbEntity
  8
DEFPOINTS
  6
ByBlock
 62
     0
440
 16777216
100
AcDbPoint
 10
2107.041844958304
 20
4080.515531982444
 30
0.0
  0
POINT
  5
803F
330
8036
100
AcDbEntity
  8
DEFPOINTS
  6
ByBlock
 62
     0
440
 16777216
100
AcDbPoint
 10
1495.0418449583
 20
2227.515531982445
 30
0.0
  0
POINT
  5
8040
330
8036
100
AcDbEntity
  8
DEFPOINTS
  6
ByBlock
 62
     0
440
 16777216
100
AcDbPoint
 10
759.8013122600495
 20
2227.515531982445
 30
0.0
  0
ENDBLK
  5
8041
330
8036
100
AcDbEntity
  8
0
100
AcDbBlockEnd
  0
BLOCK
  5
8194
330
8193
100
AcDbEntity
  8
0
100
AcDbBlockBegin
  2
*D27
 70
     1
 10
0.0
 20
0.0
 30
0.0
  3
*D27
  1

  0
LINE
  5
81BE
330
8193
100
AcDbEntity
  8
3
 62
     0
440
 16777216
370
    -2
100
AcDbLine
 10
3849.222214209876
 20
3672.515531982444
 30
0.0
 11
3849.222214209876
 21
4508.838223369123
 31
0.0
  0
LINE
  5
81BF
330
8193
100
AcDbEntity
  8
3
 62
     0
440
 16777216
370
    -2
100
AcDbLine
 10
4819.222214209879
 20
4406.459097595103
 30
0.0
 11
4819.222214209879
 21
4508.838223369123
 31
0.0
  0
LINE
  5
81C0
330
8193
100
AcDbEntity
  8
3
 62
     0
440
 16777216
370
    -2
100
AcDbLine
 10
3909.222214209876
 20
4478.838223369122
 30
0.0
 11
4759.222214209879
 21
4478.838223369122
 31
0.0
  0
INSERT
  5
81C1
330
8193
100
AcDbEntity
  8
3
 62
     0
440
 16777216
370
    -2
100
AcDbBlockReference
  2
_OPEN
 10
3849.222214209876
 20
4478.838223369122
 30
0.0
 41
60.0
 42
60.0
 43
60.0
 50
180.0
  0
INSERT
  5
81C2
330
8193
100
AcDbEntity
  8
3
 62
     0
440
 16777216
370
    -2
100
AcDbBlockReference
  2
_OPEN
 10
4819.222214209879
 20
4478.838223369122
 30
0.0
 41
60.0
 42
60.0
 43
60.0
  0
MTEXT
  5
81C3
330
8193
100
AcDbEntity
  8
3
 62
     0
440
 16777216
100
AcDbMText
 10
4334.222214209878
 20
4577.409651940551
 30
0.0
 40
90.0
 41
0.0
 46
0.0
 71
     5
 72
     1
  1
\A1;(970)
 73
     1
 44
1.0
  0
POINT
  5
81C4
330
8193
100
AcDbEntity
  8
DEFPOINTS
 62
     0
440
 16777216
100
AcDbPoint
 10
3849.222214209876
 20
3657.515531982445
 30
0.0
  0
POINT
  5
81C5
330
8193
100
AcDbEntity
  8
DEFPOINTS
 62
     0
440
 16777216
100
AcDbPoint
 10
4819.222214209879
 20
4391.459097595103
 30
0.0
  0
POINT
  5
81C6
330
8193
100
AcDbEntity
  8
DEFPOINTS
 62
     0
440
 16777216
100
AcDbPoint
 10
4819.222214209879
 20
4478.838223369122
 30
0.0
  0
ENDBLK
  5
8195
330
8193
100
AcDbEntity
  8
0
100
AcDbBlockEnd
  0
BLOCK
  5
81A1
330
81A0
100
AcDbEntity
  8
0
100
AcDbBlockBegin
  2
*D28
 70
     1
 10
0.0
 20
0.0
 30
0.0
  3
*D28
  1

  0
LINE
  5
81C7
330
81A0
100
AcDbEntity
  8
3
 62
     0
440
 16777216
370
    -2
100
AcDbLine
 10
4819.222214209879
 20
4406.459097595103
 30
0.0
 11
4819.222214209879
 21
4508.838223369123
 31
0.0
  0
LINE
  5
81C8
330
81A0
100
AcDbEntity
  8
3
 62
     0
440
 16777216
370
    -2
100
AcDbLine
 10
5538.722214209877
 20
3413.015531982445
 30
0.0
 11
5538.722214209877
 21
4508.838223369123
 31
0.0
  0
LINE
  5
81C9
330
81A0
100
AcDbEntity
  8
3
 62
     0
440
 16777216
370
    -2
100
AcDbLine
 10
4879.222214209879
 20
4478.838223369122
 30
0.0
 11
5478.722214209877
 21
4478.838223369122
 31
0.0
  0
INSERT
  5
81CA
330
81A0
100
AcDbEntity
  8
3
 62
     0
440
 16777216
370
    -2
100
AcDbBlockReference
  2
_OPEN
 10
4819.222214209879
 20
4478.838223369122
 30
0.0
 41
60.0
 42
60.0
 43
60.0
 50
180.0
  0
INSERT
  5
81CB
330
81A0
100
AcDbEntity
  8
3
 62
     0
440
 16777216
370
    -2
100
AcDbBlockReference
  2
_OPEN
 10
5538.722214209877
 20
4478.838223369122
 30
0.0
 41
60.0
 42
60.0
 43
60.0
  0
MTEXT
  5
81CC
330
81A0
100
AcDbEntity
  8
3
 62
     0
440
 16777216
100
AcDbMText
 10
5178.972214209878
 20
4577.409651940551
 30
0.0
 40
90.0
 41
0.0
 46
0.0
 71
     5
 72
     1
  1
\A1;(720)
 73
     1
 44
1.0
  0
POINT
  5
81CD
330
81A0
100
AcDbEntity
  8
DEFPOINTS
 62
     0
440
 16777216
100
AcDbPoint
 10
4819.222214209879
 20
4391.459097595103
 30
0.0
  0
POINT
  5
81CE
330
81A0
100
AcDbEntity
  8
DEFPOINTS
 62
     0
440
 16777216
100
AcDbPoint
 10
5538.722214209877
 20
3398.015531982445
 30
0.0
  0
POINT
  5
81CF
330
81A0
100
AcDbEntity
  8
DEFPOINTS
 62
     0
440
 16777216
100
AcDbPoint
 10
5538.722214209877
 20
4478.838223369122
 30
0.0
  0
ENDBLK
  5
81A2
330
81A0
100
AcDbEntity
  8
0
100
AcDbBlockEnd
  0
ENDSEC
  0
SECTION
  2
ENTITIES
  0
INSERT
  5
7C12
330
19
100
AcDbEntity
  8
0
100
AcDbBlockReference
  2
YA_N
 10
6.0
 20
5.0
 30
0.0
  0
LINE
  5
7C14
330
19
100
AcDbEntity
  8
2
100
AcDbLine
 10
1398.786506179757
 20
3437.515531982445
 30
0.0
 11
2900.366599596996
 21
3437.515531982445
 31
0.0
  0
LINE
  5
7C15
330
19
100
AcDbEntity
  8
2
100
AcDbLine
 10
2055.041844958304
 20
4131.306323231398
 30
0.0
 11
2055.041844958302
 21
2227.515531982445
 31
0.0
  0
ARC
  5
7C16
330
19
100
AcDbEntity
  8
1
 48
10.0
100
AcDbCircle
 10
1988.041844958304
 20
3370.515531982444
 30
0.0
 40
844.0
100
AcDbArc
 50
274.5531523872191
 51
4.553152387219013
  0
ARC
  5
7C17
330
19
100
AcDbEntity
  8
1
 48
10.0
100
AcDbCircle
 10
2122.041844958304
 20
3370.515531982444
 30
0.0
 40
710.0
100
AcDbArc
 50
5.41484170612945
 51
95.41484170612944
  0
ARC
  5
7C18
330
19
100
AcDbEntity
  8
1
 48
10.0
100
AcDbCircle
 10
2108.541844958304
 20
3491.015531982445
 30
0.0
 40
589.5
100
AcDbArc
 50
95.20703608834949
 51
185.2070360883495
  0
ARC
  5
7C19
330
19
100
AcDbEntity
  8
1
 48
10.0
100
AcDbCircle
 10
2001.541844958304
 20
3491.015531982445
 30
0.0
 40
482.5
100
AcDbArc
 50
186.36609398052
 51
190.6898317069095
  0
LINE
  5
7C1A
330
19
100
AcDbEntity
  8
1
 48
10.0
100
AcDbLine
 10
1435.041844958304
 20
2434.015531982444
 30
0.0
 11
1435.041844958304
 21
3444.015531982444
 31
0.0
  0
LINE
  5
7C1B
330
19
100
AcDbEntity
  8
1
 48
10.0
100
AcDbLine
 10
1435.041844958304
 20
3401.515531982445
 30
0.0
 11
1527.415279577287
 21
3401.515531982445
 31
0.0
  0
LINE
  5
7C1C
330
19
100
AcDbEntity
  8
1
 48
10.0
100
AcDbLine
 10
1435.041844958304
 20
2476.515531982445
 30
0.0
 11
2055.041844958304
 21
2529.17909511548
 31
0.0
  0
LINE
  5
7C1D
330
19
100
AcDbEntity
  8
1
 48
10.0
100
AcDbLine
 10
1435.041844958304
 20
2434.015531982444
 30
0.0
 11
1438.041844958304
 21
2434.015531982444
 31
0.0
  0
LINE
  5
7C1E
330
19
100
AcDbEntity
  8
1
 48
10.0
100
AcDbLine
 10
1435.041844958304
 20
3444.015531982444
 30
0.0
 11
1438.041844958304
 21
3444.015531982444
 31
0.0
  0
LINE
  5
7C1F
330
19
100
AcDbEntity
  8
1
 48
10.0
100
AcDbLine
 10
1438.041844958304
 20
2434.015531982444
 30
0.0
 11
1438.041844958304
 21
3444.015531982444
 31
0.0
  0
LINE
  5
7C20
330
19
100
AcDbEntity
  8
1
 48
10.0
100
AcDbLine
 10
3495.041844958301
 20
2462.515531982444
 30
0.0
 11
3495.041844958301
 21
2337.515531982444
 31
0.0
  0
LINE
  5
7C21
330
19
100
AcDbEntity
  8
1
 48
10.0
100
AcDbLine
 10
1495.041844958302
 20
2462.515531982444
 30
0.0
 11
1495.041844958302
 21
2337.515531982444
 31
0.0
  0
LINE
  5
7C22
330
19
100
AcDbEntity
  8
1
 48
10.0
100
AcDbLine
 10
3495.041844958301
 20
2337.515531982444
 30
0.0
 11
1495.0418449583
 21
2337.515531982444
 31
0.0
1001
ACAD
1000
ASC_BOUNDS
1002
{
1070
    19
1002
}
  0
LINE
  5
7C23
330
19
100
AcDbEntity
  8
1
 48
10.0
100
AcDbLine
 10
3495.041844958301
 20
2462.515531982444
 30
0.0
 11
1495.0418449583
 21
2462.515531982444
 31
0.0
  0
LINE
  5
7C24
330
19
100
AcDbEntity
  8
2
100
AcDbLine
 10
3255.041844958304
 20
3005.518022978547
 30
0.0
 11
3255.041844958302
 21
2227.515531982445
 31
0.0
  0
LINE
  5
7C25
330
19
100
AcDbEntity
  8
2
100
AcDbLine
 10
3520.500537354558
 20
2737.515531982444
 30
0.0
 11
3040.198918504471
 21
2737.515531982444
 31
0.0
  0
LINE
  5
7C26
330
19
100
AcDbEntity
  8
2
100
AcDbLine
 10
3928.643115564181
 20
3437.515531982445
 30
0.0
 11
5529.741861967615
 21
3437.515531982445
 31
0.0
  0
POINT
  5
7C28
330
19
100
AcDbEntity
  8
1
 48
10.0
100
AcDbPoint
 10
2828.873508086096
 20
3437.515531982445
 30
0.0
  0
INSERT
  5
7C29
330
19
100
AcDbEntity
  8
0
 48
10.0
100
AcDbBlockReference
  2
YA_N
 10
-1638.667820090515
 20
-980.7401201518077
 30
0.0
 41
20.0
 42
20.0
 43
20.0
  0
INSERT
  5
7C2B
330
19
100
AcDbEntity
  8
0
 48
10.0
100
AcDbBlockReference
  2
YA_N
 10
-1552.816625123014
 20
-1070.405552057982
 30
0.0
 41
20.0
 42
20.0
 43
20.0
  0
ARC
  5
7C2D
330
19
100
AcDbEntity
  8
1
 48
10.0
100
AcDbCircle
 10
3255.041844958304
 20
2737.515531982444
 30
0.0
 40
185.0
100
AcDbArc
 50
287.945251
 51
252.054749
  0
LINE
  5
7C2E
330
19
100
AcDbEntity
  8
1
 48
10.0
100
AcDbLine
 10
3198.041844958304
 20
2561.515531982445
 30
0.0
 11
3312.041844958304
 21
2561.515531982445
 31
0.0
  0
LINE
  5
7C2F
330
19
100
AcDbEntity
  8
1
 48
10.0
100
AcDbLine
 10
3093.041844958304
 20
2632.774564982444
 30
0.0
 11
3093.041844958304
 21
2557.515531982444
 31
0.0
  0
LINE
  5
7C30
330
19
100
AcDbEntity
  8
1
 48
10.0
100
AcDbLine
 10
3093.041844958304
 20
2632.774564982444
 30
0.0
 11
3099.425816958304
 21
2637.472318982444
 31
0.0
  0
LINE
  5
7C31
330
19
100
AcDbEntity
  8
1
 48
10.0
100
AcDbLine
 10
3417.041844958304
 20
2632.774564982444
 30
0.0
 11
3417.041844958304
 21
2557.515531982444
 31
0.0
  0
LINE
  5
7C32
330
19
100
AcDbEntity
  8
1
 48
10.0
100
AcDbLine
 10
3417.041844958304
 20
2632.774564982444
 30
0.0
 11
3410.657933958304
 21
2637.472318982444
 31
0.0
  0
LINE
  5
7C33
330
19
100
AcDbEntity
  8
1
 48
10.0
100
AcDbLine
 10
3480.041844958304
 20
2502.515531982445
 30
0.0
 11
3030.041844958304
 21
2502.515531982445
 31
0.0
  0
LINE
  5
7C34
330
19
100
AcDbEntity
  8
1
 48
10.0
100
AcDbLine
 10
3455.041844958304
 20
2502.515531982445
 30
0.0
 11
3455.041844958304
 21
2462.515531982444
 31
0.0
  0
LINE
  5
7C35
330
19
100
AcDbEntity
  8
1
 48
10.0
100
AcDbLine
 10
3055.041844958304
 20
2502.515531982445
 30
0.0
 11
3055.041844958304
 21
2462.515531982444
 31
0.0
  0
LINE
  5
7C36
330
19
100
AcDbEntity
  8
1
 48
10.0
100
AcDbLine
 10
3465.143383359427
 20
2557.515531982444
 30
0.0
 11
3325.041844958304
 21
2557.515531982444
 31
0.0
  0
LINE
  5
7C37
330
19
100
AcDbEntity
  8
1
 48
10.0
100
AcDbLine
 10
3030.041844958304
 20
2502.515531982445
 30
0.0
 11
3045.244161592816
 21
2557.515531982444
 31
0.0
  0
LINE
  5
7C38
330
19
100
AcDbEntity
  8
1
 48
10.0
100
AcDbLine
 10
3480.041844958304
 20
2502.515531982445
 30
0.0
 11
3465.143383359427
 21
2557.515531982444
 31
0.0
  0
LINE
  5
7C3A
330
19
100
AcDbEntity
  8
1
 48
10.0
100
AcDbLine
 10
3325.041844958304
 20
2547.515531982444
 30
0.0
 11
3185.041844958304
 21
2547.515531982444
 31
0.0
  0
LINE
  5
7C3B
330
19
100
AcDbEntity
  8
1
 48
10.0
100
AcDbLine
 10
3325.041844958304
 20
2557.515531982444
 30
0.0
 11
3325.041844958304
 21
2547.515531982444
 31
0.0
  0
LINE
  5
7C3C
330
19
100
AcDbEntity
  8
1
 48
10.0
100
AcDbLine
 10
3185.041844958304
 20
2557.515531982444
 30
0.0
 11
3185.041844958304
 21
2547.515531982444
 31
0.0
  0
LINE
  5
7C3D
330
19
100
AcDbEntity
  8
1
 48
10.0
100
AcDbLine
 10
3185.041844958304
 20
2557.515531982444
 30
0.0
 11
3045.244161592816
 21
2557.515531982444
 31
0.0
  0
LINE
  5
7C40
330
19
100
AcDbEntity
  8
1
 48
10.0
100
AcDbLine
 10
3495.041844958302
 20
2292.515531982445
 30
0.0
 11
1495.0418449583
 21
2292.515531982445
 31
0.0
1001
ACAD
1000
ASC_BOUNDS
1002
{
1070
    19
1002
}
  0
LINE
  5
7C41
330
19
100
AcDbEntity
  8
1
 48
10.0
100
AcDbLine
 10
3495.041844958302
 20
2227.515531982445
 30
0.0
 11
1495.0418449583
 21
2227.515531982445
 31
0.0
  0
LINE
  5
7C42
330
19
100
AcDbEntity
  8
1
 48
10.0
100
AcDbLine
 10
3495.041844958302
 20
2292.515531982445
 30
0.0
 11
3495.041844958302
 21
2227.515531982445
 31
0.0
  0
LINE
  5
7C43
330
19
100
AcDbEntity
  8
1
 48
10.0
100
AcDbLine
 10
1495.0418449583
 20
2292.515531982445
 30
0.0
 11
1495.0418449583
 21
2227.515531982445
 31
0.0
  0
DIMENSION
  5
7C45
330
19
100
AcDbEntity
  8
3
 48
10.0
100
AcDbDimension
280
     0
  2
*D3
 10
2055.041844958302
 20
2024.005277483849
 30
0.0
 11
1775.041844958301
 21
2099.00527748385
 31
0.0
 70
    32
 71
     5
 42
-1.0
 73
     0
 74
     0
 75
     0
  3
DIA1
100
AcDbAlignedDimension
 13
1495.0418449583
 23
2227.515531982445
 33
0.0
 14
2055.041844958302
 24
2227.515531982445
 34
0.0
100
AcDbRotatedDimension
1001
ACAD
1000
DSTYLE
1002
{
1070
   287
1070
     3
1070
    40
1040
30.0
1070
    41
1040
2.5
1070
    42
1040
0.0
1070
   140
1040
3.0
1070
   147
1040
1.0
1070
   173
1070
     1
1070
   271
1070
     4
1070
   272
1070
     4
1070
   279
1070
     0
1070
   284
1070
     0
1070
   285
1070
     0
1070
   286
1070
     0
1070
     6
1000
ARROW
1070
     7
1000
ARROW
1002
}
  0
DIMENSION
  5
7C46
330
19
100
AcDbEntity
  8
3
 48
10.0
100
AcDbDimension
280
     0
  2
*D4
 10
1285.426736515092
 20
3401.515531982445
 30
0.0
 11
1210.426736515092
 21
2939.015531982445
 31
0.0
 70
    32
 71
     5
 42
-1.0
 73
     0
 74
     0
 75
     0
  3
DIA1
100
AcDbAlignedDimension
 13
1435.041844958304
 23
2476.515531982445
 33
0.0
 14
1435.041844958304
 24
3401.515531982445
 34
0.0
 50
90.0
100
AcDbRotatedDimension
1001
ACAD
1000
DSTYLE
1002
{
1070
   287
1070
     3
1070
    40
1040
30.0
1070
    41
1040
2.5
1070
    42
1040
0.0
1070
   140
1040
3.0
1070
   147
1040
1.0
1070
   173
1070
     1
1070
   271
1070
     4
1070
   272
1070
     4
1070
   279
1070
     0
1070
   284
1070
     0
1070
   285
1070
     0
1070
   286
1070
     0
1070
     6
1000
ARROW
1070
     7
1000
ARROW
1002
}
  0
DIMENSION
  5
7C47
330
19
100
AcDbEntity
  8
3
 48
10.0
100
AcDbDimension
280
     0
  2
*D5
 10
1135.08343641723
 20
3437.515531982445
 30
0.0
 11
1060.08343641723
 21
2957.015531982445
 31
0.0
 70
    32
 71
     5
 42
-1.0
 73
     0
 74
     0
 75
     0
  3
DIA1
100
AcDbAlignedDimension
 13
1435.041844958304
 23
2476.515531982445
 33
0.0
 14
1398.786506179757
 24
3437.515531982445
 34
0.0
 50
90.0
100
AcDbRotatedDimension
1001
ACAD
1000
DSTYLE
1002
{
1070
   287
1070
     3
1070
    40
1040
30.0
1070
    41
1040
2.5
1070
    42
1040
0.0
1070
   140
1040
3.0
1070
   147
1040
1.0
1070
   173
1070
     1
1070
   271
1070
     4
1070
   272
1070
     4
1070
   279
1070
     0
1070
   284
1070
     0
1070
   285
1070
     0
1070
   286
1070
     0
1070
     6
1000
ARROW
1070
     7
1000
ARROW
1002
}
  0
DIMENSION
  5
7C48
330
19
100
AcDbEntity
  8
3
 48
10.0
100
AcDbDimension
280
     0
  2
*D6
 10
973.8973670054773
 20
2337.515531982445
 30
0.0
 11
898.8973670054772
 21
2887.515531982445
 31
0.0
 70
    32
 71
     5
 42
-1.0
 73
     0
 74
     0
 75
     0
  3
DIA1
100
AcDbAlignedDimension
 13
1398.786506179757
 23
3437.515531982445
 33
0.0
 14
1495.0418449583
 24
2337.515531982444
 34
0.0
 50
90.0
100
AcDbRotatedDimension
1001
ACAD
1000
DSTYLE
1002
{
1070
   287
1070
     3
1070
    40
1040
30.0
1070
    41
1040
2.5
1070
    42
1040
0.0
1070
   140
1040
3.0
1070
   147
1040
1.0
1070
   173
1070
     1
1070
   271
1070
     4
1070
   272
1070
     4
1070
   279
1070
     0
1070
   284
1070
     0
1070
   285
1070
     0
1070
   286
1070
     0
1070
     6
1000
ARROW
1070
     7
1000
ARROW
1002
}
  0
POINT
  5
7C49
330
19
100
AcDbEntity
  8
1
 48
10.0
100
AcDbPoint
 10
1495.0418449583
 20
2292.515531982445
 30
0.0
  0
POINT
  5
7C4A
330
19
100
AcDbEntity
  8
1
 48
10.0
100
AcDbPoint
 10
1495.0418449583
 20
2227.515531982445
 30
0.0
  0
POINT
  5
7C4B
330
19
100
AcDbEntity
  8
1
 48
10.0
100
AcDbPoint
 10
973.6668347629684
 20
2647.515531982445
 30
0.0
  0
POINT
  5
7C4C
330
19
100
AcDbEntity
  8
1
 48
10.0
100
AcDbPoint
 10
1495.0418449583
 20
2292.515531982445
 30
0.0
  0
POINT
  5
7C4D
330
19
100
AcDbEntity
  8
1
 48
10.0
100
AcDbPoint
 10
1495.041844958302
 20
2337.515531982444
 30
0.0
  0
CIRCLE
  5
7C4E
330
19
100
AcDbEntity
  8
1
 48
10.0
100
AcDbCircle
 10
3255.041844958304
 20
2737.515531982444
 30
0.0
 40
119.0
  0
LINE
  5
7C4F
330
19
100
AcDbEntity
  8
2
100
AcDbLine
 10
3849.222214209881
 20
2737.515531982444
 30
0.0
 11
4632.722214209876
 21
2737.515531982444
 31
0.0
  0
CIRCLE
  5
7C50
330
19
100
AcDbEntity
  8
1
 48
10.0
100
AcDbCircle
 10
2055.041844958304
 20
3437.515531982445
 30
0.0
 40
119.0
  0
LINE
  5
7C51
330
19
100
AcDbEntity
  8
1
 48
10.0
100
AcDbLine
 10
3495.041844958303
 20
5113.633867065956
 30
0.0
 11
1495.041844958303
 21
5113.633867065956
 31
0.0
  0
LINE
  5
7C52
330
19
100
AcDbEntity
  8
1
 48
10.0
100
AcDbLine
 10
2615.041844958303
 20
6613.633867065956
 30
0.0
 11
1495.041844958303
 21
6613.633867065956
 31
0.0
  0
LINE
  5
7C53
330
19
100
AcDbEntity
  8
1
 48
10.0
100
AcDbLine
 10
1495.041844958303
 20
5113.633867065956
 30
0.0
 11
1495.041844958303
 21
5365.633867065957
 31
0.0
  0
LINE
  5
7C54
330
19
100
AcDbEntity
  8
1
 48
10.0
100
AcDbLine
 10
3495.041844958303
 20
5963.633867065957
 30
0.0
 11
3495.041844958303
 21
5113.633867065956
 31
0.0
  0
LINE
  5
7C55
330
19
100
AcDbEntity
  8
1
 48
10.0
100
AcDbLine
 10
2615.041844958303
 20
6545.633867065958
 30
0.0
 11
2615.041844958303
 21
6613.633867065956
 31
0.0
  0
LINE
  5
7C56
330
19
100
AcDbEntity
  8
1
 48
10.0
100
AcDbLine
 10
3495.041844958303
 20
5963.633867065957
 30
0.0
 11
2832.041844958303
 21
5963.633867065957
 31
0.0
  0
ARC
  5
7C57
330
19
100
AcDbEntity
  8
1
 48
10.0
100
AcDbCircle
 10
2055.041844958304
 20
3437.515531982445
 30
0.0
 40
220.0
100
AcDbArc
 50
59.74356283647072
 51
239.7435628364707
  0
ARC
  5
7C58
330
19
100
AcDbEntity
  8
1
 48
10.0
100
AcDbCircle
 10
3255.041844958304
 20
2737.515531982444
 30
0.0
 40
220.0
100
AcDbArc
 50
239.7435628364708
 51
59.7435628364707
  0
DIMENSION
  5
7C59
330
19
100
AcDbEntity
  8
3
 48
10.0
100
AcDbDimension
280
     0
  2
*D7
 10
2055.041844958302
 20
2024.089433361036
 30
0.0
 11
2775.041844958302
 21
2099.089433361036
 31
0.0
 70
    32
 71
     5
 42
-1.0
 73
     0
 74
     0
 75
     0
  3
DIA1
100
AcDbAlignedDimension
 13
3495.041844958302
 23
2227.515531982445
 33
0.0
 14
2055.041844958302
 24
2227.515531982445
 34
0.0
100
AcDbRotatedDimension
1001
ACAD
1000
DSTYLE
1002
{
1070
   287
1070
     3
1070
    40
1040
30.0
1070
    41
1040
2.5
1070
    42
1040
0.0
1070
   140
1040
3.0
1070
   147
1040
1.0
1070
   173
1070
     1
1070
   271
1070
     4
1070
   272
1070
     4
1070
   279
1070
     0
1070
   284
1070
     0
1070
   285
1070
     0
1070
   286
1070
     0
1070
     6
1000
ARROW
1070
     7
1000
ARROW
1002
}
  0
LINE
  5
7C5B
330
19
100
AcDbEntity
  8
2
100
AcDbLine
 10
2832.041844958303
 20
5955.633867065957
 30
0.0
 11
1362.957571545553
 21
5955.633867065957
 31
0.0
  0
LINE
  5
7C5C
330
19
100
AcDbEntity
  8
2
100
AcDbLine
 10
2055.041844958303
 20
4985.633867065958
 30
0.0
 11
2055.041844958303
 21
6752.72128379877
 31
0.0
  0
DIMENSION
  5
7C5D
330
19
100
AcDbEntity
  8
3
 48
10.0
100
AcDbDimension
280
     0
  2
*D8
 10
1495.041844958303
 20
6911.716422660944
 30
0.0
 11
2055.041844958303
 21
6986.716422660944
 31
0.0
 70
    32
 71
     5
 42
-1.0
 73
     0
 74
     0
 75
     0
  3
DIA1
100
AcDbAlignedDimension
 13
2615.041844958303
 23
6613.633867065956
 33
0.0
 14
1495.041844958303
 24
6613.633867065956
 34
0.0
100
AcDbRotatedDimension
1001
ACAD
1000
DSTYLE
1002
{
1070
   287
1070
     3
1070
    40
1040
30.0
1070
    41
1040
2.5
1070
    42
1040
0.0
1070
   140
1040
3.0
1070
   147
1040
1.0
1070
   173
1070
     1
1070
   271
1070
     4
1070
   272
1070
     4
1070
   279
1070
     0
1070
   284
1070
     0
1070
   285
1070
     0
1070
   286
1070
     0
1070
     6
1000
ARROW
1070
     7
1000
ARROW
1002
}
  0
DIMENSION
  5
7C5E
330
19
100
AcDbEntity
  8
3
 48
10.0
100
AcDbDimension
280
     0
  2
*D9
 10
2615.041844958303
 20
6911.716422660944
 30
0.0
 11
3055.041844958303
 21
6986.716422660944
 31
0.0
 70
    32
 71
     5
 42
-1.0
 73
     0
 74
     0
 75
     0
  3
DIA1
100
AcDbAlignedDimension
 13
3495.041844958303
 23
5963.633867065957
 33
0.0
 14
2615.041844958303
 24
6613.633867065956
 34
0.0
100
AcDbRotatedDimension
1001
ACAD
1000
DSTYLE
1002
{
1070
   287
1070
     3
1070
    40
1040
30.0
1070
    41
1040
2.5
1070
    42
1040
0.0
1070
   140
1040
3.0
1070
   147
1040
1.0
1070
   173
1070
     1
1070
   271
1070
     4
1070
   272
1070
     4
1070
   279
1070
     0
1070
   284
1070
     0
1070
   285
1070
     0
1070
   286
1070
     0
1070
     6
1000
ARROW
1070
     7
1000
ARROW
1002
}
  0
DIMENSION
  5
7C5F
330
19
100
AcDbEntity
  8
3
 48
10.0
100
AcDbDimension
280
     0
  2
*D10
 10
1495.041844958303
 20
4717.594442646639
 30
0.0
 11
2495.041844958303
 21
4717.594442646639
 31
0.0
 70
   160
 71
     5
 42
-1.0
 73
     0
 74
     0
 75
     0
  3
DIA1
100
AcDbAlignedDimension
 13
3495.041844958303
 23
5113.633867065956
 33
0.0
 14
1495.041844958303
 24
5113.633867065956
 34
0.0
100
AcDbRotatedDimension
1001
ACAD
1000
DSTYLE
1002
{
1070
   287
1070
     3
1070
    40
1040
30.0
1070
    41
1040
2.5
1070
    42
1040
0.0
1070
   140
1040
3.0
1070
   147
1040
1.0
1070
   173
1070
     1
1070
   271
1070
     4
1070
   272
1070
     4
1070
   279
1070
     0
1070
   284
1070
     0
1070
   285
1070
     0
1070
   286
1070
     0
1070
     6
1000
ARROW
1070
     7
1000
ARROW
1002
}
  0
DIMENSION
  5
7C60
330
19
100
AcDbEntity
  8
3
 48
10.0
100
AcDbDimension
280
     0
  2
*D11
 10
3793.02545004215
 20
5113.633867065956
 30
0.0
 11
3718.025450042149
 21
5538.633867065958
 31
0.0
 70
    32
 71
     5
 42
-1.0
 73
     0
 74
     0
 75
     0
  3
DIA1
100
AcDbAlignedDimension
 13
3495.041844958303
 23
5963.633867065957
 33
0.0
 14
3495.041844958303
 24
5113.633867065956
 34
0.0
 50
270.0
100
AcDbRotatedDimension
1001
ACAD
1000
DSTYLE
1002
{
1070
   287
1070
     3
1070
    40
1040
30.0
1070
    41
1040
2.5
1070
    42
1040
0.0
1070
   140
1040
3.0
1070
   147
1040
1.0
1070
   173
1070
     1
1070
   271
1070
     4
1070
   272
1070
     4
1070
   279
1070
     0
1070
   284
1070
     0
1070
   285
1070
     0
1070
   286
1070
     0
1070
     6
1000
ARROW
1070
     7
1000
ARROW
1002
}
  0
DIMENSION
  5
7C61
330
19
100
AcDbEntity
  8
3
 48
10.0
100
AcDbDimension
280
     0
  2
*D12
 10
1195.737598728388
 20
5113.633867065956
 30
0.0
 11
1120.737598728387
 21
5863.633867065956
 31
0.0
 70
    32
 71
     5
 42
-1.0
 73
     0
 74
     0
 75
     0
  3
DIA1
100
AcDbAlignedDimension
 13
1495.041844958303
 23
6613.633867065956
 33
0.0
 14
1495.041844958303
 24
5113.633867065956
 34
0.0
 50
270.0
100
AcDbRotatedDimension
1001
ACAD
1000
DSTYLE
1002
{
1070
   287
1070
     3
1070
    40
1040
30.0
1070
    41
1040
2.5
1070
    42
1040
0.0
1070
   140
1040
3.0
1070
   147
1040
1.0
1070
   173
1070
     1
1070
   271
1070
     4
1070
   272
1070
     4
1070
   279
1070
     0
1070
   284
1070
     0
1070
   285
1070
     0
1070
   286
1070
     0
1070
     6
1000
ARROW
1070
     7
1000
ARROW
1002
}
  0
LINE
  5
7C62
330
19
100
AcDbEntity
  8
1
 48
10.0
100
AcDbLine
 10
2832.041844958303
 20
6545.633867065958
 30
0.0
 11
1435.041844958303
 21
6545.633867065958
 31
0.0
  0
LINE
  5
7C63
330
19
100
AcDbEntity
  8
1
 48
10.0
100
AcDbLine
 10
2832.041844958303
 20
5365.633867065957
 30
0.0
 11
1435.041844958302
 21
5365.633867065957
 31
0.0
  0
LINE
  5
7C64
330
19
100
AcDbEntity
  8
1
 48
10.0
100
AcDbLine
 10
1435.041844958303
 20
5325.633867065957
 30
0.0
 11
1435.041844958302
 21
6585.633867065957
 31
0.0
  0
LINE
  5
7C6A
330
19
100
AcDbEntity
  8
1
 48
10.0
100
AcDbLine
 10
1475.041844958304
 20
2479.913181216835
 30
0.0
 11
1475.041844958304
 21
3401.515531982445
 31
0.0
  0
LINE
  5
7C6B
330
19
100
AcDbEntity
  8
1
 48
10.0
100
AcDbLine
 10
1438.041844958303
 20
5325.633867065957
 30
0.0
 11
1438.041844958302
 21
6585.633867065957
 31
0.0
  0
LINE
  5
7C6C
330
19
100
AcDbEntity
  8
1
 48
10.0
100
AcDbLine
 10
2832.041844958303
 20
5365.633867065957
 30
0.0
 11
2832.041844958303
 21
6545.633867065958
 31
0.0
  0
LINE
  5
7C6D
330
19
100
AcDbEntity
  8
1
 48
10.0
100
AcDbLine
 10
3070.041844958303
 20
5170.633867065959
 30
0.0
 11
3070.041844958303
 21
5727.133867065957
 31
0.0
  0
LINE
  5
7C6E
330
19
100
AcDbEntity
  8
1
 48
10.0
100
AcDbLine
 10
3440.041844958303
 20
5170.633867065959
 30
0.0
 11
3440.041844958303
 21
5727.133867065958
 31
0.0
  0
LINE
  5
7C6F
330
19
100
AcDbEntity
  8
1
 48
10.0
100
AcDbLine
 10
3475.041844958304
 20
4985.633867065956
 30
0.0
 11
1835.041844958304
 21
4985.633867065956
 31
0.0
  0
LINE
  5
7C70
330
19
100
AcDbEntity
  8
1
 48
10.0
100
AcDbLine
 10
1835.041844958304
 20
4985.633867065958
 30
0.0
 11
1835.041844958304
 21
5185.633867065958
 31
0.0
  0
LINE
  5
7C71
330
19
100
AcDbEntity
  8
1
 48
10.0
100
AcDbLine
 10
3475.041844958304
 20
4985.633867065956
 30
0.0
 11
3475.041844958304
 21
5185.633867065958
 31
0.0
  0
LINE
  5
7C72
330
19
100
AcDbEntity
  8
1
 48
10.0
100
AcDbLine
 10
3475.041844958304
 20
5185.633867065956
 30
0.0
 11
1835.041844958304
 21
5185.633867065956
 31
0.0
  0
LINE
  5
7C73
330
19
100
AcDbEntity
  8
1
 48
10.0
100
AcDbLine
 10
3374.041844958303
 20
5050.633867065958
 30
0.0
 11
3136.041844958303
 21
5050.633867065958
 31
0.0
  0
LINE
  5
7C74
330
19
100
AcDbEntity
  8
1
 48
10.0
100
AcDbLine
 10
3374.041844958303
 20
5160.633867065957
 30
0.0
 11
3136.041844958303
 21
5160.633867065957
 31
0.0
  0
LINE
  5
7C75
330
19
100
AcDbEntity
  8
1
 48
10.0
100
AcDbLine
 10
1936.041844958303
 20
5050.633867065958
 30
0.0
 11
1936.041844958303
 21
5160.633867065957
 31
0.0
  0
LINE
  5
7C76
330
19
100
AcDbEntity
  8
1
 48
10.0
100
AcDbLine
 10
2174.041844958303
 20
5050.633867065958
 30
0.0
 11
2174.041844958303
 21
5160.633867065957
 31
0.0
  0
LINE
  5
7C77
330
19
100
AcDbEntity
  8
1
 48
10.0
100
AcDbLine
 10
3136.041844958303
 20
5050.633867065958
 30
0.0
 11
3136.041844958303
 21
5160.633867065957
 31
0.0
  0
LINE
  5
7C78
330
19
100
AcDbEntity
  8
1
 48
10.0
100
AcDbLine
 10
3374.041844958303
 20
5050.633867065958
 30
0.0
 11
3374.041844958303
 21
5160.633867065957
 31
0.0
  0
LINE
  5
7C79
330
19
100
AcDbEntity
  8
1
 48
10.0
100
AcDbLine
 10
2174.041844958303
 20
5050.633867065958
 30
0.0
 11
1936.041844958303
 21
5050.633867065958
 31
0.0
  0
LINE
  5
7C7A
330
19
100
AcDbEntity
  8
1
 48
10.0
100
AcDbLine
 10
2174.041844958303
 20
5160.633867065957
 30
0.0
 11
1936.041844958303
 21
5160.633867065957
 31
0.0
  0
LINE
  5
7C7B
330
19
100
AcDbEntity
  8
2
100
AcDbLine
 10
3255.041844958304
 20
5727.133867065957
 30
0.0
 11
3255.041844958304
 21
4985.633867065956
 31
0.0
  0
LINE
  5
7C7C
330
19
100
AcDbEntity
  8
1
 48
10.0
100
AcDbLine
 10
3070.041844958303
 20
5170.633867065959
 30
0.0
 11
3255.041844958304
 21
5170.633867065959
 31
0.0
  0
LINE
  5
7C7D
330
19
100
AcDbEntity
  8
1
 48
10.0
100
AcDbLine
 10
3280.041844958303
 20
5160.633867065958
 30
0.0
 11
3230.041844958304
 21
5160.633867065958
 31
0.0
  0
LINE
  5
7C7E
330
19
100
AcDbEntity
  8
1
 48
10.0
100
AcDbLine
 10
3440.041844958303
 20
5170.633867065959
 30
0.0
 11
3255.041844958304
 21
5170.633867065959
 31
0.0
  0
LINE
  5
7C7F
330
19
100
AcDbEntity
  8
1
 48
10.0
100
AcDbLine
 10
3320.041844958304
 20
5185.633867065958
 30
0.0
 11
3320.041844958304
 21
5172.633867065957
 31
0.0
  0
ARC
  5
7C80
330
19
100
AcDbEntity
  8
1
 48
10.0
100
AcDbCircle
 10
3318.041844958303
 20
5172.633867065957
 30
0.0
 40
2.0
100
AcDbArc
 50
270.0
 51
0.0
  0
LINE
  5
7C81
330
19
100
AcDbEntity
  8
1
 48
10.0
100
AcDbLine
 10
3280.041844958303
 20
5160.633867065958
 30
0.0
 11
3280.041844958303
 21
5170.633867065959
 31
0.0
  0
LINE
  5
7C82
330
19
100
AcDbEntity
  8
1
 48
10.0
100
AcDbLine
 10
3230.041844958304
 20
5160.633867065958
 30
0.0
 11
3230.041844958304
 21
5170.633867065959
 31
0.0
  0
LINE
  5
7C83
330
19
100
AcDbEntity
  8
1
 48
10.0
100
AcDbLine
 10
3190.041844958303
 20
5185.633867065958
 30
0.0
 11
3190.041844958303
 21
5172.633867065957
 31
0.0
  0
ARC
  5
7C84
330
19
100
AcDbEntity
  8
1
 48
10.0
100
AcDbCircle
 10
3192.041844958303
 20
5172.633867065957
 30
0.0
 40
2.0
100
AcDbArc
 50
180.0
 51
270.0
  0
LINE
  5
7C85
330
19
100
AcDbEntity
  8
1
 48
10.0
100
AcDbLine
 10
3227.541844958303
 20
5050.633867065958
 30
0.0
 11
3279.041844958303
 21
5050.633867065958
 31
0.0
  0
LINE
  5
7C86
330
19
100
AcDbEntity
  8
1
 48
10.0
100
AcDbLine
 10
3440.041844958303
 20
5727.133867065958
 30
0.0
 11
3070.041844958303
 21
5727.133867065957
 31
0.0
  0
LINE
  5
7C87
330
19
100
AcDbEntity
  8
1
 48
10.0
100
AcDbLine
 10
2020.041844958303
 20
5160.633867065957
 30
0.0
 11
2020.041844958303
 21
5365.633867065957
 31
0.0
  0
LINE
  5
7C88
330
19
100
AcDbEntity
  8
1
 48
10.0
100
AcDbLine
 10
2090.041844958303
 20
5160.633867065957
 30
0.0
 11
2090.041844958303
 21
5365.633867065957
 31
0.0
  0
CIRCLE
  5
7C89
330
19
100
AcDbEntity
  8
1
 48
10.0
100
AcDbCircle
 10
2055.041844958304
 20
3437.515531982445
 30
0.0
 40
450.0
  0
CIRCLE
  5
7C8A
330
19
100
AcDbEntity
  8
1
 48
10.0
100
AcDbCircle
 10
2055.041844958304
 20
3437.515531982445
 30
0.0
 40
490.0
  0
LINE
  5
7C8B
330
19
100
AcDbEntity
  8
1
 48
10.0
100
AcDbLine
 10
4076.222214209876
 20
2922.515531982444
 30
0.0
 11
4076.222214209874
 21
2552.515531982445
 31
0.0
  0
LINE
  5
7C8C
330
19
100
AcDbEntity
  8
1
 48
10.0
100
AcDbLine
 10
4076.222214209876
 20
2922.515531982444
 30
0.0
 11
4632.722214209876
 21
2922.515531982444
 31
0.0
  0
LINE
  5
7C8D
330
19
100
AcDbEntity
  8
1
 48
10.0
100
AcDbLine
 10
4076.222214209874
 20
2552.515531982445
 30
0.0
 11
4632.722214209874
 21
2552.515531982445
 31
0.0
  0
LINE
  5
7C8E
330
19
100
AcDbEntity
  8
1
 48
10.0
100
AcDbLine
 10
4066.222214209876
 20
2762.515531982444
 30
0.0
 11
4076.222214209876
 21
2762.515531982444
 31
0.0
  0
LINE
  5
7C8F
330
19
100
AcDbEntity
  8
1
 48
10.0
100
AcDbLine
 10
4066.222214209876
 20
2712.515531982444
 30
0.0
 11
4076.222214209876
 21
2712.515531982444
 31
0.0
  0
DIMENSION
  5
7C91
330
19
100
AcDbEntity
  8
3
 48
10.0
100
AcDbDimension
280
     0
  2
*D13
 10
5753.370433949404
 20
3887.515531982444
 30
0.0
 11
5678.370433949403
 21
3437.515531982445
 31
0.0
 70
    32
  1
φ<>
 71
     5
 42
-1.0
 73
     0
 74
     0
 75
     0
  3
DIA1
100
AcDbAlignedDimension
 13
5414.722214209877
 23
2987.515531982444
 33
0.0
 14
5414.722214209879
 24
3887.515531982444
 34
0.0
 50
90.0
100
AcDbRotatedDimension
1001
ACAD
1000
DSTYLE
1002
{
1070
   287
1070
     3
1070
    40
1040
30.0
1070
    41
1040
2.5
1070
    42
1040
0.0
1070
   140
1040
3.0
1070
   147
1040
1.0
1070
   173
1070
     1
1070
   271
1070
     4
1070
   272
1070
     4
1070
   279
1070
     0
1070
   284
1070
     0
1070
   285
1070
     0
1070
   286
1070
     0
1070
     6
1000
ARROW
1070
     7
1000
ARROW
1002
}
  0
LINE
  5
7C92
330
19
100
AcDbEntity
  8
1
 48
10.0
100
AcDbLine
 10
3849.222214209876
 20
3657.515531982445
 30
0.0
 11
3849.222214209881
 21
2517.515531982445
 31
0.0
  0
LINE
  5
7C93
330
19
100
AcDbEntity
  8
1
 48
10.0
100
AcDbLine
 10
4066.222214209878
 20
3556.515531982444
 30
0.0
 11
4066.22221420987
 21
2618.515531982445
 31
0.0
  0
LINE
  5
7C94
330
19
100
AcDbEntity
  8
1
 48
10.0
100
AcDbLine
 10
3956.222214209879
 20
3556.515531982444
 30
0.0
 11
3956.222214209871
 21
2618.515531982445
 31
0.0
  0
DIMENSION
  5
7C96
330
19
100
AcDbEntity
  8
3
 48
10.0
100
AcDbDimension
280
     0
  2
*D14
 10
5477.222214209877
 20
2019.979657407521
 30
0.0
 11
5148.222214209877
 21
2094.979657407521
 31
0.0
 70
    32
 71
     5
 42
-1.0
 73
     0
 74
     0
 75
     0
  3
DIA1
100
AcDbAlignedDimension
 13
4819.222214209877
 23
2227.515531982445
 33
0.0
 14
5477.222214209877
 24
2227.515531982445
 34
0.0
100
AcDbRotatedDimension
1001
ACAD
1000
DSTYLE
1002
{
1070
   287
1070
     3
1070
    40
1040
30.0
1070
    41
1040
2.5
1070
    42
1040
0.0
1070
   140
1040
3.0
1070
   147
1040
1.0
1070
   173
1070
     1
1070
   271
1070
     4
1070
   272
1070
     4
1070
   279
1070
     0
1070
   284
1070
     0
1070
   285
1070
     0
1070
   286
1070
     0
1070
     6
1000
ARROW
1070
     7
1000
ARROW
1002
}
  0
LINE
  5
7C97
330
19
100
AcDbEntity
  8
1
 48
10.0
100
AcDbLine
 10
3977.222214209879
 20
2227.515531982445
 30
0.0
 11
5477.222214209877
 21
2227.515531982445
 31
0.0
  0
LINE
  5
7C98
330
19
100
AcDbEntity
  8
1
 48
10.0
100
AcDbLine
 10
3977.222214209879
 20
2292.515531982445
 30
0.0
 11
5477.222214209877
 21
2292.515531982445
 31
0.0
1001
ACAD
1000
ASC_BOUNDS
1002
{
1070
    19
1002
}
  0
LINE
  5
7C99
330
19
100
AcDbEntity
  8
1
 48
10.0
100
AcDbLine
 10
3976.922214209877
 20
2462.515531982444
 30
0.0
 11
5477.222214209877
 21
2462.515531982444
 31
0.0
  0
DIMENSION
  5
7C9A
330
19
100
AcDbEntity
  8
3
 48
10.0
100
AcDbDimension
280
     0
  2
*D15
 10
4819.222214209877
 20
2019.979657407521
 30
0.0
 11
4398.222214209878
 21
2094.979657407521
 31
0.0
 70
    32
 71
     5
 42
-1.0
 73
     0
 74
     0
 75
     0
  3
DIA1
100
AcDbAlignedDimension
 13
3977.222214209879
 23
2227.515531982445
 33
0.0
 14
4819.222214209877
 24
2227.515531982445
 34
0.0
100
AcDbRotatedDimension
1001
ACAD
1000
DSTYLE
1002
{
1070
   287
1070
     3
1070
    40
1040
30.0
1070
    41
1040
2.5
1070
    42
1040
0.0
1070
   140
1040
3.0
1070
   147
1040
1.0
1070
   173
1070
     1
1070
   271
1070
     4
1070
   272
1070
     4
1070
   279
1070
     0
1070
   284
1070
     0
1070
   285
1070
     0
1070
   286
1070
     0
1070
     6
1000
ARROW
1070
     7
1000
ARROW
1002
}
  0
LINE
  5
7C9B
330
19
100
AcDbEntity
  8
1
 48
10.0
100
AcDbLine
 10
3977.222214209879
 20
2292.515531982445
 30
0.0
 11
3977.222214209879
 21
2227.515531982445
 31
0.0
  0
LINE
  5
7C9C
330
19
100
AcDbEntity
  8
1
 48
10.0
100
AcDbLine
 10
3977.222214209879
 20
2462.515531982444
 30
0.0
 11
3977.222214209879
 21
2337.515531982444
 31
0.0
  0
LINE
  5
7C9D
330
19
100
AcDbEntity
  8
1
 48
10.0
100
AcDbLine
 10
3849.222214209881
 20
2517.515531982445
 30
0.0
 11
4091.222214209881
 21
2517.515531982445
 31
0.0
  0
LINE
  5
7C9E
330
19
100
AcDbEntity
  8
1
 48
10.0
100
AcDbLine
 10
3956.222214209875
 20
2618.515531982445
 30
0.0
 11
4066.222214209875
 21
2618.515531982445
 31
0.0
  0
LINE
  5
7C9F
330
19
100
AcDbEntity
  8
1
 48
10.0
100
AcDbLine
 10
4091.222214209881
 20
2595.624212713137
 30
0.0
 11
4091.222214209881
 21
2517.515531982446
 31
0.0
  0
LINE
  5
7CA0
330
19
100
AcDbEntity
  8
1
 48
10.0
100
AcDbLine
 10
5477.222214209877
 20
2292.515531982445
 30
0.0
 11
5477.222214209877
 21
2227.515531982445
 31
0.0
  0
LINE
  5
7CA1
330
19
100
AcDbEntity
  8
1
 48
10.0
100
AcDbLine
 10
3977.222214209879
 20
2337.515531982444
 30
0.0
 11
5477.222214209877
 21
2337.515531982444
 31
0.0
  0
LINE
  5
7CA2
330
19
100
AcDbEntity
  8
1
 48
10.0
100
AcDbLine
 10
5477.222214209877
 20
2462.515531982444
 30
0.0
 11
5477.222214209877
 21
2337.515531982444
 31
0.0
  0
DIMENSION
  5
7CA3
330
19
100
AcDbEntity
  8
3
 48
10.0
100
AcDbDimension
280
     0
  2
*D16
 10
5409.222214209877
 20
4271.459097595103
 30
0.0
 11
4819.222214209879
 21
4346.459097595103
 31
0.0
 70
    32
 71
     5
 42
-1.0
 73
     0
 74
     0
 75
     0
  3
DIA1
100
AcDbAlignedDimension
 13
4229.222214209878
 23
4123.015531982445
 33
0.0
 14
5409.222214209877
 24
4123.015531982445
 34
0.0
100
AcDbRotatedDimension
1001
ACAD
1000
DSTYLE
1002
{
1070
   287
1070
     3
1070
    40
1040
30.0
1070
    41
1040
2.5
1070
    42
1040
0.0
1070
   140
1040
3.0
1070
   147
1040
1.0
1070
   173
1070
     1
1070
   271
1070
     4
1070
   272
1070
     4
1070
   279
1070
     0
1070
   284
1070
     0
1070
   285
1070
     0
1070
   286
1070
     0
1070
     6
1000
ARROW
1070
     7
1000
ARROW
1002
}
  0
LINE
  5
7CA5
330
19
100
AcDbEntity
  8
1
 48
10.0
100
AcDbLine
 10
4229.222214209878
 20
4080.515531982444
 30
0.0
 11
4229.222214209878
 21
2922.515531982444
 31
0.0
  0
LINE
  5
7CA7
330
19
100
AcDbEntity
  8
1
 48
10.0
100
AcDbLine
 10
4091.222214209878
 20
3376.515531982445
 30
0.0
 11
4091.222214209879
 21
3246.515531982445
 31
0.0
  0
LINE
  5
7CA8
330
19
100
AcDbEntity
  8
1
 48
10.0
100
AcDbLine
 10
3956.222214209876
 20
2856.515531982445
 30
0.0
 11
4066.222214209876
 21
2856.515531982445
 31
0.0
  0
LINE
  5
7CA9
330
19
100
AcDbEntity
  8
1
 48
10.0
100
AcDbLine
 10
3956.222214209876
 20
3318.515531982445
 30
0.0
 11
4066.222214209877
 21
3318.515531982445
 31
0.0
  0
LINE
  5
7CAA
330
19
100
AcDbEntity
  8
1
 48
10.0
100
AcDbLine
 10
4101.222214209879
 20
3236.515531982445
 30
0.0
 11
4229.222214209878
 21
3236.515531982445
 31
0.0
  0
ARC
  5
7CAB
330
19
100
AcDbEntity
  8
1
 48
10.0
100
AcDbCircle
 10
4101.222214209879
 20
3246.515531982445
 30
0.0
 40
10.0
100
AcDbArc
 50
180.0000000000003
 51
270.0
  0
LINE
  5
7CAC
330
19
100
AcDbEntity
  8
1
 48
10.0
100
AcDbLine
 10
3956.222214209879
 20
3556.515531982444
 30
0.0
 11
4066.222214209878
 21
3556.515531982444
 31
0.0
  0
LINE
  5
7CAD
330
19
100
AcDbEntity
  8
1
 48
10.0
100
AcDbLine
 10
4071.222214209877
 20
3472.515531982445
 30
0.0
 11
4071.222214209877
 21
3402.515531982444
 31
0.0
  0
LINE
  5
7CAE
330
19
100
AcDbEntity
  8
1
 48
10.0
100
AcDbLine
 10
4098.222214209878
 20
3488.315531982445
 30
0.0
 11
4098.222214209878
 21
3386.054923996614
 31
0.0
  0
LINE
  5
7CAF
330
19
100
AcDbEntity
  8
1
 48
10.0
100
AcDbLine
 10
4101.222214209878
 20
3386.515531982445
 30
0.0
 11
4229.222214209879
 21
3386.515531982445
 31
0.0
  0
LINE
  5
7CB0
330
19
100
AcDbEntity
  8
1
 48
10.0
100
AcDbLine
 10
4071.222214209877
 20
3402.515531982444
 30
0.0
 11
4098.222214209878
 21
3402.515531982444
 31
0.0
  0
LINE
  5
7CB1
330
19
100
AcDbEntity
  8
1
 48
10.0
100
AcDbLine
 10
4066.222214209878
 20
3410.015531982445
 30
0.0
 11
4071.222214209877
 21
3410.015531982445
 31
0.0
  0
ARC
  5
7CB2
330
19
100
AcDbEntity
  8
1
 48
10.0
100
AcDbCircle
 10
4101.222214209878
 20
3376.515531982445
 30
0.0
 40
10.0
100
AcDbArc
 50
90.0
 51
180.0000000000003
  0
LINE
  5
7CB3
330
19
100
AcDbEntity
  8
1
 48
10.0
100
AcDbLine
 10
4071.222214209877
 20
3472.515531982445
 30
0.0
 11
4098.222214209878
 21
3472.515531982445
 31
0.0
  0
LINE
  5
7CB4
330
19
100
AcDbEntity
  8
1
 48
10.0
100
AcDbLine
 10
4066.222214209878
 20
3465.015531982444
 30
0.0
 11
4071.222214209877
 21
3465.015531982444
 31
0.0
  0
LINE
  5
7CB5
330
19
100
AcDbEntity
  8
1
 48
10.0
100
AcDbLine
 10
4098.222214209878
 20
3488.315531982445
 30
0.0
 11
4229.222214209878
 21
3488.315531982445
 31
0.0
  0
LINE
  5
7CB6
330
19
100
AcDbEntity
  8
1
 48
10.0
100
AcDbLine
 10
3849.222214209876
 20
3657.515531982445
 30
0.0
 11
4091.222214209877
 21
3657.515531982445
 31
0.0
  0
POINT
  5
7CB7
330
19
100
AcDbEntity
  8
1
 48
10.0
100
AcDbPoint
 10
3849.222214209876
 20
3657.515531982445
 30
0.0
  0
LINE
  5
7CB8
330
19
100
AcDbEntity
  8
1
 48
10.0
100
AcDbLine
 10
4091.222214209876
 20
3657.515531982446
 30
0.0
 11
4091.222214209877
 21
3637.515531982444
 31
0.0
  0
LINE
  5
7CB9
330
19
100
AcDbEntity
  8
1
 48
10.0
100
AcDbLine
 10
5409.222214209876
 20
2476.515531982445
 30
0.0
 11
4573.123842676097
 21
2476.515531982445
 31
0.0
  0
LINE
  5
7CBA
330
19
100
AcDbEntity
  8
1
 48
10.0
100
AcDbLine
 10
5409.222214209877
 20
4080.515531982444
 30
0.0
 11
5409.222214209876
 21
2476.515531982445
 31
0.0
  0
ARC
  5
7CBB
330
19
100
AcDbEntity
  8
1
 48
10.0
100
AcDbCircle
 10
5528.722214209877
 20
3298.015531982445
 30
0.0
 40
10.0
100
AcDbArc
 50
270.0
 51
0.0000000000003257
  0
ARC
  5
7CBC
330
19
100
AcDbEntity
  8
1
 48
10.0
100
AcDbCircle
 10
5528.722214209877
 20
3398.015531982445
 30
0.0
 40
10.0
100
AcDbArc
 50
0.0000000000003257
 51
90.0
  0
LINE
  5
7CBD
330
19
100
AcDbEntity
  8
1
 48
10.0
100
AcDbLine
 10
5409.222214209876
 20
3288.015531982445
 30
0.0
 11
5528.722214209877
 21
3288.015531982445
 31
0.0
  0
LINE
  5
7CBE
330
19
100
AcDbEntity
  8
1
 48
10.0
100
AcDbLine
 10
5409.222214209876
 20
3408.015531982445
 30
0.0
 11
5528.722214209877
 21
3408.015531982445
 31
0.0
  0
LINE
  5
7CBF
330
19
100
AcDbEntity
  8
1
 48
10.0
100
AcDbLine
 10
5538.722214209877
 20
3398.015531982445
 30
0.0
 11
5538.722214209877
 21
3298.015531982445
 31
0.0
  0
POINT
  5
7CC0
330
19
100
AcDbEntity
  8
1
 48
10.0
100
AcDbPoint
 10
5538.722214209877
 20
3398.015531982445
 30
0.0
  0
LINE
  5
7CC4
330
19
100
AcDbEntity
  8
2
100
AcDbLine
 10
4819.222214209879
 20
4261.717372531127
 30
0.0
 11
4819.222214209879
 21
2227.515531982445
 31
0.0
  0
DIMENSION
  5
7CC5
330
19
100
AcDbEntity
  8
3
 48
10.0
100
AcDbDimension
280
     0
  2
*D19
 10
973.9122991421027
 20
2292.515531982445
 30
0.0
 11
864.5558466961011
 21
2381.120443314885
 31
0.0
 12
253.4609863163787
 22
0.0
 32
0.0
 70
   160
  1
(<>)
 71
     5
 42
-1.0
 73
     0
 74
     0
 75
     0
  3
IGA
100
AcDbAlignedDimension
 13
1495.0418449583
 23
2337.515531982444
 33
0.0
 14
1495.0418449583
 24
2292.515531982445
 34
0.0
 50
270.0
100
AcDbRotatedDimension
1001
ACAD
1000
DSTYLE
1002
{
1070
   288
1070
     1
1070
   172
1070
     1
1070
    40
1040
30.0
1070
   271
1070
     0
1070
     7
1000
_DOT
1070
   143
1040
0.039
1002
}
  0
DIMENSION
  5
7CC6
330
19
100
AcDbEntity
  8
3
 48
10.0
100
AcDbDimension
280
     0
  2
*D20
 10
973.8973670054773
 20
2227.515531982445
 30
0.0
 11
898.8973670054772
 21
2004.658389125302
 31
0.0
 70
    32
 71
     5
 42
-1.0
 73
     0
 74
     0
 75
     0
  3
IGA
100
AcDbAlignedDimension
 13
1495.0418449583
 23
2292.515531982445
 33
0.0
 14
1495.0418449583
 24
2227.515531982445
 34
0.0
 50
270.0
100
AcDbRotatedDimension
1001
ACAD
1000
DSTYLE
1002
{
1070
   287
1070
     3
1070
    40
1040
30.0
1070
   143
1040
0.039
1070
   172
1070
     1
1070
   271
1070
     0
1070
   279
1070
     0
1070
   288
1070
     1
1070
     6
1000
DOT
1002
}
  0
LINE
  5
7CC7
330
19
100
AcDbEntity
  8
1
 48
10.0
100
AcDbLine
 10
1495.041844958303
 20
6545.633867065958
 30
0.0
 11
1495.041844958303
 21
6613.633867065956
 31
0.0
  0
DIMENSION
  5
7CC8
330
19
100
AcDbEntity
  8
3
 48
10.0
100
AcDbDimension
280
     0
  2
*D21
 10
2055.041844958304
 20
4228.195297892454
 30
0.0
 11
1745.041844958304
 21
4303.195297892454
 31
0.0
 70
    32
 71
     5
 42
-1.0
 73
     0
 74
     0
 75
     0
  3
DIA1
100
AcDbAlignedDimension
 13
1435.041844958304
 23
3437.515531982445
 33
0.0
 14
2055.041844958304
 24
4131.306323231398
 34
0.0
100
AcDbRotatedDimension
1001
ACAD
1000
DSTYLE
1002
{
1070
   287
1070
     3
1070
    40
1040
30.0
1070
    41
1040
2.5
1070
    42
1040
0.0
1070
   140
1040
3.0
1070
   147
1040
1.0
1070
   173
1070
     1
1070
   271
1070
     4
1070
   272
1070
     4
1070
   279
1070
     0
1070
   284
1070
     0
1070
   285
1070
     0
1070
   286
1070
     0
1070
     6
1000
ARROW
1070
     7
1000
ARROW
1002
}
  0
DIMENSION
  5
7CC9
330
19
100
AcDbEntity
  8
3
 48
10.0
100
AcDbDimension
280
     0
  2
*D22
 10
2832.041844958304
 20
4228.195297892454
 30
0.0
 11
2443.541844958304
 21
4303.195297892454
 31
0.0
 70
    32
 71
     5
 42
-1.0
 73
     0
 74
     0
 75
     0
  3
DIA1
100
AcDbAlignedDimension
 13
2055.041844958304
 23
4131.306323231398
 33
0.0
 14
2832.041844958304
 24
3370.515531982444
 34
0.0
100
AcDbRotatedDimension
1001
ACAD
1000
DSTYLE
1002
{
1070
   287
1070
     4
1070
    40
1040
30.0
1070
    41
1040
2.5
1070
    42
1040
0.0
1070
    75
1070
     1
1070
   140
1040
3.0
1070
   147
1040
1.0
1070
   173
1070
     1
1070
   271
1070
     4
1070
   272
1070
     4
1070
   279
1070
     1
1070
   284
1070
     0
1070
   285
1070
     0
1070
   286
1070
     0
1070
     6
1000
ARROW
1070
     7
1000
ARROW
1002
}
  0
DIMENSION
  5
7CCB
330
19
100
AcDbEntity
  8
3
 48
10.0
100
AcDbDimension
280
     0
  2
*D23
 10
1435.041844958304
 20
4410.296725415139
 30
0.0
 11
2465.041844958302
 21
4485.296725415138
 31
0.0
 70
    32
 71
     5
 42
-1.0
 73
     0
 74
     0
 75
     0
  3
DIA1
100
AcDbAlignedDimension
 13
3495.041844958301
 23
2462.515531982444
 33
0.0
 14
1435.041844958304
 24
3444.015531982444
 34
0.0
100
AcDbRotatedDimension
1001
ACAD
1000
DSTYLE
1002
{
1070
   287
1070
     3
1070
    40
1040
30.0
1070
    41
1040
2.5
1070
    42
1040
0.0
1070
   140
1040
3.0
1070
   147
1040
1.0
1070
   173
1070
     1
1070
   271
1070
     4
1070
   272
1070
     4
1070
   279
1070
     0
1070
   284
1070
     0
1070
   285
1070
     0
1070
   286
1070
     0
1070
     6
1000
ARROW
1070
     7
1000
ARROW
1002
}
  0
LINE
  5
7CCD
330
19
100
AcDbEntity
  8
1
 48
10.0
100
AcDbLine
 10
4229.222214209878
 20
4080.515531982444
 30
0.0
 11
5409.222214209877
 21
4080.515531982444
 31
0.0
  0
LINE
  5
7CCE
330
19
100
AcDbEntity
  8
1
 48
10.0
100
AcDbLine
 10
4632.722214209876
 20
2922.51553198244
 30
0.0
 11
4632.722214209874
 21
2552.51553198244
 31
0.0
  0
LINE
  5
7CD0
330
19
100
AcDbEntity
  8
1
 48
10.0
100
AcDbLine
 10
4154.437539668583
 20
2502.515531982445
 30
0.0
 11
4573.123842676097
 21
2502.515531982445
 31
0.0
  0
LINE
  5
7CD1
330
19
100
AcDbEntity
  8
1
 48
10.0
100
AcDbLine
 10
4573.123842676097
 20
2552.515531982445
 30
0.0
 11
4573.123842676097
 21
2462.515531982444
 31
0.0
  0
LINE
  5
7CD2
330
19
100
AcDbEntity
  8
1
 48
10.0
100
AcDbLine
 10
4154.437539668583
 20
2552.515531982445
 30
0.0
 11
4154.437539668583
 21
2462.515531982444
 31
0.0
  0
LINE
  5
7CD3
330
19
100
AcDbEntity
  8
1
 48
10.0
100
AcDbLine
 10
2165.893470573603
 20
3627.5468901801
 30
0.0
 11
3365.893470573603
 21
2927.5468901801
 31
0.0
  0
LINE
  5
7CD4
330
19
100
AcDbEntity
  8
1
 48
10.0
100
AcDbLine
 10
1944.190219343005
 20
3247.484173784789
 30
0.0
 11
3144.190219343006
 21
2547.484173784789
 31
0.0
  0
LINE
  5
7CD5
330
19
100
AcDbEntity
  8
1
 48
10.0
100
AcDbLine
 10
2115.00249699567
 20
3540.305221189357
 30
0.0
 11
3315.002496995671
 21
2840.305221189357
 31
0.0
  0
LINE
  5
7CD6
330
19
100
AcDbEntity
  8
1
 48
10.0
100
AcDbLine
 10
1995.081192920937
 20
3334.725842775532
 30
0.0
 11
3195.081192920938
 21
2634.725842775531
 31
0.0
  0
LINE
  5
7F2C
330
19
100
AcDbEntity
  8
4
100
AcDbLine
 10
5550.0
 20
1500.0
 30
0.0
 11
5550.0
 21
900.0
 31
0.0
  0
LINE
  5
7F2D
330
19
100
AcDbEntity
  8
4
100
AcDbLine
 10
3450.0
 20
1500.0
 30
0.0
 11
3450.0
 21
900.0
 31
0.0
  0
LINE
  5
7F2E
330
19
100
AcDbEntity
  8
4
100
AcDbLine
 10
1950.0
 20
1500.0
 30
0.0
 11
1950.0
 21
900.0
 31
0.0
  0
LINE
  5
7F31
330
19
100
AcDbEntity
  8
4
100
AcDbLine
 10
1950.0
 20
900.0
 30
0.0
 11
5550.0
 21
900.0
 31
0.0
  0
LINE
  5
7F32
330
19
100
AcDbEntity
  8
4
100
AcDbLine
 10
1950.0
 20
1200.0
 30
0.0
 11
5550.0
 21
1200.0
 31
0.0
  0
TEXT
  5
7F33
330
19
100
AcDbEntity
  8
4
100
AcDbText
 10
2065.506242540705
 20
1294.629077599839
 30
0.0
 40
150.0
  1
機器名称
100
AcDbText
  0
TEXT
  5
7F34
330
19
100
AcDbEntity
  8
4
100
AcDbText
 10
2058.774318074393
 20
964.9354701960328
 30
0.0
 40
150.0
  1
機器型番
100
AcDbText
  0
TEXT
  5
7F35
330
19
100
AcDbEntity
  8
4
100
AcDbText
 10
3534.535605031474
 20
1269.064910038155
 30
0.0
 40
120.0
  1
ミツヤリミットロードファン
100
AcDbText
  0
TEXT
  5
7F36
330
19
100
AcDbEntity
  8
4
100
AcDbText
 10
3559.963486756442
 20
951.4787528398301
 30
0.0
 40
150.0
  1
LL#5 1/2-5
100
AcDbText
  0
TEXT
  5
7F38
330
19
100
AcDbEntity
  8
4
100
AcDbText
 10
2350.007142106741
 20
7150.286523997547
 30
0.0
 40
161.9999999999999
  1
床置防振ベット
100
AcDbText
  0
TEXT
  5
7F39
330
19
100
AcDbEntity
  8
4
100
AcDbText
 10
948.5027799883392
 20
7601.642928597894
 30
0.0
 40
216.0
  1
遠心式両吸込両持リミットロードファン
100
AcDbText
  0
LINE
  5
7F3A
330
19
100
AcDbEntity
  8
4
100
AcDbLine
 10
750.0
 20
7408.226262794414
 30
0.0
 11
5550.0
 21
7408.226262794414
 31
0.0
  0
LINE
  5
7F3B
330
19
100
AcDbEntity
  8
4
100
AcDbLine
 10
750.0
 20
8008.226262794414
 30
0.0
 11
5550.0
 21
8008.226262794414
 31
0.0
  0
LINE
  5
7F3C
330
19
100
AcDbEntity
  8
4
100
AcDbLine
 10
1950.0
 20
1500.0
 30
0.0
 11
5550.0
 21
1500.0
 31
0.0
  0
LINE
  5
7F3D
330
19
100
AcDbEntity
  8
4
100
AcDbLine
 10
750.0
 20
8008.226262794414
 30
0.0
 11
750.0
 21
7408.226262794414
 31
0.0
  0
TEXT
  5
7F3E
330
19
100
AcDbEntity
  8
4
100
AcDbText
 10
1042.430645378634
 20
7146.95843263903
 30
0.0
 40
161.9999999999999
  1
右回転左横向
100
AcDbText
  0
TEXT
  5
7F3F
330
19
100
AcDbEntity
  8
4
100
AcDbText
 10
4406.908677747869
 20
8118.183244485926
 30
0.0
 40
168.0
  1
No.
100
AcDbText
  0
TEXT
  5
7F40
330
19
100
AcDbEntity
  8
4
100
AcDbText
 10
3933.88818780004
 20
7150.286523997547
 30
0.0
 40
161.9999999999999
  1
縮尺：1/30
100
AcDbText
  0
LINE
  5
7F41
330
19
100
AcDbEntity
  8
4
100
AcDbLine
 10
5550.0
 20
8008.226262794414
 30
0.0
 11
5550.0
 21
7408.226262794414
 31
0.0
  0
LINE
  5
7F42
330
19
100
AcDbEntity
  8
4
100
AcDbLine
 10
6300.0
 20
8850.0
 30
0.0
 11
6300.0
 21
8850.0
 31
0.0
  0
LINE
  5
7F43
330
19
100
AcDbEntity
  8
4
100
AcDbLine
 10
4321.852267079594
 20
8043.790749376205
 30
0.0
 11
4321.852267079594
 21
8359.956784649257
 31
0.0
  0
LINE
  5
7F44
330
19
100
AcDbEntity
  8
4
100
AcDbLine
 10
4321.852267079594
 20
8359.956784649257
 30
0.0
 11
5550.0
 21
8359.956784649257
 31
0.0
  0
LINE
  5
7F45
330
19
100
AcDbEntity
  8
4
100
AcDbLine
 10
5550.0
 20
8359.956784649257
 30
0.0
 11
5550.0
 21
8043.790749376205
 31
0.0
  0
LINE
  5
7F46
330
19
100
AcDbEntity
  8
4
100
AcDbLine
 10
5550.0
 20
8043.790749376205
 30
0.0
 11
4321.852267079594
 21
8043.790749376205
 31
0.0
  0
LINE
  5
7F47
330
19
100
AcDbEntity
  8
4
100
AcDbLine
 10
0.0
 20
0.0
 30
0.0
 11
0.0
 21
8850.0
 31
0.0
  0
LINE
  5
7F48
330
19
100
AcDbEntity
  8
4
100
AcDbLine
 10
0.0
 20
8850.0
 30
0.0
 11
6300.0
 21
8850.0
 31
0.0
  0
LINE
  5
7F49
330
19
100
AcDbEntity
  8
4
100
AcDbLine
 10
6300.0
 20
8850.0
 30
0.0
 11
6300.0
 21
0.0
 31
0.0
  0
LINE
  5
7F4A
330
19
100
AcDbEntity
  8
4
100
AcDbLine
 10
6300.0
 20
0.0
 30
0.0
 11
0.0
 21
0.0
 31
0.0
  0
DIMENSION
  5
8035
330
19
100
AcDbEntity
  8
3
100
AcDbDimension
280
     0
  2
*D25
 10
975.5843789422652
 20
4080.515531982444
 30
0.0
 11
900.5843789422652
 21
3759.015531982445
 31
0.0
 70
    32
 71
     5
 42
-1.0
 73
     0
 74
     0
 75
     0
  3
IGA
100
AcDbAlignedDimension
 13
1398.786506179757
 23
3437.515531982445
 33
0.0
 14
2122.041844958304
 24
4080.515531982444
 34
0.0
 50
90.0
100
AcDbRotatedDimension
1001
ACAD
1000
DSTYLE
1002
{
1070
   172
1070
     1
1070
    40
1040
30.0
1070
   271
1070
     0
1070
   143
1040
0.039
1002
}
  0
DIMENSION
  5
8042
330
19
100
AcDbEntity
  8
3
100
AcDbDimension
280
     0
  2
*D26
 10
759.8013122600495
 20
2227.515531982445
 30
0.0
 11
661.2298836886211
 21
3154.015531982444
 31
0.0
 70
    32
 71
     5
 42
-1.0
 73
     0
 74
     0
 75
     0
  3
IGA
100
AcDbAlignedDimension
 13
2107.041844958304
 23
4080.515531982444
 33
0.0
 14
1495.0418449583
 24
2227.515531982445
 34
0.0
 50
90.0
100
AcDbRotatedDimension
1001
ACAD
1000
DSTYLE
1002
{
1070
   172
1070
     1
1070
    40
1040
30.0
1070
     3
1000
(<>)
1070
   271
1070
     0
1070
   143
1040
0.039
1002
}
  0
DIMENSION
  5
8192
330
19
100
AcDbEntity
  8
3
100
AcDbDimension
280
     0
  2
*D27
 10
4819.222214209879
 20
4478.838223369122
 30
0.0
 11
4334.222214209878
 21
4577.409651940551
 31
0.0
 70
    32
 71
     5
 42
970.0000000000027
 73
     0
 74
     0
 75
     0
  3
IGA
100
AcDbAlignedDimension
 13
3849.222214209876
 23
3657.515531982445
 33
0.0
 14
4819.222214209879
 24
4391.459097595103
 34
0.0
100
AcDbRotatedDimension
1001
ACAD
1000
DSTYLE
1002
{
1070
     3
1000
(<>)
1070
    40
1040
30.0
1070
   143
1040
0.039
1070
   172
1070
     1
1070
   271
1070
     0
1002
}
  0
DIMENSION
  5
819F
330
19
100
AcDbEntity
  8
3
100
AcDbDimension
280
     0
  2
*D28
 10
5538.722214209877
 20
4478.838223369122
 30
0.0
 11
5178.972214209878
 21
4577.409651940551
 31
0.0
 70
    32
 71
     5
 42
719.4999999999981
 73
     0
 74
     0
 75
     0
  3
IGA
100
AcDbAlignedDimension
 13
4819.222214209879
 23
4391.459097595103
 33
0.0
 14
5538.722214209877
 24
3398.015531982445
 34
0.0
100
AcDbRotatedDimension
1001
ACAD
1000
DSTYLE
1002
{
1070
     3
1000
(<>)
1070
    40
1040
30.0
1070
   143
1040
0.039
1070
   172
1070
     1
1070
   271
1070
     0
1002
}
  0
ENDSEC
  0
SECTION
  2
OBJECTS
  0
DICTIONARY
  5
C
330
0
100
AcDbDictionary
281
     1
  3
ACAD_CIP_PREVIOUS_PRODUCT_INFO
350
8191
  3
ACAD_COLOR
350
8174
  3
ACAD_DETAILVIEWSTYLE
350
818D
  3
ACAD_GROUP
350
D
  3
ACAD_LAYOUT
350
804B
  3
ACAD_MATERIAL
350
8142
  3
ACAD_MLEADERSTYLE
350
8189
  3
ACAD_MLINESTYLE
350
E
  3
ACAD_PLOTSETTINGS
350
804C
  3
ACAD_PLOTSTYLENAME
350
8049
  3
ACAD_SCALELIST
350
8177
  3
ACAD_SECTIONVIEWSTYLE
350
818B
  3
ACAD_TABLESTYLE
350
8175
  3
ACAD_VISUALSTYLE
350
815B
  3
ACDB_RECOMPOSE_DATA
350
81F9
  3
AcDbVariableDictionary
350
8139
  3
AcDsDecomposeData
350
81FF
  0
DICTIONARY
  5
81DD
330
2
100
AcDbDictionary
280
     1
281
     1
  3
ACAD_LAYERSTATES
360
81DE
  0
DICTIONARY
  5
81D0
330
F
100
AcDbDictionary
280
     1
281
     1
  3
ADSK_XREC_LAYER_RECONCILED
360
81D1
  0
DICTIONARY
  5
81D2
330
31
100
AcDbDictionary
280
     1
281
     1
  3
ADSK_XREC_LAYER_RECONCILED
360
81D3
  0
DICTIONARY
  5
81D4
330
76D0
100
AcDbDictionary
280
     1
281
     1
  3
ADSK_XREC_LAYER_RECONCILED
360
81D5
  0
DICTIONARY
  5
81D6
330
76D1
100
AcDbDictionary
280
     1
281
     1
  3
ADSK_XREC_LAYER_RECONCILED
360
81D7
  0
DICTIONARY
  5
81D8
330
76D2
100
AcDbDictionary
280
     1
281
     1
  3
ADSK_XREC_LAYER_RECONCILED
360
81D9
  0
DICTIONARY
  5
8078
330
19
100
AcDbDictionary
280
     1
281
     1
  3
ACAD_LAYOUTSELFREF
360
8079
  0
DICTIONARY
  5
8076
330
16
100
AcDbDictionary
280
     1
281
     1
  3
ACAD_LAYOUTSELFREF
360
8077
  0
XRECORD
  5
8191
102
{ACAD_REACTORS
330
C
102
}
330
C
100
AcDbXrecord
280
     1
300
ACDLT
300
2023
300

  0
DICTIONARY
  5
8174
102
{ACAD_REACTORS
330
C
102
}
330
C
100
AcDbDictionary
281
     1
  0
DICTIONARY
  5
818D
102
{ACAD_REACTORS
330
C
102
}
330
C
100
AcDbDictionary
281
     1
  3
Metric50
350
818E
  0
DICTIONARY
  5
D
102
{ACAD_REACTORS
330
C
102
}
330
C
100
AcDbDictionary
281
     1
  0
DICTIONARY
  5
804B
102
{ACAD_REACTORS
330
C
102
}
330
C
100
AcDbDictionary
281
     1
  3
Model
350
804D
  3
ﾚｲｱｳﾄ1
350
804E
  0
DICTIONARY
  5
8142
102
{ACAD_REACTORS
330
C
102
}
330
C
100
AcDbDictionary
281
     1
  3
ByBlock
350
814B
  3
ByLayer
350
8143
  3
Global
350
8153
  0
DICTIONARY
  5
8189
102
{ACAD_REACTORS
330
C
102
}
330
C
100
AcDbDictionary
281
     1
  3
Standard
350
818A
  0
DICTIONARY
  5
E
102
{ACAD_REACTORS
330
C
102
}
330
C
100
AcDbDictionary
281
     1
  3
STANDARD
350
1C
  0
DICTIONARY
  5
804C
102
{ACAD_REACTORS
330
C
102
}
330
C
100
AcDbDictionary
281
     1
  0
ACDBDICTIONARYWDFLT
  5
8049
102
{ACAD_REACTORS
330
C
102
}
330
C
100
AcDbDictionary
281
     1
  3
Normal
350
804A
100
AcDbDictionaryWithDefault
340
804A
  0
DICTIONARY
  5
8177
102
{ACAD_REACTORS
330
C
102
}
330
C
100
AcDbDictionary
281
     1
  3
A0
350
8178
  3
A1
350
8179
  3
A2
350
817A
  3
A3
350
817B
  3
A4
350
817C
  3
A5
350
817D
  3
A6
350
817E
  3
A7
350
817F
  3
A8
350
8180
  3
A9
350
8181
  3
B0
350
8182
  3
B1
350
8183
  3
B2
350
8184
  3
B3
350
8185
  3
B4
350
8186
  3
B5
350
8187
  3
B6
350
8188
  0
DICTIONARY
  5
818B
102
{ACAD_REACTORS
330
C
102
}
330
C
100
AcDbDictionary
281
     1
  3
Metric50
350
818C
  0
DICTIONARY
  5
8175
102
{ACAD_REACTORS
330
C
102
}
330
C
100
AcDbDictionary
281
     1
  3
Standard
350
8176
  0
DICTIONARY
  5
815B
102
{ACAD_REACTORS
330
C
102
}
330
C
100
AcDbDictionary
281
     1
  3
2dWireframe
350
8161
  3
Basic
350
8160
  3
Brighten
350
8167
  3
ColorChange
350
816B
  3
Conceptual
350
8164
  3
Dim
350
8166
  3
EdgeColorOff
350
8173
  3
Facepattern
350
816A
  3
Flat
350
815C
  3
FlatWithEdges
350
815D
  3
Gouraud
350
815E
  3
GouraudWithEdges
350
815F
  3
Hidden
350
8163
  3
JitterOff
350
8171
  3
Linepattern
350
8169
  3
OverhangOff
350
8172
  3
Realistic
350
8165
  3
Shaded
350
8170
  3
Shaded with edges
350
816F
  3
Shades of Gray
350
816C
  3
Sketchy
350
816D
  3
Thicken
350
8168
  3
Wireframe
350
8162
  3
X-Ray
350
816E
  0
XRECORD
  5
81F9
102
{ACAD_REACTORS
330
C
102
}
330
C
100
AcDbXrecord
280
     1
 90
        1
330
8176
  0
DICTIONARY
  5
8139
102
{ACAD_REACTORS
330
C
102
}
330
C
100
AcDbDictionary
281
     1
  3
CANNOSCALE
350
81EE
  3
CMLEADERSTYLE
350
81EA
  3
CTABLESTYLE
350
81E9
  3
CVIEWDETAILSTYLE
350
81EB
  3
CVIEWSECTIONSTYLE
350
81EC
  3
DIMASSOC
350
813A
  3
LAYEREVAL
350
81F0
  3
LAYERNOTIFY
350
81F1
  3
LIGHTINGUNITS
350
81EF
  3
MARKUPASSISTMODE
350
81F6
  3
MSLTSCALE
350
81ED
  0
DICTIONARY
  5
81FF
102
{ACAD_REACTORS
330
C
102
}
330
C
100
AcDbDictionary
281
     1
  3
AcDsRecords
350
8201
  3
AcDsSchemas
350
8200
1001
ACAD
1070
     2
  0
DICTIONARY
  5
81DE
102
{ACAD_REACTORS
330
81DD
102
}
330
81DD
100
AcDbDictionary
281
     1
  0
XRECORD
  5
81D1
102
{ACAD_REACTORS
330
81D0
102
}
330
81D0
100
AcDbXrecord
280
     1
290
     1
  0
XRECORD
  5
81D3
102
{ACAD_REACTORS
330
81D2
102
}
330
81D2
100
AcDbXrecord
280
     1
290
     1
  0
XRECORD
  5
81D5
102
{ACAD_REACTORS
330
81D4
102
}
330
81D4
100
AcDbXrecord
280
     1
290
     1
  0
XRECORD
  5
81D7
102
{ACAD_REACTORS
330
81D6
102
}
330
81D6
100
AcDbXrecord
280
     1
290
     1
  0
XRECORD
  5
81D9
102
{ACAD_REACTORS
330
81D8
102
}
330
81D8
100
AcDbXrecord
280
     1
290
     1
  0
XRECORD
  5
8079
102
{ACAD_REACTORS
330
8078
102
}
330
8078
100
AcDbXrecord
280
     1
340
19
  0
XRECORD
  5
8077
102
{ACAD_REACTORS
330
8076
102
}
330
8076
100
AcDbXrecord
280
     1
340
16
  0
ACDBDETAILVIEWSTYLE
  5
818E
102
{ACAD_XDICTIONARY
360
8204
102
}
102
{ACAD_REACTORS
330
818D
102
}
330
818D
100
AcDbModelDocViewStyle
 70
     0
  3
Metric50
290
     0
100
AcDbDetailViewStyle
 70
     0
 71
     0
 90
        3
 71
     1
340
10
 62
   256
 40
5.0
340
0
 62
   256
 40
5.0
300

 40
0.0
280
     1
 71
     2
340
15
 90
       25
 62
   256
 71
     3
340
10
 62
   256
 40
5.0
 90
        0
 40
15.0
 90
        1
300
%<\AcVar ViewDetailId>% (%<\AcVar ViewScale \f "%sn">%)
 71
     4
340
15
 90
       25
 62
   256
340
15
 90
       25
 62
   256
280
     0
  0
LAYOUT
  5
804D
102
{ACAD_REACTORS
330
804B
102
}
330
804B
100
AcDbPlotSettings
  1

  2
\\Txbo34x8944cqyd\EPSON LP-6100
  4

  6

 40
0.0
 41
0.0
 42
0.0
 43
0.0
 44
0.0
 45
0.0
 46
0.0
 47
0.0
 48
0.0
 49
0.0
140
0.0
141
0.0
142
1.0
143
1.0
 70
  1712
 72
     0
 73
     0
 74
     0
  7
GOD2000TABLE.ctb
 75
     0
147
1.0
 76
     0
 77
     2
 78
   300
148
0.0
149
0.0
100
AcDbLayout
  1
Model
 70
     1
 71
     0
 10
0.0
 20
0.0
 11
12.0
 21
9.0
 12
0.0
 22
0.0
 32
0.0
 14
0.0
 24
0.0
 34
0.0
 15
0.0
 25
0.0
 35
0.0
146
0.0
 13
0.0
 23
0.0
 33
0.0
 16
1.0
 26
0.0
 36
0.0
 17
0.0
 27
1.0
 37
0.0
 76
     0
330
19
331
8140
  0
LAYOUT
  5
804E
102
{ACAD_REACTORS
330
804B
102
}
330
804B
100
AcDbPlotSettings
  1

  2
\\Txbo34x8944cqyd\EPSON LP-6100
  4

  6

 40
0.0
 41
0.0
 42
0.0
 43
0.0
 44
0.0
 45
0.0
 46
0.0
 47
0.0
 48
0.0
 49
0.0
140
0.0
141
0.0
142
1.0
143
1.0
 70
   688
 72
     0
 73
     0
 74
     5
  7
GOD2000TABLE.ctb
 75
    16
147
1.0
 76
     0
 77
     2
 78
   300
148
0.0
149
0.0
100
AcDbLayout
  1
ﾚｲｱｳﾄ1
 70
     1
 71
     1
 10
0.0
 20
0.0
 11
12.0
 21
9.0
 12
0.0
 22
0.0
 32
0.0
 14
1.000000000000000E+20
 24
1.000000000000000E+20
 34
1.000000000000000E+20
 15
-1.000000000000000E+20
 25
-1.000000000000000E+20
 35
-1.000000000000000E+20
146
0.0
 13
0.0
 23
0.0
 33
0.0
 16
1.0
 26
0.0
 36
0.0
 17
0.0
 27
1.0
 37
0.0
 76
     0
330
16
  0
MATERIAL
  5
814B
102
{ACAD_XDICTIONARY
360
814C
102
}
102
{ACAD_REACTORS
330
8142
102
}
330
8142
100
AcDbMaterial
  1
ByBlock
 72
     0
 43
0.0208333333333333
 43
0.0
 43
0.0
 43
0.0
 43
0.0
 43
0.0208333333333333
 43
0.0
 43
0.0
 43
0.0
 43
0.0
 43
1.0
 43
0.0
 43
0.0
 43
0.0
 43
0.0
 43
1.0
 77
     0
 47
0.0208333333333333
 47
0.0
 47
0.0
 47
0.0
 47
0.0
 47
0.0208333333333333
 47
0.0
 47
0.0
 47
0.0
 47
0.0
 47
1.0
 47
0.0
 47
0.0
 47
0.0
 47
0.0
 47
1.0
171
     0
 49
0.0208333333333333
 49
0.0
 49
0.0
 49
0.0
 49
0.0
 49
0.0208333333333333
 49
0.0
 49
0.0
 49
0.0
 49
0.0
 49
1.0
 49
0.0
 49
0.0
 49
0.0
 49
0.0
 49
1.0
175
     0
142
0.0208333333333333
142
0.0
142
0.0
142
0.0
142
0.0
142
0.0208333333333333
142
0.0
142
0.0
142
0.0
142
0.0
142
1.0
142
0.0
142
0.0
142
0.0
142
0.0
142
1.0
179
     0
144
0.0208333333333333
144
0.0
144
0.0
144
0.0
144
0.0
144
0.0208333333333333
144
0.0
144
0.0
144
0.0
144
0.0
144
1.0
144
0.0
144
0.0
144
0.0
144
0.0
144
1.0
147
0.0208333333333333
147
0.0
147
0.0
147
0.0
147
0.0
147
0.0208333333333333
147
0.0
147
0.0
147
0.0
147
0.0
147
1.0
147
0.0
147
0.0
147
0.0
147
0.0
147
1.0
  0
MATERIAL
  5
8143
102
{ACAD_XDICTIONARY
360
8144
102
}
102
{ACAD_REACTORS
330
8142
102
}
330
8142
100
AcDbMaterial
  1
ByLayer
 72
     0
 43
0.0208333333333333
 43
0.0
 43
0.0
 43
0.0
 43
0.0
 43
0.0208333333333333
 43
0.0
 43
0.0
 43
0.0
 43
0.0
 43
1.0
 43
0.0
 43
0.0
 43
0.0
 43
0.0
 43
1.0
 77
     0
 47
0.0208333333333333
 47
0.0
 47
0.0
 47
0.0
 47
0.0
 47
0.0208333333333333
 47
0.0
 47
0.0
 47
0.0
 47
0.0
 47
1.0
 47
0.0
 47
0.0
 47
0.0
 47
0.0
 47
1.0
171
     0
 49
0.0208333333333333
 49
0.0
 49
0.0
 49
0.0
 49
0.0
 49
0.0208333333333333
 49
0.0
 49
0.0
 49
0.0
 49
0.0
 49
1.0
 49
0.0
 49
0.0
 49
0.0
 49
0.0
 49
1.0
175
     0
142
0.0208333333333333
142
0.0
142
0.0
142
0.0
142
0.0
142
0.0208333333333333
142
0.0
142
0.0
142
0.0
142
0.0
142
1.0
142
0.0
142
0.0
142
0.0
142
0.0
142
1.0
179
     0
144
0.0208333333333333
144
0.0
144
0.0
144
0.0
144
0.0
144
0.0208333333333333
144
0.0
144
0.0
144
0.0
144
0.0
144
1.0
144
0.0
144
0.0
144
0.0
144
0.0
144
1.0
147
0.0208333333333333
147
0.0
147
0.0
147
0.0
147
0.0
147
0.0208333333333333
147
0.0
147
0.0
147
0.0
147
0.0
147
1.0
147
0.0
147
0.0
147
0.0
147
0.0
147
1.0
  0
MATERIAL
  5
8153
102
{ACAD_XDICTIONARY
360
8154
102
}
102
{ACAD_REACTORS
330
8142
102
}
330
8142
100
AcDbMaterial
  1
Global
 72
     0
 43
0.0208333333333333
 43
0.0
 43
0.0
 43
0.0
 43
0.0
 43
0.0208333333333333
 43
0.0
 43
0.0
 43
0.0
 43
0.0
 43
1.0
 43
0.0
 43
0.0
 43
0.0
 43
0.0
 43
1.0
 77
     0
 47
0.0208333333333333
 47
0.0
 47
0.0
 47
0.0
 47
0.0
 47
0.0208333333333333
 47
0.0
 47
0.0
 47
0.0
 47
0.0
 47
1.0
 47
0.0
 47
0.0
 47
0.0
 47
0.0
 47
1.0
171
     0
 49
0.0208333333333333
 49
0.0
 49
0.0
 49
0.0
 49
0.0
 49
0.0208333333333333
 49
0.0
 49
0.0
 49
0.0
 49
0.0
 49
1.0
 49
0.0
 49
0.0
 49
0.0
 49
0.0
 49
1.0
175
     0
142
0.0208333333333333
142
0.0
142
0.0
142
0.0
142
0.0
142
0.0208333333333333
142
0.0
142
0.0
142
0.0
142
0.0
142
1.0
142
0.0
142
0.0
142
0.0
142
0.0
142
1.0
179
     0
144
0.0208333333333333
144
0.0
144
0.0
144
0.0
144
0.0
144
0.0208333333333333
144
0.0
144
0.0
144
0.0
144
0.0
144
1.0
144
0.0
144
0.0
144
0.0
144
0.0
144
1.0
147
0.0208333333333333
147
0.0
147
0.0
147
0.0
147
0.0
147
0.0208333333333333
147
0.0
147
0.0
147
0.0
147
0.0
147
1.0
147
0.0
147
0.0
147
0.0
147
0.0
147
1.0
  0
MLEADERSTYLE
  5
818A
102
{ACAD_REACTORS
330
8189
102
}
330
8189
100
AcDbMLeaderStyle
179
     2
170
     2
171
     1
172
     0
 90
        2
 40
0.0
 41
0.0
173
     1
 91
-1056964608
340
13
 92
       -2
290
     1
 42
2.0
291
     1
 43
0.36
  3
Standard
 44
4.0
300

342
10
174
     1
178
     6
175
     1
176
     0
 93
-1056964608
 45
4.0
292
     0
297
     0
 46
4.0
 94
-1056964608
 47
1.0
 49
1.0
140
1.0
293
     1
141
0.0
294
     1
177
     0
142
1.0
295
     0
296
     0
143
0.125
271
     0
272
     9
273
     9
298
     1
  0
MLINESTYLE
  5
1C
102
{ACAD_REACTORS
330
E
102
}
330
E
100
AcDbMlineStyle
  2
STANDARD
 70
     0
  3

 62
     0
 51
90.0
 52
90.0
 71
     2
 49
0.5
 62
   256
  6
BYLAYER
 49
-0.5
 62
   256
  6
BYLAYER
  0
ACDBPLACEHOLDER
  5
804A
102
{ACAD_REACTORS
330
8049
102
}
330
8049
  0
SCALE
  5
8178
102
{ACAD_REACTORS
330
8177
102
}
330
8177
100
AcDbScale
 70
     0
300
1:1
140
1.0
141
1.0
290
     1
  0
SCALE
  5
8179
102
{ACAD_REACTORS
330
8177
102
}
330
8177
100
AcDbScale
 70
     0
300
1:2
140
1.0
141
2.0
290
     0
  0
SCALE
  5
817A
102
{ACAD_REACTORS
330
8177
102
}
330
8177
100
AcDbScale
 70
     0
300
1:4
140
1.0
141
4.0
290
     0
  0
SCALE
  5
817B
102
{ACAD_REACTORS
330
8177
102
}
330
8177
100
AcDbScale
 70
     0
300
1:5
140
1.0
141
5.0
290
     0
  0
SCALE
  5
817C
102
{ACAD_REACTORS
330
8177
102
}
330
8177
100
AcDbScale
 70
     0
300
1:8
140
1.0
141
8.0
290
     0
  0
SCALE
  5
817D
102
{ACAD_REACTORS
330
8177
102
}
330
8177
100
AcDbScale
 70
     0
300
1:10
140
1.0
141
10.0
290
     0
  0
SCALE
  5
817E
102
{ACAD_REACTORS
330
8177
102
}
330
8177
100
AcDbScale
 70
     0
300
1:16
140
1.0
141
16.0
290
     0
  0
SCALE
  5
817F
102
{ACAD_REACTORS
330
8177
102
}
330
8177
100
AcDbScale
 70
     0
300
1:20
140
1.0
141
20.0
290
     0
  0
SCALE
  5
8180
102
{ACAD_REACTORS
330
8177
102
}
330
8177
100
AcDbScale
 70
     0
300
1:30
140
1.0
141
30.0
290
     0
  0
SCALE
  5
8181
102
{ACAD_REACTORS
330
8177
102
}
330
8177
100
AcDbScale
 70
     0
300
1:40
140
1.0
141
40.0
290
     0
  0
SCALE
  5
8182
102
{ACAD_REACTORS
330
8177
102
}
330
8177
100
AcDbScale
 70
     0
300
1:50
140
1.0
141
50.0
290
     0
  0
SCALE
  5
8183
102
{ACAD_REACTORS
330
8177
102
}
330
8177
100
AcDbScale
 70
     0
300
1:100
140
1.0
141
100.0
290
     0
  0
SCALE
  5
8184
102
{ACAD_REACTORS
330
8177
102
}
330
8177
100
AcDbScale
 70
     0
300
2:1
140
2.0
141
1.0
290
     0
  0
SCALE
  5
8185
102
{ACAD_REACTORS
330
8177
102
}
330
8177
100
AcDbScale
 70
     0
300
4:1
140
4.0
141
1.0
290
     0
  0
SCALE
  5
8186
102
{ACAD_REACTORS
330
8177
102
}
330
8177
100
AcDbScale
 70
     0
300
8:1
140
8.0
141
1.0
290
     0
  0
SCALE
  5
8187
102
{ACAD_REACTORS
330
8177
102
}
330
8177
100
AcDbScale
 70
     0
300
10:1
140
10.0
141
1.0
290
     0
  0
SCALE
  5
8188
102
{ACAD_REACTORS
330
8177
102
}
330
8177
100
AcDbScale
 70
     0
300
100:1
140
100.0
141
1.0
290
     0
  0
ACDBSECTIONVIEWSTYLE
  5
818C
102
{ACAD_XDICTIONARY
360
8202
102
}
102
{ACAD_REACTORS
330
818B
102
}
330
818B
100
AcDbModelDocViewStyle
 70
     0
  3
Metric50
290
     0
100
AcDbSectionViewStyle
 70
     0
 71
     0
 90
      102
 71
     1
340
10
 62
   256
 40
5.0
340
0
340
0
 62
   256
 40
5.0
300
I, O, Q, S, X, Z
 40
10.0
 90
        0
 40
2.5
 90
        0
 71
     2
340
15
 90
       25
 62
   256
340
15
 90
       50
 62
   256
 40
5.0
 40
2.5
 40
5.0
 71
     3
340
10
 62
   256
 40
5.0
 90
        0
 40
15.0
 90
        1
300
%<\AcVar ViewSectionStartId>%-%<\AcVar ViewSectionEndId>% (%<\AcVar ViewScale \f "%sn">%)
 71
     4
 62
   256
 62
   257
300
ANSI31
 40
1.0
 90
        0
290
     0
290
     0
 90
        6
 40
0.0
 40
1.570796326794896
 40
0.2617993877991494
 40
1.308996938995747
 40
-0.2617993877991494
 40
1.832595714594046
  0
TABLESTYLE
  5
8176
102
{ACAD_XDICTIONARY
360
81F7
102
}
102
{ACAD_REACTORS
330
8175
102
}
330
8175
100
AcDbTableStyle
280
     0
  3
Standard
 70
     0
 71
     0
 40
1.5
 41
1.5
280
     0
281
     0
  7
STANDARD
140
4.5
170
     2
 62
     0
 63
     7
283
     0
 90
      512
 91
        0
  1

274
    -2
284
     1
 64
     0
275
    -2
285
     1
 65
     0
276
    -2
286
     1
 66
     0
277
    -2
287
     1
 67
     0
278
    -2
288
     1
 68
     0
279
    -2
289
     1
 69
     0
  7
STANDARD
140
6.0
170
     5
 62
     0
 63
     7
283
     0
 90
      512
 91
        0
  1

274
    -2
284
     1
 64
     0
275
    -2
285
     1
 65
     0
276
    -2
286
     1
 66
     0
277
    -2
287
     1
 67
     0
278
    -2
288
     1
 68
     0
279
    -2
289
     1
 69
     0
  7
STANDARD
140
4.5
170
     5
 62
     0
 63
     7
283
     0
 90
      512
 91
        0
  1

274
    -2
284
     1
 64
     0
275
    -2
285
     1
 65
     0
276
    -2
286
     1
 66
     0
277
    -2
287
     1
 67
     0
278
    -2
288
     1
 68
     0
279
    -2
289
     1
 69
     0
  0
VISUALSTYLE
  5
8161
102
{ACAD_REACTORS
330
815B
102
}
330
815B
100
AcDbVisualStyle
  2
2dWireframe
 70
     4
177
     3
291
     0
 70
    58
 90
        0
176
     1
 90
        2
176
     1
 90
        0
176
     1
 90
        0
176
     1
 40
0.6
176
     1
 40
30.0
176
     1
 62
     7
420
 16777215
176
     1
 90
        1
176
     1
 90
        4
176
     1
 62
     7
176
     1
 62
   257
176
     1
 90
        1
176
     1
 90
        1
176
     1
 40
1.0
176
     1
 90
        0
176
     1
 62
   257
176
     1
 40
1.0
176
     1
 90
        1
176
     1
 90
        6
176
     1
 90
        2
176
     1
 62
     7
176
     1
 90
        5
176
     1
 90
        0
176
     1
 90
        0
176
     1
290
     0
176
     1
 90
        1
176
     1
 40
0.0
176
     1
 90
        0
176
     1
290
     1
176
     1
290
     1
176
     1
290
     0
176
     1
290
     0
176
     1
290
     0
176
     1
290
     0
176
     1
290
     0
176
     1
290
     0
176
     1
290
     0
176
     1
 90
       50
176
     1
 40
0.0
176
     1
 40
1.0
176
     1
 90
        0
176
     1
 62
    18
420
        0
176
     1
 90
       50
176
     1
 90
        3
176
     1
 62
     5
420
      255
176
     1
290
     0
176
     1
 90
       50
176
     1
 90
       50
176
     1
 90
       50
176
     1
290
     0
176
     1
 90
       50
176
     1
 62
   256
176
     0
 40
1.0
176
     0
 90
        2
176
     1
  1
strokes_ogs.tif
176
     1
290
     0
176
     1
 40
1.0
176
     1
 40
1.0
176
     1
1001
ACAD
1000
AcDbSavedByObjectVersion
1070
     0
  0
VISUALSTYLE
  5
8160
102
{ACAD_REACTORS
330
815B
102
}
330
815B
100
AcDbVisualStyle
  2
Basic
 70
     7
177
     3
291
     1
 70
    58
 90
        1
176
     1
 90
        0
176
     1
 90
        1
176
     1
 90
        0
176
     1
 40
0.6
176
     1
 40
30.0
176
     1
 62
     7
420
 16777215
176
     1
 90
        0
176
     1
 90
        4
176
     1
 62
     7
176
     1
 62
   257
176
     1
 90
        1
176
     1
 90
        1
176
     1
 40
1.0
176
     1
 90
        8
176
     1
 62
     7
176
     1
 40
1.0
176
     1
 90
        1
176
     1
 90
        6
176
     1
 90
        2
176
     1
 62
     7
176
     1
 90
        5
176
     1
 90
        0
176
     1
 90
        0
176
     1
290
     0
176
     1
 90
        1
176
     1
 40
0.0
176
     1
 90
        0
176
     1
290
     0
176
     1
290
     1
176
     1
290
     1
176
     1
290
     0
176
     1
290
     0
176
     1
290
     0
176
     1
290
     0
176
     1
290
     0
176
     1
290
     0
176
     1
 90
       50
176
     1
 40
0.0
176
     1
 40
1.0
176
     1
 90
        0
176
     1
 62
    18
420
        0
176
     1
 90
       50
176
     1
 90
        3
176
     1
 62
     5
420
      255
176
     1
290
     0
176
     1
 90
       50
176
     1
 90
       50
176
     1
 90
       50
176
     1
290
     0
176
     1
 90
       50
176
     1
 62
   256
176
     0
 40
1.0
176
     0
 90
        2
176
     1
  1
strokes_ogs.tif
176
     1
290
     0
176
     1
 40
1.0
176
     1
 40
1.0
176
     1
1001
ACAD
1000
AcDbSavedByObjectVersion
1070
     0
  0
VISUALSTYLE
  5
8167
102
{ACAD_REACTORS
330
815B
102
}
330
815B
100
AcDbVisualStyle
  2
Brighten
 70
    12
177
     3
291
     1
 70
    58
 90
        2
176
     1
 90
        2
176
     1
 90
        0
176
     1
 90
        0
176
     1
 40
0.6
176
     1
 40
30.0
176
     1
 62
     7
420
 16777215
176
     1
 90
        1
176
     1
 90
        4
176
     1
 62
     7
176
     1
 62
   257
176
     1
 90
        1
176
     1
 90
        1
176
     1
 40
1.0
176
     1
 90
        8
176
     1
 62
     7
176
     1
 40
1.0
176
     1
 90
        1
176
     1
 90
        6
176
     1
 90
        2
176
     1
 62
     7
176
     1
 90
        5
176
     1
 90
        0
176
     1
 90
        0
176
     1
290
     0
176
     1
 90
        1
176
     1
 40
50.0
176
     1
 90
        0
176
     1
290
     0
176
     1
290
     1
176
     1
290
     1
176
     1
290
     0
176
     1
290
     0
176
     1
290
     0
176
     1
290
     0
176
     1
290
     0
176
     1
290
     0
176
     1
 90
       50
176
     1
 40
0.0
176
     1
 40
1.0
176
     1
 90
        0
176
     1
 62
    18
420
        0
176
     1
 90
       50
176
     1
 90
        3
176
     1
 62
     5
420
      255
176
     1
290
     0
176
     1
 90
       50
176
     1
 90
       50
176
     1
 90
       50
176
     1
290
     0
176
     1
 90
       50
176
     1
 62
   256
176
     0
 40
1.0
176
     0
 90
        2
176
     1
  1
strokes_ogs.tif
176
     1
290
     0
176
     1
 40
1.0
176
     1
 40
1.0
176
     1
1001
ACAD
1000
AcDbSavedByObjectVersion
1070
     0
  0
VISUALSTYLE
  5
816B
102
{ACAD_REACTORS
330
815B
102
}
330
815B
100
AcDbVisualStyle
  2
ColorChange
 70
    16
177
     3
291
     1
 70
    58
 90
        2
176
     1
 90
        2
176
     1
 90
        3
176
     1
 90
        0
176
     1
 40
0.6
176
     1
 40
30.0
176
     1
 62
     8
420
  8421504
176
     1
 90
        1
176
     1
 90
        4
176
     1
 62
     7
176
     1
 62
   257
176
     1
 90
        1
176
     1
 90
        1
176
     1
 40
1.0
176
     1
 90
        8
176
     1
 62
     8
420
  8421504
176
     1
 40
1.0
176
     1
 90
        1
176
     1
 90
        6
176
     1
 90
        2
176
     1
 62
     7
176
     1
 90
        5
176
     1
 90
        0
176
     1
 90
        0
176
     1
290
     0
176
     1
 90
        1
176
     1
 40
0.0
176
     1
 90
        0
176
     1
290
     0
176
     1
290
     1
176
     1
290
     1
176
     1
290
     0
176
     1
290
     0
176
     1
290
     0
176
     1
290
     0
176
     1
290
     0
176
     1
290
     0
176
     1
 90
       50
176
     1
 40
0.0
176
     1
 40
1.0
176
     1
 90
        0
176
     1
 62
    18
420
        0
176
     1
 90
       50
176
     1
 90
        3
176
     1
 62
     5
420
      255
176
     1
290
     0
176
     1
 90
       50
176
     1
 90
       50
176
     1
 90
       50
176
     1
290
     0
176
     1
 90
       50
176
     1
 62
   256
176
     0
 40
1.0
176
     0
 90
        2
176
     1
  1
strokes_ogs.tif
176
     1
290
     0
176
     1
 40
1.0
176
     1
 40
1.0
176
     1
1001
ACAD
1000
AcDbSavedByObjectVersion
1070
     0
  0
VISUALSTYLE
  5
8164
102
{ACAD_REACTORS
330
815B
102
}
330
815B
100
AcDbVisualStyle
  2
Conceptual
 70
     9
177
     3
291
     0
 70
    58
 90
        3
176
     1
 90
        2
176
     1
 90
        0
176
     1
 90
        0
176
     1
 40
0.6
176
     1
 40
30.0
176
     1
 62
     7
420
 16777215
176
     1
 90
        2
176
     1
 90
        2
176
     1
 62
     7
176
     1
 62
   257
176
     1
 90
        1
176
     1
 90
        1
176
     1
 40
179.0
176
     1
 90
        8
176
     1
 62
     7
176
     1
 40
1.0
176
     1
 90
        1
176
     1
 90
        6
176
     1
 90
        2
176
     1
 62
     7
176
     1
 90
        3
176
     1
 90
        0
176
     1
 90
        0
176
     1
290
     0
176
     1
 90
        1
176
     1
 40
0.0
176
     1
 90
        0
176
     1
290
     0
176
     1
290
     1
176
     1
290
     1
176
     1
290
     0
176
     1
290
     0
176
     1
290
     0
176
     1
290
     0
176
     1
290
     0
176
     1
290
     0
176
     1
 90
       50
176
     1
 40
0.0
176
     1
 40
1.0
176
     1
 90
        0
176
     1
 62
    18
420
        0
176
     1
 90
       50
176
     1
 90
        3
176
     1
 62
     5
420
      255
176
     1
290
     0
176
     1
 90
       50
176
     1
 90
       50
176
     1
 90
       50
176
     1
290
     0
176
     1
 90
       50
176
     1
 62
   256
176
     0
 40
1.0
176
     0
 90
        2
176
     1
  1
strokes_ogs.tif
176
     1
290
     0
176
     1
 40
1.0
176
     1
 40
1.0
176
     1
1001
ACAD
1000
AcDbSavedByObjectVersion
1070
     0
  0
VISUALSTYLE
  5
8166
102
{ACAD_REACTORS
330
815B
102
}
330
815B
100
AcDbVisualStyle
  2
Dim
 70
    11
177
     3
291
     1
 70
    58
 90
        2
176
     1
 90
        2
176
     1
 90
        0
176
     1
 90
        0
176
     1
 40
0.6
176
     1
 40
30.0
176
     1
 62
     7
420
 16777215
176
     1
 90
        1
176
     1
 90
        4
176
     1
 62
     7
176
     1
 62
   257
176
     1
 90
        1
176
     1
 90
        1
176
     1
 40
1.0
176
     1
 90
        8
176
     1
 62
     7
176
     1
 40
1.0
176
     1
 90
        1
176
     1
 90
        6
176
     1
 90
        2
176
     1
 62
     7
176
     1
 90
        5
176
     1
 90
        0
176
     1
 90
        0
176
     1
290
     0
176
     1
 90
        1
176
     1
 40
-50.0
176
     1
 90
        0
176
     1
290
     0
176
     1
290
     1
176
     1
290
     1
176
     1
290
     0
176
     1
290
     0
176
     1
290
     0
176
     1
290
     0
176
     1
290
     0
176
     1
290
     0
176
     1
 90
       50
176
     1
 40
0.0
176
     1
 40
1.0
176
     1
 90
        0
176
     1
 62
    18
420
        0
176
     1
 90
       50
176
     1
 90
        3
176
     1
 62
     5
420
      255
176
     1
290
     0
176
     1
 90
       50
176
     1
 90
       50
176
     1
 90
       50
176
     1
290
     0
176
     1
 90
       50
176
     1
 62
   256
176
     0
 40
1.0
176
     0
 90
        2
176
     1
  1
strokes_ogs.tif
176
     1
290
     0
176
     1
 40
1.0
176
     1
 40
1.0
176
     1
1001
ACAD
1000
AcDbSavedByObjectVersion
1070
     0
  0
VISUALSTYLE
  5
8173
102
{ACAD_REACTORS
330
815B
102
}
330
815B
100
AcDbVisualStyle
  2
EdgeColorOff
 70
    22
177
     3
291
     1
 70
    58
 90
        2
176
     0
 90
        2
176
     0
 90
        0
176
     0
 90
        0
176
     0
 40
0.6
176
     0
 40
30.0
176
     0
 62
     7
420
 16777215
176
     0
 90
        1
176
     0
 90
        4
176
     0
 62
     7
176
     0
 62
   257
176
     0
 90
        1
176
     0
 90
        1
176
     0
 40
1.0
176
     0
 90
        8
176
     2
 62
     7
176
     0
 40
1.0
176
     0
 90
        1
176
     0
 90
        6
176
     0
 90
        2
176
     0
 62
     7
176
     0
 90
        5
176
     0
 90
        0
176
     0
 90
        0
176
     0
290
     0
176
     0
 90
        1
176
     0
 40
0.0
176
     0
 90
        0
176
     0
290
     0
176
     0
290
     1
176
     0
290
     1
176
     0
290
     0
176
     0
290
     0
176
     0
290
     0
176
     0
290
     0
176
     0
290
     0
176
     0
290
     0
176
     0
 90
       50
176
     0
 40
0.0
176
     0
 40
1.0
176
     0
 90
        0
176
     0
 62
    18
420
        0
176
     0
 90
       50
176
     0
 90
        3
176
     0
 62
     5
420
      255
176
     0
290
     0
176
     0
 90
       50
176
     0
 90
       50
176
     0
 90
       50
176
     0
290
     0
176
     0
 90
       50
176
     0
 62
   256
176
     0
 40
1.0
176
     0
 90
        2
176
     0
  1
strokes_ogs.tif
176
     0
290
     0
176
     0
 40
1.0
176
     0
 40
1.0
176
     0
1001
ACAD
1000
AcDbSavedByObjectVersion
1070
     0
  0
VISUALSTYLE
  5
816A
102
{ACAD_REACTORS
330
815B
102
}
330
815B
100
AcDbVisualStyle
  2
Facepattern
 70
    15
177
     3
291
     1
 70
    58
 90
        2
176
     1
 90
        2
176
     1
 90
        0
176
     1
 90
        0
176
     1
 40
0.6
176
     1
 40
30.0
176
     1
 62
     7
420
 16777215
176
     1
 90
        1
176
     1
 90
        4
176
     1
 62
     7
176
     1
 62
   257
176
     1
 90
        1
176
     1
 90
        1
176
     1
 40
1.0
176
     1
 90
        8
176
     1
 62
     7
176
     1
 40
1.0
176
     1
 90
        1
176
     1
 90
        6
176
     1
 90
        2
176
     1
 62
     7
176
     1
 90
        5
176
     1
 90
        0
176
     1
 90
        0
176
     1
290
     0
176
     1
 90
        1
176
     1
 40
0.0
176
     1
 90
        0
176
     1
290
     0
176
     1
290
     1
176
     1
290
     1
176
     1
290
     0
176
     1
290
     0
176
     1
290
     0
176
     1
290
     0
176
     1
290
     0
176
     1
290
     0
176
     1
 90
       50
176
     1
 40
0.0
176
     1
 40
1.0
176
     1
 90
        0
176
     1
 62
    18
420
        0
176
     1
 90
       50
176
     1
 90
        3
176
     1
 62
     5
420
      255
176
     1
290
     0
176
     1
 90
       50
176
     1
 90
       50
176
     1
 90
       50
176
     1
290
     0
176
     1
 90
       50
176
     1
 62
   256
176
     0
 40
1.0
176
     0
 90
        2
176
     1
  1
strokes_ogs.tif
176
     1
290
     0
176
     1
 40
1.0
176
     1
 40
1.0
176
     1
1001
ACAD
1000
AcDbSavedByObjectVersion
1070
     0
  0
VISUALSTYLE
  5
815C
102
{ACAD_REACTORS
330
815B
102
}
330
815B
100
AcDbVisualStyle
  2
Flat
 70
     0
177
     3
291
     1
 70
    58
 90
        2
176
     1
 90
        1
176
     1
 90
        1
176
     1
 90
        2
176
     1
 40
0.6
176
     1
 40
30.0
176
     1
 62
     7
420
 16777215
176
     1
 90
        0
176
     1
 90
        0
176
     1
 62
     7
176
     1
 62
   257
176
     1
 90
        1
176
     1
 90
        1
176
     1
 40
1.0
176
     1
 90
        8
176
     1
 62
     7
176
     1
 40
1.0
176
     1
 90
        1
176
     1
 90
        6
176
     1
 90
        2
176
     1
 62
     7
176
     1
 90
        5
176
     1
 90
        0
176
     1
 90
        0
176
     1
290
     0
176
     1
 90
       13
176
     1
 40
0.0
176
     1
 90
        0
176
     1
290
     0
176
     1
290
     1
176
     1
290
     1
176
     1
290
     0
176
     1
290
     0
176
     1
290
     0
176
     1
290
     0
176
     1
290
     0
176
     1
290
     0
176
     1
 90
       50
176
     1
 40
0.0
176
     1
 40
1.0
176
     1
 90
        0
176
     1
 62
    18
420
        0
176
     1
 90
       50
176
     1
 90
        3
176
     1
 62
     5
420
      255
176
     1
290
     0
176
     1
 90
       50
176
     1
 90
       50
176
     1
 90
       50
176
     1
290
     0
176
     1
 90
       50
176
     1
 62
   256
176
     0
 40
1.0
176
     0
 90
        2
176
     1
  1
strokes_ogs.tif
176
     1
290
     0
176
     1
 40
1.0
176
     1
 40
1.0
176
     1
1001
ACAD
1000
AcDbSavedByObjectVersion
1070
     0
  0
VISUALSTYLE
  5
815D
102
{ACAD_REACTORS
330
815B
102
}
330
815B
100
AcDbVisualStyle
  2
FlatWithEdges
 70
     1
177
     3
291
     1
 70
    58
 90
        2
176
     1
 90
        1
176
     1
 90
        1
176
     1
 90
        2
176
     1
 40
0.6
176
     1
 40
30.0
176
     1
 62
     7
420
 16777215
176
     1
 90
        1
176
     1
 90
        0
176
     1
 62
     7
176
     1
 62
   257
176
     1
 90
        1
176
     1
 90
        1
176
     1
 40
1.0
176
     1
 90
        0
176
     1
 62
   257
176
     1
 40
1.0
176
     1
 90
        1
176
     1
 90
        6
176
     1
 90
        2
176
     1
 62
     7
176
     1
 90
        5
176
     1
 90
        0
176
     1
 90
        0
176
     1
290
     0
176
     1
 90
       13
176
     1
 40
0.0
176
     1
 90
        0
176
     1
290
     0
176
     1
290
     1
176
     1
290
     1
176
     1
290
     0
176
     1
290
     0
176
     1
290
     0
176
     1
290
     0
176
     1
290
     0
176
     1
290
     0
176
     1
 90
       50
176
     1
 40
0.0
176
     1
 40
1.0
176
     1
 90
        0
176
     1
 62
    18
420
        0
176
     1
 90
       50
176
     1
 90
        3
176
     1
 62
     5
420
      255
176
     1
290
     0
176
     1
 90
       50
176
     1
 90
       50
176
     1
 90
       50
176
     1
290
     0
176
     1
 90
       50
176
     1
 62
   256
176
     0
 40
1.0
176
     0
 90
        2
176
     1
  1
strokes_ogs.tif
176
     1
290
     0
176
     1
 40
1.0
176
     1
 40
1.0
176
     1
1001
ACAD
1000
AcDbSavedByObjectVersion
1070
     0
  0
VISUALSTYLE
  5
815E
102
{ACAD_REACTORS
330
815B
102
}
330
815B
100
AcDbVisualStyle
  2
Gouraud
 70
     2
177
     3
291
     1
 70
    58
 90
        2
176
     1
 90
        2
176
     1
 90
        1
176
     1
 90
        2
176
     1
 40
0.6
176
     1
 40
30.0
176
     1
 62
     7
420
 16777215
176
     1
 90
        0
176
     1
 90
        0
176
     1
 62
     7
176
     1
 62
   257
176
     1
 90
        1
176
     1
 90
        1
176
     1
 40
1.0
176
     1
 90
        0
176
     1
 62
     7
176
     1
 40
1.0
176
     1
 90
        1
176
     1
 90
        6
176
     1
 90
        2
176
     1
 62
     7
176
     1
 90
        5
176
     1
 90
        0
176
     1
 90
        0
176
     1
290
     0
176
     1
 90
       13
176
     1
 40
0.0
176
     1
 90
        0
176
     1
290
     0
176
     1
290
     1
176
     1
290
     1
176
     1
290
     0
176
     1
290
     0
176
     1
290
     0
176
     1
290
     0
176
     1
290
     0
176
     1
290
     0
176
     1
 90
       50
176
     1
 40
0.0
176
     1
 40
1.0
176
     1
 90
        0
176
     1
 62
    18
420
        0
176
     1
 90
       50
176
     1
 90
        3
176
     1
 62
     5
420
      255
176
     1
290
     0
176
     1
 90
       50
176
     1
 90
       50
176
     1
 90
       50
176
     1
290
     0
176
     1
 90
       50
176
     1
 62
   256
176
     0
 40
1.0
176
     0
 90
        2
176
     1
  1
strokes_ogs.tif
176
     1
290
     0
176
     1
 40
1.0
176
     1
 40
1.0
176
     1
1001
ACAD
1000
AcDbSavedByObjectVersion
1070
     0
  0
VISUALSTYLE
  5
815F
102
{ACAD_REACTORS
330
815B
102
}
330
815B
100
AcDbVisualStyle
  2
GouraudWithEdges
 70
     3
177
     3
291
     1
 70
    58
 90
        2
176
     1
 90
        2
176
     1
 90
        1
176
     1
 90
        2
176
     1
 40
0.6
176
     1
 40
30.0
176
     1
 62
     7
420
 16777215
176
     1
 90
        1
176
     1
 90
        0
176
     1
 62
     7
176
     1
 62
   257
176
     1
 90
        1
176
     1
 90
        1
176
     1
 40
1.0
176
     1
 90
        0
176
     1
 62
   257
176
     1
 40
1.0
176
     1
 90
        1
176
     1
 90
        6
176
     1
 90
        2
176
     1
 62
     7
176
     1
 90
        5
176
     1
 90
        0
176
     1
 90
        0
176
     1
290
     0
176
     1
 90
       13
176
     1
 40
0.0
176
     1
 90
        0
176
     1
290
     0
176
     1
290
     1
176
     1
290
     1
176
     1
290
     0
176
     1
290
     0
176
     1
290
     0
176
     1
290
     0
176
     1
290
     0
176
     1
290
     0
176
     1
 90
       50
176
     1
 40
0.0
176
     1
 40
1.0
176
     1
 90
        0
176
     1
 62
    18
420
        0
176
     1
 90
       50
176
     1
 90
        3
176
     1
 62
     5
420
      255
176
     1
290
     0
176
     1
 90
       50
176
     1
 90
       50
176
     1
 90
       50
176
     1
290
     0
176
     1
 90
       50
176
     1
 62
   256
176
     0
 40
1.0
176
     0
 90
        2
176
     1
  1
strokes_ogs.tif
176
     1
290
     0
176
     1
 40
1.0
176
     1
 40
1.0
176
     1
1001
ACAD
1000
AcDbSavedByObjectVersion
1070
     0
  0
VISUALSTYLE
  5
8163
102
{ACAD_REACTORS
330
815B
102
}
330
815B
100
AcDbVisualStyle
  2
Hidden
 70
     6
177
     3
291
     0
 70
    58
 90
        1
176
     1
 90
        2
176
     1
 90
        2
176
     1
 90
        0
176
     1
 40
0.6
176
     1
 40
30.0
176
     1
 62
     7
420
 16777215
176
     1
 90
        2
176
     1
 90
        2
176
     1
 62
     7
176
     1
 62
   257
176
     1
 90
        2
176
     1
 90
        1
176
     1
 40
40.0
176
     1
 90
        0
176
     1
 62
   257
176
     1
 40
1.0
176
     1
 90
        1
176
     1
 90
        6
176
     1
 90
        2
176
     1
 62
     7
176
     1
 90
        3
176
     1
 90
        0
176
     1
 90
        0
176
     1
290
     0
176
     1
 90
        1
176
     1
 40
0.0
176
     1
 90
        0
176
     1
290
     0
176
     1
290
     1
176
     1
290
     1
176
     1
290
     0
176
     1
290
     0
176
     1
290
     0
176
     1
290
     0
176
     1
290
     0
176
     1
290
     0
176
     1
 90
       50
176
     1
 40
0.0
176
     1
 40
1.0
176
     1
 90
        0
176
     1
 62
    18
420
        0
176
     1
 90
       50
176
     1
 90
        3
176
     1
 62
     5
420
      255
176
     1
290
     0
176
     1
 90
       50
176
     1
 90
       50
176
     1
 90
       50
176
     1
290
     0
176
     1
 90
       50
176
     1
 62
   256
176
     0
 40
1.0
176
     0
 90
        2
176
     1
  1
strokes_ogs.tif
176
     1
290
     0
176
     1
 40
1.0
176
     1
 40
1.0
176
     1
1001
ACAD
1000
AcDbSavedByObjectVersion
1070
     0
  0
VISUALSTYLE
  5
8171
102
{ACAD_REACTORS
330
815B
102
}
330
815B
100
AcDbVisualStyle
  2
JitterOff
 70
    20
177
     3
291
     1
 70
    58
 90
        2
176
     0
 90
        2
176
     0
 90
        0
176
     0
 90
        0
176
     0
 40
0.6
176
     0
 40
30.0
176
     0
 62
     7
420
 16777215
176
     0
 90
        1
176
     0
 90
        4
176
     0
 62
     7
176
     0
 62
   257
176
     0
 90
        1
176
     0
 90
        1
176
     0
 40
1.0
176
     0
 90
       10
176
     2
 62
     7
176
     0
 40
1.0
176
     0
 90
        1
176
     0
 90
        6
176
     0
 90
        2
176
     0
 62
     7
176
     0
 90
        5
176
     0
 90
        0
176
     0
 90
        0
176
     0
290
     0
176
     0
 90
        1
176
     0
 40
0.0
176
     0
 90
        0
176
     0
290
     0
176
     0
290
     1
176
     0
290
     1
176
     0
290
     0
176
     0
290
     0
176
     0
290
     0
176
     0
290
     0
176
     0
290
     0
176
     0
290
     0
176
     0
 90
       50
176
     0
 40
0.0
176
     0
 40
1.0
176
     0
 90
        0
176
     0
 62
    18
420
        0
176
     0
 90
       50
176
     0
 90
        3
176
     0
 62
     5
420
      255
176
     0
290
     0
176
     0
 90
       50
176
     0
 90
       50
176
     0
 90
       50
176
     0
290
     0
176
     0
 90
       50
176
     0
 62
   256
176
     0
 40
1.0
176
     0
 90
        2
176
     0
  1
strokes_ogs.tif
176
     0
290
     0
176
     0
 40
1.0
176
     0
 40
1.0
176
     0
1001
ACAD
1000
AcDbSavedByObjectVersion
1070
     0
  0
VISUALSTYLE
  5
8169
102
{ACAD_REACTORS
330
815B
102
}
330
815B
100
AcDbVisualStyle
  2
Linepattern
 70
    14
177
     3
291
     1
 70
    58
 90
        2
176
     1
 90
        2
176
     1
 90
        0
176
     1
 90
        0
176
     1
 40
0.6
176
     1
 40
30.0
176
     1
 62
     7
420
 16777215
176
     1
 90
        1
176
     1
 90
        4
176
     1
 62
     7
176
     1
 62
   257
176
     1
 90
        7
176
     1
 90
        7
176
     1
 40
1.0
176
     1
 90
        8
176
     1
 62
     7
176
     1
 40
1.0
176
     1
 90
        1
176
     1
 90
        6
176
     1
 90
        2
176
     1
 62
     7
176
     1
 90
        5
176
     1
 90
        0
176
     1
 90
        0
176
     1
290
     0
176
     1
 90
        1
176
     1
 40
0.0
176
     1
 90
        0
176
     1
290
     0
176
     1
290
     1
176
     1
290
     1
176
     1
290
     0
176
     1
290
     0
176
     1
290
     0
176
     1
290
     0
176
     1
290
     0
176
     1
290
     0
176
     1
 90
       50
176
     1
 40
0.0
176
     1
 40
1.0
176
     1
 90
        0
176
     1
 62
    18
420
        0
176
     1
 90
       50
176
     1
 90
        3
176
     1
 62
     5
420
      255
176
     1
290
     0
176
     1
 90
       50
176
     1
 90
       50
176
     1
 90
       50
176
     1
290
     0
176
     1
 90
       50
176
     1
 62
   256
176
     0
 40
1.0
176
     0
 90
        2
176
     1
  1
strokes_ogs.tif
176
     1
290
     0
176
     1
 40
1.0
176
     1
 40
1.0
176
     1
1001
ACAD
1000
AcDbSavedByObjectVersion
1070
     0
  0
VISUALSTYLE
  5
8172
102
{ACAD_REACTORS
330
815B
102
}
330
815B
100
AcDbVisualStyle
  2
OverhangOff
 70
    21
177
     3
291
     1
 70
    58
 90
        2
176
     0
 90
        2
176
     0
 90
        0
176
     0
 90
        0
176
     0
 40
0.6
176
     0
 40
30.0
176
     0
 62
     7
420
 16777215
176
     0
 90
        1
176
     0
 90
        4
176
     0
 62
     7
176
     0
 62
   257
176
     0
 90
        1
176
     0
 90
        1
176
     0
 40
1.0
176
     0
 90
        9
176
     2
 62
     7
176
     0
 40
1.0
176
     0
 90
        1
176
     0
 90
        6
176
     0
 90
        2
176
     0
 62
     7
176
     0
 90
        5
176
     0
 90
        0
176
     0
 90
        0
176
     0
290
     0
176
     0
 90
        1
176
     0
 40
0.0
176
     0
 90
        0
176
     0
290
     0
176
     0
290
     1
176
     0
290
     1
176
     0
290
     0
176
     0
290
     0
176
     0
290
     0
176
     0
290
     0
176
     0
290
     0
176
     0
290
     0
176
     0
 90
       50
176
     0
 40
0.0
176
     0
 40
1.0
176
     0
 90
        0
176
     0
 62
    18
420
        0
176
     0
 90
       50
176
     0
 90
        3
176
     0
 62
     5
420
      255
176
     0
290
     0
176
     0
 90
       50
176
     0
 90
       50
176
     0
 90
       50
176
     0
290
     0
176
     0
 90
       50
176
     0
 62
   256
176
     0
 40
1.0
176
     0
 90
        2
176
     0
  1
strokes_ogs.tif
176
     0
290
     0
176
     0
 40
1.0
176
     0
 40
1.0
176
     0
1001
ACAD
1000
AcDbSavedByObjectVersion
1070
     0
  0
VISUALSTYLE
  5
8165
102
{ACAD_REACTORS
330
815B
102
}
330
815B
100
AcDbVisualStyle
  2
Realistic
 70
     8
177
     3
291
     0
 70
    58
 90
        2
176
     1
 90
        3
176
     1
 90
        0
176
     1
 90
        2
176
     1
 40
0.6
176
     1
 40
30.0
176
     1
 62
     7
420
 16777215
176
     1
 90
        0
176
     1
 90
        0
176
     1
 62
     7
176
     1
 62
   257
176
     1
 90
        1
176
     1
 90
        1
176
     1
 40
1.0
176
     1
 90
        8
176
     1
 62
   257
176
     1
 40
1.0
176
     1
 90
        1
176
     1
 90
        6
176
     1
 90
        2
176
     1
 62
     7
176
     1
 90
        3
176
     1
 90
        0
176
     1
 90
        0
176
     1
290
     0
176
     1
 90
       13
176
     1
 40
0.0
176
     1
 90
        0
176
     1
290
     0
176
     1
290
     1
176
     1
290
     1
176
     1
290
     0
176
     1
290
     0
176
     1
290
     0
176
     1
290
     0
176
     1
290
     0
176
     1
290
     0
176
     1
 90
       50
176
     1
 40
0.0
176
     1
 40
1.0
176
     1
 90
        0
176
     1
 62
    18
420
        0
176
     1
 90
       50
176
     1
 90
        3
176
     1
 62
     5
420
      255
176
     1
290
     0
176
     1
 90
       50
176
     1
 90
       50
176
     1
 90
       50
176
     1
290
     0
176
     1
 90
       50
176
     1
 62
   256
176
     0
 40
1.0
176
     0
 90
        2
176
     1
  1
strokes_ogs.tif
176
     1
290
     0
176
     1
 40
1.0
176
     1
 40
1.0
176
     1
1001
ACAD
1000
AcDbSavedByObjectVersion
1070
     0
  0
VISUALSTYLE
  5
8170
102
{ACAD_REACTORS
330
815B
102
}
330
815B
100
AcDbVisualStyle
  2
Shaded
 70
    27
177
     3
291
     0
 70
    58
 90
        2
176
     1
 90
        2
176
     1
 90
        1
176
     1
 90
        2
176
     1
 40
0.6
176
     1
 40
30.0
176
     1
 62
     7
420
 16777215
176
     1
 90
        0
176
     1
 90
        4
176
     1
 62
     7
176
     1
 62
   257
176
     1
 90
        1
176
     1
 90
        1
176
     1
 40
1.0
176
     1
 90
        8
176
     1
 62
   257
176
     1
 40
1.0
176
     1
 90
        1
176
     1
 90
        6
176
     1
 90
        2
176
     1
 62
     8
420
  7895160
176
     1
 90
        3
176
     1
 90
        0
176
     1
 90
        0
176
     1
290
     0
176
     1
 90
        5
176
     1
 40
0.0
176
     1
 90
        0
176
     1
290
     0
176
     1
290
     1
176
     1
290
     1
176
     1
290
     0
176
     1
290
     0
176
     1
290
     0
176
     1
290
     0
176
     1
290
     0
176
     1
290
     0
176
     1
 90
       50
176
     1
 40
0.0
176
     1
 40
1.0
176
     1
 90
        0
176
     1
 62
    18
420
        0
176
     1
 90
       50
176
     1
 90
        3
176
     1
 62
     5
420
      255
176
     1
290
     0
176
     1
 90
       50
176
     1
 90
       50
176
     1
 90
       50
176
     1
290
     0
176
     1
 90
       50
176
     1
 62
   256
176
     0
 40
1.0
176
     0
 90
        2
176
     1
  1
strokes_ogs.tif
176
     1
290
     0
176
     1
 40
1.0
176
     1
 40
1.0
176
     1
1001
ACAD
1000
AcDbSavedByObjectVersion
1070
     0
  0
VISUALSTYLE
  5
816F
102
{ACAD_REACTORS
330
815B
102
}
330
815B
100
AcDbVisualStyle
  2
Shaded with edges
 70
    26
177
     3
291
     0
 70
    58
 90
        2
176
     1
 90
        2
176
     1
 90
        1
176
     1
 90
        2
176
     1
 40
0.6
176
     1
 40
30.0
176
     1
 62
     7
420
 16777215
176
     1
 90
        1
176
     1
 90
        2
176
     1
 62
     7
176
     1
 62
   257
176
     1
 90
        2
176
     1
 90
        1
176
     1
 40
1.0
176
     1
 90
        8
176
     1
 62
   257
176
     1
 40
1.0
176
     1
 90
        1
176
     1
 90
        6
176
     1
 90
        2
176
     1
 62
     7
176
     1
 90
        3
176
     1
 90
        0
176
     1
 90
        0
176
     1
290
     0
176
     1
 90
        5
176
     1
 40
0.0
176
     1
 90
        0
176
     1
290
     0
176
     1
290
     1
176
     1
290
     1
176
     1
290
     0
176
     1
290
     0
176
     1
290
     0
176
     1
290
     0
176
     1
290
     0
176
     1
290
     0
176
     1
 90
       50
176
     1
 40
0.0
176
     1
 40
1.0
176
     1
 90
        0
176
     1
 62
    18
420
        0
176
     1
 90
       50
176
     1
 90
        3
176
     1
 62
     5
420
      255
176
     1
290
     0
176
     1
 90
       50
176
     1
 90
       50
176
     1
 90
       50
176
     1
290
     0
176
     1
 90
       50
176
     1
 62
   256
176
     0
 40
1.0
176
     0
 90
        2
176
     1
  1
strokes_ogs.tif
176
     1
290
     0
176
     1
 40
1.0
176
     1
 40
1.0
176
     1
1001
ACAD
1000
AcDbSavedByObjectVersion
1070
     0
  0
VISUALSTYLE
  5
816C
102
{ACAD_REACTORS
330
815B
102
}
330
815B
100
AcDbVisualStyle
  2
Shades of Gray
 70
    23
177
     3
291
     0
 70
    58
 90
        2
176
     1
 90
        2
176
     1
 90
        3
176
     1
 90
        0
176
     1
 40
0.6
176
     1
 40
30.0
176
     1
 62
     7
420
 16777215
176
     1
 90
        2
176
     1
 90
        2
176
     1
 62
     7
176
     1
 62
     7
176
     1
 90
        1
176
     1
 90
        1
176
     1
 40
40.0
176
     1
 90
        8
176
     1
 62
     7
176
     1
 40
1.0
176
     1
 90
        1
176
     1
 90
        6
176
     1
 90
        2
176
     1
 62
     7
176
     1
 90
        3
176
     1
 90
        0
176
     1
 90
        0
176
     1
290
     0
176
     1
 90
        1
176
     1
 40
0.0
176
     1
 90
        0
176
     1
290
     0
176
     1
290
     1
176
     1
290
     1
176
     1
290
     0
176
     1
290
     0
176
     1
290
     0
176
     1
290
     0
176
     1
290
     0
176
     1
290
     0
176
     1
 90
       50
176
     1
 40
0.0
176
     1
 40
1.0
176
     1
 90
        0
176
     1
 62
    18
420
        0
176
     1
 90
       50
176
     1
 90
        3
176
     1
 62
     5
420
      255
176
     1
290
     0
176
     1
 90
       50
176
     1
 90
       50
176
     1
 90
       50
176
     1
290
     0
176
     1
 90
       50
176
     1
 62
   256
176
     0
 40
1.0
176
     0
 90
        2
176
     1
  1
strokes_ogs.tif
176
     1
290
     0
176
     1
 40
1.0
176
     1
 40
1.0
176
     1
1001
ACAD
1000
AcDbSavedByObjectVersion
1070
     0
  0
VISUALSTYLE
  5
816D
102
{ACAD_REACTORS
330
815B
102
}
330
815B
100
AcDbVisualStyle
  2
Sketchy
 70
    24
177
     3
291
     0
 70
    58
 90
        1
176
     1
 90
        2
176
     1
 90
        2
176
     1
 90
        0
176
     1
 40
0.6
176
     1
 40
30.0
176
     1
 62
     7
420
 16777215
176
     1
 90
        2
176
     1
 90
        2
176
     1
 62
     7
176
     1
 62
     7
176
     1
 90
        1
176
     1
 90
        1
176
     1
 40
40.0
176
     1
 90
       11
176
     1
 62
     7
176
     1
 40
1.0
176
     1
 90
        1
176
     1
 90
        6
176
     1
 90
        2
176
     1
 62
     7
176
     1
 90
        6
176
     1
 90
        0
176
     1
 90
        0
176
     1
290
     0
176
     1
 90
        1
176
     1
 40
0.0
176
     1
 90
        0
176
     1
290
     0
176
     1
290
     1
176
     1
290
     1
176
     1
290
     0
176
     1
290
     0
176
     1
290
     0
176
     1
290
     0
176
     1
290
     0
176
     1
290
     0
176
     1
 90
       50
176
     1
 40
0.0
176
     1
 40
1.0
176
     1
 90
        0
176
     1
 62
    18
420
        0
176
     1
 90
       50
176
     1
 90
        3
176
     1
 62
     5
420
      255
176
     1
290
     0
176
     1
 90
       50
176
     1
 90
       50
176
     1
 90
       50
176
     1
290
     0
176
     1
 90
       50
176
     1
 62
   256
176
     0
 40
1.0
176
     0
 90
        2
176
     1
  1
strokes_ogs.tif
176
     1
290
     0
176
     1
 40
1.0
176
     1
 40
1.0
176
     1
1001
ACAD
1000
AcDbSavedByObjectVersion
1070
     0
  0
VISUALSTYLE
  5
8168
102
{ACAD_REACTORS
330
815B
102
}
330
815B
100
AcDbVisualStyle
  2
Thicken
 70
    13
177
     3
291
     1
 70
    58
 90
        2
176
     1
 90
        2
176
     1
 90
        0
176
     1
 90
        0
176
     1
 40
0.6
176
     1
 40
30.0
176
     1
 62
     7
420
 16777215
176
     1
 90
        1
176
     1
 90
        4
176
     1
 62
     7
176
     1
 62
   257
176
     1
 90
        1
176
     1
 90
        1
176
     1
 40
1.0
176
     1
 90
       12
176
     1
 62
     7
176
     1
 40
1.0
176
     1
 90
        1
176
     1
 90
        6
176
     1
 90
        2
176
     1
 62
     7
176
     1
 90
        5
176
     1
 90
        0
176
     1
 90
        0
176
     1
290
     0
176
     1
 90
        1
176
     1
 40
0.0
176
     1
 90
        0
176
     1
290
     0
176
     1
290
     1
176
     1
290
     1
176
     1
290
     0
176
     1
290
     0
176
     1
290
     0
176
     1
290
     0
176
     1
290
     0
176
     1
290
     0
176
     1
 90
       50
176
     1
 40
0.0
176
     1
 40
1.0
176
     1
 90
        0
176
     1
 62
    18
420
        0
176
     1
 90
       50
176
     1
 90
        3
176
     1
 62
     5
420
      255
176
     1
290
     0
176
     1
 90
       50
176
     1
 90
       50
176
     1
 90
       50
176
     1
290
     0
176
     1
 90
       50
176
     1
 62
   256
176
     0
 40
1.0
176
     0
 90
        2
176
     1
  1
strokes_ogs.tif
176
     1
290
     0
176
     1
 40
1.0
176
     1
 40
1.0
176
     1
1001
ACAD
1000
AcDbSavedByObjectVersion
1070
     0
  0
VISUALSTYLE
  5
8162
102
{ACAD_REACTORS
330
815B
102
}
330
815B
100
AcDbVisualStyle
  2
Wireframe
 70
     5
177
     3
291
     0
 70
    58
 90
        0
176
     1
 90
        2
176
     1
 90
        0
176
     1
 90
        0
176
     1
 40
0.6
176
     1
 40
30.0
176
     1
 62
     7
420
 16777215
176
     1
 90
        1
176
     1
 90
        4
176
     1
 62
     7
176
     1
 62
   257
176
     1
 90
        1
176
     1
 90
        1
176
     1
 40
1.0
176
     1
 90
        0
176
     1
 62
   257
176
     1
 40
1.0
176
     1
 90
        1
176
     1
 90
        6
176
     1
 90
        2
176
     1
 62
     7
176
     1
 90
        3
176
     1
 90
        0
176
     1
 90
        0
176
     1
290
     0
176
     1
 90
        1
176
     1
 40
0.0
176
     1
 90
        0
176
     1
290
     0
176
     1
290
     1
176
     1
290
     1
176
     1
290
     0
176
     1
290
     0
176
     1
290
     0
176
     1
290
     0
176
     1
290
     0
176
     1
290
     0
176
     1
 90
       50
176
     1
 40
0.0
176
     1
 40
1.0
176
     1
 90
        0
176
     1
 62
    18
420
        0
176
     1
 90
       50
176
     1
 90
        3
176
     1
 62
     5
420
      255
176
     1
290
     0
176
     1
 90
       50
176
     1
 90
       50
176
     1
 90
       50
176
     1
290
     0
176
     1
 90
       50
176
     1
 62
   256
176
     0
 40
1.0
176
     0
 90
        2
176
     1
  1
strokes_ogs.tif
176
     1
290
     0
176
     1
 40
1.0
176
     1
 40
1.0
176
     1
1001
ACAD
1000
AcDbSavedByObjectVersion
1070
     0
  0
VISUALSTYLE
  5
816E
102
{ACAD_REACTORS
330
815B
102
}
330
815B
100
AcDbVisualStyle
  2
X-Ray
 70
    25
177
     3
291
     0
 70
    58
 90
        2
176
     1
 90
        2
176
     1
 90
        1
176
     1
 90
        1
176
     1
 40
0.5
176
     1
 40
30.0
176
     1
 62
     7
420
 16777215
176
     1
 90
        1
176
     1
 90
        0
176
     1
 62
     7
176
     1
 62
   257
176
     1
 90
        1
176
     1
 90
        1
176
     1
 40
1.0
176
     1
 90
        8
176
     1
 62
     7
176
     1
 40
1.0
176
     1
 90
        1
176
     1
 90
        6
176
     1
 90
        2
176
     1
 62
     7
176
     1
 90
        3
176
     1
 90
        0
176
     1
 90
        0
176
     1
290
     0
176
     1
 90
       13
176
     1
 40
0.0
176
     1
 90
        0
176
     1
290
     0
176
     1
290
     1
176
     1
290
     1
176
     1
290
     0
176
     1
290
     0
176
     1
290
     0
176
     1
290
     0
176
     1
290
     0
176
     1
290
     0
176
     1
 90
       50
176
     1
 40
0.0
176
     1
 40
1.0
176
     1
 90
        0
176
     1
 62
    18
420
        0
176
     1
 90
       50
176
     1
 90
        3
176
     1
 62
     5
420
      255
176
     1
290
     0
176
     1
 90
       50
176
     1
 90
       50
176
     1
 90
       50
176
     1
290
     0
176
     1
 90
       50
176
     1
 62
   256
176
     0
 40
1.0
176
     0
 90
        2
176
     1
  1
strokes_ogs.tif
176
     1
290
     0
176
     1
 40
1.0
176
     1
 40
1.0
176
     1
1001
ACAD
1000
AcDbSavedByObjectVersion
1070
     0
  0
DICTIONARYVAR
  5
81EE
102
{ACAD_REACTORS
330
8139
102
}
330
8139
100
DictionaryVariables
280
     0
  1
1:1
  0
DICTIONARYVAR
  5
81EA
102
{ACAD_REACTORS
330
8139
102
}
330
8139
100
DictionaryVariables
280
     0
  1
STANDARD
  0
DICTIONARYVAR
  5
81E9
102
{ACAD_REACTORS
330
8139
102
}
330
8139
100
DictionaryVariables
280
     0
  1
STANDARD
  0
DICTIONARYVAR
  5
81EB
102
{ACAD_REACTORS
330
8139
102
}
330
8139
100
DictionaryVariables
280
     0
  1
Metric50
  0
DICTIONARYVAR
  5
81EC
102
{ACAD_REACTORS
330
8139
102
}
330
8139
100
DictionaryVariables
280
     0
  1
Metric50
  0
DICTIONARYVAR
  5
813A
102
{ACAD_REACTORS
330
8139
102
}
330
8139
100
DictionaryVariables
280
     0
  1
1
  0
DICTIONARYVAR
  5
81F0
102
{ACAD_REACTORS
330
8139
102
}
330
8139
100
DictionaryVariables
280
     0
  1
1
  0
DICTIONARYVAR
  5
81F1
102
{ACAD_REACTORS
330
8139
102
}
330
8139
100
DictionaryVariables
280
     0
  1
15
  0
DICTIONARYVAR
  5
81EF
102
{ACAD_REACTORS
330
8139
102
}
330
8139
100
DictionaryVariables
280
     0
  1
0
  0
DICTIONARYVAR
  5
81F6
102
{ACAD_REACTORS
330
8139
102
}
330
8139
100
DictionaryVariables
280
     0
  1
0
  0
DICTIONARYVAR
  5
81ED
102
{ACAD_REACTORS
330
8139
102
}
330
8139
100
DictionaryVariables
280
     0
  1
0
  0
DICTIONARY
  5
8201
102
{ACAD_REACTORS
330
81FF
102
}
330
81FF
100
AcDbDictionary
281
     1
  0
DICTIONARY
  5
8200
102
{ACAD_REACTORS
330
81FF
102
}
330
81FF
100
AcDbDictionary
281
     1
  3
2045551005216
350
81FA
  3
2045551005232
350
81FB
  3
2045551005248
350
81FC
  3
2045551005264
350
81FD
  3
2045551005280
350
81FE
  0
DICTIONARY
  5
8204
330
818E
100
AcDbDictionary
280
     1
281
     1
  3
ACAD_XREC_ROUNDTRIP
360
8205
  0
DICTIONARY
  5
814C
330
814B
100
AcDbDictionary
280
     1
281
     1
  3
BUMPTILE
360
814E
  3
DIFFUSETILE
360
814D
  3
OPACITYTILE
360
8151
  3
REFLECTIONTILE
360
8150
  3
REFRACTIONTILE
360
8152
  3
SPECULARTILE
360
814F
  0
DICTIONARY
  5
8144
330
8143
100
AcDbDictionary
280
     1
281
     1
  3
BUMPTILE
360
8146
  3
DIFFUSETILE
360
8145
  3
OPACITYTILE
360
8149
  3
REFLECTIONTILE
360
8148
  3
REFRACTIONTILE
360
814A
  3
SPECULARTILE
360
8147
  0
DICTIONARY
  5
8154
330
8153
100
AcDbDictionary
280
     1
281
     1
  3
BUMPTILE
360
8156
  3
DIFFUSETILE
360
8155
  3
OPACITYTILE
360
8159
  3
REFLECTIONTILE
360
8158
  3
REFRACTIONTILE
360
815A
  3
SPECULARTILE
360
8157
  0
DICTIONARY
  5
8202
330
818C
100
AcDbDictionary
280
     1
281
     1
  3
ACAD_XREC_ROUNDTRIP
360
8203
  0
DICTIONARY
  5
81F7
330
8176
100
AcDbDictionary
280
     1
281
     1
  3
ACAD_ROUNDTRIP_2008_TABLESTYLE_CELLSTYLEMAP
360
81F8
  0
XRECORD
  5
81FA
102
{ACAD_REACTORS
330
8200
102
}
330
8200
100
AcDbXrecord
280
     1
  1
AcDb_Thumbnail_Schema
102
{ATTRRECORD
341
81FB
  2
AcDbDs::TreatedAsObjectData
280
     1
291
     1
102
ATTRRECORD}
102
{ATTRRECORD
341
81FC
  2
AcDbDs::Legacy
280
     1
291
     1
102
ATTRRECORD}
  2
AcDbDs::ID
280
    10
 91
        8
102
{ATTRRECORD
341
81FD
  2
AcDs:Indexable
280
     1
291
     1
102
ATTRRECORD}
102
{ATTRRECORD
341
81FE
  2
AcDbDs::HandleAttribute
280
     7
282
     1
102
ATTRRECORD}
  2
Thumbnail_Data
280
    15
 91
        0
  0
XRECORD
  5
81FB
102
{ACAD_REACTORS
330
8200
102
}
330
8200
100
AcDbXrecord
280
     1
  1
AcDbDs::TreatedAsObjectDataSchema
  2
AcDbDs::TreatedAsObjectData
280
     1
 91
        0
  0
XRECORD
  5
81FC
102
{ACAD_REACTORS
330
8200
102
}
330
8200
100
AcDbXrecord
280
     1
  1
AcDbDs::LegacySchema
  2
AcDbDs::Legacy
280
     1
 91
        0
  0
XRECORD
  5
81FD
102
{ACAD_REACTORS
330
8200
102
}
330
8200
100
AcDbXrecord
280
     1
  1
AcDbDs::IndexedPropertySchema
  2
AcDs:Indexable
280
     1
 91
        0
  0
XRECORD
  5
81FE
102
{ACAD_REACTORS
330
8200
102
}
330
8200
100
AcDbXrecord
280
     1
  1
AcDbDs::HandleAttributeSchema
  2
AcDbDs::HandleAttribute
280
     7
 91
        1
284
     1
  0
XRECORD
  5
8205
102
{ACAD_REACTORS
330
8204
102
}
330
8204
100
AcDbXrecord
280
     1
102
DISPLAYNAME
  1
Metric50
102
FLAGS
 90
        0
  0
XRECORD
  5
814E
102
{ACAD_REACTORS
330
814C
102
}
330
814C
100
AcDbXrecord
280
     1
270
     1
271
     1
  0
XRECORD
  5
814D
102
{ACAD_REACTORS
330
814C
102
}
330
814C
100
AcDbXrecord
280
     1
270
     1
271
     1
  0
XRECORD
  5
8151
102
{ACAD_REACTORS
330
814C
102
}
330
814C
100
AcDbXrecord
280
     1
270
     1
271
     1
  0
XRECORD
  5
8150
102
{ACAD_REACTORS
330
814C
102
}
330
814C
100
AcDbXrecord
280
     1
270
     1
271
     1
  0
XRECORD
  5
8152
102
{ACAD_REACTORS
330
814C
102
}
330
814C
100
AcDbXrecord
280
     1
270
     1
271
     1
  0
XRECORD
  5
814F
102
{ACAD_REACTORS
330
814C
102
}
330
814C
100
AcDbXrecord
280
     1
270
     1
271
     1
  0
XRECORD
  5
8146
102
{ACAD_REACTORS
330
8144
102
}
330
8144
100
AcDbXrecord
280
     1
270
     1
271
     1
  0
XRECORD
  5
8145
102
{ACAD_REACTORS
330
8144
102
}
330
8144
100
AcDbXrecord
280
     1
270
     1
271
     1
  0
XRECORD
  5
8149
102
{ACAD_REACTORS
330
8144
102
}
330
8144
100
AcDbXrecord
280
     1
270
     1
271
     1
  0
XRECORD
  5
8148
102
{ACAD_REACTORS
330
8144
102
}
330
8144
100
AcDbXrecord
280
     1
270
     1
271
     1
  0
XRECORD
  5
814A
102
{ACAD_REACTORS
330
8144
102
}
330
8144
100
AcDbXrecord
280
     1
270
     1
271
     1
  0
XRECORD
  5
8147
102
{ACAD_REACTORS
330
8144
102
}
330
8144
100
AcDbXrecord
280
     1
270
     1
271
     1
  0
XRECORD
  5
8156
102
{ACAD_REACTORS
330
8154
102
}
330
8154
100
AcDbXrecord
280
     1
270
     1
271
     1
  0
XRECORD
  5
8155
102
{ACAD_REACTORS
330
8154
102
}
330
8154
100
AcDbXrecord
280
     1
270
     1
271
     1
  0
XRECORD
  5
8159
102
{ACAD_REACTORS
330
8154
102
}
330
8154
100
AcDbXrecord
280
     1
270
     1
271
     1
  0
XRECORD
  5
8158
102
{ACAD_REACTORS
330
8154
102
}
330
8154
100
AcDbXrecord
280
     1
270
     1
271
     1
  0
XRECORD
  5
815A
102
{ACAD_REACTORS
330
8154
102
}
330
8154
100
AcDbXrecord
280
     1
270
     1
271
     1
  0
XRECORD
  5
8157
102
{ACAD_REACTORS
330
8154
102
}
330
8154
100
AcDbXrecord
280
     1
270
     1
271
     1
  0
XRECORD
  5
8203
102
{ACAD_REACTORS
330
8202
102
}
330
8202
100
AcDbXrecord
280
     1
102
DISPLAYNAME
  1
Metric50
102
FLAGS
 90
        0
  0
CELLSTYLEMAP
  5
81F8
102
{ACAD_REACTORS
330
81F7
102
}
330
81F7
100
AcDbCellStyleMap
 90
        3
300
CELLSTYLE
  1
TABLEFORMAT_BEGIN
 90
        5
170
     1
 91
        0
 92
    32768
 62
   257
 93
        1
300
CONTENTFORMAT
  1
CONTENTFORMAT_BEGIN
 90
        0
 91
        0
 92
      512
 93
        0
300

 40
0.0
140
1.0
 94
        5
 62
     0
340
10
144
6.0
309
CONTENTFORMAT_END
171
     1
301
MARGIN
  1
CELLMARGIN_BEGIN
 40
1.5
 40
1.5
 40
1.5
 40
1.5
 40
4.5
 40
4.5
309
CELLMARGIN_END
 94
        6
 95
        1
302
GRIDFORMAT
  1
GRIDFORMAT_BEGIN
 90
        0
 91
        1
 62
     0
 92
       -2
340
0
 93
        0
 40
1.125
309
GRIDFORMAT_END
 95
        2
302
GRIDFORMAT
  1
GRIDFORMAT_BEGIN
 90
        0
 91
        1
 62
     0
 92
       -2
340
0
 93
        0
 40
1.125
309
GRIDFORMAT_END
 95
        4
302
GRIDFORMAT
  1
GRIDFORMAT_BEGIN
 90
        0
 91
        1
 62
     0
 92
       -2
340
0
 93
        0
 40
1.125
309
GRIDFORMAT_END
 95
        8
302
GRIDFORMAT
  1
GRIDFORMAT_BEGIN
 90
        0
 91
        1
 62
     0
 92
       -2
340
0
 93
        0
 40
1.125
309
GRIDFORMAT_END
 95
       16
302
GRIDFORMAT
  1
GRIDFORMAT_BEGIN
 90
        0
 91
        1
 62
     0
 92
       -2
340
0
 93
        0
 40
1.125
309
GRIDFORMAT_END
 95
       32
302
GRIDFORMAT
  1
GRIDFORMAT_BEGIN
 90
        0
 91
        1
 62
     0
 92
       -2
340
0
 93
        0
 40
1.125
309
GRIDFORMAT_END
309
TABLEFORMAT_END
  1
CELLSTYLE_BEGIN
 90
        1
 91
        1
300
_TITLE
309
CELLSTYLE_END
300
CELLSTYLE
  1
TABLEFORMAT_BEGIN
 90
        5
170
     1
 91
        0
 92
        0
 62
   257
 93
        1
300
CONTENTFORMAT
  1
CONTENTFORMAT_BEGIN
 90
        0
 91
        0
 92
      512
 93
        0
300

 40
0.0
140
1.0
 94
        5
 62
     0
340
10
144
4.5
309
CONTENTFORMAT_END
171
     1
301
MARGIN
  1
CELLMARGIN_BEGIN
 40
1.5
 40
1.5
 40
1.5
 40
1.5
 40
4.5
 40
4.5
309
CELLMARGIN_END
 94
        6
 95
        1
302
GRIDFORMAT
  1
GRIDFORMAT_BEGIN
 90
        0
 91
        1
 62
     0
 92
       -2
340
0
 93
        0
 40
1.125
309
GRIDFORMAT_END
 95
        2
302
GRIDFORMAT
  1
GRIDFORMAT_BEGIN
 90
        0
 91
        1
 62
     0
 92
       -2
340
0
 93
        0
 40
1.125
309
GRIDFORMAT_END
 95
        4
302
GRIDFORMAT
  1
GRIDFORMAT_BEGIN
 90
        0
 91
        1
 62
     0
 92
       -2
340
0
 93
        0
 40
1.125
309
GRIDFORMAT_END
 95
        8
302
GRIDFORMAT
  1
GRIDFORMAT_BEGIN
 90
        0
 91
        1
 62
     0
 92
       -2
340
0
 93
        0
 40
1.125
309
GRIDFORMAT_END
 95
       16
302
GRIDFORMAT
  1
GRIDFORMAT_BEGIN
 90
        0
 91
        1
 62
     0
 92
       -2
340
0
 93
        0
 40
1.125
309
GRIDFORMAT_END
 95
       32
302
GRIDFORMAT
  1
GRIDFORMAT_BEGIN
 90
        0
 91
        1
 62
     0
 92
       -2
340
0
 93
        0
 40
1.125
309
GRIDFORMAT_END
309
TABLEFORMAT_END
  1
CELLSTYLE_BEGIN
 90
        2
 91
        1
300
_HEADER
309
CELLSTYLE_END
300
CELLSTYLE
  1
TABLEFORMAT_BEGIN
 90
        5
170
     1
 91
        0
 92
        0
 62
   257
 93
        1
300
CONTENTFORMAT
  1
CONTENTFORMAT_BEGIN
 90
        0
 91
        0
 92
      512
 93
        0
300

 40
0.0
140
1.0
 94
        2
 62
     0
340
10
144
4.5
309
CONTENTFORMAT_END
171
     1
301
MARGIN
  1
CELLMARGIN_BEGIN
 40
1.5
 40
1.5
 40
1.5
 40
1.5
 40
4.5
 40
4.5
309
CELLMARGIN_END
 94
        6
 95
        1
302
GRIDFORMAT
  1
GRIDFORMAT_BEGIN
 90
        0
 91
        1
 62
     0
 92
       -2
340
0
 93
        0
 40
1.125
309
GRIDFORMAT_END
 95
        2
302
GRIDFORMAT
  1
GRIDFORMAT_BEGIN
 90
        0
 91
        1
 62
     0
 92
       -2
340
0
 93
        0
 40
1.125
309
GRIDFORMAT_END
 95
        4
302
GRIDFORMAT
  1
GRIDFORMAT_BEGIN
 90
        0
 91
        1
 62
     0
 92
       -2
340
0
 93
        0
 40
1.125
309
GRIDFORMAT_END
 95
        8
302
GRIDFORMAT
  1
GRIDFORMAT_BEGIN
 90
        0
 91
        1
 62
     0
 92
       -2
340
0
 93
        0
 40
1.125
309
GRIDFORMAT_END
 95
       16
302
GRIDFORMAT
  1
GRIDFORMAT_BEGIN
 90
        0
 91
        1
 62
     0
 92
       -2
340
0
 93
        0
 40
1.125
309
GRIDFORMAT_END
 95
       32
302
GRIDFORMAT
  1
GRIDFORMAT_BEGIN
 90
        0
 91
        1
 62
     0
 92
       -2
340
0
 93
        0
 40
1.125
309
GRIDFORMAT_END
309
TABLEFORMAT_END
  1
CELLSTYLE_BEGIN
 90
        3
 91
        2
300
_DATA
309
CELLSTYLE_END
  0
ENDSEC
  0
SECTION
  2
ACDSDATA
 70
     2
 71
     8
  0
ACDSSCHEMA
 90
        0
  1
AcDb_Thumbnail_Schema
  2
AcDbDs::ID
280
    10
 91
        8
  2
Thumbnail_Data
280
    15
 91
        0
101
ACDSRECORD
 95
        0
 90
        1
  2
AcDbDs::TreatedAsObjectData
280
     1
291
     1
101
ACDSRECORD
 95
        0
 90
        2
  2
AcDbDs::Legacy
280
     1
291
     1
101
ACDSRECORD
  1
AcDbDs::ID
 90
        3
  2
AcDs:Indexable
280
     1
291
     1
101
ACDSRECORD
  1
AcDbDs::ID
 90
        4
  2
AcDbDs::HandleAttribute
280
     7
282
     1
  0
ACDSSCHEMA
 90
        1
  1
AcDbDs::TreatedAsObjectDataSchema
  2
AcDbDs::TreatedAsObjectData
280
     1
 91
        0
  0
ACDSSCHEMA
 90
        2
  1
AcDbDs::LegacySchema
  2
AcDbDs::Legacy
280
     1
 91
        0
  0
ACDSSCHEMA
 90
        3
  1
AcDbDs::IndexedPropertySchema
  2
AcDs:Indexable
280
     1
 91
        0
  0
ACDSSCHEMA
 90
        4
  1
AcDbDs::HandleAttributeSchema
  2
AcDbDs::HandleAttribute
280
     7
 91
        1
284
     1
  0
ACDSRECORD
 90
        0
  2
AcDbDs::ID
280
    10
320
804D
  2
Thumbnail_Data
280
    15
 94
     1739
310
89504E470D0A1A0A0000000D49484452000001000000007C0803000000B13B9E5A00000300504C5445000000000000C8C8C80000000000000000000000000000000000000000000000000000330000660000990000CC0000FF0033000033330033660033990033CC0033FF0066000066330066660066990066CC0066FF0099
310
000099330099660099990099CC0099FF00CC0000CC3300CC6600CC9900CCCC00CCFF00FF0000FF3300FF6600FF9900FFCC00FFFF3300003300333300663300993300CC3300FF3333003333333333663333993333CC3333FF3366003366333366663366993366CC3366FF3399003399333399663399993399CC3399FF33CC00
310
33CC3333CC6633CC9933CCCC33CCFF33FF0033FF3333FF6633FF9933FFCC33FFFF6600006600336600666600996600CC6600FF6633006633336633666633996633CC6633FF6666006666336666666666996666CC6666FF6699006699336699666699996699CC6699FF66CC0066CC3366CC6666CC9966CCCC66CCFF66FF0066
310
FF3366FF6666FF9966FFCC66FFFF9900009900339900669900999900CC9900FF9933009933339933669933999933CC9933FF9966009966339966669966999966CC9966FF9999009999339999669999999999CC9999FF99CC0099CC3399CC6699CC9999CCCC99CCFF99FF0099FF3399FF6699FF9999FFCC99FFFFCC0000CC00
310
33CC0066CC0099CC00CCCC00FFCC3300CC3333CC3366CC3399CC33CCCC33FFCC6600CC6633CC6666CC6699CC66CCCC66FFCC9900CC9933CC9966CC9999CC99CCCC99FFCCCC00CCCC33CCCC66CCCC99CCCCCCCCCCFFCCFF00CCFF33CCFF66CCFF99CCFFCCCCFFFFFF0000FF0033FF0066FF0099FF00CCFF00FFFF3300FF3333
310
FF3366FF3399FF33CCFF33FFFF6600FF6633FF6666FF6699FF66CCFF66FFFF9900FF9933FF9966FF9999FF99CCFF99FFFFCC00FFCC33FFCC66FFCC99FFCCCCFFCCFFFFFF00FFFF33FFFF66FFFF99FFFFCCFFFFFF0000000D0D0D1A1A1A2828283535354343435050505D5D5D6B6B6B787878868686939393A1A1A1AEAEAEBB
310
BBBBC9C9C9D6D6D6E4E4E4F1F1F1FFFFFF00000000000000000000000000000000000000000000000000000000000008F1915C000003864944415478DAED9D5B72EB200C86B51C5EB4FFCDB00DDE4F311709819D74263DAD2ECC24716C27537D483F082801F881527EA8809652547D6D0008000120000480BFF3973E347E5E
310
00888F17971EE01E40F10C4044816E001FCD005402F8635F16007E0140F763E6D2653986E1E4ED5E8A9C7ED20200684603990DFDEDD0BC527A0FA08C4328E3D98407C09DBE750F68B69207B00B56426074F20A8F8967DB4A8860F4031C26432F43421F80A3F4891A2ED4F815524E27007A0B00D444829048ED21B001D85AC2
310
09004C02F8D4E72D00C8B5AC6FFFA7B6FE2680FC545C007878EF0A400A000E01D430C75E527FF505E0EB8187E20B800801762A000480001000024000300CA0263B09D356667FE0CD8C483580470FC071936B0010003C02A0A4C03280875600AF13F896040480001000EC0D884C007E4490C681BA13B8028037C5784FB04D8A
310
884151E4A3A4C67301CAF810F85828F984F57498001C4AF204E0A6B89B1B94F9BF0F00EE6787EFAD649732F3872C7DC3C30A11E60FBB6FD8017074FBBC5CC91340B62A8247DB1F05C2B808DE11B2E3016B78EFDECF0491A864B0EC014700ADA4798F350D38F57F3800316EA21DC0A9DE67DFFF0460CF9495039866F664A855
310
2DDE03101E600B409B089876BA0040CA3F46031A82FAF41600A696DA01E06575EAD6F3BA7DE501360060332E752DF00A6068402520005CC1610E008960F7FBC1610380DD2F3600BA35400268A3C2B04E08B301538B0066FF2725AC2B651A8494525E164EB7B372250D26CD007A3E4FFDBFAF5A4E54D56F79005A005093BAA9
310
814304E562E97666078026008CA9606A058610BCD40050DC0A4800B8984E081E5B01FD005A108FC62F5118C0D21C180530873E50E4BA13C9C8786F0064E522B8008019E62400F3DF6710389DC5030C0C886C554B59210740565B02002700ADCDAB8F641B401BD7DD005033507B7B5797B09218DD3F4B00AE7C4E00A0AA46F3
310
2130270408005F0FB10000A322B82C113AAE9039AC1E4987BB750F88DC2D109B22B8DE920EBC94CF0B3C0040D700D019801308C321007C626499EBECFD23710BB0C972B93E42270036250ECB9CF072B802C84601BC5C25F66A05996E009F8E2C3D1A000120000480001000E625EF3B4A7EDF321700F6DD0661D96BD1120038
310
FC6C12DB6D79ECB26C17807B0D387BC0DC7C1BE636DBBE348000D056DBE6011C4EB2ADB78B030F889DA5A32B1C0002400008000120000480001000028031008A7E7AFB1FCE7C924447823CD90000000049454E44AE426082
  0
ENDSEC
  0
EOF
