  0
SECTION
  2
HEADER
  9
$ACADVER
  1
AC1027
  9
$ACADMAINTVER
 70
   125
  9
$DWGCODEPAGE
  3
ANSI_932
  9
$LASTSAVEDBY
  1
yasukiyo.ogawa
  9
$REQUIREDVERSIONS
160
                 0
  9
$INSBASE
 10
0.0
 20
0.0
 30
0.0
  9
$EXTMIN
 10
0.0
 20
0.0
 30
0.0
  9
$EXTMAX
 10
6300.0
 20
8850.0
 30
0.0
  9
$LIMMIN
 10
0.0
 20
0.0
  9
$LIMMAX
 10
297.0
 20
210.0
  9
$ORTHOMODE
 70
     1
  9
$REGENMODE
 70
     1
  9
$FILLMODE
 70
     0
  9
$QTEXTMODE
 70
     0
  9
$MIRRTEXT
 70
     1
  9
$LTSCALE
 40
100.0
  9
$ATTMODE
 70
     1
  9
$TEXTSIZE
 40
180.0
  9
$TRACEWID
 40
0.05
  9
$TEXTSTYLE
  7
STANDARD
  9
$CLAYER
  8
3
  9
$CELTYPE
  6
BYLAYER
  9
$CECOLOR
 62
   256
  9
$CELTSCALE
 40
1.0
  9
$DISPSILH
 70
     0
  9
$DIMSCALE
 40
30.0
  9
$DIMASZ
 40
2.0
  9
$DIMEXO
 40
0.5
  9
$DIMDLI
 40
10.0
  9
$DIMRND
 40
0.0
  9
$DIMDLE
 40
0.0
  9
$DIMEXE
 40
1.0
  9
$DIMTP
 40
1.0
  9
$DIMTM
 40
1.0
  9
$DIMTXT
 40
3.0
  9
$DIMCEN
 40
0.0
  9
$DIMTSZ
 40
0.0
  9
$DIMTOL
 70
     0
  9
$DIMLIM
 70
     0
  9
$DIMTIH
 70
     0
  9
$DIMTOH
 70
     0
  9
$DIMSE1
 70
     0
  9
$DIMSE2
 70
     0
  9
$DIMTAD
 70
     1
  9
$DIMZIN
 70
     8
  9
$DIMBLK
  1

  9
$DIMASO
 70
     1
  9
$DIMSHO
 70
     1
  9
$DIMPOST
  1
(<>)
  9
$DIMAPOST
  1

  9
$DIMALT
 70
     0
  9
$DIMALTD
 70
     2
  9
$DIMALTF
 40
0.039
  9
$DIMLFAC
 40
1.0
  9
$DIMTOFL
 70
     1
  9
$DIMTVP
 40
0.0
  9
$DIMTIX
 70
     0
  9
$DIMSOXD
 70
     0
  9
$DIMSAH
 70
     1
  9
$DIMBLK1
  1
OPEN
  9
$DIMBLK2
  1
OPEN
  9
$DIMSTYLE
  2
IGA
  9
$DIMCLRD
 70
     0
  9
$DIMCLRE
 70
     0
  9
$DIMCLRT
 70
     0
  9
$DIMTFAC
 40
10.0
  9
$DIMGAP
 40
1.0
  9
$DIMJUST
 70
     0
  9
$DIMSD1
 70
     0
  9
$DIMSD2
 70
     0
  9
$DIMTOLJ
 70
     1
  9
$DIMTZIN
 70
     8
  9
$DIMALTZ
 70
     0
  9
$DIMALTTZ
 70
     0
  9
$DIMUPT
 70
     0
  9
$DIMDEC
 70
     0
  9
$DIMTDEC
 70
     0
  9
$DIMALTU
 70
     2
  9
$DIMALTTD
 70
     2
  9
$DIMTXSTY
  7
STANDARD
  9
$DIMAUNIT
 70
     0
  9
$DIMADEC
 70
     0
  9
$DIMALTRND
 40
0.0
  9
$DIMAZIN
 70
     0
  9
$DIMDSEP
 70
    46
  9
$DIMATFIT
 70
     3
  9
$DIMFRAC
 70
     0
  9
$DIMLDRBLK
  1
OPEN
  9
$DIMLUNIT
 70
     2
  9
$DIMLWD
 70
    -2
  9
$DIMLWE
 70
    -2
  9
$DIMTMOVE
 70
     2
  9
$DIMFXL
 40
1.0
  9
$DIMFXLON
 70
     0
  9
$DIMJOGANG
 40
0.7853981633974483
  9
$DIMTFILL
 70
     0
  9
$DIMTFILLCLR
 70
     0
  9
$DIMARCSYM
 70
     0
  9
$DIMLTYPE
  6

  9
$DIMLTEX1
  6

  9
$DIMLTEX2
  6

  9
$DIMTXTDIRECTION
 70
     0
  9
$LUNITS
 70
     2
  9
$LUPREC
 70
     3
  9
$SKETCHINC
 40
0.1
  9
$FILLETRAD
 40
50.0
  9
$AUNITS
 70
     0
  9
$AUPREC
 70
     0
  9
$MENU
  1
acad
  9
$ELEVATION
 40
0.0
  9
$PELEVATION
 40
0.0
  9
$THICKNESS
 40
0.0
  9
$LIMCHECK
 70
     0
  9
$CHAMFERA
 40
0.5
  9
$CHAMFERB
 40
0.5
  9
$CHAMFERC
 40
20.0
  9
$CHAMFERD
 40
0.0
  9
$SKPOLY
 70
     0
  9
$TDCREATE
 40
2451382.467071759
  9
$TDUCREATE
 40
2451382.092073842
  9
$TDUPDATE
 40
2460241.635000000
  9
$TDUUPDATE
 40
2460241.260003044
  9
$TDINDWG
 40
0.0518704861
  9
$TDUSRTIMER
 40
0.0518704861
  9
$USRTIMER
 70
     1
  9
$ANGBASE
 50
0.0
  9
$ANGDIR
 70
     0
  9
$PDMODE
 70
     0
  9
$PDSIZE
 40
0.0
  9
$PLINEWID
 40
0.0
  9
$SPLFRAME
 70
     0
  9
$SPLINETYPE
 70
     6
  9
$SPLINESEGS
 70
     8
  9
$HANDSEED
  5
814F
  9
$SURFTAB1
 70
     6
  9
$SURFTAB2
 70
     6
  9
$SURFTYPE
 70
     6
  9
$SURFU
 70
     6
  9
$SURFV
 70
     6
  9
$UCSBASE
  2

  9
$UCSNAME
  2

  9
$UCSORG
 10
0.0
 20
0.0
 30
0.0
  9
$UCSXDIR
 10
1.0
 20
0.0
 30
0.0
  9
$UCSYDIR
 10
0.0
 20
1.0
 30
0.0
  9
$UCSORTHOREF
  2

  9
$UCSORTHOVIEW
 70
     0
  9
$UCSORGTOP
 10
0.0
 20
0.0
 30
0.0
  9
$UCSORGBOTTOM
 10
0.0
 20
0.0
 30
0.0
  9
$UCSORGLEFT
 10
0.0
 20
0.0
 30
0.0
  9
$UCSORGRIGHT
 10
0.0
 20
0.0
 30
0.0
  9
$UCSORGFRONT
 10
0.0
 20
0.0
 30
0.0
  9
$UCSORGBACK
 10
0.0
 20
0.0
 30
0.0
  9
$PUCSBASE
  2

  9
$PUCSNAME
  2

  9
$PUCSORG
 10
0.0
 20
0.0
 30
0.0
  9
$PUCSXDIR
 10
1.0
 20
0.0
 30
0.0
  9
$PUCSYDIR
 10
0.0
 20
1.0
 30
0.0
  9
$PUCSORTHOREF
  2

  9
$PUCSORTHOVIEW
 70
     0
  9
$PUCSORGTOP
 10
0.0
 20
0.0
 30
0.0
  9
$PUCSORGBOTTOM
 10
0.0
 20
0.0
 30
0.0
  9
$PUCSORGLEFT
 10
0.0
 20
0.0
 30
0.0
  9
$PUCSORGRIGHT
 10
0.0
 20
0.0
 30
0.0
  9
$PUCSORGFRONT
 10
0.0
 20
0.0
 30
0.0
  9
$PUCSORGBACK
 10
0.0
 20
0.0
 30
0.0
  9
$USERI1
 70
     0
  9
$USERI2
 70
     0
  9
$USERI3
 70
     0
  9
$USERI4
 70
     0
  9
$USERI5
 70
     0
  9
$USERR1
 40
0.0
  9
$USERR2
 40
0.0
  9
$USERR3
 40
0.0
  9
$USERR4
 40
0.0
  9
$USERR5
 40
0.0
  9
$WORLDVIEW
 70
     1
  9
$SHADEDGE
 70
     3
  9
$SHADEDIF
 70
    70
  9
$TILEMODE
 70
     1
  9
$MAXACTVP
 70
    16
  9
$PINSBASE
 10
0.0
 20
0.0
 30
0.0
  9
$PLIMCHECK
 70
     0
  9
$PEXTMIN
 10
1.000000000000000E+20
 20
1.000000000000000E+20
 30
1.000000000000000E+20
  9
$PEXTMAX
 10
-1.000000000000000E+20
 20
-1.000000000000000E+20
 30
-1.000000000000000E+20
  9
$PLIMMIN
 10
0.0
 20
0.0
  9
$PLIMMAX
 10
12.0
 20
9.0
  9
$UNITMODE
 70
     0
  9
$VISRETAIN
 70
     0
  9
$PLINEGEN
 70
     0
  9
$PSLTSCALE
 70
     1
  9
$TREEDEPTH
 70
  3020
  9
$CMLSTYLE
  2
STANDARD
  9
$CMLJUST
 70
     0
  9
$CMLSCALE
 40
20.0
  9
$PROXYGRAPHICS
 70
     1
  9
$MEASUREMENT
 70
     1
  9
$CELWEIGHT
370
    -1
  9
$ENDCAPS
280
     0
  9
$JOINSTYLE
280
     0
  9
$LWDISPLAY
290
     0
  9
$INSUNITS
 70
     0
  9
$HYPERLINKBASE
  1

  9
$STYLESHEET
  1

  9
$XEDIT
290
     1
  9
$CEPSNTYPE
380
     0
  9
$PSTYLEMODE
290
     1
  9
$FINGERPRINTGUID
  2
{069B8615-CD43-4B4F-A690-F94E4EC32A7B}
  9
$VERSIONGUID
  2
{0599310C-F3E3-4B7F-8D7D-C5020CB664CF}
  9
$EXTNAMES
290
     1
  9
$PSVPSCALE
 40
0.0
  9
$OLESTARTUP
290
     0
  9
$SORTENTS
280
   127
  9
$INDEXCTL
280
     0
  9
$HIDETEXT
280
     0
  9
$XCLIPFRAME
280
     2
  9
$HALOGAP
280
     0
  9
$OBSCOLOR
 70
   257
  9
$OBSLTYPE
280
     0
  9
$INTERSECTIONDISPLAY
280
     0
  9
$INTERSECTIONCOLOR
 70
   257
  9
$DIMASSOC
280
     1
  9
$PROJECTNAME
  1

  9
$CAMERADISPLAY
290
     0
  9
$LENSLENGTH
 40
50.0
  9
$CAMERAHEIGHT
 40
0.0
  9
$STEPSPERSEC
 40
2.0
  9
$STEPSIZE
 40
6.0
  9
$3DDWFPREC
 40
2.0
  9
$PSOLWIDTH
 40
0.25
  9
$PSOLHEIGHT
 40
4.0
  9
$LOFTANG1
 40
1.570796326794896
  9
$LOFTANG2
 40
1.570796326794896
  9
$LOFTMAG1
 40
0.0
  9
$LOFTMAG2
 40
0.0
  9
$LOFTPARAM
 70
     7
  9
$LOFTNORMALS
280
     1
  9
$LATITUDE
 40
37.795
  9
$LONGITUDE
 40
-122.394
  9
$NORTHDIRECTION
 40
0.0
  9
$TIMEZONE
 70
 -8000
  9
$LIGHTGLYPHDISPLAY
280
     1
  9
$TILEMODELIGHTSYNCH
280
     1
  9
$CMATERIAL
347
808C
  9
$SOLIDHIST
280
     0
  9
$SHOWHIST
280
     1
  9
$DWFFRAME
280
     2
  9
$DGNFRAME
280
     0
  9
$REALWORLDSCALE
290
     1
  9
$INTERFERECOLOR
 62
     1
  9
$INTERFEREOBJVS
345
80AE
  9
$INTERFEREVPVS
346
80AB
  9
$CSHADOW
280
     0
  9
$SHADOWPLANELOCATION
 40
0.0
  0
ENDSEC
  0
SECTION
  2
CLASSES
  0
CLASS
  1
ACDBDICTIONARYWDFLT
  2
AcDbDictionaryWithDefault
  3
ObjectDBX Classes
 90
        0
 91
        1
280
     0
281
     0
  0
CLASS
  1
DICTIONARYVAR
  2
AcDbDictionaryVar
  3
ObjectDBX Classes
 90
        0
 91
       11
280
     0
281
     0
  0
CLASS
  1
MATERIAL
  2
AcDbMaterial
  3
ObjectDBX Classes
 90
     1153
 91
        3
280
     0
281
     0
  0
CLASS
  1
VISUALSTYLE
  2
AcDbVisualStyle
  3
ObjectDBX Classes
 90
     4095
 91
       24
280
     0
281
     0
  0
CLASS
  1
TABLESTYLE
  2
AcDbTableStyle
  3
ObjectDBX Classes
 90
     4095
 91
        1
280
     0
281
     0
  0
CLASS
  1
SCALE
  2
AcDbScale
  3
ObjectDBX Classes
 90
     1153
 91
       17
280
     0
281
     0
  0
CLASS
  1
MLEADERSTYLE
  2
AcDbMLeaderStyle
  3
ACDB_MLEADERSTYLE_CLASS
 90
     4095
 91
        1
280
     0
281
     0
  0
CLASS
  1
ACDBSECTIONVIEWSTYLE
  2
AcDbSectionViewStyle
  3
ObjectDBX Classes
 90
     1025
 91
        1
280
     0
281
     0
  0
CLASS
  1
ACDBDETAILVIEWSTYLE
  2
AcDbDetailViewStyle
  3
ObjectDBX Classes
 90
     1025
 91
        1
280
     0
281
     0
  0
CLASS
  1
CELLSTYLEMAP
  2
AcDbCellStyleMap
  3
ObjectDBX Classes
 90
     1152
 91
        1
280
     0
281
     0
  0
ENDSEC
  0
SECTION
  2
TABLES
  0
TABLE
  2
VPORT
  5
8
330
0
100
AcDbSymbolTable
 70
     1
1001
ACAD
1000
DbSaveVer
1071
      278
  0
VPORT
  5
8089
330
8
100
AcDbSymbolTableRecord
100
AcDbViewportTableRecord
  2
*Active
 70
     0
 10
0.0
 20
0.0
 11
1.0
 21
1.0
 12
4041.170278991937
 22
4425.000020605514
 13
0.0
 23
0.0
 14
10.0
 24
10.0
 15
10.0
 25
10.0
 16
0.0
 26
0.0
 36
1.0
 17
0.0
 27
0.0
 37
0.0
 40
8907.213844128961
 41
2.250314465408805
 42
50.0
 43
0.0
 44
0.0
 50
0.0
 51
0.0
 71
     0
 72
   100
 73
     1
 74
     0
 75
     0
 76
     0
 77
     0
 78
     0
281
     0
 65
     1
110
0.0
120
0.0
130
0.0
111
1.0
121
0.0
131
0.0
112
0.0
122
1.0
132
0.0
 79
     0
146
0.0
348
80AA
 60
     3
 61
     5
292
     1
282
     1
141
0.0
142
0.0
 63
   250
421
  3355443
1001
ACAD_NAV_VCDISPLAY
1070
     3
  0
ENDTAB
  0
TABLE
  2
LTYPE
  5
5
330
0
100
AcDbSymbolTable
 70
     2
  0
LTYPE
  5
13
330
5
100
AcDbSymbolTableRecord
100
AcDbLinetypeTableRecord
  2
BYBLOCK
 70
     0
  3

 72
    65
 73
     0
 40
0.0
  0
LTYPE
  5
14
330
5
100
AcDbSymbolTableRecord
100
AcDbLinetypeTableRecord
  2
BYLAYER
 70
     0
  3

 72
    65
 73
     0
 40
0.0
  0
LTYPE
  5
15
330
5
100
AcDbSymbolTableRecord
100
AcDbLinetypeTableRecord
  2
CONTINUOUS
 70
     0
  3
Solid line
 72
    65
 73
     0
 40
0.0
  0
LTYPE
  5
1F
330
5
100
AcDbSymbolTableRecord
100
AcDbLinetypeTableRecord
  2
CENTER
 70
     0
  3
____ _ ____ _ ____ _ ____ _ ____ _ ____ _ ____ 
 72
    65
 73
     4
 40
2.0
 49
1.25
 74
     0
 49
-0.25
 74
     0
 49
0.25
 74
     0
 49
-0.25
 74
     0
  0
ENDTAB
  0
TABLE
  2
LAYER
  5
2
102
{ACAD_XDICTIONARY
360
8126
102
}
330
0
100
AcDbSymbolTable
 70
     6
  0
LAYER
  5
F
102
{ACAD_XDICTIONARY
360
8119
102
}
330
2
100
AcDbSymbolTableRecord
100
AcDbLayerTableRecord
  2
0
 70
     0
 62
     7
  6
CONTINUOUS
370
    -3
390
8033
347
809C
348
0
  0
LAYER
  5
31
102
{ACAD_XDICTIONARY
360
811B
102
}
330
2
100
AcDbSymbolTableRecord
100
AcDbLayerTableRecord
  2
3
 70
     0
 62
     2
  6
CONTINUOUS
370
    -3
390
8033
347
809C
348
0
  0
LAYER
  5
76D0
102
{ACAD_XDICTIONARY
360
811D
102
}
330
2
100
AcDbSymbolTableRecord
100
AcDbLayerTableRecord
  2
2
 70
     0
 62
     3
  6
CENTER
370
    -3
390
8033
347
809C
348
0
  0
LAYER
  5
76D1
102
{ACAD_XDICTIONARY
360
811F
102
}
330
2
100
AcDbSymbolTableRecord
100
AcDbLayerTableRecord
  2
1
 70
     0
 62
     4
  6
CONTINUOUS
370
    -3
390
8033
347
809C
348
0
  0
LAYER
  5
76D2
102
{ACAD_XDICTIONARY
360
8121
102
}
330
2
100
AcDbSymbolTableRecord
100
AcDbLayerTableRecord
  2
4
 70
     0
 62
     7
  6
CONTINUOUS
370
    -3
390
8033
347
809C
348
0
  0
LAYER
  5
7B38
330
2
100
AcDbSymbolTableRecord
100
AcDbLayerTableRecord
  2
DEFPOINTS
 70
     0
 62
     7
  6
CONTINUOUS
290
     0
370
    -3
390
8033
347
809C
348
0
  0
ENDTAB
  0
TABLE
  2
STYLE
  5
3
330
0
100
AcDbSymbolTable
 70
     1
  0
STYLE
  5
10
330
3
100
AcDbSymbolTableRecord
100
AcDbTextStyleTableRecord
  2
STANDARD
 70
     0
 40
0.0
 41
1.0
 50
0.0
 71
     0
 42
180.0
  3
simplex.shx
  4
extfont.shx
  0
ENDTAB
  0
TABLE
  2
VIEW
  5
6
330
0
100
AcDbSymbolTable
 70
     0
  0
ENDTAB
  0
TABLE
  2
UCS
  5
7
330
0
100
AcDbSymbolTable
 70
     0
  0
ENDTAB
  0
TABLE
  2
APPID
  5
9
330
0
100
AcDbSymbolTable
 70
     2
  0
APPID
  5
11
330
9
100
AcDbSymbolTableRecord
100
AcDbRegAppTableRecord
  2
ACAD
 70
     0
  0
APPID
  5
812C
330
9
100
AcDbSymbolTableRecord
100
AcDbRegAppTableRecord
  2
ACAD_NAV_VCDISPLAY
 70
     0
  0
ENDTAB
  0
TABLE
  2
DIMSTYLE
  5
A
330
0
100
AcDbSymbolTable
 70
     2
100
AcDbDimStyleTable
 71
     1
340
1D
  0
DIMSTYLE
105
1D
102
{ACAD_REACTORS
330
7CDB
330
7CDC
330
802A
330
80DB
330
80E8
102
}
330
A
100
AcDbSymbolTableRecord
100
AcDbDimStyleTableRecord
  2
IGA
 70
     0
 40
2.0
 41
2.0
 42
0.5
 43
10.0
 44
1.0
 47
1.0
 48
1.0
 73
     0
 74
     0
 77
     1
 78
     8
140
3.0
141
0.0
143
0.03937
146
10.0
147
1.0
173
     1
271
     1
272
     0
279
     2
284
     8
340
10
341
79FC
343
79FC
344
79FC
  0
DIMSTYLE
105
7B3A
102
{ACAD_REACTORS
330
7C4E
330
7C4F
330
7C50
330
7C59
330
7C5A
330
7C82
330
7C83
330
7C8E
330
7C8F
330
7C95
330
7CA6
330
7CA7
330
7CAC
330
7CC0
330
7CCB
330
7CD8
330
7CD9
102
}
330
A
100
AcDbSymbolTableRecord
100
AcDbDimStyleTableRecord
  2
MATSU
 70
     0
 41
2.0
 42
1.0
 43
10.0
 44
1.0
 73
     0
 74
     0
 77
     1
 78
     8
140
3.0
141
0.0
143
0.03937
147
0.5
172
     1
173
     1
176
   256
177
   256
178
   256
284
     8
289
     0
340
10
341
79FC
343
79FC
344
79FC
  0
ENDTAB
  0
TABLE
  2
BLOCK_RECORD
  5
1
330
0
100
AcDbSymbolTable
 70
    26
  0
BLOCK_RECORD
  5
19
102
{ACAD_XDICTIONARY
360
8061
102
}
330
1
100
AcDbSymbolTableRecord
100
AcDbBlockTableRecord
  2
*MODEL_SPACE
340
8036
 70
     0
280
     1
281
     0
  0
BLOCK_RECORD
  5
16
102
{ACAD_XDICTIONARY
360
805F
102
}
330
1
100
AcDbSymbolTableRecord
100
AcDbBlockTableRecord
  2
*PAPER_SPACE
340
8037
 70
     0
280
     1
281
     0
  0
BLOCK_RECORD
  5
79FC
330
1
100
AcDbSymbolTableRecord
100
AcDbBlockTableRecord
  2
_OPEN
340
0
102
{BLKREFS
331
7FD9
331
7FF4
331
7FF5
331
8023
331
8024
331
806F
331
7E07
331
7E08
331
7E12
331
7E13
331
7E1D
331
7E1E
331
7EB7
331
7EB8
331
7EC2
331
7EC3
331
7ECD
331
7ECE
331
7F44
331
7F45
331
7E28
331
7E29
331
7E33
331
7E34
331
7E49
331
7E4A
331
7E54
331
7E55
331
7E6A
331
7E6B
331
7E75
331
7E76
331
7E80
331
7E81
331
7E8B
331
7E8C
331
7E96
331
7E97
331
810A
331
810B
331
8113
331
8114
102
}
 70
     0
280
     1
281
     0
  0
BLOCK_RECORD
  5
7CE1
330
1
100
AcDbSymbolTableRecord
100
AcDbBlockTableRecord
  2
*D1
340
0
 70
     0
280
     1
281
     0
  0
BLOCK_RECORD
  5
7CED
330
1
100
AcDbSymbolTableRecord
100
AcDbBlockTableRecord
  2
*D2
340
0
 70
     0
280
     1
281
     0
  0
BLOCK_RECORD
  5
7CF9
330
1
100
AcDbSymbolTableRecord
100
AcDbBlockTableRecord
  2
*D3
340
0
 70
     0
280
     1
281
     0
  0
BLOCK_RECORD
  5
7D05
330
1
100
AcDbSymbolTableRecord
100
AcDbBlockTableRecord
  2
*D4
340
0
 70
     0
280
     1
281
     0
  0
BLOCK_RECORD
  5
7D11
330
1
100
AcDbSymbolTableRecord
100
AcDbBlockTableRecord
  2
*D5
340
0
 70
     0
280
     1
281
     0
  0
BLOCK_RECORD
  5
7D29
330
1
100
AcDbSymbolTableRecord
100
AcDbBlockTableRecord
  2
*D6
340
0
 70
     0
280
     1
281
     0
  0
BLOCK_RECORD
  5
7D35
330
1
100
AcDbSymbolTableRecord
100
AcDbBlockTableRecord
  2
*D7
340
0
 70
     0
280
     1
281
     0
  0
BLOCK_RECORD
  5
7D4D
330
1
100
AcDbSymbolTableRecord
100
AcDbBlockTableRecord
  2
*D8
340
0
 70
     0
280
     1
281
     0
  0
BLOCK_RECORD
  5
7D59
330
1
100
AcDbSymbolTableRecord
100
AcDbBlockTableRecord
  2
*D9
340
0
 70
     0
280
     1
281
     0
  0
BLOCK_RECORD
  5
7D65
330
1
100
AcDbSymbolTableRecord
100
AcDbBlockTableRecord
  2
*D10
340
0
 70
     0
280
     1
281
     0
  0
BLOCK_RECORD
  5
7D71
330
1
100
AcDbSymbolTableRecord
100
AcDbBlockTableRecord
  2
*D11
340
0
 70
     0
280
     1
281
     0
  0
BLOCK_RECORD
  5
7D7D
330
1
100
AcDbSymbolTableRecord
100
AcDbBlockTableRecord
  2
*D12
340
0
 70
     0
280
     1
281
     0
  0
BLOCK_RECORD
  5
7D89
330
1
100
AcDbSymbolTableRecord
100
AcDbBlockTableRecord
  2
*D13
340
0
 70
     0
280
     1
281
     0
  0
BLOCK_RECORD
  5
7D95
330
1
100
AcDbSymbolTableRecord
100
AcDbBlockTableRecord
  2
*D14
340
0
 70
     0
280
     1
281
     0
  0
BLOCK_RECORD
  5
7DA1
330
1
100
AcDbSymbolTableRecord
100
AcDbBlockTableRecord
  2
*D15
340
0
 70
     0
280
     1
281
     0
  0
BLOCK_RECORD
  5
7DAD
330
1
100
AcDbSymbolTableRecord
100
AcDbBlockTableRecord
  2
*D16
340
0
 70
     0
280
     1
281
     0
  0
BLOCK_RECORD
  5
7DB9
330
1
100
AcDbSymbolTableRecord
100
AcDbBlockTableRecord
  2
*D17
340
0
 70
     0
280
     1
281
     0
  0
BLOCK_RECORD
  5
7DD1
330
1
100
AcDbSymbolTableRecord
100
AcDbBlockTableRecord
  2
*D18
340
0
 70
     0
280
     1
281
     0
  0
BLOCK_RECORD
  5
7DDE
330
1
100
AcDbSymbolTableRecord
100
AcDbBlockTableRecord
  2
*D19
340
0
 70
     0
280
     1
281
     0
  0
BLOCK_RECORD
  5
7FA1
330
1
100
AcDbSymbolTableRecord
100
AcDbBlockTableRecord
  2
_DOT
340
0
102
{BLKREFS
331
7FDA
331
806E
102
}
 70
     0
280
     1
281
     0
  0
BLOCK_RECORD
  5
801E
330
1
100
AcDbSymbolTableRecord
100
AcDbBlockTableRecord
  2
*D23
340
0
 70
     0
280
     1
281
     0
  0
BLOCK_RECORD
  5
80DC
330
1
100
AcDbSymbolTableRecord
100
AcDbBlockTableRecord
  2
*D24
340
0
 70
     0
280
     1
281
     0
  0
BLOCK_RECORD
  5
80E9
330
1
100
AcDbSymbolTableRecord
100
AcDbBlockTableRecord
  2
*D25
340
0
 70
     0
280
     1
281
     0
  0
ENDTAB
  0
ENDSEC
  0
SECTION
  2
BLOCKS
  0
BLOCK
  5
1A
330
19
100
AcDbEntity
  8
0
100
AcDbBlockBegin
  2
*MODEL_SPACE
 70
     0
 10
0.0
 20
0.0
 30
0.0
  3
*MODEL_SPACE
  1

  0
ENDBLK
  5
1B
330
19
100
AcDbEntity
  8
0
100
AcDbBlockEnd
  0
BLOCK
  5
17
330
16
100
AcDbEntity
 67
     1
  8
0
100
AcDbBlockBegin
  2
*PAPER_SPACE
 70
     0
 10
0.0
 20
0.0
 30
0.0
  3
*PAPER_SPACE
  1

  0
ENDBLK
  5
18
330
16
100
AcDbEntity
 67
     1
  8
0
100
AcDbBlockEnd
  0
BLOCK
  5
7A00
330
79FC
100
AcDbEntity
  8
0
100
AcDbBlockBegin
  2
_OPEN
 70
     0
 10
0.0
 20
0.0
 30
0.0
  3
_OPEN
  1

  0
LINE
  5
79FD
330
79FC
100
AcDbEntity
  8
0
  6
ByBlock
 62
     0
100
AcDbLine
 10
-1.0
 20
0.1666666666666666
 30
0.0
 11
0.0
 21
0.0
 31
0.0
  0
LINE
  5
79FE
330
79FC
100
AcDbEntity
  8
0
  6
ByBlock
 62
     0
100
AcDbLine
 10
0.0
 20
0.0
 30
0.0
 11
-1.0
 21
-0.1666666666666666
 31
0.0
  0
LINE
  5
79FF
330
79FC
100
AcDbEntity
  8
0
  6
ByBlock
 62
     0
100
AcDbLine
 10
0.0
 20
0.0
 30
0.0
 11
-1.0
 21
0.0
 31
0.0
  0
ENDBLK
  5
7A01
330
79FC
100
AcDbEntity
  8
0
100
AcDbBlockEnd
  0
BLOCK
  5
7E03
330
7CE1
100
AcDbEntity
  8
0
100
AcDbBlockBegin
  2
*D1
 70
     1
 10
0.0
 20
0.0
 30
0.0
  3
*D1
  1

  0
LINE
  5
7E04
330
7CE1
100
AcDbEntity
  8
0
  6
ByBlock
440
 16777216
100
AcDbLine
 10
1349.988300385585
 20
-532.0580472955989
 30
0.0
 11
1349.988300385585
 21
-702.310651745558
 31
0.0
  0
LINE
  5
7E05
330
7CE1
100
AcDbEntity
  8
0
  6
ByBlock
440
 16777216
100
AcDbLine
 10
789.988300385583
 20
-532.0580472955989
 30
0.0
 11
789.988300385583
 21
-702.310651745558
 31
0.0
  0
LINE
  5
7E06
330
7CE1
100
AcDbEntity
  8
0
  6
ByBlock
440
 16777216
100
AcDbLine
 10
1289.988300385585
 20
-672.3106517455581
 30
0.0
 11
849.9883003855829
 21
-672.3106517455581
 31
0.0
  0
INSERT
  5
7E07
330
7CE1
100
AcDbEntity
  8
0
  6
ByBlock
440
 16777216
100
AcDbBlockReference
  2
_OPEN
 10
1349.988300385585
 20
-672.3106517455581
 30
0.0
 41
60.0
 42
60.0
 43
60.0
  0
INSERT
  5
7E08
330
7CE1
100
AcDbEntity
  8
0
  6
ByBlock
440
 16777216
100
AcDbBlockReference
  2
_OPEN
 10
789.988300385583
 20
-672.3106517455581
 30
0.0
 41
60.0
 42
60.0
 43
60.0
 50
180.0
  0
MTEXT
  5
7E09
330
7CE1
100
AcDbEntity
  8
0
  6
ByBlock
440
 16777216
100
AcDbMText
 10
1069.988300385584
 20
-612.310651745558
 30
0.0
 40
90.0
 41
0.0
 46
0.0
 71
     5
 72
     5
  1
\A1;560
 73
     1
 44
1.0
  0
POINT
  5
7E0A
330
7CE1
100
AcDbEntity
  8
DEFPOINTS
  6
ByBlock
 62
     0
440
 16777216
100
AcDbPoint
 10
1349.988300385585
 20
-502.0580472955989
 30
0.0
  0
POINT
  5
7E0B
330
7CE1
100
AcDbEntity
  8
DEFPOINTS
  6
ByBlock
 62
     0
440
 16777216
100
AcDbPoint
 10
789.988300385583
 20
-502.0580472955989
 30
0.0
  0
POINT
  5
7E0C
330
7CE1
100
AcDbEntity
  8
DEFPOINTS
  6
ByBlock
 62
     0
440
 16777216
100
AcDbPoint
 10
789.988300385583
 20
-672.3106517455581
 30
0.0
  0
ENDBLK
  5
7E0D
330
7CE1
100
AcDbEntity
  8
0
100
AcDbBlockEnd
  0
BLOCK
  5
7E0E
330
7CED
100
AcDbEntity
  8
0
100
AcDbBlockBegin
  2
*D2
 70
     1
 10
0.0
 20
0.0
 30
0.0
  3
*D2
  1

  0
LINE
  5
7E0F
330
7CED
100
AcDbEntity
  8
0
  6
ByBlock
440
 16777216
100
AcDbLine
 10
-171.011699614417
 20
1077.941952704401
 30
0.0
 11
-171.011699614417
 21
1227.557061147612
 31
0.0
  0
LINE
  5
7E10
330
7CED
100
AcDbEntity
  8
0
  6
ByBlock
440
 16777216
100
AcDbLine
 10
753.9883003855829
 20
1077.941952704401
 30
0.0
 11
753.9883003855829
 21
1227.557061147612
 31
0.0
  0
LINE
  5
7E11
330
7CED
100
AcDbEntity
  8
0
  6
ByBlock
440
 16777216
100
AcDbLine
 10
-111.011699614417
 20
1197.557061147612
 30
0.0
 11
693.988300385583
 21
1197.557061147612
 31
0.0
  0
INSERT
  5
7E12
330
7CED
100
AcDbEntity
  8
0
  6
ByBlock
440
 16777216
100
AcDbBlockReference
  2
_OPEN
 10
-171.011699614417
 20
1197.557061147612
 30
0.0
 41
60.0
 42
60.0
 43
60.0
 50
180.0
  0
INSERT
  5
7E13
330
7CED
100
AcDbEntity
  8
0
  6
ByBlock
440
 16777216
100
AcDbBlockReference
  2
_OPEN
 10
753.9883003855829
 20
1197.557061147612
 30
0.0
 41
60.0
 42
60.0
 43
60.0
  0
MTEXT
  5
7E14
330
7CED
100
AcDbEntity
  8
0
  6
ByBlock
440
 16777216
100
AcDbMText
 10
291.488300385583
 20
1257.557061147612
 30
0.0
 40
90.0
 41
0.0
 46
0.0
 71
     5
 72
     5
  1
\A1;925
 73
     1
 44
1.0
  0
POINT
  5
7E15
330
7CED
100
AcDbEntity
  8
DEFPOINTS
  6
ByBlock
 62
     0
440
 16777216
100
AcDbPoint
 10
-171.011699614417
 20
1047.941952704401
 30
0.0
  0
POINT
  5
7E16
330
7CED
100
AcDbEntity
  8
DEFPOINTS
  6
ByBlock
 62
     0
440
 16777216
100
AcDbPoint
 10
753.9883003855829
 20
1047.941952704401
 30
0.0
  0
POINT
  5
7E17
330
7CED
100
AcDbEntity
  8
DEFPOINTS
  6
ByBlock
 62
     0
440
 16777216
100
AcDbPoint
 10
753.9883003855829
 20
1197.557061147612
 30
0.0
  0
ENDBLK
  5
7E18
330
7CED
100
AcDbEntity
  8
0
100
AcDbBlockEnd
  0
BLOCK
  5
7E19
330
7CF9
100
AcDbEntity
  8
0
100
AcDbBlockBegin
  2
*D3
 70
     1
 10
0.0
 20
0.0
 30
0.0
  3
*D3
  1

  0
LINE
  5
7E1A
330
7CF9
100
AcDbEntity
  8
0
  6
ByBlock
440
 16777216
100
AcDbLine
 10
-171.011699614417
 20
1077.941952704401
 30
0.0
 11
-171.011699614417
 21
1396.355754333066
 31
0.0
  0
LINE
  5
7E1B
330
7CF9
100
AcDbEntity
  8
0
  6
ByBlock
440
 16777216
100
AcDbLine
 10
789.988300385583
 20
1114.197291482947
 30
0.0
 11
789.988300385583
 21
1396.355754333066
 31
0.0
  0
LINE
  5
7E1C
330
7CF9
100
AcDbEntity
  8
0
  6
ByBlock
440
 16777216
100
AcDbLine
 10
-111.011699614417
 20
1366.355754333066
 30
0.0
 11
729.9883003855829
 21
1366.355754333066
 31
0.0
  0
INSERT
  5
7E1D
330
7CF9
100
AcDbEntity
  8
0
  6
ByBlock
440
 16777216
100
AcDbBlockReference
  2
_OPEN
 10
-171.011699614417
 20
1366.355754333066
 30
0.0
 41
60.0
 42
60.0
 43
60.0
 50
180.0
  0
INSERT
  5
7E1E
330
7CF9
100
AcDbEntity
  8
0
  6
ByBlock
440
 16777216
100
AcDbBlockReference
  2
_OPEN
 10
789.988300385583
 20
1366.355754333066
 30
0.0
 41
60.0
 42
60.0
 43
60.0
  0
MTEXT
  5
7E1F
330
7CF9
100
AcDbEntity
  8
0
  6
ByBlock
440
 16777216
100
AcDbMText
 10
309.488300385583
 20
1426.355754333066
 30
0.0
 40
90.0
 41
0.0
 46
0.0
 71
     5
 72
     5
  1
\A1;961
 73
     1
 44
1.0
  0
POINT
  5
7E20
330
7CF9
100
AcDbEntity
  8
DEFPOINTS
  6
ByBlock
 62
     0
440
 16777216
100
AcDbPoint
 10
-171.011699614417
 20
1047.941952704401
 30
0.0
  0
POINT
  5
7E21
330
7CF9
100
AcDbEntity
  8
DEFPOINTS
  6
ByBlock
 62
     0
440
 16777216
100
AcDbPoint
 10
789.988300385583
 20
1084.197291482947
 30
0.0
  0
POINT
  5
7E22
330
7CF9
100
AcDbEntity
  8
DEFPOINTS
  6
ByBlock
 62
     0
440
 16777216
100
AcDbPoint
 10
789.988300385583
 20
1366.355754333066
 30
0.0
  0
ENDBLK
  5
7E23
330
7CF9
100
AcDbEntity
  8
0
100
AcDbBlockEnd
  0
BLOCK
  5
7E24
330
7D05
100
AcDbEntity
  8
0
100
AcDbBlockBegin
  2
*D4
 70
     1
 10
0.0
 20
0.0
 30
0.0
  3
*D4
  1

  0
LINE
  5
7E25
330
7D05
100
AcDbEntity
  8
0
  6
ByBlock
440
 16777216
100
AcDbLine
 10
2622.805828611463
 20
-532.0580472955989
 30
0.0
 11
2622.805828611463
 21
-704.7383145075164
 31
0.0
  0
LINE
  5
7E26
330
7D05
100
AcDbEntity
  8
0
  6
ByBlock
440
 16777216
100
AcDbLine
 10
3464.805828611463
 20
-532.0580472955989
 30
0.0
 11
3464.805828611463
 21
-704.7383145075164
 31
0.0
  0
LINE
  5
7E27
330
7D05
100
AcDbEntity
  8
0
  6
ByBlock
440
 16777216
100
AcDbLine
 10
2682.805828611463
 20
-674.7383145075164
 30
0.0
 11
3404.805828611463
 21
-674.7383145075164
 31
0.0
  0
INSERT
  5
7E28
330
7D05
100
AcDbEntity
  8
0
  6
ByBlock
440
 16777216
100
AcDbBlockReference
  2
_OPEN
 10
2622.805828611463
 20
-674.7383145075164
 30
0.0
 41
60.0
 42
60.0
 43
60.0
 50
180.0
  0
INSERT
  5
7E29
330
7D05
100
AcDbEntity
  8
0
  6
ByBlock
440
 16777216
100
AcDbBlockReference
  2
_OPEN
 10
3464.805828611463
 20
-674.7383145075164
 30
0.0
 41
60.0
 42
60.0
 43
60.0
  0
MTEXT
  5
7E2A
330
7D05
100
AcDbEntity
  8
0
  6
ByBlock
440
 16777216
100
AcDbMText
 10
3043.805828611463
 20
-614.7383145075163
 30
0.0
 40
90.0
 41
0.0
 46
0.0
 71
     5
 72
     5
  1
\A1;842
 73
     1
 44
1.0
  0
POINT
  5
7E2B
330
7D05
100
AcDbEntity
  8
DEFPOINTS
  6
ByBlock
 62
     0
440
 16777216
100
AcDbPoint
 10
2622.805828611463
 20
-502.0580472955989
 30
0.0
  0
POINT
  5
7E2C
330
7D05
100
AcDbEntity
  8
DEFPOINTS
  6
ByBlock
 62
     0
440
 16777216
100
AcDbPoint
 10
3464.805828611463
 20
-502.0580472955989
 30
0.0
  0
POINT
  5
7E2D
330
7D05
100
AcDbEntity
  8
DEFPOINTS
  6
ByBlock
 62
     0
440
 16777216
100
AcDbPoint
 10
3464.805828611463
 20
-674.7383145075164
 30
0.0
  0
ENDBLK
  5
7E2E
330
7D05
100
AcDbEntity
  8
0
100
AcDbBlockEnd
  0
BLOCK
  5
7E2F
330
7D11
100
AcDbEntity
  8
0
100
AcDbBlockBegin
  2
*D5
 70
     1
 10
0.0
 20
0.0
 30
0.0
  3
*D5
  1

  0
LINE
  5
7E30
330
7D11
100
AcDbEntity
  8
0
  6
ByBlock
440
 16777216
100
AcDbLine
 10
3464.805828611463
 20
-532.0580472955989
 30
0.0
 11
3464.805828611463
 21
-704.7383145075164
 31
0.0
  0
LINE
  5
7E31
330
7D11
100
AcDbEntity
  8
0
  6
ByBlock
440
 16777216
100
AcDbLine
 10
4122.805828611463
 20
-532.0580472955989
 30
0.0
 11
4122.805828611463
 21
-704.7383145075164
 31
0.0
  0
LINE
  5
7E32
330
7D11
100
AcDbEntity
  8
0
  6
ByBlock
440
 16777216
100
AcDbLine
 10
3524.805828611463
 20
-674.7383145075164
 30
0.0
 11
4062.805828611462
 21
-674.7383145075164
 31
0.0
  0
INSERT
  5
7E33
330
7D11
100
AcDbEntity
  8
0
  6
ByBlock
440
 16777216
100
AcDbBlockReference
  2
_OPEN
 10
3464.805828611463
 20
-674.7383145075164
 30
0.0
 41
60.0
 42
60.0
 43
60.0
 50
180.0
  0
INSERT
  5
7E34
330
7D11
100
AcDbEntity
  8
0
  6
ByBlock
440
 16777216
100
AcDbBlockReference
  2
_OPEN
 10
4122.805828611463
 20
-674.7383145075164
 30
0.0
 41
60.0
 42
60.0
 43
60.0
  0
MTEXT
  5
7E35
330
7D11
100
AcDbEntity
  8
0
  6
ByBlock
440
 16777216
100
AcDbMText
 10
3793.805828611463
 20
-614.7383145075163
 30
0.0
 40
90.0
 41
0.0
 46
0.0
 71
     5
 72
     5
  1
\A1;658
 73
     1
 44
1.0
  0
POINT
  5
7E36
330
7D11
100
AcDbEntity
  8
DEFPOINTS
  6
ByBlock
 62
     0
440
 16777216
100
AcDbPoint
 10
3464.805828611463
 20
-502.0580472955989
 30
0.0
  0
POINT
  5
7E37
330
7D11
100
AcDbEntity
  8
DEFPOINTS
  6
ByBlock
 62
     0
440
 16777216
100
AcDbPoint
 10
4122.805828611463
 20
-502.0580472955989
 30
0.0
  0
POINT
  5
7E38
330
7D11
100
AcDbEntity
  8
DEFPOINTS
  6
ByBlock
 62
     0
440
 16777216
100
AcDbPoint
 10
4122.805828611463
 20
-674.7383145075164
 30
0.0
  0
ENDBLK
  5
7E39
330
7D11
100
AcDbEntity
  8
0
100
AcDbBlockEnd
  0
BLOCK
  5
7E45
330
7D29
100
AcDbEntity
  8
0
100
AcDbBlockBegin
  2
*D6
 70
     1
 10
0.0
 20
0.0
 30
0.0
  3
*D6
  1

  0
LINE
  5
7E46
330
7D29
100
AcDbEntity
  8
0
  6
ByBlock
440
 16777216
100
AcDbLine
 10
4090.305828611462
 20
-22.05804729559895
 30
0.0
 11
4376.639379601736
 21
-22.05804729559895
 31
0.0
  0
LINE
  5
7E47
330
7D29
100
AcDbEntity
  8
0
  6
ByBlock
440
 16777216
100
AcDbLine
 10
4090.305828611463
 20
877.941952704401
 30
0.0
 11
4376.639379601736
 21
877.941952704401
 31
0.0
  0
LINE
  5
7E48
330
7D29
100
AcDbEntity
  8
0
  6
ByBlock
440
 16777216
100
AcDbLine
 10
4346.639379601736
 20
37.94195270440105
 30
0.0
 11
4346.639379601736
 21
817.9419527044011
 31
0.0
  0
INSERT
  5
7E49
330
7D29
100
AcDbEntity
  8
0
  6
ByBlock
440
 16777216
100
AcDbBlockReference
  2
_OPEN
 10
4346.639379601736
 20
-22.05804729559895
 30
0.0
 41
60.0
 42
60.0
 43
60.0
 50
270.0
  0
INSERT
  5
7E4A
330
7D29
100
AcDbEntity
  8
0
  6
ByBlock
440
 16777216
100
AcDbBlockReference
  2
_OPEN
 10
4346.639379601736
 20
877.941952704401
 30
0.0
 41
60.0
 42
60.0
 43
60.0
 50
90.0
  0
MTEXT
  5
7E4B
330
7D29
100
AcDbEntity
  8
0
  6
ByBlock
440
 16777216
100
AcDbMText
 10
4286.639379601736
 20
427.941952704401
 30
0.0
 40
90.0
 41
0.0
 46
0.0
 71
     5
 72
     5
  1
\A1;φ900
 11
0.0
 21
1.0
 31
0.0
 73
     1
 44
1.0
  0
POINT
  5
7E4C
330
7D29
100
AcDbEntity
  8
DEFPOINTS
  6
ByBlock
 62
     0
440
 16777216
100
AcDbPoint
 10
4060.305828611463
 20
-22.05804729559895
 30
0.0
  0
POINT
  5
7E4D
330
7D29
100
AcDbEntity
  8
DEFPOINTS
  6
ByBlock
 62
     0
440
 16777216
100
AcDbPoint
 10
4060.305828611463
 20
877.941952704401
 30
0.0
  0
POINT
  5
7E4E
330
7D29
100
AcDbEntity
  8
DEFPOINTS
  6
ByBlock
 62
     0
440
 16777216
100
AcDbPoint
 10
4346.639379601736
 20
877.941952704401
 30
0.0
  0
ENDBLK
  5
7E4F
330
7D29
100
AcDbEntity
  8
0
100
AcDbBlockEnd
  0
BLOCK
  5
7E50
330
7D35
100
AcDbEntity
  8
0
100
AcDbBlockBegin
  2
*D7
 70
     1
 10
0.0
 20
0.0
 30
0.0
  3
*D7
  1

  0
LINE
  5
7E51
330
7D35
100
AcDbEntity
  8
0
  6
ByBlock
440
 16777216
100
AcDbLine
 10
-650.011699614417
 20
-532.0580472955989
 30
0.0
 11
-650.011699614417
 21
-702.2264958683718
 31
0.0
  0
LINE
  5
7E52
330
7D35
100
AcDbEntity
  8
0
  6
ByBlock
440
 16777216
100
AcDbLine
 10
789.988300385583
 20
-532.0580472955989
 30
0.0
 11
789.988300385583
 21
-702.2264958683718
 31
0.0
  0
LINE
  5
7E53
330
7D35
100
AcDbEntity
  8
0
  6
ByBlock
440
 16777216
100
AcDbLine
 10
-590.011699614417
 20
-672.2264958683718
 30
0.0
 11
729.9883003855829
 21
-672.2264958683718
 31
0.0
  0
INSERT
  5
7E54
330
7D35
100
AcDbEntity
  8
0
  6
ByBlock
440
 16777216
100
AcDbBlockReference
  2
_OPEN
 10
-650.011699614417
 20
-672.2264958683718
 30
0.0
 41
60.0
 42
60.0
 43
60.0
 50
180.0
  0
INSERT
  5
7E55
330
7D35
100
AcDbEntity
  8
0
  6
ByBlock
440
 16777216
100
AcDbBlockReference
  2
_OPEN
 10
789.988300385583
 20
-672.2264958683718
 30
0.0
 41
60.0
 42
60.0
 43
60.0
  0
MTEXT
  5
7E56
330
7D35
100
AcDbEntity
  8
0
  6
ByBlock
440
 16777216
100
AcDbMText
 10
69.98830038558299
 20
-612.2264958683717
 30
0.0
 40
90.0
 41
0.0
 46
0.0
 71
     5
 72
     5
  1
\A1;1440
 73
     1
 44
1.0
  0
POINT
  5
7E57
330
7D35
100
AcDbEntity
  8
DEFPOINTS
  6
ByBlock
 62
     0
440
 16777216
100
AcDbPoint
 10
-650.011699614417
 20
-502.0580472955989
 30
0.0
  0
POINT
  5
7E58
330
7D35
100
AcDbEntity
  8
DEFPOINTS
  6
ByBlock
 62
     0
440
 16777216
100
AcDbPoint
 10
789.988300385583
 20
-502.0580472955989
 30
0.0
  0
POINT
  5
7E59
330
7D35
100
AcDbEntity
  8
DEFPOINTS
  6
ByBlock
 62
     0
440
 16777216
100
AcDbPoint
 10
789.988300385583
 20
-672.2264958683718
 30
0.0
  0
ENDBLK
  5
7E5A
330
7D35
100
AcDbEntity
  8
0
100
AcDbBlockEnd
  0
BLOCK
  5
7E66
330
7D4D
100
AcDbEntity
  8
0
100
AcDbBlockBegin
  2
*D8
 70
     1
 10
0.0
 20
0.0
 30
0.0
  3
*D8
  1

  0
LINE
  5
7E67
330
7D4D
100
AcDbEntity
  8
0
  6
ByBlock
440
 16777216
100
AcDbLine
 10
826.488300385583
 20
1047.941952704401
 30
0.0
 11
1630.975654015498
 21
1047.941952704401
 31
0.0
  0
LINE
  5
7E68
330
7D4D
100
AcDbEntity
  8
0
  6
ByBlock
440
 16777216
100
AcDbLine
 10
1542.580749472802
 20
427.941952704401
 30
0.0
 11
1630.975654015498
 21
427.941952704401
 31
0.0
  0
LINE
  5
7E69
330
7D4D
100
AcDbEntity
  8
0
  6
ByBlock
440
 16777216
100
AcDbLine
 10
1600.975654015498
 20
987.941952704401
 30
0.0
 11
1600.975654015498
 21
487.941952704401
 31
0.0
  0
INSERT
  5
7E6A
330
7D4D
100
AcDbEntity
  8
0
  6
ByBlock
440
 16777216
100
AcDbBlockReference
  2
_OPEN
 10
1600.975654015498
 20
1047.941952704401
 30
0.0
 41
60.0
 42
60.0
 43
60.0
 50
90.0
  0
INSERT
  5
7E6B
330
7D4D
100
AcDbEntity
  8
0
  6
ByBlock
440
 16777216
100
AcDbBlockReference
  2
_OPEN
 10
1600.975654015498
 20
427.941952704401
 30
0.0
 41
60.0
 42
60.0
 43
60.0
 50
270.0
  0
MTEXT
  5
7E6C
330
7D4D
100
AcDbEntity
  8
0
  6
ByBlock
440
 16777216
100
AcDbMText
 10
1540.975654015498
 20
737.941952704401
 30
0.0
 40
90.0
 41
0.0
 46
0.0
 71
     5
 72
     5
  1
\A1;620
 11
0.0
 21
1.0
 31
0.0
 73
     1
 44
1.0
  0
POINT
  5
7E6D
330
7D4D
100
AcDbEntity
  8
DEFPOINTS
  6
ByBlock
 62
     0
440
 16777216
100
AcDbPoint
 10
796.4883003855829
 20
1047.941952704401
 30
0.0
  0
POINT
  5
7E6E
330
7D4D
100
AcDbEntity
  8
DEFPOINTS
  6
ByBlock
 62
     0
440
 16777216
100
AcDbPoint
 10
1512.580749472802
 20
427.941952704401
 30
0.0
  0
POINT
  5
7E6F
330
7D4D
100
AcDbEntity
  8
DEFPOINTS
  6
ByBlock
 62
     0
440
 16777216
100
AcDbPoint
 10
1600.975654015498
 20
427.941952704401
 30
0.0
  0
ENDBLK
  5
7E70
330
7D4D
100
AcDbEntity
  8
0
100
AcDbBlockEnd
  0
BLOCK
  5
7E71
330
7D59
100
AcDbEntity
  8
0
100
AcDbBlockBegin
  2
*D9
 70
     1
 10
0.0
 20
0.0
 30
0.0
  3
*D9
  1

  0
LINE
  5
7E72
330
7D59
100
AcDbEntity
  8
0
  6
ByBlock
440
 16777216
100
AcDbLine
 10
1542.580749472802
 20
427.941952704401
 30
0.0
 11
1630.975654015498
 21
427.941952704401
 31
0.0
  0
LINE
  5
7E73
330
7D59
100
AcDbEntity
  8
0
  6
ByBlock
440
 16777216
100
AcDbLine
 10
1379.988300385585
 20
-392.058047295599
 30
0.0
 11
1630.975654015498
 21
-392.058047295599
 31
0.0
  0
LINE
  5
7E74
330
7D59
100
AcDbEntity
  8
0
  6
ByBlock
440
 16777216
100
AcDbLine
 10
1600.975654015498
 20
367.941952704401
 30
0.0
 11
1600.975654015498
 21
-332.058047295599
 31
0.0
  0
INSERT
  5
7E75
330
7D59
100
AcDbEntity
  8
0
  6
ByBlock
440
 16777216
100
AcDbBlockReference
  2
_OPEN
 10
1600.975654015498
 20
427.941952704401
 30
0.0
 41
60.0
 42
60.0
 43
60.0
 50
90.0
  0
INSERT
  5
7E76
330
7D59
100
AcDbEntity
  8
0
  6
ByBlock
440
 16777216
100
AcDbBlockReference
  2
_OPEN
 10
1600.975654015498
 20
-392.058047295599
 30
0.0
 41
60.0
 42
60.0
 43
60.0
 50
270.0
  0
MTEXT
  5
7E77
330
7D59
100
AcDbEntity
  8
0
  6
ByBlock
440
 16777216
100
AcDbMText
 10
1540.975654015498
 20
17.94195270440105
 30
0.0
 40
90.0
 41
0.0
 46
0.0
 71
     5
 72
     5
  1
\A1;820
 11
0.0
 21
1.0
 31
0.0
 73
     1
 44
1.0
  0
POINT
  5
7E78
330
7D59
100
AcDbEntity
  8
DEFPOINTS
  6
ByBlock
 62
     0
440
 16777216
100
AcDbPoint
 10
1512.580749472802
 20
427.941952704401
 30
0.0
  0
POINT
  5
7E79
330
7D59
100
AcDbEntity
  8
DEFPOINTS
  6
ByBlock
 62
     0
440
 16777216
100
AcDbPoint
 10
1349.988300385585
 20
-392.058047295599
 30
0.0
  0
POINT
  5
7E7A
330
7D59
100
AcDbEntity
  8
DEFPOINTS
  6
ByBlock
 62
     0
440
 16777216
100
AcDbPoint
 10
1600.975654015498
 20
-392.058047295599
 30
0.0
  0
ENDBLK
  5
7E7B
330
7D59
100
AcDbEntity
  8
0
100
AcDbBlockEnd
  0
BLOCK
  5
7E7C
330
7D65
100
AcDbEntity
  8
0
100
AcDbBlockBegin
  2
*D10
 70
     1
 10
0.0
 20
0.0
 30
0.0
  3
*D10
  1

  0
LINE
  5
7E7D
330
7D65
100
AcDbEntity
  8
0
  6
ByBlock
440
 16777216
100
AcDbLine
 10
2874.805828611463
 20
1077.941952704401
 30
0.0
 11
2874.805828611463
 21
1211.45071973517
 31
0.0
  0
LINE
  5
7E7E
330
7D65
100
AcDbEntity
  8
0
  6
ByBlock
440
 16777216
100
AcDbLine
 10
4054.805828611462
 20
1077.941952704401
 30
0.0
 11
4054.805828611462
 21
1211.45071973517
 31
0.0
  0
LINE
  5
7E7F
330
7D65
100
AcDbEntity
  8
0
  6
ByBlock
440
 16777216
100
AcDbLine
 10
2934.805828611463
 20
1181.45071973517
 30
0.0
 11
3994.805828611463
 21
1181.45071973517
 31
0.0
  0
INSERT
  5
7E80
330
7D65
100
AcDbEntity
  8
0
  6
ByBlock
440
 16777216
100
AcDbBlockReference
  2
_OPEN
 10
2874.805828611463
 20
1181.45071973517
 30
0.0
 41
60.0
 42
60.0
 43
60.0
 50
180.0
  0
INSERT
  5
7E81
330
7D65
100
AcDbEntity
  8
0
  6
ByBlock
440
 16777216
100
AcDbBlockReference
  2
_OPEN
 10
4054.805828611462
 20
1181.45071973517
 30
0.0
 41
60.0
 42
60.0
 43
60.0
  0
MTEXT
  5
7E82
330
7D65
100
AcDbEntity
  8
0
  6
ByBlock
440
 16777216
100
AcDbMText
 10
3464.805828611463
 20
1241.45071973517
 30
0.0
 40
90.0
 41
0.0
 46
0.0
 71
     5
 72
     5
  1
\A1;1180
 73
     1
 44
1.0
  0
POINT
  5
7E83
330
7D65
100
AcDbEntity
  8
DEFPOINTS
  6
ByBlock
 62
     0
440
 16777216
100
AcDbPoint
 10
2874.805828611463
 20
1047.941952704401
 30
0.0
  0
POINT
  5
7E84
330
7D65
100
AcDbEntity
  8
DEFPOINTS
  6
ByBlock
 62
     0
440
 16777216
100
AcDbPoint
 10
4054.805828611462
 20
1047.941952704401
 30
0.0
  0
POINT
  5
7E85
330
7D65
100
AcDbEntity
  8
DEFPOINTS
  6
ByBlock
 62
     0
440
 16777216
100
AcDbPoint
 10
4054.805828611462
 20
1181.45071973517
 30
0.0
  0
ENDBLK
  5
7E86
330
7D65
100
AcDbEntity
  8
0
100
AcDbBlockEnd
  0
BLOCK
  5
7E87
330
7D71
100
AcDbEntity
  8
0
100
AcDbBlockBegin
  2
*D11
 70
     1
 10
0.0
 20
0.0
 30
0.0
  3
*D11
  1

  0
LINE
  5
7E88
330
7D71
100
AcDbEntity
  8
0
  6
ByBlock
440
 16777216
100
AcDbLine
 10
-650.0116996144165
 20
2504.814411033822
 30
0.0
 11
-650.0116996144165
 21
2108.774986614504
 31
0.0
  0
LINE
  5
7E89
330
7D71
100
AcDbEntity
  8
0
  6
ByBlock
440
 16777216
100
AcDbLine
 10
1349.988300385585
 20
2504.814411033822
 30
0.0
 11
1349.988300385585
 21
2108.774986614504
 31
0.0
  0
LINE
  5
7E8A
330
7D71
100
AcDbEntity
  8
0
  6
ByBlock
440
 16777216
100
AcDbLine
 10
-590.0116996144165
 20
2138.774986614504
 30
0.0
 11
1289.988300385585
 21
2138.774986614504
 31
0.0
  0
INSERT
  5
7E8B
330
7D71
100
AcDbEntity
  8
0
  6
ByBlock
440
 16777216
100
AcDbBlockReference
  2
_OPEN
 10
-650.0116996144165
 20
2138.774986614504
 30
0.0
 41
60.0
 42
60.0
 43
60.0
 50
180.0
  0
INSERT
  5
7E8C
330
7D71
100
AcDbEntity
  8
0
  6
ByBlock
440
 16777216
100
AcDbBlockReference
  2
_OPEN
 10
1349.988300385585
 20
2138.774986614504
 30
0.0
 41
60.0
 42
60.0
 43
60.0
  0
MTEXT
  5
7E8D
330
7D71
100
AcDbEntity
  8
0
  6
ByBlock
440
 16777216
100
AcDbMText
 10
349.9883003855839
 20
2198.774986614504
 30
0.0
 40
90.0
 41
0.0
 46
0.0
 71
     5
 72
     5
  1
\A1;2000
 73
     1
 44
1.0
  0
POINT
  5
7E8E
330
7D71
100
AcDbEntity
  8
DEFPOINTS
  6
ByBlock
 62
     0
440
 16777216
100
AcDbPoint
 10
-650.0116996144165
 20
2534.814411033822
 30
0.0
  0
POINT
  5
7E8F
330
7D71
100
AcDbEntity
  8
DEFPOINTS
  6
ByBlock
 62
     0
440
 16777216
100
AcDbPoint
 10
1349.988300385585
 20
2534.814411033822
 30
0.0
  0
POINT
  5
7E90
330
7D71
100
AcDbEntity
  8
DEFPOINTS
  6
ByBlock
 62
     0
440
 16777216
100
AcDbPoint
 10
1349.988300385585
 20
2138.774986614504
 30
0.0
  0
ENDBLK
  5
7E91
330
7D71
100
AcDbEntity
  8
0
100
AcDbBlockEnd
  0
BLOCK
  5
7E92
330
7D7D
100
AcDbEntity
  8
0
100
AcDbBlockBegin
  2
*D12
 70
     1
 10
0.0
 20
0.0
 30
0.0
  3
*D12
  1

  0
LINE
  5
7E93
330
7D7D
100
AcDbEntity
  8
0
  6
ByBlock
440
 16777216
100
AcDbLine
 10
-650.0116996144165
 20
3414.814411033822
 30
0.0
 11
-650.0116996144165
 21
4362.896966628809
 31
0.0
  0
LINE
  5
7E94
330
7D7D
100
AcDbEntity
  8
0
  6
ByBlock
440
 16777216
100
AcDbLine
 10
229.9883003855843
 20
4064.814411033821
 30
0.0
 11
229.9883003855843
 21
4362.896966628809
 31
0.0
  0
LINE
  5
7E95
330
7D7D
100
AcDbEntity
  8
0
  6
ByBlock
440
 16777216
100
AcDbLine
 10
-590.0116996144165
 20
4332.896966628808
 30
0.0
 11
169.9883003855843
 21
4332.896966628808
 31
0.0
  0
INSERT
  5
7E96
330
7D7D
100
AcDbEntity
  8
0
  6
ByBlock
440
 16777216
100
AcDbBlockReference
  2
_OPEN
 10
-650.0116996144165
 20
4332.896966628808
 30
0.0
 41
60.0
 42
60.0
 43
60.0
 50
180.0
  0
INSERT
  5
7E97
330
7D7D
100
AcDbEntity
  8
0
  6
ByBlock
440
 16777216
100
AcDbBlockReference
  2
_OPEN
 10
229.9883003855843
 20
4332.896966628808
 30
0.0
 41
60.0
 42
60.0
 43
60.0
  0
MTEXT
  5
7E98
330
7D7D
100
AcDbEntity
  8
0
  6
ByBlock
440
 16777216
100
AcDbMText
 10
-210.0116996144161
 20
4392.896966628808
 30
0.0
 40
90.0
 41
0.0
 46
0.0
 71
     5
 72
     5
  1
\A1;880
 73
     1
 44
1.0
  0
POINT
  5
7E99
330
7D7D
100
AcDbEntity
  8
DEFPOINTS
  6
ByBlock
 62
     0
440
 16777216
100
AcDbPoint
 10
-650.0116996144165
 20
3384.814411033822
 30
0.0
  0
POINT
  5
7E9A
330
7D7D
100
AcDbEntity
  8
DEFPOINTS
  6
ByBlock
 62
     0
440
 16777216
100
AcDbPoint
 10
229.9883003855843
 20
4034.814411033821
 30
0.0
  0
POINT
  5
7E9B
330
7D7D
100
AcDbEntity
  8
DEFPOINTS
  6
ByBlock
 62
     0
440
 16777216
100
AcDbPoint
 10
229.9883003855843
 20
4332.896966628808
 30
0.0
  0
ENDBLK
  5
7E9C
330
7D7D
100
AcDbEntity
  8
0
100
AcDbBlockEnd
  0
BLOCK
  5
7FF0
330
7D89
100
AcDbEntity
  8
0
100
AcDbBlockBegin
  2
*D13
 70
     1
 10
0.0
 20
0.0
 30
0.0
  3
*D13
  1

  0
LINE
  5
7FF1
330
7D89
100
AcDbEntity
  8
0
  6
ByBlock
440
 16777216
100
AcDbLine
 10
785.281548760653
 20
5699.040517381948
 30
0.0
 11
582.3458019410026
 21
5699.040517381948
 31
0.0
  0
LINE
  5
7FF2
330
7D89
100
AcDbEntity
  8
0
  6
ByBlock
440
 16777216
100
AcDbLine
 10
785.281548760653
 20
4849.040517381949
 30
0.0
 11
582.3458019410026
 21
4849.040517381949
 31
0.0
  0
LINE
  5
7FF3
330
7D89
100
AcDbEntity
  8
0
  6
ByBlock
440
 16777216
100
AcDbLine
 10
612.3458019410027
 20
5639.040517381949
 30
0.0
 11
612.3458019410027
 21
4909.040517381949
 31
0.0
  0
INSERT
  5
7FF4
330
7D89
100
AcDbEntity
  8
0
  6
ByBlock
440
 16777216
100
AcDbBlockReference
  2
_OPEN
 10
612.3458019410027
 20
5699.040517381948
 30
0.0
 41
60.0
 42
60.0
 43
60.0
 50
90.0
  0
INSERT
  5
7FF5
330
7D89
100
AcDbEntity
  8
0
  6
ByBlock
440
 16777216
100
AcDbBlockReference
  2
_OPEN
 10
612.3458019410027
 20
4849.040517381949
 30
0.0
 41
60.0
 42
60.0
 43
60.0
 50
270.0
  0
MTEXT
  5
7FF6
330
7D89
100
AcDbEntity
  8
0
  6
ByBlock
440
 16777216
100
AcDbMText
 10
552.3458019410027
 20
5274.040517381949
 30
0.0
 40
90.0
 41
0.0
 46
0.0
 71
     5
 72
     5
  1
\A1;850
 11
0.0
 21
1.0
 31
0.0
 73
     1
 44
1.0
  0
POINT
  5
7FF7
330
7D89
100
AcDbEntity
  8
DEFPOINTS
  6
ByBlock
 62
     0
440
 16777216
100
AcDbPoint
 10
815.2815487606531
 20
5699.040517381948
 30
0.0
  0
POINT
  5
7FF8
330
7D89
100
AcDbEntity
  8
DEFPOINTS
  6
ByBlock
 62
     0
440
 16777216
100
AcDbPoint
 10
815.2815487606531
 20
4849.040517381949
 30
0.0
  0
POINT
  5
7FF9
330
7D89
100
AcDbEntity
  8
DEFPOINTS
  6
ByBlock
 62
     0
440
 16777216
100
AcDbPoint
 10
612.3458019410027
 20
4849.040517381949
 30
0.0
  0
ENDBLK
  5
7FFA
330
7D89
100
AcDbEntity
  8
0
100
AcDbBlockEnd
  0
BLOCK
  5
7F40
330
7D95
100
AcDbEntity
  8
0
100
AcDbBlockBegin
  2
*D14
 70
     1
 10
0.0
 20
0.0
 30
0.0
  3
*D14
  1

  0
LINE
  5
7F41
330
7D95
100
AcDbEntity
  8
0
  6
ByBlock
440
 16777216
100
AcDbLine
 10
2845.281548760655
 20
6349.040517381949
 30
0.0
 11
3144.58579499057
 21
6349.040517381949
 31
0.0
  0
LINE
  5
7F42
330
7D95
100
AcDbEntity
  8
0
  6
ByBlock
440
 16777216
100
AcDbLine
 10
2845.281548760655
 20
4849.040517381949
 30
0.0
 11
3144.58579499057
 21
4849.040517381949
 31
0.0
  0
LINE
  5
7F43
330
7D95
100
AcDbEntity
  8
0
  6
ByBlock
440
 16777216
100
AcDbLine
 10
3114.585794990569
 20
6289.040517381949
 30
0.0
 11
3114.585794990569
 21
4909.040517381949
 31
0.0
  0
INSERT
  5
7F44
330
7D95
100
AcDbEntity
  8
0
  6
ByBlock
440
 16777216
100
AcDbBlockReference
  2
_OPEN
 10
3114.585794990569
 20
6349.040517381949
 30
0.0
 41
60.0
 42
60.0
 43
60.0
 50
90.0
  0
INSERT
  5
7F45
330
7D95
100
AcDbEntity
  8
0
  6
ByBlock
440
 16777216
100
AcDbBlockReference
  2
_OPEN
 10
3114.585794990569
 20
4849.040517381949
 30
0.0
 41
60.0
 42
60.0
 43
60.0
 50
270.0
  0
MTEXT
  5
7F46
330
7D95
100
AcDbEntity
  8
0
  6
ByBlock
440
 16777216
100
AcDbMText
 10
3054.58579499057
 20
5599.040517381949
 30
0.0
 40
90.0
 41
0.0
 46
0.0
 71
     5
 72
     5
  1
\A1;1500
 11
0.0
 21
1.0
 31
0.0
 73
     1
 44
1.0
  0
POINT
  5
7F47
330
7D95
100
AcDbEntity
  8
DEFPOINTS
  6
ByBlock
 62
     0
440
 16777216
100
AcDbPoint
 10
2815.281548760655
 20
6349.040517381949
 30
0.0
  0
POINT
  5
7F48
330
7D95
100
AcDbEntity
  8
DEFPOINTS
  6
ByBlock
 62
     0
440
 16777216
100
AcDbPoint
 10
2815.281548760655
 20
4849.040517381949
 30
0.0
  0
POINT
  5
7F49
330
7D95
100
AcDbEntity
  8
DEFPOINTS
  6
ByBlock
 62
     0
440
 16777216
100
AcDbPoint
 10
3114.585794990569
 20
4849.040517381949
 30
0.0
  0
ENDBLK
  5
7F4A
330
7D95
100
AcDbEntity
  8
0
100
AcDbBlockEnd
  0
BLOCK
  5
7EB3
330
7DA1
100
AcDbEntity
  8
0
100
AcDbBlockBegin
  2
*D15
 70
     1
 10
0.0
 20
0.0
 30
0.0
  3
*D15
  1

  0
LINE
  5
7EB4
330
7DA1
100
AcDbEntity
  8
0
  6
ByBlock
440
 16777216
100
AcDbLine
 10
229.9883003855843
 20
4064.814411033821
 30
0.0
 11
229.9883003855843
 21
4362.896966628809
 31
0.0
  0
LINE
  5
7EB5
330
7DA1
100
AcDbEntity
  8
0
  6
ByBlock
440
 16777216
100
AcDbLine
 10
1349.988300385585
 20
4064.814411033821
 30
0.0
 11
1349.988300385585
 21
4362.896966628809
 31
0.0
  0
LINE
  5
7EB6
330
7DA1
100
AcDbEntity
  8
0
  6
ByBlock
440
 16777216
100
AcDbLine
 10
289.9883003855844
 20
4332.896966628808
 30
0.0
 11
1289.988300385585
 21
4332.896966628808
 31
0.0
  0
INSERT
  5
7EB7
330
7DA1
100
AcDbEntity
  8
0
  6
ByBlock
440
 16777216
100
AcDbBlockReference
  2
_OPEN
 10
229.9883003855843
 20
4332.896966628808
 30
0.0
 41
60.0
 42
60.0
 43
60.0
 50
180.0
  0
INSERT
  5
7EB8
330
7DA1
100
AcDbEntity
  8
0
  6
ByBlock
440
 16777216
100
AcDbBlockReference
  2
_OPEN
 10
1349.988300385585
 20
4332.896966628808
 30
0.0
 41
60.0
 42
60.0
 43
60.0
  0
MTEXT
  5
7EB9
330
7DA1
100
AcDbEntity
  8
0
  6
ByBlock
440
 16777216
100
AcDbMText
 10
789.9883003855846
 20
4392.896966628808
 30
0.0
 40
90.0
 41
0.0
 46
0.0
 71
     5
 72
     5
  1
\A1;1120
 73
     1
 44
1.0
  0
POINT
  5
7EBA
330
7DA1
100
AcDbEntity
  8
DEFPOINTS
  6
ByBlock
 62
     0
440
 16777216
100
AcDbPoint
 10
229.9883003855843
 20
4034.814411033821
 30
0.0
  0
POINT
  5
7EBB
330
7DA1
100
AcDbEntity
  8
DEFPOINTS
  6
ByBlock
 62
     0
440
 16777216
100
AcDbPoint
 10
1349.988300385585
 20
4034.814411033821
 30
0.0
  0
POINT
  5
7EBC
330
7DA1
100
AcDbEntity
  8
DEFPOINTS
  6
ByBlock
 62
     0
440
 16777216
100
AcDbPoint
 10
1349.988300385585
 20
4332.896966628808
 30
0.0
  0
ENDBLK
  5
7EBD
330
7DA1
100
AcDbEntity
  8
0
100
AcDbBlockEnd
  0
BLOCK
  5
7EBE
330
7DAD
100
AcDbEntity
  8
0
100
AcDbBlockBegin
  2
*D16
 70
     1
 10
0.0
 20
0.0
 30
0.0
  3
*D16
  1

  0
LINE
  5
7EBF
330
7DAD
100
AcDbEntity
  8
0
  6
ByBlock
440
 16777216
100
AcDbLine
 10
1432.988300385583
 20
390.941952704401
 30
0.0
 11
1432.988300385583
 21
1550.826256031498
 31
0.0
  0
LINE
  5
7EC0
330
7DAD
100
AcDbEntity
  8
0
  6
ByBlock
440
 16777216
100
AcDbLine
 10
-650.0116996144152
 20
-237.0580472955994
 30
0.0
 11
-650.0116996144152
 21
1550.826256031498
 31
0.0
  0
LINE
  5
7EC1
330
7DAD
100
AcDbEntity
  8
0
  6
ByBlock
440
 16777216
100
AcDbLine
 10
1372.988300385583
 20
1520.826256031498
 30
0.0
 11
-590.0116996144151
 21
1520.826256031498
 31
0.0
  0
INSERT
  5
7EC2
330
7DAD
100
AcDbEntity
  8
0
  6
ByBlock
440
 16777216
100
AcDbBlockReference
  2
_OPEN
 10
1432.988300385583
 20
1520.826256031498
 30
0.0
 41
60.0
 42
60.0
 43
60.0
  0
INSERT
  5
7EC3
330
7DAD
100
AcDbEntity
  8
0
  6
ByBlock
440
 16777216
100
AcDbBlockReference
  2
_OPEN
 10
-650.0116996144152
 20
1520.826256031498
 30
0.0
 41
60.0
 42
60.0
 43
60.0
 50
180.0
  0
MTEXT
  5
7EC4
330
7DAD
100
AcDbEntity
  8
0
  6
ByBlock
440
 16777216
100
AcDbMText
 10
391.4883003855839
 20
1580.826256031498
 30
0.0
 40
90.0
 41
0.0
 46
0.0
 71
     5
 72
     5
  1
\A1;2083
 73
     1
 44
1.0
  0
POINT
  5
7EC5
330
7DAD
100
AcDbEntity
  8
DEFPOINTS
  6
ByBlock
 62
     0
440
 16777216
100
AcDbPoint
 10
1432.988300385583
 20
360.9419527044011
 30
0.0
  0
POINT
  5
7EC6
330
7DAD
100
AcDbEntity
  8
DEFPOINTS
  6
ByBlock
 62
     0
440
 16777216
100
AcDbPoint
 10
-650.0116996144152
 20
-267.0580472955994
 30
0.0
  0
POINT
  5
7EC7
330
7DAD
100
AcDbEntity
  8
DEFPOINTS
  6
ByBlock
 62
     0
440
 16777216
100
AcDbPoint
 10
-650.0116996144152
 20
1520.826256031498
 30
0.0
  0
ENDBLK
  5
7EC8
330
7DAD
100
AcDbEntity
  8
0
100
AcDbBlockEnd
  0
BLOCK
  5
7EC9
330
7DB9
100
AcDbEntity
  8
0
100
AcDbBlockBegin
  2
*D17
 70
     1
 10
0.0
 20
0.0
 30
0.0
  3
*D17
  1

  0
LINE
  5
7ECA
330
7DB9
100
AcDbEntity
  8
0
  6
ByBlock
440
 16777216
100
AcDbLine
 10
789.988300385583
 20
1114.197291482947
 30
0.0
 11
789.988300385583
 21
1396.355754333066
 31
0.0
  0
LINE
  5
7ECB
330
7DB9
100
AcDbEntity
  8
0
  6
ByBlock
440
 16777216
100
AcDbLine
 10
1432.988300385583
 20
390.941952704401
 30
0.0
 11
1432.988300385583
 21
1396.355754333066
 31
0.0
  0
LINE
  5
7ECC
330
7DB9
100
AcDbEntity
  8
0
  6
ByBlock
440
 16777216
100
AcDbLine
 10
849.9883003855829
 20
1366.355754333066
 30
0.0
 11
1372.988300385583
 21
1366.355754333066
 31
0.0
  0
INSERT
  5
7ECD
330
7DB9
100
AcDbEntity
  8
0
  6
ByBlock
440
 16777216
100
AcDbBlockReference
  2
_OPEN
 10
789.988300385583
 20
1366.355754333066
 30
0.0
 41
60.0
 42
60.0
 43
60.0
 50
180.0
  0
INSERT
  5
7ECE
330
7DB9
100
AcDbEntity
  8
0
  6
ByBlock
440
 16777216
100
AcDbBlockReference
  2
_OPEN
 10
1432.988300385583
 20
1366.355754333066
 30
0.0
 41
60.0
 42
60.0
 43
60.0
  0
MTEXT
  5
7ECF
330
7DB9
100
AcDbEntity
  8
0
  6
ByBlock
440
 16777216
100
AcDbMText
 10
1111.488300385583
 20
1426.355754333066
 30
0.0
 40
90.0
 41
0.0
 46
0.0
 71
     5
 72
     5
  1
\A1;643
 73
     1
 44
1.0
  0
POINT
  5
7ED0
330
7DB9
100
AcDbEntity
  8
DEFPOINTS
  6
ByBlock
 62
     0
440
 16777216
100
AcDbPoint
 10
789.988300385583
 20
1084.197291482947
 30
0.0
  0
POINT
  5
7ED1
330
7DB9
100
AcDbEntity
  8
DEFPOINTS
  6
ByBlock
 62
     0
440
 16777216
100
AcDbPoint
 10
1432.988300385583
 20
360.9419527044011
 30
0.0
  0
POINT
  5
7ED2
330
7DB9
100
AcDbEntity
  8
DEFPOINTS
  6
ByBlock
 62
     0
440
 16777216
100
AcDbPoint
 10
1432.988300385583
 20
1366.355754333066
 30
0.0
  0
ENDBLK
  5
7ED3
330
7DB9
100
AcDbEntity
  8
0
100
AcDbBlockEnd
  0
BLOCK
  5
7FD2
330
7DD1
100
AcDbEntity
  8
0
100
AcDbBlockBegin
  2
*D18
 70
     1
 10
0.0
 20
0.0
 30
0.0
  3
*D18
  1

  0
LINE
  5
7FD3
330
7DD1
100
AcDbEntity
  8
0
  6
ByBlock
 62
     0
440
 16777216
100
AcDbLine
 10
2830.281548760655
 20
2222.973067976258
 30
0.0
 11
3096.355115351566
 21
2222.973067976258
 31
0.0
  0
LINE
  5
7FD4
330
7DD1
100
AcDbEntity
  8
0
  6
ByBlock
 62
     0
440
 16777216
100
AcDbLine
 10
2830.281548760655
 20
2177.973067976258
 30
0.0
 11
3096.355115351566
 21
2177.973067976258
 31
0.0
  0
LINE
  5
7FD5
330
7DD1
100
AcDbEntity
  8
0
  6
ByBlock
 62
     0
440
 16777216
100
AcDbLine
 10
3066.355115351566
 20
2282.973067976258
 30
0.0
 11
3066.355115351566
 21
2342.973067976258
 31
0.0
  0
LINE
  5
7FD6
330
7DD1
100
AcDbEntity
  8
0
  6
ByBlock
 62
     0
440
 16777216
100
AcDbLine
 10
3066.355115351566
 20
2117.973067976258
 30
0.0
 11
3066.355115351566
 21
2057.973067976258
 31
0.0
  0
MTEXT
  5
7FD7
330
7DD1
100
AcDbEntity
  8
0
  6
ByBlock
 62
     0
440
 16777216
100
AcDbMText
 10
3184.57114629959
 20
2259.492802873239
 30
0.0
 40
90.0
 41
0.0
 46
0.0
 71
     5
 72
     5
  1
\A1;(45)
 11
0.0
 21
1.0
 31
0.0
 73
     1
 44
1.0
  0
LINE
  5
7FD8
330
7DD1
100
AcDbEntity
  8
0
  6
ByBlock
 62
     0
440
 16777216
100
AcDbLine
 10
3066.355115351566
 20
2222.973067976258
 30
0.0
 11
3066.355115351566
 21
2177.973067976258
 31
0.0
  0
INSERT
  5
7FD9
330
7DD1
100
AcDbEntity
  8
0
  6
ByBlock
 62
     0
440
 16777216
100
AcDbBlockReference
  2
_OPEN
 10
3066.355115351566
 20
2222.973067976258
 30
0.0
 41
60.0
 42
60.0
 43
60.0
 50
270.0
  0
INSERT
  5
7FDA
330
7DD1
100
AcDbEntity
  8
0
  6
ByBlock
 62
     0
440
 16777216
100
AcDbBlockReference
  2
_DOT
 10
3066.355115351566
 20
2177.973067976258
 30
0.0
 41
60.0
 42
60.0
 43
60.0
 50
90.0
  0
POINT
  5
7FDB
330
7DD1
100
AcDbEntity
  8
DEFPOINTS
  6
ByBlock
 62
     0
440
 16777216
100
AcDbPoint
 10
2815.281548760655
 20
2222.973067976258
 30
0.0
  0
POINT
  5
7FDC
330
7DD1
100
AcDbEntity
  8
DEFPOINTS
  6
ByBlock
 62
     0
440
 16777216
100
AcDbPoint
 10
2815.281548760655
 20
2177.973067976258
 30
0.0
  0
POINT
  5
7FDD
330
7DD1
100
AcDbEntity
  8
DEFPOINTS
  6
ByBlock
 62
     0
440
 16777216
100
AcDbPoint
 10
3066.355115351566
 20
2177.973067976258
 30
0.0
  0
ENDBLK
  5
7FDE
330
7DD1
100
AcDbEntity
  8
0
100
AcDbBlockEnd
  0
BLOCK
  5
7FC5
330
7DDE
100
AcDbEntity
  8
0
100
AcDbBlockBegin
  2
*D19
 70
     1
 10
0.0
 20
0.0
 30
0.0
  3
*D19
  1

  0
LINE
  5
8069
330
7DDE
100
AcDbEntity
  8
3
 62
     0
440
 16777216
100
AcDbLine
 10
2830.281548760655
 20
2177.973067976258
 30
0.0
 11
3096.268902390569
 21
2177.973067976258
 31
0.0
  0
LINE
  5
806A
330
7DDE
100
AcDbEntity
  8
3
 62
     0
440
 16777216
100
AcDbLine
 10
2830.281548760655
 20
2112.973067976258
 30
0.0
 11
3096.268902390569
 21
2112.973067976257
 31
0.0
  0
LINE
  5
806B
330
7DDE
100
AcDbEntity
  8
3
 62
     0
440
 16777216
100
AcDbLine
 10
3066.268902390569
 20
2237.973067976258
 30
0.0
 11
3066.268902390569
 21
2297.973067976258
 31
0.0
  0
LINE
  5
806C
330
7DDE
100
AcDbEntity
  8
3
 62
     0
440
 16777216
100
AcDbLine
 10
3066.268902390569
 20
2052.973067976258
 30
0.0
 11
3066.268902390569
 21
1787.258782261972
 31
0.0
  0
LINE
  5
806D
330
7DDE
100
AcDbEntity
  8
3
 62
     0
440
 16777216
100
AcDbLine
 10
3066.268902390569
 20
2177.973067976258
 30
0.0
 11
3066.268902390569
 21
2112.973067976258
 31
0.0
  0
INSERT
  5
806E
330
7DDE
100
AcDbEntity
  8
3
 62
     0
440
 16777216
100
AcDbBlockReference
  2
_DOT
 10
3066.268902390569
 20
2177.973067976258
 30
0.0
 41
60.0
 42
60.0
 43
60.0
 50
270.0
  0
INSERT
  5
806F
330
7DDE
100
AcDbEntity
  8
3
 62
     0
440
 16777216
100
AcDbBlockReference
  2
_OPEN
 10
3066.268902390569
 20
2112.973067976258
 30
0.0
 41
60.0
 42
60.0
 43
60.0
 50
90.0
  0
MTEXT
  5
8070
330
7DDE
100
AcDbEntity
  8
3
 62
     0
440
 16777216
100
AcDbMText
 10
2991.268902390568
 20
1890.115925119115
 30
0.0
 40
90.0
 41
0.0
 46
0.0
 71
     5
 72
     5
  1
\A1;65
 11
0.0000000000000001
 21
1.0
 31
0.0
 73
     1
 44
1.0
  0
POINT
  5
8071
330
7DDE
100
AcDbEntity
  8
DEFPOINTS
 62
     0
440
 16777216
100
AcDbPoint
 10
2815.281548760655
 20
2177.973067976258
 30
0.0
  0
POINT
  5
8072
330
7DDE
100
AcDbEntity
  8
DEFPOINTS
 62
     0
440
 16777216
100
AcDbPoint
 10
2815.281548760655
 20
2112.973067976258
 30
0.0
  0
POINT
  5
8073
330
7DDE
100
AcDbEntity
  8
DEFPOINTS
 62
     0
440
 16777216
100
AcDbPoint
 10
3066.268902390569
 20
2112.973067976258
 30
0.0
  0
ENDBLK
  5
7FD1
330
7DDE
100
AcDbEntity
  8
0
100
AcDbBlockEnd
  0
BLOCK
  5
7FA7
330
7FA1
100
AcDbEntity
  8
0
100
AcDbBlockBegin
  2
_DOT
 70
     0
 10
0.0
 20
0.0
 30
0.0
  3
_DOT
  1

  0
LWPOLYLINE
  5
7FA2
330
7FA1
100
AcDbEntity
  8
0
  6
ByBlock
 62
     0
100
AcDbPolyline
 90
        2
 70
     1
 43
0.25
 10
-0.125
 20
0.0
 42
1.0
 10
0.125
 20
0.0
 42
1.0
  0
LINE
  5
7FA6
330
7FA1
100
AcDbEntity
  8
0
  6
ByBlock
 62
     0
100
AcDbLine
 10
-0.25
 20
0.0
 30
0.0
 11
-1.0
 21
0.0
 31
0.0
  0
ENDBLK
  5
7FA8
330
7FA1
100
AcDbEntity
  8
0
100
AcDbBlockEnd
  0
BLOCK
  5
801F
330
801E
100
AcDbEntity
  8
0
100
AcDbBlockBegin
  2
*D23
 70
     1
 10
0.0
 20
0.0
 30
0.0
  3
*D23
  1

  0
LINE
  5
8020
330
801E
100
AcDbEntity
  8
0
  6
ByBlock
 62
     0
440
 16777216
100
AcDbLine
 10
2276.781548760653
 20
3662.973067976258
 30
0.0
 11
3313.190465164993
 21
3662.973067976258
 31
0.0
  0
LINE
  5
8021
330
801E
100
AcDbEntity
  8
0
  6
ByBlock
 62
     0
440
 16777216
100
AcDbLine
 10
2830.281548760655
 20
2112.973067976258
 30
0.0
 11
3313.190465164993
 21
2112.973067976258
 31
0.0
  0
LINE
  5
8022
330
801E
100
AcDbEntity
  8
0
  6
ByBlock
 62
     0
440
 16777216
100
AcDbLine
 10
3283.190465164993
 20
3602.973067976258
 30
0.0
 11
3283.190465164993
 21
2172.973067976258
 31
0.0
  0
INSERT
  5
8023
330
801E
100
AcDbEntity
  8
0
  6
ByBlock
 62
     0
440
 16777216
100
AcDbBlockReference
  2
_OPEN
 10
3283.190465164993
 20
3662.973067976258
 30
0.0
 41
60.0
 42
60.0
 43
60.0
 50
90.0
  0
INSERT
  5
8024
330
801E
100
AcDbEntity
  8
0
  6
ByBlock
 62
     0
440
 16777216
100
AcDbBlockReference
  2
_OPEN
 10
3283.190465164993
 20
2112.973067976258
 30
0.0
 41
60.0
 42
60.0
 43
60.0
 50
270.0
  0
MTEXT
  5
8025
330
801E
100
AcDbEntity
  8
0
  6
ByBlock
 62
     0
440
 16777216
100
AcDbMText
 10
3184.619036593565
 20
2887.973067976258
 30
0.0
 40
90.0
 41
0.0
 46
0.0
 71
     5
 72
     5
  1
\A1;(1550)
 11
0.0
 21
1.0
 31
0.0
 73
     1
 44
1.0
  0
POINT
  5
8026
330
801E
100
AcDbEntity
  8
DEFPOINTS
  6
ByBlock
 62
     0
440
 16777216
100
AcDbPoint
 10
2261.781548760653
 20
3662.973067976258
 30
0.0
  0
POINT
  5
8027
330
801E
100
AcDbEntity
  8
DEFPOINTS
  6
ByBlock
 62
     0
440
 16777216
100
AcDbPoint
 10
2815.281548760655
 20
2112.973067976258
 30
0.0
  0
POINT
  5
8028
330
801E
100
AcDbEntity
  8
DEFPOINTS
  6
ByBlock
 62
     0
440
 16777216
100
AcDbPoint
 10
3283.190465164993
 20
2112.973067976258
 30
0.0
  0
ENDBLK
  5
8029
330
801E
100
AcDbEntity
  8
0
100
AcDbBlockEnd
  0
BLOCK
  5
80DD
330
80DC
100
AcDbEntity
  8
0
100
AcDbBlockBegin
  2
*D24
 70
     1
 10
0.0
 20
0.0
 30
0.0
  3
*D24
  1

  0
LINE
  5
8107
330
80DC
100
AcDbEntity
  8
3
 62
     0
440
 16777216
370
    -2
100
AcDbLine
 10
3960.099076986531
 20
3277.973067976258
 30
0.0
 11
3960.099076986531
 21
4142.37726984443
 31
0.0
  0
LINE
  5
8108
330
80DC
100
AcDbEntity
  8
3
 62
     0
440
 16777216
370
    -2
100
AcDbLine
 10
4930.099076986532
 20
3916.481835007027
 30
0.0
 11
4930.099076986532
 21
4142.37726984443
 31
0.0
  0
LINE
  5
8109
330
80DC
100
AcDbEntity
  8
3
 62
     0
440
 16777216
370
    -2
100
AcDbLine
 10
4020.099076986531
 20
4112.377269844429
 30
0.0
 11
4870.099076986533
 21
4112.377269844429
 31
0.0
  0
INSERT
  5
810A
330
80DC
100
AcDbEntity
  8
3
 62
     0
440
 16777216
370
    -2
100
AcDbBlockReference
  2
_OPEN
 10
3960.099076986531
 20
4112.377269844429
 30
0.0
 41
60.0
 42
60.0
 43
60.0
 50
180.0
  0
INSERT
  5
810B
330
80DC
100
AcDbEntity
  8
3
 62
     0
440
 16777216
370
    -2
100
AcDbBlockReference
  2
_OPEN
 10
4930.099076986532
 20
4112.377269844429
 30
0.0
 41
60.0
 42
60.0
 43
60.0
  0
MTEXT
  5
810C
330
80DC
100
AcDbEntity
  8
3
 62
     0
440
 16777216
100
AcDbMText
 10
4445.099076986532
 20
4210.948698415858
 30
0.0
 40
90.0
 41
0.0
 46
0.0
 71
     5
 72
     1
  1
\A1;(970)
 73
     1
 44
1.0
  0
POINT
  5
810D
330
80DC
100
AcDbEntity
  8
DEFPOINTS
 62
     0
440
 16777216
100
AcDbPoint
 10
3960.099076986531
 20
3262.973067976258
 30
0.0
  0
POINT
  5
810E
330
80DC
100
AcDbEntity
  8
DEFPOINTS
 62
     0
440
 16777216
100
AcDbPoint
 10
4930.099076986532
 20
3901.481835007027
 30
0.0
  0
POINT
  5
810F
330
80DC
100
AcDbEntity
  8
DEFPOINTS
 62
     0
440
 16777216
100
AcDbPoint
 10
4930.099076986532
 20
4112.377269844429
 30
0.0
  0
ENDBLK
  5
80DE
330
80DC
100
AcDbEntity
  8
0
100
AcDbBlockEnd
  0
BLOCK
  5
80EA
330
80E9
100
AcDbEntity
  8
0
100
AcDbBlockBegin
  2
*D25
 70
     1
 10
0.0
 20
0.0
 30
0.0
  3
*D25
  1

  0
LINE
  5
8110
330
80E9
100
AcDbEntity
  8
3
 62
     0
440
 16777216
370
    -2
100
AcDbLine
 10
4930.099076986532
 20
3916.481835007027
 30
0.0
 11
4930.099076986532
 21
4142.37726984443
 31
0.0
  0
LINE
  5
8111
330
80E9
100
AcDbEntity
  8
3
 62
     0
440
 16777216
370
    -2
100
AcDbLine
 10
5649.599076986532
 20
3018.473067976258
 30
0.0
 11
5649.599076986532
 21
4142.37726984443
 31
0.0
  0
LINE
  5
8112
330
80E9
100
AcDbEntity
  8
3
 62
     0
440
 16777216
370
    -2
100
AcDbLine
 10
4990.099076986533
 20
4112.377269844429
 30
0.0
 11
5589.599076986531
 21
4112.377269844429
 31
0.0
  0
INSERT
  5
8113
330
80E9
100
AcDbEntity
  8
3
 62
     0
440
 16777216
370
    -2
100
AcDbBlockReference
  2
_OPEN
 10
4930.099076986532
 20
4112.377269844429
 30
0.0
 41
60.0
 42
60.0
 43
60.0
 50
180.0
  0
INSERT
  5
8114
330
80E9
100
AcDbEntity
  8
3
 62
     0
440
 16777216
370
    -2
100
AcDbBlockReference
  2
_OPEN
 10
5649.599076986532
 20
4112.377269844429
 30
0.0
 41
60.0
 42
60.0
 43
60.0
  0
MTEXT
  5
8115
330
80E9
100
AcDbEntity
  8
3
 62
     0
440
 16777216
100
AcDbMText
 10
5289.849076986532
 20
4210.948698415858
 30
0.0
 40
90.0
 41
0.0
 46
0.0
 71
     5
 72
     1
  1
\A1;(720)
 73
     1
 44
1.0
  0
POINT
  5
8116
330
80E9
100
AcDbEntity
  8
DEFPOINTS
 62
     0
440
 16777216
100
AcDbPoint
 10
4930.099076986532
 20
3901.481835007027
 30
0.0
  0
POINT
  5
8117
330
80E9
100
AcDbEntity
  8
DEFPOINTS
 62
     0
440
 16777216
100
AcDbPoint
 10
5649.599076986532
 20
3003.473067976258
 30
0.0
  0
POINT
  5
8118
330
80E9
100
AcDbEntity
  8
DEFPOINTS
 62
     0
440
 16777216
100
AcDbPoint
 10
5649.599076986532
 20
4112.377269844429
 30
0.0
  0
ENDBLK
  5
80EB
330
80E9
100
AcDbEntity
  8
0
100
AcDbBlockEnd
  0
ENDSEC
  0
SECTION
  2
ENTITIES
  0
LINE
  5
7C13
330
19
100
AcDbEntity
  8
2
100
AcDbLine
 10
2977.873997847872
 20
3042.973067976258
 30
0.0
 11
1247.014605844702
 21
3042.973067976258
 31
0.0
  0
LINE
  5
7C14
330
19
100
AcDbEntity
  8
2
100
AcDbLine
 10
2255.281548760653
 20
3699.228406754804
 30
0.0
 11
2255.281548760653
 21
2112.973067976258
 31
0.0
  0
ARC
  5
7C15
330
19
100
AcDbEntity
  8
1
100
AcDbCircle
 10
2188.281548760653
 20
3109.973067976258
 30
0.0
 40
844.0
100
AcDbArc
 50
184.553152387219
 51
244.5344005700348
  0
ARC
  5
7C16
330
19
100
AcDbEntity
  8
1
100
AcDbCircle
 10
2188.281548760653
 20
2975.973067976258
 30
0.0
 40
710.0
100
AcDbArc
 50
297.8090813280031
 51
5.41484170612945
  0
ARC
  5
7C17
330
19
100
AcDbEntity
  8
1
100
AcDbCircle
 10
2308.781548760653
 20
2989.473067976258
 30
0.0
 40
589.5
100
AcDbArc
 50
5.207036088349515
 51
95.20703608834947
  0
ARC
  5
7C18
330
19
100
AcDbEntity
  8
1
100
AcDbCircle
 10
2308.781548760653
 20
3096.473067976258
 30
0.0
 40
482.5
100
AcDbArc
 50
96.36609398052007
 51
100.6898317069095
  0
LINE
  5
7C19
330
19
100
AcDbEntity
  8
1
100
AcDbLine
 10
1251.781548760653
 20
3662.973067976258
 30
0.0
 11
2261.781548760653
 21
3662.973067976258
 31
0.0
  0
LINE
  5
7C1A
330
19
100
AcDbEntity
  8
1
100
AcDbLine
 10
2219.281548760653
 20
3662.973067976258
 30
0.0
 11
2219.281548760653
 21
3570.599633357275
 31
0.0
  0
LINE
  5
7C1B
330
19
100
AcDbEntity
  8
1
100
AcDbLine
 10
1294.281548760653
 20
3662.973067976258
 30
0.0
 11
1346.945111893689
 21
3042.973067976258
 31
0.0
  0
LINE
  5
7C1C
330
19
100
AcDbEntity
  8
1
100
AcDbLine
 10
1251.781548760653
 20
3662.973067976258
 30
0.0
 11
1251.781548760653
 21
3659.973067976258
 31
0.0
  0
LINE
  5
7C1D
330
19
100
AcDbEntity
  8
1
100
AcDbLine
 10
2261.781548760653
 20
3662.973067976258
 30
0.0
 11
2261.781548760653
 21
3659.973067976258
 31
0.0
  0
LINE
  5
7C1E
330
19
100
AcDbEntity
  8
1
100
AcDbLine
 10
1297.679197995042
 20
3622.973067976258
 30
0.0
 11
2219.281548760653
 21
3622.973067976258
 31
0.0
  0
LINE
  5
7C1F
330
19
100
AcDbEntity
  8
1
100
AcDbLine
 10
1251.781548760653
 20
3659.973067976258
 30
0.0
 11
2261.781548760653
 21
3659.973067976258
 31
0.0
  0
LINE
  5
7C20
330
19
100
AcDbEntity
  8
1
100
AcDbLine
 10
815.2815487606549
 20
2347.973067976258
 30
0.0
 11
815.2815487606549
 21
2222.973067976258
 31
0.0
  0
LINE
  5
7C21
330
19
100
AcDbEntity
  8
1
100
AcDbLine
 10
2815.281548760653
 20
2347.973067976258
 30
0.0
 11
2815.281548760653
 21
2222.973067976258
 31
0.0
  0
LINE
  5
7C22
330
19
100
AcDbEntity
  8
1
100
AcDbLine
 10
815.2815487606549
 20
2222.973067976258
 30
0.0
 11
2815.281548760655
 21
2222.973067976258
 31
0.0
1001
ACAD
1000
ASC_BOUNDS
1002
{
1070
    19
1002
}
  0
LINE
  5
7C23
330
19
100
AcDbEntity
  8
1
100
AcDbLine
 10
815.2815487606549
 20
2347.973067976258
 30
0.0
 11
2815.281548760655
 21
2347.973067976258
 31
0.0
  0
LINE
  5
7C24
330
19
100
AcDbEntity
  8
2
100
AcDbLine
 10
1055.281548760653
 20
2899.567895692115
 30
0.0
 11
1055.281548760653
 21
2112.973067976258
 31
0.0
  0
LINE
  5
7C25
330
19
100
AcDbEntity
  8
2
100
AcDbLine
 10
694.3455806350584
 20
2622.973067976258
 30
0.0
 11
1270.124475214486
 21
2622.973067976258
 31
0.0
  0
LINE
  5
7C26
330
19
100
AcDbEntity
  8
1
100
AcDbLine
 10
4087.799076986532
 20
2347.973067976258
 30
0.0
 11
5588.099076986534
 21
2347.973067976258
 31
0.0
  0
LINE
  5
7C27
330
19
100
AcDbEntity
  8
1
100
AcDbLine
 10
4088.099076986533
 20
2347.973067976258
 30
0.0
 11
4088.099076986533
 21
2222.973067976258
 31
0.0
  0
LINE
  5
7C28
330
19
100
AcDbEntity
  8
1
100
AcDbLine
 10
5588.099076986533
 20
2347.973067976258
 30
0.0
 11
5588.099076986533
 21
2222.973067976258
 31
0.0
  0
LINE
  5
7C29
330
19
100
AcDbEntity
  8
1
100
AcDbLine
 10
5562.099076986533
 20
3662.973067976258
 30
0.0
 11
5562.099076986533
 21
3659.973067976258
 31
0.0
  0
LINE
  5
7C2A
330
19
100
AcDbEntity
  8
2
100
AcDbLine
 10
4039.519978340835
 20
3042.973067976258
 30
0.0
 11
5640.61872474427
 21
3042.973067976258
 31
0.0
  0
LINE
  5
7C2B
330
19
100
AcDbEntity
  8
1
100
AcDbLine
 10
4088.099076986533
 20
2222.973067976258
 30
0.0
 11
5588.099076986533
 21
2222.973067976258
 31
0.0
  0
LINE
  5
7C2C
330
19
100
AcDbEntity
  8
1
100
AcDbLine
 10
4930.099076986532
 20
3894.73307474598
 30
0.0
 11
4930.099076986532
 21
3892.896278065757
 31
0.0
  0
POINT
  5
7C2D
330
19
100
AcDbEntity
  8
1
100
AcDbPoint
 10
1481.449885632861
 20
3042.973067976258
 30
0.0
  0
ARC
  5
7C32
330
19
100
AcDbEntity
  8
1
100
AcDbCircle
 10
1055.281548760653
 20
2622.973067976258
 30
0.0
 40
185.0
100
AcDbArc
 50
287.945251
 51
252.054749
  0
LINE
  5
7C33
330
19
100
AcDbEntity
  8
1
100
AcDbLine
 10
1112.281548760653
 20
2446.973067976258
 30
0.0
 11
998.2815487606531
 21
2446.973067976258
 31
0.0
  0
LINE
  5
7C34
330
19
100
AcDbEntity
  8
1
100
AcDbLine
 10
1217.281548760653
 20
2518.232100976258
 30
0.0
 11
1217.281548760653
 21
2442.973067976258
 31
0.0
  0
LINE
  5
7C35
330
19
100
AcDbEntity
  8
1
100
AcDbLine
 10
1217.281548760653
 20
2518.232100976258
 30
0.0
 11
1210.897576760653
 21
2522.929854976258
 31
0.0
  0
LINE
  5
7C36
330
19
100
AcDbEntity
  8
1
100
AcDbLine
 10
893.281548760653
 20
2518.232100976258
 30
0.0
 11
893.281548760653
 21
2442.973067976258
 31
0.0
  0
LINE
  5
7C37
330
19
100
AcDbEntity
  8
1
100
AcDbLine
 10
893.281548760653
 20
2518.232100976258
 30
0.0
 11
899.6654597606539
 21
2522.929854976258
 31
0.0
  0
LINE
  5
7C38
330
19
100
AcDbEntity
  8
1
100
AcDbLine
 10
830.2815487606531
 20
2387.973067976258
 30
0.0
 11
1280.281548760653
 21
2387.973067976258
 31
0.0
  0
LINE
  5
7C39
330
19
100
AcDbEntity
  8
1
100
AcDbLine
 10
855.2815487606531
 20
2387.973067976258
 30
0.0
 11
855.2815487606531
 21
2347.973067976258
 31
0.0
  0
LINE
  5
7C3A
330
19
100
AcDbEntity
  8
1
100
AcDbLine
 10
1255.281548760653
 20
2387.973067976258
 30
0.0
 11
1255.281548760653
 21
2347.973067976258
 31
0.0
  0
LINE
  5
7C3B
330
19
100
AcDbEntity
  8
1
100
AcDbLine
 10
845.1800103595305
 20
2442.973067976258
 30
0.0
 11
985.281548760653
 21
2442.973067976258
 31
0.0
  0
LINE
  5
7C3C
330
19
100
AcDbEntity
  8
1
100
AcDbLine
 10
1280.281548760653
 20
2387.973067976258
 30
0.0
 11
1265.079232126141
 21
2442.973067976258
 31
0.0
  0
LINE
  5
7C3D
330
19
100
AcDbEntity
  8
1
100
AcDbLine
 10
830.2815487606531
 20
2387.973067976258
 30
0.0
 11
845.1800103595305
 21
2442.973067976258
 31
0.0
  0
LINE
  5
7C3F
330
19
100
AcDbEntity
  8
1
100
AcDbLine
 10
985.281548760653
 20
2432.973067976258
 30
0.0
 11
1125.281548760653
 21
2432.973067976258
 31
0.0
  0
LINE
  5
7C40
330
19
100
AcDbEntity
  8
1
100
AcDbLine
 10
985.281548760653
 20
2442.973067976258
 30
0.0
 11
985.281548760653
 21
2432.973067976258
 31
0.0
  0
LINE
  5
7C41
330
19
100
AcDbEntity
  8
1
100
AcDbLine
 10
1125.281548760653
 20
2442.973067976258
 30
0.0
 11
1125.281548760653
 21
2432.973067976258
 31
0.0
  0
LINE
  5
7C42
330
19
100
AcDbEntity
  8
1
100
AcDbLine
 10
1125.281548760653
 20
2442.973067976258
 30
0.0
 11
1265.079232126141
 21
2442.973067976258
 31
0.0
  0
LINE
  5
7C45
330
19
100
AcDbEntity
  8
1
100
AcDbLine
 10
815.2815487606531
 20
2177.973067976258
 30
0.0
 11
2815.281548760655
 21
2177.973067976258
 31
0.0
1001
ACAD
1000
ASC_BOUNDS
1002
{
1070
    19
1002
}
  0
LINE
  5
7C46
330
19
100
AcDbEntity
  8
1
100
AcDbLine
 10
815.2815487606531
 20
2112.973067976258
 30
0.0
 11
2815.281548760655
 21
2112.973067976258
 31
0.0
  0
LINE
  5
7C47
330
19
100
AcDbEntity
  8
1
100
AcDbLine
 10
815.2815487606531
 20
2177.973067976258
 30
0.0
 11
815.2815487606531
 21
2112.973067976258
 31
0.0
  0
LINE
  5
7C48
330
19
100
AcDbEntity
  8
1
100
AcDbLine
 10
2815.281548760655
 20
2177.973067976258
 30
0.0
 11
2815.281548760655
 21
2112.973067976258
 31
0.0
  0
LINE
  5
7C4A
330
19
100
AcDbEntity
  8
1
100
AcDbLine
 10
4088.099076986533
 20
2177.973067976258
 30
0.0
 11
5588.099076986533
 21
2177.973067976258
 31
0.0
1001
ACAD
1000
ASC_BOUNDS
1002
{
1070
    19
1002
}
  0
LINE
  5
7C4B
330
19
100
AcDbEntity
  8
1
100
AcDbLine
 10
4088.099076986533
 20
2112.973067976258
 30
0.0
 11
5588.099076986533
 21
2112.973067976258
 31
0.0
  0
LINE
  5
7C4C
330
19
100
AcDbEntity
  8
1
100
AcDbLine
 10
4088.099076986533
 20
2177.973067976258
 30
0.0
 11
4088.099076986533
 21
2112.973067976258
 31
0.0
  0
LINE
  5
7C4D
330
19
100
AcDbEntity
  8
1
100
AcDbLine
 10
5588.099076986533
 20
2177.973067976258
 30
0.0
 11
5588.099076986533
 21
2112.973067976258
 31
0.0
  0
DIMENSION
  5
7C4E
330
19
100
AcDbEntity
  8
3
100
AcDbDimension
280
     0
  2
*D1
 10
2255.281548760653
 20
1942.720463526299
 30
0.0
 11
2535.281548760654
 21
2002.720463526299
 31
0.0
 12
1465.29324837507
 22
2615.031115271857
 32
0.0
 70
    32
 71
     5
 42
-1.0
 73
     0
 74
     0
 75
     0
  3
MATSU
100
AcDbAlignedDimension
 13
2815.281548760655
 23
2112.973067976258
 33
0.0
 14
2255.281548760653
 24
2112.973067976258
 34
0.0
100
AcDbRotatedDimension
1001
ACAD
1000
DSTYLE
1002
{
1070
    40
1040
30.0
1002
}
  0
DIMENSION
  5
7C4F
330
19
100
AcDbEntity
  8
3
100
AcDbDimension
280
     0
  2
*D2
 10
2219.281548760653
 20
3812.58817641947
 30
0.0
 11
1756.781548760653
 21
3872.588176419469
 31
0.0
 12
1465.29324837507
 22
2615.031115271857
 32
0.0
 70
    32
 71
     5
 42
-1.0
 73
     0
 74
     0
 75
     0
  3
MATSU
100
AcDbAlignedDimension
 13
1294.281548760653
 23
3662.973067976258
 33
0.0
 14
2219.281548760653
 24
3662.973067976258
 34
0.0
100
AcDbRotatedDimension
1001
ACAD
1000
DSTYLE
1002
{
1070
    40
1040
30.0
1002
}
  0
DIMENSION
  5
7C50
330
19
100
AcDbEntity
  8
3
100
AcDbDimension
280
     0
  2
*D3
 10
2255.281548760653
 20
3981.386869604924
 30
0.0
 11
1774.781548760653
 21
4041.386869604923
 31
0.0
 12
1465.29324837507
 22
2615.031115271857
 32
0.0
 70
    32
 71
     5
 42
-1.0
 73
     0
 74
     0
 75
     0
  3
MATSU
100
AcDbAlignedDimension
 13
1294.281548760653
 23
3662.973067976258
 33
0.0
 14
2255.281548760653
 24
3699.228406754804
 34
0.0
100
AcDbRotatedDimension
1001
ACAD
1000
DSTYLE
1002
{
1070
    40
1040
30.0
1002
}
  0
POINT
  5
7C51
330
19
100
AcDbEntity
  8
1
100
AcDbPoint
 10
2815.281548760655
 20
2177.973067976258
 30
0.0
  0
POINT
  5
7C52
330
19
100
AcDbEntity
  8
1
100
AcDbPoint
 10
2815.281548760655
 20
2112.973067976258
 30
0.0
  0
POINT
  5
7C53
330
19
100
AcDbEntity
  8
1
100
AcDbPoint
 10
2815.281548760655
 20
2177.973067976258
 30
0.0
  0
POINT
  5
7C54
330
19
100
AcDbEntity
  8
1
100
AcDbPoint
 10
2815.281548760653
 20
2222.973067976258
 30
0.0
  0
CIRCLE
  5
7C55
330
19
100
AcDbEntity
  8
1
100
AcDbCircle
 10
1055.281548760653
 20
2622.973067976258
 30
0.0
 40
119.0
  0
LINE
  5
7C56
330
19
100
AcDbEntity
  8
1
100
AcDbLine
 10
5520.099076986532
 20
3662.973067976258
 30
0.0
 11
5520.099076986532
 21
2347.973067976258
 31
0.0
  0
LINE
  5
7C57
330
19
100
AcDbEntity
  8
1
100
AcDbLine
 10
4298.099076986527
 20
3662.973067976258
 30
0.0
 11
4298.099076986527
 21
3659.973067976258
 31
0.0
  0
LINE
  5
7C58
330
19
100
AcDbEntity
  8
1
100
AcDbLine
 10
4340.099076986533
 20
3662.973067976258
 30
0.0
 11
4340.099076986533
 21
2347.973067976258
 31
0.0
  0
DIMENSION
  5
7C59
330
19
100
AcDbEntity
  8
3
100
AcDbDimension
280
     0
  2
*D4
 10
4930.099076986532
 20
1940.29280076434
 30
0.0
 11
4509.099076986532
 21
2000.292800764341
 31
0.0
 12
1465.29324837507
 22
2615.031115271857
 32
0.0
 70
    32
 71
     5
 42
-1.0
 73
     0
 74
     0
 75
     0
  3
MATSU
100
AcDbAlignedDimension
 13
4088.099076986533
 23
2112.973067976258
 33
0.0
 14
4930.099076986532
 24
2112.973067976258
 34
0.0
100
AcDbRotatedDimension
1001
ACAD
1000
DSTYLE
1002
{
1070
    40
1040
30.0
1002
}
  0
DIMENSION
  5
7C5A
330
19
100
AcDbEntity
  8
3
100
AcDbDimension
280
     0
  2
*D5
 10
5588.099076986533
 20
1940.29280076434
 30
0.0
 11
5259.099076986533
 21
2000.292800764341
 31
0.0
 12
1465.29324837507
 22
2615.031115271857
 32
0.0
 70
    32
 71
     5
 42
-1.0
 73
     0
 74
     0
 75
     0
  3
MATSU
100
AcDbAlignedDimension
 13
4930.099076986532
 23
2112.973067976258
 33
0.0
 14
5588.099076986533
 24
2112.973067976258
 34
0.0
100
AcDbRotatedDimension
1001
ACAD
1000
DSTYLE
1002
{
1070
    40
1040
30.0
1002
}
  0
LINE
  5
7C5C
330
19
100
AcDbEntity
  8
1
100
AcDbLine
 10
4212.099076986533
 20
2841.973067976258
 30
0.0
 11
4340.099076986533
 21
2841.973067976258
 31
0.0
  0
LINE
  5
7C5D
330
19
100
AcDbEntity
  8
1
100
AcDbLine
 10
4202.099076986533
 20
2981.973067976258
 30
0.0
 11
4202.099076986534
 21
2851.973067976258
 31
0.0
  0
ARC
  5
7C5E
330
19
100
AcDbEntity
  8
1
100
AcDbCircle
 10
4212.099076986532
 20
2981.973067976258
 30
0.0
 40
10.0
100
AcDbArc
 50
107.4576031237193
 51
180.0000000000003
  0
ARC
  5
7C5F
330
19
100
AcDbEntity
  8
1
100
AcDbCircle
 10
4212.099076986533
 20
2851.973067976258
 30
0.0
 40
10.0
100
AcDbArc
 50
180.0000000000003
 51
270.0
  0
LINE
  5
7C60
330
19
100
AcDbEntity
  8
1
100
AcDbLine
 10
4209.099076986532
 20
3093.773067976258
 30
0.0
 11
4209.099076986532
 21
2991.512459990428
 31
0.0
  0
LINE
  5
7C61
330
19
100
AcDbEntity
  8
1
100
AcDbLine
 10
4209.099076986532
 20
3093.773067976258
 30
0.0
 11
4340.099076986533
 21
3093.773067976258
 31
0.0
  0
LINE
  5
7C62
330
19
100
AcDbEntity
  8
1
100
AcDbLine
 10
5649.599076986532
 20
3003.473067976258
 30
0.0
 11
5649.599076986532
 21
2903.473067976258
 31
0.0
  0
ARC
  5
7C63
330
19
100
AcDbEntity
  8
1
100
AcDbCircle
 10
5639.599076986532
 20
3003.473067976258
 30
0.0
 40
10.0
100
AcDbArc
 50
0.0000000000003257
 51
90.0
  0
ARC
  5
7C64
330
19
100
AcDbEntity
  8
1
100
AcDbCircle
 10
5639.599076986532
 20
2903.473067976258
 30
0.0
 40
10.0
100
AcDbArc
 50
270.0
 51
0.0000000000003257
  0
LINE
  5
7C65
330
19
100
AcDbEntity
  8
1
100
AcDbLine
 10
5520.099076986532
 20
2893.473067976258
 30
0.0
 11
5639.599076986532
 21
2893.473067976258
 31
0.0
  0
LINE
  5
7C66
330
19
100
AcDbEntity
  8
1
100
AcDbLine
 10
5520.099076986532
 20
3013.473067976258
 30
0.0
 11
5639.599076986532
 21
3013.473067976258
 31
0.0
  0
LINE
  5
7C67
330
19
100
AcDbEntity
  8
1
100
AcDbLine
 10
4182.099076986533
 20
3077.973067976258
 30
0.0
 11
4182.099076986533
 21
3007.973067976258
 31
0.0
  0
LINE
  5
7C68
330
19
100
AcDbEntity
  8
1
100
AcDbLine
 10
4177.099076986532
 20
3070.473067976258
 30
0.0
 11
4182.099076986533
 21
3070.473067976258
 31
0.0
  0
LINE
  5
7C69
330
19
100
AcDbEntity
  8
1
100
AcDbLine
 10
4177.099076986532
 20
3015.473067976258
 30
0.0
 11
4182.099076986533
 21
3015.473067976258
 31
0.0
  0
LINE
  5
7C6A
330
19
100
AcDbEntity
  8
1
100
AcDbLine
 10
4182.099076986533
 20
3077.973067976258
 30
0.0
 11
4209.099076986532
 21
3077.973067976258
 31
0.0
  0
LINE
  5
7C6B
330
19
100
AcDbEntity
  8
1
100
AcDbLine
 10
4182.099076986533
 20
3007.973067976258
 30
0.0
 11
4209.099076986532
 21
3007.973067976258
 31
0.0
  0
LINE
  5
7C6C
330
19
100
AcDbEntity
  8
1
100
AcDbLine
 10
4067.099076986534
 20
3161.973067976258
 30
0.0
 11
4177.099076986534
 21
3161.973067976258
 31
0.0
  0
LINE
  5
7C6D
330
19
100
AcDbEntity
  8
1
100
AcDbLine
 10
4067.099076986531
 20
2923.973067976258
 30
0.0
 11
4177.099076986531
 21
2923.973067976258
 31
0.0
  0
LINE
  5
7C6E
330
19
100
AcDbEntity
  8
1
100
AcDbLine
 10
4067.099076986534
 20
3161.973067976258
 30
0.0
 11
4067.099076986528
 21
2503.973067976258
 31
0.0
  0
LINE
  5
7C6F
330
19
100
AcDbEntity
  8
1
100
AcDbLine
 10
4177.099076986534
 20
3161.973067976258
 30
0.0
 11
4177.099076986528
 21
2503.973067976258
 31
0.0
  0
LINE
  5
7C70
330
19
100
AcDbEntity
  8
2
100
AcDbLine
 10
3960.099076986535
 20
2622.973067976258
 30
0.0
 11
4340.099076986533
 21
2622.973067976258
 31
0.0
  0
LINE
  5
7C71
330
19
100
AcDbEntity
  8
1
100
AcDbLine
 10
4067.099076986531
 20
2741.973067976258
 30
0.0
 11
4177.099076986531
 21
2741.973067976258
 31
0.0
  0
LINE
  5
7C72
330
19
100
AcDbEntity
  8
1
100
AcDbLine
 10
4067.099076986528
 20
2503.973067976258
 30
0.0
 11
4177.099076986529
 21
2503.973067976258
 31
0.0
  0
LINE
  5
7C73
330
19
100
AcDbEntity
  8
1
100
AcDbLine
 10
3960.099076986531
 20
3262.973067976258
 30
0.0
 11
3960.099076986537
 21
2402.973067976258
 31
0.0
  0
LINE
  5
7C74
330
19
100
AcDbEntity
  8
1
100
AcDbLine
 10
3960.099076986531
 20
3262.973067976258
 30
0.0
 11
4202.099076986532
 21
3262.973067976258
 31
0.0
  0
LINE
  5
7C75
330
19
100
AcDbEntity
  8
1
100
AcDbLine
 10
3960.099076986536
 20
2402.973067976258
 30
0.0
 11
4202.099076986536
 21
2402.973067976258
 31
0.0
  0
LINE
  5
7C76
330
19
100
AcDbEntity
  8
1
100
AcDbLine
 10
4202.099076986531
 20
3262.97306797626
 30
0.0
 11
4202.099076986532
 21
3242.973067976258
 31
0.0
  0
LINE
  5
7C77
330
19
100
AcDbEntity
  8
1
100
AcDbLine
 10
4202.099076986535
 20
2422.973067976258
 30
0.0
 11
4202.099076986535
 21
2402.973067976259
 31
0.0
  0
ARC
  5
7C78
330
19
100
AcDbEntity
  8
1
100
AcDbCircle
 10
2255.281548760653
 20
3042.973067976258
 30
0.0
 40
450.0
100
AcDbArc
 50
245.3056313963424
 51
294.6943686036576
  0
ARC
  5
7C79
330
19
100
AcDbEntity
  8
1
100
AcDbCircle
 10
2255.281548760653
 20
3042.973067976258
 30
0.0
 40
490.0
100
AcDbArc
 50
247.4385877197119
 51
292.5614122802881
  0
CIRCLE
  5
7C7A
330
19
100
AcDbEntity
  8
1
100
AcDbCircle
 10
2255.281548760653
 20
3042.973067976258
 30
0.0
 40
119.0
  0
ARC
  5
7C7B
330
19
100
AcDbEntity
  8
1
100
AcDbCircle
 10
2255.281548760653
 20
3042.973067976258
 30
0.0
 40
450.0
100
AcDbArc
 50
296.3877999612431
 51
0.0
  0
ARC
  5
7C7C
330
19
100
AcDbEntity
  8
1
100
AcDbCircle
 10
2255.281548760653
 20
3042.973067976258
 30
0.0
 40
490.0
100
AcDbArc
 50
294.0895061117806
 51
0.0
  0
ARC
  5
7C7D
330
19
100
AcDbEntity
  8
1
100
AcDbCircle
 10
2255.281548760653
 20
3042.973067976258
 30
0.0
 40
490.0
100
AcDbArc
 50
0.0
 51
180.0
  0
ARC
  5
7C7E
330
19
100
AcDbEntity
  8
1
100
AcDbCircle
 10
2255.281548760653
 20
3042.973067976258
 30
0.0
 40
450.0
100
AcDbArc
 50
0.0
 51
180.0
  0
ARC
  5
7C7F
330
19
100
AcDbEntity
  8
1
100
AcDbCircle
 10
2255.281548760653
 20
3042.973067976258
 30
0.0
 40
450.0
100
AcDbArc
 50
180.0
 51
243.612200038757
  0
ARC
  5
7C80
330
19
100
AcDbEntity
  8
1
100
AcDbCircle
 10
2255.281548760653
 20
3042.973067976258
 30
0.0
 40
490.0
100
AcDbArc
 50
180.0
 51
245.9104938882195
  0
POINT
  5
7C81
330
19
100
AcDbEntity
  8
1
100
AcDbPoint
 10
5649.599076986532
 20
3003.473067976258
 30
0.0
  0
DIMENSION
  5
7C82
330
19
100
AcDbEntity
  8
3
100
AcDbDimension
280
     0
  2
*D6
 10
5811.932627976807
 20
3492.973067976258
 30
0.0
 11
5751.932627976806
 21
3042.973067976258
 31
0.0
 12
1465.29324837507
 22
2615.031115271857
 32
0.0
 70
    32
  1
φ<>
 71
     5
 42
-1.0
 73
     0
 74
     0
 75
     0
  3
MATSU
100
AcDbAlignedDimension
 13
5525.599076986533
 23
2592.973067976258
 33
0.0
 14
5525.599076986533
 24
3492.973067976258
 34
0.0
 50
90.0
100
AcDbRotatedDimension
1001
ACAD
1000
DSTYLE
1002
{
1070
    40
1040
30.0
1002
}
  0
DIMENSION
  5
7C83
330
19
100
AcDbEntity
  8
3
100
AcDbDimension
280
     0
  2
*D7
 10
2255.281548760653
 20
1942.804619403485
 30
0.0
 11
1535.281548760653
 21
2002.804619403485
 31
0.0
 12
1465.29324837507
 22
2615.031115271857
 32
0.0
 70
    32
 71
     5
 42
-1.0
 73
     0
 74
     0
 75
     0
  3
MATSU
100
AcDbAlignedDimension
 13
815.2815487606531
 23
2112.973067976258
 33
0.0
 14
2255.281548760653
 24
2112.973067976258
 34
0.0
100
AcDbRotatedDimension
1001
ACAD
1000
DSTYLE
1002
{
1070
    40
1040
30.0
1002
}
  0
LINE
  5
7C85
330
19
100
AcDbEntity
  8
1
100
AcDbLine
 10
2805.281548760653
 20
3322.973067976259
 30
0.0
 11
2796.281548760653
 21
3322.973067976259
 31
0.0
  0
ARC
  5
7C86
330
19
100
AcDbEntity
  8
1
100
AcDbCircle
 10
2255.281548760653
 20
3042.973067976258
 30
0.0
 40
220.0
100
AcDbArc
 50
289.2900462191887
 51
109.2900462191887
  0
ARC
  5
7C87
330
19
100
AcDbEntity
  8
1
100
AcDbCircle
 10
1055.281548760653
 20
2622.973067976258
 30
0.0
 40
220.0
100
AcDbArc
 50
109.2900462191887
 51
289.2900462191887
  0
LINE
  5
7C88
330
19
100
AcDbEntity
  8
1
100
AcDbLine
 10
2215.969848218009
 20
3155.292212383815
 30
0.0
 11
1015.969848218008
 21
2735.292212383814
 31
0.0
  0
LINE
  5
7C89
330
19
100
AcDbEntity
  8
1
100
AcDbLine
 10
2294.593249303298
 20
2930.653923568702
 30
0.0
 11
1094.593249303298
 21
2510.653923568702
 31
0.0
  0
LINE
  5
7C8A
330
19
100
AcDbEntity
  8
1
100
AcDbLine
 10
2327.958642200836
 20
2835.324229575734
 30
0.0
 11
1127.958642200837
 21
2415.324229575734
 31
0.0
  0
LINE
  5
7C8B
330
19
100
AcDbEntity
  8
1
100
AcDbLine
 10
4298.099076986527
 20
3662.973067976258
 30
0.0
 11
5562.099076986533
 21
3662.973067976258
 31
0.0
  0
LINE
  5
7C8C
330
19
100
AcDbEntity
  8
1
100
AcDbLine
 10
4340.099076986533
 20
3622.973067976258
 30
0.0
 11
5520.099076986532
 21
3622.973067976258
 31
0.0
  0
LINE
  5
7C8D
330
19
100
AcDbEntity
  8
1
100
AcDbLine
 10
4298.099076986527
 20
3659.973067976258
 30
0.0
 11
5562.099076986533
 21
3659.973067976258
 31
0.0
  0
DIMENSION
  5
7C8E
330
19
100
AcDbEntity
  8
3
100
AcDbDimension
280
     0
  2
*D8
 10
3066.268902390569
 20
3042.973067976258
 30
0.0
 11
3006.268902390569
 21
3352.973067976258
 31
0.0
 12
1465.29324837507
 22
2615.031115271857
 32
0.0
 70
    32
 71
     5
 42
-1.0
 73
     0
 74
     0
 75
     0
  3
MATSU
100
AcDbAlignedDimension
 13
2261.781548760653
 23
3662.973067976258
 33
0.0
 14
2977.873997847872
 24
3042.973067976258
 34
0.0
 50
270.0
100
AcDbRotatedDimension
1001
ACAD
1000
DSTYLE
1002
{
1070
    40
1040
30.0
1002
}
  0
DIMENSION
  5
7C8F
330
19
100
AcDbEntity
  8
3
100
AcDbDimension
280
     0
  2
*D9
 10
3066.268902390569
 20
2222.973067976258
 30
0.0
 11
3006.268902390569
 21
2632.973067976258
 31
0.0
 12
1465.29324837507
 22
2615.031115271857
 32
0.0
 70
    32
 71
     5
 42
-1.0
 73
     0
 74
     0
 75
     0
  3
MATSU
100
AcDbAlignedDimension
 13
2977.873997847872
 23
3042.973067976258
 33
0.0
 14
2815.281548760655
 24
2222.973067976258
 34
0.0
 50
270.0
100
AcDbRotatedDimension
1001
ACAD
1000
DSTYLE
1002
{
1070
    40
1040
30.0
1002
}
  0
POINT
  5
7C90
330
19
100
AcDbEntity
  8
1
100
AcDbPoint
 10
2815.281548760655
 20
2177.973067976258
 30
0.0
  0
POINT
  5
7C91
330
19
100
AcDbEntity
  8
1
100
AcDbPoint
 10
2815.281548760655
 20
2112.973067976258
 30
0.0
  0
POINT
  5
7C92
330
19
100
AcDbEntity
  8
1
100
AcDbPoint
 10
3066.919980808779
 20
2112.973067976258
 30
0.0
  0
POINT
  5
7C93
330
19
100
AcDbEntity
  8
1
100
AcDbPoint
 10
2815.281548760655
 20
2177.973067976258
 30
0.0
  0
POINT
  5
7C94
330
19
100
AcDbEntity
  8
1
100
AcDbPoint
 10
2815.281548760653
 20
2222.973067976258
 30
0.0
  0
DIMENSION
  5
7C95
330
19
100
AcDbEntity
  8
3
100
AcDbDimension
280
     0
  2
*D10
 10
5520.099076986532
 20
3796.481835007027
 30
0.0
 11
4930.099076986532
 21
3856.481835007027
 31
0.0
 12
1465.29324837507
 22
2615.031115271857
 32
0.0
 70
    32
 71
     5
 42
-1.0
 73
     0
 74
     0
 75
     0
  3
MATSU
100
AcDbAlignedDimension
 13
4340.099076986533
 23
3662.973067976258
 33
0.0
 14
5520.099076986532
 24
3662.973067976258
 34
0.0
100
AcDbRotatedDimension
1001
ACAD
1000
DSTYLE
1002
{
1070
    40
1040
30.0
1002
}
  0
POINT
  5
7C97
330
19
100
AcDbEntity
  8
1
100
AcDbPoint
 10
5649.599076986532
 20
3003.473067976258
 30
0.0
  0
POINT
  5
7C99
330
19
100
AcDbEntity
  8
1
100
AcDbPoint
 10
4930.099076986532
 20
3808.880614431606
 30
0.0
  0
LINE
  5
7C9B
330
19
100
AcDbEntity
  8
1
100
AcDbLine
 10
2182.60445532047
 20
3250.621906376782
 30
0.0
 11
982.6044553204697
 21
2830.621906376782
 31
0.0
  0
LINE
  5
7C9C
330
19
100
AcDbEntity
  8
1
100
AcDbLine
 10
1294.281548760655
 20
6281.040517381949
 30
0.0
 11
2898.281548760654
 21
6281.040517381949
 31
0.0
  0
LINE
  5
7C9D
330
19
100
AcDbEntity
  8
1
100
AcDbLine
 10
1294.281548760655
 20
5101.040517381949
 30
0.0
 11
2898.281548760655
 21
5101.040517381949
 31
0.0
  0
LINE
  5
7C9E
330
19
100
AcDbEntity
  8
1
100
AcDbLine
 10
2898.281548760655
 20
5101.040517381949
 30
0.0
 11
2898.281548760655
 21
6281.040517381949
 31
0.0
  0
LINE
  5
7C9F
330
19
100
AcDbEntity
  8
1
100
AcDbLine
 10
1294.281548760655
 20
5101.040517381949
 30
0.0
 11
1294.281548760655
 21
6281.040517381949
 31
0.0
  0
LINE
  5
7CA0
330
19
100
AcDbEntity
  8
1
100
AcDbLine
 10
2219.281548760655
 20
5101.040517381949
 30
0.0
 11
2219.281548760655
 21
6281.040517381949
 31
0.0
  0
LINE
  5
7CA1
330
19
100
AcDbEntity
  8
1
100
AcDbLine
 10
2219.281548760655
 20
6281.040517381949
 30
0.0
 11
1294.281548760655
 21
5101.040517381949
 31
0.0
  0
LINE
  5
7CA2
330
19
100
AcDbEntity
  8
1
100
AcDbLine
 10
1294.281548760655
 20
6281.040517381949
 30
0.0
 11
2219.281548760655
 21
5101.040517381949
 31
0.0
  0
LINE
  5
7CA3
330
19
100
AcDbEntity
  8
1
100
AcDbLine
 10
4209.099076986532
 20
2991.512459990428
 30
0.0
 11
4340.099076986533
 21
2991.512459990428
 31
0.0
  0
LINE
  5
7CA4
330
19
100
AcDbEntity
  8
1
100
AcDbLine
 10
835.281548760653
 20
4921.040517381949
 30
0.0
 11
2475.281548760654
 21
4921.040517381949
 31
0.0
  0
LINE
  5
7CA5
330
19
100
AcDbEntity
  8
1
100
AcDbLine
 10
835.281548760653
 20
4721.040517381949
 30
0.0
 11
2475.281548760654
 21
4721.040517381949
 31
0.0
  0
DIMENSION
  5
7CA6
330
19
100
AcDbEntity
  8
3
100
AcDbDimension
280
     0
  2
*D11
 10
2815.281548760655
 20
4453.001092962631
 30
0.0
 11
1815.281548760654
 21
4453.001092962631
 31
0.0
 12
1465.29324837507
 22
2314.226106348128
 32
0.0
 70
   160
 71
     5
 42
-1.0
 73
     0
 74
     0
 75
     0
  3
MATSU
100
AcDbAlignedDimension
 13
815.2815487606531
 23
4849.040517381949
 33
0.0
 14
2815.281548760655
 24
4849.040517381949
 34
0.0
100
AcDbRotatedDimension
1001
ACAD
1000
DSTYLE
1002
{
1070
    40
1040
30.0
1002
}
  0
DIMENSION
  5
7CA7
330
19
100
AcDbEntity
  8
3
100
AcDbDimension
280
     0
  2
*D12
 10
1695.281548760655
 20
6647.123072976936
 30
0.0
 11
1255.281548760654
 21
6707.123072976935
 31
0.0
 12
1465.29324837507
 22
2314.226106348128
 32
0.0
 70
    32
 71
     5
 42
-1.0
 73
     0
 74
     0
 75
     0
  3
MATSU
100
AcDbAlignedDimension
 13
815.2815487606531
 23
5699.040517381948
 33
0.0
 14
1695.281548760655
 24
6349.040517381949
 34
0.0
100
AcDbRotatedDimension
1001
ACAD
1000
DSTYLE
1002
{
1070
    40
1040
30.0
1002
}
  0
LINE
  5
7CA8
330
19
100
AcDbEntity
  8
2
100
AcDbLine
 10
1294.281548760655
 20
5691.040517381949
 30
0.0
 11
2947.365822173404
 21
5691.040517381949
 31
0.0
  0
LINE
  5
7CA9
330
19
100
AcDbEntity
  8
1
100
AcDbLine
 10
815.2815487606531
 20
5699.040517381948
 30
0.0
 11
1294.281548760655
 21
5699.040517381948
 31
0.0
  0
LINE
  5
7CAA
330
19
100
AcDbEntity
  8
1
100
AcDbLine
 10
815.2815487606531
 20
4849.040517381949
 30
0.0
 11
2815.281548760655
 21
4849.040517381949
 31
0.0
  0
LINE
  5
7CAB
330
19
100
AcDbEntity
  8
2
100
AcDbLine
 10
1055.281548760655
 20
4721.040517381949
 30
0.0
 11
1055.281548760655
 21
5462.540517381948
 31
0.0
  0
DIMENSION
  5
7CAC
330
19
100
AcDbEntity
  8
3
100
AcDbDimension
280
     0
  2
*D13
 10
612.3458019410027
 20
4849.040517381949
 30
0.0
 11
552.3458019410027
 21
5274.040517381949
 31
0.0
 70
    32
 71
     5
 42
-1.0
 73
     0
 74
     0
 75
     0
  3
MATSU
100
AcDbAlignedDimension
 13
815.2815487606531
 23
5699.040517381948
 33
0.0
 14
815.2815487606531
 24
4849.040517381949
 34
0.0
 50
90.0
100
AcDbRotatedDimension
1001
ACAD
1000
DSTYLE
1002
{
1070
    40
1040
30.0
1002
}
  0
LINE
  5
7CAD
330
19
100
AcDbEntity
  8
1
100
AcDbLine
 10
936.281548760655
 20
4786.040517381949
 30
0.0
 11
936.281548760655
 21
4896.040517381949
 31
0.0
  0
LINE
  5
7CAE
330
19
100
AcDbEntity
  8
1
100
AcDbLine
 10
1174.281548760655
 20
4786.040517381949
 30
0.0
 11
1174.281548760655
 21
4896.040517381949
 31
0.0
  0
LINE
  5
7CAF
330
19
100
AcDbEntity
  8
1
100
AcDbLine
 10
835.281548760653
 20
4721.040517381949
 30
0.0
 11
835.281548760653
 21
4921.04051738195
 31
0.0
  0
LINE
  5
7CB0
330
19
100
AcDbEntity
  8
1
100
AcDbLine
 10
815.2815487606531
 20
5699.040517381948
 30
0.0
 11
815.2815487606531
 21
4849.040517381949
 31
0.0
  0
LINE
  5
7CB1
330
19
100
AcDbEntity
  8
1
100
AcDbLine
 10
936.281548760655
 20
4786.04051738195
 30
0.0
 11
1174.281548760655
 21
4786.040517381949
 31
0.0
  0
LINE
  5
7CB2
330
19
100
AcDbEntity
  8
1
100
AcDbLine
 10
1082.781548760655
 20
4786.04051738195
 30
0.0
 11
1031.281548760655
 21
4786.04051738195
 31
0.0
  0
LINE
  5
7CB3
330
19
100
AcDbEntity
  8
1
100
AcDbLine
 10
870.2815487606549
 20
5462.54051738195
 30
0.0
 11
1240.281548760655
 21
5462.540517381949
 31
0.0
  0
LINE
  5
7CB4
330
19
100
AcDbEntity
  8
1
100
AcDbLine
 10
1240.281548760655
 20
4906.04051738195
 30
0.0
 11
1055.281548760655
 21
4906.04051738195
 31
0.0
  0
LINE
  5
7CB5
330
19
100
AcDbEntity
  8
1
100
AcDbLine
 10
936.281548760655
 20
4896.040517381949
 30
0.0
 11
1174.281548760655
 21
4896.040517381949
 31
0.0
  0
LINE
  5
7CB6
330
19
100
AcDbEntity
  8
1
100
AcDbLine
 10
870.2815487606549
 20
4906.04051738195
 30
0.0
 11
870.2815487606549
 21
5462.54051738195
 31
0.0
  0
LINE
  5
7CB7
330
19
100
AcDbEntity
  8
1
100
AcDbLine
 10
870.2815487606549
 20
4906.04051738195
 30
0.0
 11
1055.281548760655
 21
4906.04051738195
 31
0.0
  0
LINE
  5
7CB8
330
19
100
AcDbEntity
  8
1
100
AcDbLine
 10
1030.281548760655
 20
4896.04051738195
 30
0.0
 11
1080.281548760655
 21
4896.04051738195
 31
0.0
  0
LINE
  5
7CB9
330
19
100
AcDbEntity
  8
1
100
AcDbLine
 10
1030.281548760655
 20
4896.04051738195
 30
0.0
 11
1030.281548760655
 21
4906.04051738195
 31
0.0
  0
ARC
  5
7CBA
330
19
100
AcDbEntity
  8
1
100
AcDbCircle
 10
992.2815487606548
 20
4908.04051738195
 30
0.0
 40
2.0
100
AcDbArc
 50
180.0
 51
270.0
  0
LINE
  5
7CBB
330
19
100
AcDbEntity
  8
1
100
AcDbLine
 10
990.2815487606549
 20
4921.04051738195
 30
0.0
 11
990.2815487606549
 21
4908.04051738195
 31
0.0
  0
LINE
  5
7CBC
330
19
100
AcDbEntity
  8
1
100
AcDbLine
 10
1080.281548760655
 20
4896.04051738195
 30
0.0
 11
1080.281548760655
 21
4906.04051738195
 31
0.0
  0
LINE
  5
7CBD
330
19
100
AcDbEntity
  8
1
100
AcDbLine
 10
1240.281548760655
 20
4906.04051738195
 30
0.0
 11
1240.281548760655
 21
5462.540517381949
 31
0.0
  0
ARC
  5
7CBE
330
19
100
AcDbEntity
  8
1
100
AcDbCircle
 10
1118.281548760655
 20
4908.04051738195
 30
0.0
 40
2.0
100
AcDbArc
 50
270.0
 51
0.0
  0
LINE
  5
7CBF
330
19
100
AcDbEntity
  8
1
100
AcDbLine
 10
1120.281548760655
 20
4921.04051738195
 30
0.0
 11
1120.281548760655
 21
4908.04051738195
 31
0.0
  0
DIMENSION
  5
7CC0
330
19
100
AcDbEntity
  8
3
100
AcDbDimension
280
     0
  2
*D14
 10
3114.585794990569
 20
4849.040517381949
 30
0.0
 11
3054.58579499057
 21
5599.040517381949
 31
0.0
 70
    32
 71
     5
 42
-1.0
 73
     0
 74
     0
 75
     0
  3
MATSU
100
AcDbAlignedDimension
 13
2815.281548760655
 23
6349.040517381949
 33
0.0
 14
2815.281548760655
 24
4849.040517381949
 34
0.0
 50
90.0
100
AcDbRotatedDimension
1001
ACAD
1000
DSTYLE
1002
{
1070
    40
1040
30.0
1002
}
  0
LINE
  5
7CC1
330
19
100
AcDbEntity
  8
2
100
AcDbLine
 10
2255.281548760655
 20
4721.040517381949
 30
0.0
 11
2255.281548760655
 21
6488.127934114761
 31
0.0
  0
LINE
  5
7CC2
330
19
100
AcDbEntity
  8
1
100
AcDbLine
 10
1695.281548760655
 20
6281.040517381949
 30
0.0
 11
1695.281548760655
 21
6349.040517381949
 31
0.0
  0
LINE
  5
7CC3
330
19
100
AcDbEntity
  8
1
100
AcDbLine
 10
2815.281548760655
 20
4849.040517381949
 30
0.0
 11
2815.281548760655
 21
5101.040517381949
 31
0.0
  0
LINE
  5
7CC4
330
19
100
AcDbEntity
  8
1
100
AcDbLine
 10
2136.281548760655
 20
4786.040517381949
 30
0.0
 11
2136.281548760655
 21
4896.040517381949
 31
0.0
  0
LINE
  5
7CC5
330
19
100
AcDbEntity
  8
1
100
AcDbLine
 10
2374.281548760655
 20
4786.040517381949
 30
0.0
 11
2374.281548760655
 21
4896.040517381949
 31
0.0
  0
LINE
  5
7CC6
330
19
100
AcDbEntity
  8
1
100
AcDbLine
 10
2475.281548760654
 20
4721.04051738195
 30
0.0
 11
2475.281548760654
 21
4921.04051738195
 31
0.0
  0
LINE
  5
7CC7
330
19
100
AcDbEntity
  8
1
100
AcDbLine
 10
2136.281548760655
 20
4786.040517381949
 30
0.0
 11
2374.281548760655
 21
4786.040517381949
 31
0.0
  0
LINE
  5
7CC8
330
19
100
AcDbEntity
  8
1
100
AcDbLine
 10
2136.281548760655
 20
4896.040517381949
 30
0.0
 11
2374.281548760655
 21
4896.040517381949
 31
0.0
  0
LINE
  5
7CC9
330
19
100
AcDbEntity
  8
1
100
AcDbLine
 10
2220.281548760655
 20
4896.040517381949
 30
0.0
 11
2220.281548760655
 21
5101.040517381949
 31
0.0
  0
LINE
  5
7CCA
330
19
100
AcDbEntity
  8
1
100
AcDbLine
 10
2290.281548760655
 20
4896.040517381949
 30
0.0
 11
2290.281548760655
 21
5101.040517381949
 31
0.0
  0
DIMENSION
  5
7CCB
330
19
100
AcDbEntity
  8
3
100
AcDbDimension
280
     0
  2
*D15
 10
2815.281548760655
 20
6647.123072976936
 30
0.0
 11
2255.281548760655
 21
6707.123072976935
 31
0.0
 12
1465.29324837507
 22
2314.226106348128
 32
0.0
 70
    32
 71
     5
 42
-1.0
 73
     0
 74
     0
 75
     0
  3
MATSU
100
AcDbAlignedDimension
 13
1695.281548760655
 23
6349.040517381949
 33
0.0
 14
2815.281548760655
 24
6349.040517381949
 34
0.0
100
AcDbRotatedDimension
1001
ACAD
1000
DSTYLE
1002
{
1070
    40
1040
30.0
1002
}
  0
LINE
  5
7CCC
330
19
100
AcDbEntity
  8
1
100
AcDbLine
 10
1695.281548760655
 20
6349.040517381949
 30
0.0
 11
2815.281548760655
 21
6349.040517381949
 31
0.0
  0
LINE
  5
7CD3
330
19
100
AcDbEntity
  8
1
100
AcDbLine
 10
4187.099076986535
 20
2807.973067976258
 30
0.0
 11
4340.099076986533
 21
2807.973067976258
 31
0.0
  0
LINE
  5
7CD4
330
19
100
AcDbEntity
  8
1
100
AcDbLine
 10
4187.099076986537
 20
2437.973067976258
 30
0.0
 11
4340.099076986533
 21
2437.973067976258
 31
0.0
  0
LINE
  5
7CD5
330
19
100
AcDbEntity
  8
1
100
AcDbLine
 10
4187.099076986535
 20
2807.973067976258
 30
0.0
 11
4187.099076986537
 21
2437.973067976258
 31
0.0
  0
LINE
  5
7CD6
330
19
100
AcDbEntity
  8
1
100
AcDbLine
 10
4177.099076986529
 20
2647.973067976258
 30
0.0
 11
4187.099076986536
 21
2647.973067976258
 31
0.0
  0
LINE
  5
7CD7
330
19
100
AcDbEntity
  8
1
100
AcDbLine
 10
4177.099076986529
 20
2597.973067976258
 30
0.0
 11
4187.099076986536
 21
2597.973067976258
 31
0.0
  0
DIMENSION
  5
7CD8
330
19
100
AcDbEntity
  8
3
100
AcDbDimension
280
     0
  2
*D16
 10
815.2815487606549
 20
4135.857371303354
 30
0.0
 11
1856.781548760654
 21
4195.857371303355
 31
0.0
 12
1465.29324837507
 22
2615.031115271857
 32
0.0
 70
    32
 71
     5
 42
-1.0
 73
     0
 74
     0
 75
     0
  3
MATSU
100
AcDbAlignedDimension
 13
2898.281548760653
 23
2975.973067976258
 33
0.0
 14
815.2815487606549
 24
2347.973067976258
 34
0.0
100
AcDbRotatedDimension
1001
ACAD
1000
DSTYLE
1002
{
1070
    40
1040
30.0
1002
}
  0
DIMENSION
  5
7CD9
330
19
100
AcDbEntity
  8
3
100
AcDbDimension
280
     0
  2
*D17
 10
2898.281548760653
 20
3981.386869604924
 30
0.0
 11
2576.781548760653
 21
4041.386869604923
 31
0.0
 12
1465.29324837507
 22
2615.031115271857
 32
0.0
 70
    32
 71
     5
 42
-1.0
 73
     0
 74
     0
 75
     0
  3
MATSU
100
AcDbAlignedDimension
 13
2255.281548760653
 23
3699.228406754804
 33
0.0
 14
2898.281548760653
 24
2975.973067976258
 34
0.0
100
AcDbRotatedDimension
1001
ACAD
1000
DSTYLE
1002
{
1070
    40
1040
30.0
1002
}
  0
DIMENSION
  5
7CDB
330
19
100
AcDbEntity
  8
3
100
AcDbDimension
280
     0
  2
*D18
 10
3066.355115351566
 20
2177.973067976258
 30
0.0
 11
3184.57114629959
 21
2259.492802873239
 31
0.0
 70
   160
  1
(<>)
 71
     5
 42
-1.0
 73
     0
 74
     0
 75
     0
  3
IGA
100
AcDbAlignedDimension
 13
2815.281548760655
 23
2222.973067976258
 33
0.0
 14
2815.281548760655
 24
2177.973067976258
 34
0.0
 50
90.0
100
AcDbRotatedDimension
1001
ACAD
1000
DSTYLE
1002
{
1070
   288
1070
     1
1070
   172
1070
     1
1070
    40
1040
30.0
1070
   271
1070
     0
1070
     7
1000
_DOT
1070
   143
1040
0.039
1002
}
  0
DIMENSION
  5
7CDC
330
19
100
AcDbEntity
  8
3
100
AcDbDimension
280
     0
  2
*D19
 10
3066.268902390569
 20
2112.973067976258
 30
0.0
 11
2991.268902390568
 21
1890.115925119115
 31
0.0
 70
    32
 71
     5
 42
-1.0
 73
     0
 74
     0
 75
     0
  3
IGA
100
AcDbAlignedDimension
 13
2815.281548760655
 23
2177.973067976258
 33
0.0
 14
2815.281548760655
 24
2112.973067976258
 34
0.0
 50
90.0
100
AcDbRotatedDimension
1001
ACAD
1000
DSTYLE
1002
{
1070
   287
1070
     3
1070
    40
1040
30.0
1070
   143
1040
0.039
1070
   172
1070
     1
1070
   271
1070
     0
1070
   279
1070
     0
1070
   288
1070
     1
1070
     6
1000
DOT
1002
}
  0
LINE
  5
7CDF
330
19
100
AcDbEntity
  8
2
100
AcDbLine
 10
4930.099076986532
 20
3764.119801562345
 30
0.0
 11
4930.099076986532
 21
2112.973067976258
 31
0.0
  0
LINE
  5
7CE0
330
19
100
AcDbEntity
  8
1
100
AcDbLine
 10
2815.281548760655
 20
6281.040517381949
 30
0.0
 11
2815.281548760655
 21
6349.040517381949
 31
0.0
  0
LINE
  5
7F19
330
19
100
AcDbEntity
  8
4
100
AcDbLine
 10
5550.0
 20
1210.115599408855
 30
0.0
 11
5550.0
 21
610.115599408855
 31
0.0
  0
LINE
  5
7F1A
330
19
100
AcDbEntity
  8
4
100
AcDbLine
 10
3450.0
 20
1210.115599408855
 30
0.0
 11
3450.0
 21
610.115599408855
 31
0.0
  0
LINE
  5
7F1B
330
19
100
AcDbEntity
  8
4
100
AcDbLine
 10
1950.0
 20
1210.115599408855
 30
0.0
 11
1950.0
 21
610.115599408855
 31
0.0
  0
LINE
  5
7F1E
330
19
100
AcDbEntity
  8
4
100
AcDbLine
 10
1950.0
 20
610.1155994088549
 30
0.0
 11
5550.0
 21
610.1155994088549
 31
0.0
  0
LINE
  5
7F1F
330
19
100
AcDbEntity
  8
4
100
AcDbLine
 10
1950.0
 20
910.1155994088548
 30
0.0
 11
5550.0
 21
910.1155994088548
 31
0.0
  0
TEXT
  5
7F20
330
19
100
AcDbEntity
  8
4
100
AcDbText
 10
2065.506242540705
 20
1004.744677008693
 30
0.0
 40
150.0
  1
機器名称
100
AcDbText
  0
TEXT
  5
7F21
330
19
100
AcDbEntity
  8
4
100
AcDbText
 10
2058.774318074393
 20
675.0510696048877
 30
0.0
 40
150.0
  1
機器型番
100
AcDbText
  0
TEXT
  5
7F22
330
19
100
AcDbEntity
  8
4
100
AcDbText
 10
3534.535608167871
 20
979.1805084796337
 30
0.0
 40
120.0
  1
ミツヤリミットロードファン
100
AcDbText
  0
TEXT
  5
7F23
330
19
100
AcDbEntity
  8
4
100
AcDbText
 10
3559.963486756442
 20
661.594352248685
 30
0.0
 40
150.0
  1
LL#5 1/2-5
100
AcDbText
  0
TEXT
  5
7F25
330
19
100
AcDbEntity
  8
4
100
AcDbText
 10
2429.213722384906
 20
7150.286523997547
 30
0.0
 40
161.9999999999999
  1
床置防振ベット
100
AcDbText
  0
TEXT
  5
7F26
330
19
100
AcDbEntity
  8
4
100
AcDbText
 10
948.5027799883392
 20
7601.642928597894
 30
0.0
 40
216.0
  1
遠心式両吸込両持リミットロードファン
100
AcDbText
  0
LINE
  5
7F27
330
19
100
AcDbEntity
  8
4
100
AcDbLine
 10
750.0
 20
7408.226262794414
 30
0.0
 11
5550.0
 21
7408.226262794414
 31
0.0
  0
LINE
  5
7F28
330
19
100
AcDbEntity
  8
4
100
AcDbLine
 10
750.0
 20
8008.226262794414
 30
0.0
 11
5550.0
 21
8008.226262794414
 31
0.0
  0
LINE
  5
7F29
330
19
100
AcDbEntity
  8
4
100
AcDbLine
 10
1950.0
 20
1210.115599408855
 30
0.0
 11
5550.0
 21
1210.115599408855
 31
0.0
  0
LINE
  5
7F2A
330
19
100
AcDbEntity
  8
4
100
AcDbLine
 10
750.0
 20
8008.226262794414
 30
0.0
 11
750.0
 21
7408.226262794414
 31
0.0
  0
TEXT
  5
7F2B
330
19
100
AcDbEntity
  8
4
100
AcDbText
 10
1121.637225656799
 20
7146.95843263903
 30
0.0
 40
161.9999999999999
  1
右回転上向
100
AcDbText
  0
TEXT
  5
7F2C
330
19
100
AcDbEntity
  8
4
100
AcDbText
 10
4406.908677747869
 20
8118.183244485926
 30
0.0
 40
168.0
  1
No.
100
AcDbText
  0
TEXT
  5
7F2D
330
19
100
AcDbEntity
  8
4
100
AcDbText
 10
3933.88818780004
 20
7150.286523997547
 30
0.0
 40
161.9999999999999
  1
縮尺：1/30
100
AcDbText
  0
LINE
  5
7F2E
330
19
100
AcDbEntity
  8
4
100
AcDbLine
 10
5550.0
 20
8008.226262794414
 30
0.0
 11
5550.0
 21
7408.226262794414
 31
0.0
  0
LINE
  5
7F2F
330
19
100
AcDbEntity
  8
4
100
AcDbLine
 10
6300.0
 20
8850.0
 30
0.0
 11
6300.0
 21
8850.0
 31
0.0
  0
LINE
  5
7F30
330
19
100
AcDbEntity
  8
4
100
AcDbLine
 10
4321.852267079594
 20
8043.790749376205
 30
0.0
 11
4321.852267079594
 21
8359.956784649257
 31
0.0
  0
LINE
  5
7F31
330
19
100
AcDbEntity
  8
4
100
AcDbLine
 10
4321.852267079594
 20
8359.956784649257
 30
0.0
 11
5550.0
 21
8359.956784649257
 31
0.0
  0
LINE
  5
7F32
330
19
100
AcDbEntity
  8
4
100
AcDbLine
 10
5550.0
 20
8359.956784649257
 30
0.0
 11
5550.0
 21
8043.790749376205
 31
0.0
  0
LINE
  5
7F33
330
19
100
AcDbEntity
  8
4
100
AcDbLine
 10
5550.0
 20
8043.790749376205
 30
0.0
 11
4321.852267079594
 21
8043.790749376205
 31
0.0
  0
LINE
  5
7F34
330
19
100
AcDbEntity
  8
4
100
AcDbLine
 10
0.0
 20
0.0
 30
0.0
 11
0.0
 21
8850.0
 31
0.0
  0
LINE
  5
7F35
330
19
100
AcDbEntity
  8
4
100
AcDbLine
 10
0.0
 20
8850.0
 30
0.0
 11
6300.0
 21
8850.0
 31
0.0
  0
LINE
  5
7F36
330
19
100
AcDbEntity
  8
4
100
AcDbLine
 10
6300.0
 20
8850.0
 30
0.0
 11
6300.0
 21
0.0
 31
0.0
  0
LINE
  5
7F37
330
19
100
AcDbEntity
  8
4
100
AcDbLine
 10
6300.0
 20
0.0
 30
0.0
 11
0.0
 21
0.0
 31
0.0
  0
DIMENSION
  5
802A
330
19
100
AcDbEntity
  8
3
100
AcDbDimension
280
     0
  2
*D23
 10
3283.190465164993
 20
2112.973067976258
 30
0.0
 11
3184.619036593565
 21
2887.973067976258
 31
0.0
 70
    32
 71
     5
 42
-1.0
 73
     0
 74
     0
 75
     0
  3
IGA
100
AcDbAlignedDimension
 13
2261.781548760653
 23
3662.973067976258
 33
0.0
 14
2815.281548760655
 24
2112.973067976258
 34
0.0
 50
90.0
100
AcDbRotatedDimension
1001
ACAD
1000
DSTYLE
1002
{
1070
   172
1070
     1
1070
    40
1040
30.0
1070
     3
1000
(<>)
1070
   271
1070
     0
1070
   143
1040
0.039
1002
}
  0
DIMENSION
  5
80DB
330
19
100
AcDbEntity
  8
3
100
AcDbDimension
280
     0
  2
*D24
 10
4930.099076986532
 20
4112.377269844429
 30
0.0
 11
4445.099076986532
 21
4210.948698415858
 31
0.0
 70
    32
 71
     5
 42
970.0000000000018
 73
     0
 74
     0
 75
     0
  3
IGA
100
AcDbAlignedDimension
 13
3960.099076986531
 23
3262.973067976258
 33
0.0
 14
4930.099076986532
 24
3901.481835007027
 34
0.0
100
AcDbRotatedDimension
1001
ACAD
1000
DSTYLE
1002
{
1070
     3
1000
(<>)
1070
    40
1040
30.0
1070
   143
1040
0.039
1070
   172
1070
     1
1070
   271
1070
     0
1002
}
  0
DIMENSION
  5
80E8
330
19
100
AcDbEntity
  8
3
100
AcDbDimension
280
     0
  2
*D25
 10
5649.599076986532
 20
4112.377269844429
 30
0.0
 11
5289.849076986532
 21
4210.948698415858
 31
0.0
 70
    32
 71
     5
 42
719.4999999999981
 73
     0
 74
     0
 75
     0
  3
IGA
100
AcDbAlignedDimension
 13
4930.099076986532
 23
3901.481835007027
 33
0.0
 14
5649.599076986532
 24
3003.473067976258
 34
0.0
100
AcDbRotatedDimension
1001
ACAD
1000
DSTYLE
1002
{
1070
     3
1000
(<>)
1070
    40
1040
30.0
1070
   143
1040
0.039
1070
   172
1070
     1
1070
   271
1070
     0
1002
}
  0
ENDSEC
  0
SECTION
  2
OBJECTS
  0
DICTIONARY
  5
C
330
0
100
AcDbDictionary
281
     1
  3
ACAD_CIP_PREVIOUS_PRODUCT_INFO
350
80DA
  3
ACAD_COLOR
350
80BD
  3
ACAD_DETAILVIEWSTYLE
350
80D6
  3
ACAD_GROUP
350
D
  3
ACAD_LAYOUT
350
8034
  3
ACAD_MATERIAL
350
808B
  3
ACAD_MLEADERSTYLE
350
80D2
  3
ACAD_MLINESTYLE
350
E
  3
ACAD_PLOTSETTINGS
350
8035
  3
ACAD_PLOTSTYLENAME
350
8032
  3
ACAD_SCALELIST
350
80C0
  3
ACAD_SECTIONVIEWSTYLE
350
80D4
  3
ACAD_TABLESTYLE
350
80BE
  3
ACAD_VISUALSTYLE
350
80A4
  3
ACDB_RECOMPOSE_DATA
350
8142
  3
AcDbVariableDictionary
350
8081
  3
AcDsDecomposeData
350
8148
  0
DICTIONARY
  5
8126
330
2
100
AcDbDictionary
280
     1
281
     1
  3
ACAD_LAYERSTATES
360
8127
  0
DICTIONARY
  5
8119
330
F
100
AcDbDictionary
280
     1
281
     1
  3
ADSK_XREC_LAYER_RECONCILED
360
811A
  0
DICTIONARY
  5
811B
330
31
100
AcDbDictionary
280
     1
281
     1
  3
ADSK_XREC_LAYER_RECONCILED
360
811C
  0
DICTIONARY
  5
811D
330
76D0
100
AcDbDictionary
280
     1
281
     1
  3
ADSK_XREC_LAYER_RECONCILED
360
811E
  0
DICTIONARY
  5
811F
330
76D1
100
AcDbDictionary
280
     1
281
     1
  3
ADSK_XREC_LAYER_RECONCILED
360
8120
  0
DICTIONARY
  5
8121
330
76D2
100
AcDbDictionary
280
     1
281
     1
  3
ADSK_XREC_LAYER_RECONCILED
360
8122
  0
DICTIONARY
  5
8061
330
19
100
AcDbDictionary
280
     1
281
     1
  3
ACAD_LAYOUTSELFREF
360
8062
  0
DICTIONARY
  5
805F
330
16
100
AcDbDictionary
280
     1
281
     1
  3
ACAD_LAYOUTSELFREF
360
8060
  0
XRECORD
  5
80DA
102
{ACAD_REACTORS
330
C
102
}
330
C
100
AcDbXrecord
280
     1
300
ACDLT
300
2023
300

  0
DICTIONARY
  5
80BD
102
{ACAD_REACTORS
330
C
102
}
330
C
100
AcDbDictionary
281
     1
  0
DICTIONARY
  5
80D6
102
{ACAD_REACTORS
330
C
102
}
330
C
100
AcDbDictionary
281
     1
  3
Metric50
350
80D7
  0
DICTIONARY
  5
D
102
{ACAD_REACTORS
330
C
102
}
330
C
100
AcDbDictionary
281
     1
  0
DICTIONARY
  5
8034
102
{ACAD_REACTORS
330
C
102
}
330
C
100
AcDbDictionary
281
     1
  3
Model
350
8036
  3
ﾚｲｱｳﾄ1
350
8037
  0
DICTIONARY
  5
808B
102
{ACAD_REACTORS
330
C
102
}
330
C
100
AcDbDictionary
281
     1
  3
ByBlock
350
8094
  3
ByLayer
350
808C
  3
Global
350
809C
  0
DICTIONARY
  5
80D2
102
{ACAD_REACTORS
330
C
102
}
330
C
100
AcDbDictionary
281
     1
  3
Standard
350
80D3
  0
DICTIONARY
  5
E
102
{ACAD_REACTORS
330
C
102
}
330
C
100
AcDbDictionary
281
     1
  3
STANDARD
350
1C
  0
DICTIONARY
  5
8035
102
{ACAD_REACTORS
330
C
102
}
330
C
100
AcDbDictionary
281
     1
  0
ACDBDICTIONARYWDFLT
  5
8032
102
{ACAD_REACTORS
330
C
102
}
330
C
100
AcDbDictionary
281
     1
  3
Normal
350
8033
100
AcDbDictionaryWithDefault
340
8033
  0
DICTIONARY
  5
80C0
102
{ACAD_REACTORS
330
C
102
}
330
C
100
AcDbDictionary
281
     1
  3
A0
350
80C1
  3
A1
350
80C2
  3
A2
350
80C3
  3
A3
350
80C4
  3
A4
350
80C5
  3
A5
350
80C6
  3
A6
350
80C7
  3
A7
350
80C8
  3
A8
350
80C9
  3
A9
350
80CA
  3
B0
350
80CB
  3
B1
350
80CC
  3
B2
350
80CD
  3
B3
350
80CE
  3
B4
350
80CF
  3
B5
350
80D0
  3
B6
350
80D1
  0
DICTIONARY
  5
80D4
102
{ACAD_REACTORS
330
C
102
}
330
C
100
AcDbDictionary
281
     1
  3
Metric50
350
80D5
  0
DICTIONARY
  5
80BE
102
{ACAD_REACTORS
330
C
102
}
330
C
100
AcDbDictionary
281
     1
  3
Standard
350
80BF
  0
DICTIONARY
  5
80A4
102
{ACAD_REACTORS
330
C
102
}
330
C
100
AcDbDictionary
281
     1
  3
2dWireframe
350
80AA
  3
Basic
350
80A9
  3
Brighten
350
80B0
  3
ColorChange
350
80B4
  3
Conceptual
350
80AD
  3
Dim
350
80AF
  3
EdgeColorOff
350
80BC
  3
Facepattern
350
80B3
  3
Flat
350
80A5
  3
FlatWithEdges
350
80A6
  3
Gouraud
350
80A7
  3
GouraudWithEdges
350
80A8
  3
Hidden
350
80AC
  3
JitterOff
350
80BA
  3
Linepattern
350
80B2
  3
OverhangOff
350
80BB
  3
Realistic
350
80AE
  3
Shaded
350
80B9
  3
Shaded with edges
350
80B8
  3
Shades of Gray
350
80B5
  3
Sketchy
350
80B6
  3
Thicken
350
80B1
  3
Wireframe
350
80AB
  3
X-Ray
350
80B7
  0
XRECORD
  5
8142
102
{ACAD_REACTORS
330
C
102
}
330
C
100
AcDbXrecord
280
     1
 90
        1
330
80BF
  0
DICTIONARY
  5
8081
102
{ACAD_REACTORS
330
C
102
}
330
C
100
AcDbDictionary
281
     1
  3
CANNOSCALE
350
8137
  3
CMLEADERSTYLE
350
8133
  3
CTABLESTYLE
350
8132
  3
CVIEWDETAILSTYLE
350
8134
  3
CVIEWSECTIONSTYLE
350
8135
  3
DIMASSOC
350
8082
  3
LAYEREVAL
350
8139
  3
LAYERNOTIFY
350
813A
  3
LIGHTINGUNITS
350
8138
  3
MARKUPASSISTMODE
350
813F
  3
MSLTSCALE
350
8136
  0
DICTIONARY
  5
8148
102
{ACAD_REACTORS
330
C
102
}
330
C
100
AcDbDictionary
281
     1
  3
AcDsRecords
350
814A
  3
AcDsSchemas
350
8149
1001
ACAD
1070
     2
  0
DICTIONARY
  5
8127
102
{ACAD_REACTORS
330
8126
102
}
330
8126
100
AcDbDictionary
281
     1
  0
XRECORD
  5
811A
102
{ACAD_REACTORS
330
8119
102
}
330
8119
100
AcDbXrecord
280
     1
290
     1
  0
XRECORD
  5
811C
102
{ACAD_REACTORS
330
811B
102
}
330
811B
100
AcDbXrecord
280
     1
290
     1
  0
XRECORD
  5
811E
102
{ACAD_REACTORS
330
811D
102
}
330
811D
100
AcDbXrecord
280
     1
290
     1
  0
XRECORD
  5
8120
102
{ACAD_REACTORS
330
811F
102
}
330
811F
100
AcDbXrecord
280
     1
290
     1
  0
XRECORD
  5
8122
102
{ACAD_REACTORS
330
8121
102
}
330
8121
100
AcDbXrecord
280
     1
290
     1
  0
XRECORD
  5
8062
102
{ACAD_REACTORS
330
8061
102
}
330
8061
100
AcDbXrecord
280
     1
340
19
  0
XRECORD
  5
8060
102
{ACAD_REACTORS
330
805F
102
}
330
805F
100
AcDbXrecord
280
     1
340
16
  0
ACDBDETAILVIEWSTYLE
  5
80D7
102
{ACAD_XDICTIONARY
360
814D
102
}
102
{ACAD_REACTORS
330
80D6
102
}
330
80D6
100
AcDbModelDocViewStyle
 70
     0
  3
Metric50
290
     0
100
AcDbDetailViewStyle
 70
     0
 71
     0
 90
        3
 71
     1
340
10
 62
   256
 40
5.0
340
0
 62
   256
 40
5.0
300

 40
0.0
280
     1
 71
     2
340
15
 90
       25
 62
   256
 71
     3
340
10
 62
   256
 40
5.0
 90
        0
 40
15.0
 90
        1
300
%<\AcVar ViewDetailId>% (%<\AcVar ViewScale \f "%sn">%)
 71
     4
340
15
 90
       25
 62
   256
340
15
 90
       25
 62
   256
280
     0
  0
LAYOUT
  5
8036
102
{ACAD_REACTORS
330
8034
102
}
330
8034
100
AcDbPlotSettings
  1

  2
\\Txbo34x8944cqyd\EPSON LP-6100
  4

  6

 40
0.0
 41
0.0
 42
0.0
 43
0.0
 44
0.0
 45
0.0
 46
0.0
 47
0.0
 48
0.0
 49
0.0
140
0.0
141
0.0
142
1.0
143
1.0
 70
  1712
 72
     0
 73
     0
 74
     0
  7
GOD2000TABLE.ctb
 75
     0
147
1.0
 76
     0
 77
     2
 78
   300
148
0.0
149
0.0
100
AcDbLayout
  1
Model
 70
     1
 71
     0
 10
0.0
 20
0.0
 11
12.0
 21
9.0
 12
0.0
 22
0.0
 32
0.0
 14
0.0
 24
0.0
 34
0.0
 15
0.0
 25
0.0
 35
0.0
146
0.0
 13
0.0
 23
0.0
 33
0.0
 16
1.0
 26
0.0
 36
0.0
 17
0.0
 27
1.0
 37
0.0
 76
     0
330
19
331
8089
  0
LAYOUT
  5
8037
102
{ACAD_REACTORS
330
8034
102
}
330
8034
100
AcDbPlotSettings
  1

  2
\\Txbo34x8944cqyd\EPSON LP-6100
  4

  6

 40
0.0
 41
0.0
 42
0.0
 43
0.0
 44
0.0
 45
0.0
 46
0.0
 47
0.0
 48
0.0
 49
0.0
140
0.0
141
0.0
142
1.0
143
1.0
 70
   688
 72
     0
 73
     0
 74
     5
  7
GOD2000TABLE.ctb
 75
    16
147
1.0
 76
     0
 77
     2
 78
   300
148
0.0
149
0.0
100
AcDbLayout
  1
ﾚｲｱｳﾄ1
 70
     1
 71
     1
 10
0.0
 20
0.0
 11
12.0
 21
9.0
 12
0.0
 22
0.0
 32
0.0
 14
1.000000000000000E+20
 24
1.000000000000000E+20
 34
1.000000000000000E+20
 15
-1.000000000000000E+20
 25
-1.000000000000000E+20
 35
-1.000000000000000E+20
146
0.0
 13
0.0
 23
0.0
 33
0.0
 16
1.0
 26
0.0
 36
0.0
 17
0.0
 27
1.0
 37
0.0
 76
     0
330
16
  0
MATERIAL
  5
8094
102
{ACAD_XDICTIONARY
360
8095
102
}
102
{ACAD_REACTORS
330
808B
102
}
330
808B
100
AcDbMaterial
  1
ByBlock
 72
     0
 43
0.0208333333333333
 43
0.0
 43
0.0
 43
0.0
 43
0.0
 43
0.0208333333333333
 43
0.0
 43
0.0
 43
0.0
 43
0.0
 43
1.0
 43
0.0
 43
0.0
 43
0.0
 43
0.0
 43
1.0
 77
     0
 47
0.0208333333333333
 47
0.0
 47
0.0
 47
0.0
 47
0.0
 47
0.0208333333333333
 47
0.0
 47
0.0
 47
0.0
 47
0.0
 47
1.0
 47
0.0
 47
0.0
 47
0.0
 47
0.0
 47
1.0
171
     0
 49
0.0208333333333333
 49
0.0
 49
0.0
 49
0.0
 49
0.0
 49
0.0208333333333333
 49
0.0
 49
0.0
 49
0.0
 49
0.0
 49
1.0
 49
0.0
 49
0.0
 49
0.0
 49
0.0
 49
1.0
175
     0
142
0.0208333333333333
142
0.0
142
0.0
142
0.0
142
0.0
142
0.0208333333333333
142
0.0
142
0.0
142
0.0
142
0.0
142
1.0
142
0.0
142
0.0
142
0.0
142
0.0
142
1.0
179
     0
144
0.0208333333333333
144
0.0
144
0.0
144
0.0
144
0.0
144
0.0208333333333333
144
0.0
144
0.0
144
0.0
144
0.0
144
1.0
144
0.0
144
0.0
144
0.0
144
0.0
144
1.0
147
0.0208333333333333
147
0.0
147
0.0
147
0.0
147
0.0
147
0.0208333333333333
147
0.0
147
0.0
147
0.0
147
0.0
147
1.0
147
0.0
147
0.0
147
0.0
147
0.0
147
1.0
  0
MATERIAL
  5
808C
102
{ACAD_XDICTIONARY
360
808D
102
}
102
{ACAD_REACTORS
330
808B
102
}
330
808B
100
AcDbMaterial
  1
ByLayer
 72
     0
 43
0.0208333333333333
 43
0.0
 43
0.0
 43
0.0
 43
0.0
 43
0.0208333333333333
 43
0.0
 43
0.0
 43
0.0
 43
0.0
 43
1.0
 43
0.0
 43
0.0
 43
0.0
 43
0.0
 43
1.0
 77
     0
 47
0.0208333333333333
 47
0.0
 47
0.0
 47
0.0
 47
0.0
 47
0.0208333333333333
 47
0.0
 47
0.0
 47
0.0
 47
0.0
 47
1.0
 47
0.0
 47
0.0
 47
0.0
 47
0.0
 47
1.0
171
     0
 49
0.0208333333333333
 49
0.0
 49
0.0
 49
0.0
 49
0.0
 49
0.0208333333333333
 49
0.0
 49
0.0
 49
0.0
 49
0.0
 49
1.0
 49
0.0
 49
0.0
 49
0.0
 49
0.0
 49
1.0
175
     0
142
0.0208333333333333
142
0.0
142
0.0
142
0.0
142
0.0
142
0.0208333333333333
142
0.0
142
0.0
142
0.0
142
0.0
142
1.0
142
0.0
142
0.0
142
0.0
142
0.0
142
1.0
179
     0
144
0.0208333333333333
144
0.0
144
0.0
144
0.0
144
0.0
144
0.0208333333333333
144
0.0
144
0.0
144
0.0
144
0.0
144
1.0
144
0.0
144
0.0
144
0.0
144
0.0
144
1.0
147
0.0208333333333333
147
0.0
147
0.0
147
0.0
147
0.0
147
0.0208333333333333
147
0.0
147
0.0
147
0.0
147
0.0
147
1.0
147
0.0
147
0.0
147
0.0
147
0.0
147
1.0
  0
MATERIAL
  5
809C
102
{ACAD_XDICTIONARY
360
809D
102
}
102
{ACAD_REACTORS
330
808B
102
}
330
808B
100
AcDbMaterial
  1
Global
 72
     0
 43
0.0208333333333333
 43
0.0
 43
0.0
 43
0.0
 43
0.0
 43
0.0208333333333333
 43
0.0
 43
0.0
 43
0.0
 43
0.0
 43
1.0
 43
0.0
 43
0.0
 43
0.0
 43
0.0
 43
1.0
 77
     0
 47
0.0208333333333333
 47
0.0
 47
0.0
 47
0.0
 47
0.0
 47
0.0208333333333333
 47
0.0
 47
0.0
 47
0.0
 47
0.0
 47
1.0
 47
0.0
 47
0.0
 47
0.0
 47
0.0
 47
1.0
171
     0
 49
0.0208333333333333
 49
0.0
 49
0.0
 49
0.0
 49
0.0
 49
0.0208333333333333
 49
0.0
 49
0.0
 49
0.0
 49
0.0
 49
1.0
 49
0.0
 49
0.0
 49
0.0
 49
0.0
 49
1.0
175
     0
142
0.0208333333333333
142
0.0
142
0.0
142
0.0
142
0.0
142
0.0208333333333333
142
0.0
142
0.0
142
0.0
142
0.0
142
1.0
142
0.0
142
0.0
142
0.0
142
0.0
142
1.0
179
     0
144
0.0208333333333333
144
0.0
144
0.0
144
0.0
144
0.0
144
0.0208333333333333
144
0.0
144
0.0
144
0.0
144
0.0
144
1.0
144
0.0
144
0.0
144
0.0
144
0.0
144
1.0
147
0.0208333333333333
147
0.0
147
0.0
147
0.0
147
0.0
147
0.0208333333333333
147
0.0
147
0.0
147
0.0
147
0.0
147
1.0
147
0.0
147
0.0
147
0.0
147
0.0
147
1.0
  0
MLEADERSTYLE
  5
80D3
102
{ACAD_REACTORS
330
80D2
102
}
330
80D2
100
AcDbMLeaderStyle
179
     2
170
     2
171
     1
172
     0
 90
        2
 40
0.0
 41
0.0
173
     1
 91
-1056964608
340
13
 92
       -2
290
     1
 42
2.0
291
     1
 43
0.36
  3
Standard
 44
4.0
300

342
10
174
     1
178
     6
175
     1
176
     0
 93
-1056964608
 45
4.0
292
     0
297
     0
 46
4.0
 94
-1056964608
 47
1.0
 49
1.0
140
1.0
293
     1
141
0.0
294
     1
177
     0
142
1.0
295
     0
296
     0
143
0.125
271
     0
272
     9
273
     9
298
     1
  0
MLINESTYLE
  5
1C
102
{ACAD_REACTORS
330
E
102
}
330
E
100
AcDbMlineStyle
  2
STANDARD
 70
     0
  3

 62
     0
 51
90.0
 52
90.0
 71
     2
 49
0.5
 62
   256
  6
BYLAYER
 49
-0.5
 62
   256
  6
BYLAYER
  0
ACDBPLACEHOLDER
  5
8033
102
{ACAD_REACTORS
330
8032
102
}
330
8032
  0
SCALE
  5
80C1
102
{ACAD_REACTORS
330
80C0
102
}
330
80C0
100
AcDbScale
 70
     0
300
1:1
140
1.0
141
1.0
290
     1
  0
SCALE
  5
80C2
102
{ACAD_REACTORS
330
80C0
102
}
330
80C0
100
AcDbScale
 70
     0
300
1:2
140
1.0
141
2.0
290
     0
  0
SCALE
  5
80C3
102
{ACAD_REACTORS
330
80C0
102
}
330
80C0
100
AcDbScale
 70
     0
300
1:4
140
1.0
141
4.0
290
     0
  0
SCALE
  5
80C4
102
{ACAD_REACTORS
330
80C0
102
}
330
80C0
100
AcDbScale
 70
     0
300
1:5
140
1.0
141
5.0
290
     0
  0
SCALE
  5
80C5
102
{ACAD_REACTORS
330
80C0
102
}
330
80C0
100
AcDbScale
 70
     0
300
1:8
140
1.0
141
8.0
290
     0
  0
SCALE
  5
80C6
102
{ACAD_REACTORS
330
80C0
102
}
330
80C0
100
AcDbScale
 70
     0
300
1:10
140
1.0
141
10.0
290
     0
  0
SCALE
  5
80C7
102
{ACAD_REACTORS
330
80C0
102
}
330
80C0
100
AcDbScale
 70
     0
300
1:16
140
1.0
141
16.0
290
     0
  0
SCALE
  5
80C8
102
{ACAD_REACTORS
330
80C0
102
}
330
80C0
100
AcDbScale
 70
     0
300
1:20
140
1.0
141
20.0
290
     0
  0
SCALE
  5
80C9
102
{ACAD_REACTORS
330
80C0
102
}
330
80C0
100
AcDbScale
 70
     0
300
1:30
140
1.0
141
30.0
290
     0
  0
SCALE
  5
80CA
102
{ACAD_REACTORS
330
80C0
102
}
330
80C0
100
AcDbScale
 70
     0
300
1:40
140
1.0
141
40.0
290
     0
  0
SCALE
  5
80CB
102
{ACAD_REACTORS
330
80C0
102
}
330
80C0
100
AcDbScale
 70
     0
300
1:50
140
1.0
141
50.0
290
     0
  0
SCALE
  5
80CC
102
{ACAD_REACTORS
330
80C0
102
}
330
80C0
100
AcDbScale
 70
     0
300
1:100
140
1.0
141
100.0
290
     0
  0
SCALE
  5
80CD
102
{ACAD_REACTORS
330
80C0
102
}
330
80C0
100
AcDbScale
 70
     0
300
2:1
140
2.0
141
1.0
290
     0
  0
SCALE
  5
80CE
102
{ACAD_REACTORS
330
80C0
102
}
330
80C0
100
AcDbScale
 70
     0
300
4:1
140
4.0
141
1.0
290
     0
  0
SCALE
  5
80CF
102
{ACAD_REACTORS
330
80C0
102
}
330
80C0
100
AcDbScale
 70
     0
300
8:1
140
8.0
141
1.0
290
     0
  0
SCALE
  5
80D0
102
{ACAD_REACTORS
330
80C0
102
}
330
80C0
100
AcDbScale
 70
     0
300
10:1
140
10.0
141
1.0
290
     0
  0
SCALE
  5
80D1
102
{ACAD_REACTORS
330
80C0
102
}
330
80C0
100
AcDbScale
 70
     0
300
100:1
140
100.0
141
1.0
290
     0
  0
ACDBSECTIONVIEWSTYLE
  5
80D5
102
{ACAD_XDICTIONARY
360
814B
102
}
102
{ACAD_REACTORS
330
80D4
102
}
330
80D4
100
AcDbModelDocViewStyle
 70
     0
  3
Metric50
290
     0
100
AcDbSectionViewStyle
 70
     0
 71
     0
 90
      102
 71
     1
340
10
 62
   256
 40
5.0
340
0
340
0
 62
   256
 40
5.0
300
I, O, Q, S, X, Z
 40
10.0
 90
        0
 40
2.5
 90
        0
 71
     2
340
15
 90
       25
 62
   256
340
15
 90
       50
 62
   256
 40
5.0
 40
2.5
 40
5.0
 71
     3
340
10
 62
   256
 40
5.0
 90
        0
 40
15.0
 90
        1
300
%<\AcVar ViewSectionStartId>%-%<\AcVar ViewSectionEndId>% (%<\AcVar ViewScale \f "%sn">%)
 71
     4
 62
   256
 62
   257
300
ANSI31
 40
1.0
 90
        0
290
     0
290
     0
 90
        6
 40
0.0
 40
1.570796326794896
 40
0.2617993877991494
 40
1.308996938995747
 40
-0.2617993877991494
 40
1.832595714594046
  0
TABLESTYLE
  5
80BF
102
{ACAD_XDICTIONARY
360
8140
102
}
102
{ACAD_REACTORS
330
80BE
102
}
330
80BE
100
AcDbTableStyle
280
     0
  3
Standard
 70
     0
 71
     0
 40
1.5
 41
1.5
280
     0
281
     0
  7
STANDARD
140
4.5
170
     2
 62
     0
 63
     7
283
     0
 90
      512
 91
        0
  1

274
    -2
284
     1
 64
     0
275
    -2
285
     1
 65
     0
276
    -2
286
     1
 66
     0
277
    -2
287
     1
 67
     0
278
    -2
288
     1
 68
     0
279
    -2
289
     1
 69
     0
  7
STANDARD
140
6.0
170
     5
 62
     0
 63
     7
283
     0
 90
      512
 91
        0
  1

274
    -2
284
     1
 64
     0
275
    -2
285
     1
 65
     0
276
    -2
286
     1
 66
     0
277
    -2
287
     1
 67
     0
278
    -2
288
     1
 68
     0
279
    -2
289
     1
 69
     0
  7
STANDARD
140
4.5
170
     5
 62
     0
 63
     7
283
     0
 90
      512
 91
        0
  1

274
    -2
284
     1
 64
     0
275
    -2
285
     1
 65
     0
276
    -2
286
     1
 66
     0
277
    -2
287
     1
 67
     0
278
    -2
288
     1
 68
     0
279
    -2
289
     1
 69
     0
  0
VISUALSTYLE
  5
80AA
102
{ACAD_REACTORS
330
80A4
102
}
330
80A4
100
AcDbVisualStyle
  2
2dWireframe
 70
     4
177
     3
291
     0
 70
    58
 90
        0
176
     1
 90
        2
176
     1
 90
        0
176
     1
 90
        0
176
     1
 40
0.6
176
     1
 40
30.0
176
     1
 62
     7
420
 16777215
176
     1
 90
        1
176
     1
 90
        4
176
     1
 62
     7
176
     1
 62
   257
176
     1
 90
        1
176
     1
 90
        1
176
     1
 40
1.0
176
     1
 90
        0
176
     1
 62
   257
176
     1
 40
1.0
176
     1
 90
        1
176
     1
 90
        6
176
     1
 90
        2
176
     1
 62
     7
176
     1
 90
        5
176
     1
 90
        0
176
     1
 90
        0
176
     1
290
     0
176
     1
 90
        1
176
     1
 40
0.0
176
     1
 90
        0
176
     1
290
     1
176
     1
290
     1
176
     1
290
     0
176
     1
290
     0
176
     1
290
     0
176
     1
290
     0
176
     1
290
     0
176
     1
290
     0
176
     1
290
     0
176
     1
 90
       50
176
     1
 40
0.0
176
     1
 40
1.0
176
     1
 90
        0
176
     1
 62
    18
420
        0
176
     1
 90
       50
176
     1
 90
        3
176
     1
 62
     5
420
      255
176
     1
290
     0
176
     1
 90
       50
176
     1
 90
       50
176
     1
 90
       50
176
     1
290
     0
176
     1
 90
       50
176
     1
 62
   256
176
     0
 40
1.0
176
     0
 90
        2
176
     1
  1
strokes_ogs.tif
176
     1
290
     0
176
     1
 40
1.0
176
     1
 40
1.0
176
     1
1001
ACAD
1000
AcDbSavedByObjectVersion
1070
     0
  0
VISUALSTYLE
  5
80A9
102
{ACAD_REACTORS
330
80A4
102
}
330
80A4
100
AcDbVisualStyle
  2
Basic
 70
     7
177
     3
291
     1
 70
    58
 90
        1
176
     1
 90
        0
176
     1
 90
        1
176
     1
 90
        0
176
     1
 40
0.6
176
     1
 40
30.0
176
     1
 62
     7
420
 16777215
176
     1
 90
        0
176
     1
 90
        4
176
     1
 62
     7
176
     1
 62
   257
176
     1
 90
        1
176
     1
 90
        1
176
     1
 40
1.0
176
     1
 90
        8
176
     1
 62
     7
176
     1
 40
1.0
176
     1
 90
        1
176
     1
 90
        6
176
     1
 90
        2
176
     1
 62
     7
176
     1
 90
        5
176
     1
 90
        0
176
     1
 90
        0
176
     1
290
     0
176
     1
 90
        1
176
     1
 40
0.0
176
     1
 90
        0
176
     1
290
     0
176
     1
290
     1
176
     1
290
     1
176
     1
290
     0
176
     1
290
     0
176
     1
290
     0
176
     1
290
     0
176
     1
290
     0
176
     1
290
     0
176
     1
 90
       50
176
     1
 40
0.0
176
     1
 40
1.0
176
     1
 90
        0
176
     1
 62
    18
420
        0
176
     1
 90
       50
176
     1
 90
        3
176
     1
 62
     5
420
      255
176
     1
290
     0
176
     1
 90
       50
176
     1
 90
       50
176
     1
 90
       50
176
     1
290
     0
176
     1
 90
       50
176
     1
 62
   256
176
     0
 40
1.0
176
     0
 90
        2
176
     1
  1
strokes_ogs.tif
176
     1
290
     0
176
     1
 40
1.0
176
     1
 40
1.0
176
     1
1001
ACAD
1000
AcDbSavedByObjectVersion
1070
     0
  0
VISUALSTYLE
  5
80B0
102
{ACAD_REACTORS
330
80A4
102
}
330
80A4
100
AcDbVisualStyle
  2
Brighten
 70
    12
177
     3
291
     1
 70
    58
 90
        2
176
     1
 90
        2
176
     1
 90
        0
176
     1
 90
        0
176
     1
 40
0.6
176
     1
 40
30.0
176
     1
 62
     7
420
 16777215
176
     1
 90
        1
176
     1
 90
        4
176
     1
 62
     7
176
     1
 62
   257
176
     1
 90
        1
176
     1
 90
        1
176
     1
 40
1.0
176
     1
 90
        8
176
     1
 62
     7
176
     1
 40
1.0
176
     1
 90
        1
176
     1
 90
        6
176
     1
 90
        2
176
     1
 62
     7
176
     1
 90
        5
176
     1
 90
        0
176
     1
 90
        0
176
     1
290
     0
176
     1
 90
        1
176
     1
 40
50.0
176
     1
 90
        0
176
     1
290
     0
176
     1
290
     1
176
     1
290
     1
176
     1
290
     0
176
     1
290
     0
176
     1
290
     0
176
     1
290
     0
176
     1
290
     0
176
     1
290
     0
176
     1
 90
       50
176
     1
 40
0.0
176
     1
 40
1.0
176
     1
 90
        0
176
     1
 62
    18
420
        0
176
     1
 90
       50
176
     1
 90
        3
176
     1
 62
     5
420
      255
176
     1
290
     0
176
     1
 90
       50
176
     1
 90
       50
176
     1
 90
       50
176
     1
290
     0
176
     1
 90
       50
176
     1
 62
   256
176
     0
 40
1.0
176
     0
 90
        2
176
     1
  1
strokes_ogs.tif
176
     1
290
     0
176
     1
 40
1.0
176
     1
 40
1.0
176
     1
1001
ACAD
1000
AcDbSavedByObjectVersion
1070
     0
  0
VISUALSTYLE
  5
80B4
102
{ACAD_REACTORS
330
80A4
102
}
330
80A4
100
AcDbVisualStyle
  2
ColorChange
 70
    16
177
     3
291
     1
 70
    58
 90
        2
176
     1
 90
        2
176
     1
 90
        3
176
     1
 90
        0
176
     1
 40
0.6
176
     1
 40
30.0
176
     1
 62
     8
420
  8421504
176
     1
 90
        1
176
     1
 90
        4
176
     1
 62
     7
176
     1
 62
   257
176
     1
 90
        1
176
     1
 90
        1
176
     1
 40
1.0
176
     1
 90
        8
176
     1
 62
     8
420
  8421504
176
     1
 40
1.0
176
     1
 90
        1
176
     1
 90
        6
176
     1
 90
        2
176
     1
 62
     7
176
     1
 90
        5
176
     1
 90
        0
176
     1
 90
        0
176
     1
290
     0
176
     1
 90
        1
176
     1
 40
0.0
176
     1
 90
        0
176
     1
290
     0
176
     1
290
     1
176
     1
290
     1
176
     1
290
     0
176
     1
290
     0
176
     1
290
     0
176
     1
290
     0
176
     1
290
     0
176
     1
290
     0
176
     1
 90
       50
176
     1
 40
0.0
176
     1
 40
1.0
176
     1
 90
        0
176
     1
 62
    18
420
        0
176
     1
 90
       50
176
     1
 90
        3
176
     1
 62
     5
420
      255
176
     1
290
     0
176
     1
 90
       50
176
     1
 90
       50
176
     1
 90
       50
176
     1
290
     0
176
     1
 90
       50
176
     1
 62
   256
176
     0
 40
1.0
176
     0
 90
        2
176
     1
  1
strokes_ogs.tif
176
     1
290
     0
176
     1
 40
1.0
176
     1
 40
1.0
176
     1
1001
ACAD
1000
AcDbSavedByObjectVersion
1070
     0
  0
VISUALSTYLE
  5
80AD
102
{ACAD_REACTORS
330
80A4
102
}
330
80A4
100
AcDbVisualStyle
  2
Conceptual
 70
     9
177
     3
291
     0
 70
    58
 90
        3
176
     1
 90
        2
176
     1
 90
        0
176
     1
 90
        0
176
     1
 40
0.6
176
     1
 40
30.0
176
     1
 62
     7
420
 16777215
176
     1
 90
        2
176
     1
 90
        2
176
     1
 62
     7
176
     1
 62
   257
176
     1
 90
        1
176
     1
 90
        1
176
     1
 40
179.0
176
     1
 90
        8
176
     1
 62
     7
176
     1
 40
1.0
176
     1
 90
        1
176
     1
 90
        6
176
     1
 90
        2
176
     1
 62
     7
176
     1
 90
        3
176
     1
 90
        0
176
     1
 90
        0
176
     1
290
     0
176
     1
 90
        1
176
     1
 40
0.0
176
     1
 90
        0
176
     1
290
     0
176
     1
290
     1
176
     1
290
     1
176
     1
290
     0
176
     1
290
     0
176
     1
290
     0
176
     1
290
     0
176
     1
290
     0
176
     1
290
     0
176
     1
 90
       50
176
     1
 40
0.0
176
     1
 40
1.0
176
     1
 90
        0
176
     1
 62
    18
420
        0
176
     1
 90
       50
176
     1
 90
        3
176
     1
 62
     5
420
      255
176
     1
290
     0
176
     1
 90
       50
176
     1
 90
       50
176
     1
 90
       50
176
     1
290
     0
176
     1
 90
       50
176
     1
 62
   256
176
     0
 40
1.0
176
     0
 90
        2
176
     1
  1
strokes_ogs.tif
176
     1
290
     0
176
     1
 40
1.0
176
     1
 40
1.0
176
     1
1001
ACAD
1000
AcDbSavedByObjectVersion
1070
     0
  0
VISUALSTYLE
  5
80AF
102
{ACAD_REACTORS
330
80A4
102
}
330
80A4
100
AcDbVisualStyle
  2
Dim
 70
    11
177
     3
291
     1
 70
    58
 90
        2
176
     1
 90
        2
176
     1
 90
        0
176
     1
 90
        0
176
     1
 40
0.6
176
     1
 40
30.0
176
     1
 62
     7
420
 16777215
176
     1
 90
        1
176
     1
 90
        4
176
     1
 62
     7
176
     1
 62
   257
176
     1
 90
        1
176
     1
 90
        1
176
     1
 40
1.0
176
     1
 90
        8
176
     1
 62
     7
176
     1
 40
1.0
176
     1
 90
        1
176
     1
 90
        6
176
     1
 90
        2
176
     1
 62
     7
176
     1
 90
        5
176
     1
 90
        0
176
     1
 90
        0
176
     1
290
     0
176
     1
 90
        1
176
     1
 40
-50.0
176
     1
 90
        0
176
     1
290
     0
176
     1
290
     1
176
     1
290
     1
176
     1
290
     0
176
     1
290
     0
176
     1
290
     0
176
     1
290
     0
176
     1
290
     0
176
     1
290
     0
176
     1
 90
       50
176
     1
 40
0.0
176
     1
 40
1.0
176
     1
 90
        0
176
     1
 62
    18
420
        0
176
     1
 90
       50
176
     1
 90
        3
176
     1
 62
     5
420
      255
176
     1
290
     0
176
     1
 90
       50
176
     1
 90
       50
176
     1
 90
       50
176
     1
290
     0
176
     1
 90
       50
176
     1
 62
   256
176
     0
 40
1.0
176
     0
 90
        2
176
     1
  1
strokes_ogs.tif
176
     1
290
     0
176
     1
 40
1.0
176
     1
 40
1.0
176
     1
1001
ACAD
1000
AcDbSavedByObjectVersion
1070
     0
  0
VISUALSTYLE
  5
80BC
102
{ACAD_REACTORS
330
80A4
102
}
330
80A4
100
AcDbVisualStyle
  2
EdgeColorOff
 70
    22
177
     3
291
     1
 70
    58
 90
        2
176
     0
 90
        2
176
     0
 90
        0
176
     0
 90
        0
176
     0
 40
0.6
176
     0
 40
30.0
176
     0
 62
     7
420
 16777215
176
     0
 90
        1
176
     0
 90
        4
176
     0
 62
     7
176
     0
 62
   257
176
     0
 90
        1
176
     0
 90
        1
176
     0
 40
1.0
176
     0
 90
        8
176
     2
 62
     7
176
     0
 40
1.0
176
     0
 90
        1
176
     0
 90
        6
176
     0
 90
        2
176
     0
 62
     7
176
     0
 90
        5
176
     0
 90
        0
176
     0
 90
        0
176
     0
290
     0
176
     0
 90
        1
176
     0
 40
0.0
176
     0
 90
        0
176
     0
290
     0
176
     0
290
     1
176
     0
290
     1
176
     0
290
     0
176
     0
290
     0
176
     0
290
     0
176
     0
290
     0
176
     0
290
     0
176
     0
290
     0
176
     0
 90
       50
176
     0
 40
0.0
176
     0
 40
1.0
176
     0
 90
        0
176
     0
 62
    18
420
        0
176
     0
 90
       50
176
     0
 90
        3
176
     0
 62
     5
420
      255
176
     0
290
     0
176
     0
 90
       50
176
     0
 90
       50
176
     0
 90
       50
176
     0
290
     0
176
     0
 90
       50
176
     0
 62
   256
176
     0
 40
1.0
176
     0
 90
        2
176
     0
  1
strokes_ogs.tif
176
     0
290
     0
176
     0
 40
1.0
176
     0
 40
1.0
176
     0
1001
ACAD
1000
AcDbSavedByObjectVersion
1070
     0
  0
VISUALSTYLE
  5
80B3
102
{ACAD_REACTORS
330
80A4
102
}
330
80A4
100
AcDbVisualStyle
  2
Facepattern
 70
    15
177
     3
291
     1
 70
    58
 90
        2
176
     1
 90
        2
176
     1
 90
        0
176
     1
 90
        0
176
     1
 40
0.6
176
     1
 40
30.0
176
     1
 62
     7
420
 16777215
176
     1
 90
        1
176
     1
 90
        4
176
     1
 62
     7
176
     1
 62
   257
176
     1
 90
        1
176
     1
 90
        1
176
     1
 40
1.0
176
     1
 90
        8
176
     1
 62
     7
176
     1
 40
1.0
176
     1
 90
        1
176
     1
 90
        6
176
     1
 90
        2
176
     1
 62
     7
176
     1
 90
        5
176
     1
 90
        0
176
     1
 90
        0
176
     1
290
     0
176
     1
 90
        1
176
     1
 40
0.0
176
     1
 90
        0
176
     1
290
     0
176
     1
290
     1
176
     1
290
     1
176
     1
290
     0
176
     1
290
     0
176
     1
290
     0
176
     1
290
     0
176
     1
290
     0
176
     1
290
     0
176
     1
 90
       50
176
     1
 40
0.0
176
     1
 40
1.0
176
     1
 90
        0
176
     1
 62
    18
420
        0
176
     1
 90
       50
176
     1
 90
        3
176
     1
 62
     5
420
      255
176
     1
290
     0
176
     1
 90
       50
176
     1
 90
       50
176
     1
 90
       50
176
     1
290
     0
176
     1
 90
       50
176
     1
 62
   256
176
     0
 40
1.0
176
     0
 90
        2
176
     1
  1
strokes_ogs.tif
176
     1
290
     0
176
     1
 40
1.0
176
     1
 40
1.0
176
     1
1001
ACAD
1000
AcDbSavedByObjectVersion
1070
     0
  0
VISUALSTYLE
  5
80A5
102
{ACAD_REACTORS
330
80A4
102
}
330
80A4
100
AcDbVisualStyle
  2
Flat
 70
     0
177
     3
291
     1
 70
    58
 90
        2
176
     1
 90
        1
176
     1
 90
        1
176
     1
 90
        2
176
     1
 40
0.6
176
     1
 40
30.0
176
     1
 62
     7
420
 16777215
176
     1
 90
        0
176
     1
 90
        0
176
     1
 62
     7
176
     1
 62
   257
176
     1
 90
        1
176
     1
 90
        1
176
     1
 40
1.0
176
     1
 90
        8
176
     1
 62
     7
176
     1
 40
1.0
176
     1
 90
        1
176
     1
 90
        6
176
     1
 90
        2
176
     1
 62
     7
176
     1
 90
        5
176
     1
 90
        0
176
     1
 90
        0
176
     1
290
     0
176
     1
 90
       13
176
     1
 40
0.0
176
     1
 90
        0
176
     1
290
     0
176
     1
290
     1
176
     1
290
     1
176
     1
290
     0
176
     1
290
     0
176
     1
290
     0
176
     1
290
     0
176
     1
290
     0
176
     1
290
     0
176
     1
 90
       50
176
     1
 40
0.0
176
     1
 40
1.0
176
     1
 90
        0
176
     1
 62
    18
420
        0
176
     1
 90
       50
176
     1
 90
        3
176
     1
 62
     5
420
      255
176
     1
290
     0
176
     1
 90
       50
176
     1
 90
       50
176
     1
 90
       50
176
     1
290
     0
176
     1
 90
       50
176
     1
 62
   256
176
     0
 40
1.0
176
     0
 90
        2
176
     1
  1
strokes_ogs.tif
176
     1
290
     0
176
     1
 40
1.0
176
     1
 40
1.0
176
     1
1001
ACAD
1000
AcDbSavedByObjectVersion
1070
     0
  0
VISUALSTYLE
  5
80A6
102
{ACAD_REACTORS
330
80A4
102
}
330
80A4
100
AcDbVisualStyle
  2
FlatWithEdges
 70
     1
177
     3
291
     1
 70
    58
 90
        2
176
     1
 90
        1
176
     1
 90
        1
176
     1
 90
        2
176
     1
 40
0.6
176
     1
 40
30.0
176
     1
 62
     7
420
 16777215
176
     1
 90
        1
176
     1
 90
        0
176
     1
 62
     7
176
     1
 62
   257
176
     1
 90
        1
176
     1
 90
        1
176
     1
 40
1.0
176
     1
 90
        0
176
     1
 62
   257
176
     1
 40
1.0
176
     1
 90
        1
176
     1
 90
        6
176
     1
 90
        2
176
     1
 62
     7
176
     1
 90
        5
176
     1
 90
        0
176
     1
 90
        0
176
     1
290
     0
176
     1
 90
       13
176
     1
 40
0.0
176
     1
 90
        0
176
     1
290
     0
176
     1
290
     1
176
     1
290
     1
176
     1
290
     0
176
     1
290
     0
176
     1
290
     0
176
     1
290
     0
176
     1
290
     0
176
     1
290
     0
176
     1
 90
       50
176
     1
 40
0.0
176
     1
 40
1.0
176
     1
 90
        0
176
     1
 62
    18
420
        0
176
     1
 90
       50
176
     1
 90
        3
176
     1
 62
     5
420
      255
176
     1
290
     0
176
     1
 90
       50
176
     1
 90
       50
176
     1
 90
       50
176
     1
290
     0
176
     1
 90
       50
176
     1
 62
   256
176
     0
 40
1.0
176
     0
 90
        2
176
     1
  1
strokes_ogs.tif
176
     1
290
     0
176
     1
 40
1.0
176
     1
 40
1.0
176
     1
1001
ACAD
1000
AcDbSavedByObjectVersion
1070
     0
  0
VISUALSTYLE
  5
80A7
102
{ACAD_REACTORS
330
80A4
102
}
330
80A4
100
AcDbVisualStyle
  2
Gouraud
 70
     2
177
     3
291
     1
 70
    58
 90
        2
176
     1
 90
        2
176
     1
 90
        1
176
     1
 90
        2
176
     1
 40
0.6
176
     1
 40
30.0
176
     1
 62
     7
420
 16777215
176
     1
 90
        0
176
     1
 90
        0
176
     1
 62
     7
176
     1
 62
   257
176
     1
 90
        1
176
     1
 90
        1
176
     1
 40
1.0
176
     1
 90
        0
176
     1
 62
     7
176
     1
 40
1.0
176
     1
 90
        1
176
     1
 90
        6
176
     1
 90
        2
176
     1
 62
     7
176
     1
 90
        5
176
     1
 90
        0
176
     1
 90
        0
176
     1
290
     0
176
     1
 90
       13
176
     1
 40
0.0
176
     1
 90
        0
176
     1
290
     0
176
     1
290
     1
176
     1
290
     1
176
     1
290
     0
176
     1
290
     0
176
     1
290
     0
176
     1
290
     0
176
     1
290
     0
176
     1
290
     0
176
     1
 90
       50
176
     1
 40
0.0
176
     1
 40
1.0
176
     1
 90
        0
176
     1
 62
    18
420
        0
176
     1
 90
       50
176
     1
 90
        3
176
     1
 62
     5
420
      255
176
     1
290
     0
176
     1
 90
       50
176
     1
 90
       50
176
     1
 90
       50
176
     1
290
     0
176
     1
 90
       50
176
     1
 62
   256
176
     0
 40
1.0
176
     0
 90
        2
176
     1
  1
strokes_ogs.tif
176
     1
290
     0
176
     1
 40
1.0
176
     1
 40
1.0
176
     1
1001
ACAD
1000
AcDbSavedByObjectVersion
1070
     0
  0
VISUALSTYLE
  5
80A8
102
{ACAD_REACTORS
330
80A4
102
}
330
80A4
100
AcDbVisualStyle
  2
GouraudWithEdges
 70
     3
177
     3
291
     1
 70
    58
 90
        2
176
     1
 90
        2
176
     1
 90
        1
176
     1
 90
        2
176
     1
 40
0.6
176
     1
 40
30.0
176
     1
 62
     7
420
 16777215
176
     1
 90
        1
176
     1
 90
        0
176
     1
 62
     7
176
     1
 62
   257
176
     1
 90
        1
176
     1
 90
        1
176
     1
 40
1.0
176
     1
 90
        0
176
     1
 62
   257
176
     1
 40
1.0
176
     1
 90
        1
176
     1
 90
        6
176
     1
 90
        2
176
     1
 62
     7
176
     1
 90
        5
176
     1
 90
        0
176
     1
 90
        0
176
     1
290
     0
176
     1
 90
       13
176
     1
 40
0.0
176
     1
 90
        0
176
     1
290
     0
176
     1
290
     1
176
     1
290
     1
176
     1
290
     0
176
     1
290
     0
176
     1
290
     0
176
     1
290
     0
176
     1
290
     0
176
     1
290
     0
176
     1
 90
       50
176
     1
 40
0.0
176
     1
 40
1.0
176
     1
 90
        0
176
     1
 62
    18
420
        0
176
     1
 90
       50
176
     1
 90
        3
176
     1
 62
     5
420
      255
176
     1
290
     0
176
     1
 90
       50
176
     1
 90
       50
176
     1
 90
       50
176
     1
290
     0
176
     1
 90
       50
176
     1
 62
   256
176
     0
 40
1.0
176
     0
 90
        2
176
     1
  1
strokes_ogs.tif
176
     1
290
     0
176
     1
 40
1.0
176
     1
 40
1.0
176
     1
1001
ACAD
1000
AcDbSavedByObjectVersion
1070
     0
  0
VISUALSTYLE
  5
80AC
102
{ACAD_REACTORS
330
80A4
102
}
330
80A4
100
AcDbVisualStyle
  2
Hidden
 70
     6
177
     3
291
     0
 70
    58
 90
        1
176
     1
 90
        2
176
     1
 90
        2
176
     1
 90
        0
176
     1
 40
0.6
176
     1
 40
30.0
176
     1
 62
     7
420
 16777215
176
     1
 90
        2
176
     1
 90
        2
176
     1
 62
     7
176
     1
 62
   257
176
     1
 90
        2
176
     1
 90
        1
176
     1
 40
40.0
176
     1
 90
        0
176
     1
 62
   257
176
     1
 40
1.0
176
     1
 90
        1
176
     1
 90
        6
176
     1
 90
        2
176
     1
 62
     7
176
     1
 90
        3
176
     1
 90
        0
176
     1
 90
        0
176
     1
290
     0
176
     1
 90
        1
176
     1
 40
0.0
176
     1
 90
        0
176
     1
290
     0
176
     1
290
     1
176
     1
290
     1
176
     1
290
     0
176
     1
290
     0
176
     1
290
     0
176
     1
290
     0
176
     1
290
     0
176
     1
290
     0
176
     1
 90
       50
176
     1
 40
0.0
176
     1
 40
1.0
176
     1
 90
        0
176
     1
 62
    18
420
        0
176
     1
 90
       50
176
     1
 90
        3
176
     1
 62
     5
420
      255
176
     1
290
     0
176
     1
 90
       50
176
     1
 90
       50
176
     1
 90
       50
176
     1
290
     0
176
     1
 90
       50
176
     1
 62
   256
176
     0
 40
1.0
176
     0
 90
        2
176
     1
  1
strokes_ogs.tif
176
     1
290
     0
176
     1
 40
1.0
176
     1
 40
1.0
176
     1
1001
ACAD
1000
AcDbSavedByObjectVersion
1070
     0
  0
VISUALSTYLE
  5
80BA
102
{ACAD_REACTORS
330
80A4
102
}
330
80A4
100
AcDbVisualStyle
  2
JitterOff
 70
    20
177
     3
291
     1
 70
    58
 90
        2
176
     0
 90
        2
176
     0
 90
        0
176
     0
 90
        0
176
     0
 40
0.6
176
     0
 40
30.0
176
     0
 62
     7
420
 16777215
176
     0
 90
        1
176
     0
 90
        4
176
     0
 62
     7
176
     0
 62
   257
176
     0
 90
        1
176
     0
 90
        1
176
     0
 40
1.0
176
     0
 90
       10
176
     2
 62
     7
176
     0
 40
1.0
176
     0
 90
        1
176
     0
 90
        6
176
     0
 90
        2
176
     0
 62
     7
176
     0
 90
        5
176
     0
 90
        0
176
     0
 90
        0
176
     0
290
     0
176
     0
 90
        1
176
     0
 40
0.0
176
     0
 90
        0
176
     0
290
     0
176
     0
290
     1
176
     0
290
     1
176
     0
290
     0
176
     0
290
     0
176
     0
290
     0
176
     0
290
     0
176
     0
290
     0
176
     0
290
     0
176
     0
 90
       50
176
     0
 40
0.0
176
     0
 40
1.0
176
     0
 90
        0
176
     0
 62
    18
420
        0
176
     0
 90
       50
176
     0
 90
        3
176
     0
 62
     5
420
      255
176
     0
290
     0
176
     0
 90
       50
176
     0
 90
       50
176
     0
 90
       50
176
     0
290
     0
176
     0
 90
       50
176
     0
 62
   256
176
     0
 40
1.0
176
     0
 90
        2
176
     0
  1
strokes_ogs.tif
176
     0
290
     0
176
     0
 40
1.0
176
     0
 40
1.0
176
     0
1001
ACAD
1000
AcDbSavedByObjectVersion
1070
     0
  0
VISUALSTYLE
  5
80B2
102
{ACAD_REACTORS
330
80A4
102
}
330
80A4
100
AcDbVisualStyle
  2
Linepattern
 70
    14
177
     3
291
     1
 70
    58
 90
        2
176
     1
 90
        2
176
     1
 90
        0
176
     1
 90
        0
176
     1
 40
0.6
176
     1
 40
30.0
176
     1
 62
     7
420
 16777215
176
     1
 90
        1
176
     1
 90
        4
176
     1
 62
     7
176
     1
 62
   257
176
     1
 90
        7
176
     1
 90
        7
176
     1
 40
1.0
176
     1
 90
        8
176
     1
 62
     7
176
     1
 40
1.0
176
     1
 90
        1
176
     1
 90
        6
176
     1
 90
        2
176
     1
 62
     7
176
     1
 90
        5
176
     1
 90
        0
176
     1
 90
        0
176
     1
290
     0
176
     1
 90
        1
176
     1
 40
0.0
176
     1
 90
        0
176
     1
290
     0
176
     1
290
     1
176
     1
290
     1
176
     1
290
     0
176
     1
290
     0
176
     1
290
     0
176
     1
290
     0
176
     1
290
     0
176
     1
290
     0
176
     1
 90
       50
176
     1
 40
0.0
176
     1
 40
1.0
176
     1
 90
        0
176
     1
 62
    18
420
        0
176
     1
 90
       50
176
     1
 90
        3
176
     1
 62
     5
420
      255
176
     1
290
     0
176
     1
 90
       50
176
     1
 90
       50
176
     1
 90
       50
176
     1
290
     0
176
     1
 90
       50
176
     1
 62
   256
176
     0
 40
1.0
176
     0
 90
        2
176
     1
  1
strokes_ogs.tif
176
     1
290
     0
176
     1
 40
1.0
176
     1
 40
1.0
176
     1
1001
ACAD
1000
AcDbSavedByObjectVersion
1070
     0
  0
VISUALSTYLE
  5
80BB
102
{ACAD_REACTORS
330
80A4
102
}
330
80A4
100
AcDbVisualStyle
  2
OverhangOff
 70
    21
177
     3
291
     1
 70
    58
 90
        2
176
     0
 90
        2
176
     0
 90
        0
176
     0
 90
        0
176
     0
 40
0.6
176
     0
 40
30.0
176
     0
 62
     7
420
 16777215
176
     0
 90
        1
176
     0
 90
        4
176
     0
 62
     7
176
     0
 62
   257
176
     0
 90
        1
176
     0
 90
        1
176
     0
 40
1.0
176
     0
 90
        9
176
     2
 62
     7
176
     0
 40
1.0
176
     0
 90
        1
176
     0
 90
        6
176
     0
 90
        2
176
     0
 62
     7
176
     0
 90
        5
176
     0
 90
        0
176
     0
 90
        0
176
     0
290
     0
176
     0
 90
        1
176
     0
 40
0.0
176
     0
 90
        0
176
     0
290
     0
176
     0
290
     1
176
     0
290
     1
176
     0
290
     0
176
     0
290
     0
176
     0
290
     0
176
     0
290
     0
176
     0
290
     0
176
     0
290
     0
176
     0
 90
       50
176
     0
 40
0.0
176
     0
 40
1.0
176
     0
 90
        0
176
     0
 62
    18
420
        0
176
     0
 90
       50
176
     0
 90
        3
176
     0
 62
     5
420
      255
176
     0
290
     0
176
     0
 90
       50
176
     0
 90
       50
176
     0
 90
       50
176
     0
290
     0
176
     0
 90
       50
176
     0
 62
   256
176
     0
 40
1.0
176
     0
 90
        2
176
     0
  1
strokes_ogs.tif
176
     0
290
     0
176
     0
 40
1.0
176
     0
 40
1.0
176
     0
1001
ACAD
1000
AcDbSavedByObjectVersion
1070
     0
  0
VISUALSTYLE
  5
80AE
102
{ACAD_REACTORS
330
80A4
102
}
330
80A4
100
AcDbVisualStyle
  2
Realistic
 70
     8
177
     3
291
     0
 70
    58
 90
        2
176
     1
 90
        3
176
     1
 90
        0
176
     1
 90
        2
176
     1
 40
0.6
176
     1
 40
30.0
176
     1
 62
     7
420
 16777215
176
     1
 90
        0
176
     1
 90
        0
176
     1
 62
     7
176
     1
 62
   257
176
     1
 90
        1
176
     1
 90
        1
176
     1
 40
1.0
176
     1
 90
        8
176
     1
 62
   257
176
     1
 40
1.0
176
     1
 90
        1
176
     1
 90
        6
176
     1
 90
        2
176
     1
 62
     7
176
     1
 90
        3
176
     1
 90
        0
176
     1
 90
        0
176
     1
290
     0
176
     1
 90
       13
176
     1
 40
0.0
176
     1
 90
        0
176
     1
290
     0
176
     1
290
     1
176
     1
290
     1
176
     1
290
     0
176
     1
290
     0
176
     1
290
     0
176
     1
290
     0
176
     1
290
     0
176
     1
290
     0
176
     1
 90
       50
176
     1
 40
0.0
176
     1
 40
1.0
176
     1
 90
        0
176
     1
 62
    18
420
        0
176
     1
 90
       50
176
     1
 90
        3
176
     1
 62
     5
420
      255
176
     1
290
     0
176
     1
 90
       50
176
     1
 90
       50
176
     1
 90
       50
176
     1
290
     0
176
     1
 90
       50
176
     1
 62
   256
176
     0
 40
1.0
176
     0
 90
        2
176
     1
  1
strokes_ogs.tif
176
     1
290
     0
176
     1
 40
1.0
176
     1
 40
1.0
176
     1
1001
ACAD
1000
AcDbSavedByObjectVersion
1070
     0
  0
VISUALSTYLE
  5
80B9
102
{ACAD_REACTORS
330
80A4
102
}
330
80A4
100
AcDbVisualStyle
  2
Shaded
 70
    27
177
     3
291
     0
 70
    58
 90
        2
176
     1
 90
        2
176
     1
 90
        1
176
     1
 90
        2
176
     1
 40
0.6
176
     1
 40
30.0
176
     1
 62
     7
420
 16777215
176
     1
 90
        0
176
     1
 90
        4
176
     1
 62
     7
176
     1
 62
   257
176
     1
 90
        1
176
     1
 90
        1
176
     1
 40
1.0
176
     1
 90
        8
176
     1
 62
   257
176
     1
 40
1.0
176
     1
 90
        1
176
     1
 90
        6
176
     1
 90
        2
176
     1
 62
     8
420
  7895160
176
     1
 90
        3
176
     1
 90
        0
176
     1
 90
        0
176
     1
290
     0
176
     1
 90
        5
176
     1
 40
0.0
176
     1
 90
        0
176
     1
290
     0
176
     1
290
     1
176
     1
290
     1
176
     1
290
     0
176
     1
290
     0
176
     1
290
     0
176
     1
290
     0
176
     1
290
     0
176
     1
290
     0
176
     1
 90
       50
176
     1
 40
0.0
176
     1
 40
1.0
176
     1
 90
        0
176
     1
 62
    18
420
        0
176
     1
 90
       50
176
     1
 90
        3
176
     1
 62
     5
420
      255
176
     1
290
     0
176
     1
 90
       50
176
     1
 90
       50
176
     1
 90
       50
176
     1
290
     0
176
     1
 90
       50
176
     1
 62
   256
176
     0
 40
1.0
176
     0
 90
        2
176
     1
  1
strokes_ogs.tif
176
     1
290
     0
176
     1
 40
1.0
176
     1
 40
1.0
176
     1
1001
ACAD
1000
AcDbSavedByObjectVersion
1070
     0
  0
VISUALSTYLE
  5
80B8
102
{ACAD_REACTORS
330
80A4
102
}
330
80A4
100
AcDbVisualStyle
  2
Shaded with edges
 70
    26
177
     3
291
     0
 70
    58
 90
        2
176
     1
 90
        2
176
     1
 90
        1
176
     1
 90
        2
176
     1
 40
0.6
176
     1
 40
30.0
176
     1
 62
     7
420
 16777215
176
     1
 90
        1
176
     1
 90
        2
176
     1
 62
     7
176
     1
 62
   257
176
     1
 90
        2
176
     1
 90
        1
176
     1
 40
1.0
176
     1
 90
        8
176
     1
 62
   257
176
     1
 40
1.0
176
     1
 90
        1
176
     1
 90
        6
176
     1
 90
        2
176
     1
 62
     7
176
     1
 90
        3
176
     1
 90
        0
176
     1
 90
        0
176
     1
290
     0
176
     1
 90
        5
176
     1
 40
0.0
176
     1
 90
        0
176
     1
290
     0
176
     1
290
     1
176
     1
290
     1
176
     1
290
     0
176
     1
290
     0
176
     1
290
     0
176
     1
290
     0
176
     1
290
     0
176
     1
290
     0
176
     1
 90
       50
176
     1
 40
0.0
176
     1
 40
1.0
176
     1
 90
        0
176
     1
 62
    18
420
        0
176
     1
 90
       50
176
     1
 90
        3
176
     1
 62
     5
420
      255
176
     1
290
     0
176
     1
 90
       50
176
     1
 90
       50
176
     1
 90
       50
176
     1
290
     0
176
     1
 90
       50
176
     1
 62
   256
176
     0
 40
1.0
176
     0
 90
        2
176
     1
  1
strokes_ogs.tif
176
     1
290
     0
176
     1
 40
1.0
176
     1
 40
1.0
176
     1
1001
ACAD
1000
AcDbSavedByObjectVersion
1070
     0
  0
VISUALSTYLE
  5
80B5
102
{ACAD_REACTORS
330
80A4
102
}
330
80A4
100
AcDbVisualStyle
  2
Shades of Gray
 70
    23
177
     3
291
     0
 70
    58
 90
        2
176
     1
 90
        2
176
     1
 90
        3
176
     1
 90
        0
176
     1
 40
0.6
176
     1
 40
30.0
176
     1
 62
     7
420
 16777215
176
     1
 90
        2
176
     1
 90
        2
176
     1
 62
     7
176
     1
 62
     7
176
     1
 90
        1
176
     1
 90
        1
176
     1
 40
40.0
176
     1
 90
        8
176
     1
 62
     7
176
     1
 40
1.0
176
     1
 90
        1
176
     1
 90
        6
176
     1
 90
        2
176
     1
 62
     7
176
     1
 90
        3
176
     1
 90
        0
176
     1
 90
        0
176
     1
290
     0
176
     1
 90
        1
176
     1
 40
0.0
176
     1
 90
        0
176
     1
290
     0
176
     1
290
     1
176
     1
290
     1
176
     1
290
     0
176
     1
290
     0
176
     1
290
     0
176
     1
290
     0
176
     1
290
     0
176
     1
290
     0
176
     1
 90
       50
176
     1
 40
0.0
176
     1
 40
1.0
176
     1
 90
        0
176
     1
 62
    18
420
        0
176
     1
 90
       50
176
     1
 90
        3
176
     1
 62
     5
420
      255
176
     1
290
     0
176
     1
 90
       50
176
     1
 90
       50
176
     1
 90
       50
176
     1
290
     0
176
     1
 90
       50
176
     1
 62
   256
176
     0
 40
1.0
176
     0
 90
        2
176
     1
  1
strokes_ogs.tif
176
     1
290
     0
176
     1
 40
1.0
176
     1
 40
1.0
176
     1
1001
ACAD
1000
AcDbSavedByObjectVersion
1070
     0
  0
VISUALSTYLE
  5
80B6
102
{ACAD_REACTORS
330
80A4
102
}
330
80A4
100
AcDbVisualStyle
  2
Sketchy
 70
    24
177
     3
291
     0
 70
    58
 90
        1
176
     1
 90
        2
176
     1
 90
        2
176
     1
 90
        0
176
     1
 40
0.6
176
     1
 40
30.0
176
     1
 62
     7
420
 16777215
176
     1
 90
        2
176
     1
 90
        2
176
     1
 62
     7
176
     1
 62
     7
176
     1
 90
        1
176
     1
 90
        1
176
     1
 40
40.0
176
     1
 90
       11
176
     1
 62
     7
176
     1
 40
1.0
176
     1
 90
        1
176
     1
 90
        6
176
     1
 90
        2
176
     1
 62
     7
176
     1
 90
        6
176
     1
 90
        0
176
     1
 90
        0
176
     1
290
     0
176
     1
 90
        1
176
     1
 40
0.0
176
     1
 90
        0
176
     1
290
     0
176
     1
290
     1
176
     1
290
     1
176
     1
290
     0
176
     1
290
     0
176
     1
290
     0
176
     1
290
     0
176
     1
290
     0
176
     1
290
     0
176
     1
 90
       50
176
     1
 40
0.0
176
     1
 40
1.0
176
     1
 90
        0
176
     1
 62
    18
420
        0
176
     1
 90
       50
176
     1
 90
        3
176
     1
 62
     5
420
      255
176
     1
290
     0
176
     1
 90
       50
176
     1
 90
       50
176
     1
 90
       50
176
     1
290
     0
176
     1
 90
       50
176
     1
 62
   256
176
     0
 40
1.0
176
     0
 90
        2
176
     1
  1
strokes_ogs.tif
176
     1
290
     0
176
     1
 40
1.0
176
     1
 40
1.0
176
     1
1001
ACAD
1000
AcDbSavedByObjectVersion
1070
     0
  0
VISUALSTYLE
  5
80B1
102
{ACAD_REACTORS
330
80A4
102
}
330
80A4
100
AcDbVisualStyle
  2
Thicken
 70
    13
177
     3
291
     1
 70
    58
 90
        2
176
     1
 90
        2
176
     1
 90
        0
176
     1
 90
        0
176
     1
 40
0.6
176
     1
 40
30.0
176
     1
 62
     7
420
 16777215
176
     1
 90
        1
176
     1
 90
        4
176
     1
 62
     7
176
     1
 62
   257
176
     1
 90
        1
176
     1
 90
        1
176
     1
 40
1.0
176
     1
 90
       12
176
     1
 62
     7
176
     1
 40
1.0
176
     1
 90
        1
176
     1
 90
        6
176
     1
 90
        2
176
     1
 62
     7
176
     1
 90
        5
176
     1
 90
        0
176
     1
 90
        0
176
     1
290
     0
176
     1
 90
        1
176
     1
 40
0.0
176
     1
 90
        0
176
     1
290
     0
176
     1
290
     1
176
     1
290
     1
176
     1
290
     0
176
     1
290
     0
176
     1
290
     0
176
     1
290
     0
176
     1
290
     0
176
     1
290
     0
176
     1
 90
       50
176
     1
 40
0.0
176
     1
 40
1.0
176
     1
 90
        0
176
     1
 62
    18
420
        0
176
     1
 90
       50
176
     1
 90
        3
176
     1
 62
     5
420
      255
176
     1
290
     0
176
     1
 90
       50
176
     1
 90
       50
176
     1
 90
       50
176
     1
290
     0
176
     1
 90
       50
176
     1
 62
   256
176
     0
 40
1.0
176
     0
 90
        2
176
     1
  1
strokes_ogs.tif
176
     1
290
     0
176
     1
 40
1.0
176
     1
 40
1.0
176
     1
1001
ACAD
1000
AcDbSavedByObjectVersion
1070
     0
  0
VISUALSTYLE
  5
80AB
102
{ACAD_REACTORS
330
80A4
102
}
330
80A4
100
AcDbVisualStyle
  2
Wireframe
 70
     5
177
     3
291
     0
 70
    58
 90
        0
176
     1
 90
        2
176
     1
 90
        0
176
     1
 90
        0
176
     1
 40
0.6
176
     1
 40
30.0
176
     1
 62
     7
420
 16777215
176
     1
 90
        1
176
     1
 90
        4
176
     1
 62
     7
176
     1
 62
   257
176
     1
 90
        1
176
     1
 90
        1
176
     1
 40
1.0
176
     1
 90
        0
176
     1
 62
   257
176
     1
 40
1.0
176
     1
 90
        1
176
     1
 90
        6
176
     1
 90
        2
176
     1
 62
     7
176
     1
 90
        3
176
     1
 90
        0
176
     1
 90
        0
176
     1
290
     0
176
     1
 90
        1
176
     1
 40
0.0
176
     1
 90
        0
176
     1
290
     0
176
     1
290
     1
176
     1
290
     1
176
     1
290
     0
176
     1
290
     0
176
     1
290
     0
176
     1
290
     0
176
     1
290
     0
176
     1
290
     0
176
     1
 90
       50
176
     1
 40
0.0
176
     1
 40
1.0
176
     1
 90
        0
176
     1
 62
    18
420
        0
176
     1
 90
       50
176
     1
 90
        3
176
     1
 62
     5
420
      255
176
     1
290
     0
176
     1
 90
       50
176
     1
 90
       50
176
     1
 90
       50
176
     1
290
     0
176
     1
 90
       50
176
     1
 62
   256
176
     0
 40
1.0
176
     0
 90
        2
176
     1
  1
strokes_ogs.tif
176
     1
290
     0
176
     1
 40
1.0
176
     1
 40
1.0
176
     1
1001
ACAD
1000
AcDbSavedByObjectVersion
1070
     0
  0
VISUALSTYLE
  5
80B7
102
{ACAD_REACTORS
330
80A4
102
}
330
80A4
100
AcDbVisualStyle
  2
X-Ray
 70
    25
177
     3
291
     0
 70
    58
 90
        2
176
     1
 90
        2
176
     1
 90
        1
176
     1
 90
        1
176
     1
 40
0.5
176
     1
 40
30.0
176
     1
 62
     7
420
 16777215
176
     1
 90
        1
176
     1
 90
        0
176
     1
 62
     7
176
     1
 62
   257
176
     1
 90
        1
176
     1
 90
        1
176
     1
 40
1.0
176
     1
 90
        8
176
     1
 62
     7
176
     1
 40
1.0
176
     1
 90
        1
176
     1
 90
        6
176
     1
 90
        2
176
     1
 62
     7
176
     1
 90
        3
176
     1
 90
        0
176
     1
 90
        0
176
     1
290
     0
176
     1
 90
       13
176
     1
 40
0.0
176
     1
 90
        0
176
     1
290
     0
176
     1
290
     1
176
     1
290
     1
176
     1
290
     0
176
     1
290
     0
176
     1
290
     0
176
     1
290
     0
176
     1
290
     0
176
     1
290
     0
176
     1
 90
       50
176
     1
 40
0.0
176
     1
 40
1.0
176
     1
 90
        0
176
     1
 62
    18
420
        0
176
     1
 90
       50
176
     1
 90
        3
176
     1
 62
     5
420
      255
176
     1
290
     0
176
     1
 90
       50
176
     1
 90
       50
176
     1
 90
       50
176
     1
290
     0
176
     1
 90
       50
176
     1
 62
   256
176
     0
 40
1.0
176
     0
 90
        2
176
     1
  1
strokes_ogs.tif
176
     1
290
     0
176
     1
 40
1.0
176
     1
 40
1.0
176
     1
1001
ACAD
1000
AcDbSavedByObjectVersion
1070
     0
  0
DICTIONARYVAR
  5
8137
102
{ACAD_REACTORS
330
8081
102
}
330
8081
100
DictionaryVariables
280
     0
  1
1:1
  0
DICTIONARYVAR
  5
8133
102
{ACAD_REACTORS
330
8081
102
}
330
8081
100
DictionaryVariables
280
     0
  1
STANDARD
  0
DICTIONARYVAR
  5
8132
102
{ACAD_REACTORS
330
8081
102
}
330
8081
100
DictionaryVariables
280
     0
  1
STANDARD
  0
DICTIONARYVAR
  5
8134
102
{ACAD_REACTORS
330
8081
102
}
330
8081
100
DictionaryVariables
280
     0
  1
Metric50
  0
DICTIONARYVAR
  5
8135
102
{ACAD_REACTORS
330
8081
102
}
330
8081
100
DictionaryVariables
280
     0
  1
Metric50
  0
DICTIONARYVAR
  5
8082
102
{ACAD_REACTORS
330
8081
102
}
330
8081
100
DictionaryVariables
280
     0
  1
1
  0
DICTIONARYVAR
  5
8139
102
{ACAD_REACTORS
330
8081
102
}
330
8081
100
DictionaryVariables
280
     0
  1
1
  0
DICTIONARYVAR
  5
813A
102
{ACAD_REACTORS
330
8081
102
}
330
8081
100
DictionaryVariables
280
     0
  1
15
  0
DICTIONARYVAR
  5
8138
102
{ACAD_REACTORS
330
8081
102
}
330
8081
100
DictionaryVariables
280
     0
  1
0
  0
DICTIONARYVAR
  5
813F
102
{ACAD_REACTORS
330
8081
102
}
330
8081
100
DictionaryVariables
280
     0
  1
0
  0
DICTIONARYVAR
  5
8136
102
{ACAD_REACTORS
330
8081
102
}
330
8081
100
DictionaryVariables
280
     0
  1
0
  0
DICTIONARY
  5
814A
102
{ACAD_REACTORS
330
8148
102
}
330
8148
100
AcDbDictionary
281
     1
  0
DICTIONARY
  5
8149
102
{ACAD_REACTORS
330
8148
102
}
330
8148
100
AcDbDictionary
281
     1
  3
2045550894000
350
8143
  3
2045550894016
350
8144
  3
2045550894032
350
8145
  3
2045550894048
350
8146
  3
2045550894064
350
8147
  0
DICTIONARY
  5
814D
330
80D7
100
AcDbDictionary
280
     1
281
     1
  3
ACAD_XREC_ROUNDTRIP
360
814E
  0
DICTIONARY
  5
8095
330
8094
100
AcDbDictionary
280
     1
281
     1
  3
BUMPTILE
360
8097
  3
DIFFUSETILE
360
8096
  3
OPACITYTILE
360
809A
  3
REFLECTIONTILE
360
8099
  3
REFRACTIONTILE
360
809B
  3
SPECULARTILE
360
8098
  0
DICTIONARY
  5
808D
330
808C
100
AcDbDictionary
280
     1
281
     1
  3
BUMPTILE
360
808F
  3
DIFFUSETILE
360
808E
  3
OPACITYTILE
360
8092
  3
REFLECTIONTILE
360
8091
  3
REFRACTIONTILE
360
8093
  3
SPECULARTILE
360
8090
  0
DICTIONARY
  5
809D
330
809C
100
AcDbDictionary
280
     1
281
     1
  3
BUMPTILE
360
809F
  3
DIFFUSETILE
360
809E
  3
OPACITYTILE
360
80A2
  3
REFLECTIONTILE
360
80A1
  3
REFRACTIONTILE
360
80A3
  3
SPECULARTILE
360
80A0
  0
DICTIONARY
  5
814B
330
80D5
100
AcDbDictionary
280
     1
281
     1
  3
ACAD_XREC_ROUNDTRIP
360
814C
  0
DICTIONARY
  5
8140
330
80BF
100
AcDbDictionary
280
     1
281
     1
  3
ACAD_ROUNDTRIP_2008_TABLESTYLE_CELLSTYLEMAP
360
8141
  0
XRECORD
  5
8143
102
{ACAD_REACTORS
330
8149
102
}
330
8149
100
AcDbXrecord
280
     1
  1
AcDb_Thumbnail_Schema
102
{ATTRRECORD
341
8144
  2
AcDbDs::TreatedAsObjectData
280
     1
291
     1
102
ATTRRECORD}
102
{ATTRRECORD
341
8145
  2
AcDbDs::Legacy
280
     1
291
     1
102
ATTRRECORD}
  2
AcDbDs::ID
280
    10
 91
        8
102
{ATTRRECORD
341
8146
  2
AcDs:Indexable
280
     1
291
     1
102
ATTRRECORD}
102
{ATTRRECORD
341
8147
  2
AcDbDs::HandleAttribute
280
     7
282
     1
102
ATTRRECORD}
  2
Thumbnail_Data
280
    15
 91
        0
  0
XRECORD
  5
8144
102
{ACAD_REACTORS
330
8149
102
}
330
8149
100
AcDbXrecord
280
     1
  1
AcDbDs::TreatedAsObjectDataSchema
  2
AcDbDs::TreatedAsObjectData
280
     1
 91
        0
  0
XRECORD
  5
8145
102
{ACAD_REACTORS
330
8149
102
}
330
8149
100
AcDbXrecord
280
     1
  1
AcDbDs::LegacySchema
  2
AcDbDs::Legacy
280
     1
 91
        0
  0
XRECORD
  5
8146
102
{ACAD_REACTORS
330
8149
102
}
330
8149
100
AcDbXrecord
280
     1
  1
AcDbDs::IndexedPropertySchema
  2
AcDs:Indexable
280
     1
 91
        0
  0
XRECORD
  5
8147
102
{ACAD_REACTORS
330
8149
102
}
330
8149
100
AcDbXrecord
280
     1
  1
AcDbDs::HandleAttributeSchema
  2
AcDbDs::HandleAttribute
280
     7
 91
        1
284
     1
  0
XRECORD
  5
814E
102
{ACAD_REACTORS
330
814D
102
}
330
814D
100
AcDbXrecord
280
     1
102
DISPLAYNAME
  1
Metric50
102
FLAGS
 90
        0
  0
XRECORD
  5
8097
102
{ACAD_REACTORS
330
8095
102
}
330
8095
100
AcDbXrecord
280
     1
270
     1
271
     1
  0
XRECORD
  5
8096
102
{ACAD_REACTORS
330
8095
102
}
330
8095
100
AcDbXrecord
280
     1
270
     1
271
     1
  0
XRECORD
  5
809A
102
{ACAD_REACTORS
330
8095
102
}
330
8095
100
AcDbXrecord
280
     1
270
     1
271
     1
  0
XRECORD
  5
8099
102
{ACAD_REACTORS
330
8095
102
}
330
8095
100
AcDbXrecord
280
     1
270
     1
271
     1
  0
XRECORD
  5
809B
102
{ACAD_REACTORS
330
8095
102
}
330
8095
100
AcDbXrecord
280
     1
270
     1
271
     1
  0
XRECORD
  5
8098
102
{ACAD_REACTORS
330
8095
102
}
330
8095
100
AcDbXrecord
280
     1
270
     1
271
     1
  0
XRECORD
  5
808F
102
{ACAD_REACTORS
330
808D
102
}
330
808D
100
AcDbXrecord
280
     1
270
     1
271
     1
  0
XRECORD
  5
808E
102
{ACAD_REACTORS
330
808D
102
}
330
808D
100
AcDbXrecord
280
     1
270
     1
271
     1
  0
XRECORD
  5
8092
102
{ACAD_REACTORS
330
808D
102
}
330
808D
100
AcDbXrecord
280
     1
270
     1
271
     1
  0
XRECORD
  5
8091
102
{ACAD_REACTORS
330
808D
102
}
330
808D
100
AcDbXrecord
280
     1
270
     1
271
     1
  0
XRECORD
  5
8093
102
{ACAD_REACTORS
330
808D
102
}
330
808D
100
AcDbXrecord
280
     1
270
     1
271
     1
  0
XRECORD
  5
8090
102
{ACAD_REACTORS
330
808D
102
}
330
808D
100
AcDbXrecord
280
     1
270
     1
271
     1
  0
XRECORD
  5
809F
102
{ACAD_REACTORS
330
809D
102
}
330
809D
100
AcDbXrecord
280
     1
270
     1
271
     1
  0
XRECORD
  5
809E
102
{ACAD_REACTORS
330
809D
102
}
330
809D
100
AcDbXrecord
280
     1
270
     1
271
     1
  0
XRECORD
  5
80A2
102
{ACAD_REACTORS
330
809D
102
}
330
809D
100
AcDbXrecord
280
     1
270
     1
271
     1
  0
XRECORD
  5
80A1
102
{ACAD_REACTORS
330
809D
102
}
330
809D
100
AcDbXrecord
280
     1
270
     1
271
     1
  0
XRECORD
  5
80A3
102
{ACAD_REACTORS
330
809D
102
}
330
809D
100
AcDbXrecord
280
     1
270
     1
271
     1
  0
XRECORD
  5
80A0
102
{ACAD_REACTORS
330
809D
102
}
330
809D
100
AcDbXrecord
280
     1
270
     1
271
     1
  0
XRECORD
  5
814C
102
{ACAD_REACTORS
330
814B
102
}
330
814B
100
AcDbXrecord
280
     1
102
DISPLAYNAME
  1
Metric50
102
FLAGS
 90
        0
  0
CELLSTYLEMAP
  5
8141
102
{ACAD_REACTORS
330
8140
102
}
330
8140
100
AcDbCellStyleMap
 90
        3
300
CELLSTYLE
  1
TABLEFORMAT_BEGIN
 90
        5
170
     1
 91
        0
 92
    32768
 62
   257
 93
        1
300
CONTENTFORMAT
  1
CONTENTFORMAT_BEGIN
 90
        0
 91
        0
 92
      512
 93
        0
300

 40
0.0
140
1.0
 94
        5
 62
     0
340
10
144
6.0
309
CONTENTFORMAT_END
171
     1
301
MARGIN
  1
CELLMARGIN_BEGIN
 40
1.5
 40
1.5
 40
1.5
 40
1.5
 40
4.5
 40
4.5
309
CELLMARGIN_END
 94
        6
 95
        1
302
GRIDFORMAT
  1
GRIDFORMAT_BEGIN
 90
        0
 91
        1
 62
     0
 92
       -2
340
0
 93
        0
 40
1.125
309
GRIDFORMAT_END
 95
        2
302
GRIDFORMAT
  1
GRIDFORMAT_BEGIN
 90
        0
 91
        1
 62
     0
 92
       -2
340
0
 93
        0
 40
1.125
309
GRIDFORMAT_END
 95
        4
302
GRIDFORMAT
  1
GRIDFORMAT_BEGIN
 90
        0
 91
        1
 62
     0
 92
       -2
340
0
 93
        0
 40
1.125
309
GRIDFORMAT_END
 95
        8
302
GRIDFORMAT
  1
GRIDFORMAT_BEGIN
 90
        0
 91
        1
 62
     0
 92
       -2
340
0
 93
        0
 40
1.125
309
GRIDFORMAT_END
 95
       16
302
GRIDFORMAT
  1
GRIDFORMAT_BEGIN
 90
        0
 91
        1
 62
     0
 92
       -2
340
0
 93
        0
 40
1.125
309
GRIDFORMAT_END
 95
       32
302
GRIDFORMAT
  1
GRIDFORMAT_BEGIN
 90
        0
 91
        1
 62
     0
 92
       -2
340
0
 93
        0
 40
1.125
309
GRIDFORMAT_END
309
TABLEFORMAT_END
  1
CELLSTYLE_BEGIN
 90
        1
 91
        1
300
_TITLE
309
CELLSTYLE_END
300
CELLSTYLE
  1
TABLEFORMAT_BEGIN
 90
        5
170
     1
 91
        0
 92
        0
 62
   257
 93
        1
300
CONTENTFORMAT
  1
CONTENTFORMAT_BEGIN
 90
        0
 91
        0
 92
      512
 93
        0
300

 40
0.0
140
1.0
 94
        5
 62
     0
340
10
144
4.5
309
CONTENTFORMAT_END
171
     1
301
MARGIN
  1
CELLMARGIN_BEGIN
 40
1.5
 40
1.5
 40
1.5
 40
1.5
 40
4.5
 40
4.5
309
CELLMARGIN_END
 94
        6
 95
        1
302
GRIDFORMAT
  1
GRIDFORMAT_BEGIN
 90
        0
 91
        1
 62
     0
 92
       -2
340
0
 93
        0
 40
1.125
309
GRIDFORMAT_END
 95
        2
302
GRIDFORMAT
  1
GRIDFORMAT_BEGIN
 90
        0
 91
        1
 62
     0
 92
       -2
340
0
 93
        0
 40
1.125
309
GRIDFORMAT_END
 95
        4
302
GRIDFORMAT
  1
GRIDFORMAT_BEGIN
 90
        0
 91
        1
 62
     0
 92
       -2
340
0
 93
        0
 40
1.125
309
GRIDFORMAT_END
 95
        8
302
GRIDFORMAT
  1
GRIDFORMAT_BEGIN
 90
        0
 91
        1
 62
     0
 92
       -2
340
0
 93
        0
 40
1.125
309
GRIDFORMAT_END
 95
       16
302
GRIDFORMAT
  1
GRIDFORMAT_BEGIN
 90
        0
 91
        1
 62
     0
 92
       -2
340
0
 93
        0
 40
1.125
309
GRIDFORMAT_END
 95
       32
302
GRIDFORMAT
  1
GRIDFORMAT_BEGIN
 90
        0
 91
        1
 62
     0
 92
       -2
340
0
 93
        0
 40
1.125
309
GRIDFORMAT_END
309
TABLEFORMAT_END
  1
CELLSTYLE_BEGIN
 90
        2
 91
        1
300
_HEADER
309
CELLSTYLE_END
300
CELLSTYLE
  1
TABLEFORMAT_BEGIN
 90
        5
170
     1
 91
        0
 92
        0
 62
   257
 93
        1
300
CONTENTFORMAT
  1
CONTENTFORMAT_BEGIN
 90
        0
 91
        0
 92
      512
 93
        0
300

 40
0.0
140
1.0
 94
        2
 62
     0
340
10
144
4.5
309
CONTENTFORMAT_END
171
     1
301
MARGIN
  1
CELLMARGIN_BEGIN
 40
1.5
 40
1.5
 40
1.5
 40
1.5
 40
4.5
 40
4.5
309
CELLMARGIN_END
 94
        6
 95
        1
302
GRIDFORMAT
  1
GRIDFORMAT_BEGIN
 90
        0
 91
        1
 62
     0
 92
       -2
340
0
 93
        0
 40
1.125
309
GRIDFORMAT_END
 95
        2
302
GRIDFORMAT
  1
GRIDFORMAT_BEGIN
 90
        0
 91
        1
 62
     0
 92
       -2
340
0
 93
        0
 40
1.125
309
GRIDFORMAT_END
 95
        4
302
GRIDFORMAT
  1
GRIDFORMAT_BEGIN
 90
        0
 91
        1
 62
     0
 92
       -2
340
0
 93
        0
 40
1.125
309
GRIDFORMAT_END
 95
        8
302
GRIDFORMAT
  1
GRIDFORMAT_BEGIN
 90
        0
 91
        1
 62
     0
 92
       -2
340
0
 93
        0
 40
1.125
309
GRIDFORMAT_END
 95
       16
302
GRIDFORMAT
  1
GRIDFORMAT_BEGIN
 90
        0
 91
        1
 62
     0
 92
       -2
340
0
 93
        0
 40
1.125
309
GRIDFORMAT_END
 95
       32
302
GRIDFORMAT
  1
GRIDFORMAT_BEGIN
 90
        0
 91
        1
 62
     0
 92
       -2
340
0
 93
        0
 40
1.125
309
GRIDFORMAT_END
309
TABLEFORMAT_END
  1
CELLSTYLE_BEGIN
 90
        3
 91
        2
300
_DATA
309
CELLSTYLE_END
  0
ENDSEC
  0
SECTION
  2
ACDSDATA
 70
     2
 71
     8
  0
ACDSSCHEMA
 90
        0
  1
AcDb_Thumbnail_Schema
  2
AcDbDs::ID
280
    10
 91
        8
  2
Thumbnail_Data
280
    15
 91
        0
101
ACDSRECORD
 95
        0
 90
        1
  2
AcDbDs::TreatedAsObjectData
280
     1
291
     1
101
ACDSRECORD
 95
        0
 90
        2
  2
AcDbDs::Legacy
280
     1
291
     1
101
ACDSRECORD
  1
AcDbDs::ID
 90
        3
  2
AcDs:Indexable
280
     1
291
     1
101
ACDSRECORD
  1
AcDbDs::ID
 90
        4
  2
AcDbDs::HandleAttribute
280
     7
282
     1
  0
ACDSSCHEMA
 90
        1
  1
AcDbDs::TreatedAsObjectDataSchema
  2
AcDbDs::TreatedAsObjectData
280
     1
 91
        0
  0
ACDSSCHEMA
 90
        2
  1
AcDbDs::LegacySchema
  2
AcDbDs::Legacy
280
     1
 91
        0
  0
ACDSSCHEMA
 90
        3
  1
AcDbDs::IndexedPropertySchema
  2
AcDs:Indexable
280
     1
 91
        0
  0
ACDSSCHEMA
 90
        4
  1
AcDbDs::HandleAttributeSchema
  2
AcDbDs::HandleAttribute
280
     7
 91
        1
284
     1
  0
ACDSRECORD
 90
        0
  2
AcDbDs::ID
280
    10
320
8036
  2
Thumbnail_Data
280
    15
 94
     1720
310
89504E470D0A1A0A0000000D49484452000001000000007C0803000000B13B9E5A00000300504C5445000000000000C8C8C80000000000000000000000000000000000000000000000000000330000660000990000CC0000FF0033000033330033660033990033CC0033FF0066000066330066660066990066CC0066FF0099
310
000099330099660099990099CC0099FF00CC0000CC3300CC6600CC9900CCCC00CCFF00FF0000FF3300FF6600FF9900FFCC00FFFF3300003300333300663300993300CC3300FF3333003333333333663333993333CC3333FF3366003366333366663366993366CC3366FF3399003399333399663399993399CC3399FF33CC00
310
33CC3333CC6633CC9933CCCC33CCFF33FF0033FF3333FF6633FF9933FFCC33FFFF6600006600336600666600996600CC6600FF6633006633336633666633996633CC6633FF6666006666336666666666996666CC6666FF6699006699336699666699996699CC6699FF66CC0066CC3366CC6666CC9966CCCC66CCFF66FF0066
310
FF3366FF6666FF9966FFCC66FFFF9900009900339900669900999900CC9900FF9933009933339933669933999933CC9933FF9966009966339966669966999966CC9966FF9999009999339999669999999999CC9999FF99CC0099CC3399CC6699CC9999CCCC99CCFF99FF0099FF3399FF6699FF9999FFCC99FFFFCC0000CC00
310
33CC0066CC0099CC00CCCC00FFCC3300CC3333CC3366CC3399CC33CCCC33FFCC6600CC6633CC6666CC6699CC66CCCC66FFCC9900CC9933CC9966CC9999CC99CCCC99FFCCCC00CCCC33CCCC66CCCC99CCCCCCCCCCFFCCFF00CCFF33CCFF66CCFF99CCFFCCCCFFFFFF0000FF0033FF0066FF0099FF00CCFF00FFFF3300FF3333
310
FF3366FF3399FF33CCFF33FFFF6600FF6633FF6666FF6699FF66CCFF66FFFF9900FF9933FF9966FF9999FF99CCFF99FFFFCC00FFCC33FFCC66FFCC99FFCCCCFFCCFFFFFF00FFFF33FFFF66FFFF99FFFFCCFFFFFF0000000D0D0D1A1A1A2828283535354343435050505D5D5D6B6B6B787878868686939393A1A1A1AEAEAEBB
310
BBBBC9C9C9D6D6D6E4E4E4F1F1F1FFFFFF00000000000000000000000000000000000000000000000000000000000008F1915C000003734944415478DAED9D5972C3200C86751C5EB8FF65740DDE9B621621643B9EE9122D4CDBE08464A22F3F92584A007EA1945F2AA0A514552F1B00024000080001E073DEE945F0F30280
310
3DBDB854807B00C53300D60B7403F8D111804A001FF66201E01F00341D134997A50E5DE447DBD973DA9D1600C061344CB3A15D769F574ACB004AAF42E97F4D2800CEFC5B53C061EB540079C04A17E8495EA17DE2DAB6124E30F2008783A1DB2EA110C01A017765F4A78C0841E3A02D00450430434007C05CA4FA2EB0643EDC
310
7E1A0387F9C600FCD0F3634E30000400A5001071B9A097D60120311919007401E0AA78518054F7A300C1E014009C02C8BC3CF4039A012C76A7517BA602DD008810D2A8390200795A1D005C02E8043278057010C8E017C090815B003D161000C6F380579E3362BF5CAC03A0AECFA5025600820F70006024BD6214B00D002B80
310
6F7BB3CF3C6001E031130C000480CFD1200520163F00968733B90D005EF2805DFC2E00D4B140E2C6274F93A2570A70372DCE4B00F006802F88C6EA70740107001E97B99382566D007847F7B40D6F6FCF07A0F0E193FD34AD8ECA01AC30687503708349B3134402E0B05D02205FD800F06E17300B80E6417812074F36131A54
310
C01580DE261BF4019BDD228076917637AA184046BE37EA5410B84F1A5850C0D984006EDE6EDF496503009F2169F3610280BD0B7491980090EB2C6923502DBB0390471B0B00725F1CAD04FC01C87379FC9B803B0055F763B53C6F003259432400ECF88019020E10CC0966EB00AA7DAF9FD40000C23220A80FDB04906A58AFBF
310
89DCB211517F642D46144057C4F2A902C42E90B503484DFA87139C5B865A20BCED026327914E00F4B36FD6F730F82600D01D06C91EB15E4DD4FEFB28A019404A78F8BB61FD4C85BB00088057CB94EC2920C1DE0B9A2690E50190ED0D8668EEB3DA260038EB02A01EC01C0890B1C0A16D6423659B004E3789AD53C3E2BF9665
310
D500E8CE58D6054000B03722776ADD2293CE04B02F0E185480D405904D8E8AAD8DCD09025D09EB43001427C6C96103F4D801FD00900140905707D9EAB07A0097ABE3EFAD0FAB06705D9E6D130A00F6007CC4CB068000100002400008007FF54EDD9F2AFBDC3217004AE167AF033D6ED5140010BE3A8D9CB83E8EDE350BC0BD
310
0F9015300EE08771D4BE2F1F3001CCE3F6CD0310EE24C7EF17070A88D3E523150E0001200004800010000C0250F4D5DB5F953D4578F8B7E7310000000049454E44AE426082
  0
ENDSEC
  0
EOF
