  0
SECTION
  2
HEADER
  9
$ACADVER
  1
AC1027
  9
$ACADMAINTVER
 70
   125
  9
$DWGCODEPAGE
  3
ANSI_932
  9
$LASTSAVEDBY
  1
yasukiyo.ogawa
  9
$REQUIREDVERSIONS
160
                 0
  9
$INSBASE
 10
0.0
 20
0.0
 30
0.0
  9
$EXTMIN
 10
0.0
 20
0.0
 30
0.0
  9
$EXTMAX
 10
6300.0
 20
8850.0
 30
0.0
  9
$LIMMIN
 10
0.0
 20
0.0
  9
$LIMMAX
 10
297.0
 20
210.0
  9
$ORTHOMODE
 70
     1
  9
$REGENMODE
 70
     1
  9
$FILLMODE
 70
     0
  9
$QTEXTMODE
 70
     0
  9
$MIRRTEXT
 70
     1
  9
$LTSCALE
 40
100.0
  9
$ATTMODE
 70
     1
  9
$TEXTSIZE
 40
180.0
  9
$TRACEWID
 40
0.05
  9
$TEXTSTYLE
  7
STANDARD
  9
$CLAYER
  8
3
  9
$CELTYPE
  6
BYLAYER
  9
$CECOLOR
 62
   256
  9
$CELTSCALE
 40
1.0
  9
$DISPSILH
 70
     0
  9
$DIMSCALE
 40
30.0
  9
$DIMASZ
 40
2.0
  9
$DIMEXO
 40
0.5
  9
$DIMDLI
 40
10.0
  9
$DIMRND
 40
0.0
  9
$DIMDLE
 40
0.0
  9
$DIMEXE
 40
1.0
  9
$DIMTP
 40
1.0
  9
$DIMTM
 40
1.0
  9
$DIMTXT
 40
3.0
  9
$DIMCEN
 40
0.0
  9
$DIMTSZ
 40
0.0
  9
$DIMTOL
 70
     0
  9
$DIMLIM
 70
     0
  9
$DIMTIH
 70
     0
  9
$DIMTOH
 70
     0
  9
$DIMSE1
 70
     0
  9
$DIMSE2
 70
     0
  9
$DIMTAD
 70
     1
  9
$DIMZIN
 70
     8
  9
$DIMBLK
  1

  9
$DIMASO
 70
     1
  9
$DIMSHO
 70
     1
  9
$DIMPOST
  1
(<>)
  9
$DIMAPOST
  1

  9
$DIMALT
 70
     0
  9
$DIMALTD
 70
     2
  9
$DIMALTF
 40
0.039
  9
$DIMLFAC
 40
1.0
  9
$DIMTOFL
 70
     1
  9
$DIMTVP
 40
0.0
  9
$DIMTIX
 70
     0
  9
$DIMSOXD
 70
     0
  9
$DIMSAH
 70
     1
  9
$DIMBLK1
  1
OPEN
  9
$DIMBLK2
  1
OPEN
  9
$DIMSTYLE
  2
IGA
  9
$DIMCLRD
 70
     0
  9
$DIMCLRE
 70
     0
  9
$DIMCLRT
 70
     0
  9
$DIMTFAC
 40
10.0
  9
$DIMGAP
 40
1.0
  9
$DIMJUST
 70
     0
  9
$DIMSD1
 70
     0
  9
$DIMSD2
 70
     0
  9
$DIMTOLJ
 70
     1
  9
$DIMTZIN
 70
     8
  9
$DIMALTZ
 70
     0
  9
$DIMALTTZ
 70
     0
  9
$DIMUPT
 70
     0
  9
$DIMDEC
 70
     0
  9
$DIMTDEC
 70
     0
  9
$DIMALTU
 70
     2
  9
$DIMALTTD
 70
     2
  9
$DIMTXSTY
  7
STANDARD
  9
$DIMAUNIT
 70
     0
  9
$DIMADEC
 70
     0
  9
$DIMALTRND
 40
0.0
  9
$DIMAZIN
 70
     0
  9
$DIMDSEP
 70
    46
  9
$DIMATFIT
 70
     3
  9
$DIMFRAC
 70
     0
  9
$DIMLDRBLK
  1
OPEN
  9
$DIMLUNIT
 70
     2
  9
$DIMLWD
 70
    -2
  9
$DIMLWE
 70
    -2
  9
$DIMTMOVE
 70
     2
  9
$DIMFXL
 40
1.0
  9
$DIMFXLON
 70
     0
  9
$DIMJOGANG
 40
0.7853981633974483
  9
$DIMTFILL
 70
     0
  9
$DIMTFILLCLR
 70
     0
  9
$DIMARCSYM
 70
     0
  9
$DIMLTYPE
  6

  9
$DIMLTEX1
  6

  9
$DIMLTEX2
  6

  9
$DIMTXTDIRECTION
 70
     0
  9
$LUNITS
 70
     2
  9
$LUPREC
 70
     3
  9
$SKETCHINC
 40
0.1
  9
$FILLETRAD
 40
50.0
  9
$AUNITS
 70
     0
  9
$AUPREC
 70
     0
  9
$MENU
  1
acad
  9
$ELEVATION
 40
0.0
  9
$PELEVATION
 40
0.0
  9
$THICKNESS
 40
0.0
  9
$LIMCHECK
 70
     0
  9
$CHAMFERA
 40
0.5
  9
$CHAMFERB
 40
0.5
  9
$CHAMFERC
 40
20.0
  9
$CHAMFERD
 40
0.0
  9
$SKPOLY
 70
     0
  9
$TDCREATE
 40
2451382.446087963
  9
$TDUCREATE
 40
2451382.071089005
  9
$TDUPDATE
 40
2460241.633993056
  9
$TDUUPDATE
 40
2460241.259002003
  9
$TDINDWG
 40
0.0378963194
  9
$TDUSRTIMER
 40
0.0378963194
  9
$USRTIMER
 70
     1
  9
$ANGBASE
 50
0.0
  9
$ANGDIR
 70
     0
  9
$PDMODE
 70
     0
  9
$PDSIZE
 40
0.0
  9
$PLINEWID
 40
0.0
  9
$SPLFRAME
 70
     0
  9
$SPLINETYPE
 70
     6
  9
$SPLINESEGS
 70
     8
  9
$HANDSEED
  5
8707
  9
$SURFTAB1
 70
     6
  9
$SURFTAB2
 70
     6
  9
$SURFTYPE
 70
     6
  9
$SURFU
 70
     6
  9
$SURFV
 70
     6
  9
$UCSBASE
  2

  9
$UCSNAME
  2

  9
$UCSORG
 10
0.0
 20
0.0
 30
0.0
  9
$UCSXDIR
 10
1.0
 20
0.0
 30
0.0
  9
$UCSYDIR
 10
0.0
 20
1.0
 30
0.0
  9
$UCSORTHOREF
  2

  9
$UCSORTHOVIEW
 70
     0
  9
$UCSORGTOP
 10
0.0
 20
0.0
 30
0.0
  9
$UCSORGBOTTOM
 10
0.0
 20
0.0
 30
0.0
  9
$UCSORGLEFT
 10
0.0
 20
0.0
 30
0.0
  9
$UCSORGRIGHT
 10
0.0
 20
0.0
 30
0.0
  9
$UCSORGFRONT
 10
0.0
 20
0.0
 30
0.0
  9
$UCSORGBACK
 10
0.0
 20
0.0
 30
0.0
  9
$PUCSBASE
  2

  9
$PUCSNAME
  2

  9
$PUCSORG
 10
0.0
 20
0.0
 30
0.0
  9
$PUCSXDIR
 10
1.0
 20
0.0
 30
0.0
  9
$PUCSYDIR
 10
0.0
 20
1.0
 30
0.0
  9
$PUCSORTHOREF
  2

  9
$PUCSORTHOVIEW
 70
     0
  9
$PUCSORGTOP
 10
0.0
 20
0.0
 30
0.0
  9
$PUCSORGBOTTOM
 10
0.0
 20
0.0
 30
0.0
  9
$PUCSORGLEFT
 10
0.0
 20
0.0
 30
0.0
  9
$PUCSORGRIGHT
 10
0.0
 20
0.0
 30
0.0
  9
$PUCSORGFRONT
 10
0.0
 20
0.0
 30
0.0
  9
$PUCSORGBACK
 10
0.0
 20
0.0
 30
0.0
  9
$USERI1
 70
     0
  9
$USERI2
 70
     0
  9
$USERI3
 70
     0
  9
$USERI4
 70
     0
  9
$USERI5
 70
     0
  9
$USERR1
 40
0.0
  9
$USERR2
 40
0.0
  9
$USERR3
 40
0.0
  9
$USERR4
 40
0.0
  9
$USERR5
 40
0.0
  9
$WORLDVIEW
 70
     1
  9
$SHADEDGE
 70
     3
  9
$SHADEDIF
 70
    70
  9
$TILEMODE
 70
     1
  9
$MAXACTVP
 70
    16
  9
$PINSBASE
 10
0.0
 20
0.0
 30
0.0
  9
$PLIMCHECK
 70
     0
  9
$PEXTMIN
 10
1.000000000000000E+20
 20
1.000000000000000E+20
 30
1.000000000000000E+20
  9
$PEXTMAX
 10
-1.000000000000000E+20
 20
-1.000000000000000E+20
 30
-1.000000000000000E+20
  9
$PLIMMIN
 10
0.0
 20
0.0
  9
$PLIMMAX
 10
12.0
 20
9.0
  9
$UNITMODE
 70
     0
  9
$VISRETAIN
 70
     0
  9
$PLINEGEN
 70
     0
  9
$PSLTSCALE
 70
     1
  9
$TREEDEPTH
 70
  3020
  9
$CMLSTYLE
  2
STANDARD
  9
$CMLJUST
 70
     0
  9
$CMLSCALE
 40
20.0
  9
$PROXYGRAPHICS
 70
     1
  9
$MEASUREMENT
 70
     1
  9
$CELWEIGHT
370
    -1
  9
$ENDCAPS
280
     0
  9
$JOINSTYLE
280
     0
  9
$LWDISPLAY
290
     0
  9
$INSUNITS
 70
     0
  9
$HYPERLINKBASE
  1

  9
$STYLESHEET
  1

  9
$XEDIT
290
     1
  9
$CEPSNTYPE
380
     0
  9
$PSTYLEMODE
290
     1
  9
$FINGERPRINTGUID
  2
{42A7E3AA-A6D6-4B37-898E-6B420D6112F6}
  9
$VERSIONGUID
  2
{EB1F3C24-63CD-4A21-B791-437F4D496FE9}
  9
$EXTNAMES
290
     1
  9
$PSVPSCALE
 40
0.0
  9
$OLESTARTUP
290
     0
  9
$SORTENTS
280
   127
  9
$INDEXCTL
280
     0
  9
$HIDETEXT
280
     0
  9
$XCLIPFRAME
280
     2
  9
$HALOGAP
280
     0
  9
$OBSCOLOR
 70
   257
  9
$OBSLTYPE
280
     0
  9
$INTERSECTIONDISPLAY
280
     0
  9
$INTERSECTIONCOLOR
 70
   257
  9
$DIMASSOC
280
     1
  9
$PROJECTNAME
  1

  9
$CAMERADISPLAY
290
     0
  9
$LENSLENGTH
 40
50.0
  9
$CAMERAHEIGHT
 40
0.0
  9
$STEPSPERSEC
 40
2.0
  9
$STEPSIZE
 40
6.0
  9
$3DDWFPREC
 40
2.0
  9
$PSOLWIDTH
 40
0.25
  9
$PSOLHEIGHT
 40
4.0
  9
$LOFTANG1
 40
1.570796326794896
  9
$LOFTANG2
 40
1.570796326794896
  9
$LOFTMAG1
 40
0.0
  9
$LOFTMAG2
 40
0.0
  9
$LOFTPARAM
 70
     7
  9
$LOFTNORMALS
280
     1
  9
$LATITUDE
 40
37.795
  9
$LONGITUDE
 40
-122.394
  9
$NORTHDIRECTION
 40
0.0
  9
$TIMEZONE
 70
 -8000
  9
$LIGHTGLYPHDISPLAY
280
     1
  9
$TILEMODELIGHTSYNCH
280
     1
  9
$CMATERIAL
347
8644
  9
$SOLIDHIST
280
     0
  9
$SHOWHIST
280
     1
  9
$DWFFRAME
280
     2
  9
$DGNFRAME
280
     0
  9
$REALWORLDSCALE
290
     1
  9
$INTERFERECOLOR
 62
     1
  9
$INTERFEREOBJVS
345
8666
  9
$INTERFEREVPVS
346
8663
  9
$CSHADOW
280
     0
  9
$SHADOWPLANELOCATION
 40
0.0
  0
ENDSEC
  0
SECTION
  2
CLASSES
  0
CLASS
  1
ACDBDICTIONARYWDFLT
  2
AcDbDictionaryWithDefault
  3
ObjectDBX Classes
 90
        0
 91
        1
280
     0
281
     0
  0
CLASS
  1
DICTIONARYVAR
  2
AcDbDictionaryVar
  3
ObjectDBX Classes
 90
        0
 91
       11
280
     0
281
     0
  0
CLASS
  1
MATERIAL
  2
AcDbMaterial
  3
ObjectDBX Classes
 90
     1153
 91
        3
280
     0
281
     0
  0
CLASS
  1
VISUALSTYLE
  2
AcDbVisualStyle
  3
ObjectDBX Classes
 90
     4095
 91
       24
280
     0
281
     0
  0
CLASS
  1
TABLESTYLE
  2
AcDbTableStyle
  3
ObjectDBX Classes
 90
     4095
 91
        1
280
     0
281
     0
  0
CLASS
  1
SCALE
  2
AcDbScale
  3
ObjectDBX Classes
 90
     1153
 91
       17
280
     0
281
     0
  0
CLASS
  1
MLEADERSTYLE
  2
AcDbMLeaderStyle
  3
ACDB_MLEADERSTYLE_CLASS
 90
     4095
 91
        1
280
     0
281
     0
  0
CLASS
  1
ACDBSECTIONVIEWSTYLE
  2
AcDbSectionViewStyle
  3
ObjectDBX Classes
 90
     1025
 91
        1
280
     0
281
     0
  0
CLASS
  1
ACDBDETAILVIEWSTYLE
  2
AcDbDetailViewStyle
  3
ObjectDBX Classes
 90
     1025
 91
        1
280
     0
281
     0
  0
CLASS
  1
CELLSTYLEMAP
  2
AcDbCellStyleMap
  3
ObjectDBX Classes
 90
     1152
 91
        1
280
     0
281
     0
  0
ENDSEC
  0
SECTION
  2
TABLES
  0
TABLE
  2
VPORT
  5
8
330
0
100
AcDbSymbolTable
 70
     1
1001
ACAD
1000
DbSaveVer
1071
      278
  0
VPORT
  5
8641
330
8
100
AcDbSymbolTableRecord
100
AcDbViewportTableRecord
  2
*Active
 70
     0
 10
0.0
 20
0.0
 11
1.0
 21
1.0
 12
4041.170278991937
 22
4425.000020605514
 13
0.0
 23
0.0
 14
10.0
 24
10.0
 15
10.0
 25
10.0
 16
0.0
 26
0.0
 36
1.0
 17
0.0
 27
0.0
 37
0.0
 40
8907.213844128961
 41
2.250314465408805
 42
50.0
 43
0.0
 44
0.0
 50
0.0
 51
0.0
 71
     0
 72
   100
 73
     1
 74
     0
 75
     0
 76
     0
 77
     0
 78
     0
281
     0
 65
     1
110
0.0
120
0.0
130
0.0
111
1.0
121
0.0
131
0.0
112
0.0
122
1.0
132
0.0
 79
     0
146
0.0
348
8662
 60
     3
 61
     5
292
     1
282
     1
141
0.0
142
0.0
 63
   250
421
  3355443
1001
ACAD_NAV_VCDISPLAY
1070
     3
  0
ENDTAB
  0
TABLE
  2
LTYPE
  5
5
330
0
100
AcDbSymbolTable
 70
     2
  0
LTYPE
  5
13
330
5
100
AcDbSymbolTableRecord
100
AcDbLinetypeTableRecord
  2
BYBLOCK
 70
     0
  3

 72
    65
 73
     0
 40
0.0
  0
LTYPE
  5
14
330
5
100
AcDbSymbolTableRecord
100
AcDbLinetypeTableRecord
  2
BYLAYER
 70
     0
  3

 72
    65
 73
     0
 40
0.0
  0
LTYPE
  5
15
330
5
100
AcDbSymbolTableRecord
100
AcDbLinetypeTableRecord
  2
CONTINUOUS
 70
     0
  3
Solid line
 72
    65
 73
     0
 40
0.0
  0
LTYPE
  5
1F
330
5
100
AcDbSymbolTableRecord
100
AcDbLinetypeTableRecord
  2
CENTER
 70
     0
  3
____ _ ____ _ ____ _ ____ _ ____ _ ____ _ ____ 
 72
    65
 73
     4
 40
2.0
 49
1.25
 74
     0
 49
-0.25
 74
     0
 49
0.25
 74
     0
 49
-0.25
 74
     0
  0
ENDTAB
  0
TABLE
  2
LAYER
  5
2
102
{ACAD_XDICTIONARY
360
86DE
102
}
330
0
100
AcDbSymbolTable
 70
     6
  0
LAYER
  5
F
102
{ACAD_XDICTIONARY
360
86D1
102
}
330
2
100
AcDbSymbolTableRecord
100
AcDbLayerTableRecord
  2
0
 70
     0
 62
     7
  6
CONTINUOUS
370
    -3
390
8548
347
8654
348
0
  0
LAYER
  5
31
102
{ACAD_XDICTIONARY
360
86D3
102
}
330
2
100
AcDbSymbolTableRecord
100
AcDbLayerTableRecord
  2
3
 70
     0
 62
     2
  6
CONTINUOUS
370
    -3
390
8548
347
8654
348
0
  0
LAYER
  5
76D0
102
{ACAD_XDICTIONARY
360
86D5
102
}
330
2
100
AcDbSymbolTableRecord
100
AcDbLayerTableRecord
  2
2
 70
     0
 62
     3
  6
CENTER
370
    -3
390
8548
347
8654
348
0
  0
LAYER
  5
76D1
102
{ACAD_XDICTIONARY
360
86D7
102
}
330
2
100
AcDbSymbolTableRecord
100
AcDbLayerTableRecord
  2
1
 70
     0
 62
     4
  6
CONTINUOUS
370
    -3
390
8548
347
8654
348
0
  0
LAYER
  5
76D2
102
{ACAD_XDICTIONARY
360
86D9
102
}
330
2
100
AcDbSymbolTableRecord
100
AcDbLayerTableRecord
  2
4
 70
     0
 62
     7
  6
CONTINUOUS
370
    -3
390
8548
347
8654
348
0
  0
LAYER
  5
7B3D
330
2
100
AcDbSymbolTableRecord
100
AcDbLayerTableRecord
  2
DEFPOINTS
 70
     0
 62
     7
  6
CONTINUOUS
290
     0
370
    -3
390
8548
347
8654
348
0
  0
ENDTAB
  0
TABLE
  2
STYLE
  5
3
330
0
100
AcDbSymbolTable
 70
     1
  0
STYLE
  5
10
330
3
100
AcDbSymbolTableRecord
100
AcDbTextStyleTableRecord
  2
STANDARD
 70
     0
 40
0.0
 41
1.0
 50
0.0
 71
     0
 42
180.0
  3
simplex.shx
  4
extfont.shx
  0
ENDTAB
  0
TABLE
  2
VIEW
  5
6
330
0
100
AcDbSymbolTable
 70
     0
  0
ENDTAB
  0
TABLE
  2
UCS
  5
7
330
0
100
AcDbSymbolTable
 70
     0
  0
ENDTAB
  0
TABLE
  2
APPID
  5
9
330
0
100
AcDbSymbolTable
 70
     2
  0
APPID
  5
11
330
9
100
AcDbSymbolTableRecord
100
AcDbRegAppTableRecord
  2
ACAD
 70
     0
  0
APPID
  5
86E4
330
9
100
AcDbSymbolTableRecord
100
AcDbRegAppTableRecord
  2
ACAD_NAV_VCDISPLAY
 70
     0
  0
ENDTAB
  0
TABLE
  2
DIMSTYLE
  5
A
330
0
100
AcDbSymbolTable
 70
     2
100
AcDbDimStyleTable
 71
     1
340
1D
  0
DIMSTYLE
105
1D
102
{ACAD_REACTORS
330
8470
330
8480
330
853B
330
8693
330
86A0
102
}
330
A
100
AcDbSymbolTableRecord
100
AcDbDimStyleTableRecord
  2
IGA
 70
     0
 40
2.0
 41
2.0
 42
0.5
 43
10.0
 44
1.0
 47
1.0
 48
1.0
 73
     0
 74
     0
 77
     1
 78
     8
140
3.0
141
0.0
143
0.03937
146
10.0
147
1.0
173
     1
271
     1
272
     0
279
     2
284
     8
340
10
341
845B
343
845B
344
845B
  0
DIMSTYLE
105
7B40
102
{ACAD_REACTORS
330
7F2C
330
7F2D
330
7F2E
330
7F2F
330
7F37
330
7F38
330
7F49
330
7F4E
330
7F4F
330
7F50
330
7F51
330
7F52
330
7F81
330
7F83
330
7F88
330
7F8C
330
7F95
102
}
330
A
100
AcDbSymbolTableRecord
100
AcDbDimStyleTableRecord
  2
MATSU
 70
     0
 41
2.0
 42
1.0
 43
10.0
 44
1.0
 73
     0
 74
     0
 77
     1
 78
     8
140
3.0
141
0.0
143
0.03937
147
0.5
172
     1
173
     1
176
   256
177
   256
178
   256
272
     3
284
     8
289
     0
340
10
341
845B
343
845B
344
845B
  0
ENDTAB
  0
TABLE
  2
BLOCK_RECORD
  5
1
330
0
100
AcDbSymbolTable
 70
    28
  0
BLOCK_RECORD
  5
19
102
{ACAD_XDICTIONARY
360
8576
102
}
330
1
100
AcDbSymbolTableRecord
100
AcDbBlockTableRecord
  2
*MODEL_SPACE
340
854B
 70
     0
280
     1
281
     0
  0
BLOCK_RECORD
  5
16
102
{ACAD_XDICTIONARY
360
8574
102
}
330
1
100
AcDbSymbolTableRecord
100
AcDbBlockTableRecord
  2
*PAPER_SPACE
340
854C
 70
     0
280
     1
281
     0
  0
BLOCK_RECORD
  5
79FC
330
1
100
AcDbSymbolTableRecord
100
AcDbBlockTableRecord
  2
YA_N
340
0
102
{BLKREFS
331
7EF9
331
7F10
331
7F12
102
}
 70
     0
280
     1
281
     0
  0
BLOCK_RECORD
  5
79FF
330
1
100
AcDbSymbolTableRecord
100
AcDbBlockTableRecord
  2
ARROW
340
0
102
{BLKREFS
331
85C0
331
85C1
331
85C9
331
85CA
331
85D2
331
85D3
331
85DB
331
85DC
331
85E4
331
85E5
331
85ED
331
85EE
331
85F6
331
85F7
331
85FF
331
8600
331
8608
331
8609
331
8611
331
8612
331
8581
331
8582
331
858A
331
858B
331
8593
331
8594
331
859C
331
859D
331
85A5
331
85A6
331
85AE
331
85AF
331
85B7
331
85B8
102
}
 70
     0
280
     1
281
     0
  0
BLOCK_RECORD
  5
7FBC
330
1
100
AcDbSymbolTableRecord
100
AcDbBlockTableRecord
  2
*D2
340
0
 70
     0
280
     1
281
     0
  0
BLOCK_RECORD
  5
7FC8
330
1
100
AcDbSymbolTableRecord
100
AcDbBlockTableRecord
  2
*D3
340
0
 70
     0
280
     1
281
     0
  0
BLOCK_RECORD
  5
7FD4
330
1
100
AcDbSymbolTableRecord
100
AcDbBlockTableRecord
  2
*D4
340
0
 70
     0
280
     1
281
     0
  0
BLOCK_RECORD
  5
7FE0
330
1
100
AcDbSymbolTableRecord
100
AcDbBlockTableRecord
  2
*D5
340
0
 70
     0
280
     1
281
     0
  0
BLOCK_RECORD
  5
7FEC
330
1
100
AcDbSymbolTableRecord
100
AcDbBlockTableRecord
  2
*D6
340
0
 70
     0
280
     1
281
     0
  0
BLOCK_RECORD
  5
7FF8
330
1
100
AcDbSymbolTableRecord
100
AcDbBlockTableRecord
  2
*D7
340
0
 70
     0
280
     1
281
     0
  0
BLOCK_RECORD
  5
8004
330
1
100
AcDbSymbolTableRecord
100
AcDbBlockTableRecord
  2
*D8
340
0
 70
     0
280
     1
281
     0
  0
BLOCK_RECORD
  5
801C
330
1
100
AcDbSymbolTableRecord
100
AcDbBlockTableRecord
  2
*D9
340
0
 70
     0
280
     1
281
     0
  0
BLOCK_RECORD
  5
8028
330
1
100
AcDbSymbolTableRecord
100
AcDbBlockTableRecord
  2
*D10
340
0
 70
     0
280
     1
281
     0
  0
BLOCK_RECORD
  5
8034
330
1
100
AcDbSymbolTableRecord
100
AcDbBlockTableRecord
  2
*D11
340
0
 70
     0
280
     1
281
     0
  0
BLOCK_RECORD
  5
8040
330
1
100
AcDbSymbolTableRecord
100
AcDbBlockTableRecord
  2
*D12
340
0
 70
     0
280
     1
281
     0
  0
BLOCK_RECORD
  5
804C
330
1
100
AcDbSymbolTableRecord
100
AcDbBlockTableRecord
  2
*D13
340
0
 70
     0
280
     1
281
     0
  0
BLOCK_RECORD
  5
8064
330
1
100
AcDbSymbolTableRecord
100
AcDbBlockTableRecord
  2
*D14
340
0
 70
     0
280
     1
281
     0
  0
BLOCK_RECORD
  5
8070
330
1
100
AcDbSymbolTableRecord
100
AcDbBlockTableRecord
  2
*D15
340
0
 70
     0
280
     1
281
     0
  0
BLOCK_RECORD
  5
8088
330
1
100
AcDbSymbolTableRecord
100
AcDbBlockTableRecord
  2
*D16
340
0
 70
     0
280
     1
281
     0
  0
BLOCK_RECORD
  5
8094
330
1
100
AcDbSymbolTableRecord
100
AcDbBlockTableRecord
  2
*D17
340
0
 70
     0
280
     1
281
     0
  0
BLOCK_RECORD
  5
80A0
330
1
100
AcDbSymbolTableRecord
100
AcDbBlockTableRecord
  2
*D18
340
0
 70
     0
280
     1
281
     0
  0
BLOCK_RECORD
  5
845B
330
1
100
AcDbSymbolTableRecord
100
AcDbBlockTableRecord
  2
_OPEN
340
0
102
{BLKREFS
331
862E
331
84CE
331
8534
331
8535
331
86C2
331
86C3
331
86CB
331
86CC
102
}
 70
     0
280
     1
281
     0
  0
BLOCK_RECORD
  5
8461
330
1
100
AcDbSymbolTableRecord
100
AcDbBlockTableRecord
  2
*D22
340
0
 70
     0
280
     1
281
     0
  0
BLOCK_RECORD
  5
8471
330
1
100
AcDbSymbolTableRecord
100
AcDbBlockTableRecord
  2
*D23
340
0
 70
     0
280
     1
281
     0
  0
BLOCK_RECORD
  5
84C0
330
1
100
AcDbSymbolTableRecord
100
AcDbBlockTableRecord
  2
_DOT
340
0
102
{BLKREFS
331
862D
331
84CF
102
}
 70
     0
280
     1
281
     0
  0
BLOCK_RECORD
  5
852F
330
1
100
AcDbSymbolTableRecord
100
AcDbBlockTableRecord
  2
*D25
340
0
 70
     0
280
     1
281
     0
  0
BLOCK_RECORD
  5
8694
330
1
100
AcDbSymbolTableRecord
100
AcDbBlockTableRecord
  2
*D26
340
0
 70
     0
280
     1
281
     0
  0
BLOCK_RECORD
  5
86A1
330
1
100
AcDbSymbolTableRecord
100
AcDbBlockTableRecord
  2
*D27
340
0
 70
     0
280
     1
281
     0
  0
ENDTAB
  0
ENDSEC
  0
SECTION
  2
BLOCKS
  0
BLOCK
  5
1A
330
19
100
AcDbEntity
  8
0
100
AcDbBlockBegin
  2
*MODEL_SPACE
 70
     0
 10
0.0
 20
0.0
 30
0.0
  3
*MODEL_SPACE
  1

  0
ENDBLK
  5
1B
330
19
100
AcDbEntity
  8
0
100
AcDbBlockEnd
  0
BLOCK
  5
17
330
16
100
AcDbEntity
 67
     1
  8
0
100
AcDbBlockBegin
  2
*PAPER_SPACE
 70
     0
 10
0.0
 20
0.0
 30
0.0
  3
*PAPER_SPACE
  1

  0
ENDBLK
  5
18
330
16
100
AcDbEntity
 67
     1
  8
0
100
AcDbBlockEnd
  0
BLOCK
  5
79FD
330
79FC
100
AcDbEntity
  8
0
100
AcDbBlockBegin
  2
YA_N
 70
     0
 10
0.0
 20
0.0
 30
0.0
  3
YA_N
  1

  0
ENDBLK
  5
79FE
330
79FC
100
AcDbEntity
  8
0
100
AcDbBlockEnd
  0
BLOCK
  5
7A03
330
79FF
100
AcDbEntity
  8
0
100
AcDbBlockBegin
  2
ARROW
 70
     0
 10
0.0
 20
0.0
 30
0.0
  3
ARROW
  1

  0
LINE
  5
7A00
330
79FF
100
AcDbEntity
  8
0
100
AcDbLine
 10
-0.9999999999999991
 20
0.1666666667000003
 30
0.0
 11
0.0
 21
0.0
 31
0.0
  0
LINE
  5
7A01
330
79FF
100
AcDbEntity
  8
0
100
AcDbLine
 10
-0.9999999999999991
 20
0.0
 30
0.0
 11
0.0
 21
0.0
 31
0.0
  0
LINE
  5
7A02
330
79FF
100
AcDbEntity
  8
0
100
AcDbLine
 10
-0.9999999999999991
 20
-0.1666666667000003
 30
0.0
 11
0.0
 21
0.0
 31
0.0
  0
ENDBLK
  5
7A04
330
79FF
100
AcDbEntity
  8
0
100
AcDbBlockEnd
  0
BLOCK
  5
832D
330
7FBC
100
AcDbEntity
  8
0
100
AcDbBlockBegin
  2
*D2
 70
     1
 10
0.0
 20
0.0
 30
0.0
  3
*D2
  1

  0
LINE
  5
857E
330
7FBC
100
AcDbEntity
  8
3
440
 16777216
100
AcDbLine
 10
2767.83657471631
 20
2130.968775878828
 30
0.0
 11
2767.83657471631
 21
1897.458521380233
 31
0.0
  0
LINE
  5
857F
330
7FBC
100
AcDbEntity
  8
3
440
 16777216
100
AcDbLine
 10
2207.836574716308
 20
2130.968775878828
 30
0.0
 11
2207.836574716308
 21
1897.458521380233
 31
0.0
  0
LINE
  5
8580
330
7FBC
100
AcDbEntity
  8
3
440
 16777216
100
AcDbLine
 10
2692.83657471631
 20
1927.458521380233
 30
0.0
 11
2282.836574716308
 21
1927.458521380233
 31
0.0
  0
INSERT
  5
8581
330
7FBC
100
AcDbEntity
  8
3
440
 16777216
100
AcDbBlockReference
  2
ARROW
 10
2767.83657471631
 20
1927.458521380233
 30
0.0
 41
75.0
 42
75.0
 43
75.0
  0
INSERT
  5
8582
330
7FBC
100
AcDbEntity
  8
3
440
 16777216
100
AcDbBlockReference
  2
ARROW
 10
2207.836574716308
 20
1927.458521380233
 30
0.0
 41
75.0
 42
75.0
 43
75.0
 50
180.0
  0
MTEXT
  5
8583
330
7FBC
100
AcDbEntity
  8
3
440
 16777216
100
AcDbMText
 10
2487.836574716309
 20
2002.458521380233
 30
0.0
 40
90.0
 41
0.0
 46
0.0
 71
     5
 72
     5
  1
\A1;560
 73
     1
 44
1.0
  0
POINT
  5
8584
330
7FBC
100
AcDbEntity
  8
DEFPOINTS
 62
     0
440
 16777216
100
AcDbPoint
 10
2767.83657471631
 20
2130.968775878828
 30
0.0
  0
POINT
  5
8585
330
7FBC
100
AcDbEntity
  8
DEFPOINTS
 62
     0
440
 16777216
100
AcDbPoint
 10
2207.836574716308
 20
2130.968775878828
 30
0.0
  0
POINT
  5
8586
330
7FBC
100
AcDbEntity
  8
DEFPOINTS
 62
     0
440
 16777216
100
AcDbPoint
 10
2207.836574716308
 20
1927.458521380233
 30
0.0
  0
ENDBLK
  5
8337
330
7FBC
100
AcDbEntity
  8
0
100
AcDbBlockEnd
  0
BLOCK
  5
82CF
330
7FC8
100
AcDbEntity
  8
0
100
AcDbBlockBegin
  2
*D3
 70
     1
 10
0.0
 20
0.0
 30
0.0
  3
*D3
  1

  0
LINE
  5
8587
330
7FC8
100
AcDbEntity
  8
3
440
 16777216
100
AcDbLine
 10
2827.836574716308
 20
3881.968775878828
 30
0.0
 11
3007.45168315952
 21
3881.968775878828
 31
0.0
  0
LINE
  5
8588
330
7FC8
100
AcDbEntity
  8
3
440
 16777216
100
AcDbLine
 10
2827.836574716308
 20
2956.968775878828
 30
0.0
 11
3007.45168315952
 21
2956.968775878828
 31
0.0
  0
LINE
  5
8589
330
7FC8
100
AcDbEntity
  8
3
440
 16777216
100
AcDbLine
 10
2977.45168315952
 20
3806.968775878828
 30
0.0
 11
2977.45168315952
 21
3031.968775878828
 31
0.0
  0
INSERT
  5
858A
330
7FC8
100
AcDbEntity
  8
3
440
 16777216
100
AcDbBlockReference
  2
ARROW
 10
2977.45168315952
 20
3881.968775878828
 30
0.0
 41
75.0
 42
75.0
 43
75.0
 50
90.0
  0
INSERT
  5
858B
330
7FC8
100
AcDbEntity
  8
3
440
 16777216
100
AcDbBlockReference
  2
ARROW
 10
2977.45168315952
 20
2956.968775878828
 30
0.0
 41
75.0
 42
75.0
 43
75.0
 50
270.0
  0
MTEXT
  5
858C
330
7FC8
100
AcDbEntity
  8
3
440
 16777216
100
AcDbMText
 10
2902.451683159519
 20
3419.468775878828
 30
0.0
 40
90.0
 41
0.0
 46
0.0
 71
     5
 72
     5
  1
\A1;925
 11
0.0000000000000001
 21
1.0
 31
0.0
 73
     1
 44
1.0
  0
POINT
  5
858D
330
7FC8
100
AcDbEntity
  8
DEFPOINTS
 62
     0
440
 16777216
100
AcDbPoint
 10
2827.836574716308
 20
3881.968775878828
 30
0.0
  0
POINT
  5
858E
330
7FC8
100
AcDbEntity
  8
DEFPOINTS
 62
     0
440
 16777216
100
AcDbPoint
 10
2827.836574716308
 20
2956.968775878828
 30
0.0
  0
POINT
  5
858F
330
7FC8
100
AcDbEntity
  8
DEFPOINTS
 62
     0
440
 16777216
100
AcDbPoint
 10
2977.45168315952
 20
2956.968775878828
 30
0.0
  0
ENDBLK
  5
82D9
330
7FC8
100
AcDbEntity
  8
0
100
AcDbBlockEnd
  0
BLOCK
  5
82B9
330
7FD4
100
AcDbEntity
  8
0
100
AcDbBlockBegin
  2
*D4
 70
     1
 10
0.0
 20
0.0
 30
0.0
  3
*D4
  1

  0
LINE
  5
8590
330
7FD4
100
AcDbEntity
  8
3
440
 16777216
100
AcDbLine
 10
2827.836574716308
 20
3881.968775878828
 30
0.0
 11
3157.794983257382
 21
3881.968775878828
 31
0.0
  0
LINE
  5
8591
330
7FD4
100
AcDbEntity
  8
3
440
 16777216
100
AcDbLine
 10
2864.091913494855
 20
2920.968775878828
 30
0.0
 11
3157.794983257382
 21
2920.968775878828
 31
0.0
  0
LINE
  5
8592
330
7FD4
100
AcDbEntity
  8
3
440
 16777216
100
AcDbLine
 10
3127.794983257382
 20
3806.968775878828
 30
0.0
 11
3127.794983257381
 21
2995.968775878827
 31
0.0
  0
INSERT
  5
8593
330
7FD4
100
AcDbEntity
  8
3
440
 16777216
100
AcDbBlockReference
  2
ARROW
 10
3127.794983257382
 20
3881.968775878828
 30
0.0
 41
75.0
 42
75.0
 43
75.0
 50
90.0
  0
INSERT
  5
8594
330
7FD4
100
AcDbEntity
  8
3
440
 16777216
100
AcDbBlockReference
  2
ARROW
 10
3127.794983257381
 20
2920.968775878828
 30
0.0
 41
75.0
 42
75.0
 43
75.0
 50
270.0
  0
MTEXT
  5
8595
330
7FD4
100
AcDbEntity
  8
3
440
 16777216
100
AcDbMText
 10
3052.794983257381
 20
3401.468775878829
 30
0.0
 40
90.0
 41
0.0
 46
0.0
 71
     5
 72
     5
  1
\A1;961
 11
0.0000000000000001
 21
1.0
 31
0.0
 73
     1
 44
1.0
  0
POINT
  5
8596
330
7FD4
100
AcDbEntity
  8
DEFPOINTS
 62
     0
440
 16777216
100
AcDbPoint
 10
2827.836574716308
 20
3881.968775878828
 30
0.0
  0
POINT
  5
8597
330
7FD4
100
AcDbEntity
  8
DEFPOINTS
 62
     0
440
 16777216
100
AcDbPoint
 10
2864.091913494855
 20
2920.968775878828
 30
0.0
  0
POINT
  5
8598
330
7FD4
100
AcDbEntity
  8
DEFPOINTS
 62
     0
440
 16777216
100
AcDbPoint
 10
3127.794983257381
 20
2920.968775878828
 30
0.0
  0
ENDBLK
  5
82C3
330
7FD4
100
AcDbEntity
  8
0
100
AcDbBlockEnd
  0
BLOCK
  5
82E5
330
7FE0
100
AcDbEntity
  8
0
100
AcDbBlockBegin
  2
*D5
 70
     1
 10
0.0
 20
0.0
 30
0.0
  3
*D5
  1

  0
LINE
  5
8599
330
7FE0
100
AcDbEntity
  8
3
440
 16777216
100
AcDbLine
 10
2864.091913494855
 20
2920.968775878828
 30
0.0
 11
3157.794983257382
 21
2920.968775878828
 31
0.0
  0
LINE
  5
859A
330
7FE0
100
AcDbEntity
  8
3
440
 16777216
100
AcDbLine
 10
2767.83657471631
 20
2240.968775878828
 30
0.0
 11
3157.794983257382
 21
2240.968775878827
 31
0.0
  0
LINE
  5
859B
330
7FE0
100
AcDbEntity
  8
3
440
 16777216
100
AcDbLine
 10
3127.794983257381
 20
2845.968775878827
 30
0.0
 11
3127.794983257381
 21
2315.968775878827
 31
0.0
  0
INSERT
  5
859C
330
7FE0
100
AcDbEntity
  8
3
440
 16777216
100
AcDbBlockReference
  2
ARROW
 10
3127.794983257381
 20
2920.968775878828
 30
0.0
 41
75.0
 42
75.0
 43
75.0
 50
90.0
  0
INSERT
  5
859D
330
7FE0
100
AcDbEntity
  8
3
440
 16777216
100
AcDbBlockReference
  2
ARROW
 10
3127.794983257381
 20
2240.968775878827
 30
0.0
 41
75.0
 42
75.0
 43
75.0
 50
270.0
  0
MTEXT
  5
859E
330
7FE0
100
AcDbEntity
  8
3
440
 16777216
100
AcDbMText
 10
3052.794983257381
 20
2580.968775878828
 30
0.0
 40
90.0
 41
0.0
 46
0.0
 71
     5
 72
     5
  1
\A1;680
 11
0.0000000000000001
 21
1.0
 31
0.0
 73
     1
 44
1.0
  0
POINT
  5
859F
330
7FE0
100
AcDbEntity
  8
DEFPOINTS
 62
     0
440
 16777216
100
AcDbPoint
 10
2864.091913494855
 20
2920.968775878828
 30
0.0
  0
POINT
  5
85A0
330
7FE0
100
AcDbEntity
  8
DEFPOINTS
 62
     0
440
 16777216
100
AcDbPoint
 10
2767.83657471631
 20
2240.968775878828
 30
0.0
  0
POINT
  5
85A1
330
7FE0
100
AcDbEntity
  8
DEFPOINTS
 62
     0
440
 16777216
100
AcDbPoint
 10
3127.794983257381
 20
2240.968775878827
 30
0.0
  0
ENDBLK
  5
82EF
330
7FE0
100
AcDbEntity
  8
0
100
AcDbBlockEnd
  0
BLOCK
  5
8277
330
7FEC
100
AcDbEntity
  8
0
100
AcDbBlockBegin
  2
*D6
 70
     1
 10
0.0
 20
0.0
 30
0.0
  3
*D6
  1

  0
LINE
  5
85A2
330
7FEC
100
AcDbEntity
  8
3
440
 16777216
100
AcDbLine
 10
2827.836574716308
 20
3924.468775878828
 30
0.0
 11
2827.836574716308
 21
4105.363185594458
 31
0.0
  0
LINE
  5
85A3
330
7FEC
100
AcDbEntity
  8
3
440
 16777216
100
AcDbLine
 10
2207.836574716308
 20
3922.931218222385
 30
0.0
 11
2207.836574716308
 21
4105.363185594458
 31
0.0
  0
LINE
  5
85A4
330
7FEC
100
AcDbEntity
  8
3
440
 16777216
100
AcDbLine
 10
2752.836574716308
 20
4075.363185594459
 30
0.0
 11
2282.836574716308
 21
4075.363185594459
 31
0.0
  0
INSERT
  5
85A5
330
7FEC
100
AcDbEntity
  8
3
440
 16777216
100
AcDbBlockReference
  2
ARROW
 10
2827.836574716308
 20
4075.363185594459
 30
0.0
 41
75.0
 42
75.0
 43
75.0
  0
INSERT
  5
85A6
330
7FEC
100
AcDbEntity
  8
3
440
 16777216
100
AcDbBlockReference
  2
ARROW
 10
2207.836574716308
 20
4075.363185594459
 30
0.0
 41
75.0
 42
75.0
 43
75.0
 50
180.0
  0
MTEXT
  5
85A7
330
7FEC
100
AcDbEntity
  8
3
440
 16777216
100
AcDbMText
 10
2517.836574716308
 20
4150.363185594459
 30
0.0
 40
90.0
 41
0.0
 46
0.0
 71
     5
 72
     5
  1
\A1;620
 73
     1
 44
1.0
  0
POINT
  5
85A8
330
7FEC
100
AcDbEntity
  8
DEFPOINTS
 62
     0
440
 16777216
100
AcDbPoint
 10
2827.836574716308
 20
3924.468775878828
 30
0.0
  0
POINT
  5
85A9
330
7FEC
100
AcDbEntity
  8
DEFPOINTS
 62
     0
440
 16777216
100
AcDbPoint
 10
2207.836574716308
 20
3922.931218222385
 30
0.0
  0
POINT
  5
85AA
330
7FEC
100
AcDbEntity
  8
DEFPOINTS
 62
     0
440
 16777216
100
AcDbPoint
 10
2207.836574716308
 20
4075.363185594459
 30
0.0
  0
ENDBLK
  5
8281
330
7FEC
100
AcDbEntity
  8
0
100
AcDbBlockEnd
  0
BLOCK
  5
828D
330
7FF8
100
AcDbEntity
  8
0
100
AcDbBlockBegin
  2
*D7
 70
     1
 10
0.0
 20
0.0
 30
0.0
  3
*D7
  1

  0
LINE
  5
85AB
330
7FF8
100
AcDbEntity
  8
3
440
 16777216
100
AcDbLine
 10
2207.836574716308
 20
3922.931218222385
 30
0.0
 11
2207.836574716308
 21
4105.606385583883
 31
0.0
  0
LINE
  5
85AC
330
7FF8
100
AcDbEntity
  8
3
440
 16777216
100
AcDbLine
 10
1434.004911588516
 20
2920.968775878828
 30
0.0
 11
1434.004911588516
 21
4105.606385583883
 31
0.0
  0
LINE
  5
85AD
330
7FF8
100
AcDbEntity
  8
3
440
 16777216
100
AcDbLine
 10
2132.836574716308
 20
4075.606385583884
 30
0.0
 11
1509.004911588516
 21
4075.606385583884
 31
0.0
  0
INSERT
  5
85AE
330
7FF8
100
AcDbEntity
  8
3
440
 16777216
100
AcDbBlockReference
  2
ARROW
 10
2207.836574716308
 20
4075.606385583884
 30
0.0
 41
75.0
 42
75.0
 43
75.0
  0
INSERT
  5
85AF
330
7FF8
100
AcDbEntity
  8
3
440
 16777216
100
AcDbBlockReference
  2
ARROW
 10
1434.004911588516
 20
4075.606385583884
 30
0.0
 41
75.0
 42
75.0
 43
75.0
 50
180.0
  0
MTEXT
  5
85B0
330
7FF8
100
AcDbEntity
  8
3
440
 16777216
100
AcDbMText
 10
1820.920743152412
 20
4150.606385583883
 30
0.0
 40
90.0
 41
0.0
 46
0.0
 71
     5
 72
     5
  1
\A1;777
 73
     1
 44
1.0
  0
POINT
  5
85B1
330
7FF8
100
AcDbEntity
  8
DEFPOINTS
 62
     0
440
 16777216
100
AcDbPoint
 10
2207.836574716308
 20
3922.931218222385
 30
0.0
  0
POINT
  5
85B2
330
7FF8
100
AcDbEntity
  8
DEFPOINTS
 62
     0
440
 16777216
100
AcDbPoint
 10
1434.004911588516
 20
2920.968775878828
 30
0.0
  0
POINT
  5
85B3
330
7FF8
100
AcDbEntity
  8
DEFPOINTS
 62
     0
440
 16777216
100
AcDbPoint
 10
1434.004911588516
 20
4075.606385583884
 30
0.0
  0
ENDBLK
  5
8297
330
7FF8
100
AcDbEntity
  8
0
100
AcDbBlockEnd
  0
BLOCK
  5
8343
330
8004
100
AcDbEntity
  8
0
100
AcDbBlockBegin
  2
*D8
 70
     1
 10
0.0
 20
0.0
 30
0.0
  3
*D8
  1

  0
LINE
  5
85B4
330
8004
100
AcDbEntity
  8
3
440
 16777216
100
AcDbLine
 10
767.8365747163079
 20
2130.968775878828
 30
0.0
 11
767.8365747163079
 21
1897.542677257419
 31
0.0
  0
LINE
  5
85B5
330
8004
100
AcDbEntity
  8
3
440
 16777216
100
AcDbLine
 10
2207.836574716308
 20
2130.968775878828
 30
0.0
 11
2207.836574716308
 21
1897.542677257419
 31
0.0
  0
LINE
  5
85B6
330
8004
100
AcDbEntity
  8
3
440
 16777216
100
AcDbLine
 10
842.8365747163079
 20
1927.542677257419
 30
0.0
 11
2132.836574716308
 21
1927.542677257419
 31
0.0
  0
INSERT
  5
85B7
330
8004
100
AcDbEntity
  8
3
440
 16777216
100
AcDbBlockReference
  2
ARROW
 10
767.8365747163079
 20
1927.542677257419
 30
0.0
 41
75.0
 42
75.0
 43
75.0
 50
180.0
  0
INSERT
  5
85B8
330
8004
100
AcDbEntity
  8
3
440
 16777216
100
AcDbBlockReference
  2
ARROW
 10
2207.836574716308
 20
1927.542677257419
 30
0.0
 41
75.0
 42
75.0
 43
75.0
  0
MTEXT
  5
85B9
330
8004
100
AcDbEntity
  8
3
440
 16777216
100
AcDbMText
 10
1487.836574716308
 20
2002.542677257419
 30
0.0
 40
90.0
 41
0.0
 46
0.0
 71
     5
 72
     5
  1
\A1;1440
 73
     1
 44
1.0
  0
POINT
  5
85BA
330
8004
100
AcDbEntity
  8
DEFPOINTS
 62
     0
440
 16777216
100
AcDbPoint
 10
767.8365747163079
 20
2130.968775878828
 30
0.0
  0
POINT
  5
85BB
330
8004
100
AcDbEntity
  8
DEFPOINTS
 62
     0
440
 16777216
100
AcDbPoint
 10
2207.836574716308
 20
2130.968775878828
 30
0.0
  0
POINT
  5
85BC
330
8004
100
AcDbEntity
  8
DEFPOINTS
 62
     0
440
 16777216
100
AcDbPoint
 10
2207.836574716308
 20
1927.542677257419
 30
0.0
  0
ENDBLK
  5
834D
330
8004
100
AcDbEntity
  8
0
100
AcDbBlockEnd
  0
BLOCK
  5
8209
330
801C
100
AcDbEntity
  8
0
100
AcDbBlockBegin
  2
*D9
 70
     1
 10
0.0
 20
0.0
 30
0.0
  3
*D9
  1

  0
LINE
  5
85BD
330
801C
100
AcDbEntity
  8
3
440
 16777216
100
AcDbLine
 10
1647.83657471631
 20
6469.791155245028
 30
0.0
 11
1647.83657471631
 21
6797.873710840015
 31
0.0
  0
LINE
  5
85BE
330
801C
100
AcDbEntity
  8
3
440
 16777216
100
AcDbLine
 10
2767.83657471631
 20
6469.791155245028
 30
0.0
 11
2767.83657471631
 21
6797.873710840015
 31
0.0
  0
LINE
  5
85BF
330
801C
100
AcDbEntity
  8
3
440
 16777216
100
AcDbLine
 10
1722.83657471631
 20
6767.873710840014
 30
0.0
 11
2692.83657471631
 21
6767.873710840014
 31
0.0
  0
INSERT
  5
85C0
330
801C
100
AcDbEntity
  8
3
440
 16777216
100
AcDbBlockReference
  2
ARROW
 10
1647.83657471631
 20
6767.873710840014
 30
0.0
 41
75.0
 42
75.0
 43
75.0
 50
180.0
  0
INSERT
  5
85C1
330
801C
100
AcDbEntity
  8
3
440
 16777216
100
AcDbBlockReference
  2
ARROW
 10
2767.83657471631
 20
6767.873710840014
 30
0.0
 41
75.0
 42
75.0
 43
75.0
  0
MTEXT
  5
85C2
330
801C
100
AcDbEntity
  8
3
440
 16777216
100
AcDbMText
 10
2207.83657471631
 20
6842.873710840014
 30
0.0
 40
90.0
 41
0.0
 46
0.0
 71
     5
 72
     5
  1
\A1;1120
 73
     1
 44
1.0
  0
POINT
  5
85C3
330
801C
100
AcDbEntity
  8
DEFPOINTS
 62
     0
440
 16777216
100
AcDbPoint
 10
1647.83657471631
 20
6469.791155245028
 30
0.0
  0
POINT
  5
85C4
330
801C
100
AcDbEntity
  8
DEFPOINTS
 62
     0
440
 16777216
100
AcDbPoint
 10
2767.83657471631
 20
6469.791155245028
 30
0.0
  0
POINT
  5
85C5
330
801C
100
AcDbEntity
  8
DEFPOINTS
 62
     0
440
 16777216
100
AcDbPoint
 10
2767.83657471631
 20
6767.873710840014
 30
0.0
  0
ENDBLK
  5
8213
330
801C
100
AcDbEntity
  8
0
100
AcDbBlockEnd
  0
BLOCK
  5
821F
330
8028
100
AcDbEntity
  8
0
100
AcDbBlockBegin
  2
*D10
 70
     1
 10
0.0
 20
0.0
 30
0.0
  3
*D10
  1

  0
LINE
  5
85C6
330
8028
100
AcDbEntity
  8
3
440
 16777216
100
AcDbLine
 10
767.8365747163079
 20
5819.791155245027
 30
0.0
 11
767.8365747163081
 21
6797.873710840015
 31
0.0
  0
LINE
  5
85C7
330
8028
100
AcDbEntity
  8
3
440
 16777216
100
AcDbLine
 10
1647.83657471631
 20
6469.791155245028
 30
0.0
 11
1647.83657471631
 21
6797.873710840015
 31
0.0
  0
LINE
  5
85C8
330
8028
100
AcDbEntity
  8
3
440
 16777216
100
AcDbLine
 10
842.8365747163081
 20
6767.873710840014
 30
0.0
 11
1572.836574716309
 21
6767.873710840014
 31
0.0
  0
INSERT
  5
85C9
330
8028
100
AcDbEntity
  8
3
440
 16777216
100
AcDbBlockReference
  2
ARROW
 10
767.8365747163081
 20
6767.873710840014
 30
0.0
 41
75.0
 42
75.0
 43
75.0
 50
180.0
  0
INSERT
  5
85CA
330
8028
100
AcDbEntity
  8
3
440
 16777216
100
AcDbBlockReference
  2
ARROW
 10
1647.83657471631
 20
6767.873710840014
 30
0.0
 41
75.0
 42
75.0
 43
75.0
  0
MTEXT
  5
85CB
330
8028
100
AcDbEntity
  8
3
440
 16777216
100
AcDbMText
 10
1207.836574716309
 20
6842.873710840014
 30
0.0
 40
90.0
 41
0.0
 46
0.0
 71
     5
 72
     5
  1
\A1;880
 73
     1
 44
1.0
  0
POINT
  5
85CC
330
8028
100
AcDbEntity
  8
DEFPOINTS
 62
     0
440
 16777216
100
AcDbPoint
 10
767.8365747163079
 20
5819.791155245027
 30
0.0
  0
POINT
  5
85CD
330
8028
100
AcDbEntity
  8
DEFPOINTS
 62
     0
440
 16777216
100
AcDbPoint
 10
1647.83657471631
 20
6469.791155245028
 30
0.0
  0
POINT
  5
85CE
330
8028
100
AcDbEntity
  8
DEFPOINTS
 62
     0
440
 16777216
100
AcDbPoint
 10
1647.83657471631
 20
6767.873710840014
 30
0.0
  0
ENDBLK
  5
8229
330
8028
100
AcDbEntity
  8
0
100
AcDbBlockEnd
  0
BLOCK
  5
824B
330
8034
100
AcDbEntity
  8
0
100
AcDbBlockBegin
  2
*D11
 70
     1
 10
0.0
 20
0.0
 30
0.0
  3
*D11
  1

  0
LINE
  5
85CF
330
8034
100
AcDbEntity
  8
3
440
 16777216
100
AcDbLine
 10
767.8365747163079
 20
4969.791155245028
 30
0.0
 11
767.8365747163079
 21
4543.75173082571
 31
0.0
  0
LINE
  5
85D0
330
8034
100
AcDbEntity
  8
3
440
 16777216
100
AcDbLine
 10
2767.83657471631
 20
4969.791155245028
 30
0.0
 11
2767.83657471631
 21
4543.75173082571
 31
0.0
  0
LINE
  5
85D1
330
8034
100
AcDbEntity
  8
3
440
 16777216
100
AcDbLine
 10
842.8365747163079
 20
4573.75173082571
 30
0.0
 11
2692.83657471631
 21
4573.75173082571
 31
0.0
  0
INSERT
  5
85D2
330
8034
100
AcDbEntity
  8
3
440
 16777216
100
AcDbBlockReference
  2
ARROW
 10
767.8365747163079
 20
4573.75173082571
 30
0.0
 41
75.0
 42
75.0
 43
75.0
 50
180.0
  0
INSERT
  5
85D3
330
8034
100
AcDbEntity
  8
3
440
 16777216
100
AcDbBlockReference
  2
ARROW
 10
2767.83657471631
 20
4573.75173082571
 30
0.0
 41
75.0
 42
75.0
 43
75.0
  0
MTEXT
  5
85D4
330
8034
100
AcDbEntity
  8
3
440
 16777216
100
AcDbMText
 10
1767.836574716309
 20
4648.75173082571
 30
0.0
 40
90.0
 41
0.0
 46
0.0
 71
     5
 72
     5
  1
\A1;2000
 73
     1
 44
1.0
  0
POINT
  5
85D5
330
8034
100
AcDbEntity
  8
DEFPOINTS
 62
     0
440
 16777216
100
AcDbPoint
 10
767.8365747163079
 20
4969.791155245028
 30
0.0
  0
POINT
  5
85D6
330
8034
100
AcDbEntity
  8
DEFPOINTS
 62
     0
440
 16777216
100
AcDbPoint
 10
2767.83657471631
 20
4969.791155245028
 30
0.0
  0
POINT
  5
85D7
330
8034
100
AcDbEntity
  8
DEFPOINTS
 62
     0
440
 16777216
100
AcDbPoint
 10
2767.83657471631
 20
4573.75173082571
 30
0.0
  0
ENDBLK
  5
8255
330
8034
100
AcDbEntity
  8
0
100
AcDbBlockEnd
  0
BLOCK
  5
8501
330
8040
100
AcDbEntity
  8
0
100
AcDbBlockBegin
  2
*D12
 70
     1
 10
0.0
 20
0.0
 30
0.0
  3
*D12
  1

  0
LINE
  5
85D8
330
8040
100
AcDbEntity
  8
3
440
 16777216
100
AcDbLine
 10
767.8365747163079
 20
5819.791155245027
 30
0.0
 11
534.9008278966577
 21
5819.791155245027
 31
0.0
  0
LINE
  5
85D9
330
8040
100
AcDbEntity
  8
3
440
 16777216
100
AcDbLine
 10
767.8365747163079
 20
4969.791155245028
 30
0.0
 11
534.9008278966575
 21
4969.791155245028
 31
0.0
  0
LINE
  5
85DA
330
8040
100
AcDbEntity
  8
3
440
 16777216
100
AcDbLine
 10
564.9008278966577
 20
5744.791155245028
 30
0.0
 11
564.9008278966575
 21
5044.791155245028
 31
0.0
  0
INSERT
  5
85DB
330
8040
100
AcDbEntity
  8
3
440
 16777216
100
AcDbBlockReference
  2
ARROW
 10
564.9008278966577
 20
5819.791155245027
 30
0.0
 41
75.0
 42
75.0
 43
75.0
 50
90.0
  0
INSERT
  5
85DC
330
8040
100
AcDbEntity
  8
3
440
 16777216
100
AcDbBlockReference
  2
ARROW
 10
564.9008278966575
 20
4969.791155245028
 30
0.0
 41
75.0
 42
75.0
 43
75.0
 50
270.0
  0
MTEXT
  5
85DD
330
8040
100
AcDbEntity
  8
3
440
 16777216
100
AcDbMText
 10
489.9008278966568
 20
5394.791155245028
 30
0.0
 40
90.0
 41
0.0
 46
0.0
 71
     5
 72
     5
  1
\A1;850
 11
0.0000000000000001
 21
1.0
 31
0.0
 73
     1
 44
1.0
  0
POINT
  5
85DE
330
8040
100
AcDbEntity
  8
DEFPOINTS
 62
     0
440
 16777216
100
AcDbPoint
 10
767.8365747163079
 20
5819.791155245027
 30
0.0
  0
POINT
  5
85DF
330
8040
100
AcDbEntity
  8
DEFPOINTS
 62
     0
440
 16777216
100
AcDbPoint
 10
767.8365747163079
 20
4969.791155245028
 30
0.0
  0
POINT
  5
85E0
330
8040
100
AcDbEntity
  8
DEFPOINTS
 62
     0
440
 16777216
100
AcDbPoint
 10
564.9008278966575
 20
4969.791155245028
 30
0.0
  0
ENDBLK
  5
850B
330
8040
100
AcDbEntity
  8
0
100
AcDbBlockEnd
  0
BLOCK
  5
81F3
330
804C
100
AcDbEntity
  8
0
100
AcDbBlockBegin
  2
*D13
 70
     1
 10
0.0
 20
0.0
 30
0.0
  3
*D13
  1

  0
LINE
  5
85E1
330
804C
100
AcDbEntity
  8
3
440
 16777216
100
AcDbLine
 10
2767.83657471631
 20
6469.791155245028
 30
0.0
 11
3097.140820946225
 21
6469.791155245028
 31
0.0
  0
LINE
  5
85E2
330
804C
100
AcDbEntity
  8
3
440
 16777216
100
AcDbLine
 10
2767.83657471631
 20
4969.791155245028
 30
0.0
 11
3097.140820946224
 21
4969.791155245028
 31
0.0
  0
LINE
  5
85E3
330
804C
100
AcDbEntity
  8
3
440
 16777216
100
AcDbLine
 10
3067.140820946225
 20
6394.791155245028
 30
0.0
 11
3067.140820946224
 21
5044.791155245028
 31
0.0
  0
INSERT
  5
85E4
330
804C
100
AcDbEntity
  8
3
440
 16777216
100
AcDbBlockReference
  2
ARROW
 10
3067.140820946225
 20
6469.791155245028
 30
0.0
 41
75.0
 42
75.0
 43
75.0
 50
90.0
  0
INSERT
  5
85E5
330
804C
100
AcDbEntity
  8
3
440
 16777216
100
AcDbBlockReference
  2
ARROW
 10
3067.140820946224
 20
4969.791155245028
 30
0.0
 41
75.0
 42
75.0
 43
75.0
 50
270.0
  0
MTEXT
  5
85E6
330
804C
100
AcDbEntity
  8
3
440
 16777216
100
AcDbMText
 10
2992.140820946224
 20
5719.791155245029
 30
0.0
 40
90.0
 41
0.0
 46
0.0
 71
     5
 72
     5
  1
\A1;1500
 11
0.0000000000000001
 21
1.0
 31
0.0
 73
     1
 44
1.0
  0
POINT
  5
85E7
330
804C
100
AcDbEntity
  8
DEFPOINTS
 62
     0
440
 16777216
100
AcDbPoint
 10
2767.83657471631
 20
6469.791155245028
 30
0.0
  0
POINT
  5
85E8
330
804C
100
AcDbEntity
  8
DEFPOINTS
 62
     0
440
 16777216
100
AcDbPoint
 10
2767.83657471631
 20
4969.791155245028
 30
0.0
  0
POINT
  5
85E9
330
804C
100
AcDbEntity
  8
DEFPOINTS
 62
     0
440
 16777216
100
AcDbPoint
 10
3067.140820946224
 20
4969.791155245028
 30
0.0
  0
ENDBLK
  5
81FD
330
804C
100
AcDbEntity
  8
0
100
AcDbBlockEnd
  0
BLOCK
  5
8261
330
8064
100
AcDbEntity
  8
0
100
AcDbBlockBegin
  2
*D14
 70
     1
 10
0.0
 20
0.0
 30
0.0
  3
*D14
  1

  0
LINE
  5
85EA
330
8064
100
AcDbEntity
  8
3
440
 16777216
100
AcDbLine
 10
767.8365747163097
 20
2365.968775878827
 30
0.0
 11
767.8365747163098
 21
4287.154584241856
 31
0.0
  0
LINE
  5
85EB
330
8064
100
AcDbEntity
  8
3
440
 16777216
100
AcDbLine
 10
2827.836574716308
 20
3924.468775878828
 30
0.0
 11
2827.836574716308
 21
4287.154584241856
 31
0.0
  0
LINE
  5
85EC
330
8064
100
AcDbEntity
  8
3
440
 16777216
100
AcDbLine
 10
842.8365747163098
 20
4257.154584241856
 30
0.0
 11
2752.836574716308
 21
4257.154584241856
 31
0.0
  0
INSERT
  5
85ED
330
8064
100
AcDbEntity
  8
3
440
 16777216
100
AcDbBlockReference
  2
ARROW
 10
767.8365747163098
 20
4257.154584241856
 30
0.0
 41
75.0
 42
75.0
 43
75.0
 50
180.0
  0
INSERT
  5
85EE
330
8064
100
AcDbEntity
  8
3
440
 16777216
100
AcDbBlockReference
  2
ARROW
 10
2827.836574716308
 20
4257.154584241856
 30
0.0
 41
75.0
 42
75.0
 43
75.0
  0
MTEXT
  5
85EF
330
8064
100
AcDbEntity
  8
3
440
 16777216
100
AcDbMText
 10
1797.836574716309
 20
4332.154584241856
 30
0.0
 40
90.0
 41
0.0
 46
0.0
 71
     5
 72
     5
  1
\A1;2060
 73
     1
 44
1.0
  0
POINT
  5
85F0
330
8064
100
AcDbEntity
  8
DEFPOINTS
 62
     0
440
 16777216
100
AcDbPoint
 10
767.8365747163097
 20
2365.968775878827
 30
0.0
  0
POINT
  5
85F1
330
8064
100
AcDbEntity
  8
DEFPOINTS
 62
     0
440
 16777216
100
AcDbPoint
 10
2827.836574716308
 20
3924.468775878828
 30
0.0
  0
POINT
  5
85F2
330
8064
100
AcDbEntity
  8
DEFPOINTS
 62
     0
440
 16777216
100
AcDbPoint
 10
2827.836574716308
 20
4257.154584241856
 30
0.0
  0
ENDBLK
  5
826B
330
8064
100
AcDbEntity
  8
0
100
AcDbBlockEnd
  0
BLOCK
  5
83AF
330
8070
100
AcDbEntity
  8
0
100
AcDbBlockBegin
  2
*D15
 70
     1
 10
0.0
 20
0.0
 30
0.0
  3
*D15
  1

  0
LINE
  5
85F3
330
8070
100
AcDbEntity
  8
3
440
 16777216
100
AcDbLine
 10
5610.496303707846
 20
2470.968775878828
 30
0.0
 11
5979.144523447374
 21
2470.968775878828
 31
0.0
  0
LINE
  5
85F4
330
8070
100
AcDbEntity
  8
3
440
 16777216
100
AcDbLine
 10
5610.496303707847
 20
3370.968775878828
 30
0.0
 11
5979.144523447374
 21
3370.968775878828
 31
0.0
  0
LINE
  5
85F5
330
8070
100
AcDbEntity
  8
3
440
 16777216
100
AcDbLine
 10
5949.144523447372
 20
2545.968775878828
 30
0.0
 11
5949.144523447372
 21
3295.968775878828
 31
0.0
  0
INSERT
  5
85F6
330
8070
100
AcDbEntity
  8
3
440
 16777216
100
AcDbBlockReference
  2
ARROW
 10
5949.144523447372
 20
2470.968775878828
 30
0.0
 41
75.0
 42
75.0
 43
75.0
 50
270.0
  0
INSERT
  5
85F7
330
8070
100
AcDbEntity
  8
3
440
 16777216
100
AcDbBlockReference
  2
ARROW
 10
5949.144523447372
 20
3370.968775878828
 30
0.0
 41
75.0
 42
75.0
 43
75.0
 50
90.0
  0
MTEXT
  5
85F8
330
8070
100
AcDbEntity
  8
3
440
 16777216
100
AcDbMText
 10
5874.144523447372
 20
2920.968775878829
 30
0.0
 40
90.0
 41
0.0
 46
0.0
 71
     5
 72
     5
  1
\A1;φ900
 11
0.0000000000000001
 21
1.0
 31
0.0
 73
     1
 44
1.0
  0
POINT
  5
85F9
330
8070
100
AcDbEntity
  8
DEFPOINTS
 62
     0
440
 16777216
100
AcDbPoint
 10
5610.496303707846
 20
2470.968775878828
 30
0.0
  0
POINT
  5
85FA
330
8070
100
AcDbEntity
  8
DEFPOINTS
 62
     0
440
 16777216
100
AcDbPoint
 10
5610.496303707847
 20
3370.968775878828
 30
0.0
  0
POINT
  5
85FB
330
8070
100
AcDbEntity
  8
DEFPOINTS
 62
     0
440
 16777216
100
AcDbPoint
 10
5949.144523447372
 20
3370.968775878828
 30
0.0
  0
ENDBLK
  5
83B9
330
8070
100
AcDbEntity
  8
0
100
AcDbBlockEnd
  0
BLOCK
  5
83C5
330
8088
100
AcDbEntity
  8
0
100
AcDbBlockBegin
  2
*D16
 70
     1
 10
0.0
 20
0.0
 30
0.0
  3
*D16
  1

  0
LINE
  5
85FC
330
8088
100
AcDbEntity
  8
3
440
 16777216
100
AcDbLine
 10
5014.996303707846
 20
2130.968775878828
 30
0.0
 11
5014.996303707846
 21
1893.432901303904
 31
0.0
  0
LINE
  5
85FD
330
8088
100
AcDbEntity
  8
3
440
 16777216
100
AcDbLine
 10
5672.996303707846
 20
2130.968775878828
 30
0.0
 11
5672.996303707846
 21
1893.432901303904
 31
0.0
  0
LINE
  5
85FE
330
8088
100
AcDbEntity
  8
3
440
 16777216
100
AcDbLine
 10
5089.996303707846
 20
1923.432901303904
 30
0.0
 11
5597.996303707846
 21
1923.432901303904
 31
0.0
  0
INSERT
  5
85FF
330
8088
100
AcDbEntity
  8
3
440
 16777216
100
AcDbBlockReference
  2
ARROW
 10
5014.996303707846
 20
1923.432901303904
 30
0.0
 41
75.0
 42
75.0
 43
75.0
 50
180.0
  0
INSERT
  5
8600
330
8088
100
AcDbEntity
  8
3
440
 16777216
100
AcDbBlockReference
  2
ARROW
 10
5672.996303707846
 20
1923.432901303904
 30
0.0
 41
75.0
 42
75.0
 43
75.0
  0
MTEXT
  5
8601
330
8088
100
AcDbEntity
  8
3
440
 16777216
100
AcDbMText
 10
5343.996303707847
 20
1998.432901303904
 30
0.0
 40
90.0
 41
0.0
 46
0.0
 71
     5
 72
     5
  1
\A1;658
 73
     1
 44
1.0
  0
POINT
  5
8602
330
8088
100
AcDbEntity
  8
DEFPOINTS
 62
     0
440
 16777216
100
AcDbPoint
 10
5014.996303707846
 20
2130.968775878828
 30
0.0
  0
POINT
  5
8603
330
8088
100
AcDbEntity
  8
DEFPOINTS
 62
     0
440
 16777216
100
AcDbPoint
 10
5672.996303707846
 20
2130.968775878828
 30
0.0
  0
POINT
  5
8604
330
8088
100
AcDbEntity
  8
DEFPOINTS
 62
     0
440
 16777216
100
AcDbPoint
 10
5672.996303707846
 20
1923.432901303904
 30
0.0
  0
ENDBLK
  5
83CF
330
8088
100
AcDbEntity
  8
0
100
AcDbBlockEnd
  0
BLOCK
  5
83DB
330
8094
100
AcDbEntity
  8
0
100
AcDbBlockBegin
  2
*D17
 70
     1
 10
0.0
 20
0.0
 30
0.0
  3
*D17
  1

  0
LINE
  5
8605
330
8094
100
AcDbEntity
  8
3
440
 16777216
100
AcDbLine
 10
4172.996303707846
 20
2130.968775878828
 30
0.0
 11
4172.996303707846
 21
1893.432901303904
 31
0.0
  0
LINE
  5
8606
330
8094
100
AcDbEntity
  8
3
440
 16777216
100
AcDbLine
 10
5014.996303707846
 20
2130.968775878828
 30
0.0
 11
5014.996303707846
 21
1893.432901303904
 31
0.0
  0
LINE
  5
8607
330
8094
100
AcDbEntity
  8
3
440
 16777216
100
AcDbLine
 10
4247.996303707846
 20
1923.432901303904
 30
0.0
 11
4939.996303707847
 21
1923.432901303904
 31
0.0
  0
INSERT
  5
8608
330
8094
100
AcDbEntity
  8
3
440
 16777216
100
AcDbBlockReference
  2
ARROW
 10
4172.996303707846
 20
1923.432901303904
 30
0.0
 41
75.0
 42
75.0
 43
75.0
 50
180.0
  0
INSERT
  5
8609
330
8094
100
AcDbEntity
  8
3
440
 16777216
100
AcDbBlockReference
  2
ARROW
 10
5014.996303707846
 20
1923.432901303904
 30
0.0
 41
75.0
 42
75.0
 43
75.0
  0
MTEXT
  5
860A
330
8094
100
AcDbEntity
  8
3
440
 16777216
100
AcDbMText
 10
4593.996303707847
 20
1998.432901303904
 30
0.0
 40
90.0
 41
0.0
 46
0.0
 71
     5
 72
     5
  1
\A1;842
 73
     1
 44
1.0
  0
POINT
  5
860B
330
8094
100
AcDbEntity
  8
DEFPOINTS
 62
     0
440
 16777216
100
AcDbPoint
 10
4172.996303707846
 20
2130.968775878828
 30
0.0
  0
POINT
  5
860C
330
8094
100
AcDbEntity
  8
DEFPOINTS
 62
     0
440
 16777216
100
AcDbPoint
 10
5014.996303707846
 20
2130.968775878828
 30
0.0
  0
POINT
  5
860D
330
8094
100
AcDbEntity
  8
DEFPOINTS
 62
     0
440
 16777216
100
AcDbPoint
 10
5014.996303707846
 20
1923.432901303904
 30
0.0
  0
ENDBLK
  5
83E5
330
8094
100
AcDbEntity
  8
0
100
AcDbBlockEnd
  0
BLOCK
  5
8399
330
80A0
100
AcDbEntity
  8
0
100
AcDbBlockBegin
  2
*D18
 70
     1
 10
0.0
 20
0.0
 30
0.0
  3
*D18
  1

  0
LINE
  5
860E
330
80A0
100
AcDbEntity
  8
3
440
 16777216
100
AcDbLine
 10
4424.996303707847
 20
3924.468775878828
 30
0.0
 11
4424.996303707847
 21
4102.912341491486
 31
0.0
  0
LINE
  5
860F
330
80A0
100
AcDbEntity
  8
3
440
 16777216
100
AcDbLine
 10
5604.996303707846
 20
3924.468775878828
 30
0.0
 11
5604.996303707846
 21
4102.912341491486
 31
0.0
  0
LINE
  5
8610
330
80A0
100
AcDbEntity
  8
3
440
 16777216
100
AcDbLine
 10
4499.996303707847
 20
4072.912341491487
 30
0.0
 11
5529.996303707847
 21
4072.912341491487
 31
0.0
  0
INSERT
  5
8611
330
80A0
100
AcDbEntity
  8
3
440
 16777216
100
AcDbBlockReference
  2
ARROW
 10
4424.996303707847
 20
4072.912341491487
 30
0.0
 41
75.0
 42
75.0
 43
75.0
 50
180.0
  0
INSERT
  5
8612
330
80A0
100
AcDbEntity
  8
3
440
 16777216
100
AcDbBlockReference
  2
ARROW
 10
5604.996303707846
 20
4072.912341491487
 30
0.0
 41
75.0
 42
75.0
 43
75.0
  0
MTEXT
  5
8613
330
80A0
100
AcDbEntity
  8
3
440
 16777216
100
AcDbMText
 10
5014.996303707847
 20
4147.912341491486
 30
0.0
 40
90.0
 41
0.0
 46
0.0
 71
     5
 72
     5
  1
\A1;1180
 73
     1
 44
1.0
  0
POINT
  5
8614
330
80A0
100
AcDbEntity
  8
DEFPOINTS
 62
     0
440
 16777216
100
AcDbPoint
 10
4424.996303707847
 20
3924.468775878828
 30
0.0
  0
POINT
  5
8615
330
80A0
100
AcDbEntity
  8
DEFPOINTS
 62
     0
440
 16777216
100
AcDbPoint
 10
5604.996303707846
 20
3924.468775878828
 30
0.0
  0
POINT
  5
8616
330
80A0
100
AcDbEntity
  8
DEFPOINTS
 62
     0
440
 16777216
100
AcDbPoint
 10
5604.996303707846
 20
4072.912341491487
 30
0.0
  0
ENDBLK
  5
83A3
330
80A0
100
AcDbEntity
  8
0
100
AcDbBlockEnd
  0
BLOCK
  5
845C
330
845B
100
AcDbEntity
  8
0
100
AcDbBlockBegin
  2
_OPEN
 70
     0
 10
0.0
 20
0.0
 30
0.0
  3
_OPEN
  1

  0
LINE
  5
845D
330
845B
100
AcDbEntity
  8
0
  6
ByBlock
 62
     0
100
AcDbLine
 10
-1.0
 20
0.1666666666666666
 30
0.0
 11
0.0
 21
0.0
 31
0.0
  0
LINE
  5
845E
330
845B
100
AcDbEntity
  8
0
  6
ByBlock
 62
     0
100
AcDbLine
 10
0.0
 20
0.0
 30
0.0
 11
-1.0
 21
-0.1666666666666666
 31
0.0
  0
LINE
  5
845F
330
845B
100
AcDbEntity
  8
0
  6
ByBlock
 62
     0
100
AcDbLine
 10
0.0
 20
0.0
 30
0.0
 11
-1.0
 21
0.0
 31
0.0
  0
ENDBLK
  5
8460
330
845B
100
AcDbEntity
  8
0
100
AcDbBlockEnd
  0
BLOCK
  5
84C8
330
8461
100
AcDbEntity
  8
0
100
AcDbBlockBegin
  2
*D22
 70
     1
 10
0.0
 20
0.0
 30
0.0
  3
*D22
  1

  0
LINE
  5
84C9
330
8461
100
AcDbEntity
  8
0
  6
ByBlock
 62
     0
440
 16777216
100
AcDbLine
 10
2782.83657471631
 20
2195.968775878828
 30
0.0
 11
3157.794983257382
 21
2195.968775878828
 31
0.0
  0
LINE
  5
84CA
330
8461
100
AcDbEntity
  8
0
  6
ByBlock
 62
     0
440
 16777216
100
AcDbLine
 10
3127.794983257381
 20
2300.968775878828
 30
0.0
 11
3127.794983257381
 21
2360.968775878828
 31
0.0
  0
LINE
  5
84CB
330
8461
100
AcDbEntity
  8
0
  6
ByBlock
 62
     0
440
 16777216
100
AcDbLine
 10
3127.794983257381
 20
2135.968775878828
 30
0.0
 11
3127.794983257381
 21
2075.968775878828
 31
0.0
  0
MTEXT
  5
84CC
330
8461
100
AcDbEntity
  8
0
  6
ByBlock
 62
     0
440
 16777216
100
AcDbMText
 10
3271.36641182881
 20
2307.476761140904
 30
0.0
 40
90.0
 41
0.0
 46
0.0
 71
     5
 72
     5
  1
\A1;(45)
 11
0.0
 21
1.0
 31
0.0
 73
     1
 44
1.0
  0
LINE
  5
84CD
330
8461
100
AcDbEntity
  8
0
  6
ByBlock
 62
     0
440
 16777216
100
AcDbLine
 10
3127.794983257381
 20
2240.968775878828
 30
0.0
 11
3127.794983257381
 21
2195.968775878828
 31
0.0
  0
INSERT
  5
84CE
330
8461
100
AcDbEntity
  8
0
  6
ByBlock
 62
     0
440
 16777216
100
AcDbBlockReference
  2
_OPEN
 10
3127.794983257381
 20
2240.968775878828
 30
0.0
 41
60.0
 42
60.0
 43
60.0
 50
270.0
  0
INSERT
  5
84CF
330
8461
100
AcDbEntity
  8
0
  6
ByBlock
 62
     0
440
 16777216
100
AcDbBlockReference
  2
_DOT
 10
3127.794983257381
 20
2195.968775878828
 30
0.0
 41
60.0
 42
60.0
 43
60.0
 50
90.0
  0
POINT
  5
84D0
330
8461
100
AcDbEntity
  8
DEFPOINTS
  6
ByBlock
 62
     0
440
 16777216
100
AcDbPoint
 10
2767.83657471631
 20
2240.968775878828
 30
0.0
  0
POINT
  5
84D1
330
8461
100
AcDbEntity
  8
DEFPOINTS
  6
ByBlock
 62
     0
440
 16777216
100
AcDbPoint
 10
2767.83657471631
 20
2195.968775878828
 30
0.0
  0
POINT
  5
84D2
330
8461
100
AcDbEntity
  8
DEFPOINTS
  6
ByBlock
 62
     0
440
 16777216
100
AcDbPoint
 10
3127.794983257381
 20
2195.968775878828
 30
0.0
  0
ENDBLK
  5
84D3
330
8461
100
AcDbEntity
  8
0
100
AcDbBlockEnd
  0
BLOCK
  5
84E1
330
8471
100
AcDbEntity
  8
0
100
AcDbBlockBegin
  2
*D23
 70
     1
 10
0.0
 20
0.0
 30
0.0
  3
*D23
  1

  0
LINE
  5
8628
330
8471
100
AcDbEntity
  8
3
 62
     0
440
 16777216
100
AcDbLine
 10
2782.83657471631
 20
2195.968775878828
 30
0.0
 11
3157.794983257382
 21
2195.968775878827
 31
0.0
  0
LINE
  5
8629
330
8471
100
AcDbEntity
  8
3
 62
     0
440
 16777216
100
AcDbLine
 10
2782.83657471631
 20
2130.968775878828
 30
0.0
 11
3157.794983257382
 21
2130.968775878827
 31
0.0
  0
LINE
  5
862A
330
8471
100
AcDbEntity
  8
3
 62
     0
440
 16777216
100
AcDbLine
 10
3127.794983257381
 20
2255.968775878827
 30
0.0
 11
3127.794983257381
 21
2315.968775878827
 31
0.0
  0
LINE
  5
862B
330
8471
100
AcDbEntity
  8
3
 62
     0
440
 16777216
100
AcDbLine
 10
3127.794983257381
 20
2070.968775878827
 30
0.0
 11
3127.794983257381
 21
1805.254490164542
 31
0.0
  0
LINE
  5
862C
330
8471
100
AcDbEntity
  8
3
 62
     0
440
 16777216
100
AcDbLine
 10
3127.794983257381
 20
2195.968775878827
 30
0.0
 11
3127.794983257381
 21
2130.968775878827
 31
0.0
  0
INSERT
  5
862D
330
8471
100
AcDbEntity
  8
3
 62
     0
440
 16777216
100
AcDbBlockReference
  2
_DOT
 10
3127.794983257381
 20
2195.968775878827
 30
0.0
 41
60.0
 42
60.0
 43
60.0
 50
270.0
  0
INSERT
  5
862E
330
8471
100
AcDbEntity
  8
3
 62
     0
440
 16777216
100
AcDbBlockReference
  2
_OPEN
 10
3127.794983257381
 20
2130.968775878827
 30
0.0
 41
60.0
 42
60.0
 43
60.0
 50
90.0
  0
MTEXT
  5
862F
330
8471
100
AcDbEntity
  8
3
 62
     0
440
 16777216
100
AcDbMText
 10
3052.794983257381
 20
1908.111633021685
 30
0.0
 40
90.0
 41
0.0
 46
0.0
 71
     5
 72
     5
  1
\A1;65
 11
0.0000000000000001
 21
1.0
 31
0.0
 73
     1
 44
1.0
  0
POINT
  5
8630
330
8471
100
AcDbEntity
  8
DEFPOINTS
 62
     0
440
 16777216
100
AcDbPoint
 10
2767.83657471631
 20
2195.968775878828
 30
0.0
  0
POINT
  5
8631
330
8471
100
AcDbEntity
  8
DEFPOINTS
 62
     0
440
 16777216
100
AcDbPoint
 10
2767.83657471631
 20
2130.968775878828
 30
0.0
  0
POINT
  5
8632
330
8471
100
AcDbEntity
  8
DEFPOINTS
 62
     0
440
 16777216
100
AcDbPoint
 10
3127.794983257381
 20
2130.968775878827
 30
0.0
  0
ENDBLK
  5
84ED
330
8471
100
AcDbEntity
  8
0
100
AcDbBlockEnd
  0
BLOCK
  5
84C6
330
84C0
100
AcDbEntity
  8
0
100
AcDbBlockBegin
  2
_DOT
 70
     0
 10
0.0
 20
0.0
 30
0.0
  3
_DOT
  1

  0
LWPOLYLINE
  5
84C1
330
84C0
100
AcDbEntity
  8
0
  6
ByBlock
 62
     0
100
AcDbPolyline
 90
        2
 70
     1
 43
0.25
 10
-0.125
 20
0.0
 42
1.0
 10
0.125
 20
0.0
 42
1.0
  0
LINE
  5
84C5
330
84C0
100
AcDbEntity
  8
0
  6
ByBlock
 62
     0
100
AcDbLine
 10
-0.25
 20
0.0
 30
0.0
 11
-1.0
 21
0.0
 31
0.0
  0
ENDBLK
  5
84C7
330
84C0
100
AcDbEntity
  8
0
100
AcDbBlockEnd
  0
BLOCK
  5
8530
330
852F
100
AcDbEntity
  8
0
100
AcDbBlockBegin
  2
*D25
 70
     1
 10
0.0
 20
0.0
 30
0.0
  3
*D25
  1

  0
LINE
  5
8531
330
852F
100
AcDbEntity
  8
0
  6
ByBlock
 62
     0
440
 16777216
100
AcDbLine
 10
2842.836574716308
 20
3881.968775878828
 30
0.0
 11
3379.732413213231
 21
3881.968775878828
 31
0.0
  0
LINE
  5
8532
330
852F
100
AcDbEntity
  8
0
  6
ByBlock
 62
     0
440
 16777216
100
AcDbLine
 10
2782.83657471631
 20
2130.968775878828
 30
0.0
 11
3379.732413213231
 21
2130.968775878828
 31
0.0
  0
LINE
  5
8533
330
852F
100
AcDbEntity
  8
0
  6
ByBlock
 62
     0
440
 16777216
100
AcDbLine
 10
3349.732413213231
 20
3821.968775878828
 30
0.0
 11
3349.732413213231
 21
2190.968775878828
 31
0.0
  0
INSERT
  5
8534
330
852F
100
AcDbEntity
  8
0
  6
ByBlock
 62
     0
440
 16777216
100
AcDbBlockReference
  2
_OPEN
 10
3349.732413213231
 20
3881.968775878828
 30
0.0
 41
60.0
 42
60.0
 43
60.0
 50
90.0
  0
INSERT
  5
8535
330
852F
100
AcDbEntity
  8
0
  6
ByBlock
 62
     0
440
 16777216
100
AcDbBlockReference
  2
_OPEN
 10
3349.732413213231
 20
2130.968775878828
 30
0.0
 41
60.0
 42
60.0
 43
60.0
 50
270.0
  0
MTEXT
  5
8536
330
852F
100
AcDbEntity
  8
0
  6
ByBlock
 62
     0
440
 16777216
100
AcDbMText
 10
3251.160984641803
 20
3006.468775878828
 30
0.0
 40
90.0
 41
0.0
 46
0.0
 71
     5
 72
     5
  1
\A1;(1751)
 11
0.0
 21
1.0
 31
0.0
 73
     1
 44
1.0
  0
POINT
  5
8537
330
852F
100
AcDbEntity
  8
DEFPOINTS
  6
ByBlock
 62
     0
440
 16777216
100
AcDbPoint
 10
2827.836574716308
 20
3881.968775878828
 30
0.0
  0
POINT
  5
8538
330
852F
100
AcDbEntity
  8
DEFPOINTS
  6
ByBlock
 62
     0
440
 16777216
100
AcDbPoint
 10
2767.83657471631
 20
2130.968775878828
 30
0.0
  0
POINT
  5
8539
330
852F
100
AcDbEntity
  8
DEFPOINTS
  6
ByBlock
 62
     0
440
 16777216
100
AcDbPoint
 10
3349.732413213231
 20
2130.968775878828
 30
0.0
  0
ENDBLK
  5
853A
330
852F
100
AcDbEntity
  8
0
100
AcDbBlockEnd
  0
BLOCK
  5
8695
330
8694
100
AcDbEntity
  8
0
100
AcDbBlockBegin
  2
*D26
 70
     1
 10
0.0
 20
0.0
 30
0.0
  3
*D26
  1

  0
LINE
  5
86BF
330
8694
100
AcDbEntity
  8
3
 62
     0
440
 16777216
370
    -2
100
AcDbLine
 10
4044.996303707845
 20
3155.968775878828
 30
0.0
 11
4044.996303707845
 21
4333.483704682814
 31
0.0
  0
LINE
  5
86C0
330
8694
100
AcDbEntity
  8
3
 62
     0
440
 16777216
370
    -2
100
AcDbLine
 10
5014.996303707848
 20
4207.912341491486
 30
0.0
 11
5014.996303707848
 21
4333.483704682814
 31
0.0
  0
LINE
  5
86C1
330
8694
100
AcDbEntity
  8
3
 62
     0
440
 16777216
370
    -2
100
AcDbLine
 10
4104.996303707845
 20
4303.483704682814
 30
0.0
 11
4954.996303707847
 21
4303.483704682814
 31
0.0
  0
INSERT
  5
86C2
330
8694
100
AcDbEntity
  8
3
 62
     0
440
 16777216
370
    -2
100
AcDbBlockReference
  2
_OPEN
 10
4044.996303707845
 20
4303.483704682814
 30
0.0
 41
60.0
 42
60.0
 43
60.0
 50
180.0
  0
INSERT
  5
86C3
330
8694
100
AcDbEntity
  8
3
 62
     0
440
 16777216
370
    -2
100
AcDbBlockReference
  2
_OPEN
 10
5014.996303707848
 20
4303.483704682814
 30
0.0
 41
60.0
 42
60.0
 43
60.0
  0
MTEXT
  5
86C4
330
8694
100
AcDbEntity
  8
3
 62
     0
440
 16777216
100
AcDbMText
 10
4529.996303707847
 20
4402.055133254243
 30
0.0
 40
90.0
 41
0.0
 46
0.0
 71
     5
 72
     1
  1
\A1;(970)
 73
     1
 44
1.0
  0
POINT
  5
86C5
330
8694
100
AcDbEntity
  8
DEFPOINTS
 62
     0
440
 16777216
100
AcDbPoint
 10
4044.996303707845
 20
3140.968775878828
 30
0.0
  0
POINT
  5
86C6
330
8694
100
AcDbEntity
  8
DEFPOINTS
 62
     0
440
 16777216
100
AcDbPoint
 10
5014.996303707848
 20
4192.912341491487
 30
0.0
  0
POINT
  5
86C7
330
8694
100
AcDbEntity
  8
DEFPOINTS
 62
     0
440
 16777216
100
AcDbPoint
 10
5014.996303707848
 20
4303.483704682814
 30
0.0
  0
ENDBLK
  5
8696
330
8694
100
AcDbEntity
  8
0
100
AcDbBlockEnd
  0
BLOCK
  5
86A2
330
86A1
100
AcDbEntity
  8
0
100
AcDbBlockBegin
  2
*D27
 70
     1
 10
0.0
 20
0.0
 30
0.0
  3
*D27
  1

  0
LINE
  5
86C8
330
86A1
100
AcDbEntity
  8
3
 62
     0
440
 16777216
370
    -2
100
AcDbLine
 10
5014.996303707848
 20
4207.912341491486
 30
0.0
 11
5014.996303707848
 21
4333.483704682814
 31
0.0
  0
LINE
  5
86C9
330
86A1
100
AcDbEntity
  8
3
 62
     0
440
 16777216
370
    -2
100
AcDbLine
 10
5734.496303707846
 20
2896.468775878828
 30
0.0
 11
5734.496303707846
 21
4333.483704682814
 31
0.0
  0
LINE
  5
86CA
330
86A1
100
AcDbEntity
  8
3
 62
     0
440
 16777216
370
    -2
100
AcDbLine
 10
5074.996303707848
 20
4303.483704682814
 30
0.0
 11
5674.496303707846
 21
4303.483704682814
 31
0.0
  0
INSERT
  5
86CB
330
86A1
100
AcDbEntity
  8
3
 62
     0
440
 16777216
370
    -2
100
AcDbBlockReference
  2
_OPEN
 10
5014.996303707848
 20
4303.483704682814
 30
0.0
 41
60.0
 42
60.0
 43
60.0
 50
180.0
  0
INSERT
  5
86CC
330
86A1
100
AcDbEntity
  8
3
 62
     0
440
 16777216
370
    -2
100
AcDbBlockReference
  2
_OPEN
 10
5734.496303707846
 20
4303.483704682814
 30
0.0
 41
60.0
 42
60.0
 43
60.0
  0
MTEXT
  5
86CD
330
86A1
100
AcDbEntity
  8
3
 62
     0
440
 16777216
100
AcDbMText
 10
5374.746303707847
 20
4402.055133254243
 30
0.0
 40
90.0
 41
0.0
 46
0.0
 71
     5
 72
     1
  1
\A1;(720)
 73
     1
 44
1.0
  0
POINT
  5
86CE
330
86A1
100
AcDbEntity
  8
DEFPOINTS
 62
     0
440
 16777216
100
AcDbPoint
 10
5014.996303707848
 20
4192.912341491487
 30
0.0
  0
POINT
  5
86CF
330
86A1
100
AcDbEntity
  8
DEFPOINTS
 62
     0
440
 16777216
100
AcDbPoint
 10
5734.496303707846
 20
2881.468775878828
 30
0.0
  0
POINT
  5
86D0
330
86A1
100
AcDbEntity
  8
DEFPOINTS
 62
     0
440
 16777216
100
AcDbPoint
 10
5734.496303707846
 20
4303.483704682814
 30
0.0
  0
ENDBLK
  5
86A3
330
86A1
100
AcDbEntity
  8
0
100
AcDbBlockEnd
  0
ENDSEC
  0
SECTION
  2
ENTITIES
  0
INSERT
  5
7EF9
330
19
100
AcDbEntity
  8
0
100
AcDbBlockReference
  2
YA_N
 10
6.0
 20
5.0
 30
0.0
  0
LINE
  5
7EFB
330
19
100
AcDbEntity
  8
2
100
AcDbLine
 10
2864.091913494855
 20
2920.968775878828
 30
0.0
 11
1362.511820077616
 21
2920.968775878828
 31
0.0
  0
LINE
  5
7EFC
330
19
100
AcDbEntity
  8
2
100
AcDbLine
 10
2207.836574716308
 20
3922.931218222385
 30
0.0
 11
2207.836574716308
 21
2130.968775878828
 31
0.0
  0
ARC
  5
7EFD
330
19
100
AcDbEntity
  8
1
 48
10.0
100
AcDbCircle
 10
2274.836574716308
 20
2987.968775878828
 30
0.0
 40
844.0
100
AcDbArc
 50
94.55315238721905
 51
184.553152387219
  0
ARC
  5
7EFE
330
19
100
AcDbEntity
  8
1
 48
10.0
100
AcDbCircle
 10
2140.836574716308
 20
2987.968775878828
 30
0.0
 40
710.0
100
AcDbArc
 50
185.4148417061294
 51
241.1702404574356
  0
ARC
  5
7EFF
330
19
100
AcDbEntity
  8
1
 48
10.0
100
AcDbCircle
 10
2154.336574716308
 20
2867.468775878828
 30
0.0
 40
589.5
100
AcDbArc
 50
301.7098293401351
 51
5.207036088349489
  0
ARC
  5
7F00
330
19
100
AcDbEntity
  8
1
 48
10.0
100
AcDbCircle
 10
2261.336574716308
 20
2867.468775878828
 30
0.0
 40
482.5
100
AcDbArc
 50
6.366093980520057
 51
10.68983170690951
  0
LINE
  5
7F01
330
19
100
AcDbEntity
  8
1
 48
10.0
100
AcDbLine
 10
2827.836574716308
 20
3924.468775878828
 30
0.0
 11
2827.836574716308
 21
2914.468775878828
 31
0.0
  0
LINE
  5
7F02
330
19
100
AcDbEntity
  8
1
 48
10.0
100
AcDbLine
 10
2827.836574716308
 20
2956.968775878828
 30
0.0
 11
2735.463140097325
 21
2956.968775878828
 31
0.0
  0
LINE
  5
7F03
330
19
100
AcDbEntity
  8
1
 48
10.0
100
AcDbLine
 10
2827.836574716308
 20
3881.968775878828
 30
0.0
 11
2207.836574716308
 21
3829.305212745793
 31
0.0
  0
LINE
  5
7F04
330
19
100
AcDbEntity
  8
1
 48
10.0
100
AcDbLine
 10
2827.836574716308
 20
3924.468775878828
 30
0.0
 11
2824.836574716308
 21
3924.468775878828
 31
0.0
  0
LINE
  5
7F05
330
19
100
AcDbEntity
  8
1
 48
10.0
100
AcDbLine
 10
2827.836574716308
 20
2914.468775878828
 30
0.0
 11
2824.836574716308
 21
2914.468775878828
 31
0.0
  0
LINE
  5
7F06
330
19
100
AcDbEntity
  8
1
 48
10.0
100
AcDbLine
 10
2824.836574716308
 20
3924.468775878828
 30
0.0
 11
2824.836574716308
 21
2914.468775878828
 31
0.0
  0
LINE
  5
7F07
330
19
100
AcDbEntity
  8
1
 48
10.0
100
AcDbLine
 10
767.8365747163097
 20
2365.968775878828
 30
0.0
 11
767.8365747163097
 21
2240.968775878828
 31
0.0
  0
LINE
  5
7F08
330
19
100
AcDbEntity
  8
1
 48
10.0
100
AcDbLine
 10
2767.836574716308
 20
2365.968775878828
 30
0.0
 11
2767.836574716308
 21
2240.968775878828
 31
0.0
  0
LINE
  5
7F09
330
19
100
AcDbEntity
  8
1
 48
10.0
100
AcDbLine
 10
767.8365747163097
 20
2240.968775878828
 30
0.0
 11
2767.83657471631
 21
2240.968775878828
 31
0.0
1001
ACAD
1000
ASC_BOUNDS
1002
{
1070
    19
1002
}
  0
LINE
  5
7F0A
330
19
100
AcDbEntity
  8
1
 48
10.0
100
AcDbLine
 10
767.8365747163097
 20
2365.968775878827
 30
0.0
 11
2767.83657471631
 21
2365.968775878828
 31
0.0
  0
LINE
  5
7F0B
330
19
100
AcDbEntity
  8
2
100
AcDbLine
 10
1007.836574716308
 20
2908.971266874932
 30
0.0
 11
1007.836574716308
 21
2130.968775878828
 31
0.0
  0
LINE
  5
7F0C
330
19
100
AcDbEntity
  8
2
100
AcDbLine
 10
742.3778823200536
 20
2640.968775878828
 30
0.0
 11
1222.679501170141
 21
2640.968775878828
 31
0.0
  0
LINE
  5
7F0D
330
19
100
AcDbEntity
  8
2
100
AcDbLine
 10
4124.417205062149
 20
2920.968775878828
 30
0.0
 11
5725.515951465585
 21
2920.968775878828
 31
0.0
  0
POINT
  5
7F0F
330
19
100
AcDbEntity
  8
1
 48
10.0
100
AcDbPoint
 10
1434.004911588516
 20
2920.968775878828
 30
0.0
  0
INSERT
  5
7F10
330
19
100
AcDbEntity
  8
0
 48
10.0
100
AcDbBlockReference
  2
YA_N
 10
-1638.667820090515
 20
-980.7401201518077
 30
0.0
 41
20.0
 42
20.0
 43
20.0
  0
INSERT
  5
7F12
330
19
100
AcDbEntity
  8
0
 48
10.0
100
AcDbBlockReference
  2
YA_N
 10
-1552.816625123014
 20
-1070.405552057982
 30
0.0
 41
20.0
 42
20.0
 43
20.0
  0
ARC
  5
7F14
330
19
100
AcDbEntity
  8
1
 48
10.0
100
AcDbCircle
 10
1007.836574716308
 20
2640.968775878828
 30
0.0
 40
185.0
100
AcDbArc
 50
287.945251
 51
252.054749
  0
LINE
  5
7F15
330
19
100
AcDbEntity
  8
1
 48
10.0
100
AcDbLine
 10
1064.836574716308
 20
2464.968775878828
 30
0.0
 11
950.8365747163079
 21
2464.968775878828
 31
0.0
  0
LINE
  5
7F16
330
19
100
AcDbEntity
  8
1
 48
10.0
100
AcDbLine
 10
1169.836574716308
 20
2536.227808878828
 30
0.0
 11
1169.836574716308
 21
2460.968775878828
 31
0.0
  0
LINE
  5
7F17
330
19
100
AcDbEntity
  8
1
 48
10.0
100
AcDbLine
 10
1169.836574716308
 20
2536.227808878828
 30
0.0
 11
1163.452602716308
 21
2540.925562878828
 31
0.0
  0
LINE
  5
7F18
330
19
100
AcDbEntity
  8
1
 48
10.0
100
AcDbLine
 10
845.836574716308
 20
2536.227808878828
 30
0.0
 11
845.836574716308
 21
2460.968775878828
 31
0.0
  0
LINE
  5
7F19
330
19
100
AcDbEntity
  8
1
 48
10.0
100
AcDbLine
 10
845.836574716308
 20
2536.227808878828
 30
0.0
 11
852.2204857163087
 21
2540.925562878828
 31
0.0
  0
LINE
  5
7F1A
330
19
100
AcDbEntity
  8
1
 48
10.0
100
AcDbLine
 10
782.8365747163079
 20
2405.968775878828
 30
0.0
 11
1232.836574716308
 21
2405.968775878828
 31
0.0
  0
LINE
  5
7F1B
330
19
100
AcDbEntity
  8
1
 48
10.0
100
AcDbLine
 10
807.8365747163079
 20
2405.968775878828
 30
0.0
 11
807.8365747163079
 21
2365.968775878828
 31
0.0
  0
LINE
  5
7F1C
330
19
100
AcDbEntity
  8
1
 48
10.0
100
AcDbLine
 10
1207.836574716308
 20
2405.968775878828
 30
0.0
 11
1207.836574716308
 21
2365.968775878828
 31
0.0
  0
LINE
  5
7F1D
330
19
100
AcDbEntity
  8
1
 48
10.0
100
AcDbLine
 10
797.7350363151854
 20
2460.968775878828
 30
0.0
 11
937.836574716308
 21
2460.968775878828
 31
0.0
  0
LINE
  5
7F1E
330
19
100
AcDbEntity
  8
1
 48
10.0
100
AcDbLine
 10
1232.836574716308
 20
2405.968775878828
 30
0.0
 11
1217.634258081796
 21
2460.968775878828
 31
0.0
  0
LINE
  5
7F1F
330
19
100
AcDbEntity
  8
1
 48
10.0
100
AcDbLine
 10
782.8365747163079
 20
2405.968775878828
 30
0.0
 11
797.7350363151854
 21
2460.968775878828
 31
0.0
  0
LINE
  5
7F21
330
19
100
AcDbEntity
  8
1
 48
10.0
100
AcDbLine
 10
937.836574716308
 20
2450.968775878828
 30
0.0
 11
1077.836574716308
 21
2450.968775878828
 31
0.0
  0
LINE
  5
7F22
330
19
100
AcDbEntity
  8
1
 48
10.0
100
AcDbLine
 10
937.836574716308
 20
2460.968775878828
 30
0.0
 11
937.836574716308
 21
2450.968775878828
 31
0.0
  0
LINE
  5
7F23
330
19
100
AcDbEntity
  8
1
 48
10.0
100
AcDbLine
 10
1077.836574716308
 20
2460.968775878828
 30
0.0
 11
1077.836574716308
 21
2450.968775878828
 31
0.0
  0
LINE
  5
7F24
330
19
100
AcDbEntity
  8
1
 48
10.0
100
AcDbLine
 10
1077.836574716308
 20
2460.968775878828
 30
0.0
 11
1217.634258081796
 21
2460.968775878828
 31
0.0
  0
LINE
  5
7F27
330
19
100
AcDbEntity
  8
1
 48
10.0
100
AcDbLine
 10
767.8365747163079
 20
2195.968775878828
 30
0.0
 11
2767.83657471631
 21
2195.968775878828
 31
0.0
1001
ACAD
1000
ASC_BOUNDS
1002
{
1070
    19
1002
}
  0
LINE
  5
7F28
330
19
100
AcDbEntity
  8
1
 48
10.0
100
AcDbLine
 10
767.8365747163079
 20
2130.968775878828
 30
0.0
 11
2767.83657471631
 21
2130.968775878828
 31
0.0
  0
LINE
  5
7F29
330
19
100
AcDbEntity
  8
1
 48
10.0
100
AcDbLine
 10
767.8365747163079
 20
2195.968775878828
 30
0.0
 11
767.8365747163079
 21
2130.968775878828
 31
0.0
  0
LINE
  5
7F2A
330
19
100
AcDbEntity
  8
1
 48
10.0
100
AcDbLine
 10
2767.83657471631
 20
2195.968775878828
 30
0.0
 11
2767.83657471631
 21
2130.968775878828
 31
0.0
  0
DIMENSION
  5
7F2C
330
19
100
AcDbEntity
  8
3
 48
10.0
100
AcDbDimension
280
     0
  2
*D2
 10
2207.836574716308
 20
1927.458521380233
 30
0.0
 11
2487.836574716309
 21
2002.458521380233
 31
0.0
 70
    32
 71
     5
 42
-1.0
 73
     0
 74
     0
 75
     0
  3
MATSU
100
AcDbAlignedDimension
 13
2767.83657471631
 23
2130.968775878828
 33
0.0
 14
2207.836574716308
 24
2130.968775878828
 34
0.0
100
AcDbRotatedDimension
1001
ACAD
1000
DSTYLE
1002
{
1070
   287
1070
     3
1070
    40
1040
30.0
1070
    41
1040
2.5
1070
    42
1040
0.0
1070
   147
1040
1.0
1070
   272
1070
     4
1070
   284
1070
     0
1070
   289
1070
     3
1070
     6
1000
ARROW
1070
     7
1000
ARROW
1002
}
  0
DIMENSION
  5
7F2D
330
19
100
AcDbEntity
  8
3
 48
10.0
100
AcDbDimension
280
     0
  2
*D3
 10
2977.45168315952
 20
2956.968775878828
 30
0.0
 11
2902.451683159519
 21
3419.468775878828
 31
0.0
 70
    32
 71
     5
 42
-1.0
 73
     0
 74
     0
 75
     0
  3
MATSU
100
AcDbAlignedDimension
 13
2827.836574716308
 23
3881.968775878828
 33
0.0
 14
2827.836574716308
 24
2956.968775878828
 34
0.0
 50
270.0
100
AcDbRotatedDimension
1001
ACAD
1000
DSTYLE
1002
{
1070
   287
1070
     3
1070
    40
1040
30.0
1070
    41
1040
2.5
1070
    42
1040
0.0
1070
   147
1040
1.0
1070
   272
1070
     4
1070
   284
1070
     0
1070
   289
1070
     3
1070
     6
1000
ARROW
1070
     7
1000
ARROW
1002
}
  0
DIMENSION
  5
7F2E
330
19
100
AcDbEntity
  8
3
 48
10.0
100
AcDbDimension
280
     0
  2
*D4
 10
3127.794983257381
 20
2920.968775878828
 30
0.0
 11
3052.794983257381
 21
3401.468775878829
 31
0.0
 70
    32
 71
     5
 42
-1.0
 73
     0
 74
     0
 75
     0
  3
MATSU
100
AcDbAlignedDimension
 13
2827.836574716308
 23
3881.968775878828
 33
0.0
 14
2864.091913494855
 24
2920.968775878828
 34
0.0
 50
270.0
100
AcDbRotatedDimension
1001
ACAD
1000
DSTYLE
1002
{
1070
   287
1070
     3
1070
    40
1040
30.0
1070
    41
1040
2.5
1070
    42
1040
0.0
1070
   147
1040
1.0
1070
   272
1070
     4
1070
   284
1070
     0
1070
   289
1070
     3
1070
     6
1000
ARROW
1070
     7
1000
ARROW
1002
}
  0
DIMENSION
  5
7F2F
330
19
100
AcDbEntity
  8
3
 48
10.0
100
AcDbDimension
280
     0
  2
*D5
 10
3127.794983257381
 20
2240.968775878827
 30
0.0
 11
3052.794983257381
 21
2580.968775878828
 31
0.0
 70
    32
 71
     5
 42
-1.0
 73
     0
 74
     0
 75
     0
  3
MATSU
100
AcDbAlignedDimension
 13
2864.091913494855
 23
2920.968775878828
 33
0.0
 14
2767.83657471631
 24
2240.968775878828
 34
0.0
 50
270.0
100
AcDbRotatedDimension
1001
ACAD
1000
DSTYLE
1002
{
1070
   287
1070
     3
1070
    40
1040
30.0
1070
    41
1040
2.5
1070
    42
1040
0.0
1070
   147
1040
1.0
1070
   272
1070
     4
1070
   284
1070
     0
1070
   289
1070
     3
1070
     6
1000
ARROW
1070
     7
1000
ARROW
1002
}
  0
POINT
  5
7F31
330
19
100
AcDbEntity
  8
1
 48
10.0
100
AcDbPoint
 10
2767.83657471631
 20
2195.968775878828
 30
0.0
  0
POINT
  5
7F32
330
19
100
AcDbEntity
  8
1
 48
10.0
100
AcDbPoint
 10
2767.83657471631
 20
2130.968775878828
 30
0.0
  0
POINT
  5
7F33
330
19
100
AcDbEntity
  8
1
 48
10.0
100
AcDbPoint
 10
3128.025515499891
 20
2130.968775878828
 30
0.0
  0
POINT
  5
7F35
330
19
100
AcDbEntity
  8
1
 48
10.0
100
AcDbPoint
 10
2767.83657471631
 20
2195.968775878828
 30
0.0
  0
POINT
  5
7F36
330
19
100
AcDbEntity
  8
1
 48
10.0
100
AcDbPoint
 10
2767.836574716308
 20
2240.968775878828
 30
0.0
  0
DIMENSION
  5
7F37
330
19
100
AcDbEntity
  8
3
 48
10.0
100
AcDbDimension
280
     0
  2
*D6
 10
2207.836574716308
 20
4075.363185594459
 30
0.0
 11
2517.836574716308
 21
4150.363185594459
 31
0.0
 70
    32
 71
     5
 42
-1.0
 73
     0
 74
     0
 75
     0
  3
MATSU
100
AcDbAlignedDimension
 13
2827.836574716308
 23
3924.468775878828
 33
0.0
 14
2207.836574716308
 24
3922.931218222385
 34
0.0
100
AcDbRotatedDimension
1001
ACAD
1000
DSTYLE
1002
{
1070
   287
1070
     3
1070
    40
1040
30.0
1070
    41
1040
2.5
1070
    42
1040
0.0
1070
   147
1040
1.0
1070
   272
1070
     4
1070
   284
1070
     0
1070
   289
1070
     3
1070
     6
1000
ARROW
1070
     7
1000
ARROW
1002
}
  0
DIMENSION
  5
7F38
330
19
100
AcDbEntity
  8
3
 48
10.0
100
AcDbDimension
280
     0
  2
*D7
 10
1434.004911588516
 20
4075.606385583884
 30
0.0
 11
1820.920743152412
 21
4150.606385583883
 31
0.0
 70
    32
  1
777
 71
     5
 42
-1.0
 73
     0
 74
     0
 75
     0
  3
MATSU
100
AcDbAlignedDimension
 13
2207.836574716308
 23
3922.931218222385
 33
0.0
 14
1434.004911588516
 24
2920.968775878828
 34
0.0
100
AcDbRotatedDimension
1001
ACAD
1000
DSTYLE
1002
{
1070
   287
1070
     3
1070
    40
1040
30.0
1070
    41
1040
2.5
1070
    42
1040
0.0
1070
   147
1040
1.0
1070
   272
1070
     4
1070
   284
1070
     0
1070
   289
1070
     3
1070
     6
1000
ARROW
1070
     7
1000
ARROW
1002
}
  0
CIRCLE
  5
7F39
330
19
100
AcDbEntity
  8
1
 48
10.0
100
AcDbCircle
 10
1007.836574716308
 20
2640.968775878828
 30
0.0
 40
119.0
  0
LINE
  5
7F3A
330
19
100
AcDbEntity
  8
2
100
AcDbLine
 10
4044.996303707848
 20
2640.968775878828
 30
0.0
 11
4424.996303707845
 21
2640.968775878828
 31
0.0
  0
CIRCLE
  5
7F3B
330
19
100
AcDbEntity
  8
1
 48
10.0
100
AcDbCircle
 10
2207.836574716308
 20
2920.968775878828
 30
0.0
 40
119.0
  0
LINE
  5
7F3C
330
19
100
AcDbEntity
  8
1
 48
10.0
100
AcDbLine
 10
2472.836574716308
 20
2371.968775878828
 30
0.0
 11
2472.836574716308
 21
2365.968775878828
 31
0.0
  0
LINE
  5
7F3D
330
19
100
AcDbEntity
  8
1
 48
10.0
100
AcDbLine
 10
767.8365747163079
 20
4969.791155245028
 30
0.0
 11
2767.83657471631
 21
4969.791155245028
 31
0.0
  0
LINE
  5
7F3E
330
19
100
AcDbEntity
  8
1
 48
10.0
100
AcDbLine
 10
1647.83657471631
 20
6469.791155245028
 30
0.0
 11
2767.83657471631
 21
6469.791155245028
 31
0.0
  0
LINE
  5
7F3F
330
19
100
AcDbEntity
  8
1
 48
10.0
100
AcDbLine
 10
2767.83657471631
 20
4969.791155245028
 30
0.0
 11
2767.83657471631
 21
5221.791155245028
 31
0.0
  0
LINE
  5
7F40
330
19
100
AcDbEntity
  8
1
 48
10.0
100
AcDbLine
 10
767.8365747163079
 20
5819.791155245027
 30
0.0
 11
767.8365747163079
 21
4969.791155245028
 31
0.0
  0
LINE
  5
7F41
330
19
100
AcDbEntity
  8
1
 48
10.0
100
AcDbLine
 10
1647.83657471631
 20
6401.791155245028
 30
0.0
 11
1647.83657471631
 21
6469.791155245028
 31
0.0
  0
LINE
  5
7F42
330
19
100
AcDbEntity
  8
1
 48
10.0
100
AcDbLine
 10
767.8365747163079
 20
5819.791155245027
 30
0.0
 11
1430.83657471631
 21
5819.791155245027
 31
0.0
  0
ARC
  5
7F43
330
19
100
AcDbEntity
  8
1
 48
10.0
100
AcDbCircle
 10
2207.836574716308
 20
2920.968775878828
 30
0.0
 40
220.0
100
AcDbArc
 50
283.1340223063963
 51
103.1340223063963
  0
ARC
  5
7F44
330
19
100
AcDbEntity
  8
1
 48
10.0
100
AcDbCircle
 10
1007.836574716308
 20
2640.968775878828
 30
0.0
 40
220.0
100
AcDbArc
 50
103.1340223063963
 51
283.1340223063963
  0
LINE
  5
7F45
330
19
100
AcDbEntity
  8
1
 48
10.0
100
AcDbLine
 10
2157.846059282896
 20
3135.213842022022
 30
0.0
 11
957.846059282896
 21
2855.213842022022
 31
0.0
  0
LINE
  5
7F46
330
19
100
AcDbEntity
  8
1
 48
10.0
100
AcDbLine
 10
2180.796250459145
 20
3036.855879838101
 30
0.0
 11
980.7962504591451
 21
2756.855879838101
 31
0.0
  0
LINE
  5
7F47
330
19
100
AcDbEntity
  8
1
 48
10.0
100
AcDbLine
 10
2234.876898973473
 20
2805.081671919555
 30
0.0
 11
1034.876898973472
 21
2525.081671919554
 31
0.0
  0
LINE
  5
7F48
330
19
100
AcDbEntity
  8
1
 48
10.0
100
AcDbLine
 10
2257.827090149721
 20
2706.723709735634
 30
0.0
 11
1057.827090149721
 21
2426.723709735633
 31
0.0
  0
DIMENSION
  5
7F49
330
19
100
AcDbEntity
  8
3
 48
10.0
100
AcDbDimension
280
     0
  2
*D8
 10
2207.836574716308
 20
1927.542677257419
 30
0.0
 11
1487.836574716308
 21
2002.542677257419
 31
0.0
 70
    32
 71
     5
 42
-1.0
 73
     0
 74
     0
 75
     0
  3
MATSU
100
AcDbAlignedDimension
 13
767.8365747163079
 23
2130.968775878828
 33
0.0
 14
2207.836574716308
 24
2130.968775878828
 34
0.0
100
AcDbRotatedDimension
1001
ACAD
1000
DSTYLE
1002
{
1070
   287
1070
     3
1070
    40
1040
30.0
1070
    41
1040
2.5
1070
    42
1040
0.0
1070
   147
1040
1.0
1070
   272
1070
     4
1070
   284
1070
     0
1070
   289
1070
     3
1070
     6
1000
ARROW
1070
     7
1000
ARROW
1002
}
  0
LINE
  5
7F4B
330
19
100
AcDbEntity
  8
2
100
AcDbLine
 10
1430.83657471631
 20
5811.791155245026
 30
0.0
 11
2899.920848129059
 21
5811.791155245028
 31
0.0
  0
LINE
  5
7F4C
330
19
100
AcDbEntity
  8
2
100
AcDbLine
 10
2207.83657471631
 20
4841.791155245028
 30
0.0
 11
2207.83657471631
 21
6608.878571977841
 31
0.0
  0
LINE
  5
7F4D
330
19
100
AcDbEntity
  8
2
100
AcDbLine
 10
1007.83657471631
 20
4841.791155245028
 30
0.0
 11
1007.83657471631
 21
5583.291155245028
 31
0.0
  0
DIMENSION
  5
7F4E
330
19
100
AcDbEntity
  8
3
 48
10.0
100
AcDbDimension
280
     0
  2
*D9
 10
2767.83657471631
 20
6767.873710840014
 30
0.0
 11
2207.83657471631
 21
6842.873710840014
 31
0.0
 70
    32
 71
     5
 42
-1.0
 73
     0
 74
     0
 75
     0
  3
MATSU
100
AcDbAlignedDimension
 13
1647.83657471631
 23
6469.791155245028
 33
0.0
 14
2767.83657471631
 24
6469.791155245028
 34
0.0
100
AcDbRotatedDimension
1001
ACAD
1000
DSTYLE
1002
{
1070
   287
1070
     3
1070
    40
1040
30.0
1070
    41
1040
2.5
1070
    42
1040
0.0
1070
   147
1040
1.0
1070
   272
1070
     4
1070
   284
1070
     0
1070
   289
1070
     3
1070
     6
1000
ARROW
1070
     7
1000
ARROW
1002
}
  0
DIMENSION
  5
7F4F
330
19
100
AcDbEntity
  8
3
 48
10.0
100
AcDbDimension
280
     0
  2
*D10
 10
1647.83657471631
 20
6767.873710840014
 30
0.0
 11
1207.836574716309
 21
6842.873710840014
 31
0.0
 70
    32
 71
     5
 42
-1.0
 73
     0
 74
     0
 75
     0
  3
MATSU
100
AcDbAlignedDimension
 13
767.8365747163079
 23
5819.791155245027
 33
0.0
 14
1647.83657471631
 24
6469.791155245028
 34
0.0
100
AcDbRotatedDimension
1001
ACAD
1000
DSTYLE
1002
{
1070
   287
1070
     3
1070
    40
1040
30.0
1070
    41
1040
2.5
1070
    42
1040
0.0
1070
   147
1040
1.0
1070
   272
1070
     4
1070
   284
1070
     0
1070
   289
1070
     3
1070
     6
1000
ARROW
1070
     7
1000
ARROW
1002
}
  0
DIMENSION
  5
7F50
330
19
100
AcDbEntity
  8
3
 48
10.0
100
AcDbDimension
280
     0
  2
*D11
 10
2767.83657471631
 20
4573.75173082571
 30
0.0
 11
1767.836574716309
 21
4573.75173082571
 31
0.0
 70
   160
 71
     5
 42
-1.0
 73
     0
 74
     0
 75
     0
  3
MATSU
100
AcDbAlignedDimension
 13
767.8365747163079
 23
4969.791155245028
 33
0.0
 14
2767.83657471631
 24
4969.791155245028
 34
0.0
100
AcDbRotatedDimension
1001
ACAD
1000
DSTYLE
1002
{
1070
   287
1070
     3
1070
    40
1040
30.0
1070
    41
1040
2.5
1070
    42
1040
0.0
1070
   147
1040
1.0
1070
   272
1070
     4
1070
   284
1070
     0
1070
   289
1070
     3
1070
     6
1000
ARROW
1070
     7
1000
ARROW
1002
}
  0
DIMENSION
  5
7F51
330
19
100
AcDbEntity
  8
3
 48
10.0
100
AcDbDimension
280
     0
  2
*D12
 10
564.9008278966575
 20
4969.791155245028
 30
0.0
 11
489.9008278966568
 21
5394.791155245028
 31
0.0
 70
    32
 71
     5
 42
-1.0
 73
     0
 74
     0
 75
     0
  3
MATSU
100
AcDbAlignedDimension
 13
767.8365747163079
 23
5819.791155245027
 33
0.0
 14
767.8365747163079
 24
4969.791155245028
 34
0.0
 50
90.0
100
AcDbRotatedDimension
1001
ACAD
1000
DSTYLE
1002
{
1070
   287
1070
     3
1070
    40
1040
30.0
1070
    41
1040
2.5
1070
    42
1040
0.0
1070
   147
1040
1.0
1070
   272
1070
     4
1070
   284
1070
     0
1070
   289
1070
     3
1070
     6
1000
ARROW
1070
     7
1000
ARROW
1002
}
  0
DIMENSION
  5
7F52
330
19
100
AcDbEntity
  8
3
 48
10.0
100
AcDbDimension
280
     0
  2
*D13
 10
3067.140820946224
 20
4969.791155245028
 30
0.0
 11
2992.140820946224
 21
5719.791155245029
 31
0.0
 70
    32
 71
     5
 42
-1.0
 73
     0
 74
     0
 75
     0
  3
MATSU
100
AcDbAlignedDimension
 13
2767.83657471631
 23
6469.791155245028
 33
0.0
 14
2767.83657471631
 24
4969.791155245028
 34
0.0
 50
90.0
100
AcDbRotatedDimension
1001
ACAD
1000
DSTYLE
1002
{
1070
   287
1070
     3
1070
    40
1040
30.0
1070
    41
1040
2.5
1070
    42
1040
0.0
1070
   147
1040
1.0
1070
   272
1070
     4
1070
   284
1070
     0
1070
   289
1070
     3
1070
     6
1000
ARROW
1070
     7
1000
ARROW
1002
}
  0
LINE
  5
7F53
330
19
100
AcDbEntity
  8
1
 48
10.0
100
AcDbLine
 10
1430.83657471631
 20
6401.791155245027
 30
0.0
 11
2827.83657471631
 21
6401.791155245027
 31
0.0
  0
LINE
  5
7F54
330
19
100
AcDbEntity
  8
1
 48
10.0
100
AcDbLine
 10
1430.83657471631
 20
5221.791155245028
 30
0.0
 11
2827.83657471631
 21
5221.791155245028
 31
0.0
  0
LINE
  5
7F55
330
19
100
AcDbEntity
  8
1
 48
10.0
100
AcDbLine
 10
2827.83657471631
 20
5181.791155245027
 30
0.0
 11
2827.83657471631
 21
6441.791155245027
 31
0.0
  0
LINE
  5
7F5B
330
19
100
AcDbEntity
  8
1
 48
10.0
100
AcDbLine
 10
2787.836574716308
 20
3878.571126644438
 30
0.0
 11
2787.836574716308
 21
2956.968775878828
 31
0.0
  0
LINE
  5
7F5C
330
19
100
AcDbEntity
  8
1
 48
10.0
100
AcDbLine
 10
2824.83657471631
 20
5181.791155245027
 30
0.0
 11
2824.83657471631
 21
6441.791155245027
 31
0.0
  0
LINE
  5
7F5D
330
19
100
AcDbEntity
  8
1
 48
10.0
100
AcDbLine
 10
1430.83657471631
 20
5221.791155245028
 30
0.0
 11
1430.83657471631
 21
6401.791155245027
 31
0.0
  0
LINE
  5
7F5E
330
19
100
AcDbEntity
  8
1
 48
10.0
100
AcDbLine
 10
1192.836574716309
 20
5026.791155245028
 30
0.0
 11
1192.836574716309
 21
5583.291155245028
 31
0.0
  0
LINE
  5
7F5F
330
19
100
AcDbEntity
  8
1
 48
10.0
100
AcDbLine
 10
822.8365747163097
 20
5026.791155245028
 30
0.0
 11
822.8365747163097
 21
5583.291155245029
 31
0.0
  0
LINE
  5
7F60
330
19
100
AcDbEntity
  8
1
 48
10.0
100
AcDbLine
 10
787.8365747163079
 20
4841.791155245028
 30
0.0
 11
2427.836574716308
 21
4841.791155245028
 31
0.0
  0
LINE
  5
7F61
330
19
100
AcDbEntity
  8
1
 48
10.0
100
AcDbLine
 10
2427.836574716308
 20
4841.791155245029
 30
0.0
 11
2427.836574716308
 21
5041.791155245029
 31
0.0
  0
LINE
  5
7F62
330
19
100
AcDbEntity
  8
1
 48
10.0
100
AcDbLine
 10
787.8365747163079
 20
4841.791155245028
 30
0.0
 11
787.8365747163079
 21
5041.791155245029
 31
0.0
  0
LINE
  5
7F63
330
19
100
AcDbEntity
  8
1
 48
10.0
100
AcDbLine
 10
787.8365747163079
 20
5041.791155245028
 30
0.0
 11
2427.836574716308
 21
5041.791155245028
 31
0.0
  0
LINE
  5
7F64
330
19
100
AcDbEntity
  8
1
 48
10.0
100
AcDbLine
 10
888.8365747163089
 20
4906.791155245029
 30
0.0
 11
1126.83657471631
 21
4906.791155245027
 31
0.0
  0
LINE
  5
7F65
330
19
100
AcDbEntity
  8
1
 48
10.0
100
AcDbLine
 10
888.8365747163089
 20
5016.791155245027
 30
0.0
 11
1126.83657471631
 21
5016.791155245027
 31
0.0
  0
LINE
  5
7F66
330
19
100
AcDbEntity
  8
1
 48
10.0
100
AcDbLine
 10
2326.83657471631
 20
4906.791155245027
 30
0.0
 11
2326.83657471631
 21
5016.791155245027
 31
0.0
  0
LINE
  5
7F67
330
19
100
AcDbEntity
  8
1
 48
10.0
100
AcDbLine
 10
2088.83657471631
 20
4906.791155245027
 30
0.0
 11
2088.83657471631
 21
5016.791155245027
 31
0.0
  0
LINE
  5
7F68
330
19
100
AcDbEntity
  8
1
 48
10.0
100
AcDbLine
 10
1126.83657471631
 20
4906.791155245027
 30
0.0
 11
1126.83657471631
 21
5016.791155245027
 31
0.0
  0
LINE
  5
7F69
330
19
100
AcDbEntity
  8
1
 48
10.0
100
AcDbLine
 10
888.8365747163097
 20
4906.791155245027
 30
0.0
 11
888.8365747163097
 21
5016.791155245027
 31
0.0
  0
LINE
  5
7F6A
330
19
100
AcDbEntity
  8
1
 48
10.0
100
AcDbLine
 10
2088.83657471631
 20
4906.791155245027
 30
0.0
 11
2326.83657471631
 21
4906.791155245027
 31
0.0
  0
LINE
  5
7F6B
330
19
100
AcDbEntity
  8
1
 48
10.0
100
AcDbLine
 10
2088.83657471631
 20
5016.791155245027
 30
0.0
 11
2326.83657471631
 21
5016.791155245027
 31
0.0
  0
LINE
  5
7F6C
330
19
100
AcDbEntity
  8
1
 48
10.0
100
AcDbLine
 10
1192.836574716309
 20
5026.791155245028
 30
0.0
 11
1007.83657471631
 21
5026.791155245028
 31
0.0
  0
LINE
  5
7F6D
330
19
100
AcDbEntity
  8
1
 48
10.0
100
AcDbLine
 10
982.8365747163097
 20
5016.791155245028
 30
0.0
 11
1032.836574716309
 21
5016.791155245028
 31
0.0
  0
LINE
  5
7F6E
330
19
100
AcDbEntity
  8
1
 48
10.0
100
AcDbLine
 10
822.8365747163097
 20
5026.791155245028
 30
0.0
 11
1007.83657471631
 21
5026.791155245028
 31
0.0
  0
LINE
  5
7F6F
330
19
100
AcDbEntity
  8
1
 48
10.0
100
AcDbLine
 10
942.8365747163097
 20
5041.791155245029
 30
0.0
 11
942.8365747163097
 21
5028.791155245029
 31
0.0
  0
ARC
  5
7F70
330
19
100
AcDbEntity
  8
1
 48
10.0
100
AcDbCircle
 10
944.8365747163098
 20
5028.791155245029
 30
0.0
 40
2.0
100
AcDbArc
 50
180.0
 51
270.0
  0
LINE
  5
7F71
330
19
100
AcDbEntity
  8
1
 48
10.0
100
AcDbLine
 10
982.8365747163097
 20
5016.791155245028
 30
0.0
 11
982.8365747163097
 21
5026.791155245028
 31
0.0
  0
LINE
  5
7F72
330
19
100
AcDbEntity
  8
1
 48
10.0
100
AcDbLine
 10
1032.836574716309
 20
5016.791155245028
 30
0.0
 11
1032.836574716309
 21
5026.791155245028
 31
0.0
  0
LINE
  5
7F73
330
19
100
AcDbEntity
  8
1
 48
10.0
100
AcDbLine
 10
1072.836574716309
 20
5041.791155245029
 30
0.0
 11
1072.836574716309
 21
5028.791155245029
 31
0.0
  0
ARC
  5
7F74
330
19
100
AcDbEntity
  8
1
 48
10.0
100
AcDbCircle
 10
1070.836574716309
 20
5028.791155245029
 30
0.0
 40
2.0
100
AcDbArc
 50
270.0
 51
0.0
  0
LINE
  5
7F75
330
19
100
AcDbEntity
  8
1
 48
10.0
100
AcDbLine
 10
1035.33657471631
 20
4906.791155245029
 30
0.0
 11
983.8365747163097
 21
4906.791155245029
 31
0.0
  0
LINE
  5
7F76
330
19
100
AcDbEntity
  8
1
 48
10.0
100
AcDbLine
 10
822.8365747163097
 20
5583.291155245029
 30
0.0
 11
1192.836574716309
 21
5583.291155245028
 31
0.0
  0
LINE
  5
7F77
330
19
100
AcDbEntity
  8
1
 48
10.0
100
AcDbLine
 10
2242.83657471631
 20
5016.791155245027
 30
0.0
 11
2242.83657471631
 21
5221.791155245028
 31
0.0
  0
LINE
  5
7F78
330
19
100
AcDbEntity
  8
1
 48
10.0
100
AcDbLine
 10
2172.83657471631
 20
5016.791155245027
 30
0.0
 11
2172.83657471631
 21
5221.791155245028
 31
0.0
  0
CIRCLE
  5
7F79
330
19
100
AcDbEntity
  8
1
 48
10.0
100
AcDbCircle
 10
2207.836574716308
 20
2920.968775878828
 30
0.0
 40
450.0
  0
CIRCLE
  5
7F7A
330
19
100
AcDbEntity
  8
1
 48
10.0
100
AcDbCircle
 10
2207.836574716308
 20
2920.968775878828
 30
0.0
 40
490.0
  0
LINE
  5
7F7C
330
19
100
AcDbEntity
  8
1
 48
10.0
100
AcDbLine
 10
4271.996303707846
 20
2825.968775878828
 30
0.0
 11
4271.996303707843
 21
2455.968775878828
 31
0.0
  0
LINE
  5
7F7D
330
19
100
AcDbEntity
  8
1
 48
10.0
100
AcDbLine
 10
4271.996303707846
 20
2825.968775878828
 30
0.0
 11
4286.996303707847
 21
2825.968775878828
 31
0.0
  0
LINE
  5
7F7E
330
19
100
AcDbEntity
  8
1
 48
10.0
100
AcDbLine
 10
4271.996303707843
 20
2455.968775878828
 30
0.0
 11
4424.996303707847
 21
2455.968775878828
 31
0.0
  0
LINE
  5
7F7F
330
19
100
AcDbEntity
  8
1
 48
10.0
100
AcDbLine
 10
4261.996303707845
 20
2665.968775878828
 30
0.0
 11
4271.996303707845
 21
2665.968775878828
 31
0.0
  0
LINE
  5
7F80
330
19
100
AcDbEntity
  8
1
 48
10.0
100
AcDbLine
 10
4261.996303707845
 20
2615.968775878828
 30
0.0
 11
4271.996303707844
 21
2615.968775878828
 31
0.0
  0
DIMENSION
  5
7F81
330
19
100
AcDbEntity
  8
3
 48
10.0
100
AcDbDimension
280
     0
  2
*D14
 10
2827.836574716308
 20
4257.154584241856
 30
0.0
 11
1797.836574716309
 21
4332.154584241856
 31
0.0
 70
    32
 71
     5
 42
-1.0
 73
     0
 74
     0
 75
     0
  3
MATSU
100
AcDbAlignedDimension
 13
767.8365747163097
 23
2365.968775878827
 33
0.0
 14
2827.836574716308
 24
3924.468775878828
 34
0.0
100
AcDbRotatedDimension
1001
ACAD
1000
DSTYLE
1002
{
1070
   287
1070
     3
1070
    40
1040
30.0
1070
    41
1040
2.5
1070
    42
1040
0.0
1070
   147
1040
1.0
1070
   272
1070
     4
1070
   284
1070
     0
1070
   289
1070
     3
1070
     6
1000
ARROW
1070
     7
1000
ARROW
1002
}
  0
DIMENSION
  5
7F83
330
19
100
AcDbEntity
  8
3
 48
10.0
100
AcDbDimension
280
     0
  2
*D15
 10
5949.144523447372
 20
3370.968775878828
 30
0.0
 11
5874.144523447372
 21
2920.968775878829
 31
0.0
 70
    32
  1
φ<>
 71
     5
 42
-1.0
 73
     0
 74
     0
 75
     0
  3
MATSU
100
AcDbAlignedDimension
 13
5610.496303707846
 23
2470.968775878828
 33
0.0
 14
5610.496303707847
 24
3370.968775878828
 34
0.0
 50
90.0
100
AcDbRotatedDimension
1001
ACAD
1000
DSTYLE
1002
{
1070
   287
1070
     3
1070
    40
1040
30.0
1070
    41
1040
2.5
1070
    42
1040
0.0
1070
   147
1040
1.0
1070
   272
1070
     4
1070
   284
1070
     0
1070
   289
1070
     3
1070
     6
1000
ARROW
1070
     7
1000
ARROW
1002
}
  0
LINE
  5
7F84
330
19
100
AcDbEntity
  8
1
 48
10.0
100
AcDbLine
 10
4044.996303707845
 20
3140.968775878828
 30
0.0
 11
4044.99630370785
 21
2420.968775878828
 31
0.0
  0
LINE
  5
7F85
330
19
100
AcDbEntity
  8
1
 48
10.0
100
AcDbLine
 10
4261.996303707848
 20
3039.968775878828
 30
0.0
 11
4261.996303707843
 21
2521.968775878828
 31
0.0
  0
LINE
  5
7F86
330
19
100
AcDbEntity
  8
1
 48
10.0
100
AcDbLine
 10
4151.996303707847
 20
3039.968775878828
 30
0.0
 11
4151.996303707843
 21
2521.968775878828
 31
0.0
  0
DIMENSION
  5
7F88
330
19
100
AcDbEntity
  8
3
 48
10.0
100
AcDbDimension
280
     0
  2
*D16
 10
5672.996303707846
 20
1923.432901303904
 30
0.0
 11
5343.996303707847
 21
1998.432901303904
 31
0.0
 70
    32
 71
     5
 42
-1.0
 73
     0
 74
     0
 75
     0
  3
MATSU
100
AcDbAlignedDimension
 13
5014.996303707846
 23
2130.968775878828
 33
0.0
 14
5672.996303707846
 24
2130.968775878828
 34
0.0
100
AcDbRotatedDimension
1001
ACAD
1000
DSTYLE
1002
{
1070
   287
1070
     3
1070
    40
1040
30.0
1070
    41
1040
2.5
1070
    42
1040
0.0
1070
   147
1040
1.0
1070
   272
1070
     4
1070
   284
1070
     0
1070
   289
1070
     3
1070
     6
1000
ARROW
1070
     7
1000
ARROW
1002
}
  0
LINE
  5
7F89
330
19
100
AcDbEntity
  8
1
 48
10.0
100
AcDbLine
 10
4172.996303707846
 20
2130.968775878828
 30
0.0
 11
5672.996303707846
 21
2130.968775878828
 31
0.0
  0
LINE
  5
7F8A
330
19
100
AcDbEntity
  8
1
 48
10.0
100
AcDbLine
 10
4172.996303707846
 20
2195.968775878828
 30
0.0
 11
5672.996303707846
 21
2195.968775878828
 31
0.0
1001
ACAD
1000
ASC_BOUNDS
1002
{
1070
    19
1002
}
  0
LINE
  5
7F8B
330
19
100
AcDbEntity
  8
1
 48
10.0
100
AcDbLine
 10
4172.696303707845
 20
2365.968775878828
 30
0.0
 11
5672.996303707847
 21
2365.968775878828
 31
0.0
  0
DIMENSION
  5
7F8C
330
19
100
AcDbEntity
  8
3
 48
10.0
100
AcDbDimension
280
     0
  2
*D17
 10
5014.996303707846
 20
1923.432901303904
 30
0.0
 11
4593.996303707847
 21
1998.432901303904
 31
0.0
 70
    32
 71
     5
 42
-1.0
 73
     0
 74
     0
 75
     0
  3
MATSU
100
AcDbAlignedDimension
 13
4172.996303707846
 23
2130.968775878828
 33
0.0
 14
5014.996303707846
 24
2130.968775878828
 34
0.0
100
AcDbRotatedDimension
1001
ACAD
1000
DSTYLE
1002
{
1070
   287
1070
     3
1070
    40
1040
30.0
1070
    41
1040
2.5
1070
    42
1040
0.0
1070
   147
1040
1.0
1070
   272
1070
     4
1070
   284
1070
     0
1070
   289
1070
     3
1070
     6
1000
ARROW
1070
     7
1000
ARROW
1002
}
  0
LINE
  5
7F8D
330
19
100
AcDbEntity
  8
1
 48
10.0
100
AcDbLine
 10
4172.996303707846
 20
2195.968775878828
 30
0.0
 11
4172.996303707846
 21
2130.968775878828
 31
0.0
  0
LINE
  5
7F8E
330
19
100
AcDbEntity
  8
1
 48
10.0
100
AcDbLine
 10
4172.996303707846
 20
2365.968775878828
 30
0.0
 11
4172.996303707847
 21
2240.968775878828
 31
0.0
  0
LINE
  5
7F8F
330
19
100
AcDbEntity
  8
1
 48
10.0
100
AcDbLine
 10
4044.99630370785
 20
2420.968775878828
 30
0.0
 11
4286.996303707851
 21
2420.968775878828
 31
0.0
  0
LINE
  5
7F90
330
19
100
AcDbEntity
  8
1
 48
10.0
100
AcDbLine
 10
4151.996303707843
 20
2521.968775878828
 30
0.0
 11
4261.996303707843
 21
2521.968775878828
 31
0.0
  0
LINE
  5
7F91
330
19
100
AcDbEntity
  8
1
 48
10.0
100
AcDbLine
 10
4286.99630370785
 20
2440.968775878828
 30
0.0
 11
4286.99630370785
 21
2420.968775878829
 31
0.0
  0
LINE
  5
7F92
330
19
100
AcDbEntity
  8
1
 48
10.0
100
AcDbLine
 10
5672.996303707846
 20
2195.968775878828
 30
0.0
 11
5672.996303707846
 21
2130.968775878828
 31
0.0
  0
LINE
  5
7F93
330
19
100
AcDbEntity
  8
1
 48
10.0
100
AcDbLine
 10
4172.996303707846
 20
2240.968775878828
 30
0.0
 11
5672.996303707846
 21
2240.968775878828
 31
0.0
  0
LINE
  5
7F94
330
19
100
AcDbEntity
  8
1
 48
10.0
100
AcDbLine
 10
5672.996303707846
 20
2365.968775878828
 30
0.0
 11
5672.996303707846
 21
2240.968775878828
 31
0.0
  0
DIMENSION
  5
7F95
330
19
100
AcDbEntity
  8
3
 48
10.0
100
AcDbDimension
280
     0
  2
*D18
 10
5604.996303707846
 20
4072.912341491487
 30
0.0
 11
5014.996303707847
 21
4147.912341491486
 31
0.0
 70
    32
 71
     5
 42
-1.0
 73
     0
 74
     0
 75
     0
  3
MATSU
100
AcDbAlignedDimension
 13
4424.996303707847
 23
3924.468775878828
 33
0.0
 14
5604.996303707846
 24
3924.468775878828
 34
0.0
100
AcDbRotatedDimension
1001
ACAD
1000
DSTYLE
1002
{
1070
   287
1070
     3
1070
    40
1040
30.0
1070
    41
1040
2.5
1070
    42
1040
0.0
1070
   147
1040
1.0
1070
   272
1070
     4
1070
   284
1070
     0
1070
   289
1070
     3
1070
     6
1000
ARROW
1070
     7
1000
ARROW
1002
}
  0
LINE
  5
7F96
330
19
100
AcDbEntity
  8
1
 48
10.0
100
AcDbLine
 10
5014.996303707847
 20
2956.968775878828
 30
0.0
 11
5604.996303707846
 21
2956.968775878828
 31
0.0
  0
LINE
  5
7F97
330
19
100
AcDbEntity
  8
1
 48
10.0
100
AcDbLine
 10
5014.996303707848
 20
3881.968775878828
 30
0.0
 11
5604.996303707846
 21
3881.968775878828
 31
0.0
  0
LINE
  5
7F98
330
19
100
AcDbEntity
  8
1
 48
10.0
100
AcDbLine
 10
4424.996303707847
 20
3881.968775878828
 30
0.0
 11
4424.996303707845
 21
2365.968775878828
 31
0.0
  0
LINE
  5
7F99
330
19
100
AcDbEntity
  8
1
 48
10.0
100
AcDbLine
 10
5014.996303707847
 20
2956.968775878828
 30
0.0
 11
4424.996303707847
 21
2956.968775878828
 31
0.0
  0
LINE
  5
7F9A
330
19
100
AcDbEntity
  8
1
 48
10.0
100
AcDbLine
 10
4286.996303707847
 20
2859.968775878828
 30
0.0
 11
4286.996303707847
 21
2729.968775878828
 31
0.0
  0
LINE
  5
7F9B
330
19
100
AcDbEntity
  8
1
 48
10.0
100
AcDbLine
 10
4151.996303707846
 20
2759.968775878828
 30
0.0
 11
4261.996303707845
 21
2759.968775878828
 31
0.0
  0
LINE
  5
7F9C
330
19
100
AcDbEntity
  8
1
 48
10.0
100
AcDbLine
 10
4151.996303707846
 20
2801.968775878828
 30
0.0
 11
4261.996303707846
 21
2801.968775878828
 31
0.0
  0
LINE
  5
7F9D
330
19
100
AcDbEntity
  8
1
 48
10.0
100
AcDbLine
 10
4296.996303707848
 20
2719.968775878828
 30
0.0
 11
4424.996303707847
 21
2719.968775878828
 31
0.0
  0
ARC
  5
7F9E
330
19
100
AcDbEntity
  8
1
 48
10.0
100
AcDbCircle
 10
4296.996303707848
 20
2729.968775878828
 30
0.0
 40
10.0
100
AcDbArc
 50
180.0000000000003
 51
270.0
  0
LINE
  5
7F9F
330
19
100
AcDbEntity
  8
1
 48
10.0
100
AcDbLine
 10
4151.996303707847
 20
3039.968775878828
 30
0.0
 11
4261.996303707848
 21
3039.968775878828
 31
0.0
  0
LINE
  5
7FA0
330
19
100
AcDbEntity
  8
1
 48
10.0
100
AcDbLine
 10
4266.996303707847
 20
2955.968775878828
 30
0.0
 11
4266.996303707847
 21
2885.968775878828
 31
0.0
  0
LINE
  5
7FA1
330
19
100
AcDbEntity
  8
1
 48
10.0
100
AcDbLine
 10
4293.996303707847
 20
2971.768775878828
 30
0.0
 11
4293.996303707847
 21
2869.508167892997
 31
0.0
  0
LINE
  5
7FA2
330
19
100
AcDbEntity
  8
1
 48
10.0
100
AcDbLine
 10
4296.996303707847
 20
2869.968775878828
 30
0.0
 11
4424.996303707848
 21
2869.968775878828
 31
0.0
  0
LINE
  5
7FA3
330
19
100
AcDbEntity
  8
1
 48
10.0
100
AcDbLine
 10
4266.996303707847
 20
2885.968775878828
 30
0.0
 11
4293.996303707847
 21
2885.968775878828
 31
0.0
  0
LINE
  5
7FA4
330
19
100
AcDbEntity
  8
1
 48
10.0
100
AcDbLine
 10
4261.996303707847
 20
2893.468775878828
 30
0.0
 11
4266.996303707847
 21
2893.468775878828
 31
0.0
  0
ARC
  5
7FA5
330
19
100
AcDbEntity
  8
1
 48
10.0
100
AcDbCircle
 10
4296.996303707847
 20
2859.968775878828
 30
0.0
 40
10.0
100
AcDbArc
 50
90.0
 51
180.0000000000003
  0
LINE
  5
7FA6
330
19
100
AcDbEntity
  8
1
 48
10.0
100
AcDbLine
 10
4266.996303707847
 20
2955.968775878828
 30
0.0
 11
4293.996303707847
 21
2955.968775878828
 31
0.0
  0
LINE
  5
7FA7
330
19
100
AcDbEntity
  8
1
 48
10.0
100
AcDbLine
 10
4261.996303707847
 20
2948.468775878828
 30
0.0
 11
4266.996303707847
 21
2948.468775878828
 31
0.0
  0
LINE
  5
7FA8
330
19
100
AcDbEntity
  8
1
 48
10.0
100
AcDbLine
 10
4293.996303707847
 20
2971.768775878828
 30
0.0
 11
4424.996303707847
 21
2971.768775878828
 31
0.0
  0
LINE
  5
7FA9
330
19
100
AcDbEntity
  8
1
 48
10.0
100
AcDbLine
 10
4044.996303707845
 20
3140.968775878828
 30
0.0
 11
4286.996303707846
 21
3140.968775878828
 31
0.0
  0
POINT
  5
7FAA
330
19
100
AcDbEntity
  8
1
 48
10.0
100
AcDbPoint
 10
4044.996303707845
 20
3140.968775878828
 30
0.0
  0
LINE
  5
7FAB
330
19
100
AcDbEntity
  8
1
 48
10.0
100
AcDbLine
 10
4286.996303707844
 20
3140.968775878829
 30
0.0
 11
4286.996303707846
 21
3120.968775878828
 31
0.0
  0
LINE
  5
7FAC
330
19
100
AcDbEntity
  8
1
 48
10.0
100
AcDbLine
 10
5014.996303707846
 20
3881.968775878828
 30
0.0
 11
4424.996303707847
 21
3881.968775878828
 31
0.0
  0
LINE
  5
7FAD
330
19
100
AcDbEntity
  8
1
 48
10.0
100
AcDbLine
 10
5604.996303707846
 20
3881.968775878828
 30
0.0
 11
5604.996303707844
 21
2365.968775878828
 31
0.0
  0
ARC
  5
7FAE
330
19
100
AcDbEntity
  8
1
 48
10.0
100
AcDbCircle
 10
5724.496303707846
 20
2781.468775878828
 30
0.0
 40
10.0
100
AcDbArc
 50
270.0
 51
0.0000000000003257
  0
ARC
  5
7FAF
330
19
100
AcDbEntity
  8
1
 48
10.0
100
AcDbCircle
 10
5724.496303707846
 20
2881.468775878828
 30
0.0
 40
10.0
100
AcDbArc
 50
0.0000000000003257
 51
90.0
  0
LINE
  5
7FB0
330
19
100
AcDbEntity
  8
1
 48
10.0
100
AcDbLine
 10
5604.996303707844
 20
2771.468775878828
 30
0.0
 11
5724.496303707846
 21
2771.468775878828
 31
0.0
  0
LINE
  5
7FB1
330
19
100
AcDbEntity
  8
1
 48
10.0
100
AcDbLine
 10
5604.996303707844
 20
2891.468775878828
 30
0.0
 11
5724.496303707846
 21
2891.468775878828
 31
0.0
  0
LINE
  5
7FB2
330
19
100
AcDbEntity
  8
1
 48
10.0
100
AcDbLine
 10
5734.496303707846
 20
2881.468775878828
 30
0.0
 11
5734.496303707846
 21
2781.468775878828
 31
0.0
  0
POINT
  5
7FB3
330
19
100
AcDbEntity
  8
1
 48
10.0
100
AcDbPoint
 10
5734.496303707846
 20
2881.468775878828
 30
0.0
  0
LINE
  5
7FB4
330
19
100
AcDbEntity
  8
1
 48
10.0
100
AcDbLine
 10
5604.996303707846
 20
3881.968775878828
 30
0.0
 11
4424.996303707845
 21
2956.968775878828
 31
0.0
  0
LINE
  5
7FB5
330
19
100
AcDbEntity
  8
1
 48
10.0
100
AcDbLine
 10
4424.996303707847
 20
3881.968775878828
 30
0.0
 11
5604.996303707844
 21
2956.968775878828
 31
0.0
  0
LINE
  5
7FB8
330
19
100
AcDbEntity
  8
2
100
AcDbLine
 10
5014.996303707848
 20
4063.170616427511
 30
0.0
 11
5014.996303707847
 21
2130.968775878828
 31
0.0
  0
LINE
  5
7FBB
330
19
100
AcDbEntity
  8
1
 48
10.0
100
AcDbLine
 10
2767.83657471631
 20
6401.791155245027
 30
0.0
 11
2767.83657471631
 21
6469.791155245028
 31
0.0
  0
LINE
  5
842C
330
19
100
AcDbEntity
  8
4
100
AcDbLine
 10
5550.0
 20
1210.115599408851
 30
0.0
 11
5550.0
 21
610.1155994088513
 31
0.0
  0
LINE
  5
842D
330
19
100
AcDbEntity
  8
4
100
AcDbLine
 10
3450.0
 20
1210.115599408851
 30
0.0
 11
3450.0
 21
610.1155994088513
 31
0.0
  0
LINE
  5
842E
330
19
100
AcDbEntity
  8
4
100
AcDbLine
 10
1950.0
 20
1210.115599408851
 30
0.0
 11
1950.0
 21
610.1155994088513
 31
0.0
  0
LINE
  5
8431
330
19
100
AcDbEntity
  8
4
100
AcDbLine
 10
1950.0
 20
610.1155994088513
 30
0.0
 11
5550.0
 21
610.1155994088513
 31
0.0
  0
LINE
  5
8432
330
19
100
AcDbEntity
  8
4
100
AcDbLine
 10
1950.0
 20
910.1155994088513
 30
0.0
 11
5550.0
 21
910.1155994088513
 31
0.0
  0
TEXT
  5
8433
330
19
100
AcDbEntity
  8
4
100
AcDbText
 10
2065.506242540705
 20
1004.74467700869
 30
0.0
 40
150.0
  1
機器名称
100
AcDbText
  0
TEXT
  5
8434
330
19
100
AcDbEntity
  8
4
100
AcDbText
 10
2058.774318074393
 20
675.0510696048841
 30
0.0
 40
150.0
  1
機器型番
100
AcDbText
  0
TEXT
  5
8435
330
19
100
AcDbEntity
  8
4
100
AcDbText
 10
3531.367339482463
 20
976.0141427014996
 30
0.0
 40
120.0
  1
ミツヤリミットロードファン
100
AcDbText
  0
TEXT
  5
8436
330
19
100
AcDbEntity
  8
4
100
AcDbText
 10
3559.963486756442
 20
661.5943522486814
 30
0.0
 40
150.0
  1
LL#5 1/2-5
100
AcDbText
  0
TEXT
  5
8438
330
19
100
AcDbEntity
  8
4
100
AcDbText
 10
2318.324487672748
 20
7150.286523997547
 30
0.0
 40
161.9999999999999
  1
床置防振ベット
100
AcDbText
  0
TEXT
  5
8439
330
19
100
AcDbEntity
  8
4
100
AcDbText
 10
948.5027799883392
 20
7601.642928597894
 30
0.0
 40
216.0
  1
遠心式両吸込両持リミットロードファン
100
AcDbText
  0
LINE
  5
843A
330
19
100
AcDbEntity
  8
4
100
AcDbLine
 10
750.0
 20
7408.226262794414
 30
0.0
 11
5550.0
 21
7408.226262794414
 31
0.0
  0
LINE
  5
843B
330
19
100
AcDbEntity
  8
4
100
AcDbLine
 10
750.0
 20
8008.226262794414
 30
0.0
 11
5550.0
 21
8008.226262794414
 31
0.0
  0
LINE
  5
843C
330
19
100
AcDbEntity
  8
4
100
AcDbLine
 10
1950.0
 20
1210.115599408851
 30
0.0
 11
5550.0
 21
1210.115599408851
 31
0.0
  0
LINE
  5
843D
330
19
100
AcDbEntity
  8
4
100
AcDbLine
 10
750.0
 20
8008.226262794414
 30
0.0
 11
750.0
 21
7408.226262794414
 31
0.0
  0
TEXT
  5
843E
330
19
100
AcDbEntity
  8
4
100
AcDbText
 10
1010.747990944641
 20
7146.95843263903
 30
0.0
 40
161.9999999999999
  1
右回転右横向
100
AcDbText
  0
TEXT
  5
843F
330
19
100
AcDbEntity
  8
4
100
AcDbText
 10
4406.908677747869
 20
8118.183244485926
 30
0.0
 40
168.0
  1
No.
100
AcDbText
  0
TEXT
  5
8440
330
19
100
AcDbEntity
  8
4
100
AcDbText
 10
3933.88818780004
 20
7150.286523997547
 30
0.0
 40
161.9999999999999
  1
縮尺：1/30
100
AcDbText
  0
LINE
  5
8441
330
19
100
AcDbEntity
  8
4
100
AcDbLine
 10
5550.0
 20
8008.226262794414
 30
0.0
 11
5550.0
 21
7408.226262794414
 31
0.0
  0
LINE
  5
8442
330
19
100
AcDbEntity
  8
4
100
AcDbLine
 10
6300.0
 20
8850.0
 30
0.0
 11
6300.0
 21
8850.0
 31
0.0
  0
LINE
  5
8443
330
19
100
AcDbEntity
  8
4
100
AcDbLine
 10
4321.852267079594
 20
8043.790749376205
 30
0.0
 11
4321.852267079594
 21
8359.956784649257
 31
0.0
  0
LINE
  5
8444
330
19
100
AcDbEntity
  8
4
100
AcDbLine
 10
4321.852267079594
 20
8359.956784649257
 30
0.0
 11
5550.0
 21
8359.956784649257
 31
0.0
  0
LINE
  5
8445
330
19
100
AcDbEntity
  8
4
100
AcDbLine
 10
5550.0
 20
8359.956784649257
 30
0.0
 11
5550.0
 21
8043.790749376205
 31
0.0
  0
LINE
  5
8446
330
19
100
AcDbEntity
  8
4
100
AcDbLine
 10
5550.0
 20
8043.790749376205
 30
0.0
 11
4321.852267079594
 21
8043.790749376205
 31
0.0
  0
LINE
  5
8447
330
19
100
AcDbEntity
  8
4
100
AcDbLine
 10
0.0
 20
0.0
 30
0.0
 11
0.0
 21
8850.0
 31
0.0
  0
LINE
  5
8448
330
19
100
AcDbEntity
  8
4
100
AcDbLine
 10
0.0
 20
8850.0
 30
0.0
 11
6300.0
 21
8850.0
 31
0.0
  0
LINE
  5
8449
330
19
100
AcDbEntity
  8
4
100
AcDbLine
 10
6300.0
 20
8850.0
 30
0.0
 11
6300.0
 21
0.0
 31
0.0
  0
LINE
  5
844A
330
19
100
AcDbEntity
  8
4
100
AcDbLine
 10
6300.0
 20
0.0
 30
0.0
 11
0.0
 21
0.0
 31
0.0
  0
DIMENSION
  5
8470
330
19
100
AcDbEntity
  8
3
100
AcDbDimension
280
     0
  2
*D22
 10
3127.794983257381
 20
2195.968775878828
 30
0.0
 11
3271.36641182881
 21
2307.476761140904
 31
0.0
 70
   160
  1
(<>)
 71
     5
 42
-1.0
 73
     0
 74
     0
 75
     0
  3
IGA
100
AcDbAlignedDimension
 13
2767.83657471631
 23
2240.968775878828
 33
0.0
 14
2767.83657471631
 24
2195.968775878828
 34
0.0
 50
90.0
100
AcDbRotatedDimension
1001
ACAD
1000
DSTYLE
1002
{
1070
   288
1070
     1
1070
   172
1070
     1
1070
    75
1070
     1
1070
    40
1040
30.0
1070
   271
1070
     0
1070
     7
1000
_DOT
1070
   143
1040
0.039
1002
}
  0
DIMENSION
  5
8480
330
19
100
AcDbEntity
  8
3
100
AcDbDimension
280
     0
  2
*D23
 10
3127.794983257381
 20
2130.968775878827
 30
0.0
 11
3052.794983257381
 21
1908.111633021685
 31
0.0
 70
    32
 71
     5
 42
-1.0
 73
     0
 74
     0
 75
     0
  3
IGA
100
AcDbAlignedDimension
 13
2767.83657471631
 23
2195.968775878828
 33
0.0
 14
2767.83657471631
 24
2130.968775878828
 34
0.0
 50
90.0
100
AcDbRotatedDimension
1001
ACAD
1000
DSTYLE
1002
{
1070
   287
1070
     3
1070
    40
1040
30.0
1070
   143
1040
0.039
1070
   172
1070
     1
1070
   271
1070
     0
1070
   279
1070
     0
1070
   288
1070
     1
1070
     6
1000
DOT
1002
}
  0
DIMENSION
  5
853B
330
19
100
AcDbEntity
  8
3
100
AcDbDimension
280
     0
  2
*D25
 10
3349.732413213231
 20
2130.968775878828
 30
0.0
 11
3251.160984641803
 21
3006.468775878828
 31
0.0
 70
    32
 71
     5
 42
-1.0
 73
     0
 74
     0
 75
     0
  3
IGA
100
AcDbAlignedDimension
 13
2827.836574716308
 23
3881.968775878828
 33
0.0
 14
2767.83657471631
 24
2130.968775878828
 34
0.0
 50
90.0
100
AcDbRotatedDimension
1001
ACAD
1000
DSTYLE
1002
{
1070
   172
1070
     1
1070
    40
1040
30.0
1070
     3
1000
(<>)
1070
   271
1070
     0
1070
   143
1040
0.039
1002
}
  0
DIMENSION
  5
8693
330
19
100
AcDbEntity
  8
3
100
AcDbDimension
280
     0
  2
*D26
 10
5014.996303707848
 20
4303.483704682814
 30
0.0
 11
4529.996303707847
 21
4402.055133254243
 31
0.0
 70
    32
 71
     5
 42
970.0000000000027
 73
     0
 74
     0
 75
     0
  3
IGA
100
AcDbAlignedDimension
 13
4044.996303707845
 23
3140.968775878828
 33
0.0
 14
5014.996303707848
 24
4192.912341491487
 34
0.0
100
AcDbRotatedDimension
1001
ACAD
1000
DSTYLE
1002
{
1070
     3
1000
(<>)
1070
    40
1040
30.0
1070
   143
1040
0.039
1070
   172
1070
     1
1070
   271
1070
     0
1002
}
  0
DIMENSION
  5
86A0
330
19
100
AcDbEntity
  8
3
100
AcDbDimension
280
     0
  2
*D27
 10
5734.496303707846
 20
4303.483704682814
 30
0.0
 11
5374.746303707847
 21
4402.055133254243
 31
0.0
 70
    32
 71
     5
 42
719.4999999999981
 73
     0
 74
     0
 75
     0
  3
IGA
100
AcDbAlignedDimension
 13
5014.996303707848
 23
4192.912341491487
 33
0.0
 14
5734.496303707846
 24
2881.468775878828
 34
0.0
100
AcDbRotatedDimension
1001
ACAD
1000
DSTYLE
1002
{
1070
     3
1000
(<>)
1070
    40
1040
30.0
1070
   143
1040
0.039
1070
   172
1070
     1
1070
   271
1070
     0
1002
}
  0
ENDSEC
  0
SECTION
  2
OBJECTS
  0
DICTIONARY
  5
C
330
0
100
AcDbDictionary
281
     1
  3
ACAD_CIP_PREVIOUS_PRODUCT_INFO
350
8692
  3
ACAD_COLOR
350
8675
  3
ACAD_DETAILVIEWSTYLE
350
868E
  3
ACAD_GROUP
350
D
  3
ACAD_LAYOUT
350
8549
  3
ACAD_MATERIAL
350
8643
  3
ACAD_MLEADERSTYLE
350
868A
  3
ACAD_MLINESTYLE
350
E
  3
ACAD_PLOTSETTINGS
350
854A
  3
ACAD_PLOTSTYLENAME
350
8547
  3
ACAD_SCALELIST
350
8678
  3
ACAD_SECTIONVIEWSTYLE
350
868C
  3
ACAD_TABLESTYLE
350
8676
  3
ACAD_VISUALSTYLE
350
865C
  3
ACDB_RECOMPOSE_DATA
350
86FA
  3
AcDbVariableDictionary
350
8638
  3
AcDsDecomposeData
350
8700
  0
DICTIONARY
  5
86DE
330
2
100
AcDbDictionary
280
     1
281
     1
  3
ACAD_LAYERSTATES
360
86DF
  0
DICTIONARY
  5
86D1
330
F
100
AcDbDictionary
280
     1
281
     1
  3
ADSK_XREC_LAYER_RECONCILED
360
86D2
  0
DICTIONARY
  5
86D3
330
31
100
AcDbDictionary
280
     1
281
     1
  3
ADSK_XREC_LAYER_RECONCILED
360
86D4
  0
DICTIONARY
  5
86D5
330
76D0
100
AcDbDictionary
280
     1
281
     1
  3
ADSK_XREC_LAYER_RECONCILED
360
86D6
  0
DICTIONARY
  5
86D7
330
76D1
100
AcDbDictionary
280
     1
281
     1
  3
ADSK_XREC_LAYER_RECONCILED
360
86D8
  0
DICTIONARY
  5
86D9
330
76D2
100
AcDbDictionary
280
     1
281
     1
  3
ADSK_XREC_LAYER_RECONCILED
360
86DA
  0
DICTIONARY
  5
8576
330
19
100
AcDbDictionary
280
     1
281
     1
  3
ACAD_LAYOUTSELFREF
360
8577
  0
DICTIONARY
  5
8574
330
16
100
AcDbDictionary
280
     1
281
     1
  3
ACAD_LAYOUTSELFREF
360
8575
  0
XRECORD
  5
8692
102
{ACAD_REACTORS
330
C
102
}
330
C
100
AcDbXrecord
280
     1
300
ACDLT
300
2023
300

  0
DICTIONARY
  5
8675
102
{ACAD_REACTORS
330
C
102
}
330
C
100
AcDbDictionary
281
     1
  0
DICTIONARY
  5
868E
102
{ACAD_REACTORS
330
C
102
}
330
C
100
AcDbDictionary
281
     1
  3
Metric50
350
868F
  0
DICTIONARY
  5
D
102
{ACAD_REACTORS
330
C
102
}
330
C
100
AcDbDictionary
281
     1
  0
DICTIONARY
  5
8549
102
{ACAD_REACTORS
330
C
102
}
330
C
100
AcDbDictionary
281
     1
  3
Model
350
854B
  3
ﾚｲｱｳﾄ1
350
854C
  0
DICTIONARY
  5
8643
102
{ACAD_REACTORS
330
C
102
}
330
C
100
AcDbDictionary
281
     1
  3
ByBlock
350
864C
  3
ByLayer
350
8644
  3
Global
350
8654
  0
DICTIONARY
  5
868A
102
{ACAD_REACTORS
330
C
102
}
330
C
100
AcDbDictionary
281
     1
  3
Standard
350
868B
  0
DICTIONARY
  5
E
102
{ACAD_REACTORS
330
C
102
}
330
C
100
AcDbDictionary
281
     1
  3
STANDARD
350
1C
  0
DICTIONARY
  5
854A
102
{ACAD_REACTORS
330
C
102
}
330
C
100
AcDbDictionary
281
     1
  0
ACDBDICTIONARYWDFLT
  5
8547
102
{ACAD_REACTORS
330
C
102
}
330
C
100
AcDbDictionary
281
     1
  3
Normal
350
8548
100
AcDbDictionaryWithDefault
340
8548
  0
DICTIONARY
  5
8678
102
{ACAD_REACTORS
330
C
102
}
330
C
100
AcDbDictionary
281
     1
  3
A0
350
8679
  3
A1
350
867A
  3
A2
350
867B
  3
A3
350
867C
  3
A4
350
867D
  3
A5
350
867E
  3
A6
350
867F
  3
A7
350
8680
  3
A8
350
8681
  3
A9
350
8682
  3
B0
350
8683
  3
B1
350
8684
  3
B2
350
8685
  3
B3
350
8686
  3
B4
350
8687
  3
B5
350
8688
  3
B6
350
8689
  0
DICTIONARY
  5
868C
102
{ACAD_REACTORS
330
C
102
}
330
C
100
AcDbDictionary
281
     1
  3
Metric50
350
868D
  0
DICTIONARY
  5
8676
102
{ACAD_REACTORS
330
C
102
}
330
C
100
AcDbDictionary
281
     1
  3
Standard
350
8677
  0
DICTIONARY
  5
865C
102
{ACAD_REACTORS
330
C
102
}
330
C
100
AcDbDictionary
281
     1
  3
2dWireframe
350
8662
  3
Basic
350
8661
  3
Brighten
350
8668
  3
ColorChange
350
866C
  3
Conceptual
350
8665
  3
Dim
350
8667
  3
EdgeColorOff
350
8674
  3
Facepattern
350
866B
  3
Flat
350
865D
  3
FlatWithEdges
350
865E
  3
Gouraud
350
865F
  3
GouraudWithEdges
350
8660
  3
Hidden
350
8664
  3
JitterOff
350
8672
  3
Linepattern
350
866A
  3
OverhangOff
350
8673
  3
Realistic
350
8666
  3
Shaded
350
8671
  3
Shaded with edges
350
8670
  3
Shades of Gray
350
866D
  3
Sketchy
350
866E
  3
Thicken
350
8669
  3
Wireframe
350
8663
  3
X-Ray
350
866F
  0
XRECORD
  5
86FA
102
{ACAD_REACTORS
330
C
102
}
330
C
100
AcDbXrecord
280
     1
 90
        1
330
7F2C
330
7F2D
330
7F2E
330
7F2F
330
7F37
330
7F38
330
7F49
330
7F4E
330
7F4F
330
7F50
330
7F51
330
7F52
330
7F81
330
7F83
330
7F88
330
7F8C
330
7F95
330
8677
  0
DICTIONARY
  5
8638
102
{ACAD_REACTORS
330
C
102
}
330
C
100
AcDbDictionary
281
     1
  3
CANNOSCALE
350
86EF
  3
CMLEADERSTYLE
350
86EB
  3
CTABLESTYLE
350
86EA
  3
CVIEWDETAILSTYLE
350
86EC
  3
CVIEWSECTIONSTYLE
350
86ED
  3
DIMASSOC
350
8639
  3
LAYEREVAL
350
86F1
  3
LAYERNOTIFY
350
86F2
  3
LIGHTINGUNITS
350
86F0
  3
MARKUPASSISTMODE
350
86F7
  3
MSLTSCALE
350
86EE
  0
DICTIONARY
  5
8700
102
{ACAD_REACTORS
330
C
102
}
330
C
100
AcDbDictionary
281
     1
  3
AcDsRecords
350
8702
  3
AcDsSchemas
350
8701
1001
ACAD
1070
     2
  0
DICTIONARY
  5
86DF
102
{ACAD_REACTORS
330
86DE
102
}
330
86DE
100
AcDbDictionary
281
     1
  0
XRECORD
  5
86D2
102
{ACAD_REACTORS
330
86D1
102
}
330
86D1
100
AcDbXrecord
280
     1
290
     1
  0
XRECORD
  5
86D4
102
{ACAD_REACTORS
330
86D3
102
}
330
86D3
100
AcDbXrecord
280
     1
290
     1
  0
XRECORD
  5
86D6
102
{ACAD_REACTORS
330
86D5
102
}
330
86D5
100
AcDbXrecord
280
     1
290
     1
  0
XRECORD
  5
86D8
102
{ACAD_REACTORS
330
86D7
102
}
330
86D7
100
AcDbXrecord
280
     1
290
     1
  0
XRECORD
  5
86DA
102
{ACAD_REACTORS
330
86D9
102
}
330
86D9
100
AcDbXrecord
280
     1
290
     1
  0
XRECORD
  5
8577
102
{ACAD_REACTORS
330
8576
102
}
330
8576
100
AcDbXrecord
280
     1
340
19
  0
XRECORD
  5
8575
102
{ACAD_REACTORS
330
8574
102
}
330
8574
100
AcDbXrecord
280
     1
340
16
  0
ACDBDETAILVIEWSTYLE
  5
868F
102
{ACAD_XDICTIONARY
360
8705
102
}
102
{ACAD_REACTORS
330
868E
102
}
330
868E
100
AcDbModelDocViewStyle
 70
     0
  3
Metric50
290
     0
100
AcDbDetailViewStyle
 70
     0
 71
     0
 90
        3
 71
     1
340
10
 62
   256
 40
5.0
340
0
 62
   256
 40
5.0
300

 40
0.0
280
     1
 71
     2
340
15
 90
       25
 62
   256
 71
     3
340
10
 62
   256
 40
5.0
 90
        0
 40
15.0
 90
        1
300
%<\AcVar ViewDetailId>% (%<\AcVar ViewScale \f "%sn">%)
 71
     4
340
15
 90
       25
 62
   256
340
15
 90
       25
 62
   256
280
     0
  0
LAYOUT
  5
854B
102
{ACAD_REACTORS
330
8549
102
}
330
8549
100
AcDbPlotSettings
  1

  2
\\Txbo34x8944cqyd\EPSON LP-6100
  4

  6

 40
0.0
 41
0.0
 42
0.0
 43
0.0
 44
0.0
 45
0.0
 46
0.0
 47
0.0
 48
0.0
 49
0.0
140
0.0
141
0.0
142
1.0
143
1.0
 70
  1712
 72
     0
 73
     0
 74
     0
  7
GOD2000TABLE.ctb
 75
     0
147
1.0
 76
     0
 77
     2
 78
   300
148
0.0
149
0.0
100
AcDbLayout
  1
Model
 70
     1
 71
     0
 10
0.0
 20
0.0
 11
12.0
 21
9.0
 12
0.0
 22
0.0
 32
0.0
 14
0.0
 24
0.0
 34
0.0
 15
0.0
 25
0.0
 35
0.0
146
0.0
 13
0.0
 23
0.0
 33
0.0
 16
1.0
 26
0.0
 36
0.0
 17
0.0
 27
1.0
 37
0.0
 76
     0
330
19
331
8641
  0
LAYOUT
  5
854C
102
{ACAD_REACTORS
330
8549
102
}
330
8549
100
AcDbPlotSettings
  1

  2
\\Txbo34x8944cqyd\EPSON LP-6100
  4

  6

 40
0.0
 41
0.0
 42
0.0
 43
0.0
 44
0.0
 45
0.0
 46
0.0
 47
0.0
 48
0.0
 49
0.0
140
0.0
141
0.0
142
1.0
143
1.0
 70
   688
 72
     0
 73
     0
 74
     5
  7
GOD2000TABLE.ctb
 75
    16
147
1.0
 76
     0
 77
     2
 78
   300
148
0.0
149
0.0
100
AcDbLayout
  1
ﾚｲｱｳﾄ1
 70
     1
 71
     1
 10
0.0
 20
0.0
 11
12.0
 21
9.0
 12
0.0
 22
0.0
 32
0.0
 14
1.000000000000000E+20
 24
1.000000000000000E+20
 34
1.000000000000000E+20
 15
-1.000000000000000E+20
 25
-1.000000000000000E+20
 35
-1.000000000000000E+20
146
0.0
 13
0.0
 23
0.0
 33
0.0
 16
1.0
 26
0.0
 36
0.0
 17
0.0
 27
1.0
 37
0.0
 76
     0
330
16
  0
MATERIAL
  5
864C
102
{ACAD_XDICTIONARY
360
864D
102
}
102
{ACAD_REACTORS
330
8643
102
}
330
8643
100
AcDbMaterial
  1
ByBlock
 72
     0
 43
0.0208333333333333
 43
0.0
 43
0.0
 43
0.0
 43
0.0
 43
0.0208333333333333
 43
0.0
 43
0.0
 43
0.0
 43
0.0
 43
1.0
 43
0.0
 43
0.0
 43
0.0
 43
0.0
 43
1.0
 77
     0
 47
0.0208333333333333
 47
0.0
 47
0.0
 47
0.0
 47
0.0
 47
0.0208333333333333
 47
0.0
 47
0.0
 47
0.0
 47
0.0
 47
1.0
 47
0.0
 47
0.0
 47
0.0
 47
0.0
 47
1.0
171
     0
 49
0.0208333333333333
 49
0.0
 49
0.0
 49
0.0
 49
0.0
 49
0.0208333333333333
 49
0.0
 49
0.0
 49
0.0
 49
0.0
 49
1.0
 49
0.0
 49
0.0
 49
0.0
 49
0.0
 49
1.0
175
     0
142
0.0208333333333333
142
0.0
142
0.0
142
0.0
142
0.0
142
0.0208333333333333
142
0.0
142
0.0
142
0.0
142
0.0
142
1.0
142
0.0
142
0.0
142
0.0
142
0.0
142
1.0
179
     0
144
0.0208333333333333
144
0.0
144
0.0
144
0.0
144
0.0
144
0.0208333333333333
144
0.0
144
0.0
144
0.0
144
0.0
144
1.0
144
0.0
144
0.0
144
0.0
144
0.0
144
1.0
147
0.0208333333333333
147
0.0
147
0.0
147
0.0
147
0.0
147
0.0208333333333333
147
0.0
147
0.0
147
0.0
147
0.0
147
1.0
147
0.0
147
0.0
147
0.0
147
0.0
147
1.0
  0
MATERIAL
  5
8644
102
{ACAD_XDICTIONARY
360
8645
102
}
102
{ACAD_REACTORS
330
8643
102
}
330
8643
100
AcDbMaterial
  1
ByLayer
 72
     0
 43
0.0208333333333333
 43
0.0
 43
0.0
 43
0.0
 43
0.0
 43
0.0208333333333333
 43
0.0
 43
0.0
 43
0.0
 43
0.0
 43
1.0
 43
0.0
 43
0.0
 43
0.0
 43
0.0
 43
1.0
 77
     0
 47
0.0208333333333333
 47
0.0
 47
0.0
 47
0.0
 47
0.0
 47
0.0208333333333333
 47
0.0
 47
0.0
 47
0.0
 47
0.0
 47
1.0
 47
0.0
 47
0.0
 47
0.0
 47
0.0
 47
1.0
171
     0
 49
0.0208333333333333
 49
0.0
 49
0.0
 49
0.0
 49
0.0
 49
0.0208333333333333
 49
0.0
 49
0.0
 49
0.0
 49
0.0
 49
1.0
 49
0.0
 49
0.0
 49
0.0
 49
0.0
 49
1.0
175
     0
142
0.0208333333333333
142
0.0
142
0.0
142
0.0
142
0.0
142
0.0208333333333333
142
0.0
142
0.0
142
0.0
142
0.0
142
1.0
142
0.0
142
0.0
142
0.0
142
0.0
142
1.0
179
     0
144
0.0208333333333333
144
0.0
144
0.0
144
0.0
144
0.0
144
0.0208333333333333
144
0.0
144
0.0
144
0.0
144
0.0
144
1.0
144
0.0
144
0.0
144
0.0
144
0.0
144
1.0
147
0.0208333333333333
147
0.0
147
0.0
147
0.0
147
0.0
147
0.0208333333333333
147
0.0
147
0.0
147
0.0
147
0.0
147
1.0
147
0.0
147
0.0
147
0.0
147
0.0
147
1.0
  0
MATERIAL
  5
8654
102
{ACAD_XDICTIONARY
360
8655
102
}
102
{ACAD_REACTORS
330
8643
102
}
330
8643
100
AcDbMaterial
  1
Global
 72
     0
 43
0.0208333333333333
 43
0.0
 43
0.0
 43
0.0
 43
0.0
 43
0.0208333333333333
 43
0.0
 43
0.0
 43
0.0
 43
0.0
 43
1.0
 43
0.0
 43
0.0
 43
0.0
 43
0.0
 43
1.0
 77
     0
 47
0.0208333333333333
 47
0.0
 47
0.0
 47
0.0
 47
0.0
 47
0.0208333333333333
 47
0.0
 47
0.0
 47
0.0
 47
0.0
 47
1.0
 47
0.0
 47
0.0
 47
0.0
 47
0.0
 47
1.0
171
     0
 49
0.0208333333333333
 49
0.0
 49
0.0
 49
0.0
 49
0.0
 49
0.0208333333333333
 49
0.0
 49
0.0
 49
0.0
 49
0.0
 49
1.0
 49
0.0
 49
0.0
 49
0.0
 49
0.0
 49
1.0
175
     0
142
0.0208333333333333
142
0.0
142
0.0
142
0.0
142
0.0
142
0.0208333333333333
142
0.0
142
0.0
142
0.0
142
0.0
142
1.0
142
0.0
142
0.0
142
0.0
142
0.0
142
1.0
179
     0
144
0.0208333333333333
144
0.0
144
0.0
144
0.0
144
0.0
144
0.0208333333333333
144
0.0
144
0.0
144
0.0
144
0.0
144
1.0
144
0.0
144
0.0
144
0.0
144
0.0
144
1.0
147
0.0208333333333333
147
0.0
147
0.0
147
0.0
147
0.0
147
0.0208333333333333
147
0.0
147
0.0
147
0.0
147
0.0
147
1.0
147
0.0
147
0.0
147
0.0
147
0.0
147
1.0
  0
MLEADERSTYLE
  5
868B
102
{ACAD_REACTORS
330
868A
102
}
330
868A
100
AcDbMLeaderStyle
179
     2
170
     2
171
     1
172
     0
 90
        2
 40
0.0
 41
0.0
173
     1
 91
-1056964608
340
13
 92
       -2
290
     1
 42
2.0
291
     1
 43
0.36
  3
Standard
 44
4.0
300

342
10
174
     1
178
     6
175
     1
176
     0
 93
-1056964608
 45
4.0
292
     0
297
     0
 46
4.0
 94
-1056964608
 47
1.0
 49
1.0
140
1.0
293
     1
141
0.0
294
     1
177
     0
142
1.0
295
     0
296
     0
143
0.125
271
     0
272
     9
273
     9
298
     1
  0
MLINESTYLE
  5
1C
102
{ACAD_REACTORS
330
E
102
}
330
E
100
AcDbMlineStyle
  2
STANDARD
 70
     0
  3

 62
     0
 51
90.0
 52
90.0
 71
     2
 49
0.5
 62
   256
  6
BYLAYER
 49
-0.5
 62
   256
  6
BYLAYER
  0
ACDBPLACEHOLDER
  5
8548
102
{ACAD_REACTORS
330
8547
102
}
330
8547
  0
SCALE
  5
8679
102
{ACAD_REACTORS
330
8678
102
}
330
8678
100
AcDbScale
 70
     0
300
1:1
140
1.0
141
1.0
290
     1
  0
SCALE
  5
867A
102
{ACAD_REACTORS
330
8678
102
}
330
8678
100
AcDbScale
 70
     0
300
1:2
140
1.0
141
2.0
290
     0
  0
SCALE
  5
867B
102
{ACAD_REACTORS
330
8678
102
}
330
8678
100
AcDbScale
 70
     0
300
1:4
140
1.0
141
4.0
290
     0
  0
SCALE
  5
867C
102
{ACAD_REACTORS
330
8678
102
}
330
8678
100
AcDbScale
 70
     0
300
1:5
140
1.0
141
5.0
290
     0
  0
SCALE
  5
867D
102
{ACAD_REACTORS
330
8678
102
}
330
8678
100
AcDbScale
 70
     0
300
1:8
140
1.0
141
8.0
290
     0
  0
SCALE
  5
867E
102
{ACAD_REACTORS
330
8678
102
}
330
8678
100
AcDbScale
 70
     0
300
1:10
140
1.0
141
10.0
290
     0
  0
SCALE
  5
867F
102
{ACAD_REACTORS
330
8678
102
}
330
8678
100
AcDbScale
 70
     0
300
1:16
140
1.0
141
16.0
290
     0
  0
SCALE
  5
8680
102
{ACAD_REACTORS
330
8678
102
}
330
8678
100
AcDbScale
 70
     0
300
1:20
140
1.0
141
20.0
290
     0
  0
SCALE
  5
8681
102
{ACAD_REACTORS
330
8678
102
}
330
8678
100
AcDbScale
 70
     0
300
1:30
140
1.0
141
30.0
290
     0
  0
SCALE
  5
8682
102
{ACAD_REACTORS
330
8678
102
}
330
8678
100
AcDbScale
 70
     0
300
1:40
140
1.0
141
40.0
290
     0
  0
SCALE
  5
8683
102
{ACAD_REACTORS
330
8678
102
}
330
8678
100
AcDbScale
 70
     0
300
1:50
140
1.0
141
50.0
290
     0
  0
SCALE
  5
8684
102
{ACAD_REACTORS
330
8678
102
}
330
8678
100
AcDbScale
 70
     0
300
1:100
140
1.0
141
100.0
290
     0
  0
SCALE
  5
8685
102
{ACAD_REACTORS
330
8678
102
}
330
8678
100
AcDbScale
 70
     0
300
2:1
140
2.0
141
1.0
290
     0
  0
SCALE
  5
8686
102
{ACAD_REACTORS
330
8678
102
}
330
8678
100
AcDbScale
 70
     0
300
4:1
140
4.0
141
1.0
290
     0
  0
SCALE
  5
8687
102
{ACAD_REACTORS
330
8678
102
}
330
8678
100
AcDbScale
 70
     0
300
8:1
140
8.0
141
1.0
290
     0
  0
SCALE
  5
8688
102
{ACAD_REACTORS
330
8678
102
}
330
8678
100
AcDbScale
 70
     0
300
10:1
140
10.0
141
1.0
290
     0
  0
SCALE
  5
8689
102
{ACAD_REACTORS
330
8678
102
}
330
8678
100
AcDbScale
 70
     0
300
100:1
140
100.0
141
1.0
290
     0
  0
ACDBSECTIONVIEWSTYLE
  5
868D
102
{ACAD_XDICTIONARY
360
8703
102
}
102
{ACAD_REACTORS
330
868C
102
}
330
868C
100
AcDbModelDocViewStyle
 70
     0
  3
Metric50
290
     0
100
AcDbSectionViewStyle
 70
     0
 71
     0
 90
      102
 71
     1
340
10
 62
   256
 40
5.0
340
0
340
0
 62
   256
 40
5.0
300
I, O, Q, S, X, Z
 40
10.0
 90
        0
 40
2.5
 90
        0
 71
     2
340
15
 90
       25
 62
   256
340
15
 90
       50
 62
   256
 40
5.0
 40
2.5
 40
5.0
 71
     3
340
10
 62
   256
 40
5.0
 90
        0
 40
15.0
 90
        1
300
%<\AcVar ViewSectionStartId>%-%<\AcVar ViewSectionEndId>% (%<\AcVar ViewScale \f "%sn">%)
 71
     4
 62
   256
 62
   257
300
ANSI31
 40
1.0
 90
        0
290
     0
290
     0
 90
        6
 40
0.0
 40
1.570796326794896
 40
0.2617993877991494
 40
1.308996938995747
 40
-0.2617993877991494
 40
1.832595714594046
  0
TABLESTYLE
  5
8677
102
{ACAD_XDICTIONARY
360
86F8
102
}
102
{ACAD_REACTORS
330
8676
102
}
330
8676
100
AcDbTableStyle
280
     0
  3
Standard
 70
     0
 71
     0
 40
1.5
 41
1.5
280
     0
281
     0
  7
STANDARD
140
4.5
170
     2
 62
     0
 63
     7
283
     0
 90
      512
 91
        0
  1

274
    -2
284
     1
 64
     0
275
    -2
285
     1
 65
     0
276
    -2
286
     1
 66
     0
277
    -2
287
     1
 67
     0
278
    -2
288
     1
 68
     0
279
    -2
289
     1
 69
     0
  7
STANDARD
140
6.0
170
     5
 62
     0
 63
     7
283
     0
 90
      512
 91
        0
  1

274
    -2
284
     1
 64
     0
275
    -2
285
     1
 65
     0
276
    -2
286
     1
 66
     0
277
    -2
287
     1
 67
     0
278
    -2
288
     1
 68
     0
279
    -2
289
     1
 69
     0
  7
STANDARD
140
4.5
170
     5
 62
     0
 63
     7
283
     0
 90
      512
 91
        0
  1

274
    -2
284
     1
 64
     0
275
    -2
285
     1
 65
     0
276
    -2
286
     1
 66
     0
277
    -2
287
     1
 67
     0
278
    -2
288
     1
 68
     0
279
    -2
289
     1
 69
     0
  0
VISUALSTYLE
  5
8662
102
{ACAD_REACTORS
330
865C
102
}
330
865C
100
AcDbVisualStyle
  2
2dWireframe
 70
     4
177
     3
291
     0
 70
    58
 90
        0
176
     1
 90
        2
176
     1
 90
        0
176
     1
 90
        0
176
     1
 40
0.6
176
     1
 40
30.0
176
     1
 62
     7
420
 16777215
176
     1
 90
        1
176
     1
 90
        4
176
     1
 62
     7
176
     1
 62
   257
176
     1
 90
        1
176
     1
 90
        1
176
     1
 40
1.0
176
     1
 90
        0
176
     1
 62
   257
176
     1
 40
1.0
176
     1
 90
        1
176
     1
 90
        6
176
     1
 90
        2
176
     1
 62
     7
176
     1
 90
        5
176
     1
 90
        0
176
     1
 90
        0
176
     1
290
     0
176
     1
 90
        1
176
     1
 40
0.0
176
     1
 90
        0
176
     1
290
     1
176
     1
290
     1
176
     1
290
     0
176
     1
290
     0
176
     1
290
     0
176
     1
290
     0
176
     1
290
     0
176
     1
290
     0
176
     1
290
     0
176
     1
 90
       50
176
     1
 40
0.0
176
     1
 40
1.0
176
     1
 90
        0
176
     1
 62
    18
420
        0
176
     1
 90
       50
176
     1
 90
        3
176
     1
 62
     5
420
      255
176
     1
290
     0
176
     1
 90
       50
176
     1
 90
       50
176
     1
 90
       50
176
     1
290
     0
176
     1
 90
       50
176
     1
 62
   256
176
     0
 40
1.0
176
     0
 90
        2
176
     1
  1
strokes_ogs.tif
176
     1
290
     0
176
     1
 40
1.0
176
     1
 40
1.0
176
     1
1001
ACAD
1000
AcDbSavedByObjectVersion
1070
     0
  0
VISUALSTYLE
  5
8661
102
{ACAD_REACTORS
330
865C
102
}
330
865C
100
AcDbVisualStyle
  2
Basic
 70
     7
177
     3
291
     1
 70
    58
 90
        1
176
     1
 90
        0
176
     1
 90
        1
176
     1
 90
        0
176
     1
 40
0.6
176
     1
 40
30.0
176
     1
 62
     7
420
 16777215
176
     1
 90
        0
176
     1
 90
        4
176
     1
 62
     7
176
     1
 62
   257
176
     1
 90
        1
176
     1
 90
        1
176
     1
 40
1.0
176
     1
 90
        8
176
     1
 62
     7
176
     1
 40
1.0
176
     1
 90
        1
176
     1
 90
        6
176
     1
 90
        2
176
     1
 62
     7
176
     1
 90
        5
176
     1
 90
        0
176
     1
 90
        0
176
     1
290
     0
176
     1
 90
        1
176
     1
 40
0.0
176
     1
 90
        0
176
     1
290
     0
176
     1
290
     1
176
     1
290
     1
176
     1
290
     0
176
     1
290
     0
176
     1
290
     0
176
     1
290
     0
176
     1
290
     0
176
     1
290
     0
176
     1
 90
       50
176
     1
 40
0.0
176
     1
 40
1.0
176
     1
 90
        0
176
     1
 62
    18
420
        0
176
     1
 90
       50
176
     1
 90
        3
176
     1
 62
     5
420
      255
176
     1
290
     0
176
     1
 90
       50
176
     1
 90
       50
176
     1
 90
       50
176
     1
290
     0
176
     1
 90
       50
176
     1
 62
   256
176
     0
 40
1.0
176
     0
 90
        2
176
     1
  1
strokes_ogs.tif
176
     1
290
     0
176
     1
 40
1.0
176
     1
 40
1.0
176
     1
1001
ACAD
1000
AcDbSavedByObjectVersion
1070
     0
  0
VISUALSTYLE
  5
8668
102
{ACAD_REACTORS
330
865C
102
}
330
865C
100
AcDbVisualStyle
  2
Brighten
 70
    12
177
     3
291
     1
 70
    58
 90
        2
176
     1
 90
        2
176
     1
 90
        0
176
     1
 90
        0
176
     1
 40
0.6
176
     1
 40
30.0
176
     1
 62
     7
420
 16777215
176
     1
 90
        1
176
     1
 90
        4
176
     1
 62
     7
176
     1
 62
   257
176
     1
 90
        1
176
     1
 90
        1
176
     1
 40
1.0
176
     1
 90
        8
176
     1
 62
     7
176
     1
 40
1.0
176
     1
 90
        1
176
     1
 90
        6
176
     1
 90
        2
176
     1
 62
     7
176
     1
 90
        5
176
     1
 90
        0
176
     1
 90
        0
176
     1
290
     0
176
     1
 90
        1
176
     1
 40
50.0
176
     1
 90
        0
176
     1
290
     0
176
     1
290
     1
176
     1
290
     1
176
     1
290
     0
176
     1
290
     0
176
     1
290
     0
176
     1
290
     0
176
     1
290
     0
176
     1
290
     0
176
     1
 90
       50
176
     1
 40
0.0
176
     1
 40
1.0
176
     1
 90
        0
176
     1
 62
    18
420
        0
176
     1
 90
       50
176
     1
 90
        3
176
     1
 62
     5
420
      255
176
     1
290
     0
176
     1
 90
       50
176
     1
 90
       50
176
     1
 90
       50
176
     1
290
     0
176
     1
 90
       50
176
     1
 62
   256
176
     0
 40
1.0
176
     0
 90
        2
176
     1
  1
strokes_ogs.tif
176
     1
290
     0
176
     1
 40
1.0
176
     1
 40
1.0
176
     1
1001
ACAD
1000
AcDbSavedByObjectVersion
1070
     0
  0
VISUALSTYLE
  5
866C
102
{ACAD_REACTORS
330
865C
102
}
330
865C
100
AcDbVisualStyle
  2
ColorChange
 70
    16
177
     3
291
     1
 70
    58
 90
        2
176
     1
 90
        2
176
     1
 90
        3
176
     1
 90
        0
176
     1
 40
0.6
176
     1
 40
30.0
176
     1
 62
     8
420
  8421504
176
     1
 90
        1
176
     1
 90
        4
176
     1
 62
     7
176
     1
 62
   257
176
     1
 90
        1
176
     1
 90
        1
176
     1
 40
1.0
176
     1
 90
        8
176
     1
 62
     8
420
  8421504
176
     1
 40
1.0
176
     1
 90
        1
176
     1
 90
        6
176
     1
 90
        2
176
     1
 62
     7
176
     1
 90
        5
176
     1
 90
        0
176
     1
 90
        0
176
     1
290
     0
176
     1
 90
        1
176
     1
 40
0.0
176
     1
 90
        0
176
     1
290
     0
176
     1
290
     1
176
     1
290
     1
176
     1
290
     0
176
     1
290
     0
176
     1
290
     0
176
     1
290
     0
176
     1
290
     0
176
     1
290
     0
176
     1
 90
       50
176
     1
 40
0.0
176
     1
 40
1.0
176
     1
 90
        0
176
     1
 62
    18
420
        0
176
     1
 90
       50
176
     1
 90
        3
176
     1
 62
     5
420
      255
176
     1
290
     0
176
     1
 90
       50
176
     1
 90
       50
176
     1
 90
       50
176
     1
290
     0
176
     1
 90
       50
176
     1
 62
   256
176
     0
 40
1.0
176
     0
 90
        2
176
     1
  1
strokes_ogs.tif
176
     1
290
     0
176
     1
 40
1.0
176
     1
 40
1.0
176
     1
1001
ACAD
1000
AcDbSavedByObjectVersion
1070
     0
  0
VISUALSTYLE
  5
8665
102
{ACAD_REACTORS
330
865C
102
}
330
865C
100
AcDbVisualStyle
  2
Conceptual
 70
     9
177
     3
291
     0
 70
    58
 90
        3
176
     1
 90
        2
176
     1
 90
        0
176
     1
 90
        0
176
     1
 40
0.6
176
     1
 40
30.0
176
     1
 62
     7
420
 16777215
176
     1
 90
        2
176
     1
 90
        2
176
     1
 62
     7
176
     1
 62
   257
176
     1
 90
        1
176
     1
 90
        1
176
     1
 40
179.0
176
     1
 90
        8
176
     1
 62
     7
176
     1
 40
1.0
176
     1
 90
        1
176
     1
 90
        6
176
     1
 90
        2
176
     1
 62
     7
176
     1
 90
        3
176
     1
 90
        0
176
     1
 90
        0
176
     1
290
     0
176
     1
 90
        1
176
     1
 40
0.0
176
     1
 90
        0
176
     1
290
     0
176
     1
290
     1
176
     1
290
     1
176
     1
290
     0
176
     1
290
     0
176
     1
290
     0
176
     1
290
     0
176
     1
290
     0
176
     1
290
     0
176
     1
 90
       50
176
     1
 40
0.0
176
     1
 40
1.0
176
     1
 90
        0
176
     1
 62
    18
420
        0
176
     1
 90
       50
176
     1
 90
        3
176
     1
 62
     5
420
      255
176
     1
290
     0
176
     1
 90
       50
176
     1
 90
       50
176
     1
 90
       50
176
     1
290
     0
176
     1
 90
       50
176
     1
 62
   256
176
     0
 40
1.0
176
     0
 90
        2
176
     1
  1
strokes_ogs.tif
176
     1
290
     0
176
     1
 40
1.0
176
     1
 40
1.0
176
     1
1001
ACAD
1000
AcDbSavedByObjectVersion
1070
     0
  0
VISUALSTYLE
  5
8667
102
{ACAD_REACTORS
330
865C
102
}
330
865C
100
AcDbVisualStyle
  2
Dim
 70
    11
177
     3
291
     1
 70
    58
 90
        2
176
     1
 90
        2
176
     1
 90
        0
176
     1
 90
        0
176
     1
 40
0.6
176
     1
 40
30.0
176
     1
 62
     7
420
 16777215
176
     1
 90
        1
176
     1
 90
        4
176
     1
 62
     7
176
     1
 62
   257
176
     1
 90
        1
176
     1
 90
        1
176
     1
 40
1.0
176
     1
 90
        8
176
     1
 62
     7
176
     1
 40
1.0
176
     1
 90
        1
176
     1
 90
        6
176
     1
 90
        2
176
     1
 62
     7
176
     1
 90
        5
176
     1
 90
        0
176
     1
 90
        0
176
     1
290
     0
176
     1
 90
        1
176
     1
 40
-50.0
176
     1
 90
        0
176
     1
290
     0
176
     1
290
     1
176
     1
290
     1
176
     1
290
     0
176
     1
290
     0
176
     1
290
     0
176
     1
290
     0
176
     1
290
     0
176
     1
290
     0
176
     1
 90
       50
176
     1
 40
0.0
176
     1
 40
1.0
176
     1
 90
        0
176
     1
 62
    18
420
        0
176
     1
 90
       50
176
     1
 90
        3
176
     1
 62
     5
420
      255
176
     1
290
     0
176
     1
 90
       50
176
     1
 90
       50
176
     1
 90
       50
176
     1
290
     0
176
     1
 90
       50
176
     1
 62
   256
176
     0
 40
1.0
176
     0
 90
        2
176
     1
  1
strokes_ogs.tif
176
     1
290
     0
176
     1
 40
1.0
176
     1
 40
1.0
176
     1
1001
ACAD
1000
AcDbSavedByObjectVersion
1070
     0
  0
VISUALSTYLE
  5
8674
102
{ACAD_REACTORS
330
865C
102
}
330
865C
100
AcDbVisualStyle
  2
EdgeColorOff
 70
    22
177
     3
291
     1
 70
    58
 90
        2
176
     0
 90
        2
176
     0
 90
        0
176
     0
 90
        0
176
     0
 40
0.6
176
     0
 40
30.0
176
     0
 62
     7
420
 16777215
176
     0
 90
        1
176
     0
 90
        4
176
     0
 62
     7
176
     0
 62
   257
176
     0
 90
        1
176
     0
 90
        1
176
     0
 40
1.0
176
     0
 90
        8
176
     2
 62
     7
176
     0
 40
1.0
176
     0
 90
        1
176
     0
 90
        6
176
     0
 90
        2
176
     0
 62
     7
176
     0
 90
        5
176
     0
 90
        0
176
     0
 90
        0
176
     0
290
     0
176
     0
 90
        1
176
     0
 40
0.0
176
     0
 90
        0
176
     0
290
     0
176
     0
290
     1
176
     0
290
     1
176
     0
290
     0
176
     0
290
     0
176
     0
290
     0
176
     0
290
     0
176
     0
290
     0
176
     0
290
     0
176
     0
 90
       50
176
     0
 40
0.0
176
     0
 40
1.0
176
     0
 90
        0
176
     0
 62
    18
420
        0
176
     0
 90
       50
176
     0
 90
        3
176
     0
 62
     5
420
      255
176
     0
290
     0
176
     0
 90
       50
176
     0
 90
       50
176
     0
 90
       50
176
     0
290
     0
176
     0
 90
       50
176
     0
 62
   256
176
     0
 40
1.0
176
     0
 90
        2
176
     0
  1
strokes_ogs.tif
176
     0
290
     0
176
     0
 40
1.0
176
     0
 40
1.0
176
     0
1001
ACAD
1000
AcDbSavedByObjectVersion
1070
     0
  0
VISUALSTYLE
  5
866B
102
{ACAD_REACTORS
330
865C
102
}
330
865C
100
AcDbVisualStyle
  2
Facepattern
 70
    15
177
     3
291
     1
 70
    58
 90
        2
176
     1
 90
        2
176
     1
 90
        0
176
     1
 90
        0
176
     1
 40
0.6
176
     1
 40
30.0
176
     1
 62
     7
420
 16777215
176
     1
 90
        1
176
     1
 90
        4
176
     1
 62
     7
176
     1
 62
   257
176
     1
 90
        1
176
     1
 90
        1
176
     1
 40
1.0
176
     1
 90
        8
176
     1
 62
     7
176
     1
 40
1.0
176
     1
 90
        1
176
     1
 90
        6
176
     1
 90
        2
176
     1
 62
     7
176
     1
 90
        5
176
     1
 90
        0
176
     1
 90
        0
176
     1
290
     0
176
     1
 90
        1
176
     1
 40
0.0
176
     1
 90
        0
176
     1
290
     0
176
     1
290
     1
176
     1
290
     1
176
     1
290
     0
176
     1
290
     0
176
     1
290
     0
176
     1
290
     0
176
     1
290
     0
176
     1
290
     0
176
     1
 90
       50
176
     1
 40
0.0
176
     1
 40
1.0
176
     1
 90
        0
176
     1
 62
    18
420
        0
176
     1
 90
       50
176
     1
 90
        3
176
     1
 62
     5
420
      255
176
     1
290
     0
176
     1
 90
       50
176
     1
 90
       50
176
     1
 90
       50
176
     1
290
     0
176
     1
 90
       50
176
     1
 62
   256
176
     0
 40
1.0
176
     0
 90
        2
176
     1
  1
strokes_ogs.tif
176
     1
290
     0
176
     1
 40
1.0
176
     1
 40
1.0
176
     1
1001
ACAD
1000
AcDbSavedByObjectVersion
1070
     0
  0
VISUALSTYLE
  5
865D
102
{ACAD_REACTORS
330
865C
102
}
330
865C
100
AcDbVisualStyle
  2
Flat
 70
     0
177
     3
291
     1
 70
    58
 90
        2
176
     1
 90
        1
176
     1
 90
        1
176
     1
 90
        2
176
     1
 40
0.6
176
     1
 40
30.0
176
     1
 62
     7
420
 16777215
176
     1
 90
        0
176
     1
 90
        0
176
     1
 62
     7
176
     1
 62
   257
176
     1
 90
        1
176
     1
 90
        1
176
     1
 40
1.0
176
     1
 90
        8
176
     1
 62
     7
176
     1
 40
1.0
176
     1
 90
        1
176
     1
 90
        6
176
     1
 90
        2
176
     1
 62
     7
176
     1
 90
        5
176
     1
 90
        0
176
     1
 90
        0
176
     1
290
     0
176
     1
 90
       13
176
     1
 40
0.0
176
     1
 90
        0
176
     1
290
     0
176
     1
290
     1
176
     1
290
     1
176
     1
290
     0
176
     1
290
     0
176
     1
290
     0
176
     1
290
     0
176
     1
290
     0
176
     1
290
     0
176
     1
 90
       50
176
     1
 40
0.0
176
     1
 40
1.0
176
     1
 90
        0
176
     1
 62
    18
420
        0
176
     1
 90
       50
176
     1
 90
        3
176
     1
 62
     5
420
      255
176
     1
290
     0
176
     1
 90
       50
176
     1
 90
       50
176
     1
 90
       50
176
     1
290
     0
176
     1
 90
       50
176
     1
 62
   256
176
     0
 40
1.0
176
     0
 90
        2
176
     1
  1
strokes_ogs.tif
176
     1
290
     0
176
     1
 40
1.0
176
     1
 40
1.0
176
     1
1001
ACAD
1000
AcDbSavedByObjectVersion
1070
     0
  0
VISUALSTYLE
  5
865E
102
{ACAD_REACTORS
330
865C
102
}
330
865C
100
AcDbVisualStyle
  2
FlatWithEdges
 70
     1
177
     3
291
     1
 70
    58
 90
        2
176
     1
 90
        1
176
     1
 90
        1
176
     1
 90
        2
176
     1
 40
0.6
176
     1
 40
30.0
176
     1
 62
     7
420
 16777215
176
     1
 90
        1
176
     1
 90
        0
176
     1
 62
     7
176
     1
 62
   257
176
     1
 90
        1
176
     1
 90
        1
176
     1
 40
1.0
176
     1
 90
        0
176
     1
 62
   257
176
     1
 40
1.0
176
     1
 90
        1
176
     1
 90
        6
176
     1
 90
        2
176
     1
 62
     7
176
     1
 90
        5
176
     1
 90
        0
176
     1
 90
        0
176
     1
290
     0
176
     1
 90
       13
176
     1
 40
0.0
176
     1
 90
        0
176
     1
290
     0
176
     1
290
     1
176
     1
290
     1
176
     1
290
     0
176
     1
290
     0
176
     1
290
     0
176
     1
290
     0
176
     1
290
     0
176
     1
290
     0
176
     1
 90
       50
176
     1
 40
0.0
176
     1
 40
1.0
176
     1
 90
        0
176
     1
 62
    18
420
        0
176
     1
 90
       50
176
     1
 90
        3
176
     1
 62
     5
420
      255
176
     1
290
     0
176
     1
 90
       50
176
     1
 90
       50
176
     1
 90
       50
176
     1
290
     0
176
     1
 90
       50
176
     1
 62
   256
176
     0
 40
1.0
176
     0
 90
        2
176
     1
  1
strokes_ogs.tif
176
     1
290
     0
176
     1
 40
1.0
176
     1
 40
1.0
176
     1
1001
ACAD
1000
AcDbSavedByObjectVersion
1070
     0
  0
VISUALSTYLE
  5
865F
102
{ACAD_REACTORS
330
865C
102
}
330
865C
100
AcDbVisualStyle
  2
Gouraud
 70
     2
177
     3
291
     1
 70
    58
 90
        2
176
     1
 90
        2
176
     1
 90
        1
176
     1
 90
        2
176
     1
 40
0.6
176
     1
 40
30.0
176
     1
 62
     7
420
 16777215
176
     1
 90
        0
176
     1
 90
        0
176
     1
 62
     7
176
     1
 62
   257
176
     1
 90
        1
176
     1
 90
        1
176
     1
 40
1.0
176
     1
 90
        0
176
     1
 62
     7
176
     1
 40
1.0
176
     1
 90
        1
176
     1
 90
        6
176
     1
 90
        2
176
     1
 62
     7
176
     1
 90
        5
176
     1
 90
        0
176
     1
 90
        0
176
     1
290
     0
176
     1
 90
       13
176
     1
 40
0.0
176
     1
 90
        0
176
     1
290
     0
176
     1
290
     1
176
     1
290
     1
176
     1
290
     0
176
     1
290
     0
176
     1
290
     0
176
     1
290
     0
176
     1
290
     0
176
     1
290
     0
176
     1
 90
       50
176
     1
 40
0.0
176
     1
 40
1.0
176
     1
 90
        0
176
     1
 62
    18
420
        0
176
     1
 90
       50
176
     1
 90
        3
176
     1
 62
     5
420
      255
176
     1
290
     0
176
     1
 90
       50
176
     1
 90
       50
176
     1
 90
       50
176
     1
290
     0
176
     1
 90
       50
176
     1
 62
   256
176
     0
 40
1.0
176
     0
 90
        2
176
     1
  1
strokes_ogs.tif
176
     1
290
     0
176
     1
 40
1.0
176
     1
 40
1.0
176
     1
1001
ACAD
1000
AcDbSavedByObjectVersion
1070
     0
  0
VISUALSTYLE
  5
8660
102
{ACAD_REACTORS
330
865C
102
}
330
865C
100
AcDbVisualStyle
  2
GouraudWithEdges
 70
     3
177
     3
291
     1
 70
    58
 90
        2
176
     1
 90
        2
176
     1
 90
        1
176
     1
 90
        2
176
     1
 40
0.6
176
     1
 40
30.0
176
     1
 62
     7
420
 16777215
176
     1
 90
        1
176
     1
 90
        0
176
     1
 62
     7
176
     1
 62
   257
176
     1
 90
        1
176
     1
 90
        1
176
     1
 40
1.0
176
     1
 90
        0
176
     1
 62
   257
176
     1
 40
1.0
176
     1
 90
        1
176
     1
 90
        6
176
     1
 90
        2
176
     1
 62
     7
176
     1
 90
        5
176
     1
 90
        0
176
     1
 90
        0
176
     1
290
     0
176
     1
 90
       13
176
     1
 40
0.0
176
     1
 90
        0
176
     1
290
     0
176
     1
290
     1
176
     1
290
     1
176
     1
290
     0
176
     1
290
     0
176
     1
290
     0
176
     1
290
     0
176
     1
290
     0
176
     1
290
     0
176
     1
 90
       50
176
     1
 40
0.0
176
     1
 40
1.0
176
     1
 90
        0
176
     1
 62
    18
420
        0
176
     1
 90
       50
176
     1
 90
        3
176
     1
 62
     5
420
      255
176
     1
290
     0
176
     1
 90
       50
176
     1
 90
       50
176
     1
 90
       50
176
     1
290
     0
176
     1
 90
       50
176
     1
 62
   256
176
     0
 40
1.0
176
     0
 90
        2
176
     1
  1
strokes_ogs.tif
176
     1
290
     0
176
     1
 40
1.0
176
     1
 40
1.0
176
     1
1001
ACAD
1000
AcDbSavedByObjectVersion
1070
     0
  0
VISUALSTYLE
  5
8664
102
{ACAD_REACTORS
330
865C
102
}
330
865C
100
AcDbVisualStyle
  2
Hidden
 70
     6
177
     3
291
     0
 70
    58
 90
        1
176
     1
 90
        2
176
     1
 90
        2
176
     1
 90
        0
176
     1
 40
0.6
176
     1
 40
30.0
176
     1
 62
     7
420
 16777215
176
     1
 90
        2
176
     1
 90
        2
176
     1
 62
     7
176
     1
 62
   257
176
     1
 90
        2
176
     1
 90
        1
176
     1
 40
40.0
176
     1
 90
        0
176
     1
 62
   257
176
     1
 40
1.0
176
     1
 90
        1
176
     1
 90
        6
176
     1
 90
        2
176
     1
 62
     7
176
     1
 90
        3
176
     1
 90
        0
176
     1
 90
        0
176
     1
290
     0
176
     1
 90
        1
176
     1
 40
0.0
176
     1
 90
        0
176
     1
290
     0
176
     1
290
     1
176
     1
290
     1
176
     1
290
     0
176
     1
290
     0
176
     1
290
     0
176
     1
290
     0
176
     1
290
     0
176
     1
290
     0
176
     1
 90
       50
176
     1
 40
0.0
176
     1
 40
1.0
176
     1
 90
        0
176
     1
 62
    18
420
        0
176
     1
 90
       50
176
     1
 90
        3
176
     1
 62
     5
420
      255
176
     1
290
     0
176
     1
 90
       50
176
     1
 90
       50
176
     1
 90
       50
176
     1
290
     0
176
     1
 90
       50
176
     1
 62
   256
176
     0
 40
1.0
176
     0
 90
        2
176
     1
  1
strokes_ogs.tif
176
     1
290
     0
176
     1
 40
1.0
176
     1
 40
1.0
176
     1
1001
ACAD
1000
AcDbSavedByObjectVersion
1070
     0
  0
VISUALSTYLE
  5
8672
102
{ACAD_REACTORS
330
865C
102
}
330
865C
100
AcDbVisualStyle
  2
JitterOff
 70
    20
177
     3
291
     1
 70
    58
 90
        2
176
     0
 90
        2
176
     0
 90
        0
176
     0
 90
        0
176
     0
 40
0.6
176
     0
 40
30.0
176
     0
 62
     7
420
 16777215
176
     0
 90
        1
176
     0
 90
        4
176
     0
 62
     7
176
     0
 62
   257
176
     0
 90
        1
176
     0
 90
        1
176
     0
 40
1.0
176
     0
 90
       10
176
     2
 62
     7
176
     0
 40
1.0
176
     0
 90
        1
176
     0
 90
        6
176
     0
 90
        2
176
     0
 62
     7
176
     0
 90
        5
176
     0
 90
        0
176
     0
 90
        0
176
     0
290
     0
176
     0
 90
        1
176
     0
 40
0.0
176
     0
 90
        0
176
     0
290
     0
176
     0
290
     1
176
     0
290
     1
176
     0
290
     0
176
     0
290
     0
176
     0
290
     0
176
     0
290
     0
176
     0
290
     0
176
     0
290
     0
176
     0
 90
       50
176
     0
 40
0.0
176
     0
 40
1.0
176
     0
 90
        0
176
     0
 62
    18
420
        0
176
     0
 90
       50
176
     0
 90
        3
176
     0
 62
     5
420
      255
176
     0
290
     0
176
     0
 90
       50
176
     0
 90
       50
176
     0
 90
       50
176
     0
290
     0
176
     0
 90
       50
176
     0
 62
   256
176
     0
 40
1.0
176
     0
 90
        2
176
     0
  1
strokes_ogs.tif
176
     0
290
     0
176
     0
 40
1.0
176
     0
 40
1.0
176
     0
1001
ACAD
1000
AcDbSavedByObjectVersion
1070
     0
  0
VISUALSTYLE
  5
866A
102
{ACAD_REACTORS
330
865C
102
}
330
865C
100
AcDbVisualStyle
  2
Linepattern
 70
    14
177
     3
291
     1
 70
    58
 90
        2
176
     1
 90
        2
176
     1
 90
        0
176
     1
 90
        0
176
     1
 40
0.6
176
     1
 40
30.0
176
     1
 62
     7
420
 16777215
176
     1
 90
        1
176
     1
 90
        4
176
     1
 62
     7
176
     1
 62
   257
176
     1
 90
        7
176
     1
 90
        7
176
     1
 40
1.0
176
     1
 90
        8
176
     1
 62
     7
176
     1
 40
1.0
176
     1
 90
        1
176
     1
 90
        6
176
     1
 90
        2
176
     1
 62
     7
176
     1
 90
        5
176
     1
 90
        0
176
     1
 90
        0
176
     1
290
     0
176
     1
 90
        1
176
     1
 40
0.0
176
     1
 90
        0
176
     1
290
     0
176
     1
290
     1
176
     1
290
     1
176
     1
290
     0
176
     1
290
     0
176
     1
290
     0
176
     1
290
     0
176
     1
290
     0
176
     1
290
     0
176
     1
 90
       50
176
     1
 40
0.0
176
     1
 40
1.0
176
     1
 90
        0
176
     1
 62
    18
420
        0
176
     1
 90
       50
176
     1
 90
        3
176
     1
 62
     5
420
      255
176
     1
290
     0
176
     1
 90
       50
176
     1
 90
       50
176
     1
 90
       50
176
     1
290
     0
176
     1
 90
       50
176
     1
 62
   256
176
     0
 40
1.0
176
     0
 90
        2
176
     1
  1
strokes_ogs.tif
176
     1
290
     0
176
     1
 40
1.0
176
     1
 40
1.0
176
     1
1001
ACAD
1000
AcDbSavedByObjectVersion
1070
     0
  0
VISUALSTYLE
  5
8673
102
{ACAD_REACTORS
330
865C
102
}
330
865C
100
AcDbVisualStyle
  2
OverhangOff
 70
    21
177
     3
291
     1
 70
    58
 90
        2
176
     0
 90
        2
176
     0
 90
        0
176
     0
 90
        0
176
     0
 40
0.6
176
     0
 40
30.0
176
     0
 62
     7
420
 16777215
176
     0
 90
        1
176
     0
 90
        4
176
     0
 62
     7
176
     0
 62
   257
176
     0
 90
        1
176
     0
 90
        1
176
     0
 40
1.0
176
     0
 90
        9
176
     2
 62
     7
176
     0
 40
1.0
176
     0
 90
        1
176
     0
 90
        6
176
     0
 90
        2
176
     0
 62
     7
176
     0
 90
        5
176
     0
 90
        0
176
     0
 90
        0
176
     0
290
     0
176
     0
 90
        1
176
     0
 40
0.0
176
     0
 90
        0
176
     0
290
     0
176
     0
290
     1
176
     0
290
     1
176
     0
290
     0
176
     0
290
     0
176
     0
290
     0
176
     0
290
     0
176
     0
290
     0
176
     0
290
     0
176
     0
 90
       50
176
     0
 40
0.0
176
     0
 40
1.0
176
     0
 90
        0
176
     0
 62
    18
420
        0
176
     0
 90
       50
176
     0
 90
        3
176
     0
 62
     5
420
      255
176
     0
290
     0
176
     0
 90
       50
176
     0
 90
       50
176
     0
 90
       50
176
     0
290
     0
176
     0
 90
       50
176
     0
 62
   256
176
     0
 40
1.0
176
     0
 90
        2
176
     0
  1
strokes_ogs.tif
176
     0
290
     0
176
     0
 40
1.0
176
     0
 40
1.0
176
     0
1001
ACAD
1000
AcDbSavedByObjectVersion
1070
     0
  0
VISUALSTYLE
  5
8666
102
{ACAD_REACTORS
330
865C
102
}
330
865C
100
AcDbVisualStyle
  2
Realistic
 70
     8
177
     3
291
     0
 70
    58
 90
        2
176
     1
 90
        3
176
     1
 90
        0
176
     1
 90
        2
176
     1
 40
0.6
176
     1
 40
30.0
176
     1
 62
     7
420
 16777215
176
     1
 90
        0
176
     1
 90
        0
176
     1
 62
     7
176
     1
 62
   257
176
     1
 90
        1
176
     1
 90
        1
176
     1
 40
1.0
176
     1
 90
        8
176
     1
 62
   257
176
     1
 40
1.0
176
     1
 90
        1
176
     1
 90
        6
176
     1
 90
        2
176
     1
 62
     7
176
     1
 90
        3
176
     1
 90
        0
176
     1
 90
        0
176
     1
290
     0
176
     1
 90
       13
176
     1
 40
0.0
176
     1
 90
        0
176
     1
290
     0
176
     1
290
     1
176
     1
290
     1
176
     1
290
     0
176
     1
290
     0
176
     1
290
     0
176
     1
290
     0
176
     1
290
     0
176
     1
290
     0
176
     1
 90
       50
176
     1
 40
0.0
176
     1
 40
1.0
176
     1
 90
        0
176
     1
 62
    18
420
        0
176
     1
 90
       50
176
     1
 90
        3
176
     1
 62
     5
420
      255
176
     1
290
     0
176
     1
 90
       50
176
     1
 90
       50
176
     1
 90
       50
176
     1
290
     0
176
     1
 90
       50
176
     1
 62
   256
176
     0
 40
1.0
176
     0
 90
        2
176
     1
  1
strokes_ogs.tif
176
     1
290
     0
176
     1
 40
1.0
176
     1
 40
1.0
176
     1
1001
ACAD
1000
AcDbSavedByObjectVersion
1070
     0
  0
VISUALSTYLE
  5
8671
102
{ACAD_REACTORS
330
865C
102
}
330
865C
100
AcDbVisualStyle
  2
Shaded
 70
    27
177
     3
291
     0
 70
    58
 90
        2
176
     1
 90
        2
176
     1
 90
        1
176
     1
 90
        2
176
     1
 40
0.6
176
     1
 40
30.0
176
     1
 62
     7
420
 16777215
176
     1
 90
        0
176
     1
 90
        4
176
     1
 62
     7
176
     1
 62
   257
176
     1
 90
        1
176
     1
 90
        1
176
     1
 40
1.0
176
     1
 90
        8
176
     1
 62
   257
176
     1
 40
1.0
176
     1
 90
        1
176
     1
 90
        6
176
     1
 90
        2
176
     1
 62
     8
420
  7895160
176
     1
 90
        3
176
     1
 90
        0
176
     1
 90
        0
176
     1
290
     0
176
     1
 90
        5
176
     1
 40
0.0
176
     1
 90
        0
176
     1
290
     0
176
     1
290
     1
176
     1
290
     1
176
     1
290
     0
176
     1
290
     0
176
     1
290
     0
176
     1
290
     0
176
     1
290
     0
176
     1
290
     0
176
     1
 90
       50
176
     1
 40
0.0
176
     1
 40
1.0
176
     1
 90
        0
176
     1
 62
    18
420
        0
176
     1
 90
       50
176
     1
 90
        3
176
     1
 62
     5
420
      255
176
     1
290
     0
176
     1
 90
       50
176
     1
 90
       50
176
     1
 90
       50
176
     1
290
     0
176
     1
 90
       50
176
     1
 62
   256
176
     0
 40
1.0
176
     0
 90
        2
176
     1
  1
strokes_ogs.tif
176
     1
290
     0
176
     1
 40
1.0
176
     1
 40
1.0
176
     1
1001
ACAD
1000
AcDbSavedByObjectVersion
1070
     0
  0
VISUALSTYLE
  5
8670
102
{ACAD_REACTORS
330
865C
102
}
330
865C
100
AcDbVisualStyle
  2
Shaded with edges
 70
    26
177
     3
291
     0
 70
    58
 90
        2
176
     1
 90
        2
176
     1
 90
        1
176
     1
 90
        2
176
     1
 40
0.6
176
     1
 40
30.0
176
     1
 62
     7
420
 16777215
176
     1
 90
        1
176
     1
 90
        2
176
     1
 62
     7
176
     1
 62
   257
176
     1
 90
        2
176
     1
 90
        1
176
     1
 40
1.0
176
     1
 90
        8
176
     1
 62
   257
176
     1
 40
1.0
176
     1
 90
        1
176
     1
 90
        6
176
     1
 90
        2
176
     1
 62
     7
176
     1
 90
        3
176
     1
 90
        0
176
     1
 90
        0
176
     1
290
     0
176
     1
 90
        5
176
     1
 40
0.0
176
     1
 90
        0
176
     1
290
     0
176
     1
290
     1
176
     1
290
     1
176
     1
290
     0
176
     1
290
     0
176
     1
290
     0
176
     1
290
     0
176
     1
290
     0
176
     1
290
     0
176
     1
 90
       50
176
     1
 40
0.0
176
     1
 40
1.0
176
     1
 90
        0
176
     1
 62
    18
420
        0
176
     1
 90
       50
176
     1
 90
        3
176
     1
 62
     5
420
      255
176
     1
290
     0
176
     1
 90
       50
176
     1
 90
       50
176
     1
 90
       50
176
     1
290
     0
176
     1
 90
       50
176
     1
 62
   256
176
     0
 40
1.0
176
     0
 90
        2
176
     1
  1
strokes_ogs.tif
176
     1
290
     0
176
     1
 40
1.0
176
     1
 40
1.0
176
     1
1001
ACAD
1000
AcDbSavedByObjectVersion
1070
     0
  0
VISUALSTYLE
  5
866D
102
{ACAD_REACTORS
330
865C
102
}
330
865C
100
AcDbVisualStyle
  2
Shades of Gray
 70
    23
177
     3
291
     0
 70
    58
 90
        2
176
     1
 90
        2
176
     1
 90
        3
176
     1
 90
        0
176
     1
 40
0.6
176
     1
 40
30.0
176
     1
 62
     7
420
 16777215
176
     1
 90
        2
176
     1
 90
        2
176
     1
 62
     7
176
     1
 62
     7
176
     1
 90
        1
176
     1
 90
        1
176
     1
 40
40.0
176
     1
 90
        8
176
     1
 62
     7
176
     1
 40
1.0
176
     1
 90
        1
176
     1
 90
        6
176
     1
 90
        2
176
     1
 62
     7
176
     1
 90
        3
176
     1
 90
        0
176
     1
 90
        0
176
     1
290
     0
176
     1
 90
        1
176
     1
 40
0.0
176
     1
 90
        0
176
     1
290
     0
176
     1
290
     1
176
     1
290
     1
176
     1
290
     0
176
     1
290
     0
176
     1
290
     0
176
     1
290
     0
176
     1
290
     0
176
     1
290
     0
176
     1
 90
       50
176
     1
 40
0.0
176
     1
 40
1.0
176
     1
 90
        0
176
     1
 62
    18
420
        0
176
     1
 90
       50
176
     1
 90
        3
176
     1
 62
     5
420
      255
176
     1
290
     0
176
     1
 90
       50
176
     1
 90
       50
176
     1
 90
       50
176
     1
290
     0
176
     1
 90
       50
176
     1
 62
   256
176
     0
 40
1.0
176
     0
 90
        2
176
     1
  1
strokes_ogs.tif
176
     1
290
     0
176
     1
 40
1.0
176
     1
 40
1.0
176
     1
1001
ACAD
1000
AcDbSavedByObjectVersion
1070
     0
  0
VISUALSTYLE
  5
866E
102
{ACAD_REACTORS
330
865C
102
}
330
865C
100
AcDbVisualStyle
  2
Sketchy
 70
    24
177
     3
291
     0
 70
    58
 90
        1
176
     1
 90
        2
176
     1
 90
        2
176
     1
 90
        0
176
     1
 40
0.6
176
     1
 40
30.0
176
     1
 62
     7
420
 16777215
176
     1
 90
        2
176
     1
 90
        2
176
     1
 62
     7
176
     1
 62
     7
176
     1
 90
        1
176
     1
 90
        1
176
     1
 40
40.0
176
     1
 90
       11
176
     1
 62
     7
176
     1
 40
1.0
176
     1
 90
        1
176
     1
 90
        6
176
     1
 90
        2
176
     1
 62
     7
176
     1
 90
        6
176
     1
 90
        0
176
     1
 90
        0
176
     1
290
     0
176
     1
 90
        1
176
     1
 40
0.0
176
     1
 90
        0
176
     1
290
     0
176
     1
290
     1
176
     1
290
     1
176
     1
290
     0
176
     1
290
     0
176
     1
290
     0
176
     1
290
     0
176
     1
290
     0
176
     1
290
     0
176
     1
 90
       50
176
     1
 40
0.0
176
     1
 40
1.0
176
     1
 90
        0
176
     1
 62
    18
420
        0
176
     1
 90
       50
176
     1
 90
        3
176
     1
 62
     5
420
      255
176
     1
290
     0
176
     1
 90
       50
176
     1
 90
       50
176
     1
 90
       50
176
     1
290
     0
176
     1
 90
       50
176
     1
 62
   256
176
     0
 40
1.0
176
     0
 90
        2
176
     1
  1
strokes_ogs.tif
176
     1
290
     0
176
     1
 40
1.0
176
     1
 40
1.0
176
     1
1001
ACAD
1000
AcDbSavedByObjectVersion
1070
     0
  0
VISUALSTYLE
  5
8669
102
{ACAD_REACTORS
330
865C
102
}
330
865C
100
AcDbVisualStyle
  2
Thicken
 70
    13
177
     3
291
     1
 70
    58
 90
        2
176
     1
 90
        2
176
     1
 90
        0
176
     1
 90
        0
176
     1
 40
0.6
176
     1
 40
30.0
176
     1
 62
     7
420
 16777215
176
     1
 90
        1
176
     1
 90
        4
176
     1
 62
     7
176
     1
 62
   257
176
     1
 90
        1
176
     1
 90
        1
176
     1
 40
1.0
176
     1
 90
       12
176
     1
 62
     7
176
     1
 40
1.0
176
     1
 90
        1
176
     1
 90
        6
176
     1
 90
        2
176
     1
 62
     7
176
     1
 90
        5
176
     1
 90
        0
176
     1
 90
        0
176
     1
290
     0
176
     1
 90
        1
176
     1
 40
0.0
176
     1
 90
        0
176
     1
290
     0
176
     1
290
     1
176
     1
290
     1
176
     1
290
     0
176
     1
290
     0
176
     1
290
     0
176
     1
290
     0
176
     1
290
     0
176
     1
290
     0
176
     1
 90
       50
176
     1
 40
0.0
176
     1
 40
1.0
176
     1
 90
        0
176
     1
 62
    18
420
        0
176
     1
 90
       50
176
     1
 90
        3
176
     1
 62
     5
420
      255
176
     1
290
     0
176
     1
 90
       50
176
     1
 90
       50
176
     1
 90
       50
176
     1
290
     0
176
     1
 90
       50
176
     1
 62
   256
176
     0
 40
1.0
176
     0
 90
        2
176
     1
  1
strokes_ogs.tif
176
     1
290
     0
176
     1
 40
1.0
176
     1
 40
1.0
176
     1
1001
ACAD
1000
AcDbSavedByObjectVersion
1070
     0
  0
VISUALSTYLE
  5
8663
102
{ACAD_REACTORS
330
865C
102
}
330
865C
100
AcDbVisualStyle
  2
Wireframe
 70
     5
177
     3
291
     0
 70
    58
 90
        0
176
     1
 90
        2
176
     1
 90
        0
176
     1
 90
        0
176
     1
 40
0.6
176
     1
 40
30.0
176
     1
 62
     7
420
 16777215
176
     1
 90
        1
176
     1
 90
        4
176
     1
 62
     7
176
     1
 62
   257
176
     1
 90
        1
176
     1
 90
        1
176
     1
 40
1.0
176
     1
 90
        0
176
     1
 62
   257
176
     1
 40
1.0
176
     1
 90
        1
176
     1
 90
        6
176
     1
 90
        2
176
     1
 62
     7
176
     1
 90
        3
176
     1
 90
        0
176
     1
 90
        0
176
     1
290
     0
176
     1
 90
        1
176
     1
 40
0.0
176
     1
 90
        0
176
     1
290
     0
176
     1
290
     1
176
     1
290
     1
176
     1
290
     0
176
     1
290
     0
176
     1
290
     0
176
     1
290
     0
176
     1
290
     0
176
     1
290
     0
176
     1
 90
       50
176
     1
 40
0.0
176
     1
 40
1.0
176
     1
 90
        0
176
     1
 62
    18
420
        0
176
     1
 90
       50
176
     1
 90
        3
176
     1
 62
     5
420
      255
176
     1
290
     0
176
     1
 90
       50
176
     1
 90
       50
176
     1
 90
       50
176
     1
290
     0
176
     1
 90
       50
176
     1
 62
   256
176
     0
 40
1.0
176
     0
 90
        2
176
     1
  1
strokes_ogs.tif
176
     1
290
     0
176
     1
 40
1.0
176
     1
 40
1.0
176
     1
1001
ACAD
1000
AcDbSavedByObjectVersion
1070
     0
  0
VISUALSTYLE
  5
866F
102
{ACAD_REACTORS
330
865C
102
}
330
865C
100
AcDbVisualStyle
  2
X-Ray
 70
    25
177
     3
291
     0
 70
    58
 90
        2
176
     1
 90
        2
176
     1
 90
        1
176
     1
 90
        1
176
     1
 40
0.5
176
     1
 40
30.0
176
     1
 62
     7
420
 16777215
176
     1
 90
        1
176
     1
 90
        0
176
     1
 62
     7
176
     1
 62
   257
176
     1
 90
        1
176
     1
 90
        1
176
     1
 40
1.0
176
     1
 90
        8
176
     1
 62
     7
176
     1
 40
1.0
176
     1
 90
        1
176
     1
 90
        6
176
     1
 90
        2
176
     1
 62
     7
176
     1
 90
        3
176
     1
 90
        0
176
     1
 90
        0
176
     1
290
     0
176
     1
 90
       13
176
     1
 40
0.0
176
     1
 90
        0
176
     1
290
     0
176
     1
290
     1
176
     1
290
     1
176
     1
290
     0
176
     1
290
     0
176
     1
290
     0
176
     1
290
     0
176
     1
290
     0
176
     1
290
     0
176
     1
 90
       50
176
     1
 40
0.0
176
     1
 40
1.0
176
     1
 90
        0
176
     1
 62
    18
420
        0
176
     1
 90
       50
176
     1
 90
        3
176
     1
 62
     5
420
      255
176
     1
290
     0
176
     1
 90
       50
176
     1
 90
       50
176
     1
 90
       50
176
     1
290
     0
176
     1
 90
       50
176
     1
 62
   256
176
     0
 40
1.0
176
     0
 90
        2
176
     1
  1
strokes_ogs.tif
176
     1
290
     0
176
     1
 40
1.0
176
     1
 40
1.0
176
     1
1001
ACAD
1000
AcDbSavedByObjectVersion
1070
     0
  0
DICTIONARYVAR
  5
86EF
102
{ACAD_REACTORS
330
8638
102
}
330
8638
100
DictionaryVariables
280
     0
  1
1:1
  0
DICTIONARYVAR
  5
86EB
102
{ACAD_REACTORS
330
8638
102
}
330
8638
100
DictionaryVariables
280
     0
  1
STANDARD
  0
DICTIONARYVAR
  5
86EA
102
{ACAD_REACTORS
330
8638
102
}
330
8638
100
DictionaryVariables
280
     0
  1
STANDARD
  0
DICTIONARYVAR
  5
86EC
102
{ACAD_REACTORS
330
8638
102
}
330
8638
100
DictionaryVariables
280
     0
  1
Metric50
  0
DICTIONARYVAR
  5
86ED
102
{ACAD_REACTORS
330
8638
102
}
330
8638
100
DictionaryVariables
280
     0
  1
Metric50
  0
DICTIONARYVAR
  5
8639
102
{ACAD_REACTORS
330
8638
102
}
330
8638
100
DictionaryVariables
280
     0
  1
1
  0
DICTIONARYVAR
  5
86F1
102
{ACAD_REACTORS
330
8638
102
}
330
8638
100
DictionaryVariables
280
     0
  1
1
  0
DICTIONARYVAR
  5
86F2
102
{ACAD_REACTORS
330
8638
102
}
330
8638
100
DictionaryVariables
280
     0
  1
15
  0
DICTIONARYVAR
  5
86F0
102
{ACAD_REACTORS
330
8638
102
}
330
8638
100
DictionaryVariables
280
     0
  1
0
  0
DICTIONARYVAR
  5
86F7
102
{ACAD_REACTORS
330
8638
102
}
330
8638
100
DictionaryVariables
280
     0
  1
0
  0
DICTIONARYVAR
  5
86EE
102
{ACAD_REACTORS
330
8638
102
}
330
8638
100
DictionaryVariables
280
     0
  1
0
  0
DICTIONARY
  5
8702
102
{ACAD_REACTORS
330
8700
102
}
330
8700
100
AcDbDictionary
281
     1
  0
DICTIONARY
  5
8701
102
{ACAD_REACTORS
330
8700
102
}
330
8700
100
AcDbDictionary
281
     1
  3
2045441573680
350
86FB
  3
2045441573696
350
86FC
  3
2045441573712
350
86FD
  3
2045441573728
350
86FE
  3
2045441573744
350
86FF
  0
DICTIONARY
  5
8705
330
868F
100
AcDbDictionary
280
     1
281
     1
  3
ACAD_XREC_ROUNDTRIP
360
8706
  0
DICTIONARY
  5
864D
330
864C
100
AcDbDictionary
280
     1
281
     1
  3
BUMPTILE
360
864F
  3
DIFFUSETILE
360
864E
  3
OPACITYTILE
360
8652
  3
REFLECTIONTILE
360
8651
  3
REFRACTIONTILE
360
8653
  3
SPECULARTILE
360
8650
  0
DICTIONARY
  5
8645
330
8644
100
AcDbDictionary
280
     1
281
     1
  3
BUMPTILE
360
8647
  3
DIFFUSETILE
360
8646
  3
OPACITYTILE
360
864A
  3
REFLECTIONTILE
360
8649
  3
REFRACTIONTILE
360
864B
  3
SPECULARTILE
360
8648
  0
DICTIONARY
  5
8655
330
8654
100
AcDbDictionary
280
     1
281
     1
  3
BUMPTILE
360
8657
  3
DIFFUSETILE
360
8656
  3
OPACITYTILE
360
865A
  3
REFLECTIONTILE
360
8659
  3
REFRACTIONTILE
360
865B
  3
SPECULARTILE
360
8658
  0
DICTIONARY
  5
8703
330
868D
100
AcDbDictionary
280
     1
281
     1
  3
ACAD_XREC_ROUNDTRIP
360
8704
  0
DICTIONARY
  5
86F8
330
8677
100
AcDbDictionary
280
     1
281
     1
  3
ACAD_ROUNDTRIP_2008_TABLESTYLE_CELLSTYLEMAP
360
86F9
  0
XRECORD
  5
86FB
102
{ACAD_REACTORS
330
8701
102
}
330
8701
100
AcDbXrecord
280
     1
  1
AcDb_Thumbnail_Schema
102
{ATTRRECORD
341
86FC
  2
AcDbDs::TreatedAsObjectData
280
     1
291
     1
102
ATTRRECORD}
102
{ATTRRECORD
341
86FD
  2
AcDbDs::Legacy
280
     1
291
     1
102
ATTRRECORD}
  2
AcDbDs::ID
280
    10
 91
        8
102
{ATTRRECORD
341
86FE
  2
AcDs:Indexable
280
     1
291
     1
102
ATTRRECORD}
102
{ATTRRECORD
341
86FF
  2
AcDbDs::HandleAttribute
280
     7
282
     1
102
ATTRRECORD}
  2
Thumbnail_Data
280
    15
 91
        0
  0
XRECORD
  5
86FC
102
{ACAD_REACTORS
330
8701
102
}
330
8701
100
AcDbXrecord
280
     1
  1
AcDbDs::TreatedAsObjectDataSchema
  2
AcDbDs::TreatedAsObjectData
280
     1
 91
        0
  0
XRECORD
  5
86FD
102
{ACAD_REACTORS
330
8701
102
}
330
8701
100
AcDbXrecord
280
     1
  1
AcDbDs::LegacySchema
  2
AcDbDs::Legacy
280
     1
 91
        0
  0
XRECORD
  5
86FE
102
{ACAD_REACTORS
330
8701
102
}
330
8701
100
AcDbXrecord
280
     1
  1
AcDbDs::IndexedPropertySchema
  2
AcDs:Indexable
280
     1
 91
        0
  0
XRECORD
  5
86FF
102
{ACAD_REACTORS
330
8701
102
}
330
8701
100
AcDbXrecord
280
     1
  1
AcDbDs::HandleAttributeSchema
  2
AcDbDs::HandleAttribute
280
     7
 91
        1
284
     1
  0
XRECORD
  5
8706
102
{ACAD_REACTORS
330
8705
102
}
330
8705
100
AcDbXrecord
280
     1
102
DISPLAYNAME
  1
Metric50
102
FLAGS
 90
        0
  0
XRECORD
  5
864F
102
{ACAD_REACTORS
330
864D
102
}
330
864D
100
AcDbXrecord
280
     1
270
     1
271
     1
  0
XRECORD
  5
864E
102
{ACAD_REACTORS
330
864D
102
}
330
864D
100
AcDbXrecord
280
     1
270
     1
271
     1
  0
XRECORD
  5
8652
102
{ACAD_REACTORS
330
864D
102
}
330
864D
100
AcDbXrecord
280
     1
270
     1
271
     1
  0
XRECORD
  5
8651
102
{ACAD_REACTORS
330
864D
102
}
330
864D
100
AcDbXrecord
280
     1
270
     1
271
     1
  0
XRECORD
  5
8653
102
{ACAD_REACTORS
330
864D
102
}
330
864D
100
AcDbXrecord
280
     1
270
     1
271
     1
  0
XRECORD
  5
8650
102
{ACAD_REACTORS
330
864D
102
}
330
864D
100
AcDbXrecord
280
     1
270
     1
271
     1
  0
XRECORD
  5
8647
102
{ACAD_REACTORS
330
8645
102
}
330
8645
100
AcDbXrecord
280
     1
270
     1
271
     1
  0
XRECORD
  5
8646
102
{ACAD_REACTORS
330
8645
102
}
330
8645
100
AcDbXrecord
280
     1
270
     1
271
     1
  0
XRECORD
  5
864A
102
{ACAD_REACTORS
330
8645
102
}
330
8645
100
AcDbXrecord
280
     1
270
     1
271
     1
  0
XRECORD
  5
8649
102
{ACAD_REACTORS
330
8645
102
}
330
8645
100
AcDbXrecord
280
     1
270
     1
271
     1
  0
XRECORD
  5
864B
102
{ACAD_REACTORS
330
8645
102
}
330
8645
100
AcDbXrecord
280
     1
270
     1
271
     1
  0
XRECORD
  5
8648
102
{ACAD_REACTORS
330
8645
102
}
330
8645
100
AcDbXrecord
280
     1
270
     1
271
     1
  0
XRECORD
  5
8657
102
{ACAD_REACTORS
330
8655
102
}
330
8655
100
AcDbXrecord
280
     1
270
     1
271
     1
  0
XRECORD
  5
8656
102
{ACAD_REACTORS
330
8655
102
}
330
8655
100
AcDbXrecord
280
     1
270
     1
271
     1
  0
XRECORD
  5
865A
102
{ACAD_REACTORS
330
8655
102
}
330
8655
100
AcDbXrecord
280
     1
270
     1
271
     1
  0
XRECORD
  5
8659
102
{ACAD_REACTORS
330
8655
102
}
330
8655
100
AcDbXrecord
280
     1
270
     1
271
     1
  0
XRECORD
  5
865B
102
{ACAD_REACTORS
330
8655
102
}
330
8655
100
AcDbXrecord
280
     1
270
     1
271
     1
  0
XRECORD
  5
8658
102
{ACAD_REACTORS
330
8655
102
}
330
8655
100
AcDbXrecord
280
     1
270
     1
271
     1
  0
XRECORD
  5
8704
102
{ACAD_REACTORS
330
8703
102
}
330
8703
100
AcDbXrecord
280
     1
102
DISPLAYNAME
  1
Metric50
102
FLAGS
 90
        0
  0
CELLSTYLEMAP
  5
86F9
102
{ACAD_REACTORS
330
86F8
102
}
330
86F8
100
AcDbCellStyleMap
 90
        3
300
CELLSTYLE
  1
TABLEFORMAT_BEGIN
 90
        5
170
     1
 91
        0
 92
    32768
 62
   257
 93
        1
300
CONTENTFORMAT
  1
CONTENTFORMAT_BEGIN
 90
        0
 91
        0
 92
      512
 93
        0
300

 40
0.0
140
1.0
 94
        5
 62
     0
340
10
144
6.0
309
CONTENTFORMAT_END
171
     1
301
MARGIN
  1
CELLMARGIN_BEGIN
 40
1.5
 40
1.5
 40
1.5
 40
1.5
 40
4.5
 40
4.5
309
CELLMARGIN_END
 94
        6
 95
        1
302
GRIDFORMAT
  1
GRIDFORMAT_BEGIN
 90
        0
 91
        1
 62
     0
 92
       -2
340
0
 93
        0
 40
1.125
309
GRIDFORMAT_END
 95
        2
302
GRIDFORMAT
  1
GRIDFORMAT_BEGIN
 90
        0
 91
        1
 62
     0
 92
       -2
340
0
 93
        0
 40
1.125
309
GRIDFORMAT_END
 95
        4
302
GRIDFORMAT
  1
GRIDFORMAT_BEGIN
 90
        0
 91
        1
 62
     0
 92
       -2
340
0
 93
        0
 40
1.125
309
GRIDFORMAT_END
 95
        8
302
GRIDFORMAT
  1
GRIDFORMAT_BEGIN
 90
        0
 91
        1
 62
     0
 92
       -2
340
0
 93
        0
 40
1.125
309
GRIDFORMAT_END
 95
       16
302
GRIDFORMAT
  1
GRIDFORMAT_BEGIN
 90
        0
 91
        1
 62
     0
 92
       -2
340
0
 93
        0
 40
1.125
309
GRIDFORMAT_END
 95
       32
302
GRIDFORMAT
  1
GRIDFORMAT_BEGIN
 90
        0
 91
        1
 62
     0
 92
       -2
340
0
 93
        0
 40
1.125
309
GRIDFORMAT_END
309
TABLEFORMAT_END
  1
CELLSTYLE_BEGIN
 90
        1
 91
        1
300
_TITLE
309
CELLSTYLE_END
300
CELLSTYLE
  1
TABLEFORMAT_BEGIN
 90
        5
170
     1
 91
        0
 92
        0
 62
   257
 93
        1
300
CONTENTFORMAT
  1
CONTENTFORMAT_BEGIN
 90
        0
 91
        0
 92
      512
 93
        0
300

 40
0.0
140
1.0
 94
        5
 62
     0
340
10
144
4.5
309
CONTENTFORMAT_END
171
     1
301
MARGIN
  1
CELLMARGIN_BEGIN
 40
1.5
 40
1.5
 40
1.5
 40
1.5
 40
4.5
 40
4.5
309
CELLMARGIN_END
 94
        6
 95
        1
302
GRIDFORMAT
  1
GRIDFORMAT_BEGIN
 90
        0
 91
        1
 62
     0
 92
       -2
340
0
 93
        0
 40
1.125
309
GRIDFORMAT_END
 95
        2
302
GRIDFORMAT
  1
GRIDFORMAT_BEGIN
 90
        0
 91
        1
 62
     0
 92
       -2
340
0
 93
        0
 40
1.125
309
GRIDFORMAT_END
 95
        4
302
GRIDFORMAT
  1
GRIDFORMAT_BEGIN
 90
        0
 91
        1
 62
     0
 92
       -2
340
0
 93
        0
 40
1.125
309
GRIDFORMAT_END
 95
        8
302
GRIDFORMAT
  1
GRIDFORMAT_BEGIN
 90
        0
 91
        1
 62
     0
 92
       -2
340
0
 93
        0
 40
1.125
309
GRIDFORMAT_END
 95
       16
302
GRIDFORMAT
  1
GRIDFORMAT_BEGIN
 90
        0
 91
        1
 62
     0
 92
       -2
340
0
 93
        0
 40
1.125
309
GRIDFORMAT_END
 95
       32
302
GRIDFORMAT
  1
GRIDFORMAT_BEGIN
 90
        0
 91
        1
 62
     0
 92
       -2
340
0
 93
        0
 40
1.125
309
GRIDFORMAT_END
309
TABLEFORMAT_END
  1
CELLSTYLE_BEGIN
 90
        2
 91
        1
300
_HEADER
309
CELLSTYLE_END
300
CELLSTYLE
  1
TABLEFORMAT_BEGIN
 90
        5
170
     1
 91
        0
 92
        0
 62
   257
 93
        1
300
CONTENTFORMAT
  1
CONTENTFORMAT_BEGIN
 90
        0
 91
        0
 92
      512
 93
        0
300

 40
0.0
140
1.0
 94
        2
 62
     0
340
10
144
4.5
309
CONTENTFORMAT_END
171
     1
301
MARGIN
  1
CELLMARGIN_BEGIN
 40
1.5
 40
1.5
 40
1.5
 40
1.5
 40
4.5
 40
4.5
309
CELLMARGIN_END
 94
        6
 95
        1
302
GRIDFORMAT
  1
GRIDFORMAT_BEGIN
 90
        0
 91
        1
 62
     0
 92
       -2
340
0
 93
        0
 40
1.125
309
GRIDFORMAT_END
 95
        2
302
GRIDFORMAT
  1
GRIDFORMAT_BEGIN
 90
        0
 91
        1
 62
     0
 92
       -2
340
0
 93
        0
 40
1.125
309
GRIDFORMAT_END
 95
        4
302
GRIDFORMAT
  1
GRIDFORMAT_BEGIN
 90
        0
 91
        1
 62
     0
 92
       -2
340
0
 93
        0
 40
1.125
309
GRIDFORMAT_END
 95
        8
302
GRIDFORMAT
  1
GRIDFORMAT_BEGIN
 90
        0
 91
        1
 62
     0
 92
       -2
340
0
 93
        0
 40
1.125
309
GRIDFORMAT_END
 95
       16
302
GRIDFORMAT
  1
GRIDFORMAT_BEGIN
 90
        0
 91
        1
 62
     0
 92
       -2
340
0
 93
        0
 40
1.125
309
GRIDFORMAT_END
 95
       32
302
GRIDFORMAT
  1
GRIDFORMAT_BEGIN
 90
        0
 91
        1
 62
     0
 92
       -2
340
0
 93
        0
 40
1.125
309
GRIDFORMAT_END
309
TABLEFORMAT_END
  1
CELLSTYLE_BEGIN
 90
        3
 91
        2
300
_DATA
309
CELLSTYLE_END
  0
ENDSEC
  0
SECTION
  2
ACDSDATA
 70
     2
 71
     8
  0
ACDSSCHEMA
 90
        0
  1
AcDb_Thumbnail_Schema
  2
AcDbDs::ID
280
    10
 91
        8
  2
Thumbnail_Data
280
    15
 91
        0
101
ACDSRECORD
 95
        0
 90
        1
  2
AcDbDs::TreatedAsObjectData
280
     1
291
     1
101
ACDSRECORD
 95
        0
 90
        2
  2
AcDbDs::Legacy
280
     1
291
     1
101
ACDSRECORD
  1
AcDbDs::ID
 90
        3
  2
AcDs:Indexable
280
     1
291
     1
101
ACDSRECORD
  1
AcDbDs::ID
 90
        4
  2
AcDbDs::HandleAttribute
280
     7
282
     1
  0
ACDSSCHEMA
 90
        1
  1
AcDbDs::TreatedAsObjectDataSchema
  2
AcDbDs::TreatedAsObjectData
280
     1
 91
        0
  0
ACDSSCHEMA
 90
        2
  1
AcDbDs::LegacySchema
  2
AcDbDs::Legacy
280
     1
 91
        0
  0
ACDSSCHEMA
 90
        3
  1
AcDbDs::IndexedPropertySchema
  2
AcDs:Indexable
280
     1
 91
        0
  0
ACDSSCHEMA
 90
        4
  1
AcDbDs::HandleAttributeSchema
  2
AcDbDs::HandleAttribute
280
     7
 91
        1
284
     1
  0
ACDSRECORD
 90
        0
  2
AcDbDs::ID
280
    10
320
854B
  2
Thumbnail_Data
280
    15
 94
     1736
310
89504E470D0A1A0A0000000D49484452000001000000007C0803000000B13B9E5A00000300504C5445000000000000C8C8C80000000000000000000000000000000000000000000000000000330000660000990000CC0000FF0033000033330033660033990033CC0033FF0066000066330066660066990066CC0066FF0099
310
000099330099660099990099CC0099FF00CC0000CC3300CC6600CC9900CCCC00CCFF00FF0000FF3300FF6600FF9900FFCC00FFFF3300003300333300663300993300CC3300FF3333003333333333663333993333CC3333FF3366003366333366663366993366CC3366FF3399003399333399663399993399CC3399FF33CC00
310
33CC3333CC6633CC9933CCCC33CCFF33FF0033FF3333FF6633FF9933FFCC33FFFF6600006600336600666600996600CC6600FF6633006633336633666633996633CC6633FF6666006666336666666666996666CC6666FF6699006699336699666699996699CC6699FF66CC0066CC3366CC6666CC9966CCCC66CCFF66FF0066
310
FF3366FF6666FF9966FFCC66FFFF9900009900339900669900999900CC9900FF9933009933339933669933999933CC9933FF9966009966339966669966999966CC9966FF9999009999339999669999999999CC9999FF99CC0099CC3399CC6699CC9999CCCC99CCFF99FF0099FF3399FF6699FF9999FFCC99FFFFCC0000CC00
310
33CC0066CC0099CC00CCCC00FFCC3300CC3333CC3366CC3399CC33CCCC33FFCC6600CC6633CC6666CC6699CC66CCCC66FFCC9900CC9933CC9966CC9999CC99CCCC99FFCCCC00CCCC33CCCC66CCCC99CCCCCCCCCCFFCCFF00CCFF33CCFF66CCFF99CCFFCCCCFFFFFF0000FF0033FF0066FF0099FF00CCFF00FFFF3300FF3333
310
FF3366FF3399FF33CCFF33FFFF6600FF6633FF6666FF6699FF66CCFF66FFFF9900FF9933FF9966FF9999FF99CCFF99FFFFCC00FFCC33FFCC66FFCC99FFCCCCFFCCFFFFFF00FFFF33FFFF66FFFF99FFFFCCFFFFFF0000000D0D0D1A1A1A2828283535354343435050505D5D5D6B6B6B787878868686939393A1A1A1AEAEAEBB
310
BBBBC9C9C9D6D6D6E4E4E4F1F1F1FFFFFF00000000000000000000000000000000000000000000000000000000000008F1915C000003834944415478DAED9D497203210C45751C36DCFF32BA06FBA41B0102D4D8AE4A2AD1C0223DB8ED8A9EA52F318400FC422BBFD4404B2BAA3E3600048000100002C0FFF94D0FC9CF0B80
310
E5EDC5A507B807503C0358A24037801FED01A804F0CF3E2C00FC0100F263E6D2653A87E6E4F5D9113974D30200A846C3301BE8B2695E29540194760AA5FD34E101F0A46FE401D5D6E101EC052B21D08ABCC263E26C5B09118C3AC06167E86548E8032029DFF20DF3E45786723A01D04A819122619148530060064099A23D07
310
1601FCD8FB634C502B0044407E85E80E0033197D01C053730160F284C531BC024801C02D807CB794A97D2A04AA0164A9DD19D20B80F16A62F710024000080001200004009B00AE3AA7E7FCB4B79CD03A80F1C5CB1E601D00048000D08A7E8F00F00670199C7D6681001000388087F100FB22480058CB791C7D0300FBA5B0EC
310
F9B922C8607D488CFA0269313EF13151F36382FDFB661140777C0C8B1F42C0DFBCC0D2DC015843DE0700F7B3C3CF56FA00F079E3CEB1388A7600EFF9BD3100780280B2F18F6A614E04F19C18713DD3BF3EA01B5D4F8E0038211300DEF680FE6AEA8FD900B0E5BF4700F3C8914100CF2238DD1D6B898C0148AD4FB88502F6DE
310
E2B496C81400D61DBC2DC3ED99DE7B4E7D00C90E80DBB804CC32014043409E028600E429B61F01D083A95F580190E15D00409E42E75601E05A0F0D00179D44A16006C0226E6700DFC7FE9C11009967818F00B45469210DD689927AFC2404AC001869306712C1E9AF499E45D00A801A0394ED7700F94EFB521AB401A01A9F6A
310
000800EE6974A910B2A001A3001E271B809CB3580AEB06906ACFE75A18787771AEE37DB10D0BCCF388FD3CE906D0925ECF7E3504E89B5E00009B491C15A36A007C3AB0912031140090082E00B262009BF15C02EAF0CF4B0F68B1A414C01DF2DCF8A1EE3B806F8530070098B0B54AB0BBFAEE012002D01E023DB8E7AB1D80A8
310
01AAFB02ACF303A30EE85D1EDC44F04103403180745A29B54C0F486B893A128D00F818A02C6E0B00E139500DE0D0A40922731E202D92C215005A06D08FD354E798F113F6146848709D44550D006500681EC08BE5011B80D33A028B6B84CC2F957D4DC03B0008000120000480001000FC0070BFABECE796B900B0ECB0CAF6E2
310
B60700847F9DC6765C6F3BADDB05E05E03640FE81BF043DF6ADF97060C0063BB7DF300849B6CFBFDE2C0036277F9288503400008000120000400830014FDEBED2FBEC6576611261BF10000000049454E44AE426082
  0
ENDSEC
  0
EOF
