  0
SECTION
  2
HEADER
  9
$ACADVER
  1
AC1027
  9
$ACADMAINTVER
 70
   125
  9
$DWGCODEPAGE
  3
ANSI_932
  9
$LASTSAVEDBY
  1
yasukiyo.ogawa
  9
$REQUIREDVERSIONS
160
                 0
  9
$INSBASE
 10
0.0
 20
0.0
 30
0.0
  9
$EXTMIN
 10
0.0
 20
0.0
 30
0.0
  9
$EXTMAX
 10
6300.0
 20
8850.0
 30
0.0
  9
$LIMMIN
 10
0.0
 20
0.0
  9
$LIMMAX
 10
297.0
 20
210.0
  9
$ORTHOMODE
 70
     1
  9
$REGENMODE
 70
     1
  9
$FILLMODE
 70
     0
  9
$QTEXTMODE
 70
     0
  9
$MIRRTEXT
 70
     1
  9
$LTSCALE
 40
100.0
  9
$ATTMODE
 70
     1
  9
$TEXTSIZE
 40
180.0
  9
$TRACEWID
 40
0.05
  9
$TEXTSTYLE
  7
STANDARD
  9
$CLAYER
  8
3
  9
$CELTYPE
  6
BYLAYER
  9
$CECOLOR
 62
   256
  9
$CELTSCALE
 40
1.0
  9
$DISPSILH
 70
     0
  9
$DIMSCALE
 40
30.0
  9
$DIMASZ
 40
2.0
  9
$DIMEXO
 40
0.5
  9
$DIMDLI
 40
10.0
  9
$DIMRND
 40
0.0
  9
$DIMDLE
 40
0.0
  9
$DIMEXE
 40
1.0
  9
$DIMTP
 40
1.0
  9
$DIMTM
 40
1.0
  9
$DIMTXT
 40
3.0
  9
$DIMCEN
 40
0.0
  9
$DIMTSZ
 40
0.0
  9
$DIMTOL
 70
     0
  9
$DIMLIM
 70
     0
  9
$DIMTIH
 70
     0
  9
$DIMTOH
 70
     0
  9
$DIMSE1
 70
     0
  9
$DIMSE2
 70
     0
  9
$DIMTAD
 70
     1
  9
$DIMZIN
 70
     8
  9
$DIMBLK
  1

  9
$DIMASO
 70
     1
  9
$DIMSHO
 70
     1
  9
$DIMPOST
  1

  9
$DIMAPOST
  1

  9
$DIMALT
 70
     0
  9
$DIMALTD
 70
     2
  9
$DIMALTF
 40
0.039
  9
$DIMLFAC
 40
1.0
  9
$DIMTOFL
 70
     1
  9
$DIMTVP
 40
0.0
  9
$DIMTIX
 70
     0
  9
$DIMSOXD
 70
     0
  9
$DIMSAH
 70
     1
  9
$DIMBLK1
  1
OPEN
  9
$DIMBLK2
  1
OPEN
  9
$DIMSTYLE
  2
IGA
  9
$DIMCLRD
 70
     0
  9
$DIMCLRE
 70
     0
  9
$DIMCLRT
 70
     0
  9
$DIMTFAC
 40
10.0
  9
$DIMGAP
 40
1.0
  9
$DIMJUST
 70
     0
  9
$DIMSD1
 70
     0
  9
$DIMSD2
 70
     0
  9
$DIMTOLJ
 70
     1
  9
$DIMTZIN
 70
     8
  9
$DIMALTZ
 70
     0
  9
$DIMALTTZ
 70
     0
  9
$DIMUPT
 70
     0
  9
$DIMDEC
 70
     0
  9
$DIMTDEC
 70
     0
  9
$DIMALTU
 70
     2
  9
$DIMALTTD
 70
     2
  9
$DIMTXSTY
  7
STANDARD
  9
$DIMAUNIT
 70
     0
  9
$DIMADEC
 70
     0
  9
$DIMALTRND
 40
0.0
  9
$DIMAZIN
 70
     0
  9
$DIMDSEP
 70
    46
  9
$DIMATFIT
 70
     3
  9
$DIMFRAC
 70
     0
  9
$DIMLDRBLK
  1
OPEN
  9
$DIMLUNIT
 70
     2
  9
$DIMLWD
 70
    -2
  9
$DIMLWE
 70
    -2
  9
$DIMTMOVE
 70
     2
  9
$DIMFXL
 40
1.0
  9
$DIMFXLON
 70
     0
  9
$DIMJOGANG
 40
0.7853981633974483
  9
$DIMTFILL
 70
     0
  9
$DIMTFILLCLR
 70
     0
  9
$DIMARCSYM
 70
     0
  9
$DIMLTYPE
  6

  9
$DIMLTEX1
  6

  9
$DIMLTEX2
  6

  9
$DIMTXTDIRECTION
 70
     0
  9
$LUNITS
 70
     2
  9
$LUPREC
 70
     3
  9
$SKETCHINC
 40
0.1
  9
$FILLETRAD
 40
50.0
  9
$AUNITS
 70
     0
  9
$AUPREC
 70
     0
  9
$MENU
  1
acad
  9
$ELEVATION
 40
0.0
  9
$PELEVATION
 40
0.0
  9
$THICKNESS
 40
0.0
  9
$LIMCHECK
 70
     0
  9
$CHAMFERA
 40
0.5
  9
$CHAMFERB
 40
0.5
  9
$CHAMFERC
 40
20.0
  9
$CHAMFERD
 40
0.0
  9
$SKPOLY
 70
     0
  9
$TDCREATE
 40
2451382.446087963
  9
$TDUCREATE
 40
2451382.071089005
  9
$TDUPDATE
 40
2460241.627361111
  9
$TDUUPDATE
 40
2460241.252369224
  9
$TDINDWG
 40
0.0421521991
  9
$TDUSRTIMER
 40
0.0421521991
  9
$USRTIMER
 70
     1
  9
$ANGBASE
 50
0.0
  9
$ANGDIR
 70
     0
  9
$PDMODE
 70
     0
  9
$PDSIZE
 40
0.0
  9
$PLINEWID
 40
0.0
  9
$SPLFRAME
 70
     0
  9
$SPLINETYPE
 70
     6
  9
$SPLINESEGS
 70
     8
  9
$HANDSEED
  5
8763
  9
$SURFTAB1
 70
     6
  9
$SURFTAB2
 70
     6
  9
$SURFTYPE
 70
     6
  9
$SURFU
 70
     6
  9
$SURFV
 70
     6
  9
$UCSBASE
  2

  9
$UCSNAME
  2

  9
$UCSORG
 10
0.0
 20
0.0
 30
0.0
  9
$UCSXDIR
 10
1.0
 20
0.0
 30
0.0
  9
$UCSYDIR
 10
0.0
 20
1.0
 30
0.0
  9
$UCSORTHOREF
  2

  9
$UCSORTHOVIEW
 70
     0
  9
$UCSORGTOP
 10
0.0
 20
0.0
 30
0.0
  9
$UCSORGBOTTOM
 10
0.0
 20
0.0
 30
0.0
  9
$UCSORGLEFT
 10
0.0
 20
0.0
 30
0.0
  9
$UCSORGRIGHT
 10
0.0
 20
0.0
 30
0.0
  9
$UCSORGFRONT
 10
0.0
 20
0.0
 30
0.0
  9
$UCSORGBACK
 10
0.0
 20
0.0
 30
0.0
  9
$PUCSBASE
  2

  9
$PUCSNAME
  2

  9
$PUCSORG
 10
0.0
 20
0.0
 30
0.0
  9
$PUCSXDIR
 10
1.0
 20
0.0
 30
0.0
  9
$PUCSYDIR
 10
0.0
 20
1.0
 30
0.0
  9
$PUCSORTHOREF
  2

  9
$PUCSORTHOVIEW
 70
     0
  9
$PUCSORGTOP
 10
0.0
 20
0.0
 30
0.0
  9
$PUCSORGBOTTOM
 10
0.0
 20
0.0
 30
0.0
  9
$PUCSORGLEFT
 10
0.0
 20
0.0
 30
0.0
  9
$PUCSORGRIGHT
 10
0.0
 20
0.0
 30
0.0
  9
$PUCSORGFRONT
 10
0.0
 20
0.0
 30
0.0
  9
$PUCSORGBACK
 10
0.0
 20
0.0
 30
0.0
  9
$USERI1
 70
     0
  9
$USERI2
 70
     0
  9
$USERI3
 70
     0
  9
$USERI4
 70
     0
  9
$USERI5
 70
     0
  9
$USERR1
 40
0.0
  9
$USERR2
 40
0.0
  9
$USERR3
 40
0.0
  9
$USERR4
 40
0.0
  9
$USERR5
 40
0.0
  9
$WORLDVIEW
 70
     1
  9
$SHADEDGE
 70
     3
  9
$SHADEDIF
 70
    70
  9
$TILEMODE
 70
     1
  9
$MAXACTVP
 70
    16
  9
$PINSBASE
 10
0.0
 20
0.0
 30
0.0
  9
$PLIMCHECK
 70
     0
  9
$PEXTMIN
 10
1.000000000000000E+20
 20
1.000000000000000E+20
 30
1.000000000000000E+20
  9
$PEXTMAX
 10
-1.000000000000000E+20
 20
-1.000000000000000E+20
 30
-1.000000000000000E+20
  9
$PLIMMIN
 10
0.0
 20
0.0
  9
$PLIMMAX
 10
12.0
 20
9.0
  9
$UNITMODE
 70
     0
  9
$VISRETAIN
 70
     0
  9
$PLINEGEN
 70
     0
  9
$PSLTSCALE
 70
     1
  9
$TREEDEPTH
 70
  3020
  9
$CMLSTYLE
  2
STANDARD
  9
$CMLJUST
 70
     0
  9
$CMLSCALE
 40
20.0
  9
$PROXYGRAPHICS
 70
     1
  9
$MEASUREMENT
 70
     1
  9
$CELWEIGHT
370
    -1
  9
$ENDCAPS
280
     0
  9
$JOINSTYLE
280
     0
  9
$LWDISPLAY
290
     0
  9
$INSUNITS
 70
     0
  9
$HYPERLINKBASE
  1

  9
$STYLESHEET
  1

  9
$XEDIT
290
     1
  9
$CEPSNTYPE
380
     0
  9
$PSTYLEMODE
290
     1
  9
$FINGERPRINTGUID
  2
{E9FCA8D6-718D-457E-9DBF-55F3BB0D9695}
  9
$VERSIONGUID
  2
{CCF4E231-294A-4D47-AFC4-B0C96DEBCE8F}
  9
$EXTNAMES
290
     1
  9
$PSVPSCALE
 40
0.0
  9
$OLESTARTUP
290
     0
  9
$SORTENTS
280
   127
  9
$INDEXCTL
280
     0
  9
$HIDETEXT
280
     0
  9
$XCLIPFRAME
280
     2
  9
$HALOGAP
280
     0
  9
$OBSCOLOR
 70
   257
  9
$OBSLTYPE
280
     0
  9
$INTERSECTIONDISPLAY
280
     0
  9
$INTERSECTIONCOLOR
 70
   257
  9
$DIMASSOC
280
     1
  9
$PROJECTNAME
  1

  9
$CAMERADISPLAY
290
     0
  9
$LENSLENGTH
 40
50.0
  9
$CAMERAHEIGHT
 40
0.0
  9
$STEPSPERSEC
 40
2.0
  9
$STEPSIZE
 40
6.0
  9
$3DDWFPREC
 40
2.0
  9
$PSOLWIDTH
 40
0.25
  9
$PSOLHEIGHT
 40
4.0
  9
$LOFTANG1
 40
1.570796326794896
  9
$LOFTANG2
 40
1.570796326794896
  9
$LOFTMAG1
 40
0.0
  9
$LOFTMAG2
 40
0.0
  9
$LOFTPARAM
 70
     7
  9
$LOFTNORMALS
280
     1
  9
$LATITUDE
 40
37.795
  9
$LONGITUDE
 40
-122.394
  9
$NORTHDIRECTION
 40
0.0
  9
$TIMEZONE
 70
 -8000
  9
$LIGHTGLYPHDISPLAY
280
     1
  9
$TILEMODELIGHTSYNCH
280
     1
  9
$CMATERIAL
347
8670
  9
$SOLIDHIST
280
     0
  9
$SHOWHIST
280
     1
  9
$DWFFRAME
280
     2
  9
$DGNFRAME
280
     0
  9
$REALWORLDSCALE
290
     1
  9
$INTERFERECOLOR
 62
     1
  9
$INTERFEREOBJVS
345
8692
  9
$INTERFEREVPVS
346
868F
  9
$CSHADOW
280
     0
  9
$SHADOWPLANELOCATION
 40
0.0
  0
ENDSEC
  0
SECTION
  2
CLASSES
  0
CLASS
  1
ACDBDICTIONARYWDFLT
  2
AcDbDictionaryWithDefault
  3
ObjectDBX Classes
 90
        0
 91
        1
280
     0
281
     0
  0
CLASS
  1
DICTIONARYVAR
  2
AcDbDictionaryVar
  3
ObjectDBX Classes
 90
        0
 91
       11
280
     0
281
     0
  0
CLASS
  1
MATERIAL
  2
AcDbMaterial
  3
ObjectDBX Classes
 90
     1153
 91
        3
280
     0
281
     0
  0
CLASS
  1
VISUALSTYLE
  2
AcDbVisualStyle
  3
ObjectDBX Classes
 90
     4095
 91
       24
280
     0
281
     0
  0
CLASS
  1
TABLESTYLE
  2
AcDbTableStyle
  3
ObjectDBX Classes
 90
     4095
 91
        1
280
     0
281
     0
  0
CLASS
  1
SCALE
  2
AcDbScale
  3
ObjectDBX Classes
 90
     1153
 91
       17
280
     0
281
     0
  0
CLASS
  1
MLEADERSTYLE
  2
AcDbMLeaderStyle
  3
ACDB_MLEADERSTYLE_CLASS
 90
     4095
 91
        1
280
     0
281
     0
  0
CLASS
  1
ACDBSECTIONVIEWSTYLE
  2
AcDbSectionViewStyle
  3
ObjectDBX Classes
 90
     1025
 91
        1
280
     0
281
     0
  0
CLASS
  1
ACDBDETAILVIEWSTYLE
  2
AcDbDetailViewStyle
  3
ObjectDBX Classes
 90
     1025
 91
        1
280
     0
281
     0
  0
CLASS
  1
CELLSTYLEMAP
  2
AcDbCellStyleMap
  3
ObjectDBX Classes
 90
     1152
 91
        1
280
     0
281
     0
  0
ENDSEC
  0
SECTION
  2
TABLES
  0
TABLE
  2
VPORT
  5
8
330
0
100
AcDbSymbolTable
 70
     1
1001
ACAD
1000
DbSaveVer
1071
      278
  0
VPORT
  5
866D
330
8
100
AcDbSymbolTableRecord
100
AcDbViewportTableRecord
  2
*Active
 70
     0
 10
0.0
 20
0.0
 11
1.0
 21
1.0
 12
4041.170293353918
 22
4444.032521962213
 13
0.0
 23
0.0
 14
10.0
 24
10.0
 15
10.0
 25
10.0
 16
0.0
 26
0.0
 36
1.0
 17
0.0
 27
0.0
 37
0.0
 40
8907.213849874898
 41
2.250314465408805
 42
50.0
 43
0.0
 44
0.0
 50
0.0
 51
0.0
 71
     0
 72
   100
 73
     1
 74
     0
 75
     0
 76
     0
 77
     0
 78
     0
281
     0
 65
     1
110
0.0
120
0.0
130
0.0
111
1.0
121
0.0
131
0.0
112
0.0
122
1.0
132
0.0
 79
     0
146
0.0
348
868E
 60
     3
 61
     5
292
     1
282
     1
141
0.0
142
0.0
 63
   250
421
  3355443
1001
ACAD_NAV_VCDISPLAY
1070
     3
  0
ENDTAB
  0
TABLE
  2
LTYPE
  5
5
330
0
100
AcDbSymbolTable
 70
     2
  0
LTYPE
  5
13
330
5
100
AcDbSymbolTableRecord
100
AcDbLinetypeTableRecord
  2
BYBLOCK
 70
     0
  3

 72
    65
 73
     0
 40
0.0
  0
LTYPE
  5
14
330
5
100
AcDbSymbolTableRecord
100
AcDbLinetypeTableRecord
  2
BYLAYER
 70
     0
  3

 72
    65
 73
     0
 40
0.0
  0
LTYPE
  5
15
330
5
100
AcDbSymbolTableRecord
100
AcDbLinetypeTableRecord
  2
CONTINUOUS
 70
     0
  3
Solid line
 72
    65
 73
     0
 40
0.0
  0
LTYPE
  5
1F
330
5
100
AcDbSymbolTableRecord
100
AcDbLinetypeTableRecord
  2
CENTER
 70
     0
  3
____ _ ____ _ ____ _ ____ _ ____ _ ____ _ ____ 
 72
    65
 73
     4
 40
2.0
 49
1.25
 74
     0
 49
-0.25
 74
     0
 49
0.25
 74
     0
 49
-0.25
 74
     0
  0
ENDTAB
  0
TABLE
  2
LAYER
  5
2
102
{ACAD_XDICTIONARY
360
873A
102
}
330
0
100
AcDbSymbolTable
 70
     6
  0
LAYER
  5
F
102
{ACAD_XDICTIONARY
360
872D
102
}
330
2
100
AcDbSymbolTableRecord
100
AcDbLayerTableRecord
  2
0
 70
     0
 62
     7
  6
CONTINUOUS
370
    -3
390
85A5
347
8680
348
0
  0
LAYER
  5
31
102
{ACAD_XDICTIONARY
360
872F
102
}
330
2
100
AcDbSymbolTableRecord
100
AcDbLayerTableRecord
  2
3
 70
     0
 62
     2
  6
CONTINUOUS
370
    -3
390
85A5
347
8680
348
0
  0
LAYER
  5
76D0
102
{ACAD_XDICTIONARY
360
8731
102
}
330
2
100
AcDbSymbolTableRecord
100
AcDbLayerTableRecord
  2
2
 70
     0
 62
     3
  6
CENTER
370
    -3
390
85A5
347
8680
348
0
  0
LAYER
  5
76D1
102
{ACAD_XDICTIONARY
360
8733
102
}
330
2
100
AcDbSymbolTableRecord
100
AcDbLayerTableRecord
  2
1
 70
     0
 62
     4
  6
CONTINUOUS
370
    -3
390
85A5
347
8680
348
0
  0
LAYER
  5
76D2
102
{ACAD_XDICTIONARY
360
8735
102
}
330
2
100
AcDbSymbolTableRecord
100
AcDbLayerTableRecord
  2
4
 70
     0
 62
     7
  6
CONTINUOUS
370
    -3
390
85A5
347
8680
348
0
  0
LAYER
  5
7B3D
330
2
100
AcDbSymbolTableRecord
100
AcDbLayerTableRecord
  2
DEFPOINTS
 70
     0
 62
     7
  6
CONTINUOUS
290
     0
370
    -3
390
85A5
347
8680
348
0
  0
ENDTAB
  0
TABLE
  2
STYLE
  5
3
330
0
100
AcDbSymbolTable
 70
     1
  0
STYLE
  5
10
330
3
100
AcDbSymbolTableRecord
100
AcDbTextStyleTableRecord
  2
STANDARD
 70
     0
 40
0.0
 41
1.0
 50
0.0
 71
     0
 42
180.0
  3
simplex.shx
  4
extfont.shx
  0
ENDTAB
  0
TABLE
  2
VIEW
  5
6
330
0
100
AcDbSymbolTable
 70
     0
  0
ENDTAB
  0
TABLE
  2
UCS
  5
7
330
0
100
AcDbSymbolTable
 70
     0
  0
ENDTAB
  0
TABLE
  2
APPID
  5
9
330
0
100
AcDbSymbolTable
 70
     4
  0
APPID
  5
11
330
9
100
AcDbSymbolTableRecord
100
AcDbRegAppTableRecord
  2
ACAD
 70
     0
  0
APPID
  5
86D9
330
9
100
AcDbSymbolTableRecord
100
AcDbRegAppTableRecord
  2
AcadAnnoMonitorAlertIconDisabled
 70
     0
  0
APPID
  5
86DA
330
9
100
AcDbSymbolTableRecord
100
AcDbRegAppTableRecord
  2
ACAD_EXEMPT_FROM_CAD_STANDARDS
 70
     0
  0
APPID
  5
8740
330
9
100
AcDbSymbolTableRecord
100
AcDbRegAppTableRecord
  2
ACAD_NAV_VCDISPLAY
 70
     0
  0
ENDTAB
  0
TABLE
  2
DIMSTYLE
  5
A
330
0
100
AcDbSymbolTable
 70
     2
100
AcDbDimStyleTable
 71
     1
340
1D
  0
DIMSTYLE
105
1D
102
{ACAD_REACTORS
330
8565
330
8572
330
857F
330
858C
330
8599
330
86BF
330
86CC
102
}
330
A
100
AcDbSymbolTableRecord
100
AcDbDimStyleTableRecord
  2
IGA
 70
     0
 40
2.0
 41
2.0
 42
0.5
 43
10.0
 44
1.0
 47
1.0
 48
1.0
 73
     0
 74
     0
 77
     1
 78
     8
140
3.0
141
0.0
143
0.03937
146
10.0
147
1.0
173
     1
271
     1
272
     0
279
     2
284
     8
340
10
341
845B
343
845B
344
845B
  0
DIMSTYLE
105
7B40
102
{ACAD_REACTORS
330
7F2D
330
7F2E
330
7F2F
330
7F37
330
7F38
330
7F4E
330
7F4F
330
7F50
330
7F51
330
7F52
330
7F81
330
7F83
330
7F95
102
}
330
A
100
AcDbSymbolTableRecord
100
AcDbDimStyleTableRecord
  2
MATSU
 70
     0
 41
2.0
 42
1.0
 43
10.0
 44
1.0
 73
     0
 74
     0
 77
     1
 78
     8
140
3.0
141
0.0
143
0.03937
147
0.5
172
     1
173
     1
176
   256
177
   256
178
   256
272
     3
284
     8
289
     0
340
10
341
845B
343
845B
344
845B
  0
ENDTAB
  0
TABLE
  2
BLOCK_RECORD
  5
1
330
0
100
AcDbSymbolTable
 70
    25
  0
BLOCK_RECORD
  5
19
102
{ACAD_XDICTIONARY
360
85D3
102
}
330
1
100
AcDbSymbolTableRecord
100
AcDbBlockTableRecord
  2
*MODEL_SPACE
340
85A8
 70
     0
280
     1
281
     0
  0
BLOCK_RECORD
  5
16
102
{ACAD_XDICTIONARY
360
85D1
102
}
330
1
100
AcDbSymbolTableRecord
100
AcDbBlockTableRecord
  2
*PAPER_SPACE
340
85A9
 70
     0
280
     1
281
     0
  0
BLOCK_RECORD
  5
79FC
330
1
100
AcDbSymbolTableRecord
100
AcDbBlockTableRecord
  2
YA_N
340
0
102
{BLKREFS
331
7EF9
331
7F10
331
7F12
102
}
 70
     0
280
     1
281
     0
  0
BLOCK_RECORD
  5
79FF
330
1
100
AcDbSymbolTableRecord
100
AcDbBlockTableRecord
  2
ARROW
340
0
102
{BLKREFS
331
85DE
331
85DF
331
85E7
331
85E8
331
85F0
331
85F1
331
85F9
331
85FA
331
8602
331
8603
331
860B
331
860C
331
8614
331
8615
331
861D
331
861E
331
8626
331
8627
331
862F
331
8630
331
8638
331
8639
331
8641
331
8642
331
864A
331
864B
102
}
 70
     0
280
     1
281
     0
  0
BLOCK_RECORD
  5
7FC8
330
1
100
AcDbSymbolTableRecord
100
AcDbBlockTableRecord
  2
*D2
340
0
 70
     0
280
     1
281
     0
  0
BLOCK_RECORD
  5
7FD4
330
1
100
AcDbSymbolTableRecord
100
AcDbBlockTableRecord
  2
*D3
340
0
 70
     0
280
     1
281
     0
  0
BLOCK_RECORD
  5
7FE0
330
1
100
AcDbSymbolTableRecord
100
AcDbBlockTableRecord
  2
*D4
340
0
 70
     0
280
     1
281
     0
  0
BLOCK_RECORD
  5
7FEC
330
1
100
AcDbSymbolTableRecord
100
AcDbBlockTableRecord
  2
*D5
340
0
 70
     0
280
     1
281
     0
  0
BLOCK_RECORD
  5
7FF8
330
1
100
AcDbSymbolTableRecord
100
AcDbBlockTableRecord
  2
*D6
340
0
 70
     0
280
     1
281
     0
  0
BLOCK_RECORD
  5
801C
330
1
100
AcDbSymbolTableRecord
100
AcDbBlockTableRecord
  2
*D7
340
0
 70
     0
280
     1
281
     0
  0
BLOCK_RECORD
  5
8028
330
1
100
AcDbSymbolTableRecord
100
AcDbBlockTableRecord
  2
*D8
340
0
 70
     0
280
     1
281
     0
  0
BLOCK_RECORD
  5
8034
330
1
100
AcDbSymbolTableRecord
100
AcDbBlockTableRecord
  2
*D9
340
0
 70
     0
280
     1
281
     0
  0
BLOCK_RECORD
  5
8040
330
1
100
AcDbSymbolTableRecord
100
AcDbBlockTableRecord
  2
*D10
340
0
 70
     0
280
     1
281
     0
  0
BLOCK_RECORD
  5
804C
330
1
100
AcDbSymbolTableRecord
100
AcDbBlockTableRecord
  2
*D11
340
0
 70
     0
280
     1
281
     0
  0
BLOCK_RECORD
  5
8064
330
1
100
AcDbSymbolTableRecord
100
AcDbBlockTableRecord
  2
*D12
340
0
 70
     0
280
     1
281
     0
  0
BLOCK_RECORD
  5
8070
330
1
100
AcDbSymbolTableRecord
100
AcDbBlockTableRecord
  2
*D13
340
0
 70
     0
280
     1
281
     0
  0
BLOCK_RECORD
  5
80A0
330
1
100
AcDbSymbolTableRecord
100
AcDbBlockTableRecord
  2
*D14
340
0
 70
     0
280
     1
281
     0
  0
BLOCK_RECORD
  5
845B
330
1
100
AcDbSymbolTableRecord
100
AcDbBlockTableRecord
  2
_OPEN
340
0
102
{BLKREFS
331
8578
331
8579
331
8585
331
8586
331
8592
331
8593
331
871E
331
871F
331
8727
331
8728
331
855E
331
855F
331
856B
331
856C
102
}
 70
     0
280
     1
281
     0
  0
BLOCK_RECORD
  5
8559
330
1
100
AcDbSymbolTableRecord
100
AcDbBlockTableRecord
  2
*D18
340
0
 70
     0
280
     1
281
     0
  0
BLOCK_RECORD
  5
8566
330
1
100
AcDbSymbolTableRecord
100
AcDbBlockTableRecord
  2
*D19
340
0
 70
     0
280
     1
281
     0
  0
BLOCK_RECORD
  5
8573
330
1
100
AcDbSymbolTableRecord
100
AcDbBlockTableRecord
  2
*D20
340
0
 70
     0
280
     1
281
     0
  0
BLOCK_RECORD
  5
8580
330
1
100
AcDbSymbolTableRecord
100
AcDbBlockTableRecord
  2
*D21
340
0
 70
     0
280
     1
281
     0
  0
BLOCK_RECORD
  5
858D
330
1
100
AcDbSymbolTableRecord
100
AcDbBlockTableRecord
  2
*D22
340
0
 70
     0
280
     1
281
     0
  0
BLOCK_RECORD
  5
86C0
330
1
100
AcDbSymbolTableRecord
100
AcDbBlockTableRecord
  2
*D23
340
0
 70
     0
280
     1
281
     0
  0
BLOCK_RECORD
  5
86CD
330
1
100
AcDbSymbolTableRecord
100
AcDbBlockTableRecord
  2
*D24
340
0
 70
     0
280
     1
281
     0
  0
ENDTAB
  0
ENDSEC
  0
SECTION
  2
BLOCKS
  0
BLOCK
  5
1A
330
19
100
AcDbEntity
  8
0
100
AcDbBlockBegin
  2
*MODEL_SPACE
 70
     0
 10
0.0
 20
0.0
 30
0.0
  3
*MODEL_SPACE
  1

  0
ENDBLK
  5
1B
330
19
100
AcDbEntity
  8
0
100
AcDbBlockEnd
  0
BLOCK
  5
17
330
16
100
AcDbEntity
 67
     1
  8
0
100
AcDbBlockBegin
  2
*PAPER_SPACE
 70
     0
 10
0.0
 20
0.0
 30
0.0
  3
*PAPER_SPACE
  1

  0
ENDBLK
  5
18
330
16
100
AcDbEntity
 67
     1
  8
0
100
AcDbBlockEnd
  0
BLOCK
  5
79FD
330
79FC
100
AcDbEntity
  8
0
100
AcDbBlockBegin
  2
YA_N
 70
     0
 10
0.0
 20
0.0
 30
0.0
  3
YA_N
  1

  0
ENDBLK
  5
79FE
330
79FC
100
AcDbEntity
  8
0
100
AcDbBlockEnd
  0
BLOCK
  5
7A03
330
79FF
100
AcDbEntity
  8
0
100
AcDbBlockBegin
  2
ARROW
 70
     0
 10
0.0
 20
0.0
 30
0.0
  3
ARROW
  1

  0
LINE
  5
7A00
330
79FF
100
AcDbEntity
  8
0
100
AcDbLine
 10
-0.9999999999999991
 20
0.1666666667000003
 30
0.0
 11
0.0
 21
0.0
 31
0.0
  0
LINE
  5
7A01
330
79FF
100
AcDbEntity
  8
0
100
AcDbLine
 10
-0.9999999999999991
 20
0.0
 30
0.0
 11
0.0
 21
0.0
 31
0.0
  0
LINE
  5
7A02
330
79FF
100
AcDbEntity
  8
0
100
AcDbLine
 10
-0.9999999999999991
 20
-0.1666666667000003
 30
0.0
 11
0.0
 21
0.0
 31
0.0
  0
ENDBLK
  5
7A04
330
79FF
100
AcDbEntity
  8
0
100
AcDbBlockEnd
  0
BLOCK
  5
82CF
330
7FC8
100
AcDbEntity
  8
0
100
AcDbBlockBegin
  2
*D2
 70
     1
 10
0.0
 20
0.0
 30
0.0
  3
*D2
  1

  0
LINE
  5
85DB
330
7FC8
100
AcDbEntity
  8
3
440
 16777216
100
AcDbLine
 10
2827.836574716308
 20
3881.968775878828
 30
0.0
 11
3007.45168315952
 21
3881.968775878828
 31
0.0
  0
LINE
  5
85DC
330
7FC8
100
AcDbEntity
  8
3
440
 16777216
100
AcDbLine
 10
2827.836574716308
 20
2956.968775878828
 30
0.0
 11
3007.45168315952
 21
2956.968775878828
 31
0.0
  0
LINE
  5
85DD
330
7FC8
100
AcDbEntity
  8
3
440
 16777216
100
AcDbLine
 10
2977.45168315952
 20
3806.968775878828
 30
0.0
 11
2977.45168315952
 21
3031.968775878828
 31
0.0
  0
INSERT
  5
85DE
330
7FC8
100
AcDbEntity
  8
3
440
 16777216
100
AcDbBlockReference
  2
ARROW
 10
2977.45168315952
 20
3881.968775878828
 30
0.0
 41
75.0
 42
75.0
 43
75.0
 50
90.0
  0
INSERT
  5
85DF
330
7FC8
100
AcDbEntity
  8
3
440
 16777216
100
AcDbBlockReference
  2
ARROW
 10
2977.45168315952
 20
2956.968775878828
 30
0.0
 41
75.0
 42
75.0
 43
75.0
 50
270.0
  0
MTEXT
  5
85E0
330
7FC8
100
AcDbEntity
  8
3
440
 16777216
100
AcDbMText
 10
2902.451683159519
 20
3419.468775878828
 30
0.0
 40
90.0
 41
0.0
 46
0.0
 71
     5
 72
     5
  1
\A1;925
 11
0.0000000000000001
 21
1.0
 31
0.0
 73
     1
 44
1.0
  0
POINT
  5
85E1
330
7FC8
100
AcDbEntity
  8
DEFPOINTS
 62
     0
440
 16777216
100
AcDbPoint
 10
2827.836574716308
 20
3881.968775878828
 30
0.0
  0
POINT
  5
85E2
330
7FC8
100
AcDbEntity
  8
DEFPOINTS
 62
     0
440
 16777216
100
AcDbPoint
 10
2827.836574716308
 20
2956.968775878828
 30
0.0
  0
POINT
  5
85E3
330
7FC8
100
AcDbEntity
  8
DEFPOINTS
 62
     0
440
 16777216
100
AcDbPoint
 10
2977.45168315952
 20
2956.968775878828
 30
0.0
  0
ENDBLK
  5
82D9
330
7FC8
100
AcDbEntity
  8
0
100
AcDbBlockEnd
  0
BLOCK
  5
82B9
330
7FD4
100
AcDbEntity
  8
0
100
AcDbBlockBegin
  2
*D3
 70
     1
 10
0.0
 20
0.0
 30
0.0
  3
*D3
  1

  0
LINE
  5
85E4
330
7FD4
100
AcDbEntity
  8
3
440
 16777216
100
AcDbLine
 10
2827.836574716308
 20
3881.968775878828
 30
0.0
 11
3157.794983257382
 21
3881.968775878828
 31
0.0
  0
LINE
  5
85E5
330
7FD4
100
AcDbEntity
  8
3
440
 16777216
100
AcDbLine
 10
2864.091913494855
 20
2920.968775878828
 30
0.0
 11
3157.794983257382
 21
2920.968775878828
 31
0.0
  0
LINE
  5
85E6
330
7FD4
100
AcDbEntity
  8
3
440
 16777216
100
AcDbLine
 10
3127.794983257382
 20
3806.968775878828
 30
0.0
 11
3127.794983257381
 21
2995.968775878827
 31
0.0
  0
INSERT
  5
85E7
330
7FD4
100
AcDbEntity
  8
3
440
 16777216
100
AcDbBlockReference
  2
ARROW
 10
3127.794983257382
 20
3881.968775878828
 30
0.0
 41
75.0
 42
75.0
 43
75.0
 50
90.0
  0
INSERT
  5
85E8
330
7FD4
100
AcDbEntity
  8
3
440
 16777216
100
AcDbBlockReference
  2
ARROW
 10
3127.794983257381
 20
2920.968775878828
 30
0.0
 41
75.0
 42
75.0
 43
75.0
 50
270.0
  0
MTEXT
  5
85E9
330
7FD4
100
AcDbEntity
  8
3
440
 16777216
100
AcDbMText
 10
3052.794983257381
 20
3401.468775878829
 30
0.0
 40
90.0
 41
0.0
 46
0.0
 71
     5
 72
     5
  1
\A1;961
 11
0.0000000000000001
 21
1.0
 31
0.0
 73
     1
 44
1.0
  0
POINT
  5
85EA
330
7FD4
100
AcDbEntity
  8
DEFPOINTS
 62
     0
440
 16777216
100
AcDbPoint
 10
2827.836574716308
 20
3881.968775878828
 30
0.0
  0
POINT
  5
85EB
330
7FD4
100
AcDbEntity
  8
DEFPOINTS
 62
     0
440
 16777216
100
AcDbPoint
 10
2864.091913494855
 20
2920.968775878828
 30
0.0
  0
POINT
  5
85EC
330
7FD4
100
AcDbEntity
  8
DEFPOINTS
 62
     0
440
 16777216
100
AcDbPoint
 10
3127.794983257381
 20
2920.968775878828
 30
0.0
  0
ENDBLK
  5
82C3
330
7FD4
100
AcDbEntity
  8
0
100
AcDbBlockEnd
  0
BLOCK
  5
82E5
330
7FE0
100
AcDbEntity
  8
0
100
AcDbBlockBegin
  2
*D4
 70
     1
 10
0.0
 20
0.0
 30
0.0
  3
*D4
  1

  0
LINE
  5
85ED
330
7FE0
100
AcDbEntity
  8
3
440
 16777216
100
AcDbLine
 10
2864.091913494855
 20
2920.968775878828
 30
0.0
 11
3157.794983257382
 21
2920.968775878828
 31
0.0
  0
LINE
  5
85EE
330
7FE0
100
AcDbEntity
  8
3
440
 16777216
100
AcDbLine
 10
2767.83657471631
 20
2240.968775878828
 30
0.0
 11
3157.794983257382
 21
2240.968775878827
 31
0.0
  0
LINE
  5
85EF
330
7FE0
100
AcDbEntity
  8
3
440
 16777216
100
AcDbLine
 10
3127.794983257381
 20
2845.968775878827
 30
0.0
 11
3127.794983257381
 21
2315.968775878827
 31
0.0
  0
INSERT
  5
85F0
330
7FE0
100
AcDbEntity
  8
3
440
 16777216
100
AcDbBlockReference
  2
ARROW
 10
3127.794983257381
 20
2920.968775878828
 30
0.0
 41
75.0
 42
75.0
 43
75.0
 50
90.0
  0
INSERT
  5
85F1
330
7FE0
100
AcDbEntity
  8
3
440
 16777216
100
AcDbBlockReference
  2
ARROW
 10
3127.794983257381
 20
2240.968775878827
 30
0.0
 41
75.0
 42
75.0
 43
75.0
 50
270.0
  0
MTEXT
  5
85F2
330
7FE0
100
AcDbEntity
  8
3
440
 16777216
100
AcDbMText
 10
3052.794983257381
 20
2580.968775878828
 30
0.0
 40
90.0
 41
0.0
 46
0.0
 71
     5
 72
     5
  1
\A1;680
 11
0.0000000000000001
 21
1.0
 31
0.0
 73
     1
 44
1.0
  0
POINT
  5
85F3
330
7FE0
100
AcDbEntity
  8
DEFPOINTS
 62
     0
440
 16777216
100
AcDbPoint
 10
2864.091913494855
 20
2920.968775878828
 30
0.0
  0
POINT
  5
85F4
330
7FE0
100
AcDbEntity
  8
DEFPOINTS
 62
     0
440
 16777216
100
AcDbPoint
 10
2767.83657471631
 20
2240.968775878828
 30
0.0
  0
POINT
  5
85F5
330
7FE0
100
AcDbEntity
  8
DEFPOINTS
 62
     0
440
 16777216
100
AcDbPoint
 10
3127.794983257381
 20
2240.968775878827
 30
0.0
  0
ENDBLK
  5
82EF
330
7FE0
100
AcDbEntity
  8
0
100
AcDbBlockEnd
  0
BLOCK
  5
8277
330
7FEC
100
AcDbEntity
  8
0
100
AcDbBlockBegin
  2
*D5
 70
     1
 10
0.0
 20
0.0
 30
0.0
  3
*D5
  1

  0
LINE
  5
85F6
330
7FEC
100
AcDbEntity
  8
3
440
 16777216
100
AcDbLine
 10
2827.836574716308
 20
3924.468775878828
 30
0.0
 11
2827.836574716308
 21
4105.363185594458
 31
0.0
  0
LINE
  5
85F7
330
7FEC
100
AcDbEntity
  8
3
440
 16777216
100
AcDbLine
 10
2207.836574716308
 20
3922.931218222385
 30
0.0
 11
2207.836574716308
 21
4105.363185594458
 31
0.0
  0
LINE
  5
85F8
330
7FEC
100
AcDbEntity
  8
3
440
 16777216
100
AcDbLine
 10
2752.836574716308
 20
4075.363185594459
 30
0.0
 11
2282.836574716308
 21
4075.363185594459
 31
0.0
  0
INSERT
  5
85F9
330
7FEC
100
AcDbEntity
  8
3
440
 16777216
100
AcDbBlockReference
  2
ARROW
 10
2827.836574716308
 20
4075.363185594459
 30
0.0
 41
75.0
 42
75.0
 43
75.0
  0
INSERT
  5
85FA
330
7FEC
100
AcDbEntity
  8
3
440
 16777216
100
AcDbBlockReference
  2
ARROW
 10
2207.836574716308
 20
4075.363185594459
 30
0.0
 41
75.0
 42
75.0
 43
75.0
 50
180.0
  0
MTEXT
  5
85FB
330
7FEC
100
AcDbEntity
  8
3
440
 16777216
100
AcDbMText
 10
2517.836574716308
 20
4150.363185594459
 30
0.0
 40
90.0
 41
0.0
 46
0.0
 71
     5
 72
     5
  1
\A1;620
 73
     1
 44
1.0
  0
POINT
  5
85FC
330
7FEC
100
AcDbEntity
  8
DEFPOINTS
 62
     0
440
 16777216
100
AcDbPoint
 10
2827.836574716308
 20
3924.468775878828
 30
0.0
  0
POINT
  5
85FD
330
7FEC
100
AcDbEntity
  8
DEFPOINTS
 62
     0
440
 16777216
100
AcDbPoint
 10
2207.836574716308
 20
3922.931218222385
 30
0.0
  0
POINT
  5
85FE
330
7FEC
100
AcDbEntity
  8
DEFPOINTS
 62
     0
440
 16777216
100
AcDbPoint
 10
2207.836574716308
 20
4075.363185594459
 30
0.0
  0
ENDBLK
  5
8281
330
7FEC
100
AcDbEntity
  8
0
100
AcDbBlockEnd
  0
BLOCK
  5
828D
330
7FF8
100
AcDbEntity
  8
0
100
AcDbBlockBegin
  2
*D6
 70
     1
 10
0.0
 20
0.0
 30
0.0
  3
*D6
  1

  0
LINE
  5
85FF
330
7FF8
100
AcDbEntity
  8
3
440
 16777216
100
AcDbLine
 10
2207.836574716308
 20
3922.931218222385
 30
0.0
 11
2207.836574716308
 21
4105.606385583883
 31
0.0
  0
LINE
  5
8600
330
7FF8
100
AcDbEntity
  8
3
440
 16777216
100
AcDbLine
 10
1434.004911588516
 20
2920.968775878828
 30
0.0
 11
1434.004911588516
 21
4105.606385583883
 31
0.0
  0
LINE
  5
8601
330
7FF8
100
AcDbEntity
  8
3
440
 16777216
100
AcDbLine
 10
2132.836574716308
 20
4075.606385583884
 30
0.0
 11
1509.004911588516
 21
4075.606385583884
 31
0.0
  0
INSERT
  5
8602
330
7FF8
100
AcDbEntity
  8
3
440
 16777216
100
AcDbBlockReference
  2
ARROW
 10
2207.836574716308
 20
4075.606385583884
 30
0.0
 41
75.0
 42
75.0
 43
75.0
  0
INSERT
  5
8603
330
7FF8
100
AcDbEntity
  8
3
440
 16777216
100
AcDbBlockReference
  2
ARROW
 10
1434.004911588516
 20
4075.606385583884
 30
0.0
 41
75.0
 42
75.0
 43
75.0
 50
180.0
  0
MTEXT
  5
8604
330
7FF8
100
AcDbEntity
  8
3
440
 16777216
100
AcDbMText
 10
1820.920743152412
 20
4150.606385583883
 30
0.0
 40
90.0
 41
0.0
 46
0.0
 71
     5
 72
     5
  1
\A1;777
 73
     1
 44
1.0
  0
POINT
  5
8605
330
7FF8
100
AcDbEntity
  8
DEFPOINTS
 62
     0
440
 16777216
100
AcDbPoint
 10
2207.836574716308
 20
3922.931218222385
 30
0.0
  0
POINT
  5
8606
330
7FF8
100
AcDbEntity
  8
DEFPOINTS
 62
     0
440
 16777216
100
AcDbPoint
 10
1434.004911588516
 20
2920.968775878828
 30
0.0
  0
POINT
  5
8607
330
7FF8
100
AcDbEntity
  8
DEFPOINTS
 62
     0
440
 16777216
100
AcDbPoint
 10
1434.004911588516
 20
4075.606385583884
 30
0.0
  0
ENDBLK
  5
8297
330
7FF8
100
AcDbEntity
  8
0
100
AcDbBlockEnd
  0
BLOCK
  5
8209
330
801C
100
AcDbEntity
  8
0
100
AcDbBlockBegin
  2
*D7
 70
     1
 10
0.0
 20
0.0
 30
0.0
  3
*D7
  1

  0
LINE
  5
8608
330
801C
100
AcDbEntity
  8
3
440
 16777216
100
AcDbLine
 10
1647.83657471631
 20
6469.791155245028
 30
0.0
 11
1647.83657471631
 21
6797.873710840015
 31
0.0
  0
LINE
  5
8609
330
801C
100
AcDbEntity
  8
3
440
 16777216
100
AcDbLine
 10
2767.83657471631
 20
6469.791155245028
 30
0.0
 11
2767.83657471631
 21
6797.873710840015
 31
0.0
  0
LINE
  5
860A
330
801C
100
AcDbEntity
  8
3
440
 16777216
100
AcDbLine
 10
1722.83657471631
 20
6767.873710840014
 30
0.0
 11
2692.83657471631
 21
6767.873710840014
 31
0.0
  0
INSERT
  5
860B
330
801C
100
AcDbEntity
  8
3
440
 16777216
100
AcDbBlockReference
  2
ARROW
 10
1647.83657471631
 20
6767.873710840014
 30
0.0
 41
75.0
 42
75.0
 43
75.0
 50
180.0
  0
INSERT
  5
860C
330
801C
100
AcDbEntity
  8
3
440
 16777216
100
AcDbBlockReference
  2
ARROW
 10
2767.83657471631
 20
6767.873710840014
 30
0.0
 41
75.0
 42
75.0
 43
75.0
  0
MTEXT
  5
860D
330
801C
100
AcDbEntity
  8
3
440
 16777216
100
AcDbMText
 10
2207.83657471631
 20
6842.873710840014
 30
0.0
 40
90.0
 41
0.0
 46
0.0
 71
     5
 72
     5
  1
\A1;1120
 73
     1
 44
1.0
  0
POINT
  5
860E
330
801C
100
AcDbEntity
  8
DEFPOINTS
 62
     0
440
 16777216
100
AcDbPoint
 10
1647.83657471631
 20
6469.791155245028
 30
0.0
  0
POINT
  5
860F
330
801C
100
AcDbEntity
  8
DEFPOINTS
 62
     0
440
 16777216
100
AcDbPoint
 10
2767.83657471631
 20
6469.791155245028
 30
0.0
  0
POINT
  5
8610
330
801C
100
AcDbEntity
  8
DEFPOINTS
 62
     0
440
 16777216
100
AcDbPoint
 10
2767.83657471631
 20
6767.873710840014
 30
0.0
  0
ENDBLK
  5
8213
330
801C
100
AcDbEntity
  8
0
100
AcDbBlockEnd
  0
BLOCK
  5
821F
330
8028
100
AcDbEntity
  8
0
100
AcDbBlockBegin
  2
*D8
 70
     1
 10
0.0
 20
0.0
 30
0.0
  3
*D8
  1

  0
LINE
  5
8611
330
8028
100
AcDbEntity
  8
3
440
 16777216
100
AcDbLine
 10
767.8365747163079
 20
5819.791155245027
 30
0.0
 11
767.8365747163081
 21
6797.873710840015
 31
0.0
  0
LINE
  5
8612
330
8028
100
AcDbEntity
  8
3
440
 16777216
100
AcDbLine
 10
1647.83657471631
 20
6469.791155245028
 30
0.0
 11
1647.83657471631
 21
6797.873710840015
 31
0.0
  0
LINE
  5
8613
330
8028
100
AcDbEntity
  8
3
440
 16777216
100
AcDbLine
 10
842.8365747163081
 20
6767.873710840014
 30
0.0
 11
1572.836574716309
 21
6767.873710840014
 31
0.0
  0
INSERT
  5
8614
330
8028
100
AcDbEntity
  8
3
440
 16777216
100
AcDbBlockReference
  2
ARROW
 10
767.8365747163081
 20
6767.873710840014
 30
0.0
 41
75.0
 42
75.0
 43
75.0
 50
180.0
  0
INSERT
  5
8615
330
8028
100
AcDbEntity
  8
3
440
 16777216
100
AcDbBlockReference
  2
ARROW
 10
1647.83657471631
 20
6767.873710840014
 30
0.0
 41
75.0
 42
75.0
 43
75.0
  0
MTEXT
  5
8616
330
8028
100
AcDbEntity
  8
3
440
 16777216
100
AcDbMText
 10
1207.836574716309
 20
6842.873710840014
 30
0.0
 40
90.0
 41
0.0
 46
0.0
 71
     5
 72
     5
  1
\A1;880
 73
     1
 44
1.0
  0
POINT
  5
8617
330
8028
100
AcDbEntity
  8
DEFPOINTS
 62
     0
440
 16777216
100
AcDbPoint
 10
767.8365747163079
 20
5819.791155245027
 30
0.0
  0
POINT
  5
8618
330
8028
100
AcDbEntity
  8
DEFPOINTS
 62
     0
440
 16777216
100
AcDbPoint
 10
1647.83657471631
 20
6469.791155245028
 30
0.0
  0
POINT
  5
8619
330
8028
100
AcDbEntity
  8
DEFPOINTS
 62
     0
440
 16777216
100
AcDbPoint
 10
1647.83657471631
 20
6767.873710840014
 30
0.0
  0
ENDBLK
  5
8229
330
8028
100
AcDbEntity
  8
0
100
AcDbBlockEnd
  0
BLOCK
  5
824B
330
8034
100
AcDbEntity
  8
0
100
AcDbBlockBegin
  2
*D9
 70
     1
 10
0.0
 20
0.0
 30
0.0
  3
*D9
  1

  0
LINE
  5
861A
330
8034
100
AcDbEntity
  8
3
440
 16777216
100
AcDbLine
 10
767.8365747163079
 20
4969.791155245028
 30
0.0
 11
767.8365747163079
 21
4543.75173082571
 31
0.0
  0
LINE
  5
861B
330
8034
100
AcDbEntity
  8
3
440
 16777216
100
AcDbLine
 10
2767.83657471631
 20
4969.791155245028
 30
0.0
 11
2767.83657471631
 21
4543.75173082571
 31
0.0
  0
LINE
  5
861C
330
8034
100
AcDbEntity
  8
3
440
 16777216
100
AcDbLine
 10
842.8365747163079
 20
4573.75173082571
 30
0.0
 11
2692.83657471631
 21
4573.75173082571
 31
0.0
  0
INSERT
  5
861D
330
8034
100
AcDbEntity
  8
3
440
 16777216
100
AcDbBlockReference
  2
ARROW
 10
767.8365747163079
 20
4573.75173082571
 30
0.0
 41
75.0
 42
75.0
 43
75.0
 50
180.0
  0
INSERT
  5
861E
330
8034
100
AcDbEntity
  8
3
440
 16777216
100
AcDbBlockReference
  2
ARROW
 10
2767.83657471631
 20
4573.75173082571
 30
0.0
 41
75.0
 42
75.0
 43
75.0
  0
MTEXT
  5
861F
330
8034
100
AcDbEntity
  8
3
440
 16777216
100
AcDbMText
 10
1767.836574716309
 20
4648.75173082571
 30
0.0
 40
90.0
 41
0.0
 46
0.0
 71
     5
 72
     5
  1
\A1;2000
 73
     1
 44
1.0
  0
POINT
  5
8620
330
8034
100
AcDbEntity
  8
DEFPOINTS
 62
     0
440
 16777216
100
AcDbPoint
 10
767.8365747163079
 20
4969.791155245028
 30
0.0
  0
POINT
  5
8621
330
8034
100
AcDbEntity
  8
DEFPOINTS
 62
     0
440
 16777216
100
AcDbPoint
 10
2767.83657471631
 20
4969.791155245028
 30
0.0
  0
POINT
  5
8622
330
8034
100
AcDbEntity
  8
DEFPOINTS
 62
     0
440
 16777216
100
AcDbPoint
 10
2767.83657471631
 20
4573.75173082571
 30
0.0
  0
ENDBLK
  5
8255
330
8034
100
AcDbEntity
  8
0
100
AcDbBlockEnd
  0
BLOCK
  5
8501
330
8040
100
AcDbEntity
  8
0
100
AcDbBlockBegin
  2
*D10
 70
     1
 10
0.0
 20
0.0
 30
0.0
  3
*D10
  1

  0
LINE
  5
8623
330
8040
100
AcDbEntity
  8
3
440
 16777216
100
AcDbLine
 10
767.8365747163079
 20
5819.791155245027
 30
0.0
 11
534.9008278966577
 21
5819.791155245027
 31
0.0
  0
LINE
  5
8624
330
8040
100
AcDbEntity
  8
3
440
 16777216
100
AcDbLine
 10
767.8365747163079
 20
4969.791155245028
 30
0.0
 11
534.9008278966575
 21
4969.791155245028
 31
0.0
  0
LINE
  5
8625
330
8040
100
AcDbEntity
  8
3
440
 16777216
100
AcDbLine
 10
564.9008278966577
 20
5744.791155245028
 30
0.0
 11
564.9008278966575
 21
5044.791155245028
 31
0.0
  0
INSERT
  5
8626
330
8040
100
AcDbEntity
  8
3
440
 16777216
100
AcDbBlockReference
  2
ARROW
 10
564.9008278966577
 20
5819.791155245027
 30
0.0
 41
75.0
 42
75.0
 43
75.0
 50
90.0
  0
INSERT
  5
8627
330
8040
100
AcDbEntity
  8
3
440
 16777216
100
AcDbBlockReference
  2
ARROW
 10
564.9008278966575
 20
4969.791155245028
 30
0.0
 41
75.0
 42
75.0
 43
75.0
 50
270.0
  0
MTEXT
  5
8628
330
8040
100
AcDbEntity
  8
3
440
 16777216
100
AcDbMText
 10
489.9008278966568
 20
5394.791155245028
 30
0.0
 40
90.0
 41
0.0
 46
0.0
 71
     5
 72
     5
  1
\A1;850
 11
0.0000000000000001
 21
1.0
 31
0.0
 73
     1
 44
1.0
  0
POINT
  5
8629
330
8040
100
AcDbEntity
  8
DEFPOINTS
 62
     0
440
 16777216
100
AcDbPoint
 10
767.8365747163079
 20
5819.791155245027
 30
0.0
  0
POINT
  5
862A
330
8040
100
AcDbEntity
  8
DEFPOINTS
 62
     0
440
 16777216
100
AcDbPoint
 10
767.8365747163079
 20
4969.791155245028
 30
0.0
  0
POINT
  5
862B
330
8040
100
AcDbEntity
  8
DEFPOINTS
 62
     0
440
 16777216
100
AcDbPoint
 10
564.9008278966575
 20
4969.791155245028
 30
0.0
  0
ENDBLK
  5
850B
330
8040
100
AcDbEntity
  8
0
100
AcDbBlockEnd
  0
BLOCK
  5
81F3
330
804C
100
AcDbEntity
  8
0
100
AcDbBlockBegin
  2
*D11
 70
     1
 10
0.0
 20
0.0
 30
0.0
  3
*D11
  1

  0
LINE
  5
862C
330
804C
100
AcDbEntity
  8
3
440
 16777216
100
AcDbLine
 10
2767.83657471631
 20
6469.791155245028
 30
0.0
 11
3097.140820946225
 21
6469.791155245028
 31
0.0
  0
LINE
  5
862D
330
804C
100
AcDbEntity
  8
3
440
 16777216
100
AcDbLine
 10
2767.83657471631
 20
4969.791155245028
 30
0.0
 11
3097.140820946224
 21
4969.791155245028
 31
0.0
  0
LINE
  5
862E
330
804C
100
AcDbEntity
  8
3
440
 16777216
100
AcDbLine
 10
3067.140820946225
 20
6394.791155245028
 30
0.0
 11
3067.140820946224
 21
5044.791155245028
 31
0.0
  0
INSERT
  5
862F
330
804C
100
AcDbEntity
  8
3
440
 16777216
100
AcDbBlockReference
  2
ARROW
 10
3067.140820946225
 20
6469.791155245028
 30
0.0
 41
75.0
 42
75.0
 43
75.0
 50
90.0
  0
INSERT
  5
8630
330
804C
100
AcDbEntity
  8
3
440
 16777216
100
AcDbBlockReference
  2
ARROW
 10
3067.140820946224
 20
4969.791155245028
 30
0.0
 41
75.0
 42
75.0
 43
75.0
 50
270.0
  0
MTEXT
  5
8631
330
804C
100
AcDbEntity
  8
3
440
 16777216
100
AcDbMText
 10
2992.140820946224
 20
5719.791155245029
 30
0.0
 40
90.0
 41
0.0
 46
0.0
 71
     5
 72
     5
  1
\A1;1500
 11
0.0000000000000001
 21
1.0
 31
0.0
 73
     1
 44
1.0
  0
POINT
  5
8632
330
804C
100
AcDbEntity
  8
DEFPOINTS
 62
     0
440
 16777216
100
AcDbPoint
 10
2767.83657471631
 20
6469.791155245028
 30
0.0
  0
POINT
  5
8633
330
804C
100
AcDbEntity
  8
DEFPOINTS
 62
     0
440
 16777216
100
AcDbPoint
 10
2767.83657471631
 20
4969.791155245028
 30
0.0
  0
POINT
  5
8634
330
804C
100
AcDbEntity
  8
DEFPOINTS
 62
     0
440
 16777216
100
AcDbPoint
 10
3067.140820946224
 20
4969.791155245028
 30
0.0
  0
ENDBLK
  5
81FD
330
804C
100
AcDbEntity
  8
0
100
AcDbBlockEnd
  0
BLOCK
  5
8261
330
8064
100
AcDbEntity
  8
0
100
AcDbBlockBegin
  2
*D12
 70
     1
 10
0.0
 20
0.0
 30
0.0
  3
*D12
  1

  0
LINE
  5
8635
330
8064
100
AcDbEntity
  8
3
440
 16777216
100
AcDbLine
 10
767.8365747163097
 20
2365.968775878827
 30
0.0
 11
767.8365747163098
 21
4287.154584241856
 31
0.0
  0
LINE
  5
8636
330
8064
100
AcDbEntity
  8
3
440
 16777216
100
AcDbLine
 10
2827.836574716308
 20
3924.468775878828
 30
0.0
 11
2827.836574716308
 21
4287.154584241856
 31
0.0
  0
LINE
  5
8637
330
8064
100
AcDbEntity
  8
3
440
 16777216
100
AcDbLine
 10
842.8365747163098
 20
4257.154584241856
 30
0.0
 11
2752.836574716308
 21
4257.154584241856
 31
0.0
  0
INSERT
  5
8638
330
8064
100
AcDbEntity
  8
3
440
 16777216
100
AcDbBlockReference
  2
ARROW
 10
767.8365747163098
 20
4257.154584241856
 30
0.0
 41
75.0
 42
75.0
 43
75.0
 50
180.0
  0
INSERT
  5
8639
330
8064
100
AcDbEntity
  8
3
440
 16777216
100
AcDbBlockReference
  2
ARROW
 10
2827.836574716308
 20
4257.154584241856
 30
0.0
 41
75.0
 42
75.0
 43
75.0
  0
MTEXT
  5
863A
330
8064
100
AcDbEntity
  8
3
440
 16777216
100
AcDbMText
 10
1797.836574716309
 20
4332.154584241856
 30
0.0
 40
90.0
 41
0.0
 46
0.0
 71
     5
 72
     5
  1
\A1;2060
 73
     1
 44
1.0
  0
POINT
  5
863B
330
8064
100
AcDbEntity
  8
DEFPOINTS
 62
     0
440
 16777216
100
AcDbPoint
 10
767.8365747163097
 20
2365.968775878827
 30
0.0
  0
POINT
  5
863C
330
8064
100
AcDbEntity
  8
DEFPOINTS
 62
     0
440
 16777216
100
AcDbPoint
 10
2827.836574716308
 20
3924.468775878828
 30
0.0
  0
POINT
  5
863D
330
8064
100
AcDbEntity
  8
DEFPOINTS
 62
     0
440
 16777216
100
AcDbPoint
 10
2827.836574716308
 20
4257.154584241856
 30
0.0
  0
ENDBLK
  5
826B
330
8064
100
AcDbEntity
  8
0
100
AcDbBlockEnd
  0
BLOCK
  5
83AF
330
8070
100
AcDbEntity
  8
0
100
AcDbBlockBegin
  2
*D13
 70
     1
 10
0.0
 20
0.0
 30
0.0
  3
*D13
  1

  0
LINE
  5
863E
330
8070
100
AcDbEntity
  8
3
440
 16777216
100
AcDbLine
 10
5610.496303707846
 20
2470.968775878828
 30
0.0
 11
5979.144523447374
 21
2470.968775878828
 31
0.0
  0
LINE
  5
863F
330
8070
100
AcDbEntity
  8
3
440
 16777216
100
AcDbLine
 10
5610.496303707847
 20
3370.968775878828
 30
0.0
 11
5979.144523447374
 21
3370.968775878828
 31
0.0
  0
LINE
  5
8640
330
8070
100
AcDbEntity
  8
3
440
 16777216
100
AcDbLine
 10
5949.144523447372
 20
2545.968775878828
 30
0.0
 11
5949.144523447372
 21
3295.968775878828
 31
0.0
  0
INSERT
  5
8641
330
8070
100
AcDbEntity
  8
3
440
 16777216
100
AcDbBlockReference
  2
ARROW
 10
5949.144523447372
 20
2470.968775878828
 30
0.0
 41
75.0
 42
75.0
 43
75.0
 50
270.0
  0
INSERT
  5
8642
330
8070
100
AcDbEntity
  8
3
440
 16777216
100
AcDbBlockReference
  2
ARROW
 10
5949.144523447372
 20
3370.968775878828
 30
0.0
 41
75.0
 42
75.0
 43
75.0
 50
90.0
  0
MTEXT
  5
8643
330
8070
100
AcDbEntity
  8
3
440
 16777216
100
AcDbMText
 10
5874.144523447372
 20
2920.968775878829
 30
0.0
 40
90.0
 41
0.0
 46
0.0
 71
     5
 72
     5
  1
\A1;φ900
 11
0.0000000000000001
 21
1.0
 31
0.0
 73
     1
 44
1.0
  0
POINT
  5
8644
330
8070
100
AcDbEntity
  8
DEFPOINTS
 62
     0
440
 16777216
100
AcDbPoint
 10
5610.496303707846
 20
2470.968775878828
 30
0.0
  0
POINT
  5
8645
330
8070
100
AcDbEntity
  8
DEFPOINTS
 62
     0
440
 16777216
100
AcDbPoint
 10
5610.496303707847
 20
3370.968775878828
 30
0.0
  0
POINT
  5
8646
330
8070
100
AcDbEntity
  8
DEFPOINTS
 62
     0
440
 16777216
100
AcDbPoint
 10
5949.144523447372
 20
3370.968775878828
 30
0.0
  0
ENDBLK
  5
83B9
330
8070
100
AcDbEntity
  8
0
100
AcDbBlockEnd
  0
BLOCK
  5
8399
330
80A0
100
AcDbEntity
  8
0
100
AcDbBlockBegin
  2
*D14
 70
     1
 10
0.0
 20
0.0
 30
0.0
  3
*D14
  1

  0
LINE
  5
8647
330
80A0
100
AcDbEntity
  8
3
440
 16777216
100
AcDbLine
 10
4424.996303707847
 20
3924.468775878828
 30
0.0
 11
4424.996303707847
 21
4102.912341491486
 31
0.0
  0
LINE
  5
8648
330
80A0
100
AcDbEntity
  8
3
440
 16777216
100
AcDbLine
 10
5604.996303707846
 20
3924.468775878828
 30
0.0
 11
5604.996303707846
 21
4102.912341491486
 31
0.0
  0
LINE
  5
8649
330
80A0
100
AcDbEntity
  8
3
440
 16777216
100
AcDbLine
 10
4499.996303707847
 20
4072.912341491487
 30
0.0
 11
5529.996303707847
 21
4072.912341491487
 31
0.0
  0
INSERT
  5
864A
330
80A0
100
AcDbEntity
  8
3
440
 16777216
100
AcDbBlockReference
  2
ARROW
 10
4424.996303707847
 20
4072.912341491487
 30
0.0
 41
75.0
 42
75.0
 43
75.0
 50
180.0
  0
INSERT
  5
864B
330
80A0
100
AcDbEntity
  8
3
440
 16777216
100
AcDbBlockReference
  2
ARROW
 10
5604.996303707846
 20
4072.912341491487
 30
0.0
 41
75.0
 42
75.0
 43
75.0
  0
MTEXT
  5
864C
330
80A0
100
AcDbEntity
  8
3
440
 16777216
100
AcDbMText
 10
5014.996303707847
 20
4147.912341491486
 30
0.0
 40
90.0
 41
0.0
 46
0.0
 71
     5
 72
     5
  1
\A1;1180
 73
     1
 44
1.0
  0
POINT
  5
864D
330
80A0
100
AcDbEntity
  8
DEFPOINTS
 62
     0
440
 16777216
100
AcDbPoint
 10
4424.996303707847
 20
3924.468775878828
 30
0.0
  0
POINT
  5
864E
330
80A0
100
AcDbEntity
  8
DEFPOINTS
 62
     0
440
 16777216
100
AcDbPoint
 10
5604.996303707846
 20
3924.468775878828
 30
0.0
  0
POINT
  5
864F
330
80A0
100
AcDbEntity
  8
DEFPOINTS
 62
     0
440
 16777216
100
AcDbPoint
 10
5604.996303707846
 20
4072.912341491487
 30
0.0
  0
ENDBLK
  5
83A3
330
80A0
100
AcDbEntity
  8
0
100
AcDbBlockEnd
  0
BLOCK
  5
845C
330
845B
100
AcDbEntity
  8
0
100
AcDbBlockBegin
  2
_OPEN
 70
     0
 10
0.0
 20
0.0
 30
0.0
  3
_OPEN
  1

  0
LINE
  5
845D
330
845B
100
AcDbEntity
  8
0
  6
ByBlock
 62
     0
100
AcDbLine
 10
-1.0
 20
0.1666666666666666
 30
0.0
 11
0.0
 21
0.0
 31
0.0
  0
LINE
  5
845E
330
845B
100
AcDbEntity
  8
0
  6
ByBlock
 62
     0
100
AcDbLine
 10
0.0
 20
0.0
 30
0.0
 11
-1.0
 21
-0.1666666666666666
 31
0.0
  0
LINE
  5
845F
330
845B
100
AcDbEntity
  8
0
  6
ByBlock
 62
     0
100
AcDbLine
 10
0.0
 20
0.0
 30
0.0
 11
-1.0
 21
0.0
 31
0.0
  0
ENDBLK
  5
8460
330
845B
100
AcDbEntity
  8
0
100
AcDbBlockEnd
  0
BLOCK
  5
855A
330
8559
100
AcDbEntity
  8
0
100
AcDbBlockBegin
  2
*D18
 70
     1
 10
0.0
 20
0.0
 30
0.0
  3
*D18
  1

  0
LINE
  5
855B
330
8559
100
AcDbEntity
  8
0
  6
ByBlock
 62
     0
440
 16777216
100
AcDbLine
 10
767.8365747163097
 20
2225.968775878828
 30
0.0
 11
767.8365747163097
 21
2033.146938477305
 31
0.0
  0
LINE
  5
855C
330
8559
100
AcDbEntity
  8
0
  6
ByBlock
 62
     0
440
 16777216
100
AcDbLine
 10
2207.836574716308
 20
2225.968775878828
 30
0.0
 11
2207.836574716308
 21
2033.146938477305
 31
0.0
  0
LINE
  5
855D
330
8559
100
AcDbEntity
  8
0
  6
ByBlock
 62
     0
440
 16777216
100
AcDbLine
 10
827.8365747163098
 20
2063.146938477304
 30
0.0
 11
2147.836574716308
 21
2063.146938477304
 31
0.0
  0
INSERT
  5
855E
330
8559
100
AcDbEntity
  8
0
  6
ByBlock
 62
     0
440
 16777216
100
AcDbBlockReference
  2
_OPEN
 10
767.8365747163097
 20
2063.146938477304
 30
0.0
 41
60.0
 42
60.0
 43
60.0
 50
180.0
  0
INSERT
  5
855F
330
8559
100
AcDbEntity
  8
0
  6
ByBlock
 62
     0
440
 16777216
100
AcDbBlockReference
  2
_OPEN
 10
2207.836574716308
 20
2063.146938477304
 30
0.0
 41
60.0
 42
60.0
 43
60.0
  0
MTEXT
  5
8560
330
8559
100
AcDbEntity
  8
0
  6
ByBlock
 62
     0
440
 16777216
100
AcDbMText
 10
1487.836574716309
 20
2138.146938477305
 30
0.0
 40
90.0
 41
0.0
 46
0.0
 71
     5
 72
     5
  1
\A1;1440
 73
     1
 44
1.0
  0
POINT
  5
8561
330
8559
100
AcDbEntity
  8
DEFPOINTS
  6
ByBlock
 62
     0
440
 16777216
100
AcDbPoint
 10
767.8365747163097
 20
2240.968775878828
 30
0.0
  0
POINT
  5
8562
330
8559
100
AcDbEntity
  8
DEFPOINTS
  6
ByBlock
 62
     0
440
 16777216
100
AcDbPoint
 10
2207.836574716308
 20
2240.968775878828
 30
0.0
  0
POINT
  5
8563
330
8559
100
AcDbEntity
  8
DEFPOINTS
  6
ByBlock
 62
     0
440
 16777216
100
AcDbPoint
 10
2207.836574716308
 20
2063.146938477304
 30
0.0
  0
ENDBLK
  5
8564
330
8559
100
AcDbEntity
  8
0
100
AcDbBlockEnd
  0
BLOCK
  5
8567
330
8566
100
AcDbEntity
  8
0
100
AcDbBlockBegin
  2
*D19
 70
     1
 10
0.0
 20
0.0
 30
0.0
  3
*D19
  1

  0
LINE
  5
8568
330
8566
100
AcDbEntity
  8
0
  6
ByBlock
 62
     0
440
 16777216
100
AcDbLine
 10
2207.836574716308
 20
2225.968775878828
 30
0.0
 11
2207.836574716308
 21
2033.146938477305
 31
0.0
  0
LINE
  5
8569
330
8566
100
AcDbEntity
  8
0
  6
ByBlock
 62
     0
440
 16777216
100
AcDbLine
 10
2767.83657471631
 20
2225.968775878828
 30
0.0
 11
2767.83657471631
 21
2033.146938477305
 31
0.0
  0
LINE
  5
856A
330
8566
100
AcDbEntity
  8
0
  6
ByBlock
 62
     0
440
 16777216
100
AcDbLine
 10
2267.836574716308
 20
2063.146938477304
 30
0.0
 11
2707.83657471631
 21
2063.146938477304
 31
0.0
  0
INSERT
  5
856B
330
8566
100
AcDbEntity
  8
0
  6
ByBlock
 62
     0
440
 16777216
100
AcDbBlockReference
  2
_OPEN
 10
2207.836574716308
 20
2063.146938477304
 30
0.0
 41
60.0
 42
60.0
 43
60.0
 50
180.0
  0
INSERT
  5
856C
330
8566
100
AcDbEntity
  8
0
  6
ByBlock
 62
     0
440
 16777216
100
AcDbBlockReference
  2
_OPEN
 10
2767.83657471631
 20
2063.146938477304
 30
0.0
 41
60.0
 42
60.0
 43
60.0
  0
MTEXT
  5
856D
330
8566
100
AcDbEntity
  8
0
  6
ByBlock
 62
     0
440
 16777216
100
AcDbMText
 10
2487.836574716309
 20
2138.146938477305
 30
0.0
 40
90.0
 41
0.0
 46
0.0
 71
     5
 72
     5
  1
\A1;560
 73
     1
 44
1.0
  0
POINT
  5
856E
330
8566
100
AcDbEntity
  8
DEFPOINTS
  6
ByBlock
 62
     0
440
 16777216
100
AcDbPoint
 10
2207.836574716308
 20
2240.968775878828
 30
0.0
  0
POINT
  5
856F
330
8566
100
AcDbEntity
  8
DEFPOINTS
  6
ByBlock
 62
     0
440
 16777216
100
AcDbPoint
 10
2767.83657471631
 20
2240.968775878828
 30
0.0
  0
POINT
  5
8570
330
8566
100
AcDbEntity
  8
DEFPOINTS
  6
ByBlock
 62
     0
440
 16777216
100
AcDbPoint
 10
2767.83657471631
 20
2063.146938477304
 30
0.0
  0
ENDBLK
  5
8571
330
8566
100
AcDbEntity
  8
0
100
AcDbBlockEnd
  0
BLOCK
  5
8574
330
8573
100
AcDbEntity
  8
0
100
AcDbBlockBegin
  2
*D20
 70
     1
 10
0.0
 20
0.0
 30
0.0
  3
*D20
  1

  0
LINE
  5
8575
330
8573
100
AcDbEntity
  8
0
  6
ByBlock
 62
     0
440
 16777216
100
AcDbLine
 10
4172.996303707846
 20
2225.968775878828
 30
0.0
 11
4172.996303707846
 21
2033.146938477305
 31
0.0
  0
LINE
  5
8576
330
8573
100
AcDbEntity
  8
0
  6
ByBlock
 62
     0
440
 16777216
100
AcDbLine
 10
5014.996303707847
 20
2225.968775878828
 30
0.0
 11
5014.996303707847
 21
2033.146938477305
 31
0.0
  0
LINE
  5
8577
330
8573
100
AcDbEntity
  8
0
  6
ByBlock
 62
     0
440
 16777216
100
AcDbLine
 10
4232.996303707847
 20
2063.146938477304
 30
0.0
 11
4954.996303707847
 21
2063.146938477304
 31
0.0
  0
INSERT
  5
8578
330
8573
100
AcDbEntity
  8
0
  6
ByBlock
 62
     0
440
 16777216
100
AcDbBlockReference
  2
_OPEN
 10
4172.996303707846
 20
2063.146938477304
 30
0.0
 41
60.0
 42
60.0
 43
60.0
 50
180.0
  0
INSERT
  5
8579
330
8573
100
AcDbEntity
  8
0
  6
ByBlock
 62
     0
440
 16777216
100
AcDbBlockReference
  2
_OPEN
 10
5014.996303707847
 20
2063.146938477304
 30
0.0
 41
60.0
 42
60.0
 43
60.0
  0
MTEXT
  5
857A
330
8573
100
AcDbEntity
  8
0
  6
ByBlock
 62
     0
440
 16777216
100
AcDbMText
 10
4593.996303707847
 20
2138.146938477305
 30
0.0
 40
90.0
 41
0.0
 46
0.0
 71
     5
 72
     5
  1
\A1;842
 73
     1
 44
1.0
  0
POINT
  5
857B
330
8573
100
AcDbEntity
  8
DEFPOINTS
  6
ByBlock
 62
     0
440
 16777216
100
AcDbPoint
 10
4172.996303707846
 20
2240.968775878828
 30
0.0
  0
POINT
  5
857C
330
8573
100
AcDbEntity
  8
DEFPOINTS
  6
ByBlock
 62
     0
440
 16777216
100
AcDbPoint
 10
5014.996303707847
 20
2240.968775878828
 30
0.0
  0
POINT
  5
857D
330
8573
100
AcDbEntity
  8
DEFPOINTS
  6
ByBlock
 62
     0
440
 16777216
100
AcDbPoint
 10
5014.996303707847
 20
2063.146938477304
 30
0.0
  0
ENDBLK
  5
857E
330
8573
100
AcDbEntity
  8
0
100
AcDbBlockEnd
  0
BLOCK
  5
8581
330
8580
100
AcDbEntity
  8
0
100
AcDbBlockBegin
  2
*D21
 70
     1
 10
0.0
 20
0.0
 30
0.0
  3
*D21
  1

  0
LINE
  5
8582
330
8580
100
AcDbEntity
  8
0
  6
ByBlock
 62
     0
440
 16777216
100
AcDbLine
 10
5014.996303707847
 20
2225.968775878828
 30
0.0
 11
5014.996303707847
 21
2033.146938477305
 31
0.0
  0
LINE
  5
8583
330
8580
100
AcDbEntity
  8
0
  6
ByBlock
 62
     0
440
 16777216
100
AcDbLine
 10
5672.996303707846
 20
2225.968775878828
 30
0.0
 11
5672.996303707846
 21
2033.146938477305
 31
0.0
  0
LINE
  5
8584
330
8580
100
AcDbEntity
  8
0
  6
ByBlock
 62
     0
440
 16777216
100
AcDbLine
 10
5074.996303707847
 20
2063.146938477304
 30
0.0
 11
5612.996303707846
 21
2063.146938477304
 31
0.0
  0
INSERT
  5
8585
330
8580
100
AcDbEntity
  8
0
  6
ByBlock
 62
     0
440
 16777216
100
AcDbBlockReference
  2
_OPEN
 10
5014.996303707847
 20
2063.146938477304
 30
0.0
 41
60.0
 42
60.0
 43
60.0
 50
180.0
  0
INSERT
  5
8586
330
8580
100
AcDbEntity
  8
0
  6
ByBlock
 62
     0
440
 16777216
100
AcDbBlockReference
  2
_OPEN
 10
5672.996303707846
 20
2063.146938477304
 30
0.0
 41
60.0
 42
60.0
 43
60.0
  0
MTEXT
  5
8587
330
8580
100
AcDbEntity
  8
0
  6
ByBlock
 62
     0
440
 16777216
100
AcDbMText
 10
5343.996303707847
 20
2138.146938477305
 30
0.0
 40
90.0
 41
0.0
 46
0.0
 71
     5
 72
     5
  1
\A1;658
 73
     1
 44
1.0
  0
POINT
  5
8588
330
8580
100
AcDbEntity
  8
DEFPOINTS
  6
ByBlock
 62
     0
440
 16777216
100
AcDbPoint
 10
5014.996303707847
 20
2240.968775878828
 30
0.0
  0
POINT
  5
8589
330
8580
100
AcDbEntity
  8
DEFPOINTS
  6
ByBlock
 62
     0
440
 16777216
100
AcDbPoint
 10
5672.996303707846
 20
2240.968775878828
 30
0.0
  0
POINT
  5
858A
330
8580
100
AcDbEntity
  8
DEFPOINTS
  6
ByBlock
 62
     0
440
 16777216
100
AcDbPoint
 10
5672.996303707846
 20
2063.146938477304
 30
0.0
  0
ENDBLK
  5
858B
330
8580
100
AcDbEntity
  8
0
100
AcDbBlockEnd
  0
BLOCK
  5
858E
330
858D
100
AcDbEntity
  8
0
100
AcDbBlockBegin
  2
*D22
 70
     1
 10
0.0
 20
0.0
 30
0.0
  3
*D22
  1

  0
LINE
  5
858F
330
858D
100
AcDbEntity
  8
0
  6
ByBlock
 62
     0
440
 16777216
100
AcDbLine
 10
2842.836574716308
 20
3881.968775878828
 30
0.0
 11
3354.857125212173
 21
3881.968775878828
 31
0.0
  0
LINE
  5
8590
330
858D
100
AcDbEntity
  8
0
  6
ByBlock
 62
     0
440
 16777216
100
AcDbLine
 10
2782.836574716308
 20
2240.968775878828
 30
0.0
 11
3354.857125212173
 21
2240.968775878828
 31
0.0
  0
LINE
  5
8591
330
858D
100
AcDbEntity
  8
0
  6
ByBlock
 62
     0
440
 16777216
100
AcDbLine
 10
3324.857125212173
 20
3821.968775878828
 30
0.0
 11
3324.857125212173
 21
2300.968775878828
 31
0.0
  0
INSERT
  5
8592
330
858D
100
AcDbEntity
  8
0
  6
ByBlock
 62
     0
440
 16777216
100
AcDbBlockReference
  2
_OPEN
 10
3324.857125212173
 20
3881.968775878828
 30
0.0
 41
60.0
 42
60.0
 43
60.0
 50
90.0
  0
INSERT
  5
8593
330
858D
100
AcDbEntity
  8
0
  6
ByBlock
 62
     0
440
 16777216
100
AcDbBlockReference
  2
_OPEN
 10
3324.857125212173
 20
2240.968775878828
 30
0.0
 41
60.0
 42
60.0
 43
60.0
 50
270.0
  0
MTEXT
  5
8594
330
858D
100
AcDbEntity
  8
0
  6
ByBlock
 62
     0
440
 16777216
100
AcDbMText
 10
3249.857125212173
 20
3061.468775878828
 30
0.0
 40
90.0
 41
0.0
 46
0.0
 71
     5
 72
     5
  1
\A1;1641
 11
0.0
 21
1.0
 31
0.0
 73
     1
 44
1.0
  0
POINT
  5
8595
330
858D
100
AcDbEntity
  8
DEFPOINTS
  6
ByBlock
 62
     0
440
 16777216
100
AcDbPoint
 10
2827.836574716308
 20
3881.968775878828
 30
0.0
  0
POINT
  5
8596
330
858D
100
AcDbEntity
  8
DEFPOINTS
  6
ByBlock
 62
     0
440
 16777216
100
AcDbPoint
 10
2767.836574716308
 20
2240.968775878828
 30
0.0
  0
POINT
  5
8597
330
858D
100
AcDbEntity
  8
DEFPOINTS
  6
ByBlock
 62
     0
440
 16777216
100
AcDbPoint
 10
3324.857125212173
 20
2240.968775878828
 30
0.0
  0
ENDBLK
  5
8598
330
858D
100
AcDbEntity
  8
0
100
AcDbBlockEnd
  0
BLOCK
  5
86C1
330
86C0
100
AcDbEntity
  8
0
100
AcDbBlockBegin
  2
*D23
 70
     1
 10
0.0
 20
0.0
 30
0.0
  3
*D23
  1

  0
LINE
  5
871B
330
86C0
100
AcDbEntity
  8
3
 62
     0
440
 16777216
370
    -2
100
AcDbLine
 10
4044.996303707845
 20
3155.968775878828
 30
0.0
 11
4044.996303707845
 21
4325.223413265844
 31
0.0
  0
LINE
  5
871C
330
86C0
100
AcDbEntity
  8
3
 62
     0
440
 16777216
370
    -2
100
AcDbLine
 10
5014.996303707848
 20
4207.912341491486
 30
0.0
 11
5014.996303707848
 21
4325.223413265844
 31
0.0
  0
LINE
  5
871D
330
86C0
100
AcDbEntity
  8
3
 62
     0
440
 16777216
370
    -2
100
AcDbLine
 10
4104.996303707845
 20
4295.223413265845
 30
0.0
 11
4954.996303707847
 21
4295.223413265845
 31
0.0
  0
INSERT
  5
871E
330
86C0
100
AcDbEntity
  8
3
 62
     0
440
 16777216
370
    -2
100
AcDbBlockReference
  2
_OPEN
 10
4044.996303707845
 20
4295.223413265845
 30
0.0
 41
60.0
 42
60.0
 43
60.0
 50
180.0
  0
INSERT
  5
871F
330
86C0
100
AcDbEntity
  8
3
 62
     0
440
 16777216
370
    -2
100
AcDbBlockReference
  2
_OPEN
 10
5014.996303707848
 20
4295.223413265845
 30
0.0
 41
60.0
 42
60.0
 43
60.0
  0
MTEXT
  5
8720
330
86C0
100
AcDbEntity
  8
3
 62
     0
440
 16777216
100
AcDbMText
 10
4529.996303707847
 20
4393.794841837273
 30
0.0
 40
90.0
 41
0.0
 46
0.0
 71
     5
 72
     1
  1
\A1;(970)
 73
     1
 44
1.0
  0
POINT
  5
8721
330
86C0
100
AcDbEntity
  8
DEFPOINTS
 62
     0
440
 16777216
100
AcDbPoint
 10
4044.996303707845
 20
3140.968775878828
 30
0.0
  0
POINT
  5
8722
330
86C0
100
AcDbEntity
  8
DEFPOINTS
 62
     0
440
 16777216
100
AcDbPoint
 10
5014.996303707848
 20
4192.912341491487
 30
0.0
  0
POINT
  5
8723
330
86C0
100
AcDbEntity
  8
DEFPOINTS
 62
     0
440
 16777216
100
AcDbPoint
 10
5014.996303707848
 20
4295.223413265845
 30
0.0
  0
ENDBLK
  5
86C2
330
86C0
100
AcDbEntity
  8
0
100
AcDbBlockEnd
  0
BLOCK
  5
86CE
330
86CD
100
AcDbEntity
  8
0
100
AcDbBlockBegin
  2
*D24
 70
     1
 10
0.0
 20
0.0
 30
0.0
  3
*D24
  1

  0
LINE
  5
8724
330
86CD
100
AcDbEntity
  8
3
 62
     0
440
 16777216
370
    -2
100
AcDbLine
 10
5014.996303707848
 20
4207.912341491486
 30
0.0
 11
5014.996303707848
 21
4325.223413265844
 31
0.0
  0
LINE
  5
8725
330
86CD
100
AcDbEntity
  8
3
 62
     0
440
 16777216
370
    -2
100
AcDbLine
 10
5734.496303707846
 20
2896.468775878828
 30
0.0
 11
5734.496303707846
 21
4325.223413265844
 31
0.0
  0
LINE
  5
8726
330
86CD
100
AcDbEntity
  8
3
 62
     0
440
 16777216
370
    -2
100
AcDbLine
 10
5074.996303707848
 20
4295.223413265845
 30
0.0
 11
5674.496303707846
 21
4295.223413265845
 31
0.0
  0
INSERT
  5
8727
330
86CD
100
AcDbEntity
  8
3
 62
     0
440
 16777216
370
    -2
100
AcDbBlockReference
  2
_OPEN
 10
5014.996303707848
 20
4295.223413265845
 30
0.0
 41
60.0
 42
60.0
 43
60.0
 50
180.0
  0
INSERT
  5
8728
330
86CD
100
AcDbEntity
  8
3
 62
     0
440
 16777216
370
    -2
100
AcDbBlockReference
  2
_OPEN
 10
5734.496303707846
 20
4295.223413265845
 30
0.0
 41
60.0
 42
60.0
 43
60.0
  0
MTEXT
  5
8729
330
86CD
100
AcDbEntity
  8
3
 62
     0
440
 16777216
100
AcDbMText
 10
5374.746303707847
 20
4393.794841837273
 30
0.0
 40
90.0
 41
0.0
 46
0.0
 71
     5
 72
     1
  1
\A1;(720)
 73
     1
 44
1.0
  0
POINT
  5
872A
330
86CD
100
AcDbEntity
  8
DEFPOINTS
 62
     0
440
 16777216
100
AcDbPoint
 10
5014.996303707848
 20
4192.912341491487
 30
0.0
  0
POINT
  5
872B
330
86CD
100
AcDbEntity
  8
DEFPOINTS
 62
     0
440
 16777216
100
AcDbPoint
 10
5734.496303707846
 20
2881.468775878828
 30
0.0
  0
POINT
  5
872C
330
86CD
100
AcDbEntity
  8
DEFPOINTS
 62
     0
440
 16777216
100
AcDbPoint
 10
5734.496303707846
 20
4295.223413265845
 30
0.0
  0
ENDBLK
  5
86CF
330
86CD
100
AcDbEntity
  8
0
100
AcDbBlockEnd
  0
ENDSEC
  0
SECTION
  2
ENTITIES
  0
INSERT
  5
7EF9
330
19
100
AcDbEntity
  8
0
100
AcDbBlockReference
  2
YA_N
 10
6.0
 20
5.0
 30
0.0
  0
LINE
  5
7EFB
330
19
100
AcDbEntity
  8
2
100
AcDbLine
 10
2864.091913494855
 20
2920.968775878828
 30
0.0
 11
1362.511820077616
 21
2920.968775878828
 31
0.0
  0
LINE
  5
7EFC
330
19
100
AcDbEntity
  8
2
100
AcDbLine
 10
2207.836574716308
 20
3922.931218222385
 30
0.0
 11
2207.836574716308
 21
2240.968775878828
 31
0.0
  0
ARC
  5
7EFD
330
19
100
AcDbEntity
  8
1
 48
10.0
100
AcDbCircle
 10
2274.836574716308
 20
2987.968775878828
 30
0.0
 40
844.0
100
AcDbArc
 50
94.55315238721905
 51
184.553152387219
  0
ARC
  5
7EFE
330
19
100
AcDbEntity
  8
1
 48
10.0
100
AcDbCircle
 10
2140.836574716308
 20
2987.968775878828
 30
0.0
 40
710.0
100
AcDbArc
 50
185.4148417061294
 51
241.1702404574356
  0
ARC
  5
7EFF
330
19
100
AcDbEntity
  8
1
 48
10.0
100
AcDbCircle
 10
2154.336574716308
 20
2867.468775878828
 30
0.0
 40
589.5
100
AcDbArc
 50
301.7098293401351
 51
5.207036088349489
  0
ARC
  5
7F00
330
19
100
AcDbEntity
  8
1
 48
10.0
100
AcDbCircle
 10
2261.336574716308
 20
2867.468775878828
 30
0.0
 40
482.5
100
AcDbArc
 50
6.366093980520057
 51
10.68983170690951
  0
LINE
  5
7F01
330
19
100
AcDbEntity
  8
1
 48
10.0
100
AcDbLine
 10
2827.836574716308
 20
3924.468775878828
 30
0.0
 11
2827.836574716308
 21
2914.468775878828
 31
0.0
  0
LINE
  5
7F02
330
19
100
AcDbEntity
  8
1
 48
10.0
100
AcDbLine
 10
2827.836574716308
 20
2956.968775878828
 30
0.0
 11
2735.463140097325
 21
2956.968775878828
 31
0.0
  0
LINE
  5
7F03
330
19
100
AcDbEntity
  8
1
 48
10.0
100
AcDbLine
 10
2827.836574716308
 20
3881.968775878828
 30
0.0
 11
2207.836574716308
 21
3829.305212745793
 31
0.0
  0
LINE
  5
7F04
330
19
100
AcDbEntity
  8
1
 48
10.0
100
AcDbLine
 10
2827.836574716308
 20
3924.468775878828
 30
0.0
 11
2824.836574716308
 21
3924.468775878828
 31
0.0
  0
LINE
  5
7F05
330
19
100
AcDbEntity
  8
1
 48
10.0
100
AcDbLine
 10
2827.836574716308
 20
2914.468775878828
 30
0.0
 11
2824.836574716308
 21
2914.468775878828
 31
0.0
  0
LINE
  5
7F06
330
19
100
AcDbEntity
  8
1
 48
10.0
100
AcDbLine
 10
2824.836574716308
 20
3924.468775878828
 30
0.0
 11
2824.836574716308
 21
2914.468775878828
 31
0.0
  0
LINE
  5
7F07
330
19
100
AcDbEntity
  8
1
 48
10.0
100
AcDbLine
 10
767.8365747163097
 20
2365.968775878828
 30
0.0
 11
767.8365747163097
 21
2240.968775878828
 31
0.0
  0
LINE
  5
7F08
330
19
100
AcDbEntity
  8
1
 48
10.0
100
AcDbLine
 10
2767.836574716308
 20
2365.968775878828
 30
0.0
 11
2767.836574716308
 21
2240.968775878828
 31
0.0
  0
LINE
  5
7F09
330
19
100
AcDbEntity
  8
1
 48
10.0
100
AcDbLine
 10
767.8365747163097
 20
2240.968775878828
 30
0.0
 11
2767.83657471631
 21
2240.968775878828
 31
0.0
1001
ACAD
1000
ASC_BOUNDS
1002
{
1070
    19
1002
}
  0
LINE
  5
7F0A
330
19
100
AcDbEntity
  8
1
 48
10.0
100
AcDbLine
 10
767.8365747163097
 20
2365.968775878827
 30
0.0
 11
2767.83657471631
 21
2365.968775878828
 31
0.0
  0
LINE
  5
7F0B
330
19
100
AcDbEntity
  8
2
100
AcDbLine
 10
1007.836574716308
 20
2908.971266874932
 30
0.0
 11
1007.836574716308
 21
2240.968775878827
 31
0.0
  0
LINE
  5
7F0C
330
19
100
AcDbEntity
  8
2
100
AcDbLine
 10
742.3778823200536
 20
2640.968775878828
 30
0.0
 11
1222.679501170141
 21
2640.968775878828
 31
0.0
  0
LINE
  5
7F0D
330
19
100
AcDbEntity
  8
2
100
AcDbLine
 10
4124.417205062149
 20
2920.968775878828
 30
0.0
 11
5725.515951465585
 21
2920.968775878828
 31
0.0
  0
POINT
  5
7F0F
330
19
100
AcDbEntity
  8
1
 48
10.0
100
AcDbPoint
 10
1434.004911588516
 20
2920.968775878828
 30
0.0
  0
INSERT
  5
7F10
330
19
100
AcDbEntity
  8
0
 48
10.0
100
AcDbBlockReference
  2
YA_N
 10
-1638.667820090515
 20
-980.7401201518077
 30
0.0
 41
20.0
 42
20.0
 43
20.0
  0
INSERT
  5
7F12
330
19
100
AcDbEntity
  8
0
 48
10.0
100
AcDbBlockReference
  2
YA_N
 10
-1552.816625123014
 20
-1070.405552057982
 30
0.0
 41
20.0
 42
20.0
 43
20.0
  0
ARC
  5
7F14
330
19
100
AcDbEntity
  8
1
 48
10.0
100
AcDbCircle
 10
1007.836574716308
 20
2640.968775878828
 30
0.0
 40
185.0
100
AcDbArc
 50
287.945251
 51
252.054749
  0
LINE
  5
7F15
330
19
100
AcDbEntity
  8
1
 48
10.0
100
AcDbLine
 10
1064.836574716308
 20
2464.968775878828
 30
0.0
 11
950.8365747163079
 21
2464.968775878828
 31
0.0
  0
LINE
  5
7F16
330
19
100
AcDbEntity
  8
1
 48
10.0
100
AcDbLine
 10
1169.836574716308
 20
2536.227808878828
 30
0.0
 11
1169.836574716308
 21
2460.968775878828
 31
0.0
  0
LINE
  5
7F17
330
19
100
AcDbEntity
  8
1
 48
10.0
100
AcDbLine
 10
1169.836574716308
 20
2536.227808878828
 30
0.0
 11
1163.452602716308
 21
2540.925562878828
 31
0.0
  0
LINE
  5
7F18
330
19
100
AcDbEntity
  8
1
 48
10.0
100
AcDbLine
 10
845.836574716308
 20
2536.227808878828
 30
0.0
 11
845.836574716308
 21
2460.968775878828
 31
0.0
  0
LINE
  5
7F19
330
19
100
AcDbEntity
  8
1
 48
10.0
100
AcDbLine
 10
845.836574716308
 20
2536.227808878828
 30
0.0
 11
852.2204857163087
 21
2540.925562878828
 31
0.0
  0
LINE
  5
7F1A
330
19
100
AcDbEntity
  8
1
 48
10.0
100
AcDbLine
 10
782.8365747163079
 20
2405.968775878828
 30
0.0
 11
1232.836574716308
 21
2405.968775878828
 31
0.0
  0
LINE
  5
7F1B
330
19
100
AcDbEntity
  8
1
 48
10.0
100
AcDbLine
 10
807.8365747163079
 20
2405.968775878828
 30
0.0
 11
807.8365747163079
 21
2365.968775878828
 31
0.0
  0
LINE
  5
7F1C
330
19
100
AcDbEntity
  8
1
 48
10.0
100
AcDbLine
 10
1207.836574716308
 20
2405.968775878828
 30
0.0
 11
1207.836574716308
 21
2365.968775878828
 31
0.0
  0
LINE
  5
7F1D
330
19
100
AcDbEntity
  8
1
 48
10.0
100
AcDbLine
 10
797.7350363151854
 20
2460.968775878828
 30
0.0
 11
937.836574716308
 21
2460.968775878828
 31
0.0
  0
LINE
  5
7F1E
330
19
100
AcDbEntity
  8
1
 48
10.0
100
AcDbLine
 10
1232.836574716308
 20
2405.968775878828
 30
0.0
 11
1217.634258081796
 21
2460.968775878828
 31
0.0
  0
LINE
  5
7F1F
330
19
100
AcDbEntity
  8
1
 48
10.0
100
AcDbLine
 10
782.8365747163079
 20
2405.968775878828
 30
0.0
 11
797.7350363151854
 21
2460.968775878828
 31
0.0
  0
LINE
  5
7F21
330
19
100
AcDbEntity
  8
1
 48
10.0
100
AcDbLine
 10
937.836574716308
 20
2450.968775878828
 30
0.0
 11
1077.836574716308
 21
2450.968775878828
 31
0.0
  0
LINE
  5
7F22
330
19
100
AcDbEntity
  8
1
 48
10.0
100
AcDbLine
 10
937.836574716308
 20
2460.968775878828
 30
0.0
 11
937.836574716308
 21
2450.968775878828
 31
0.0
  0
LINE
  5
7F23
330
19
100
AcDbEntity
  8
1
 48
10.0
100
AcDbLine
 10
1077.836574716308
 20
2460.968775878828
 30
0.0
 11
1077.836574716308
 21
2450.968775878828
 31
0.0
  0
LINE
  5
7F24
330
19
100
AcDbEntity
  8
1
 48
10.0
100
AcDbLine
 10
1077.836574716308
 20
2460.968775878828
 30
0.0
 11
1217.634258081796
 21
2460.968775878828
 31
0.0
  0
DIMENSION
  5
7F2D
330
19
100
AcDbEntity
  8
3
 48
10.0
100
AcDbDimension
280
     0
  2
*D2
 10
2977.45168315952
 20
2956.968775878828
 30
0.0
 11
2902.451683159519
 21
3419.468775878828
 31
0.0
 70
    32
 71
     5
 42
-1.0
 73
     0
 74
     0
 75
     0
  3
MATSU
100
AcDbAlignedDimension
 13
2827.836574716308
 23
3881.968775878828
 33
0.0
 14
2827.836574716308
 24
2956.968775878828
 34
0.0
 50
270.0
100
AcDbRotatedDimension
1001
ACAD
1000
DSTYLE
1002
{
1070
   287
1070
     3
1070
    40
1040
30.0
1070
    41
1040
2.5
1070
    42
1040
0.0
1070
   147
1040
1.0
1070
   272
1070
     4
1070
   284
1070
     0
1070
   289
1070
     3
1070
     6
1000
ARROW
1070
     7
1000
ARROW
1002
}
  0
DIMENSION
  5
7F2E
330
19
100
AcDbEntity
  8
3
 48
10.0
100
AcDbDimension
280
     0
  2
*D3
 10
3127.794983257381
 20
2920.968775878828
 30
0.0
 11
3052.794983257381
 21
3401.468775878829
 31
0.0
 70
    32
 71
     5
 42
-1.0
 73
     0
 74
     0
 75
     0
  3
MATSU
100
AcDbAlignedDimension
 13
2827.836574716308
 23
3881.968775878828
 33
0.0
 14
2864.091913494855
 24
2920.968775878828
 34
0.0
 50
270.0
100
AcDbRotatedDimension
1001
ACAD
1000
DSTYLE
1002
{
1070
   287
1070
     3
1070
    40
1040
30.0
1070
    41
1040
2.5
1070
    42
1040
0.0
1070
   147
1040
1.0
1070
   272
1070
     4
1070
   284
1070
     0
1070
   289
1070
     3
1070
     6
1000
ARROW
1070
     7
1000
ARROW
1002
}
  0
DIMENSION
  5
7F2F
330
19
100
AcDbEntity
  8
3
 48
10.0
100
AcDbDimension
280
     0
  2
*D4
 10
3127.794983257381
 20
2240.968775878827
 30
0.0
 11
3052.794983257381
 21
2580.968775878828
 31
0.0
 70
    32
 71
     5
 42
-1.0
 73
     0
 74
     0
 75
     0
  3
MATSU
100
AcDbAlignedDimension
 13
2864.091913494855
 23
2920.968775878828
 33
0.0
 14
2767.83657471631
 24
2240.968775878828
 34
0.0
 50
270.0
100
AcDbRotatedDimension
1001
ACAD
1000
DSTYLE
1002
{
1070
   287
1070
     3
1070
    40
1040
30.0
1070
    41
1040
2.5
1070
    42
1040
0.0
1070
   147
1040
1.0
1070
   272
1070
     4
1070
   284
1070
     0
1070
   289
1070
     3
1070
     6
1000
ARROW
1070
     7
1000
ARROW
1002
}
  0
POINT
  5
7F36
330
19
100
AcDbEntity
  8
1
 48
10.0
100
AcDbPoint
 10
2767.836574716308
 20
2240.968775878828
 30
0.0
  0
DIMENSION
  5
7F37
330
19
100
AcDbEntity
  8
3
 48
10.0
100
AcDbDimension
280
     0
  2
*D5
 10
2207.836574716308
 20
4075.363185594459
 30
0.0
 11
2517.836574716308
 21
4150.363185594459
 31
0.0
 70
    32
 71
     5
 42
-1.0
 73
     0
 74
     0
 75
     0
  3
MATSU
100
AcDbAlignedDimension
 13
2827.836574716308
 23
3924.468775878828
 33
0.0
 14
2207.836574716308
 24
3922.931218222385
 34
0.0
100
AcDbRotatedDimension
1001
ACAD
1000
DSTYLE
1002
{
1070
   287
1070
     3
1070
    40
1040
30.0
1070
    41
1040
2.5
1070
    42
1040
0.0
1070
   147
1040
1.0
1070
   272
1070
     4
1070
   284
1070
     0
1070
   289
1070
     3
1070
     6
1000
ARROW
1070
     7
1000
ARROW
1002
}
  0
DIMENSION
  5
7F38
330
19
100
AcDbEntity
  8
3
 48
10.0
100
AcDbDimension
280
     0
  2
*D6
 10
1434.004911588516
 20
4075.606385583884
 30
0.0
 11
1820.920743152412
 21
4150.606385583883
 31
0.0
 70
    32
  1
777
 71
     5
 42
-1.0
 73
     0
 74
     0
 75
     0
  3
MATSU
100
AcDbAlignedDimension
 13
2207.836574716308
 23
3922.931218222385
 33
0.0
 14
1434.004911588516
 24
2920.968775878828
 34
0.0
100
AcDbRotatedDimension
1001
ACAD
1000
DSTYLE
1002
{
1070
   287
1070
     3
1070
    40
1040
30.0
1070
    41
1040
2.5
1070
    42
1040
0.0
1070
   147
1040
1.0
1070
   272
1070
     4
1070
   284
1070
     0
1070
   289
1070
     3
1070
     6
1000
ARROW
1070
     7
1000
ARROW
1002
}
  0
CIRCLE
  5
7F39
330
19
100
AcDbEntity
  8
1
 48
10.0
100
AcDbCircle
 10
1007.836574716308
 20
2640.968775878828
 30
0.0
 40
119.0
  0
LINE
  5
7F3A
330
19
100
AcDbEntity
  8
2
100
AcDbLine
 10
4044.996303707849
 20
2640.968775878828
 30
0.0
 11
4424.996303707845
 21
2640.968775878828
 31
0.0
  0
CIRCLE
  5
7F3B
330
19
100
AcDbEntity
  8
1
 48
10.0
100
AcDbCircle
 10
2207.836574716308
 20
2920.968775878828
 30
0.0
 40
119.0
  0
LINE
  5
7F3C
330
19
100
AcDbEntity
  8
1
 48
10.0
100
AcDbLine
 10
2472.836574716308
 20
2371.968775878828
 30
0.0
 11
2472.836574716308
 21
2365.968775878828
 31
0.0
  0
LINE
  5
7F3D
330
19
100
AcDbEntity
  8
1
 48
10.0
100
AcDbLine
 10
767.8365747163079
 20
4969.791155245028
 30
0.0
 11
2767.83657471631
 21
4969.791155245028
 31
0.0
  0
LINE
  5
7F3E
330
19
100
AcDbEntity
  8
1
 48
10.0
100
AcDbLine
 10
1647.83657471631
 20
6469.791155245028
 30
0.0
 11
2767.83657471631
 21
6469.791155245028
 31
0.0
  0
LINE
  5
7F3F
330
19
100
AcDbEntity
  8
1
 48
10.0
100
AcDbLine
 10
2767.83657471631
 20
4969.791155245028
 30
0.0
 11
2767.83657471631
 21
5221.791155245028
 31
0.0
  0
LINE
  5
7F40
330
19
100
AcDbEntity
  8
1
 48
10.0
100
AcDbLine
 10
767.8365747163079
 20
5819.791155245027
 30
0.0
 11
767.8365747163079
 21
4969.791155245028
 31
0.0
  0
LINE
  5
7F41
330
19
100
AcDbEntity
  8
1
 48
10.0
100
AcDbLine
 10
1647.83657471631
 20
6401.791155245028
 30
0.0
 11
1647.83657471631
 21
6469.791155245028
 31
0.0
  0
LINE
  5
7F42
330
19
100
AcDbEntity
  8
1
 48
10.0
100
AcDbLine
 10
767.8365747163079
 20
5819.791155245027
 30
0.0
 11
1430.83657471631
 21
5819.791155245027
 31
0.0
  0
ARC
  5
7F43
330
19
100
AcDbEntity
  8
1
 48
10.0
100
AcDbCircle
 10
2207.836574716308
 20
2920.968775878828
 30
0.0
 40
220.0
100
AcDbArc
 50
283.1340223063963
 51
103.1340223063963
  0
ARC
  5
7F44
330
19
100
AcDbEntity
  8
1
 48
10.0
100
AcDbCircle
 10
1007.836574716308
 20
2640.968775878828
 30
0.0
 40
220.0
100
AcDbArc
 50
103.1340223063963
 51
283.1340223063963
  0
LINE
  5
7F45
330
19
100
AcDbEntity
  8
1
 48
10.0
100
AcDbLine
 10
2157.846059282896
 20
3135.213842022022
 30
0.0
 11
957.846059282896
 21
2855.213842022022
 31
0.0
  0
LINE
  5
7F46
330
19
100
AcDbEntity
  8
1
 48
10.0
100
AcDbLine
 10
2180.796250459145
 20
3036.855879838101
 30
0.0
 11
980.7962504591451
 21
2756.855879838101
 31
0.0
  0
LINE
  5
7F47
330
19
100
AcDbEntity
  8
1
 48
10.0
100
AcDbLine
 10
2234.876898973473
 20
2805.081671919555
 30
0.0
 11
1034.876898973472
 21
2525.081671919554
 31
0.0
  0
LINE
  5
7F48
330
19
100
AcDbEntity
  8
1
 48
10.0
100
AcDbLine
 10
2257.827090149721
 20
2706.723709735634
 30
0.0
 11
1057.827090149721
 21
2426.723709735633
 31
0.0
  0
LINE
  5
7F4B
330
19
100
AcDbEntity
  8
2
100
AcDbLine
 10
1430.83657471631
 20
5811.791155245026
 30
0.0
 11
2899.920848129059
 21
5811.791155245028
 31
0.0
  0
LINE
  5
7F4C
330
19
100
AcDbEntity
  8
2
100
AcDbLine
 10
2207.83657471631
 20
4841.791155245028
 30
0.0
 11
2207.83657471631
 21
6608.878571977841
 31
0.0
  0
LINE
  5
7F4D
330
19
100
AcDbEntity
  8
2
100
AcDbLine
 10
1007.83657471631
 20
4841.791155245028
 30
0.0
 11
1007.83657471631
 21
5583.291155245028
 31
0.0
  0
DIMENSION
  5
7F4E
330
19
100
AcDbEntity
  8
3
 48
10.0
100
AcDbDimension
280
     0
  2
*D7
 10
2767.83657471631
 20
6767.873710840014
 30
0.0
 11
2207.83657471631
 21
6842.873710840014
 31
0.0
 70
    32
 71
     5
 42
-1.0
 73
     0
 74
     0
 75
     0
  3
MATSU
100
AcDbAlignedDimension
 13
1647.83657471631
 23
6469.791155245028
 33
0.0
 14
2767.83657471631
 24
6469.791155245028
 34
0.0
100
AcDbRotatedDimension
1001
ACAD
1000
DSTYLE
1002
{
1070
   287
1070
     3
1070
    40
1040
30.0
1070
    41
1040
2.5
1070
    42
1040
0.0
1070
   147
1040
1.0
1070
   272
1070
     4
1070
   284
1070
     0
1070
   289
1070
     3
1070
     6
1000
ARROW
1070
     7
1000
ARROW
1002
}
  0
DIMENSION
  5
7F4F
330
19
100
AcDbEntity
  8
3
 48
10.0
100
AcDbDimension
280
     0
  2
*D8
 10
1647.83657471631
 20
6767.873710840014
 30
0.0
 11
1207.836574716309
 21
6842.873710840014
 31
0.0
 70
    32
 71
     5
 42
-1.0
 73
     0
 74
     0
 75
     0
  3
MATSU
100
AcDbAlignedDimension
 13
767.8365747163079
 23
5819.791155245027
 33
0.0
 14
1647.83657471631
 24
6469.791155245028
 34
0.0
100
AcDbRotatedDimension
1001
ACAD
1000
DSTYLE
1002
{
1070
   287
1070
     3
1070
    40
1040
30.0
1070
    41
1040
2.5
1070
    42
1040
0.0
1070
   147
1040
1.0
1070
   272
1070
     4
1070
   284
1070
     0
1070
   289
1070
     3
1070
     6
1000
ARROW
1070
     7
1000
ARROW
1002
}
  0
DIMENSION
  5
7F50
330
19
100
AcDbEntity
  8
3
 48
10.0
100
AcDbDimension
280
     0
  2
*D9
 10
2767.83657471631
 20
4573.75173082571
 30
0.0
 11
1767.836574716309
 21
4573.75173082571
 31
0.0
 70
   160
 71
     5
 42
-1.0
 73
     0
 74
     0
 75
     0
  3
MATSU
100
AcDbAlignedDimension
 13
767.8365747163079
 23
4969.791155245028
 33
0.0
 14
2767.83657471631
 24
4969.791155245028
 34
0.0
100
AcDbRotatedDimension
1001
ACAD
1000
DSTYLE
1002
{
1070
   287
1070
     3
1070
    40
1040
30.0
1070
    41
1040
2.5
1070
    42
1040
0.0
1070
   147
1040
1.0
1070
   272
1070
     4
1070
   284
1070
     0
1070
   289
1070
     3
1070
     6
1000
ARROW
1070
     7
1000
ARROW
1002
}
  0
DIMENSION
  5
7F51
330
19
100
AcDbEntity
  8
3
 48
10.0
100
AcDbDimension
280
     0
  2
*D10
 10
564.9008278966575
 20
4969.791155245028
 30
0.0
 11
489.9008278966568
 21
5394.791155245028
 31
0.0
 70
    32
 71
     5
 42
-1.0
 73
     0
 74
     0
 75
     0
  3
MATSU
100
AcDbAlignedDimension
 13
767.8365747163079
 23
5819.791155245027
 33
0.0
 14
767.8365747163079
 24
4969.791155245028
 34
0.0
 50
90.0
100
AcDbRotatedDimension
1001
ACAD
1000
DSTYLE
1002
{
1070
   287
1070
     3
1070
    40
1040
30.0
1070
    41
1040
2.5
1070
    42
1040
0.0
1070
   147
1040
1.0
1070
   272
1070
     4
1070
   284
1070
     0
1070
   289
1070
     3
1070
     6
1000
ARROW
1070
     7
1000
ARROW
1002
}
  0
DIMENSION
  5
7F52
330
19
100
AcDbEntity
  8
3
 48
10.0
100
AcDbDimension
280
     0
  2
*D11
 10
3067.140820946224
 20
4969.791155245028
 30
0.0
 11
2992.140820946224
 21
5719.791155245029
 31
0.0
 70
    32
 71
     5
 42
-1.0
 73
     0
 74
     0
 75
     0
  3
MATSU
100
AcDbAlignedDimension
 13
2767.83657471631
 23
6469.791155245028
 33
0.0
 14
2767.83657471631
 24
4969.791155245028
 34
0.0
 50
90.0
100
AcDbRotatedDimension
1001
ACAD
1000
DSTYLE
1002
{
1070
   287
1070
     3
1070
    40
1040
30.0
1070
    41
1040
2.5
1070
    42
1040
0.0
1070
   147
1040
1.0
1070
   272
1070
     4
1070
   284
1070
     0
1070
   289
1070
     3
1070
     6
1000
ARROW
1070
     7
1000
ARROW
1002
}
  0
LINE
  5
7F53
330
19
100
AcDbEntity
  8
1
 48
10.0
100
AcDbLine
 10
1430.83657471631
 20
6401.791155245027
 30
0.0
 11
2827.83657471631
 21
6401.791155245027
 31
0.0
  0
LINE
  5
7F54
330
19
100
AcDbEntity
  8
1
 48
10.0
100
AcDbLine
 10
1430.83657471631
 20
5221.791155245028
 30
0.0
 11
2827.83657471631
 21
5221.791155245028
 31
0.0
  0
LINE
  5
7F55
330
19
100
AcDbEntity
  8
1
 48
10.0
100
AcDbLine
 10
2827.83657471631
 20
5181.791155245027
 30
0.0
 11
2827.83657471631
 21
6441.791155245027
 31
0.0
  0
LINE
  5
7F5B
330
19
100
AcDbEntity
  8
1
 48
10.0
100
AcDbLine
 10
2787.836574716308
 20
3878.571126644438
 30
0.0
 11
2787.836574716308
 21
2956.968775878828
 31
0.0
  0
LINE
  5
7F5C
330
19
100
AcDbEntity
  8
1
 48
10.0
100
AcDbLine
 10
2824.83657471631
 20
5181.791155245027
 30
0.0
 11
2824.83657471631
 21
6441.791155245027
 31
0.0
  0
LINE
  5
7F5D
330
19
100
AcDbEntity
  8
1
 48
10.0
100
AcDbLine
 10
1430.83657471631
 20
5221.791155245028
 30
0.0
 11
1430.83657471631
 21
6401.791155245027
 31
0.0
  0
LINE
  5
7F5E
330
19
100
AcDbEntity
  8
1
 48
10.0
100
AcDbLine
 10
1192.836574716309
 20
5026.791155245028
 30
0.0
 11
1192.836574716309
 21
5583.291155245028
 31
0.0
  0
LINE
  5
7F5F
330
19
100
AcDbEntity
  8
1
 48
10.0
100
AcDbLine
 10
822.8365747163097
 20
5026.791155245028
 30
0.0
 11
822.8365747163097
 21
5583.291155245029
 31
0.0
  0
LINE
  5
7F60
330
19
100
AcDbEntity
  8
1
 48
10.0
100
AcDbLine
 10
787.8365747163079
 20
4841.791155245028
 30
0.0
 11
2427.836574716308
 21
4841.791155245028
 31
0.0
  0
LINE
  5
7F61
330
19
100
AcDbEntity
  8
1
 48
10.0
100
AcDbLine
 10
2427.836574716308
 20
4841.791155245029
 30
0.0
 11
2427.836574716308
 21
5041.791155245029
 31
0.0
  0
LINE
  5
7F62
330
19
100
AcDbEntity
  8
1
 48
10.0
100
AcDbLine
 10
787.8365747163079
 20
4841.791155245028
 30
0.0
 11
787.8365747163079
 21
5041.791155245029
 31
0.0
  0
LINE
  5
7F63
330
19
100
AcDbEntity
  8
1
 48
10.0
100
AcDbLine
 10
787.8365747163079
 20
5041.791155245028
 30
0.0
 11
2427.836574716308
 21
5041.791155245028
 31
0.0
  0
LINE
  5
7F64
330
19
100
AcDbEntity
  8
1
 48
10.0
100
AcDbLine
 10
888.8365747163089
 20
4906.791155245029
 30
0.0
 11
1126.83657471631
 21
4906.791155245027
 31
0.0
  0
LINE
  5
7F65
330
19
100
AcDbEntity
  8
1
 48
10.0
100
AcDbLine
 10
888.8365747163089
 20
5016.791155245027
 30
0.0
 11
1126.83657471631
 21
5016.791155245027
 31
0.0
  0
LINE
  5
7F66
330
19
100
AcDbEntity
  8
1
 48
10.0
100
AcDbLine
 10
2326.83657471631
 20
4906.791155245027
 30
0.0
 11
2326.83657471631
 21
5016.791155245027
 31
0.0
  0
LINE
  5
7F67
330
19
100
AcDbEntity
  8
1
 48
10.0
100
AcDbLine
 10
2088.83657471631
 20
4906.791155245027
 30
0.0
 11
2088.83657471631
 21
5016.791155245027
 31
0.0
  0
LINE
  5
7F68
330
19
100
AcDbEntity
  8
1
 48
10.0
100
AcDbLine
 10
1126.83657471631
 20
4906.791155245027
 30
0.0
 11
1126.83657471631
 21
5016.791155245027
 31
0.0
  0
LINE
  5
7F69
330
19
100
AcDbEntity
  8
1
 48
10.0
100
AcDbLine
 10
888.8365747163097
 20
4906.791155245027
 30
0.0
 11
888.8365747163097
 21
5016.791155245027
 31
0.0
  0
LINE
  5
7F6A
330
19
100
AcDbEntity
  8
1
 48
10.0
100
AcDbLine
 10
2088.83657471631
 20
4906.791155245027
 30
0.0
 11
2326.83657471631
 21
4906.791155245027
 31
0.0
  0
LINE
  5
7F6B
330
19
100
AcDbEntity
  8
1
 48
10.0
100
AcDbLine
 10
2088.83657471631
 20
5016.791155245027
 30
0.0
 11
2326.83657471631
 21
5016.791155245027
 31
0.0
  0
LINE
  5
7F6C
330
19
100
AcDbEntity
  8
1
 48
10.0
100
AcDbLine
 10
1192.836574716309
 20
5026.791155245028
 30
0.0
 11
1007.83657471631
 21
5026.791155245028
 31
0.0
  0
LINE
  5
7F6D
330
19
100
AcDbEntity
  8
1
 48
10.0
100
AcDbLine
 10
982.8365747163097
 20
5016.791155245028
 30
0.0
 11
1032.836574716309
 21
5016.791155245028
 31
0.0
  0
LINE
  5
7F6E
330
19
100
AcDbEntity
  8
1
 48
10.0
100
AcDbLine
 10
822.8365747163097
 20
5026.791155245028
 30
0.0
 11
1007.83657471631
 21
5026.791155245028
 31
0.0
  0
LINE
  5
7F6F
330
19
100
AcDbEntity
  8
1
 48
10.0
100
AcDbLine
 10
942.8365747163097
 20
5041.791155245029
 30
0.0
 11
942.8365747163097
 21
5028.791155245029
 31
0.0
  0
ARC
  5
7F70
330
19
100
AcDbEntity
  8
1
 48
10.0
100
AcDbCircle
 10
944.8365747163098
 20
5028.791155245029
 30
0.0
 40
2.0
100
AcDbArc
 50
180.0
 51
270.0
  0
LINE
  5
7F71
330
19
100
AcDbEntity
  8
1
 48
10.0
100
AcDbLine
 10
982.8365747163097
 20
5016.791155245028
 30
0.0
 11
982.8365747163097
 21
5026.791155245028
 31
0.0
  0
LINE
  5
7F72
330
19
100
AcDbEntity
  8
1
 48
10.0
100
AcDbLine
 10
1032.836574716309
 20
5016.791155245028
 30
0.0
 11
1032.836574716309
 21
5026.791155245028
 31
0.0
  0
LINE
  5
7F73
330
19
100
AcDbEntity
  8
1
 48
10.0
100
AcDbLine
 10
1072.836574716309
 20
5041.791155245029
 30
0.0
 11
1072.836574716309
 21
5028.791155245029
 31
0.0
  0
ARC
  5
7F74
330
19
100
AcDbEntity
  8
1
 48
10.0
100
AcDbCircle
 10
1070.836574716309
 20
5028.791155245029
 30
0.0
 40
2.0
100
AcDbArc
 50
270.0
 51
0.0
  0
LINE
  5
7F75
330
19
100
AcDbEntity
  8
1
 48
10.0
100
AcDbLine
 10
1035.33657471631
 20
4906.791155245029
 30
0.0
 11
983.8365747163097
 21
4906.791155245029
 31
0.0
  0
LINE
  5
7F76
330
19
100
AcDbEntity
  8
1
 48
10.0
100
AcDbLine
 10
822.8365747163097
 20
5583.291155245029
 30
0.0
 11
1192.836574716309
 21
5583.291155245028
 31
0.0
  0
LINE
  5
7F77
330
19
100
AcDbEntity
  8
1
 48
10.0
100
AcDbLine
 10
2242.83657471631
 20
5016.791155245027
 30
0.0
 11
2242.83657471631
 21
5221.791155245028
 31
0.0
  0
LINE
  5
7F78
330
19
100
AcDbEntity
  8
1
 48
10.0
100
AcDbLine
 10
2172.83657471631
 20
5016.791155245027
 30
0.0
 11
2172.83657471631
 21
5221.791155245028
 31
0.0
  0
CIRCLE
  5
7F79
330
19
100
AcDbEntity
  8
1
 48
10.0
100
AcDbCircle
 10
2207.836574716308
 20
2920.968775878828
 30
0.0
 40
450.0
  0
CIRCLE
  5
7F7A
330
19
100
AcDbEntity
  8
1
 48
10.0
100
AcDbCircle
 10
2207.836574716308
 20
2920.968775878828
 30
0.0
 40
490.0
  0
LINE
  5
7F7C
330
19
100
AcDbEntity
  8
1
 48
10.0
100
AcDbLine
 10
4271.996303707846
 20
2825.968775878828
 30
0.0
 11
4271.996303707843
 21
2455.968775878828
 31
0.0
  0
LINE
  5
7F7D
330
19
100
AcDbEntity
  8
1
 48
10.0
100
AcDbLine
 10
4271.996303707846
 20
2825.968775878828
 30
0.0
 11
4286.996303707847
 21
2825.968775878828
 31
0.0
  0
LINE
  5
7F7E
330
19
100
AcDbEntity
  8
1
 48
10.0
100
AcDbLine
 10
4271.996303707843
 20
2455.968775878828
 30
0.0
 11
4424.996303707847
 21
2455.968775878828
 31
0.0
  0
LINE
  5
7F7F
330
19
100
AcDbEntity
  8
1
 48
10.0
100
AcDbLine
 10
4261.996303707845
 20
2665.968775878828
 30
0.0
 11
4271.996303707845
 21
2665.968775878828
 31
0.0
  0
LINE
  5
7F80
330
19
100
AcDbEntity
  8
1
 48
10.0
100
AcDbLine
 10
4261.996303707845
 20
2615.968775878828
 30
0.0
 11
4271.996303707844
 21
2615.968775878828
 31
0.0
  0
DIMENSION
  5
7F81
330
19
100
AcDbEntity
  8
3
 48
10.0
100
AcDbDimension
280
     0
  2
*D12
 10
2827.836574716308
 20
4257.154584241856
 30
0.0
 11
1797.836574716309
 21
4332.154584241856
 31
0.0
 70
    32
 71
     5
 42
-1.0
 73
     0
 74
     0
 75
     0
  3
MATSU
100
AcDbAlignedDimension
 13
767.8365747163097
 23
2365.968775878827
 33
0.0
 14
2827.836574716308
 24
3924.468775878828
 34
0.0
100
AcDbRotatedDimension
1001
ACAD
1000
DSTYLE
1002
{
1070
   287
1070
     3
1070
    40
1040
30.0
1070
    41
1040
2.5
1070
    42
1040
0.0
1070
   147
1040
1.0
1070
   272
1070
     4
1070
   284
1070
     0
1070
   289
1070
     3
1070
     6
1000
ARROW
1070
     7
1000
ARROW
1002
}
  0
DIMENSION
  5
7F83
330
19
100
AcDbEntity
  8
3
 48
10.0
100
AcDbDimension
280
     0
  2
*D13
 10
5949.144523447372
 20
3370.968775878828
 30
0.0
 11
5874.144523447372
 21
2920.968775878829
 31
0.0
 70
    32
  1
φ<>
 71
     5
 42
-1.0
 73
     0
 74
     0
 75
     0
  3
MATSU
100
AcDbAlignedDimension
 13
5610.496303707846
 23
2470.968775878828
 33
0.0
 14
5610.496303707847
 24
3370.968775878828
 34
0.0
 50
90.0
100
AcDbRotatedDimension
1001
ACAD
1000
DSTYLE
1002
{
1070
   287
1070
     3
1070
    40
1040
30.0
1070
    41
1040
2.5
1070
    42
1040
0.0
1070
   147
1040
1.0
1070
   272
1070
     4
1070
   284
1070
     0
1070
   289
1070
     3
1070
     6
1000
ARROW
1070
     7
1000
ARROW
1002
}
  0
LINE
  5
7F84
330
19
100
AcDbEntity
  8
1
 48
10.0
100
AcDbLine
 10
4044.996303707845
 20
3140.968775878828
 30
0.0
 11
4044.99630370785
 21
2420.968775878828
 31
0.0
  0
LINE
  5
7F85
330
19
100
AcDbEntity
  8
1
 48
10.0
100
AcDbLine
 10
4261.996303707848
 20
3039.968775878828
 30
0.0
 11
4261.996303707843
 21
2521.968775878828
 31
0.0
  0
LINE
  5
7F86
330
19
100
AcDbEntity
  8
1
 48
10.0
100
AcDbLine
 10
4151.996303707847
 20
3039.968775878828
 30
0.0
 11
4151.996303707843
 21
2521.968775878828
 31
0.0
  0
LINE
  5
7F8B
330
19
100
AcDbEntity
  8
1
 48
10.0
100
AcDbLine
 10
4172.696303707845
 20
2365.968775878828
 30
0.0
 11
5672.996303707847
 21
2365.968775878828
 31
0.0
  0
LINE
  5
7F8E
330
19
100
AcDbEntity
  8
1
 48
10.0
100
AcDbLine
 10
4172.996303707846
 20
2365.968775878828
 30
0.0
 11
4172.996303707847
 21
2240.968775878828
 31
0.0
  0
LINE
  5
7F8F
330
19
100
AcDbEntity
  8
1
 48
10.0
100
AcDbLine
 10
4044.99630370785
 20
2420.968775878828
 30
0.0
 11
4286.996303707851
 21
2420.968775878828
 31
0.0
  0
LINE
  5
7F90
330
19
100
AcDbEntity
  8
1
 48
10.0
100
AcDbLine
 10
4151.996303707843
 20
2521.968775878828
 30
0.0
 11
4261.996303707843
 21
2521.968775878828
 31
0.0
  0
LINE
  5
7F91
330
19
100
AcDbEntity
  8
1
 48
10.0
100
AcDbLine
 10
4286.99630370785
 20
2440.968775878828
 30
0.0
 11
4286.99630370785
 21
2420.968775878829
 31
0.0
  0
LINE
  5
7F93
330
19
100
AcDbEntity
  8
1
 48
10.0
100
AcDbLine
 10
4172.996303707846
 20
2240.968775878828
 30
0.0
 11
5672.996303707846
 21
2240.968775878828
 31
0.0
  0
LINE
  5
7F94
330
19
100
AcDbEntity
  8
1
 48
10.0
100
AcDbLine
 10
5672.996303707846
 20
2365.968775878828
 30
0.0
 11
5672.996303707846
 21
2240.968775878828
 31
0.0
  0
DIMENSION
  5
7F95
330
19
100
AcDbEntity
  8
3
 48
10.0
100
AcDbDimension
280
     0
  2
*D14
 10
5604.996303707846
 20
4072.912341491487
 30
0.0
 11
5014.996303707847
 21
4147.912341491486
 31
0.0
 70
    32
 71
     5
 42
-1.0
 73
     0
 74
     0
 75
     0
  3
MATSU
100
AcDbAlignedDimension
 13
4424.996303707847
 23
3924.468775878828
 33
0.0
 14
5604.996303707846
 24
3924.468775878828
 34
0.0
100
AcDbRotatedDimension
1001
ACAD
1000
DSTYLE
1002
{
1070
   287
1070
     3
1070
    40
1040
30.0
1070
    41
1040
2.5
1070
    42
1040
0.0
1070
   147
1040
1.0
1070
   272
1070
     4
1070
   284
1070
     0
1070
   289
1070
     3
1070
     6
1000
ARROW
1070
     7
1000
ARROW
1002
}
  0
LINE
  5
7F96
330
19
100
AcDbEntity
  8
1
 48
10.0
100
AcDbLine
 10
5014.996303707847
 20
2956.968775878828
 30
0.0
 11
5604.996303707846
 21
2956.968775878828
 31
0.0
  0
LINE
  5
7F97
330
19
100
AcDbEntity
  8
1
 48
10.0
100
AcDbLine
 10
5014.996303707848
 20
3881.968775878828
 30
0.0
 11
5604.996303707846
 21
3881.968775878828
 31
0.0
  0
LINE
  5
7F98
330
19
100
AcDbEntity
  8
1
 48
10.0
100
AcDbLine
 10
4424.996303707847
 20
3881.968775878828
 30
0.0
 11
4424.996303707845
 21
2365.968775878828
 31
0.0
  0
LINE
  5
7F99
330
19
100
AcDbEntity
  8
1
 48
10.0
100
AcDbLine
 10
5014.996303707847
 20
2956.968775878828
 30
0.0
 11
4424.996303707847
 21
2956.968775878828
 31
0.0
  0
LINE
  5
7F9A
330
19
100
AcDbEntity
  8
1
 48
10.0
100
AcDbLine
 10
4286.996303707847
 20
2859.968775878828
 30
0.0
 11
4286.996303707847
 21
2729.968775878828
 31
0.0
  0
LINE
  5
7F9B
330
19
100
AcDbEntity
  8
1
 48
10.0
100
AcDbLine
 10
4151.996303707846
 20
2759.968775878828
 30
0.0
 11
4261.996303707845
 21
2759.968775878828
 31
0.0
  0
LINE
  5
7F9C
330
19
100
AcDbEntity
  8
1
 48
10.0
100
AcDbLine
 10
4151.996303707846
 20
2801.968775878828
 30
0.0
 11
4261.996303707846
 21
2801.968775878828
 31
0.0
  0
LINE
  5
7F9D
330
19
100
AcDbEntity
  8
1
 48
10.0
100
AcDbLine
 10
4296.996303707848
 20
2719.968775878828
 30
0.0
 11
4424.996303707847
 21
2719.968775878828
 31
0.0
  0
ARC
  5
7F9E
330
19
100
AcDbEntity
  8
1
 48
10.0
100
AcDbCircle
 10
4296.996303707848
 20
2729.968775878828
 30
0.0
 40
10.0
100
AcDbArc
 50
180.0000000000003
 51
270.0
  0
LINE
  5
7F9F
330
19
100
AcDbEntity
  8
1
 48
10.0
100
AcDbLine
 10
4151.996303707847
 20
3039.968775878828
 30
0.0
 11
4261.996303707848
 21
3039.968775878828
 31
0.0
  0
LINE
  5
7FA0
330
19
100
AcDbEntity
  8
1
 48
10.0
100
AcDbLine
 10
4266.996303707847
 20
2955.968775878828
 30
0.0
 11
4266.996303707847
 21
2885.968775878828
 31
0.0
  0
LINE
  5
7FA1
330
19
100
AcDbEntity
  8
1
 48
10.0
100
AcDbLine
 10
4293.996303707847
 20
2971.768775878828
 30
0.0
 11
4293.996303707847
 21
2869.508167892997
 31
0.0
  0
LINE
  5
7FA2
330
19
100
AcDbEntity
  8
1
 48
10.0
100
AcDbLine
 10
4296.996303707847
 20
2869.968775878828
 30
0.0
 11
4424.996303707848
 21
2869.968775878828
 31
0.0
  0
LINE
  5
7FA3
330
19
100
AcDbEntity
  8
1
 48
10.0
100
AcDbLine
 10
4266.996303707847
 20
2885.968775878828
 30
0.0
 11
4293.996303707847
 21
2885.968775878828
 31
0.0
  0
LINE
  5
7FA4
330
19
100
AcDbEntity
  8
1
 48
10.0
100
AcDbLine
 10
4261.996303707847
 20
2893.468775878828
 30
0.0
 11
4266.996303707847
 21
2893.468775878828
 31
0.0
  0
ARC
  5
7FA5
330
19
100
AcDbEntity
  8
1
 48
10.0
100
AcDbCircle
 10
4296.996303707847
 20
2859.968775878828
 30
0.0
 40
10.0
100
AcDbArc
 50
90.0
 51
180.0000000000003
  0
LINE
  5
7FA6
330
19
100
AcDbEntity
  8
1
 48
10.0
100
AcDbLine
 10
4266.996303707847
 20
2955.968775878828
 30
0.0
 11
4293.996303707847
 21
2955.968775878828
 31
0.0
  0
LINE
  5
7FA7
330
19
100
AcDbEntity
  8
1
 48
10.0
100
AcDbLine
 10
4261.996303707847
 20
2948.468775878828
 30
0.0
 11
4266.996303707847
 21
2948.468775878828
 31
0.0
  0
LINE
  5
7FA8
330
19
100
AcDbEntity
  8
1
 48
10.0
100
AcDbLine
 10
4293.996303707847
 20
2971.768775878828
 30
0.0
 11
4424.996303707847
 21
2971.768775878828
 31
0.0
  0
LINE
  5
7FA9
330
19
100
AcDbEntity
  8
1
 48
10.0
100
AcDbLine
 10
4044.996303707845
 20
3140.968775878828
 30
0.0
 11
4286.996303707846
 21
3140.968775878828
 31
0.0
  0
POINT
  5
7FAA
330
19
100
AcDbEntity
  8
1
 48
10.0
100
AcDbPoint
 10
4044.996303707845
 20
3140.968775878828
 30
0.0
  0
LINE
  5
7FAB
330
19
100
AcDbEntity
  8
1
 48
10.0
100
AcDbLine
 10
4286.996303707844
 20
3140.968775878829
 30
0.0
 11
4286.996303707846
 21
3120.968775878828
 31
0.0
  0
LINE
  5
7FAC
330
19
100
AcDbEntity
  8
1
 48
10.0
100
AcDbLine
 10
5014.996303707846
 20
3881.968775878828
 30
0.0
 11
4424.996303707847
 21
3881.968775878828
 31
0.0
  0
LINE
  5
7FAD
330
19
100
AcDbEntity
  8
1
 48
10.0
100
AcDbLine
 10
5604.996303707846
 20
3881.968775878828
 30
0.0
 11
5604.996303707844
 21
2365.968775878828
 31
0.0
  0
ARC
  5
7FAE
330
19
100
AcDbEntity
  8
1
 48
10.0
100
AcDbCircle
 10
5724.496303707846
 20
2781.468775878828
 30
0.0
 40
10.0
100
AcDbArc
 50
270.0
 51
0.0000000000003257
  0
ARC
  5
7FAF
330
19
100
AcDbEntity
  8
1
 48
10.0
100
AcDbCircle
 10
5724.496303707846
 20
2881.468775878828
 30
0.0
 40
10.0
100
AcDbArc
 50
0.0000000000003257
 51
90.0
  0
LINE
  5
7FB0
330
19
100
AcDbEntity
  8
1
 48
10.0
100
AcDbLine
 10
5604.996303707844
 20
2771.468775878828
 30
0.0
 11
5724.496303707846
 21
2771.468775878828
 31
0.0
  0
LINE
  5
7FB1
330
19
100
AcDbEntity
  8
1
 48
10.0
100
AcDbLine
 10
5604.996303707844
 20
2891.468775878828
 30
0.0
 11
5724.496303707846
 21
2891.468775878828
 31
0.0
  0
LINE
  5
7FB2
330
19
100
AcDbEntity
  8
1
 48
10.0
100
AcDbLine
 10
5734.496303707846
 20
2881.468775878828
 30
0.0
 11
5734.496303707846
 21
2781.468775878828
 31
0.0
  0
POINT
  5
7FB3
330
19
100
AcDbEntity
  8
1
 48
10.0
100
AcDbPoint
 10
5734.496303707846
 20
2881.468775878828
 30
0.0
  0
LINE
  5
7FB4
330
19
100
AcDbEntity
  8
1
 48
10.0
100
AcDbLine
 10
5604.996303707846
 20
3881.968775878828
 30
0.0
 11
4424.996303707845
 21
2956.968775878828
 31
0.0
  0
LINE
  5
7FB5
330
19
100
AcDbEntity
  8
1
 48
10.0
100
AcDbLine
 10
4424.996303707847
 20
3881.968775878828
 30
0.0
 11
5604.996303707844
 21
2956.968775878828
 31
0.0
  0
LINE
  5
7FB8
330
19
100
AcDbEntity
  8
2
100
AcDbLine
 10
5014.996303707848
 20
4063.170616427511
 30
0.0
 11
5014.996303707847
 21
2240.968775878828
 31
0.0
  0
LINE
  5
7FBB
330
19
100
AcDbEntity
  8
1
 48
10.0
100
AcDbLine
 10
2767.83657471631
 20
6401.791155245027
 30
0.0
 11
2767.83657471631
 21
6469.791155245028
 31
0.0
  0
LINE
  5
842C
330
19
100
AcDbEntity
  8
4
100
AcDbLine
 10
5550.0
 20
1210.115599408851
 30
0.0
 11
5550.0
 21
610.1155994088513
 31
0.0
  0
LINE
  5
842D
330
19
100
AcDbEntity
  8
4
100
AcDbLine
 10
3450.0
 20
1210.115599408851
 30
0.0
 11
3450.0
 21
610.1155994088513
 31
0.0
  0
LINE
  5
842E
330
19
100
AcDbEntity
  8
4
100
AcDbLine
 10
1950.0
 20
1210.115599408851
 30
0.0
 11
1950.0
 21
610.1155994088513
 31
0.0
  0
LINE
  5
8431
330
19
100
AcDbEntity
  8
4
100
AcDbLine
 10
1950.0
 20
610.1155994088513
 30
0.0
 11
5550.0
 21
610.1155994088513
 31
0.0
  0
LINE
  5
8432
330
19
100
AcDbEntity
  8
4
100
AcDbLine
 10
1950.0
 20
910.1155994088513
 30
0.0
 11
5550.0
 21
910.1155994088513
 31
0.0
  0
TEXT
  5
8433
330
19
100
AcDbEntity
  8
4
100
AcDbText
 10
2065.506242540705
 20
1004.74467700869
 30
0.0
 40
150.0
  1
機器名称
100
AcDbText
  0
TEXT
  5
8434
330
19
100
AcDbEntity
  8
4
100
AcDbText
 10
2058.774318074393
 20
675.0510696048841
 30
0.0
 40
150.0
  1
機器型番
100
AcDbText
  0
TEXT
  5
8435
330
19
100
AcDbEntity
  8
4
100
AcDbText
 10
3531.367339482463
 20
976.0141427014996
 30
0.0
 40
120.0
  1
ミツヤリミットロードファン
100
AcDbText
  0
TEXT
  5
8436
330
19
100
AcDbEntity
  8
4
100
AcDbText
 10
3559.963486756442
 20
661.5943522486814
 30
0.0
 40
150.0
  1
LL#5 1/2-5
100
AcDbText
  0
TEXT
  5
8438
330
19
100
AcDbEntity
  8
4
100
AcDbText
 10
2318.324487672748
 20
7150.286523997547
 30
0.0
 40
161.9999999999999
  1
床置ベット
100
AcDbText
  0
TEXT
  5
8439
330
19
100
AcDbEntity
  8
4
100
AcDbText
 10
948.5027799883392
 20
7601.642928597894
 30
0.0
 40
216.0
  1
遠心式両吸込両持リミットロードファン
100
AcDbText
  0
LINE
  5
843A
330
19
100
AcDbEntity
  8
4
100
AcDbLine
 10
750.0
 20
7408.226262794414
 30
0.0
 11
5550.0
 21
7408.226262794414
 31
0.0
  0
LINE
  5
843B
330
19
100
AcDbEntity
  8
4
100
AcDbLine
 10
750.0
 20
8008.226262794414
 30
0.0
 11
5550.0
 21
8008.226262794414
 31
0.0
  0
LINE
  5
843C
330
19
100
AcDbEntity
  8
4
100
AcDbLine
 10
1950.0
 20
1210.115599408851
 30
0.0
 11
5550.0
 21
1210.115599408851
 31
0.0
  0
LINE
  5
843D
330
19
100
AcDbEntity
  8
4
100
AcDbLine
 10
750.0
 20
8008.226262794414
 30
0.0
 11
750.0
 21
7408.226262794414
 31
0.0
  0
TEXT
  5
843E
330
19
100
AcDbEntity
  8
4
100
AcDbText
 10
1010.747990944641
 20
7146.95843263903
 30
0.0
 40
161.9999999999999
  1
右回転右横向
100
AcDbText
  0
TEXT
  5
843F
330
19
100
AcDbEntity
  8
4
100
AcDbText
 10
4406.908677747869
 20
8118.183244485926
 30
0.0
 40
168.0
  1
No.
100
AcDbText
  0
TEXT
  5
8440
330
19
100
AcDbEntity
  8
4
100
AcDbText
 10
3933.88818780004
 20
7150.286523997547
 30
0.0
 40
161.9999999999999
  1
縮尺：1/30
100
AcDbText
  0
LINE
  5
8441
330
19
100
AcDbEntity
  8
4
100
AcDbLine
 10
5550.0
 20
8008.226262794414
 30
0.0
 11
5550.0
 21
7408.226262794414
 31
0.0
  0
LINE
  5
8442
330
19
100
AcDbEntity
  8
4
100
AcDbLine
 10
6300.0
 20
8850.0
 30
0.0
 11
6300.0
 21
8850.0
 31
0.0
  0
LINE
  5
8443
330
19
100
AcDbEntity
  8
4
100
AcDbLine
 10
4321.852267079594
 20
8043.790749376205
 30
0.0
 11
4321.852267079594
 21
8359.956784649257
 31
0.0
  0
LINE
  5
8444
330
19
100
AcDbEntity
  8
4
100
AcDbLine
 10
4321.852267079594
 20
8359.956784649257
 30
0.0
 11
5550.0
 21
8359.956784649257
 31
0.0
  0
LINE
  5
8445
330
19
100
AcDbEntity
  8
4
100
AcDbLine
 10
5550.0
 20
8359.956784649257
 30
0.0
 11
5550.0
 21
8043.790749376205
 31
0.0
  0
LINE
  5
8446
330
19
100
AcDbEntity
  8
4
100
AcDbLine
 10
5550.0
 20
8043.790749376205
 30
0.0
 11
4321.852267079594
 21
8043.790749376205
 31
0.0
  0
LINE
  5
8447
330
19
100
AcDbEntity
  8
4
100
AcDbLine
 10
0.0
 20
0.0
 30
0.0
 11
0.0
 21
8850.0
 31
0.0
  0
LINE
  5
8448
330
19
100
AcDbEntity
  8
4
100
AcDbLine
 10
0.0
 20
8850.0
 30
0.0
 11
6300.0
 21
8850.0
 31
0.0
  0
LINE
  5
8449
330
19
100
AcDbEntity
  8
4
100
AcDbLine
 10
6300.0
 20
8850.0
 30
0.0
 11
6300.0
 21
0.0
 31
0.0
  0
LINE
  5
844A
330
19
100
AcDbEntity
  8
4
100
AcDbLine
 10
6300.0
 20
0.0
 30
0.0
 11
0.0
 21
0.0
 31
0.0
  0
DIMENSION
  5
8565
330
19
100
AcDbEntity
  8
3
100
AcDbDimension
280
     0
  2
*D18
 10
2207.836574716308
 20
2063.146938477304
 30
0.0
 11
1487.836574716309
 21
2138.146938477305
 31
0.0
 70
    32
 71
     5
 42
-1.0
 73
     0
 74
     0
 75
     0
  3
IGA
100
AcDbAlignedDimension
 13
767.8365747163097
 23
2240.968775878828
 33
0.0
 14
2207.836574716308
 24
2240.968775878828
 34
0.0
100
AcDbRotatedDimension
1001
ACAD
1000
DSTYLE
1002
{
1070
   172
1070
     1
1070
    40
1040
30.0
1070
   271
1070
     0
1070
   143
1040
0.039
1002
}
  0
DIMENSION
  5
8572
330
19
100
AcDbEntity
  8
3
100
AcDbDimension
280
     0
  2
*D19
 10
2767.83657471631
 20
2063.146938477304
 30
0.0
 11
2487.836574716309
 21
2138.146938477305
 31
0.0
 70
    32
 71
     5
 42
-1.0
 73
     0
 74
     0
 75
     0
  3
IGA
100
AcDbAlignedDimension
 13
2207.836574716308
 23
2240.968775878828
 33
0.0
 14
2767.83657471631
 24
2240.968775878828
 34
0.0
100
AcDbRotatedDimension
1001
ACAD
1000
DSTYLE
1002
{
1070
   172
1070
     1
1070
    40
1040
30.0
1070
   271
1070
     0
1070
   143
1040
0.039
1002
}
  0
DIMENSION
  5
857F
330
19
100
AcDbEntity
  8
3
100
AcDbDimension
280
     0
  2
*D20
 10
5014.996303707847
 20
2063.146938477304
 30
0.0
 11
4593.996303707847
 21
2138.146938477305
 31
0.0
 70
    32
 71
     5
 42
-1.0
 73
     0
 74
     0
 75
     0
  3
IGA
100
AcDbAlignedDimension
 13
4172.996303707846
 23
2240.968775878828
 33
0.0
 14
5014.996303707847
 24
2240.968775878828
 34
0.0
100
AcDbRotatedDimension
1001
ACAD
1000
DSTYLE
1002
{
1070
   172
1070
     1
1070
    40
1040
30.0
1070
   271
1070
     0
1070
   143
1040
0.039
1002
}
  0
DIMENSION
  5
858C
330
19
100
AcDbEntity
  8
3
100
AcDbDimension
280
     0
  2
*D21
 10
5672.996303707846
 20
2063.146938477304
 30
0.0
 11
5343.996303707847
 21
2138.146938477305
 31
0.0
 70
    32
 71
     5
 42
-1.0
 73
     0
 74
     0
 75
     0
  3
IGA
100
AcDbAlignedDimension
 13
5014.996303707847
 23
2240.968775878828
 33
0.0
 14
5672.996303707846
 24
2240.968775878828
 34
0.0
100
AcDbRotatedDimension
1001
ACAD
1000
DSTYLE
1002
{
1070
   172
1070
     1
1070
    40
1040
30.0
1070
   271
1070
     0
1070
   143
1040
0.039
1002
}
  0
DIMENSION
  5
8599
330
19
100
AcDbEntity
  8
3
100
AcDbDimension
280
     0
  2
*D22
 10
3324.857125212173
 20
2240.968775878828
 30
0.0
 11
3249.857125212173
 21
3061.468775878828
 31
0.0
 70
    32
 71
     5
 42
-1.0
 73
     0
 74
     0
 75
     0
  3
IGA
100
AcDbAlignedDimension
 13
2827.836574716308
 23
3881.968775878828
 33
0.0
 14
2767.836574716308
 24
2240.968775878828
 34
0.0
 50
90.0
100
AcDbRotatedDimension
1001
ACAD
1000
DSTYLE
1002
{
1070
   172
1070
     1
1070
    40
1040
30.0
1070
   271
1070
     0
1070
   143
1040
0.039
1002
}
  0
DIMENSION
  5
86BF
330
19
100
AcDbEntity
  8
3
100
AcDbDimension
280
     0
  2
*D23
 10
5014.996303707848
 20
4295.223413265845
 30
0.0
 11
4529.996303707847
 21
4393.794841837273
 31
0.0
 70
    32
  1
(<>)
 71
     5
 42
970.0000000000027
 73
     0
 74
     0
 75
     0
  3
IGA
100
AcDbAlignedDimension
 13
4044.996303707845
 23
3140.968775878828
 33
0.0
 14
5014.996303707848
 24
4192.912341491487
 34
0.0
100
AcDbRotatedDimension
1001
ACAD
1000
DSTYLE
1002
{
1070
    40
1040
30.0
1070
   143
1040
0.039
1070
   172
1070
     1
1070
   271
1070
     0
1002
}
  0
DIMENSION
  5
86CC
330
19
100
AcDbEntity
  8
3
100
AcDbDimension
280
     0
  2
*D24
 10
5734.496303707846
 20
4295.223413265845
 30
0.0
 11
5374.746303707847
 21
4393.794841837273
 31
0.0
 70
    32
  1
(<>)
 71
     5
 42
719.4999999999981
 73
     0
 74
     0
 75
     0
  3
IGA
100
AcDbAlignedDimension
 13
5014.996303707848
 23
4192.912341491487
 33
0.0
 14
5734.496303707846
 24
2881.468775878828
 34
0.0
100
AcDbRotatedDimension
1001
ACAD
1000
DSTYLE
1002
{
1070
    40
1040
30.0
1070
   143
1040
0.039
1070
   172
1070
     1
1070
   271
1070
     0
1002
}
  0
ENDSEC
  0
SECTION
  2
OBJECTS
  0
DICTIONARY
  5
C
330
0
100
AcDbDictionary
281
     1
  3
ACAD_CIP_PREVIOUS_PRODUCT_INFO
350
86BE
  3
ACAD_COLOR
350
86A1
  3
ACAD_DETAILVIEWSTYLE
350
86BA
  3
ACAD_GROUP
350
D
  3
ACAD_LAYOUT
350
85A6
  3
ACAD_MATERIAL
350
866F
  3
ACAD_MLEADERSTYLE
350
86B6
  3
ACAD_MLINESTYLE
350
E
  3
ACAD_PLOTSETTINGS
350
85A7
  3
ACAD_PLOTSTYLENAME
350
85A4
  3
ACAD_SCALELIST
350
86A4
  3
ACAD_SECTIONVIEWSTYLE
350
86B8
  3
ACAD_TABLESTYLE
350
86A2
  3
ACAD_VISUALSTYLE
350
8688
  3
ACDB_RECOMPOSE_DATA
350
8756
  3
AcDbVariableDictionary
350
8666
  3
AcDsDecomposeData
350
875C
  0
DICTIONARY
  5
873A
330
2
100
AcDbDictionary
280
     1
281
     1
  3
ACAD_LAYERSTATES
360
873B
  0
DICTIONARY
  5
872D
330
F
100
AcDbDictionary
280
     1
281
     1
  3
ADSK_XREC_LAYER_RECONCILED
360
872E
  0
DICTIONARY
  5
872F
330
31
100
AcDbDictionary
280
     1
281
     1
  3
ADSK_XREC_LAYER_RECONCILED
360
8730
  0
DICTIONARY
  5
8731
330
76D0
100
AcDbDictionary
280
     1
281
     1
  3
ADSK_XREC_LAYER_RECONCILED
360
8732
  0
DICTIONARY
  5
8733
330
76D1
100
AcDbDictionary
280
     1
281
     1
  3
ADSK_XREC_LAYER_RECONCILED
360
8734
  0
DICTIONARY
  5
8735
330
76D2
100
AcDbDictionary
280
     1
281
     1
  3
ADSK_XREC_LAYER_RECONCILED
360
8736
  0
DICTIONARY
  5
85D3
330
19
100
AcDbDictionary
280
     1
281
     1
  3
ACAD_LAYOUTSELFREF
360
85D4
  0
DICTIONARY
  5
85D1
330
16
100
AcDbDictionary
280
     1
281
     1
  3
ACAD_LAYOUTSELFREF
360
85D2
  0
XRECORD
  5
86BE
102
{ACAD_REACTORS
330
C
102
}
330
C
100
AcDbXrecord
280
     1
300
ACDLT
300
2023
300

  0
DICTIONARY
  5
86A1
102
{ACAD_REACTORS
330
C
102
}
330
C
100
AcDbDictionary
281
     1
  0
DICTIONARY
  5
86BA
102
{ACAD_REACTORS
330
C
102
}
330
C
100
AcDbDictionary
281
     1
  3
Metric50
350
86BB
  0
DICTIONARY
  5
D
102
{ACAD_REACTORS
330
C
102
}
330
C
100
AcDbDictionary
281
     1
  0
DICTIONARY
  5
85A6
102
{ACAD_REACTORS
330
C
102
}
330
C
100
AcDbDictionary
281
     1
  3
Model
350
85A8
  3
ﾚｲｱｳﾄ1
350
85A9
  0
DICTIONARY
  5
866F
102
{ACAD_REACTORS
330
C
102
}
330
C
100
AcDbDictionary
281
     1
  3
ByBlock
350
8678
  3
ByLayer
350
8670
  3
Global
350
8680
  0
DICTIONARY
  5
86B6
102
{ACAD_REACTORS
330
C
102
}
330
C
100
AcDbDictionary
281
     1
  3
Standard
350
86B7
  0
DICTIONARY
  5
E
102
{ACAD_REACTORS
330
C
102
}
330
C
100
AcDbDictionary
281
     1
  3
STANDARD
350
1C
  0
DICTIONARY
  5
85A7
102
{ACAD_REACTORS
330
C
102
}
330
C
100
AcDbDictionary
281
     1
  0
ACDBDICTIONARYWDFLT
  5
85A4
102
{ACAD_REACTORS
330
C
102
}
330
C
100
AcDbDictionary
281
     1
  3
Normal
350
85A5
100
AcDbDictionaryWithDefault
340
85A5
  0
DICTIONARY
  5
86A4
102
{ACAD_REACTORS
330
C
102
}
330
C
100
AcDbDictionary
281
     1
  3
A0
350
86A5
  3
A1
350
86A6
  3
A2
350
86A7
  3
A3
350
86A8
  3
A4
350
86A9
  3
A5
350
86AA
  3
A6
350
86AB
  3
A7
350
86AC
  3
A8
350
86AD
  3
A9
350
86AE
  3
B0
350
86AF
  3
B1
350
86B0
  3
B2
350
86B1
  3
B3
350
86B2
  3
B4
350
86B3
  3
B5
350
86B4
  3
B6
350
86B5
  0
DICTIONARY
  5
86B8
102
{ACAD_REACTORS
330
C
102
}
330
C
100
AcDbDictionary
281
     1
  3
Metric50
350
86B9
  0
DICTIONARY
  5
86A2
102
{ACAD_REACTORS
330
C
102
}
330
C
100
AcDbDictionary
281
     1
  3
Standard
350
86A3
  0
DICTIONARY
  5
8688
102
{ACAD_REACTORS
330
C
102
}
330
C
100
AcDbDictionary
281
     1
  3
2dWireframe
350
868E
  3
Basic
350
868D
  3
Brighten
350
8694
  3
ColorChange
350
8698
  3
Conceptual
350
8691
  3
Dim
350
8693
  3
EdgeColorOff
350
86A0
  3
Facepattern
350
8697
  3
Flat
350
8689
  3
FlatWithEdges
350
868A
  3
Gouraud
350
868B
  3
GouraudWithEdges
350
868C
  3
Hidden
350
8690
  3
JitterOff
350
869E
  3
Linepattern
350
8696
  3
OverhangOff
350
869F
  3
Realistic
350
8692
  3
Shaded
350
869D
  3
Shaded with edges
350
869C
  3
Shades of Gray
350
8699
  3
Sketchy
350
869A
  3
Thicken
350
8695
  3
Wireframe
350
868F
  3
X-Ray
350
869B
  0
XRECORD
  5
8756
102
{ACAD_REACTORS
330
C
102
}
330
C
100
AcDbXrecord
280
     1
 90
        1
330
7F2D
330
7F2E
330
7F2F
330
7F37
330
7F38
330
7F4E
330
7F4F
330
7F50
330
7F51
330
7F52
330
7F81
330
7F83
330
7F95
330
86A3
  0
DICTIONARY
  5
8666
102
{ACAD_REACTORS
330
C
102
}
330
C
100
AcDbDictionary
281
     1
  3
CANNOSCALE
350
874B
  3
CMLEADERSTYLE
350
8747
  3
CTABLESTYLE
350
8746
  3
CVIEWDETAILSTYLE
350
8748
  3
CVIEWSECTIONSTYLE
350
8749
  3
DIMASSOC
350
8667
  3
LAYEREVAL
350
874D
  3
LAYERNOTIFY
350
874E
  3
LIGHTINGUNITS
350
874C
  3
MARKUPASSISTMODE
350
8753
  3
MSLTSCALE
350
874A
  0
DICTIONARY
  5
875C
102
{ACAD_REACTORS
330
C
102
}
330
C
100
AcDbDictionary
281
     1
  3
AcDsRecords
350
875E
  3
AcDsSchemas
350
875D
1001
ACAD
1070
     2
  0
DICTIONARY
  5
873B
102
{ACAD_REACTORS
330
873A
102
}
330
873A
100
AcDbDictionary
281
     1
  0
XRECORD
  5
872E
102
{ACAD_REACTORS
330
872D
102
}
330
872D
100
AcDbXrecord
280
     1
290
     1
  0
XRECORD
  5
8730
102
{ACAD_REACTORS
330
872F
102
}
330
872F
100
AcDbXrecord
280
     1
290
     1
  0
XRECORD
  5
8732
102
{ACAD_REACTORS
330
8731
102
}
330
8731
100
AcDbXrecord
280
     1
290
     1
  0
XRECORD
  5
8734
102
{ACAD_REACTORS
330
8733
102
}
330
8733
100
AcDbXrecord
280
     1
290
     1
  0
XRECORD
  5
8736
102
{ACAD_REACTORS
330
8735
102
}
330
8735
100
AcDbXrecord
280
     1
290
     1
  0
XRECORD
  5
85D4
102
{ACAD_REACTORS
330
85D3
102
}
330
85D3
100
AcDbXrecord
280
     1
340
19
  0
XRECORD
  5
85D2
102
{ACAD_REACTORS
330
85D1
102
}
330
85D1
100
AcDbXrecord
280
     1
340
16
  0
ACDBDETAILVIEWSTYLE
  5
86BB
102
{ACAD_XDICTIONARY
360
8761
102
}
102
{ACAD_REACTORS
330
86BA
102
}
330
86BA
100
AcDbModelDocViewStyle
 70
     0
  3
Metric50
290
     0
100
AcDbDetailViewStyle
 70
     0
 71
     0
 90
        3
 71
     1
340
10
 62
   256
 40
5.0
340
0
 62
   256
 40
5.0
300

 40
0.0
280
     1
 71
     2
340
15
 90
       25
 62
   256
 71
     3
340
10
 62
   256
 40
5.0
 90
        0
 40
15.0
 90
        1
300
%<\AcVar ViewDetailId>% (%<\AcVar ViewScale \f "%sn">%)
 71
     4
340
15
 90
       25
 62
   256
340
15
 90
       25
 62
   256
280
     0
  0
LAYOUT
  5
85A8
102
{ACAD_REACTORS
330
85A6
102
}
330
85A6
100
AcDbPlotSettings
  1

  2
\\Txbo34x8944cqyd\EPSON LP-6100
  4

  6

 40
0.0
 41
0.0
 42
0.0
 43
0.0
 44
0.0
 45
0.0
 46
0.0
 47
0.0
 48
0.0
 49
0.0
140
0.0
141
0.0
142
1.0
143
1.0
 70
  1712
 72
     0
 73
     0
 74
     0
  7
GOD2000TABLE.ctb
 75
     0
147
1.0
 76
     0
 77
     2
 78
   300
148
0.0
149
0.0
100
AcDbLayout
  1
Model
 70
     1
 71
     0
 10
0.0
 20
0.0
 11
12.0
 21
9.0
 12
0.0
 22
0.0
 32
0.0
 14
0.0
 24
0.0
 34
0.0
 15
0.0
 25
0.0
 35
0.0
146
0.0
 13
0.0
 23
0.0
 33
0.0
 16
1.0
 26
0.0
 36
0.0
 17
0.0
 27
1.0
 37
0.0
 76
     0
330
19
331
866D
  0
LAYOUT
  5
85A9
102
{ACAD_REACTORS
330
85A6
102
}
330
85A6
100
AcDbPlotSettings
  1

  2
\\Txbo34x8944cqyd\EPSON LP-6100
  4

  6

 40
0.0
 41
0.0
 42
0.0
 43
0.0
 44
0.0
 45
0.0
 46
0.0
 47
0.0
 48
0.0
 49
0.0
140
0.0
141
0.0
142
1.0
143
1.0
 70
   688
 72
     0
 73
     0
 74
     5
  7
GOD2000TABLE.ctb
 75
    16
147
1.0
 76
     0
 77
     2
 78
   300
148
0.0
149
0.0
100
AcDbLayout
  1
ﾚｲｱｳﾄ1
 70
     1
 71
     1
 10
0.0
 20
0.0
 11
12.0
 21
9.0
 12
0.0
 22
0.0
 32
0.0
 14
1.000000000000000E+20
 24
1.000000000000000E+20
 34
1.000000000000000E+20
 15
-1.000000000000000E+20
 25
-1.000000000000000E+20
 35
-1.000000000000000E+20
146
0.0
 13
0.0
 23
0.0
 33
0.0
 16
1.0
 26
0.0
 36
0.0
 17
0.0
 27
1.0
 37
0.0
 76
     0
330
16
  0
MATERIAL
  5
8678
102
{ACAD_XDICTIONARY
360
8679
102
}
102
{ACAD_REACTORS
330
866F
102
}
330
866F
100
AcDbMaterial
  1
ByBlock
 72
     0
 43
0.0208333333333333
 43
0.0
 43
0.0
 43
0.0
 43
0.0
 43
0.0208333333333333
 43
0.0
 43
0.0
 43
0.0
 43
0.0
 43
1.0
 43
0.0
 43
0.0
 43
0.0
 43
0.0
 43
1.0
 77
     0
 47
0.0208333333333333
 47
0.0
 47
0.0
 47
0.0
 47
0.0
 47
0.0208333333333333
 47
0.0
 47
0.0
 47
0.0
 47
0.0
 47
1.0
 47
0.0
 47
0.0
 47
0.0
 47
0.0
 47
1.0
171
     0
 49
0.0208333333333333
 49
0.0
 49
0.0
 49
0.0
 49
0.0
 49
0.0208333333333333
 49
0.0
 49
0.0
 49
0.0
 49
0.0
 49
1.0
 49
0.0
 49
0.0
 49
0.0
 49
0.0
 49
1.0
175
     0
142
0.0208333333333333
142
0.0
142
0.0
142
0.0
142
0.0
142
0.0208333333333333
142
0.0
142
0.0
142
0.0
142
0.0
142
1.0
142
0.0
142
0.0
142
0.0
142
0.0
142
1.0
179
     0
144
0.0208333333333333
144
0.0
144
0.0
144
0.0
144
0.0
144
0.0208333333333333
144
0.0
144
0.0
144
0.0
144
0.0
144
1.0
144
0.0
144
0.0
144
0.0
144
0.0
144
1.0
147
0.0208333333333333
147
0.0
147
0.0
147
0.0
147
0.0
147
0.0208333333333333
147
0.0
147
0.0
147
0.0
147
0.0
147
1.0
147
0.0
147
0.0
147
0.0
147
0.0
147
1.0
  0
MATERIAL
  5
8670
102
{ACAD_XDICTIONARY
360
8671
102
}
102
{ACAD_REACTORS
330
866F
102
}
330
866F
100
AcDbMaterial
  1
ByLayer
 72
     0
 43
0.0208333333333333
 43
0.0
 43
0.0
 43
0.0
 43
0.0
 43
0.0208333333333333
 43
0.0
 43
0.0
 43
0.0
 43
0.0
 43
1.0
 43
0.0
 43
0.0
 43
0.0
 43
0.0
 43
1.0
 77
     0
 47
0.0208333333333333
 47
0.0
 47
0.0
 47
0.0
 47
0.0
 47
0.0208333333333333
 47
0.0
 47
0.0
 47
0.0
 47
0.0
 47
1.0
 47
0.0
 47
0.0
 47
0.0
 47
0.0
 47
1.0
171
     0
 49
0.0208333333333333
 49
0.0
 49
0.0
 49
0.0
 49
0.0
 49
0.0208333333333333
 49
0.0
 49
0.0
 49
0.0
 49
0.0
 49
1.0
 49
0.0
 49
0.0
 49
0.0
 49
0.0
 49
1.0
175
     0
142
0.0208333333333333
142
0.0
142
0.0
142
0.0
142
0.0
142
0.0208333333333333
142
0.0
142
0.0
142
0.0
142
0.0
142
1.0
142
0.0
142
0.0
142
0.0
142
0.0
142
1.0
179
     0
144
0.0208333333333333
144
0.0
144
0.0
144
0.0
144
0.0
144
0.0208333333333333
144
0.0
144
0.0
144
0.0
144
0.0
144
1.0
144
0.0
144
0.0
144
0.0
144
0.0
144
1.0
147
0.0208333333333333
147
0.0
147
0.0
147
0.0
147
0.0
147
0.0208333333333333
147
0.0
147
0.0
147
0.0
147
0.0
147
1.0
147
0.0
147
0.0
147
0.0
147
0.0
147
1.0
  0
MATERIAL
  5
8680
102
{ACAD_XDICTIONARY
360
8681
102
}
102
{ACAD_REACTORS
330
866F
102
}
330
866F
100
AcDbMaterial
  1
Global
 72
     0
 43
0.0208333333333333
 43
0.0
 43
0.0
 43
0.0
 43
0.0
 43
0.0208333333333333
 43
0.0
 43
0.0
 43
0.0
 43
0.0
 43
1.0
 43
0.0
 43
0.0
 43
0.0
 43
0.0
 43
1.0
 77
     0
 47
0.0208333333333333
 47
0.0
 47
0.0
 47
0.0
 47
0.0
 47
0.0208333333333333
 47
0.0
 47
0.0
 47
0.0
 47
0.0
 47
1.0
 47
0.0
 47
0.0
 47
0.0
 47
0.0
 47
1.0
171
     0
 49
0.0208333333333333
 49
0.0
 49
0.0
 49
0.0
 49
0.0
 49
0.0208333333333333
 49
0.0
 49
0.0
 49
0.0
 49
0.0
 49
1.0
 49
0.0
 49
0.0
 49
0.0
 49
0.0
 49
1.0
175
     0
142
0.0208333333333333
142
0.0
142
0.0
142
0.0
142
0.0
142
0.0208333333333333
142
0.0
142
0.0
142
0.0
142
0.0
142
1.0
142
0.0
142
0.0
142
0.0
142
0.0
142
1.0
179
     0
144
0.0208333333333333
144
0.0
144
0.0
144
0.0
144
0.0
144
0.0208333333333333
144
0.0
144
0.0
144
0.0
144
0.0
144
1.0
144
0.0
144
0.0
144
0.0
144
0.0
144
1.0
147
0.0208333333333333
147
0.0
147
0.0
147
0.0
147
0.0
147
0.0208333333333333
147
0.0
147
0.0
147
0.0
147
0.0
147
1.0
147
0.0
147
0.0
147
0.0
147
0.0
147
1.0
  0
MLEADERSTYLE
  5
86B7
102
{ACAD_REACTORS
330
86B6
102
}
330
86B6
100
AcDbMLeaderStyle
179
     2
170
     2
171
     1
172
     0
 90
        2
 40
0.0
 41
0.0
173
     1
 91
-1056964608
340
13
 92
       -2
290
     1
 42
2.0
291
     1
 43
0.36
  3
Standard
 44
4.0
300

342
10
174
     1
178
     6
175
     1
176
     0
 93
-1056964608
 45
4.0
292
     0
297
     0
 46
4.0
 94
-1056964608
 47
1.0
 49
1.0
140
1.0
293
     1
141
0.0
294
     1
177
     0
142
1.0
295
     0
296
     0
143
0.125
271
     0
272
     9
273
     9
298
     1
  0
MLINESTYLE
  5
1C
102
{ACAD_REACTORS
330
E
102
}
330
E
100
AcDbMlineStyle
  2
STANDARD
 70
     0
  3

 62
     0
 51
90.0
 52
90.0
 71
     2
 49
0.5
 62
   256
  6
BYLAYER
 49
-0.5
 62
   256
  6
BYLAYER
  0
ACDBPLACEHOLDER
  5
85A5
102
{ACAD_REACTORS
330
85A4
102
}
330
85A4
  0
SCALE
  5
86A5
102
{ACAD_REACTORS
330
86A4
102
}
330
86A4
100
AcDbScale
 70
     0
300
1:1
140
1.0
141
1.0
290
     1
  0
SCALE
  5
86A6
102
{ACAD_REACTORS
330
86A4
102
}
330
86A4
100
AcDbScale
 70
     0
300
1:2
140
1.0
141
2.0
290
     0
  0
SCALE
  5
86A7
102
{ACAD_REACTORS
330
86A4
102
}
330
86A4
100
AcDbScale
 70
     0
300
1:4
140
1.0
141
4.0
290
     0
  0
SCALE
  5
86A8
102
{ACAD_REACTORS
330
86A4
102
}
330
86A4
100
AcDbScale
 70
     0
300
1:5
140
1.0
141
5.0
290
     0
  0
SCALE
  5
86A9
102
{ACAD_REACTORS
330
86A4
102
}
330
86A4
100
AcDbScale
 70
     0
300
1:8
140
1.0
141
8.0
290
     0
  0
SCALE
  5
86AA
102
{ACAD_REACTORS
330
86A4
102
}
330
86A4
100
AcDbScale
 70
     0
300
1:10
140
1.0
141
10.0
290
     0
  0
SCALE
  5
86AB
102
{ACAD_REACTORS
330
86A4
102
}
330
86A4
100
AcDbScale
 70
     0
300
1:16
140
1.0
141
16.0
290
     0
  0
SCALE
  5
86AC
102
{ACAD_REACTORS
330
86A4
102
}
330
86A4
100
AcDbScale
 70
     0
300
1:20
140
1.0
141
20.0
290
     0
  0
SCALE
  5
86AD
102
{ACAD_REACTORS
330
86A4
102
}
330
86A4
100
AcDbScale
 70
     0
300
1:30
140
1.0
141
30.0
290
     0
  0
SCALE
  5
86AE
102
{ACAD_REACTORS
330
86A4
102
}
330
86A4
100
AcDbScale
 70
     0
300
1:40
140
1.0
141
40.0
290
     0
  0
SCALE
  5
86AF
102
{ACAD_REACTORS
330
86A4
102
}
330
86A4
100
AcDbScale
 70
     0
300
1:50
140
1.0
141
50.0
290
     0
  0
SCALE
  5
86B0
102
{ACAD_REACTORS
330
86A4
102
}
330
86A4
100
AcDbScale
 70
     0
300
1:100
140
1.0
141
100.0
290
     0
  0
SCALE
  5
86B1
102
{ACAD_REACTORS
330
86A4
102
}
330
86A4
100
AcDbScale
 70
     0
300
2:1
140
2.0
141
1.0
290
     0
  0
SCALE
  5
86B2
102
{ACAD_REACTORS
330
86A4
102
}
330
86A4
100
AcDbScale
 70
     0
300
4:1
140
4.0
141
1.0
290
     0
  0
SCALE
  5
86B3
102
{ACAD_REACTORS
330
86A4
102
}
330
86A4
100
AcDbScale
 70
     0
300
8:1
140
8.0
141
1.0
290
     0
  0
SCALE
  5
86B4
102
{ACAD_REACTORS
330
86A4
102
}
330
86A4
100
AcDbScale
 70
     0
300
10:1
140
10.0
141
1.0
290
     0
  0
SCALE
  5
86B5
102
{ACAD_REACTORS
330
86A4
102
}
330
86A4
100
AcDbScale
 70
     0
300
100:1
140
100.0
141
1.0
290
     0
  0
ACDBSECTIONVIEWSTYLE
  5
86B9
102
{ACAD_XDICTIONARY
360
875F
102
}
102
{ACAD_REACTORS
330
86B8
102
}
330
86B8
100
AcDbModelDocViewStyle
 70
     0
  3
Metric50
290
     0
100
AcDbSectionViewStyle
 70
     0
 71
     0
 90
      102
 71
     1
340
10
 62
   256
 40
5.0
340
0
340
0
 62
   256
 40
5.0
300
I, O, Q, S, X, Z
 40
10.0
 90
        0
 40
2.5
 90
        0
 71
     2
340
15
 90
       25
 62
   256
340
15
 90
       50
 62
   256
 40
5.0
 40
2.5
 40
5.0
 71
     3
340
10
 62
   256
 40
5.0
 90
        0
 40
15.0
 90
        1
300
%<\AcVar ViewSectionStartId>%-%<\AcVar ViewSectionEndId>% (%<\AcVar ViewScale \f "%sn">%)
 71
     4
 62
   256
 62
   257
300
ANSI31
 40
1.0
 90
        0
290
     0
290
     0
 90
        6
 40
0.0
 40
1.570796326794896
 40
0.2617993877991494
 40
1.308996938995747
 40
-0.2617993877991494
 40
1.832595714594046
  0
TABLESTYLE
  5
86A3
102
{ACAD_XDICTIONARY
360
8754
102
}
102
{ACAD_REACTORS
330
86A2
102
}
330
86A2
100
AcDbTableStyle
280
     0
  3
Standard
 70
     0
 71
     0
 40
1.5
 41
1.5
280
     0
281
     0
  7
STANDARD
140
4.5
170
     2
 62
     0
 63
     7
283
     0
 90
      512
 91
        0
  1

274
    -2
284
     1
 64
     0
275
    -2
285
     1
 65
     0
276
    -2
286
     1
 66
     0
277
    -2
287
     1
 67
     0
278
    -2
288
     1
 68
     0
279
    -2
289
     1
 69
     0
  7
STANDARD
140
6.0
170
     5
 62
     0
 63
     7
283
     0
 90
      512
 91
        0
  1

274
    -2
284
     1
 64
     0
275
    -2
285
     1
 65
     0
276
    -2
286
     1
 66
     0
277
    -2
287
     1
 67
     0
278
    -2
288
     1
 68
     0
279
    -2
289
     1
 69
     0
  7
STANDARD
140
4.5
170
     5
 62
     0
 63
     7
283
     0
 90
      512
 91
        0
  1

274
    -2
284
     1
 64
     0
275
    -2
285
     1
 65
     0
276
    -2
286
     1
 66
     0
277
    -2
287
     1
 67
     0
278
    -2
288
     1
 68
     0
279
    -2
289
     1
 69
     0
  0
VISUALSTYLE
  5
868E
102
{ACAD_REACTORS
330
8688
102
}
330
8688
100
AcDbVisualStyle
  2
2dWireframe
 70
     4
177
     3
291
     0
 70
    58
 90
        0
176
     1
 90
        2
176
     1
 90
        0
176
     1
 90
        0
176
     1
 40
0.6
176
     1
 40
30.0
176
     1
 62
     7
420
 16777215
176
     1
 90
        1
176
     1
 90
        4
176
     1
 62
     7
176
     1
 62
   257
176
     1
 90
        1
176
     1
 90
        1
176
     1
 40
1.0
176
     1
 90
        0
176
     1
 62
   257
176
     1
 40
1.0
176
     1
 90
        1
176
     1
 90
        6
176
     1
 90
        2
176
     1
 62
     7
176
     1
 90
        5
176
     1
 90
        0
176
     1
 90
        0
176
     1
290
     0
176
     1
 90
        1
176
     1
 40
0.0
176
     1
 90
        0
176
     1
290
     1
176
     1
290
     1
176
     1
290
     0
176
     1
290
     0
176
     1
290
     0
176
     1
290
     0
176
     1
290
     0
176
     1
290
     0
176
     1
290
     0
176
     1
 90
       50
176
     1
 40
0.0
176
     1
 40
1.0
176
     1
 90
        0
176
     1
 62
    18
420
        0
176
     1
 90
       50
176
     1
 90
        3
176
     1
 62
     5
420
      255
176
     1
290
     0
176
     1
 90
       50
176
     1
 90
       50
176
     1
 90
       50
176
     1
290
     0
176
     1
 90
       50
176
     1
 62
   256
176
     0
 40
1.0
176
     0
 90
        2
176
     1
  1
strokes_ogs.tif
176
     1
290
     0
176
     1
 40
1.0
176
     1
 40
1.0
176
     1
1001
ACAD
1000
AcDbSavedByObjectVersion
1070
     0
  0
VISUALSTYLE
  5
868D
102
{ACAD_REACTORS
330
8688
102
}
330
8688
100
AcDbVisualStyle
  2
Basic
 70
     7
177
     3
291
     1
 70
    58
 90
        1
176
     1
 90
        0
176
     1
 90
        1
176
     1
 90
        0
176
     1
 40
0.6
176
     1
 40
30.0
176
     1
 62
     7
420
 16777215
176
     1
 90
        0
176
     1
 90
        4
176
     1
 62
     7
176
     1
 62
   257
176
     1
 90
        1
176
     1
 90
        1
176
     1
 40
1.0
176
     1
 90
        8
176
     1
 62
     7
176
     1
 40
1.0
176
     1
 90
        1
176
     1
 90
        6
176
     1
 90
        2
176
     1
 62
     7
176
     1
 90
        5
176
     1
 90
        0
176
     1
 90
        0
176
     1
290
     0
176
     1
 90
        1
176
     1
 40
0.0
176
     1
 90
        0
176
     1
290
     0
176
     1
290
     1
176
     1
290
     1
176
     1
290
     0
176
     1
290
     0
176
     1
290
     0
176
     1
290
     0
176
     1
290
     0
176
     1
290
     0
176
     1
 90
       50
176
     1
 40
0.0
176
     1
 40
1.0
176
     1
 90
        0
176
     1
 62
    18
420
        0
176
     1
 90
       50
176
     1
 90
        3
176
     1
 62
     5
420
      255
176
     1
290
     0
176
     1
 90
       50
176
     1
 90
       50
176
     1
 90
       50
176
     1
290
     0
176
     1
 90
       50
176
     1
 62
   256
176
     0
 40
1.0
176
     0
 90
        2
176
     1
  1
strokes_ogs.tif
176
     1
290
     0
176
     1
 40
1.0
176
     1
 40
1.0
176
     1
1001
ACAD
1000
AcDbSavedByObjectVersion
1070
     0
  0
VISUALSTYLE
  5
8694
102
{ACAD_REACTORS
330
8688
102
}
330
8688
100
AcDbVisualStyle
  2
Brighten
 70
    12
177
     3
291
     1
 70
    58
 90
        2
176
     1
 90
        2
176
     1
 90
        0
176
     1
 90
        0
176
     1
 40
0.6
176
     1
 40
30.0
176
     1
 62
     7
420
 16777215
176
     1
 90
        1
176
     1
 90
        4
176
     1
 62
     7
176
     1
 62
   257
176
     1
 90
        1
176
     1
 90
        1
176
     1
 40
1.0
176
     1
 90
        8
176
     1
 62
     7
176
     1
 40
1.0
176
     1
 90
        1
176
     1
 90
        6
176
     1
 90
        2
176
     1
 62
     7
176
     1
 90
        5
176
     1
 90
        0
176
     1
 90
        0
176
     1
290
     0
176
     1
 90
        1
176
     1
 40
50.0
176
     1
 90
        0
176
     1
290
     0
176
     1
290
     1
176
     1
290
     1
176
     1
290
     0
176
     1
290
     0
176
     1
290
     0
176
     1
290
     0
176
     1
290
     0
176
     1
290
     0
176
     1
 90
       50
176
     1
 40
0.0
176
     1
 40
1.0
176
     1
 90
        0
176
     1
 62
    18
420
        0
176
     1
 90
       50
176
     1
 90
        3
176
     1
 62
     5
420
      255
176
     1
290
     0
176
     1
 90
       50
176
     1
 90
       50
176
     1
 90
       50
176
     1
290
     0
176
     1
 90
       50
176
     1
 62
   256
176
     0
 40
1.0
176
     0
 90
        2
176
     1
  1
strokes_ogs.tif
176
     1
290
     0
176
     1
 40
1.0
176
     1
 40
1.0
176
     1
1001
ACAD
1000
AcDbSavedByObjectVersion
1070
     0
  0
VISUALSTYLE
  5
8698
102
{ACAD_REACTORS
330
8688
102
}
330
8688
100
AcDbVisualStyle
  2
ColorChange
 70
    16
177
     3
291
     1
 70
    58
 90
        2
176
     1
 90
        2
176
     1
 90
        3
176
     1
 90
        0
176
     1
 40
0.6
176
     1
 40
30.0
176
     1
 62
     8
420
  8421504
176
     1
 90
        1
176
     1
 90
        4
176
     1
 62
     7
176
     1
 62
   257
176
     1
 90
        1
176
     1
 90
        1
176
     1
 40
1.0
176
     1
 90
        8
176
     1
 62
     8
420
  8421504
176
     1
 40
1.0
176
     1
 90
        1
176
     1
 90
        6
176
     1
 90
        2
176
     1
 62
     7
176
     1
 90
        5
176
     1
 90
        0
176
     1
 90
        0
176
     1
290
     0
176
     1
 90
        1
176
     1
 40
0.0
176
     1
 90
        0
176
     1
290
     0
176
     1
290
     1
176
     1
290
     1
176
     1
290
     0
176
     1
290
     0
176
     1
290
     0
176
     1
290
     0
176
     1
290
     0
176
     1
290
     0
176
     1
 90
       50
176
     1
 40
0.0
176
     1
 40
1.0
176
     1
 90
        0
176
     1
 62
    18
420
        0
176
     1
 90
       50
176
     1
 90
        3
176
     1
 62
     5
420
      255
176
     1
290
     0
176
     1
 90
       50
176
     1
 90
       50
176
     1
 90
       50
176
     1
290
     0
176
     1
 90
       50
176
     1
 62
   256
176
     0
 40
1.0
176
     0
 90
        2
176
     1
  1
strokes_ogs.tif
176
     1
290
     0
176
     1
 40
1.0
176
     1
 40
1.0
176
     1
1001
ACAD
1000
AcDbSavedByObjectVersion
1070
     0
  0
VISUALSTYLE
  5
8691
102
{ACAD_REACTORS
330
8688
102
}
330
8688
100
AcDbVisualStyle
  2
Conceptual
 70
     9
177
     3
291
     0
 70
    58
 90
        3
176
     1
 90
        2
176
     1
 90
        0
176
     1
 90
        0
176
     1
 40
0.6
176
     1
 40
30.0
176
     1
 62
     7
420
 16777215
176
     1
 90
        2
176
     1
 90
        2
176
     1
 62
     7
176
     1
 62
   257
176
     1
 90
        1
176
     1
 90
        1
176
     1
 40
179.0
176
     1
 90
        8
176
     1
 62
     7
176
     1
 40
1.0
176
     1
 90
        1
176
     1
 90
        6
176
     1
 90
        2
176
     1
 62
     7
176
     1
 90
        3
176
     1
 90
        0
176
     1
 90
        0
176
     1
290
     0
176
     1
 90
        1
176
     1
 40
0.0
176
     1
 90
        0
176
     1
290
     0
176
     1
290
     1
176
     1
290
     1
176
     1
290
     0
176
     1
290
     0
176
     1
290
     0
176
     1
290
     0
176
     1
290
     0
176
     1
290
     0
176
     1
 90
       50
176
     1
 40
0.0
176
     1
 40
1.0
176
     1
 90
        0
176
     1
 62
    18
420
        0
176
     1
 90
       50
176
     1
 90
        3
176
     1
 62
     5
420
      255
176
     1
290
     0
176
     1
 90
       50
176
     1
 90
       50
176
     1
 90
       50
176
     1
290
     0
176
     1
 90
       50
176
     1
 62
   256
176
     0
 40
1.0
176
     0
 90
        2
176
     1
  1
strokes_ogs.tif
176
     1
290
     0
176
     1
 40
1.0
176
     1
 40
1.0
176
     1
1001
ACAD
1000
AcDbSavedByObjectVersion
1070
     0
  0
VISUALSTYLE
  5
8693
102
{ACAD_REACTORS
330
8688
102
}
330
8688
100
AcDbVisualStyle
  2
Dim
 70
    11
177
     3
291
     1
 70
    58
 90
        2
176
     1
 90
        2
176
     1
 90
        0
176
     1
 90
        0
176
     1
 40
0.6
176
     1
 40
30.0
176
     1
 62
     7
420
 16777215
176
     1
 90
        1
176
     1
 90
        4
176
     1
 62
     7
176
     1
 62
   257
176
     1
 90
        1
176
     1
 90
        1
176
     1
 40
1.0
176
     1
 90
        8
176
     1
 62
     7
176
     1
 40
1.0
176
     1
 90
        1
176
     1
 90
        6
176
     1
 90
        2
176
     1
 62
     7
176
     1
 90
        5
176
     1
 90
        0
176
     1
 90
        0
176
     1
290
     0
176
     1
 90
        1
176
     1
 40
-50.0
176
     1
 90
        0
176
     1
290
     0
176
     1
290
     1
176
     1
290
     1
176
     1
290
     0
176
     1
290
     0
176
     1
290
     0
176
     1
290
     0
176
     1
290
     0
176
     1
290
     0
176
     1
 90
       50
176
     1
 40
0.0
176
     1
 40
1.0
176
     1
 90
        0
176
     1
 62
    18
420
        0
176
     1
 90
       50
176
     1
 90
        3
176
     1
 62
     5
420
      255
176
     1
290
     0
176
     1
 90
       50
176
     1
 90
       50
176
     1
 90
       50
176
     1
290
     0
176
     1
 90
       50
176
     1
 62
   256
176
     0
 40
1.0
176
     0
 90
        2
176
     1
  1
strokes_ogs.tif
176
     1
290
     0
176
     1
 40
1.0
176
     1
 40
1.0
176
     1
1001
ACAD
1000
AcDbSavedByObjectVersion
1070
     0
  0
VISUALSTYLE
  5
86A0
102
{ACAD_REACTORS
330
8688
102
}
330
8688
100
AcDbVisualStyle
  2
EdgeColorOff
 70
    22
177
     3
291
     1
 70
    58
 90
        2
176
     0
 90
        2
176
     0
 90
        0
176
     0
 90
        0
176
     0
 40
0.6
176
     0
 40
30.0
176
     0
 62
     7
420
 16777215
176
     0
 90
        1
176
     0
 90
        4
176
     0
 62
     7
176
     0
 62
   257
176
     0
 90
        1
176
     0
 90
        1
176
     0
 40
1.0
176
     0
 90
        8
176
     2
 62
     7
176
     0
 40
1.0
176
     0
 90
        1
176
     0
 90
        6
176
     0
 90
        2
176
     0
 62
     7
176
     0
 90
        5
176
     0
 90
        0
176
     0
 90
        0
176
     0
290
     0
176
     0
 90
        1
176
     0
 40
0.0
176
     0
 90
        0
176
     0
290
     0
176
     0
290
     1
176
     0
290
     1
176
     0
290
     0
176
     0
290
     0
176
     0
290
     0
176
     0
290
     0
176
     0
290
     0
176
     0
290
     0
176
     0
 90
       50
176
     0
 40
0.0
176
     0
 40
1.0
176
     0
 90
        0
176
     0
 62
    18
420
        0
176
     0
 90
       50
176
     0
 90
        3
176
     0
 62
     5
420
      255
176
     0
290
     0
176
     0
 90
       50
176
     0
 90
       50
176
     0
 90
       50
176
     0
290
     0
176
     0
 90
       50
176
     0
 62
   256
176
     0
 40
1.0
176
     0
 90
        2
176
     0
  1
strokes_ogs.tif
176
     0
290
     0
176
     0
 40
1.0
176
     0
 40
1.0
176
     0
1001
ACAD
1000
AcDbSavedByObjectVersion
1070
     0
  0
VISUALSTYLE
  5
8697
102
{ACAD_REACTORS
330
8688
102
}
330
8688
100
AcDbVisualStyle
  2
Facepattern
 70
    15
177
     3
291
     1
 70
    58
 90
        2
176
     1
 90
        2
176
     1
 90
        0
176
     1
 90
        0
176
     1
 40
0.6
176
     1
 40
30.0
176
     1
 62
     7
420
 16777215
176
     1
 90
        1
176
     1
 90
        4
176
     1
 62
     7
176
     1
 62
   257
176
     1
 90
        1
176
     1
 90
        1
176
     1
 40
1.0
176
     1
 90
        8
176
     1
 62
     7
176
     1
 40
1.0
176
     1
 90
        1
176
     1
 90
        6
176
     1
 90
        2
176
     1
 62
     7
176
     1
 90
        5
176
     1
 90
        0
176
     1
 90
        0
176
     1
290
     0
176
     1
 90
        1
176
     1
 40
0.0
176
     1
 90
        0
176
     1
290
     0
176
     1
290
     1
176
     1
290
     1
176
     1
290
     0
176
     1
290
     0
176
     1
290
     0
176
     1
290
     0
176
     1
290
     0
176
     1
290
     0
176
     1
 90
       50
176
     1
 40
0.0
176
     1
 40
1.0
176
     1
 90
        0
176
     1
 62
    18
420
        0
176
     1
 90
       50
176
     1
 90
        3
176
     1
 62
     5
420
      255
176
     1
290
     0
176
     1
 90
       50
176
     1
 90
       50
176
     1
 90
       50
176
     1
290
     0
176
     1
 90
       50
176
     1
 62
   256
176
     0
 40
1.0
176
     0
 90
        2
176
     1
  1
strokes_ogs.tif
176
     1
290
     0
176
     1
 40
1.0
176
     1
 40
1.0
176
     1
1001
ACAD
1000
AcDbSavedByObjectVersion
1070
     0
  0
VISUALSTYLE
  5
8689
102
{ACAD_REACTORS
330
8688
102
}
330
8688
100
AcDbVisualStyle
  2
Flat
 70
     0
177
     3
291
     1
 70
    58
 90
        2
176
     1
 90
        1
176
     1
 90
        1
176
     1
 90
        2
176
     1
 40
0.6
176
     1
 40
30.0
176
     1
 62
     7
420
 16777215
176
     1
 90
        0
176
     1
 90
        0
176
     1
 62
     7
176
     1
 62
   257
176
     1
 90
        1
176
     1
 90
        1
176
     1
 40
1.0
176
     1
 90
        8
176
     1
 62
     7
176
     1
 40
1.0
176
     1
 90
        1
176
     1
 90
        6
176
     1
 90
        2
176
     1
 62
     7
176
     1
 90
        5
176
     1
 90
        0
176
     1
 90
        0
176
     1
290
     0
176
     1
 90
       13
176
     1
 40
0.0
176
     1
 90
        0
176
     1
290
     0
176
     1
290
     1
176
     1
290
     1
176
     1
290
     0
176
     1
290
     0
176
     1
290
     0
176
     1
290
     0
176
     1
290
     0
176
     1
290
     0
176
     1
 90
       50
176
     1
 40
0.0
176
     1
 40
1.0
176
     1
 90
        0
176
     1
 62
    18
420
        0
176
     1
 90
       50
176
     1
 90
        3
176
     1
 62
     5
420
      255
176
     1
290
     0
176
     1
 90
       50
176
     1
 90
       50
176
     1
 90
       50
176
     1
290
     0
176
     1
 90
       50
176
     1
 62
   256
176
     0
 40
1.0
176
     0
 90
        2
176
     1
  1
strokes_ogs.tif
176
     1
290
     0
176
     1
 40
1.0
176
     1
 40
1.0
176
     1
1001
ACAD
1000
AcDbSavedByObjectVersion
1070
     0
  0
VISUALSTYLE
  5
868A
102
{ACAD_REACTORS
330
8688
102
}
330
8688
100
AcDbVisualStyle
  2
FlatWithEdges
 70
     1
177
     3
291
     1
 70
    58
 90
        2
176
     1
 90
        1
176
     1
 90
        1
176
     1
 90
        2
176
     1
 40
0.6
176
     1
 40
30.0
176
     1
 62
     7
420
 16777215
176
     1
 90
        1
176
     1
 90
        0
176
     1
 62
     7
176
     1
 62
   257
176
     1
 90
        1
176
     1
 90
        1
176
     1
 40
1.0
176
     1
 90
        0
176
     1
 62
   257
176
     1
 40
1.0
176
     1
 90
        1
176
     1
 90
        6
176
     1
 90
        2
176
     1
 62
     7
176
     1
 90
        5
176
     1
 90
        0
176
     1
 90
        0
176
     1
290
     0
176
     1
 90
       13
176
     1
 40
0.0
176
     1
 90
        0
176
     1
290
     0
176
     1
290
     1
176
     1
290
     1
176
     1
290
     0
176
     1
290
     0
176
     1
290
     0
176
     1
290
     0
176
     1
290
     0
176
     1
290
     0
176
     1
 90
       50
176
     1
 40
0.0
176
     1
 40
1.0
176
     1
 90
        0
176
     1
 62
    18
420
        0
176
     1
 90
       50
176
     1
 90
        3
176
     1
 62
     5
420
      255
176
     1
290
     0
176
     1
 90
       50
176
     1
 90
       50
176
     1
 90
       50
176
     1
290
     0
176
     1
 90
       50
176
     1
 62
   256
176
     0
 40
1.0
176
     0
 90
        2
176
     1
  1
strokes_ogs.tif
176
     1
290
     0
176
     1
 40
1.0
176
     1
 40
1.0
176
     1
1001
ACAD
1000
AcDbSavedByObjectVersion
1070
     0
  0
VISUALSTYLE
  5
868B
102
{ACAD_REACTORS
330
8688
102
}
330
8688
100
AcDbVisualStyle
  2
Gouraud
 70
     2
177
     3
291
     1
 70
    58
 90
        2
176
     1
 90
        2
176
     1
 90
        1
176
     1
 90
        2
176
     1
 40
0.6
176
     1
 40
30.0
176
     1
 62
     7
420
 16777215
176
     1
 90
        0
176
     1
 90
        0
176
     1
 62
     7
176
     1
 62
   257
176
     1
 90
        1
176
     1
 90
        1
176
     1
 40
1.0
176
     1
 90
        0
176
     1
 62
     7
176
     1
 40
1.0
176
     1
 90
        1
176
     1
 90
        6
176
     1
 90
        2
176
     1
 62
     7
176
     1
 90
        5
176
     1
 90
        0
176
     1
 90
        0
176
     1
290
     0
176
     1
 90
       13
176
     1
 40
0.0
176
     1
 90
        0
176
     1
290
     0
176
     1
290
     1
176
     1
290
     1
176
     1
290
     0
176
     1
290
     0
176
     1
290
     0
176
     1
290
     0
176
     1
290
     0
176
     1
290
     0
176
     1
 90
       50
176
     1
 40
0.0
176
     1
 40
1.0
176
     1
 90
        0
176
     1
 62
    18
420
        0
176
     1
 90
       50
176
     1
 90
        3
176
     1
 62
     5
420
      255
176
     1
290
     0
176
     1
 90
       50
176
     1
 90
       50
176
     1
 90
       50
176
     1
290
     0
176
     1
 90
       50
176
     1
 62
   256
176
     0
 40
1.0
176
     0
 90
        2
176
     1
  1
strokes_ogs.tif
176
     1
290
     0
176
     1
 40
1.0
176
     1
 40
1.0
176
     1
1001
ACAD
1000
AcDbSavedByObjectVersion
1070
     0
  0
VISUALSTYLE
  5
868C
102
{ACAD_REACTORS
330
8688
102
}
330
8688
100
AcDbVisualStyle
  2
GouraudWithEdges
 70
     3
177
     3
291
     1
 70
    58
 90
        2
176
     1
 90
        2
176
     1
 90
        1
176
     1
 90
        2
176
     1
 40
0.6
176
     1
 40
30.0
176
     1
 62
     7
420
 16777215
176
     1
 90
        1
176
     1
 90
        0
176
     1
 62
     7
176
     1
 62
   257
176
     1
 90
        1
176
     1
 90
        1
176
     1
 40
1.0
176
     1
 90
        0
176
     1
 62
   257
176
     1
 40
1.0
176
     1
 90
        1
176
     1
 90
        6
176
     1
 90
        2
176
     1
 62
     7
176
     1
 90
        5
176
     1
 90
        0
176
     1
 90
        0
176
     1
290
     0
176
     1
 90
       13
176
     1
 40
0.0
176
     1
 90
        0
176
     1
290
     0
176
     1
290
     1
176
     1
290
     1
176
     1
290
     0
176
     1
290
     0
176
     1
290
     0
176
     1
290
     0
176
     1
290
     0
176
     1
290
     0
176
     1
 90
       50
176
     1
 40
0.0
176
     1
 40
1.0
176
     1
 90
        0
176
     1
 62
    18
420
        0
176
     1
 90
       50
176
     1
 90
        3
176
     1
 62
     5
420
      255
176
     1
290
     0
176
     1
 90
       50
176
     1
 90
       50
176
     1
 90
       50
176
     1
290
     0
176
     1
 90
       50
176
     1
 62
   256
176
     0
 40
1.0
176
     0
 90
        2
176
     1
  1
strokes_ogs.tif
176
     1
290
     0
176
     1
 40
1.0
176
     1
 40
1.0
176
     1
1001
ACAD
1000
AcDbSavedByObjectVersion
1070
     0
  0
VISUALSTYLE
  5
8690
102
{ACAD_REACTORS
330
8688
102
}
330
8688
100
AcDbVisualStyle
  2
Hidden
 70
     6
177
     3
291
     0
 70
    58
 90
        1
176
     1
 90
        2
176
     1
 90
        2
176
     1
 90
        0
176
     1
 40
0.6
176
     1
 40
30.0
176
     1
 62
     7
420
 16777215
176
     1
 90
        2
176
     1
 90
        2
176
     1
 62
     7
176
     1
 62
   257
176
     1
 90
        2
176
     1
 90
        1
176
     1
 40
40.0
176
     1
 90
        0
176
     1
 62
   257
176
     1
 40
1.0
176
     1
 90
        1
176
     1
 90
        6
176
     1
 90
        2
176
     1
 62
     7
176
     1
 90
        3
176
     1
 90
        0
176
     1
 90
        0
176
     1
290
     0
176
     1
 90
        1
176
     1
 40
0.0
176
     1
 90
        0
176
     1
290
     0
176
     1
290
     1
176
     1
290
     1
176
     1
290
     0
176
     1
290
     0
176
     1
290
     0
176
     1
290
     0
176
     1
290
     0
176
     1
290
     0
176
     1
 90
       50
176
     1
 40
0.0
176
     1
 40
1.0
176
     1
 90
        0
176
     1
 62
    18
420
        0
176
     1
 90
       50
176
     1
 90
        3
176
     1
 62
     5
420
      255
176
     1
290
     0
176
     1
 90
       50
176
     1
 90
       50
176
     1
 90
       50
176
     1
290
     0
176
     1
 90
       50
176
     1
 62
   256
176
     0
 40
1.0
176
     0
 90
        2
176
     1
  1
strokes_ogs.tif
176
     1
290
     0
176
     1
 40
1.0
176
     1
 40
1.0
176
     1
1001
ACAD
1000
AcDbSavedByObjectVersion
1070
     0
  0
VISUALSTYLE
  5
869E
102
{ACAD_REACTORS
330
8688
102
}
330
8688
100
AcDbVisualStyle
  2
JitterOff
 70
    20
177
     3
291
     1
 70
    58
 90
        2
176
     0
 90
        2
176
     0
 90
        0
176
     0
 90
        0
176
     0
 40
0.6
176
     0
 40
30.0
176
     0
 62
     7
420
 16777215
176
     0
 90
        1
176
     0
 90
        4
176
     0
 62
     7
176
     0
 62
   257
176
     0
 90
        1
176
     0
 90
        1
176
     0
 40
1.0
176
     0
 90
       10
176
     2
 62
     7
176
     0
 40
1.0
176
     0
 90
        1
176
     0
 90
        6
176
     0
 90
        2
176
     0
 62
     7
176
     0
 90
        5
176
     0
 90
        0
176
     0
 90
        0
176
     0
290
     0
176
     0
 90
        1
176
     0
 40
0.0
176
     0
 90
        0
176
     0
290
     0
176
     0
290
     1
176
     0
290
     1
176
     0
290
     0
176
     0
290
     0
176
     0
290
     0
176
     0
290
     0
176
     0
290
     0
176
     0
290
     0
176
     0
 90
       50
176
     0
 40
0.0
176
     0
 40
1.0
176
     0
 90
        0
176
     0
 62
    18
420
        0
176
     0
 90
       50
176
     0
 90
        3
176
     0
 62
     5
420
      255
176
     0
290
     0
176
     0
 90
       50
176
     0
 90
       50
176
     0
 90
       50
176
     0
290
     0
176
     0
 90
       50
176
     0
 62
   256
176
     0
 40
1.0
176
     0
 90
        2
176
     0
  1
strokes_ogs.tif
176
     0
290
     0
176
     0
 40
1.0
176
     0
 40
1.0
176
     0
1001
ACAD
1000
AcDbSavedByObjectVersion
1070
     0
  0
VISUALSTYLE
  5
8696
102
{ACAD_REACTORS
330
8688
102
}
330
8688
100
AcDbVisualStyle
  2
Linepattern
 70
    14
177
     3
291
     1
 70
    58
 90
        2
176
     1
 90
        2
176
     1
 90
        0
176
     1
 90
        0
176
     1
 40
0.6
176
     1
 40
30.0
176
     1
 62
     7
420
 16777215
176
     1
 90
        1
176
     1
 90
        4
176
     1
 62
     7
176
     1
 62
   257
176
     1
 90
        7
176
     1
 90
        7
176
     1
 40
1.0
176
     1
 90
        8
176
     1
 62
     7
176
     1
 40
1.0
176
     1
 90
        1
176
     1
 90
        6
176
     1
 90
        2
176
     1
 62
     7
176
     1
 90
        5
176
     1
 90
        0
176
     1
 90
        0
176
     1
290
     0
176
     1
 90
        1
176
     1
 40
0.0
176
     1
 90
        0
176
     1
290
     0
176
     1
290
     1
176
     1
290
     1
176
     1
290
     0
176
     1
290
     0
176
     1
290
     0
176
     1
290
     0
176
     1
290
     0
176
     1
290
     0
176
     1
 90
       50
176
     1
 40
0.0
176
     1
 40
1.0
176
     1
 90
        0
176
     1
 62
    18
420
        0
176
     1
 90
       50
176
     1
 90
        3
176
     1
 62
     5
420
      255
176
     1
290
     0
176
     1
 90
       50
176
     1
 90
       50
176
     1
 90
       50
176
     1
290
     0
176
     1
 90
       50
176
     1
 62
   256
176
     0
 40
1.0
176
     0
 90
        2
176
     1
  1
strokes_ogs.tif
176
     1
290
     0
176
     1
 40
1.0
176
     1
 40
1.0
176
     1
1001
ACAD
1000
AcDbSavedByObjectVersion
1070
     0
  0
VISUALSTYLE
  5
869F
102
{ACAD_REACTORS
330
8688
102
}
330
8688
100
AcDbVisualStyle
  2
OverhangOff
 70
    21
177
     3
291
     1
 70
    58
 90
        2
176
     0
 90
        2
176
     0
 90
        0
176
     0
 90
        0
176
     0
 40
0.6
176
     0
 40
30.0
176
     0
 62
     7
420
 16777215
176
     0
 90
        1
176
     0
 90
        4
176
     0
 62
     7
176
     0
 62
   257
176
     0
 90
        1
176
     0
 90
        1
176
     0
 40
1.0
176
     0
 90
        9
176
     2
 62
     7
176
     0
 40
1.0
176
     0
 90
        1
176
     0
 90
        6
176
     0
 90
        2
176
     0
 62
     7
176
     0
 90
        5
176
     0
 90
        0
176
     0
 90
        0
176
     0
290
     0
176
     0
 90
        1
176
     0
 40
0.0
176
     0
 90
        0
176
     0
290
     0
176
     0
290
     1
176
     0
290
     1
176
     0
290
     0
176
     0
290
     0
176
     0
290
     0
176
     0
290
     0
176
     0
290
     0
176
     0
290
     0
176
     0
 90
       50
176
     0
 40
0.0
176
     0
 40
1.0
176
     0
 90
        0
176
     0
 62
    18
420
        0
176
     0
 90
       50
176
     0
 90
        3
176
     0
 62
     5
420
      255
176
     0
290
     0
176
     0
 90
       50
176
     0
 90
       50
176
     0
 90
       50
176
     0
290
     0
176
     0
 90
       50
176
     0
 62
   256
176
     0
 40
1.0
176
     0
 90
        2
176
     0
  1
strokes_ogs.tif
176
     0
290
     0
176
     0
 40
1.0
176
     0
 40
1.0
176
     0
1001
ACAD
1000
AcDbSavedByObjectVersion
1070
     0
  0
VISUALSTYLE
  5
8692
102
{ACAD_REACTORS
330
8688
102
}
330
8688
100
AcDbVisualStyle
  2
Realistic
 70
     8
177
     3
291
     0
 70
    58
 90
        2
176
     1
 90
        3
176
     1
 90
        0
176
     1
 90
        2
176
     1
 40
0.6
176
     1
 40
30.0
176
     1
 62
     7
420
 16777215
176
     1
 90
        0
176
     1
 90
        0
176
     1
 62
     7
176
     1
 62
   257
176
     1
 90
        1
176
     1
 90
        1
176
     1
 40
1.0
176
     1
 90
        8
176
     1
 62
   257
176
     1
 40
1.0
176
     1
 90
        1
176
     1
 90
        6
176
     1
 90
        2
176
     1
 62
     7
176
     1
 90
        3
176
     1
 90
        0
176
     1
 90
        0
176
     1
290
     0
176
     1
 90
       13
176
     1
 40
0.0
176
     1
 90
        0
176
     1
290
     0
176
     1
290
     1
176
     1
290
     1
176
     1
290
     0
176
     1
290
     0
176
     1
290
     0
176
     1
290
     0
176
     1
290
     0
176
     1
290
     0
176
     1
 90
       50
176
     1
 40
0.0
176
     1
 40
1.0
176
     1
 90
        0
176
     1
 62
    18
420
        0
176
     1
 90
       50
176
     1
 90
        3
176
     1
 62
     5
420
      255
176
     1
290
     0
176
     1
 90
       50
176
     1
 90
       50
176
     1
 90
       50
176
     1
290
     0
176
     1
 90
       50
176
     1
 62
   256
176
     0
 40
1.0
176
     0
 90
        2
176
     1
  1
strokes_ogs.tif
176
     1
290
     0
176
     1
 40
1.0
176
     1
 40
1.0
176
     1
1001
ACAD
1000
AcDbSavedByObjectVersion
1070
     0
  0
VISUALSTYLE
  5
869D
102
{ACAD_REACTORS
330
8688
102
}
330
8688
100
AcDbVisualStyle
  2
Shaded
 70
    27
177
     3
291
     0
 70
    58
 90
        2
176
     1
 90
        2
176
     1
 90
        1
176
     1
 90
        2
176
     1
 40
0.6
176
     1
 40
30.0
176
     1
 62
     7
420
 16777215
176
     1
 90
        0
176
     1
 90
        4
176
     1
 62
     7
176
     1
 62
   257
176
     1
 90
        1
176
     1
 90
        1
176
     1
 40
1.0
176
     1
 90
        8
176
     1
 62
   257
176
     1
 40
1.0
176
     1
 90
        1
176
     1
 90
        6
176
     1
 90
        2
176
     1
 62
     8
420
  7895160
176
     1
 90
        3
176
     1
 90
        0
176
     1
 90
        0
176
     1
290
     0
176
     1
 90
        5
176
     1
 40
0.0
176
     1
 90
        0
176
     1
290
     0
176
     1
290
     1
176
     1
290
     1
176
     1
290
     0
176
     1
290
     0
176
     1
290
     0
176
     1
290
     0
176
     1
290
     0
176
     1
290
     0
176
     1
 90
       50
176
     1
 40
0.0
176
     1
 40
1.0
176
     1
 90
        0
176
     1
 62
    18
420
        0
176
     1
 90
       50
176
     1
 90
        3
176
     1
 62
     5
420
      255
176
     1
290
     0
176
     1
 90
       50
176
     1
 90
       50
176
     1
 90
       50
176
     1
290
     0
176
     1
 90
       50
176
     1
 62
   256
176
     0
 40
1.0
176
     0
 90
        2
176
     1
  1
strokes_ogs.tif
176
     1
290
     0
176
     1
 40
1.0
176
     1
 40
1.0
176
     1
1001
ACAD
1000
AcDbSavedByObjectVersion
1070
     0
  0
VISUALSTYLE
  5
869C
102
{ACAD_REACTORS
330
8688
102
}
330
8688
100
AcDbVisualStyle
  2
Shaded with edges
 70
    26
177
     3
291
     0
 70
    58
 90
        2
176
     1
 90
        2
176
     1
 90
        1
176
     1
 90
        2
176
     1
 40
0.6
176
     1
 40
30.0
176
     1
 62
     7
420
 16777215
176
     1
 90
        1
176
     1
 90
        2
176
     1
 62
     7
176
     1
 62
   257
176
     1
 90
        2
176
     1
 90
        1
176
     1
 40
1.0
176
     1
 90
        8
176
     1
 62
   257
176
     1
 40
1.0
176
     1
 90
        1
176
     1
 90
        6
176
     1
 90
        2
176
     1
 62
     7
176
     1
 90
        3
176
     1
 90
        0
176
     1
 90
        0
176
     1
290
     0
176
     1
 90
        5
176
     1
 40
0.0
176
     1
 90
        0
176
     1
290
     0
176
     1
290
     1
176
     1
290
     1
176
     1
290
     0
176
     1
290
     0
176
     1
290
     0
176
     1
290
     0
176
     1
290
     0
176
     1
290
     0
176
     1
 90
       50
176
     1
 40
0.0
176
     1
 40
1.0
176
     1
 90
        0
176
     1
 62
    18
420
        0
176
     1
 90
       50
176
     1
 90
        3
176
     1
 62
     5
420
      255
176
     1
290
     0
176
     1
 90
       50
176
     1
 90
       50
176
     1
 90
       50
176
     1
290
     0
176
     1
 90
       50
176
     1
 62
   256
176
     0
 40
1.0
176
     0
 90
        2
176
     1
  1
strokes_ogs.tif
176
     1
290
     0
176
     1
 40
1.0
176
     1
 40
1.0
176
     1
1001
ACAD
1000
AcDbSavedByObjectVersion
1070
     0
  0
VISUALSTYLE
  5
8699
102
{ACAD_REACTORS
330
8688
102
}
330
8688
100
AcDbVisualStyle
  2
Shades of Gray
 70
    23
177
     3
291
     0
 70
    58
 90
        2
176
     1
 90
        2
176
     1
 90
        3
176
     1
 90
        0
176
     1
 40
0.6
176
     1
 40
30.0
176
     1
 62
     7
420
 16777215
176
     1
 90
        2
176
     1
 90
        2
176
     1
 62
     7
176
     1
 62
     7
176
     1
 90
        1
176
     1
 90
        1
176
     1
 40
40.0
176
     1
 90
        8
176
     1
 62
     7
176
     1
 40
1.0
176
     1
 90
        1
176
     1
 90
        6
176
     1
 90
        2
176
     1
 62
     7
176
     1
 90
        3
176
     1
 90
        0
176
     1
 90
        0
176
     1
290
     0
176
     1
 90
        1
176
     1
 40
0.0
176
     1
 90
        0
176
     1
290
     0
176
     1
290
     1
176
     1
290
     1
176
     1
290
     0
176
     1
290
     0
176
     1
290
     0
176
     1
290
     0
176
     1
290
     0
176
     1
290
     0
176
     1
 90
       50
176
     1
 40
0.0
176
     1
 40
1.0
176
     1
 90
        0
176
     1
 62
    18
420
        0
176
     1
 90
       50
176
     1
 90
        3
176
     1
 62
     5
420
      255
176
     1
290
     0
176
     1
 90
       50
176
     1
 90
       50
176
     1
 90
       50
176
     1
290
     0
176
     1
 90
       50
176
     1
 62
   256
176
     0
 40
1.0
176
     0
 90
        2
176
     1
  1
strokes_ogs.tif
176
     1
290
     0
176
     1
 40
1.0
176
     1
 40
1.0
176
     1
1001
ACAD
1000
AcDbSavedByObjectVersion
1070
     0
  0
VISUALSTYLE
  5
869A
102
{ACAD_REACTORS
330
8688
102
}
330
8688
100
AcDbVisualStyle
  2
Sketchy
 70
    24
177
     3
291
     0
 70
    58
 90
        1
176
     1
 90
        2
176
     1
 90
        2
176
     1
 90
        0
176
     1
 40
0.6
176
     1
 40
30.0
176
     1
 62
     7
420
 16777215
176
     1
 90
        2
176
     1
 90
        2
176
     1
 62
     7
176
     1
 62
     7
176
     1
 90
        1
176
     1
 90
        1
176
     1
 40
40.0
176
     1
 90
       11
176
     1
 62
     7
176
     1
 40
1.0
176
     1
 90
        1
176
     1
 90
        6
176
     1
 90
        2
176
     1
 62
     7
176
     1
 90
        6
176
     1
 90
        0
176
     1
 90
        0
176
     1
290
     0
176
     1
 90
        1
176
     1
 40
0.0
176
     1
 90
        0
176
     1
290
     0
176
     1
290
     1
176
     1
290
     1
176
     1
290
     0
176
     1
290
     0
176
     1
290
     0
176
     1
290
     0
176
     1
290
     0
176
     1
290
     0
176
     1
 90
       50
176
     1
 40
0.0
176
     1
 40
1.0
176
     1
 90
        0
176
     1
 62
    18
420
        0
176
     1
 90
       50
176
     1
 90
        3
176
     1
 62
     5
420
      255
176
     1
290
     0
176
     1
 90
       50
176
     1
 90
       50
176
     1
 90
       50
176
     1
290
     0
176
     1
 90
       50
176
     1
 62
   256
176
     0
 40
1.0
176
     0
 90
        2
176
     1
  1
strokes_ogs.tif
176
     1
290
     0
176
     1
 40
1.0
176
     1
 40
1.0
176
     1
1001
ACAD
1000
AcDbSavedByObjectVersion
1070
     0
  0
VISUALSTYLE
  5
8695
102
{ACAD_REACTORS
330
8688
102
}
330
8688
100
AcDbVisualStyle
  2
Thicken
 70
    13
177
     3
291
     1
 70
    58
 90
        2
176
     1
 90
        2
176
     1
 90
        0
176
     1
 90
        0
176
     1
 40
0.6
176
     1
 40
30.0
176
     1
 62
     7
420
 16777215
176
     1
 90
        1
176
     1
 90
        4
176
     1
 62
     7
176
     1
 62
   257
176
     1
 90
        1
176
     1
 90
        1
176
     1
 40
1.0
176
     1
 90
       12
176
     1
 62
     7
176
     1
 40
1.0
176
     1
 90
        1
176
     1
 90
        6
176
     1
 90
        2
176
     1
 62
     7
176
     1
 90
        5
176
     1
 90
        0
176
     1
 90
        0
176
     1
290
     0
176
     1
 90
        1
176
     1
 40
0.0
176
     1
 90
        0
176
     1
290
     0
176
     1
290
     1
176
     1
290
     1
176
     1
290
     0
176
     1
290
     0
176
     1
290
     0
176
     1
290
     0
176
     1
290
     0
176
     1
290
     0
176
     1
 90
       50
176
     1
 40
0.0
176
     1
 40
1.0
176
     1
 90
        0
176
     1
 62
    18
420
        0
176
     1
 90
       50
176
     1
 90
        3
176
     1
 62
     5
420
      255
176
     1
290
     0
176
     1
 90
       50
176
     1
 90
       50
176
     1
 90
       50
176
     1
290
     0
176
     1
 90
       50
176
     1
 62
   256
176
     0
 40
1.0
176
     0
 90
        2
176
     1
  1
strokes_ogs.tif
176
     1
290
     0
176
     1
 40
1.0
176
     1
 40
1.0
176
     1
1001
ACAD
1000
AcDbSavedByObjectVersion
1070
     0
  0
VISUALSTYLE
  5
868F
102
{ACAD_REACTORS
330
8688
102
}
330
8688
100
AcDbVisualStyle
  2
Wireframe
 70
     5
177
     3
291
     0
 70
    58
 90
        0
176
     1
 90
        2
176
     1
 90
        0
176
     1
 90
        0
176
     1
 40
0.6
176
     1
 40
30.0
176
     1
 62
     7
420
 16777215
176
     1
 90
        1
176
     1
 90
        4
176
     1
 62
     7
176
     1
 62
   257
176
     1
 90
        1
176
     1
 90
        1
176
     1
 40
1.0
176
     1
 90
        0
176
     1
 62
   257
176
     1
 40
1.0
176
     1
 90
        1
176
     1
 90
        6
176
     1
 90
        2
176
     1
 62
     7
176
     1
 90
        3
176
     1
 90
        0
176
     1
 90
        0
176
     1
290
     0
176
     1
 90
        1
176
     1
 40
0.0
176
     1
 90
        0
176
     1
290
     0
176
     1
290
     1
176
     1
290
     1
176
     1
290
     0
176
     1
290
     0
176
     1
290
     0
176
     1
290
     0
176
     1
290
     0
176
     1
290
     0
176
     1
 90
       50
176
     1
 40
0.0
176
     1
 40
1.0
176
     1
 90
        0
176
     1
 62
    18
420
        0
176
     1
 90
       50
176
     1
 90
        3
176
     1
 62
     5
420
      255
176
     1
290
     0
176
     1
 90
       50
176
     1
 90
       50
176
     1
 90
       50
176
     1
290
     0
176
     1
 90
       50
176
     1
 62
   256
176
     0
 40
1.0
176
     0
 90
        2
176
     1
  1
strokes_ogs.tif
176
     1
290
     0
176
     1
 40
1.0
176
     1
 40
1.0
176
     1
1001
ACAD
1000
AcDbSavedByObjectVersion
1070
     0
  0
VISUALSTYLE
  5
869B
102
{ACAD_REACTORS
330
8688
102
}
330
8688
100
AcDbVisualStyle
  2
X-Ray
 70
    25
177
     3
291
     0
 70
    58
 90
        2
176
     1
 90
        2
176
     1
 90
        1
176
     1
 90
        1
176
     1
 40
0.5
176
     1
 40
30.0
176
     1
 62
     7
420
 16777215
176
     1
 90
        1
176
     1
 90
        0
176
     1
 62
     7
176
     1
 62
   257
176
     1
 90
        1
176
     1
 90
        1
176
     1
 40
1.0
176
     1
 90
        8
176
     1
 62
     7
176
     1
 40
1.0
176
     1
 90
        1
176
     1
 90
        6
176
     1
 90
        2
176
     1
 62
     7
176
     1
 90
        3
176
     1
 90
        0
176
     1
 90
        0
176
     1
290
     0
176
     1
 90
       13
176
     1
 40
0.0
176
     1
 90
        0
176
     1
290
     0
176
     1
290
     1
176
     1
290
     1
176
     1
290
     0
176
     1
290
     0
176
     1
290
     0
176
     1
290
     0
176
     1
290
     0
176
     1
290
     0
176
     1
 90
       50
176
     1
 40
0.0
176
     1
 40
1.0
176
     1
 90
        0
176
     1
 62
    18
420
        0
176
     1
 90
       50
176
     1
 90
        3
176
     1
 62
     5
420
      255
176
     1
290
     0
176
     1
 90
       50
176
     1
 90
       50
176
     1
 90
       50
176
     1
290
     0
176
     1
 90
       50
176
     1
 62
   256
176
     0
 40
1.0
176
     0
 90
        2
176
     1
  1
strokes_ogs.tif
176
     1
290
     0
176
     1
 40
1.0
176
     1
 40
1.0
176
     1
1001
ACAD
1000
AcDbSavedByObjectVersion
1070
     0
  0
DICTIONARYVAR
  5
874B
102
{ACAD_REACTORS
330
8666
102
}
330
8666
100
DictionaryVariables
280
     0
  1
1:1
  0
DICTIONARYVAR
  5
8747
102
{ACAD_REACTORS
330
8666
102
}
330
8666
100
DictionaryVariables
280
     0
  1
STANDARD
  0
DICTIONARYVAR
  5
8746
102
{ACAD_REACTORS
330
8666
102
}
330
8666
100
DictionaryVariables
280
     0
  1
STANDARD
  0
DICTIONARYVAR
  5
8748
102
{ACAD_REACTORS
330
8666
102
}
330
8666
100
DictionaryVariables
280
     0
  1
Metric50
  0
DICTIONARYVAR
  5
8749
102
{ACAD_REACTORS
330
8666
102
}
330
8666
100
DictionaryVariables
280
     0
  1
Metric50
  0
DICTIONARYVAR
  5
8667
102
{ACAD_REACTORS
330
8666
102
}
330
8666
100
DictionaryVariables
280
     0
  1
1
  0
DICTIONARYVAR
  5
874D
102
{ACAD_REACTORS
330
8666
102
}
330
8666
100
DictionaryVariables
280
     0
  1
1
  0
DICTIONARYVAR
  5
874E
102
{ACAD_REACTORS
330
8666
102
}
330
8666
100
DictionaryVariables
280
     0
  1
15
  0
DICTIONARYVAR
  5
874C
102
{ACAD_REACTORS
330
8666
102
}
330
8666
100
DictionaryVariables
280
     0
  1
0
  0
DICTIONARYVAR
  5
8753
102
{ACAD_REACTORS
330
8666
102
}
330
8666
100
DictionaryVariables
280
     0
  1
0
  0
DICTIONARYVAR
  5
874A
102
{ACAD_REACTORS
330
8666
102
}
330
8666
100
DictionaryVariables
280
     0
  1
0
  0
DICTIONARY
  5
875E
102
{ACAD_REACTORS
330
875C
102
}
330
875C
100
AcDbDictionary
281
     1
  0
DICTIONARY
  5
875D
102
{ACAD_REACTORS
330
875C
102
}
330
875C
100
AcDbDictionary
281
     1
  3
2045040278000
350
8757
  3
2045040278016
350
8758
  3
2045040278032
350
8759
  3
2045040278048
350
875A
  3
2045040278064
350
875B
  0
DICTIONARY
  5
8761
330
86BB
100
AcDbDictionary
280
     1
281
     1
  3
ACAD_XREC_ROUNDTRIP
360
8762
  0
DICTIONARY
  5
8679
330
8678
100
AcDbDictionary
280
     1
281
     1
  3
BUMPTILE
360
867B
  3
DIFFUSETILE
360
867A
  3
OPACITYTILE
360
867E
  3
REFLECTIONTILE
360
867D
  3
REFRACTIONTILE
360
867F
  3
SPECULARTILE
360
867C
  0
DICTIONARY
  5
8671
330
8670
100
AcDbDictionary
280
     1
281
     1
  3
BUMPTILE
360
8673
  3
DIFFUSETILE
360
8672
  3
OPACITYTILE
360
8676
  3
REFLECTIONTILE
360
8675
  3
REFRACTIONTILE
360
8677
  3
SPECULARTILE
360
8674
  0
DICTIONARY
  5
8681
330
8680
100
AcDbDictionary
280
     1
281
     1
  3
BUMPTILE
360
8683
  3
DIFFUSETILE
360
8682
  3
OPACITYTILE
360
8686
  3
REFLECTIONTILE
360
8685
  3
REFRACTIONTILE
360
8687
  3
SPECULARTILE
360
8684
  0
DICTIONARY
  5
875F
330
86B9
100
AcDbDictionary
280
     1
281
     1
  3
ACAD_XREC_ROUNDTRIP
360
8760
  0
DICTIONARY
  5
8754
330
86A3
100
AcDbDictionary
280
     1
281
     1
  3
ACAD_ROUNDTRIP_2008_TABLESTYLE_CELLSTYLEMAP
360
8755
  0
XRECORD
  5
8757
102
{ACAD_REACTORS
330
875D
102
}
330
875D
100
AcDbXrecord
280
     1
  1
AcDb_Thumbnail_Schema
102
{ATTRRECORD
341
8758
  2
AcDbDs::TreatedAsObjectData
280
     1
291
     1
102
ATTRRECORD}
102
{ATTRRECORD
341
8759
  2
AcDbDs::Legacy
280
     1
291
     1
102
ATTRRECORD}
  2
AcDbDs::ID
280
    10
 91
        8
102
{ATTRRECORD
341
875A
  2
AcDs:Indexable
280
     1
291
     1
102
ATTRRECORD}
102
{ATTRRECORD
341
875B
  2
AcDbDs::HandleAttribute
280
     7
282
     1
102
ATTRRECORD}
  2
Thumbnail_Data
280
    15
 91
        0
  0
XRECORD
  5
8758
102
{ACAD_REACTORS
330
875D
102
}
330
875D
100
AcDbXrecord
280
     1
  1
AcDbDs::TreatedAsObjectDataSchema
  2
AcDbDs::TreatedAsObjectData
280
     1
 91
        0
  0
XRECORD
  5
8759
102
{ACAD_REACTORS
330
875D
102
}
330
875D
100
AcDbXrecord
280
     1
  1
AcDbDs::LegacySchema
  2
AcDbDs::Legacy
280
     1
 91
        0
  0
XRECORD
  5
875A
102
{ACAD_REACTORS
330
875D
102
}
330
875D
100
AcDbXrecord
280
     1
  1
AcDbDs::IndexedPropertySchema
  2
AcDs:Indexable
280
     1
 91
        0
  0
XRECORD
  5
875B
102
{ACAD_REACTORS
330
875D
102
}
330
875D
100
AcDbXrecord
280
     1
  1
AcDbDs::HandleAttributeSchema
  2
AcDbDs::HandleAttribute
280
     7
 91
        1
284
     1
  0
XRECORD
  5
8762
102
{ACAD_REACTORS
330
8761
102
}
330
8761
100
AcDbXrecord
280
     1
102
DISPLAYNAME
  1
Metric50
102
FLAGS
 90
        0
  0
XRECORD
  5
867B
102
{ACAD_REACTORS
330
8679
102
}
330
8679
100
AcDbXrecord
280
     1
270
     1
271
     1
  0
XRECORD
  5
867A
102
{ACAD_REACTORS
330
8679
102
}
330
8679
100
AcDbXrecord
280
     1
270
     1
271
     1
  0
XRECORD
  5
867E
102
{ACAD_REACTORS
330
8679
102
}
330
8679
100
AcDbXrecord
280
     1
270
     1
271
     1
  0
XRECORD
  5
867D
102
{ACAD_REACTORS
330
8679
102
}
330
8679
100
AcDbXrecord
280
     1
270
     1
271
     1
  0
XRECORD
  5
867F
102
{ACAD_REACTORS
330
8679
102
}
330
8679
100
AcDbXrecord
280
     1
270
     1
271
     1
  0
XRECORD
  5
867C
102
{ACAD_REACTORS
330
8679
102
}
330
8679
100
AcDbXrecord
280
     1
270
     1
271
     1
  0
XRECORD
  5
8673
102
{ACAD_REACTORS
330
8671
102
}
330
8671
100
AcDbXrecord
280
     1
270
     1
271
     1
  0
XRECORD
  5
8672
102
{ACAD_REACTORS
330
8671
102
}
330
8671
100
AcDbXrecord
280
     1
270
     1
271
     1
  0
XRECORD
  5
8676
102
{ACAD_REACTORS
330
8671
102
}
330
8671
100
AcDbXrecord
280
     1
270
     1
271
     1
  0
XRECORD
  5
8675
102
{ACAD_REACTORS
330
8671
102
}
330
8671
100
AcDbXrecord
280
     1
270
     1
271
     1
  0
XRECORD
  5
8677
102
{ACAD_REACTORS
330
8671
102
}
330
8671
100
AcDbXrecord
280
     1
270
     1
271
     1
  0
XRECORD
  5
8674
102
{ACAD_REACTORS
330
8671
102
}
330
8671
100
AcDbXrecord
280
     1
270
     1
271
     1
  0
XRECORD
  5
8683
102
{ACAD_REACTORS
330
8681
102
}
330
8681
100
AcDbXrecord
280
     1
270
     1
271
     1
  0
XRECORD
  5
8682
102
{ACAD_REACTORS
330
8681
102
}
330
8681
100
AcDbXrecord
280
     1
270
     1
271
     1
  0
XRECORD
  5
8686
102
{ACAD_REACTORS
330
8681
102
}
330
8681
100
AcDbXrecord
280
     1
270
     1
271
     1
  0
XRECORD
  5
8685
102
{ACAD_REACTORS
330
8681
102
}
330
8681
100
AcDbXrecord
280
     1
270
     1
271
     1
  0
XRECORD
  5
8687
102
{ACAD_REACTORS
330
8681
102
}
330
8681
100
AcDbXrecord
280
     1
270
     1
271
     1
  0
XRECORD
  5
8684
102
{ACAD_REACTORS
330
8681
102
}
330
8681
100
AcDbXrecord
280
     1
270
     1
271
     1
  0
XRECORD
  5
8760
102
{ACAD_REACTORS
330
875F
102
}
330
875F
100
AcDbXrecord
280
     1
102
DISPLAYNAME
  1
Metric50
102
FLAGS
 90
        0
  0
CELLSTYLEMAP
  5
8755
102
{ACAD_REACTORS
330
8754
102
}
330
8754
100
AcDbCellStyleMap
 90
        3
300
CELLSTYLE
  1
TABLEFORMAT_BEGIN
 90
        5
170
     1
 91
        0
 92
    32768
 62
   257
 93
        1
300
CONTENTFORMAT
  1
CONTENTFORMAT_BEGIN
 90
        0
 91
        0
 92
      512
 93
        0
300

 40
0.0
140
1.0
 94
        5
 62
     0
340
10
144
6.0
309
CONTENTFORMAT_END
171
     1
301
MARGIN
  1
CELLMARGIN_BEGIN
 40
1.5
 40
1.5
 40
1.5
 40
1.5
 40
4.5
 40
4.5
309
CELLMARGIN_END
 94
        6
 95
        1
302
GRIDFORMAT
  1
GRIDFORMAT_BEGIN
 90
        0
 91
        1
 62
     0
 92
       -2
340
0
 93
        0
 40
1.125
309
GRIDFORMAT_END
 95
        2
302
GRIDFORMAT
  1
GRIDFORMAT_BEGIN
 90
        0
 91
        1
 62
     0
 92
       -2
340
0
 93
        0
 40
1.125
309
GRIDFORMAT_END
 95
        4
302
GRIDFORMAT
  1
GRIDFORMAT_BEGIN
 90
        0
 91
        1
 62
     0
 92
       -2
340
0
 93
        0
 40
1.125
309
GRIDFORMAT_END
 95
        8
302
GRIDFORMAT
  1
GRIDFORMAT_BEGIN
 90
        0
 91
        1
 62
     0
 92
       -2
340
0
 93
        0
 40
1.125
309
GRIDFORMAT_END
 95
       16
302
GRIDFORMAT
  1
GRIDFORMAT_BEGIN
 90
        0
 91
        1
 62
     0
 92
       -2
340
0
 93
        0
 40
1.125
309
GRIDFORMAT_END
 95
       32
302
GRIDFORMAT
  1
GRIDFORMAT_BEGIN
 90
        0
 91
        1
 62
     0
 92
       -2
340
0
 93
        0
 40
1.125
309
GRIDFORMAT_END
309
TABLEFORMAT_END
  1
CELLSTYLE_BEGIN
 90
        1
 91
        1
300
_TITLE
309
CELLSTYLE_END
300
CELLSTYLE
  1
TABLEFORMAT_BEGIN
 90
        5
170
     1
 91
        0
 92
        0
 62
   257
 93
        1
300
CONTENTFORMAT
  1
CONTENTFORMAT_BEGIN
 90
        0
 91
        0
 92
      512
 93
        0
300

 40
0.0
140
1.0
 94
        5
 62
     0
340
10
144
4.5
309
CONTENTFORMAT_END
171
     1
301
MARGIN
  1
CELLMARGIN_BEGIN
 40
1.5
 40
1.5
 40
1.5
 40
1.5
 40
4.5
 40
4.5
309
CELLMARGIN_END
 94
        6
 95
        1
302
GRIDFORMAT
  1
GRIDFORMAT_BEGIN
 90
        0
 91
        1
 62
     0
 92
       -2
340
0
 93
        0
 40
1.125
309
GRIDFORMAT_END
 95
        2
302
GRIDFORMAT
  1
GRIDFORMAT_BEGIN
 90
        0
 91
        1
 62
     0
 92
       -2
340
0
 93
        0
 40
1.125
309
GRIDFORMAT_END
 95
        4
302
GRIDFORMAT
  1
GRIDFORMAT_BEGIN
 90
        0
 91
        1
 62
     0
 92
       -2
340
0
 93
        0
 40
1.125
309
GRIDFORMAT_END
 95
        8
302
GRIDFORMAT
  1
GRIDFORMAT_BEGIN
 90
        0
 91
        1
 62
     0
 92
       -2
340
0
 93
        0
 40
1.125
309
GRIDFORMAT_END
 95
       16
302
GRIDFORMAT
  1
GRIDFORMAT_BEGIN
 90
        0
 91
        1
 62
     0
 92
       -2
340
0
 93
        0
 40
1.125
309
GRIDFORMAT_END
 95
       32
302
GRIDFORMAT
  1
GRIDFORMAT_BEGIN
 90
        0
 91
        1
 62
     0
 92
       -2
340
0
 93
        0
 40
1.125
309
GRIDFORMAT_END
309
TABLEFORMAT_END
  1
CELLSTYLE_BEGIN
 90
        2
 91
        1
300
_HEADER
309
CELLSTYLE_END
300
CELLSTYLE
  1
TABLEFORMAT_BEGIN
 90
        5
170
     1
 91
        0
 92
        0
 62
   257
 93
        1
300
CONTENTFORMAT
  1
CONTENTFORMAT_BEGIN
 90
        0
 91
        0
 92
      512
 93
        0
300

 40
0.0
140
1.0
 94
        2
 62
     0
340
10
144
4.5
309
CONTENTFORMAT_END
171
     1
301
MARGIN
  1
CELLMARGIN_BEGIN
 40
1.5
 40
1.5
 40
1.5
 40
1.5
 40
4.5
 40
4.5
309
CELLMARGIN_END
 94
        6
 95
        1
302
GRIDFORMAT
  1
GRIDFORMAT_BEGIN
 90
        0
 91
        1
 62
     0
 92
       -2
340
0
 93
        0
 40
1.125
309
GRIDFORMAT_END
 95
        2
302
GRIDFORMAT
  1
GRIDFORMAT_BEGIN
 90
        0
 91
        1
 62
     0
 92
       -2
340
0
 93
        0
 40
1.125
309
GRIDFORMAT_END
 95
        4
302
GRIDFORMAT
  1
GRIDFORMAT_BEGIN
 90
        0
 91
        1
 62
     0
 92
       -2
340
0
 93
        0
 40
1.125
309
GRIDFORMAT_END
 95
        8
302
GRIDFORMAT
  1
GRIDFORMAT_BEGIN
 90
        0
 91
        1
 62
     0
 92
       -2
340
0
 93
        0
 40
1.125
309
GRIDFORMAT_END
 95
       16
302
GRIDFORMAT
  1
GRIDFORMAT_BEGIN
 90
        0
 91
        1
 62
     0
 92
       -2
340
0
 93
        0
 40
1.125
309
GRIDFORMAT_END
 95
       32
302
GRIDFORMAT
  1
GRIDFORMAT_BEGIN
 90
        0
 91
        1
 62
     0
 92
       -2
340
0
 93
        0
 40
1.125
309
GRIDFORMAT_END
309
TABLEFORMAT_END
  1
CELLSTYLE_BEGIN
 90
        3
 91
        2
300
_DATA
309
CELLSTYLE_END
  0
ENDSEC
  0
SECTION
  2
ACDSDATA
 70
     2
 71
     8
  0
ACDSSCHEMA
 90
        0
  1
AcDb_Thumbnail_Schema
  2
AcDbDs::ID
280
    10
 91
        8
  2
Thumbnail_Data
280
    15
 91
        0
101
ACDSRECORD
 95
        0
 90
        1
  2
AcDbDs::TreatedAsObjectData
280
     1
291
     1
101
ACDSRECORD
 95
        0
 90
        2
  2
AcDbDs::Legacy
280
     1
291
     1
101
ACDSRECORD
  1
AcDbDs::ID
 90
        3
  2
AcDs:Indexable
280
     1
291
     1
101
ACDSRECORD
  1
AcDbDs::ID
 90
        4
  2
AcDbDs::HandleAttribute
280
     7
282
     1
  0
ACDSSCHEMA
 90
        1
  1
AcDbDs::TreatedAsObjectDataSchema
  2
AcDbDs::TreatedAsObjectData
280
     1
 91
        0
  0
ACDSSCHEMA
 90
        2
  1
AcDbDs::LegacySchema
  2
AcDbDs::Legacy
280
     1
 91
        0
  0
ACDSSCHEMA
 90
        3
  1
AcDbDs::IndexedPropertySchema
  2
AcDs:Indexable
280
     1
 91
        0
  0
ACDSSCHEMA
 90
        4
  1
AcDbDs::HandleAttributeSchema
  2
AcDbDs::HandleAttribute
280
     7
 91
        1
284
     1
  0
ACDSRECORD
 90
        0
  2
AcDbDs::ID
280
    10
320
85A8
  2
Thumbnail_Data
280
    15
 94
     1723
310
89504E470D0A1A0A0000000D49484452000001000000007C0803000000B13B9E5A00000300504C5445000000000000C8C8C80000000000000000000000000000000000000000000000000000330000660000990000CC0000FF0033000033330033660033990033CC0033FF0066000066330066660066990066CC0066FF0099
310
000099330099660099990099CC0099FF00CC0000CC3300CC6600CC9900CCCC00CCFF00FF0000FF3300FF6600FF9900FFCC00FFFF3300003300333300663300993300CC3300FF3333003333333333663333993333CC3333FF3366003366333366663366993366CC3366FF3399003399333399663399993399CC3399FF33CC00
310
33CC3333CC6633CC9933CCCC33CCFF33FF0033FF3333FF6633FF9933FFCC33FFFF6600006600336600666600996600CC6600FF6633006633336633666633996633CC6633FF6666006666336666666666996666CC6666FF6699006699336699666699996699CC6699FF66CC0066CC3366CC6666CC9966CCCC66CCFF66FF0066
310
FF3366FF6666FF9966FFCC66FFFF9900009900339900669900999900CC9900FF9933009933339933669933999933CC9933FF9966009966339966669966999966CC9966FF9999009999339999669999999999CC9999FF99CC0099CC3399CC6699CC9999CCCC99CCFF99FF0099FF3399FF6699FF9999FFCC99FFFFCC0000CC00
310
33CC0066CC0099CC00CCCC00FFCC3300CC3333CC3366CC3399CC33CCCC33FFCC6600CC6633CC6666CC6699CC66CCCC66FFCC9900CC9933CC9966CC9999CC99CCCC99FFCCCC00CCCC33CCCC66CCCC99CCCCCCCCCCFFCCFF00CCFF33CCFF66CCFF99CCFFCCCCFFFFFF0000FF0033FF0066FF0099FF00CCFF00FFFF3300FF3333
310
FF3366FF3399FF33CCFF33FFFF6600FF6633FF6666FF6699FF66CCFF66FFFF9900FF9933FF9966FF9999FF99CCFF99FFFFCC00FFCC33FFCC66FFCC99FFCCCCFFCCFFFFFF00FFFF33FFFF66FFFF99FFFFCCFFFFFF0000000D0D0D1A1A1A2828283535354343435050505D5D5D6B6B6B787878868686939393A1A1A1AEAEAEBB
310
BBBBC9C9C9D6D6D6E4E4E4F1F1F1FFFFFF00000000000000000000000000000000000000000000000000000000000008F1915C000003764944415478DAED9D6972EB200C80751CFEE8FE97E11AFEFF12162164D94D3A796DB5D0199B3838137DD6C6520290E5F3E5F84FC50E00531F9B0012400248007FE89BDEF8FE2800C4
310
ED47480D48009101C04EC036808F26C02601FCB10F4B00BF00E06856CDCC01D89947BD637304AE009CAC9A43186E8FB51D67E8177D68C01259A218721E40206628A0BBBD680070FDA7673D1A09136017D30926804C848CA7C267812816C8E0D7C53D56D5C578C01580E505B76ED08A19DE018002003C02F8D8FD392698008C
310
02A88FB2BDA87100D4BB1203C0AAC22E7210009BC8C232A2022809202200D4CA9B9ED03680F56E61D712002480049000124002080BA0FA06F0CC7328E929E782C53D80F5E0636A002480A1FF3101D406E02930C68C020920010407001B00AD4402C00AE28A8CFE13A18B4200AA6F002C15D64704FD0F89D1F3661630AEC418
310
15BE318178F302A28403204D3E018400107D7AFC1B85B1119CCC0378E9B173A12BB802F0B5DEB77767AB5AE71DF326773EA0EA882E1BDA5F1F40B2F44ABDCB0C382017009AC4F3B069B600C018CDD74E00BC60025BC342CD7C0038D72E00C891239F00567FB82AEFF4B924EA39B902B0BA834DB2AAA0D935C017803E44C624
310
53004C0465347204A04BF6258031865CE8851700B83BB71B00ED50A8EE15C088701A80279D324CC10D00E1DC00AB4C081980C799DA3901802208BC0E60C64A1751E0F1576084C13B00C204FC001861B02D1978C7093A01805B7C4739E2F11C44BF08833E0020AE799191E36E00B0DBC83911F2E103D8B4085E0040443515B6
310
0E80160A35010B0C153875869AF85A67C83480AEF185160B3E0EAD32BB83C00114654521FD63854D00381F2B3978328141489A801C0FC09E335A9F1D46DED5876B00780680B601348D67D20FEFDE1D4115001E06A26800180E833DA3DBE6C50B30051000403501DB0078EC03F2EE53AE977C0040B50E80F260A088083A00C5
310
0798EE0CDDAC113A3BC17D355DD91A1A0580EC495ED9F6064069079601D4ED498ED561DB2A31B168426987D532003A2F41EB98F8D3268AE7F4306F07A601BCB942E4B6A1F10D14E4B50B00E7AA6900163E360124800490001240024800092001FCC8378DB8A9EA2580D724F306003400DB3576149B8EFAD500B1DD38DF82DE
310
3380983E00D6EEC17AFBC3B90FD04D60EE24DC2BDB2F2CC403207E69277D4066820920012480049000124002B004C0D02F4FFF0313B528725FAC321C0000000049454E44AE426082
  0
ENDSEC
  0
EOF
